  0
SECTION
  2
HEADER
  9
$ACADVER
  1
AC1015
  9
$ACADMAINTVER
 70
    20
  9
$DWGCODEPAGE
  3
ANSI_932
  9
$INSBASE
 10
0.0
 20
0.0
 30
0.0
  9
$EXTMIN
 10
104.0
 20
4.0
 30
0.0
  9
$EXTMAX
 10
2784.0
 20
2024.0
 30
0.0
  9
$LIMMIN
 10
0.0
 20
0.0
  9
$LIMMAX
 10
29700.0
 20
21000.0
  9
$ORTHOMODE
 70
     1
  9
$REGENMODE
 70
     1
  9
$FILLMODE
 70
     1
  9
$QTEXTMODE
 70
     0
  9
$MIRRTEXT
 70
     1
  9
$LTSCALE
 40
4.0
  9
$ATTMODE
 70
     1
  9
$TEXTSIZE
 40
35.0
  9
$TRACEWID
 40
1.0
  9
$TEXTSTYLE
  7
Standard
  9
$CLAYER
  8
実形
  9
$CELTYPE
  6
ByLayer
  9
$CECOLOR
 62
     3
  9
$CELTSCALE
 40
1.0
  9
$DISPSILH
 70
     0
  9
$DIMSCALE
 40
1.0
  9
$DIMASZ
 40
35.0
  9
$DIMEXO
 40
65.0
  9
$DIMDLI
 40
3.75
  9
$DIMRND
 40
0.0
  9
$DIMDLE
 40
0.0
  9
$DIMEXE
 40
0.0
  9
$DIMTP
 40
0.0
  9
$DIMTM
 40
0.0
  9
$DIMTXT
 40
25.0
  9
$DIMCEN
 40
2.5
  9
$DIMTSZ
 40
0.0
  9
$DIMTOL
 70
     0
  9
$DIMLIM
 70
     0
  9
$DIMTIH
 70
     0
  9
$DIMTOH
 70
     0
  9
$DIMSE1
 70
     0
  9
$DIMSE2
 70
     0
  9
$DIMTAD
 70
     1
  9
$DIMZIN
 70
     8
  9
$DIMBLK
  1
DotSmall
  9
$DIMASO
 70
     1
  9
$DIMSHO
 70
     1
  9
$DIMPOST
  1

  9
$DIMAPOST
  1

  9
$DIMALT
 70
     0
  9
$DIMALTD
 70
     3
  9
$DIMALTF
 40
0.03937007874016
  9
$DIMLFAC
 40
1.0
  9
$DIMTOFL
 70
     1
  9
$DIMTVP
 40
0.0
  9
$DIMTIX
 70
     0
  9
$DIMSOXD
 70
     0
  9
$DIMSAH
 70
     0
  9
$DIMBLK1
  1

  9
$DIMBLK2
  1

  9
$DIMSTYLE
  2
ISO-25
  9
$DIMCLRD
 70
     0
  9
$DIMCLRE
 70
     0
  9
$DIMCLRT
 70
     0
  9
$DIMTFAC
 40
1.0
  9
$DIMGAP
 40
6.25
  9
$DIMJUST
 70
     0
  9
$DIMSD1
 70
     0
  9
$DIMSD2
 70
     0
  9
$DIMTOLJ
 70
     0
  9
$DIMTZIN
 70
     8
  9
$DIMALTZ
 70
     0
  9
$DIMALTTZ
 70
     0
  9
$DIMUPT
 70
     0
  9
$DIMDEC
 70
     2
  9
$DIMTDEC
 70
     2
  9
$DIMALTU
 70
     2
  9
$DIMALTTD
 70
     3
  9
$DIMTXSTY
  7
Standard
  9
$DIMAUNIT
 70
     0
  9
$DIMADEC
 70
     0
  9
$DIMALTRND
 40
0.0
  9
$DIMAZIN
 70
     0
  9
$DIMDSEP
 70
    46
  9
$DIMATFIT
 70
     2
  9
$DIMFRAC
 70
     0
  9
$DIMLDRBLK
  1
Open30
  9
$DIMLUNIT
 70
     2
  9
$DIMLWD
 70
    15
  9
$DIMLWE
 70
    15
  9
$DIMTMOVE
 70
     2
  9
$LUNITS
 70
     2
  9
$LUPREC
 70
     2
  9
$SKETCHINC
 40
1.0
  9
$FILLETRAD
 40
5.0
  9
$AUNITS
 70
     0
  9
$AUPREC
 70
     0
  9
$MENU
  1
.
  9
$ELEVATION
 40
0.0
  9
$PELEVATION
 40
0.0
  9
$THICKNESS
 40
0.0
  9
$LIMCHECK
 70
     1
  9
$CHAMFERA
 40
10.0
  9
$CHAMFERB
 40
10.0
  9
$CHAMFERC
 40
20.0
  9
$CHAMFERD
 40
0.0
  9
$SKPOLY
 70
     0
  9
$TDCREATE
 40
2451673.575802199
  9
$TDUCREATE
 40
2451673.200802199
  9
$TDUPDATE
 40
2458813.754466736
  9
$TDUUPDATE
 40
2458813.379466736
  9
$TDINDWG
 40
1.0748330208
  9
$TDUSRTIMER
 40
1.0748323264
  9
$USRTIMER
 70
     1
  9
$ANGBASE
 50
0.0
  9
$ANGDIR
 70
     0
  9
$PDMODE
 70
     0
  9
$PDSIZE
 40
0.0
  9
$PLINEWID
 40
0.0
  9
$SPLFRAME
 70
     0
  9
$SPLINETYPE
 70
     6
  9
$SPLINESEGS
 70
     8
  9
$HANDSEED
  5
25D6
  9
$SURFTAB1
 70
     6
  9
$SURFTAB2
 70
     6
  9
$SURFTYPE
 70
     6
  9
$SURFU
 70
     6
  9
$SURFV
 70
     6
  9
$UCSBASE
  2

  9
$UCSNAME
  2

  9
$UCSORG
 10
0.0
 20
0.0
 30
0.0
  9
$UCSXDIR
 10
1.0
 20
0.0
 30
0.0
  9
$UCSYDIR
 10
0.0
 20
1.0
 30
0.0
  9
$UCSORTHOREF
  2

  9
$UCSORTHOVIEW
 70
     0
  9
$UCSORGTOP
 10
0.0
 20
0.0
 30
0.0
  9
$UCSORGBOTTOM
 10
0.0
 20
0.0
 30
0.0
  9
$UCSORGLEFT
 10
0.0
 20
0.0
 30
0.0
  9
$UCSORGRIGHT
 10
0.0
 20
0.0
 30
0.0
  9
$UCSORGFRONT
 10
0.0
 20
0.0
 30
0.0
  9
$UCSORGBACK
 10
0.0
 20
0.0
 30
0.0
  9
$PUCSBASE
  2

  9
$PUCSNAME
  2

  9
$PUCSORG
 10
0.0
 20
0.0
 30
0.0
  9
$PUCSXDIR
 10
1.0
 20
0.0
 30
0.0
  9
$PUCSYDIR
 10
0.0
 20
1.0
 30
0.0
  9
$PUCSORTHOREF
  2

  9
$PUCSORTHOVIEW
 70
     0
  9
$PUCSORGTOP
 10
0.0
 20
0.0
 30
0.0
  9
$PUCSORGBOTTOM
 10
0.0
 20
0.0
 30
0.0
  9
$PUCSORGLEFT
 10
0.0
 20
0.0
 30
0.0
  9
$PUCSORGRIGHT
 10
0.0
 20
0.0
 30
0.0
  9
$PUCSORGFRONT
 10
0.0
 20
0.0
 30
0.0
  9
$PUCSORGBACK
 10
0.0
 20
0.0
 30
0.0
  9
$USERI1
 70
     0
  9
$USERI2
 70
     0
  9
$USERI3
 70
     0
  9
$USERI4
 70
     0
  9
$USERI5
 70
     0
  9
$USERR1
 40
0.0
  9
$USERR2
 40
0.0
  9
$USERR3
 40
0.0
  9
$USERR4
 40
0.0
  9
$USERR5
 40
0.0
  9
$WORLDVIEW
 70
     1
  9
$SHADEDGE
 70
     3
  9
$SHADEDIF
 70
    70
  9
$TILEMODE
 70
     1
  9
$MAXACTVP
 70
    64
  9
$PINSBASE
 10
0.0
 20
0.0
 30
0.0
  9
$PLIMCHECK
 70
     0
  9
$PEXTMIN
 10
27.8447512626648
 20
20.24591643810271
 30
0.0
  9
$PEXTMAX
 10
250.6027613639831
 20
182.2132479429245
 30
0.0
  9
$PLIMMIN
 10
-3.757080078125
 20
-3.757083177566528
  9
$PLIMMAX
 10
293.2112426757813
 20
206.2162444591522
  9
$UNITMODE
 70
     0
  9
$VISRETAIN
 70
     1
  9
$PLINEGEN
 70
     0
  9
$PSLTSCALE
 70
     1
  9
$TREEDEPTH
 70
  3020
  9
$CMLSTYLE
  2
Standard
  9
$CMLJUST
 70
     0
  9
$CMLSCALE
 40
20.0
  9
$PROXYGRAPHICS
 70
     1
  9
$MEASUREMENT
 70
     1
  9
$CELWEIGHT
370
    -1
  9
$ENDCAPS
280
     0
  9
$JOINSTYLE
280
     0
  9
$LWDISPLAY
290
     0
  9
$INSUNITS
 70
     4
  9
$HYPERLINKBASE
  1

  9
$STYLESHEET
  1

  9
$XEDIT
290
     1
  9
$CEPSNTYPE
380
     0
  9
$PSTYLEMODE
290
     1
  9
$FINGERPRINTGUID
  2
{C8EA1F16-24C9-11D4-9416-CE0A3B32152F}
  9
$VERSIONGUID
  2
{7EDABFF3-D9B2-4D23-A925-F8486DCF1904}
  9
$EXTNAMES
290
     1
  9
$PSVPSCALE
 40
0.0
  9
$OLESTARTUP
290
     0
  0
ENDSEC
  0
SECTION
  2
CLASSES
  0
CLASS
  1
ACDBDICTIONARYWDFLT
  2
AcDbDictionaryWithDefault
  3
ObjectDBX Classes
 90
        0
280
     0
281
     0
  0
CLASS
  1
ACDBPLACEHOLDER
  2
AcDbPlaceHolder
  3
ObjectDBX Classes
 90
        0
280
     0
281
     0
  0
CLASS
  1
LAYOUT
  2
AcDbLayout
  3
ObjectDBX Classes
 90
        0
280
     0
281
     0
  0
CLASS
  1
DICTIONARYVAR
  2
AcDbDictionaryVar
  3
ObjectDBX Classes
 90
        0
280
     0
281
     0
  0
CLASS
  1
TABLESTYLE
  2
AcDbTableStyle
  3
ObjectDBX Classes
 90
     2047
280
     0
281
     0
  0
CLASS
  1
SORTENTSTABLE
  2
AcDbSortentsTable
  3
ObjectDBX Classes
 90
        0
280
     0
281
     0
  0
ENDSEC
  0
SECTION
  2
TABLES
  0
TABLE
  2
VPORT
  5
8
330
0
100
AcDbSymbolTable
 70
     2
  0
VPORT
  5
25CA
330
8
100
AcDbSymbolTableRecord
100
AcDbViewportTableRecord
  2
*Active
 70
     0
 10
0.0
 20
0.0
 11
1.0
 21
1.0
 12
1303.028622626995
 22
872.4949268296523
 13
0.0
 23
0.0
 14
10.0
 24
10.0
 15
10.0
 25
10.0
 16
0.0
 26
0.0
 36
1.0
 17
0.0
 27
0.0
 37
0.0
 40
2413.525168323742
 41
1.29038112522686
 42
50.0
 43
0.0
 44
0.0
 50
0.0
 51
0.0
 71
     0
 72
   100
 73
     1
 74
     3
 75
     0
 76
     0
 77
     0
 78
     0
281
     0
 65
     1
110
0.0
120
0.0
130
0.0
111
1.0
121
0.0
131
0.0
112
0.0
122
1.0
132
0.0
 79
     0
146
0.0
  0
ENDTAB
  0
TABLE
  2
LTYPE
  5
5
330
0
100
AcDbSymbolTable
 70
    46
  0
LTYPE
  5
14
330
5
100
AcDbSymbolTableRecord
100
AcDbLinetypeTableRecord
  2
ByBlock
 70
     0
  3

 72
    65
 73
     0
 40
0.0
  0
LTYPE
  5
15
330
5
100
AcDbSymbolTableRecord
100
AcDbLinetypeTableRecord
  2
ByLayer
 70
     0
  3

 72
    65
 73
     0
 40
0.0
  0
LTYPE
  5
16
330
5
100
AcDbSymbolTableRecord
100
AcDbLinetypeTableRecord
  2
Continuous
 70
     0
  3
Solid line
 72
    65
 73
     0
 40
0.0
  0
LTYPE
  5
34
330
5
100
AcDbSymbolTableRecord
100
AcDbLinetypeTableRecord
  2
ACAD_ISO02W100
 70
     0
  3
ISO dash __ __ __ __ __ __ __ __ __ __ __ __ __
 72
    65
 73
     2
 40
15.0
 49
12.0
 74
     0
 49
-3.0
 74
     0
  0
LTYPE
  5
35
330
5
100
AcDbSymbolTableRecord
100
AcDbLinetypeTableRecord
  2
ACAD_ISO03W100
 70
     0
  3
ISO dash space __    __    __    __    __    __
 72
    65
 73
     2
 40
30.0
 49
12.0
 74
     0
 49
-18.0
 74
     0
  0
LTYPE
  5
36
330
5
100
AcDbSymbolTableRecord
100
AcDbLinetypeTableRecord
  2
ACAD_ISO04W100
 70
     0
  3
ISO long-dash dot ____ . ____ . ____ . ____ . _
 72
    65
 73
     4
 40
30.0
 49
24.0
 74
     0
 49
-3.0
 74
     0
 49
0.0
 74
     0
 49
-3.0
 74
     0
  0
LTYPE
  5
37
330
5
100
AcDbSymbolTableRecord
100
AcDbLinetypeTableRecord
  2
ACAD_ISO05W100
 70
     0
  3
ISO long-dash double-dot ____ .. ____ .. ____ .
 72
    65
 73
     6
 40
34.0
 49
24.0
 74
     0
 49
-3.0
 74
     0
 49
0.5
 74
     0
 49
-3.0
 74
     0
 49
0.5
 74
     0
 49
-3.0
 74
     0
  0
LTYPE
  5
38
330
5
100
AcDbSymbolTableRecord
100
AcDbLinetypeTableRecord
  2
ACAD_ISO06W100
 70
     0
  3
ISO long-dash triple-dot ____ ... ____ ... ____
 72
    65
 73
     8
 40
37.5
 49
24.0
 74
     0
 49
-3.0
 74
     0
 49
0.5
 74
     0
 49
-3.0
 74
     0
 49
0.5
 74
     0
 49
-3.0
 74
     0
 49
0.5
 74
     0
 49
-3.0
 74
     0
  0
LTYPE
  5
39
330
5
100
AcDbSymbolTableRecord
100
AcDbLinetypeTableRecord
  2
ACAD_ISO07W100
 70
     0
  3
ISO dot . . . . . . . . . . . . . . . . . . . .
 72
    65
 73
     2
 40
3.0
 49
0.0
 74
     0
 49
-3.0
 74
     0
  0
LTYPE
  5
3A
330
5
100
AcDbSymbolTableRecord
100
AcDbLinetypeTableRecord
  2
ACAD_ISO08W100
 70
     0
  3
ISO long-dash short-dash ____ __ ____ __ ____ _
 72
    65
 73
     4
 40
36.0
 49
24.0
 74
     0
 49
-3.0
 74
     0
 49
6.0
 74
     0
 49
-3.0
 74
     0
  0
LTYPE
  5
3B
330
5
100
AcDbSymbolTableRecord
100
AcDbLinetypeTableRecord
  2
ACAD_ISO09W100
 70
     0
  3
ISO long-dash double-short-dash ____ __ __ ____
 72
    65
 73
     6
 40
45.0
 49
24.0
 74
     0
 49
-3.0
 74
     0
 49
6.0
 74
     0
 49
-3.0
 74
     0
 49
6.0
 74
     0
 49
-3.0
 74
     0
  0
LTYPE
  5
3C
330
5
100
AcDbSymbolTableRecord
100
AcDbLinetypeTableRecord
  2
ACAD_ISO10W100
 70
     0
  3
ISO dash dot __ . __ . __ . __ . __ . __ . __ .
 72
    65
 73
     4
 40
18.0
 49
12.0
 74
     0
 49
-3.0
 74
     0
 49
0.0
 74
     0
 49
-3.0
 74
     0
  0
LTYPE
  5
3D
330
5
100
AcDbSymbolTableRecord
100
AcDbLinetypeTableRecord
  2
ACAD_ISO11W100
 70
     0
  3
ISO double-dash dot __ __ . __ __ . __ __ . __ 
 72
    65
 73
     6
 40
33.0
 49
12.0
 74
     0
 49
-3.0
 74
     0
 49
12.0
 74
     0
 49
-3.0
 74
     0
 49
0.0
 74
     0
 49
-3.0
 74
     0
  0
LTYPE
  5
3E
330
5
100
AcDbSymbolTableRecord
100
AcDbLinetypeTableRecord
  2
ACAD_ISO12W100
 70
     0
  3
ISO dash double-dot __ . . __ . . __ . . __ . .
 72
    65
 73
     6
 40
21.0
 49
12.0
 74
     0
 49
-3.0
 74
     0
 49
0.0
 74
     0
 49
-3.0
 74
     0
 49
0.0
 74
     0
 49
-3.0
 74
     0
  0
LTYPE
  5
3F
330
5
100
AcDbSymbolTableRecord
100
AcDbLinetypeTableRecord
  2
ACAD_ISO13W100
 70
     0
  3
ISO double-dash double-dot __ __ . . __ __ . . 
 72
    65
 73
     8
 40
36.0
 49
12.0
 74
     0
 49
-3.0
 74
     0
 49
12.0
 74
     0
 49
-3.0
 74
     0
 49
0.0
 74
     0
 49
-3.0
 74
     0
 49
0.0
 74
     0
 49
-3.0
 74
     0
  0
LTYPE
  5
40
330
5
100
AcDbSymbolTableRecord
100
AcDbLinetypeTableRecord
  2
ACAD_ISO14W100
 70
     0
  3
ISO dash triple-dot __ . . . __ . . . __ . . . 
 72
    65
 73
     8
 40
24.0
 49
12.0
 74
     0
 49
-3.0
 74
     0
 49
0.0
 74
     0
 49
-3.0
 74
     0
 49
0.0
 74
     0
 49
-3.0
 74
     0
 49
0.0
 74
     0
 49
-3.0
 74
     0
  0
LTYPE
  5
41
330
5
100
AcDbSymbolTableRecord
100
AcDbLinetypeTableRecord
  2
ACAD_ISO15W100
 70
     0
  3
ISO double-dash triple-dot __ __ . . . __ __ . 
 72
    65
 73
    10
 40
39.0
 49
12.0
 74
     0
 49
-3.0
 74
     0
 49
12.0
 74
     0
 49
-3.0
 74
     0
 49
0.0
 74
     0
 49
-3.0
 74
     0
 49
0.0
 74
     0
 49
-3.0
 74
     0
 49
0.0
 74
     0
 49
-3.0
 74
     0
  0
LTYPE
  5
42
330
5
100
AcDbSymbolTableRecord
100
AcDbLinetypeTableRecord
  2
BATTING
 70
     0
  3
Batting SSSSSSSSSSSSSSSSSSSSSSSSSSSSSSSSSSSSSSS
 72
    65
 73
     4
 40
10.16254
 49
0.00254
 74
     0
 49
-2.54
 74
     4
 75
   134
340
33
 46
2.54
 50
0.0
 44
-2.54
 45
0.0
 49
-5.08
 74
     4
 75
   134
340
33
 46
2.54
 50
180.0
 44
2.54
 45
0.0
 49
-2.54
 74
     0
  0
LTYPE
  5
43
330
5
100
AcDbSymbolTableRecord
100
AcDbLinetypeTableRecord
  2
BORDER
 70
     0
  3
Border __ __ . __ __ . __ __ . __ __ . __ __ .
 72
    65
 73
     6
 40
44.45
 49
12.7
 74
     0
 49
-6.349999999999999
 74
     0
 49
12.7
 74
     0
 49
-6.349999999999999
 74
     0
 49
0.0
 74
     0
 49
-6.349999999999999
 74
     0
  0
LTYPE
  5
44
330
5
100
AcDbSymbolTableRecord
100
AcDbLinetypeTableRecord
  2
BORDER2
 70
     0
  3
Border (.5x) __.__.__.__.__.__.__.__.__.__.__.
 72
    65
 73
     6
 40
22.225
 49
6.349999999999999
 74
     0
 49
-3.174999999999999
 74
     0
 49
6.349999999999999
 74
     0
 49
-3.174999999999999
 74
     0
 49
0.0
 74
     0
 49
-3.174999999999999
 74
     0
  0
LTYPE
  5
45
330
5
100
AcDbSymbolTableRecord
100
AcDbLinetypeTableRecord
  2
BORDERX2
 70
     0
  3
Border (2x) ____  ____  .  ____  ____  .  ___
 72
    65
 73
     6
 40
88.9
 49
25.4
 74
     0
 49
-12.7
 74
     0
 49
25.4
 74
     0
 49
-12.7
 74
     0
 49
0.0
 74
     0
 49
-12.7
 74
     0
  0
LTYPE
  5
46
330
5
100
AcDbSymbolTableRecord
100
AcDbLinetypeTableRecord
  2
CENTER
 70
     0
  3
Center ____ _ ____ _ ____ _ ____ _ ____ _ ____
 72
    65
 73
     4
 40
50.8
 49
31.75
 74
     0
 49
-6.349999999999999
 74
     0
 49
6.349999999999999
 74
     0
 49
-6.349999999999999
 74
     0
  0
LTYPE
  5
47
330
5
100
AcDbSymbolTableRecord
100
AcDbLinetypeTableRecord
  2
CENTER2
 70
     0
  3
Center (.5x) ___ _ ___ _ ___ _ ___ _ ___ _ ___
 72
    65
 73
     4
 40
28.575
 49
19.05
 74
     0
 49
-3.174999999999999
 74
     0
 49
3.174999999999999
 74
     0
 49
-3.174999999999999
 74
     0
  0
LTYPE
  5
48
330
5
100
AcDbSymbolTableRecord
100
AcDbLinetypeTableRecord
  2
CENTERX2
 70
     0
  3
Center (2x) ________  __  ________  __  _____
 72
    65
 73
     4
 40
101.6
 49
63.5
 74
     0
 49
-12.7
 74
     0
 49
12.7
 74
     0
 49
-12.7
 74
     0
  0
LTYPE
  5
49
330
5
100
AcDbSymbolTableRecord
100
AcDbLinetypeTableRecord
  2
DASHDOT
 70
     0
  3
Dash dot __ . __ . __ . __ . __ . __ . __ . __
 72
    65
 73
     4
 40
25.4
 49
12.7
 74
     0
 49
-6.349999999999999
 74
     0
 49
0.0
 74
     0
 49
-6.349999999999999
 74
     0
  0
LTYPE
  5
4A
330
5
100
AcDbSymbolTableRecord
100
AcDbLinetypeTableRecord
  2
DASHDOT2
 70
     0
  3
Dash dot (.5x) _._._._._._._._._._._._._._._.
 72
    65
 73
     4
 40
12.7
 49
6.349999999999999
 74
     0
 49
-3.174999999999999
 74
     0
 49
0.0
 74
     0
 49
-3.174999999999999
 74
     0
  0
LTYPE
  5
4B
330
5
100
AcDbSymbolTableRecord
100
AcDbLinetypeTableRecord
  2
DASHDOTX2
 70
     0
  3
Dash dot (2x) ____  .  ____  .  ____  .  ___
 72
    65
 73
     4
 40
50.8
 49
25.4
 74
     0
 49
-12.7
 74
     0
 49
0.0
 74
     0
 49
-12.7
 74
     0
  0
LTYPE
  5
4C
330
5
100
AcDbSymbolTableRecord
100
AcDbLinetypeTableRecord
  2
DASHED
 70
     0
  3
Dashed __ __ __ __ __ __ __ __ __ __ __ __ __ _
 72
    65
 73
     2
 40
19.05
 49
12.7
 74
     0
 49
-6.349999999999999
 74
     0
  0
LTYPE
  5
4D
330
5
100
AcDbSymbolTableRecord
100
AcDbLinetypeTableRecord
  2
DASHED2
 70
     0
  3
Dashed (.5x) _ _ _ _ _ _ _ _ _ _ _ _ _ _ _ _ _
 72
    65
 73
     2
 40
9.524999999999998
 49
6.349999999999999
 74
     0
 49
-3.174999999999999
 74
     0
  0
LTYPE
  5
4E
330
5
100
AcDbSymbolTableRecord
100
AcDbLinetypeTableRecord
  2
DASHEDX2
 70
     0
  3
Dashed (2x) ____  ____  ____  ____  ____  ___
 72
    65
 73
     2
 40
38.1
 49
25.4
 74
     0
 49
-12.7
 74
     0
  0
LTYPE
  5
4F
330
5
100
AcDbSymbolTableRecord
100
AcDbLinetypeTableRecord
  2
DIVIDE
 70
     0
  3
Divide ____ . . ____ . . ____ . . ____ . . ____
 72
    65
 73
     6
 40
31.75
 49
12.7
 74
     0
 49
-6.349999999999999
 74
     0
 49
0.0
 74
     0
 49
-6.349999999999999
 74
     0
 49
0.0
 74
     0
 49
-6.349999999999999
 74
     0
  0
LTYPE
  5
50
330
5
100
AcDbSymbolTableRecord
100
AcDbLinetypeTableRecord
  2
DIVIDE2
 70
     0
  3
Divide (.5x) __..__..__..__..__..__..__..__.._
 72
    65
 73
     6
 40
15.875
 49
6.349999999999999
 74
     0
 49
-3.174999999999999
 74
     0
 49
0.0
 74
     0
 49
-3.174999999999999
 74
     0
 49
0.0
 74
     0
 49
-3.174999999999999
 74
     0
  0
LTYPE
  5
51
330
5
100
AcDbSymbolTableRecord
100
AcDbLinetypeTableRecord
  2
DIVIDEX2
 70
     0
  3
Divide (2x) ________  .  .  ________  .  .  _
 72
    65
 73
     6
 40
63.49999999999999
 49
25.4
 74
     0
 49
-12.7
 74
     0
 49
0.0
 74
     0
 49
-12.7
 74
     0
 49
0.0
 74
     0
 49
-12.7
 74
     0
  0
LTYPE
  5
52
330
5
100
AcDbSymbolTableRecord
100
AcDbLinetypeTableRecord
  2
DOT
 70
     0
  3
Dot . . . . . . . . . . . . . . . . . . . . . .
 72
    65
 73
     2
 40
6.349999999999999
 49
0.0
 74
     0
 49
-6.349999999999999
 74
     0
  0
LTYPE
  5
53
330
5
100
AcDbSymbolTableRecord
100
AcDbLinetypeTableRecord
  2
DOT2
 70
     0
  3
Dot (.5x) .....................................
 72
    65
 73
     2
 40
3.174999999999999
 49
0.0
 74
     0
 49
-3.174999999999999
 74
     0
  0
LTYPE
  5
54
330
5
100
AcDbSymbolTableRecord
100
AcDbLinetypeTableRecord
  2
DOTX2
 70
     0
  3
Dot (2x) .  .  .  .  .  .  .  .  .  .  .  .  . 
 72
    65
 73
     2
 40
12.7
 49
0.0
 74
     0
 49
-12.7
 74
     0
  0
LTYPE
  5
55
330
5
100
AcDbSymbolTableRecord
100
AcDbLinetypeTableRecord
  2
FENCELINE1
 70
     0
  3
Fenceline circle ----0-----0----0-----0----0---
 72
    65
 73
     4
 40
36.83
 49
6.349999999999999
 74
     0
 49
-2.54
 74
     4
 75
   133
340
33
 46
2.54
 50
0.0
 44
-2.54
 45
0.0
 49
-2.54
 74
     0
 49
25.4
 74
     0
  0
LTYPE
  5
56
330
5
100
AcDbSymbolTableRecord
100
AcDbLinetypeTableRecord
  2
FENCELINE2
 70
     0
  3
Fenceline square ----[]-----[]----[]-----[]----
 72
    65
 73
     4
 40
36.83
 49
6.349999999999999
 74
     0
 49
-2.54
 74
     4
 75
   132
340
33
 46
2.54
 50
0.0
 44
-2.54
 45
0.0
 49
-2.54
 74
     0
 49
25.4
 74
     0
  0
LTYPE
  5
57
330
5
100
AcDbSymbolTableRecord
100
AcDbLinetypeTableRecord
  2
GAS_LINE
 70
     0
  3
Gas line ----GAS----GAS----GAS----GAS----GAS---
 72
    65
 73
     3
 40
24.13
 49
12.7
 74
     0
 49
-5.08
 74
     2
 75
     0
340
11
 46
2.54
 50
0.0
 44
-2.54
 45
-1.27
  9
GAS
 49
-6.349999999999999
 74
     0
  0
LTYPE
  5
58
330
5
100
AcDbSymbolTableRecord
100
AcDbLinetypeTableRecord
  2
HIDDEN
 70
     0
  3
Hidden __ __ __ __ __ __ __ __ __ __ __ __ __ _
 72
    65
 73
     2
 40
9.524999999999998
 49
6.349999999999999
 74
     0
 49
-3.174999999999999
 74
     0
  0
LTYPE
  5
59
330
5
100
AcDbSymbolTableRecord
100
AcDbLinetypeTableRecord
  2
HIDDEN2
 70
     0
  3
Hidden (.5x) _ _ _ _ _ _ _ _ _ _ _ _ _ _ _ _ _
 72
    65
 73
     2
 40
4.762499999999999
 49
3.174999999999999
 74
     0
 49
-1.587499999999999
 74
     0
  0
LTYPE
  5
5A
330
5
100
AcDbSymbolTableRecord
100
AcDbLinetypeTableRecord
  2
HIDDENX2
 70
     0
  3
Hidden (2x) ____ ____ ____ ____ ____ ____ ____
 72
    65
 73
     2
 40
19.05
 49
12.7
 74
     0
 49
-6.349999999999999
 74
     0
  0
LTYPE
  5
5B
330
5
100
AcDbSymbolTableRecord
100
AcDbLinetypeTableRecord
  2
HOT_WATER_SUPPLY
 70
     0
  3
Hot water supply ---- HW ---- HW ---- HW ----
 72
    65
 73
     3
 40
22.86
 49
12.7
 74
     0
 49
-5.08
 74
     2
 75
     0
340
11
 46
2.54
 50
0.0
 44
-2.54
 45
-1.27
  9
HW
 49
-5.08
 74
     0
  0
LTYPE
  5
5C
330
5
100
AcDbSymbolTableRecord
100
AcDbLinetypeTableRecord
  2
PHANTOM
 70
     0
  3
Phantom ______  __  __  ______  __  __  ______
 72
    65
 73
     6
 40
63.5
 49
31.75
 74
     0
 49
-6.349999999999999
 74
     0
 49
6.349999999999999
 74
     0
 49
-6.349999999999999
 74
     0
 49
6.349999999999999
 74
     0
 49
-6.349999999999999
 74
     0
  0
LTYPE
  5
5D
330
5
100
AcDbSymbolTableRecord
100
AcDbLinetypeTableRecord
  2
PHANTOM2
 70
     0
  3
Phantom (.5x) ___ _ _ ___ _ _ ___ _ _ ___ _ _
 72
    65
 73
     6
 40
31.75
 49
15.875
 74
     0
 49
-3.174999999999999
 74
     0
 49
3.174999999999999
 74
     0
 49
-3.174999999999999
 74
     0
 49
3.174999999999999
 74
     0
 49
-3.174999999999999
 74
     0
  0
LTYPE
  5
5E
330
5
100
AcDbSymbolTableRecord
100
AcDbLinetypeTableRecord
  2
PHANTOMX2
 70
     0
  3
Phantom (2x) ____________    ____    ____   _
 72
    65
 73
     6
 40
127.0
 49
63.5
 74
     0
 49
-12.7
 74
     0
 49
12.7
 74
     0
 49
-12.7
 74
     0
 49
12.7
 74
     0
 49
-12.7
 74
     0
  0
LTYPE
  5
5F
330
5
100
AcDbSymbolTableRecord
100
AcDbLinetypeTableRecord
  2
TRACKS
 70
     0
  3
Tracks -|-|-|-|-|-|-|-|-|-|-|-|-|-|-|-|-|-|-|-|
 72
    65
 73
     2
 40
7.62
 49
3.81
 74
     4
 75
   130
340
33
 46
6.349999999999999
 50
0.0
 44
0.0
 45
0.0
 49
3.81
 74
     0
  0
LTYPE
  5
60
330
5
100
AcDbSymbolTableRecord
100
AcDbLinetypeTableRecord
  2
ZIGZAG
 70
     0
  3
Zig zag /\/\/\/\/\/\/\/\/\/\/\/\/\/\/\/\/\/\/\/
 72
    65
 73
     4
 40
20.32254
 49
0.00254
 74
     0
 49
-5.08
 74
     4
 75
   131
340
33
 46
5.08
 50
0.0
 44
-5.08
 45
0.0
 49
-10.16
 74
     4
 75
   131
340
33
 46
5.08
 50
180.0
 44
5.08
 45
0.0
 49
-5.08
 74
     0
  0
ENDTAB
  0
TABLE
  2
LAYER
  5
2
102
{ACAD_XDICTIONARY
360
17D3
102
}
330
0
100
AcDbSymbolTable
 70
     9
  0
LAYER
  5
10
330
2
100
AcDbSymbolTableRecord
100
AcDbLayerTableRecord
  2
0
 70
     0
 62
     7
  6
Continuous
370
    -3
390
F
  0
LAYER
  5
C3
330
2
100
AcDbSymbolTableRecord
100
AcDbLayerTableRecord
  2
Defpoints
 70
     0
 62
     7
  6
Continuous
290
     0
370
    -3
390
F
  0
LAYER
  5
256
330
2
100
AcDbSymbolTableRecord
100
AcDbLayerTableRecord
  2
センター
 70
     0
 62
     7
  6
CENTER2
370
    15
390
F
  0
LAYER
  5
268
330
2
100
AcDbSymbolTableRecord
100
AcDbLayerTableRecord
  2
実形
 70
     0
 62
     7
  6
Continuous
370
    -3
390
F
  0
LAYER
  5
269
330
2
100
AcDbSymbolTableRecord
100
AcDbLayerTableRecord
  2
補助
 70
     0
 62
     7
  6
Continuous
370
    -3
390
F
  0
LAYER
  5
26A
330
2
100
AcDbSymbolTableRecord
100
AcDbLayerTableRecord
  2
寸法
 70
     0
 62
     7
  6
Continuous
370
    -3
390
F
  0
LAYER
  5
26B
330
2
100
AcDbSymbolTableRecord
100
AcDbLayerTableRecord
  2
ハッチング
 70
     0
 62
     7
  6
Continuous
370
    18
390
F
  0
LAYER
  5
26D
330
2
100
AcDbSymbolTableRecord
100
AcDbLayerTableRecord
  2
文字
 70
     0
 62
     7
  6
Continuous
370
    -3
390
F
  0
LAYER
  5
FCC
330
2
100
AcDbSymbolTableRecord
100
AcDbLayerTableRecord
  2
Cen
 70
     0
 62
     7
  6
CENTER2
370
    15
390
F
  0
ENDTAB
  0
TABLE
  2
STYLE
  5
3
330
0
100
AcDbSymbolTable
 70
     4
  0
STYLE
  5
11
330
3
100
AcDbSymbolTableRecord
100
AcDbTextStyleTableRecord
  2
Standard
 70
     0
 40
0.0
 41
1.0
 50
0.0
 71
     0
 42
35.0
  3
txt.shx
  4
bigfont.shx
  0
STYLE
  5
33
330
3
100
AcDbSymbolTableRecord
100
AcDbTextStyleTableRecord
  2

 70
     1
 40
0.0
 41
1.0
 50
0.0
 71
     0
 42
2.5
  3
ltypeshp.shx
  4

  0
STYLE
  5
1BB6
330
3
100
AcDbSymbolTableRecord
100
AcDbTextStyleTableRecord
  2
MS明朝
 70
     0
 40
0.0
 41
1.0
 50
0.0
 71
     0
 42
35.0
  3
MS Mincho.ttf
  4

1001
ACAD
1000
MS Mincho
1071
    32785
  0
STYLE
  5
1DF7
330
3
100
AcDbSymbolTableRecord
100
AcDbTextStyleTableRecord
  2
明朝
 70
     0
 40
0.0
 41
1.0
 50
0.0
 71
     0
 42
25.0
  3
MS Mincho.ttf
  4

1001
ACAD
1000
MS Mincho
1071
    32785
  0
ENDTAB
  0
TABLE
  2
VIEW
  5
6
330
0
100
AcDbSymbolTable
 70
     0
  0
ENDTAB
  0
TABLE
  2
UCS
  5
7
330
0
100
AcDbSymbolTable
 70
     0
  0
ENDTAB
  0
TABLE
  2
APPID
  5
9
330
0
100
AcDbSymbolTable
 70
     2
  0
APPID
  5
12
330
9
100
AcDbSymbolTableRecord
100
AcDbRegAppTableRecord
  2
ACAD
 70
     0
  0
APPID
  5
173F
330
9
100
AcDbSymbolTableRecord
100
AcDbRegAppTableRecord
  2
ACAD_DSTYLE_DIMTEXT_FILL
 70
     0
  0
ENDTAB
  0
TABLE
  2
DIMSTYLE
  5
A
330
0
100
AcDbSymbolTable
 70
     1
100
AcDbDimStyleTable
 71
     1
340
27
  0
DIMSTYLE
105
27
102
{ACAD_REACTORS
330
3C2
330
50A
330
3F6
330
4E5
330
4FD
330
522
330
3E9
330
40C
330
41A
330
427
330
459
330
466
330
47C
330
492
330
4C3
330
8DB
330
C24
330
C26
330
C29
330
CB8
330
CB9
330
1701
330
1826
330
1C97
330
1CA4
330
1CD5
330
1CE6
330
1CF3
330
1D24
330
1E89
330
1E8A
330
1E8B
330
1E8C
330
1E8D
330
2000
330
2024
330
214E
330
214F
330
2150
330
2151
330
21CD
330
21CE
330
23DA
330
23E4
330
23E7
330
23E8
330
23EB
330
23EC
330
23ED
330
23EE
330
23F0
330
23F1
330
23F2
330
23F3
330
23F4
330
23F5
330
23FB
330
23FC
330
23FD
330
2405
330
2406
330
2407
102
}
330
A
100
AcDbSymbolTableRecord
100
AcDbDimStyleTableRecord
  2
ISO-25
 70
     0
 41
35.0
 42
65.0
 43
3.75
 44
0.0
 73
     0
 74
     0
 77
     1
 78
     8
140
25.0
141
2.5
143
0.03937007874016
147
6.25
171
     3
172
     1
271
     2
272
     2
274
     3
279
     2
283
     0
284
     8
289
     2
340
11
341
DA
342
D0
371
    15
372
    15
  0
ENDTAB
  0
TABLE
  2
BLOCK_RECORD
  5
1
330
0
100
AcDbSymbolTable
 70
   112
  0
BLOCK_RECORD
  5
1F
102
{ACAD_XDICTIONARY
360
16CD
102
}
330
1
100
AcDbSymbolTableRecord
100
AcDbBlockTableRecord
  2
*Model_Space
340
22
  0
BLOCK_RECORD
  5
1B
330
1
100
AcDbSymbolTableRecord
100
AcDbBlockTableRecord
  2
*Paper_Space
340
1E
  0
BLOCK_RECORD
  5
23
330
1
100
AcDbSymbolTableRecord
100
AcDbBlockTableRecord
  2
*Paper_Space0
340
26
  0
BLOCK_RECORD
  5
D0
330
1
100
AcDbSymbolTableRecord
100
AcDbBlockTableRecord
  2
_DotSmall
340
0
102
{BLKREFS
331
1BDF
331
1BE0
331
1BE8
331
1BE9
331
1BF1
331
1BF2
331
1BFB
331
1BFC
331
1C03
331
1C04
331
1C0D
331
1C0E
331
1C15
331
1C16
331
1C1E
331
1C1F
331
1C28
331
1C29
331
1C30
331
1C31
331
1C3A
331
1C3B
331
1C6F
331
1C70
331
1C79
331
1C7A
331
1C81
331
1C82
331
1D35
331
1D36
331
1D3E
331
1D3F
331
1D46
331
1D47
331
1D50
331
1D51
331
1D59
331
1D5A
331
1D62
331
1D63
331
1D6A
331
1D6B
331
1E3A
331
1E3B
331
1E48
331
1E49
331
1E54
331
1E55
331
1E5F
331
1E60
331
1E6E
331
1E6F
331
1F2F
331
1F30
331
1F3A
331
1F3B
331
1F45
331
1F46
331
1F50
331
1F51
331
1F5C
331
1F5D
331
1F68
331
1F69
331
1F73
331
1F74
331
1F23
331
1F24
331
1FFE
331
1FFF
331
20C7
331
20C8
331
20D8
331
20D9
331
20E0
331
20E1
331
20F1
331
20F2
331
20FA
331
20FB
331
2102
331
2103
331
2116
331
2117
331
2121
331
2122
331
212E
331
212F
331
2139
331
213A
331
21A4
331
21A5
331
21B0
331
21B1
331
21BD
331
21BE
331
2202
331
2203
331
220D
331
220E
331
2215
331
2216
331
221F
331
2220
331
2228
331
2229
331
2230
331
2231
331
2238
331
2239
331
2240
331
2241
331
2249
331
224A
331
2252
331
2253
331
225C
331
225D
331
2267
331
2268
331
2272
331
2273
331
227B
331
227C
331
2284
331
2285
331
228D
331
228E
331
22AE
331
22B8
331
22B9
331
22C5
331
22C6
331
22D0
331
22D1
331
22DC
331
22DD
331
22E8
331
22E9
331
22F5
331
22F6
331
2300
331
2301
331
230C
331
230D
331
2318
331
2319
331
2324
331
2325
331
2330
331
2331
331
233C
331
233D
331
2348
331
2349
331
2354
331
2355
331
2360
331
2361
331
236C
331
236D
331
2378
331
2379
331
22A0
331
22A1
331
22AD
331
24FF
331
2500
331
2509
331
250A
331
2511
331
2512
331
251B
331
251C
331
2523
331
2524
331
252C
331
252D
331
2535
331
2536
331
253F
331
2540
331
2547
331
2548
331
2550
331
2551
331
2559
331
255A
331
2562
331
2563
331
256B
331
256C
331
2574
331
2575
331
257D
331
257E
331
2586
331
2587
331
258F
331
2590
331
2598
331
2599
331
25A1
331
25A2
102
}
  0
BLOCK_RECORD
  5
D4
330
1
100
AcDbSymbolTableRecord
100
AcDbBlockTableRecord
  2
_Origin2
340
0
  0
BLOCK_RECORD
  5
DA
330
1
100
AcDbSymbolTableRecord
100
AcDbBlockTableRecord
  2
_Open30
340
0
  0
BLOCK_RECORD
  5
3C3
330
1
100
AcDbSymbolTableRecord
100
AcDbBlockTableRecord
  2
*D4
340
0
  0
BLOCK_RECORD
  5
3EA
330
1
100
AcDbSymbolTableRecord
100
AcDbBlockTableRecord
  2
*D5
340
0
  0
BLOCK_RECORD
  5
3F7
330
1
100
AcDbSymbolTableRecord
100
AcDbBlockTableRecord
  2
*D6
340
0
  0
BLOCK_RECORD
  5
40D
330
1
100
AcDbSymbolTableRecord
100
AcDbBlockTableRecord
  2
*D7
340
0
  0
BLOCK_RECORD
  5
41B
330
1
100
AcDbSymbolTableRecord
100
AcDbBlockTableRecord
  2
*D8
340
0
  0
BLOCK_RECORD
  5
428
330
1
100
AcDbSymbolTableRecord
100
AcDbBlockTableRecord
  2
*D9
340
0
  0
BLOCK_RECORD
  5
45A
330
1
100
AcDbSymbolTableRecord
100
AcDbBlockTableRecord
  2
*D10
340
0
  0
BLOCK_RECORD
  5
467
330
1
100
AcDbSymbolTableRecord
100
AcDbBlockTableRecord
  2
*D11
340
0
  0
BLOCK_RECORD
  5
47D
330
1
100
AcDbSymbolTableRecord
100
AcDbBlockTableRecord
  2
*D12
340
0
  0
BLOCK_RECORD
  5
493
330
1
100
AcDbSymbolTableRecord
100
AcDbBlockTableRecord
  2
*D13
340
0
  0
BLOCK_RECORD
  5
4C4
330
1
100
AcDbSymbolTableRecord
100
AcDbBlockTableRecord
  2
*D14
340
0
  0
BLOCK_RECORD
  5
4E6
330
1
100
AcDbSymbolTableRecord
100
AcDbBlockTableRecord
  2
*D15
340
0
  0
BLOCK_RECORD
  5
4FE
330
1
100
AcDbSymbolTableRecord
100
AcDbBlockTableRecord
  2
*D16
340
0
  0
BLOCK_RECORD
  5
50B
330
1
100
AcDbSymbolTableRecord
100
AcDbBlockTableRecord
  2
*D17
340
0
  0
BLOCK_RECORD
  5
523
330
1
100
AcDbSymbolTableRecord
100
AcDbBlockTableRecord
  2
*D18
340
0
  0
BLOCK_RECORD
  5
1702
330
1
100
AcDbSymbolTableRecord
100
AcDbBlockTableRecord
  2
*D19
340
0
  0
BLOCK_RECORD
  5
1865
330
1
100
AcDbSymbolTableRecord
100
AcDbBlockTableRecord
  2
*D20
340
0
  0
BLOCK_RECORD
  5
18A8
330
1
100
AcDbSymbolTableRecord
100
AcDbBlockTableRecord
  2
_None
340
0
  0
BLOCK_RECORD
  5
1C98
330
1
100
AcDbSymbolTableRecord
100
AcDbBlockTableRecord
  2
*D24
340
0
  0
BLOCK_RECORD
  5
1CA5
330
1
100
AcDbSymbolTableRecord
100
AcDbBlockTableRecord
  2
*D25
340
0
  0
BLOCK_RECORD
  5
1CD6
330
1
100
AcDbSymbolTableRecord
100
AcDbBlockTableRecord
  2
*D26
340
0
  0
BLOCK_RECORD
  5
1CE7
330
1
100
AcDbSymbolTableRecord
100
AcDbBlockTableRecord
  2
*D27
340
0
  0
BLOCK_RECORD
  5
1CF4
330
1
100
AcDbSymbolTableRecord
100
AcDbBlockTableRecord
  2
*D28
340
0
  0
BLOCK_RECORD
  5
1D25
330
1
100
AcDbSymbolTableRecord
100
AcDbBlockTableRecord
  2
*D29
340
0
  0
BLOCK_RECORD
  5
1E98
330
1
100
AcDbSymbolTableRecord
100
AcDbBlockTableRecord
  2
*D35
340
0
  0
BLOCK_RECORD
  5
1EA4
330
1
100
AcDbSymbolTableRecord
100
AcDbBlockTableRecord
  2
*D36
340
0
  0
BLOCK_RECORD
  5
1EB2
330
1
100
AcDbSymbolTableRecord
100
AcDbBlockTableRecord
  2
*D37
340
0
  0
BLOCK_RECORD
  5
1EBE
330
1
100
AcDbSymbolTableRecord
100
AcDbBlockTableRecord
  2
*D38
340
0
  0
BLOCK_RECORD
  5
1ECA
330
1
100
AcDbSymbolTableRecord
100
AcDbBlockTableRecord
  2
*D39
340
0
  0
BLOCK_RECORD
  5
2066
330
1
100
AcDbSymbolTableRecord
100
AcDbBlockTableRecord
  2
*D53
340
0
  0
BLOCK_RECORD
  5
2089
330
1
100
AcDbSymbolTableRecord
100
AcDbBlockTableRecord
  2
*D56
340
0
  0
BLOCK_RECORD
  5
2152
330
1
100
AcDbSymbolTableRecord
100
AcDbBlockTableRecord
  2
*D64
340
0
  0
BLOCK_RECORD
  5
2160
330
1
100
AcDbSymbolTableRecord
100
AcDbBlockTableRecord
  2
*D65
340
0
  0
BLOCK_RECORD
  5
216C
330
1
100
AcDbSymbolTableRecord
100
AcDbBlockTableRecord
  2
*D66
340
0
  0
BLOCK_RECORD
  5
2178
330
1
100
AcDbSymbolTableRecord
100
AcDbBlockTableRecord
  2
*D67
340
0
  0
BLOCK_RECORD
  5
21D1
330
1
100
AcDbSymbolTableRecord
100
AcDbBlockTableRecord
  2
*D70
340
0
  0
BLOCK_RECORD
  5
21DD
330
1
100
AcDbSymbolTableRecord
100
AcDbBlockTableRecord
  2
*D71
340
0
  0
BLOCK_RECORD
  5
2409
330
1
100
AcDbSymbolTableRecord
100
AcDbBlockTableRecord
  2
*D92
340
0
  0
BLOCK_RECORD
  5
2412
330
1
100
AcDbSymbolTableRecord
100
AcDbBlockTableRecord
  2
*D93
340
0
  0
BLOCK_RECORD
  5
241E
330
1
100
AcDbSymbolTableRecord
100
AcDbBlockTableRecord
  2
*D94
340
0
  0
BLOCK_RECORD
  5
242A
330
1
100
AcDbSymbolTableRecord
100
AcDbBlockTableRecord
  2
*D95
340
0
  0
BLOCK_RECORD
  5
2436
330
1
100
AcDbSymbolTableRecord
100
AcDbBlockTableRecord
  2
*D96
340
0
  0
BLOCK_RECORD
  5
2442
330
1
100
AcDbSymbolTableRecord
100
AcDbBlockTableRecord
  2
*D97
340
0
  0
BLOCK_RECORD
  5
244E
330
1
100
AcDbSymbolTableRecord
100
AcDbBlockTableRecord
  2
*D98
340
0
  0
BLOCK_RECORD
  5
245A
330
1
100
AcDbSymbolTableRecord
100
AcDbBlockTableRecord
  2
*D99
340
0
  0
BLOCK_RECORD
  5
2466
330
1
100
AcDbSymbolTableRecord
100
AcDbBlockTableRecord
  2
*D100
340
0
  0
BLOCK_RECORD
  5
2472
330
1
100
AcDbSymbolTableRecord
100
AcDbBlockTableRecord
  2
*D101
340
0
  0
BLOCK_RECORD
  5
247E
330
1
100
AcDbSymbolTableRecord
100
AcDbBlockTableRecord
  2
*D102
340
0
  0
BLOCK_RECORD
  5
248A
330
1
100
AcDbSymbolTableRecord
100
AcDbBlockTableRecord
  2
*D103
340
0
  0
BLOCK_RECORD
  5
2496
330
1
100
AcDbSymbolTableRecord
100
AcDbBlockTableRecord
  2
*D104
340
0
  0
BLOCK_RECORD
  5
24A2
330
1
100
AcDbSymbolTableRecord
100
AcDbBlockTableRecord
  2
*D105
340
0
  0
BLOCK_RECORD
  5
24AE
330
1
100
AcDbSymbolTableRecord
100
AcDbBlockTableRecord
  2
*D106
340
0
  0
BLOCK_RECORD
  5
24BA
330
1
100
AcDbSymbolTableRecord
100
AcDbBlockTableRecord
  2
*D107
340
0
  0
BLOCK_RECORD
  5
24C6
330
1
100
AcDbSymbolTableRecord
100
AcDbBlockTableRecord
  2
*D108
340
0
  0
BLOCK_RECORD
  5
24D2
330
1
100
AcDbSymbolTableRecord
100
AcDbBlockTableRecord
  2
*D109
340
0
  0
BLOCK_RECORD
  5
24DE
330
1
100
AcDbSymbolTableRecord
100
AcDbBlockTableRecord
  2
*D110
340
0
  0
BLOCK_RECORD
  5
24EA
330
1
100
AcDbSymbolTableRecord
100
AcDbBlockTableRecord
  2
*D111
340
0
  0
ENDTAB
  0
ENDSEC
  0
SECTION
  2
BLOCKS
  0
BLOCK
  5
20
330
1F
100
AcDbEntity
  8
0
100
AcDbBlockBegin
  2
*Model_Space
 70
     0
 10
0.0
 20
0.0
 30
0.0
  3
*Model_Space
  1

  0
ENDBLK
  5
21
330
1F
100
AcDbEntity
  8
0
100
AcDbBlockEnd
  0
BLOCK
  5
1C
330
1B
100
AcDbEntity
 67
     1
  8
0
100
AcDbBlockBegin
  2
*Paper_Space
 70
     0
 10
0.0
 20
0.0
 30
0.0
  3
*Paper_Space
  1

  0
ENDBLK
  5
1D
330
1B
100
AcDbEntity
 67
     1
  8
0
100
AcDbBlockEnd
  0
BLOCK
  5
24
330
23
100
AcDbEntity
  8
0
100
AcDbBlockBegin
  2
*Paper_Space0
 70
     0
 10
0.0
 20
0.0
 30
0.0
  3
*Paper_Space0
  1

  0
ENDBLK
  5
25
330
23
100
AcDbEntity
  8
0
100
AcDbBlockEnd
  0
BLOCK
  5
D2
330
D0
100
AcDbEntity
  8
0
100
AcDbBlockBegin
  2
_DotSmall
 70
     0
 10
0.0
 20
0.0
 30
0.0
  3
_DotSmall
  1

  0
LWPOLYLINE
  5
D1
330
D0
100
AcDbEntity
  8
0
 62
     0
100
AcDbPolyline
 90
        2
 70
     1
 43
0.5
 10
-0.0625
 20
0.0
 42
1.0
 10
0.0625
 20
0.0
 42
1.0
  0
ENDBLK
  5
D3
330
D0
100
AcDbEntity
  8
0
100
AcDbBlockEnd
  0
BLOCK
  5
D8
330
D4
100
AcDbEntity
  8
0
100
AcDbBlockBegin
  2
_Origin2
 70
     0
 10
0.0
 20
0.0
 30
0.0
  3
_Origin2
  1

  0
CIRCLE
  5
D5
330
D4
100
AcDbEntity
  8
0
 62
     0
370
    -2
100
AcDbCircle
 10
0.0
 20
0.0
 30
0.0
 40
0.5
  0
CIRCLE
  5
D6
330
D4
100
AcDbEntity
  8
0
 62
     0
370
    -2
100
AcDbCircle
 10
0.0
 20
0.0
 30
0.0
 40
0.25
  0
LINE
  5
D7
330
D4
100
AcDbEntity
  8
0
 62
     0
370
    -2
100
AcDbLine
 10
-0.5
 20
0.0
 30
0.0
 11
-1.0
 21
0.0
 31
0.0
  0
ENDBLK
  5
D9
330
D4
100
AcDbEntity
  8
0
100
AcDbBlockEnd
  0
BLOCK
  5
DE
330
DA
100
AcDbEntity
  8
0
100
AcDbBlockBegin
  2
_Open30
 70
     0
 10
0.0
 20
0.0
 30
0.0
  3
_Open30
  1

  0
LINE
  5
DB
330
DA
100
AcDbEntity
  8
0
 62
     0
370
    -2
100
AcDbLine
 10
-1.0
 20
0.26794919
 30
0.0
 11
0.0
 21
0.0
 31
0.0
  0
LINE
  5
DC
330
DA
100
AcDbEntity
  8
0
 62
     0
370
    -2
100
AcDbLine
 10
0.0
 20
0.0
 30
0.0
 11
-1.0
 21
-0.26794919
 31
0.0
  0
LINE
  5
DD
330
DA
100
AcDbEntity
  8
0
 62
     0
370
    -2
100
AcDbLine
 10
0.0
 20
0.0
 30
0.0
 11
-1.0
 21
0.0
 31
0.0
  0
ENDBLK
  5
DF
330
DA
100
AcDbEntity
  8
0
100
AcDbBlockEnd
  0
BLOCK
  5
3CD
330
3C3
100
AcDbEntity
  8
0
100
AcDbBlockBegin
  2
*D4
 70
     1
 10
0.0
 20
0.0
 30
0.0
  3
*D4
  1

  0
LINE
  5
1BDC
330
3C3
100
AcDbEntity
  8
寸法
 62
     0
370
    15
100
AcDbLine
 10
829.2684511875165
 20
1561.97154384069
 30
0.0
 11
891.5685001066329
 21
1561.97154384069
 31
0.0
  0
LINE
  5
1BDD
330
3C3
100
AcDbEntity
  8
寸法
 62
     0
370
    15
100
AcDbLine
 10
829.2684511875167
 20
1501.97154384069
 30
0.0
 11
891.5685001066329
 21
1501.97154384069
 31
0.0
  0
LINE
  5
1BDE
330
3C3
100
AcDbEntity
  8
寸法
 62
     0
370
    15
100
AcDbLine
 10
891.5685001066329
 20
1561.97154384069
 30
0.0
 11
891.5685001066329
 21
1501.97154384069
 31
0.0
  0
INSERT
  5
1BDF
330
3C3
100
AcDbEntity
  8
寸法
 62
     0
370
    15
100
AcDbBlockReference
  2
_DotSmall
 10
891.5685001066329
 20
1561.97154384069
 30
0.0
 41
35.0
 42
35.0
 43
35.0
 50
90.0
  0
INSERT
  5
1BE0
330
3C3
100
AcDbEntity
  8
寸法
 62
     0
370
    15
100
AcDbBlockReference
  2
_DotSmall
 10
891.5685001066329
 20
1501.97154384069
 30
0.0
 41
35.0
 42
35.0
 43
35.0
 50
270.0
  0
MTEXT
  5
1BE1
330
3C3
100
AcDbEntity
  8
寸法
 62
     0
100
AcDbMText
 10
872.8185001066327
 20
1531.97154384069
 30
0.0
 40
25.0
 41
0.0
 71
     5
 72
     1
  1
60
 11
0.0000000000000001
 21
1.0
 31
0.0
 73
     1
 44
1.0
1001
ACAD
1000
MTEXTBEGIN
1070
    73
1070
     1
1070
    44
1040
1.0
1070
    74
1070
     0
1000
MTEXTEND
  0
POINT
  5
1BE2
330
3C3
100
AcDbEntity
  8
Defpoints
 62
     0
100
AcDbPoint
 10
764.2684511875166
 20
1561.97154384069
 30
0.0
  0
POINT
  5
1BE3
330
3C3
100
AcDbEntity
  8
Defpoints
 62
     0
100
AcDbPoint
 10
764.2684511875168
 20
1501.97154384069
 30
0.0
  0
POINT
  5
1BE4
330
3C3
100
AcDbEntity
  8
Defpoints
 62
     0
100
AcDbPoint
 10
891.5685001066329
 20
1501.97154384069
 30
0.0
  0
ENDBLK
  5
3CE
330
3C3
100
AcDbEntity
  8
0
100
AcDbBlockEnd
  0
BLOCK
  5
3F4
330
3EA
100
AcDbEntity
  8
0
100
AcDbBlockBegin
  2
*D5
 70
     1
 10
0.0
 20
0.0
 30
0.0
  3
*D5
  1

  0
LINE
  5
1BE5
330
3EA
100
AcDbEntity
  8
寸法
 62
     0
370
    15
100
AcDbLine
 10
754.4332136006342
 20
1346.97154384069
 30
0.0
 11
865.256605860719
 21
1346.97154384069
 31
0.0
  0
LINE
  5
1BE6
330
3EA
100
AcDbEntity
  8
寸法
 62
     0
370
    15
100
AcDbLine
 10
863.2684511875167
 20
1476.97154384069
 30
0.0
 11
865.256605860719
 21
1476.97154384069
 31
0.0
  0
LINE
  5
1BE7
330
3EA
100
AcDbEntity
  8
寸法
 62
     0
370
    15
100
AcDbLine
 10
865.256605860719
 20
1346.97154384069
 30
0.0
 11
865.256605860719
 21
1476.97154384069
 31
0.0
  0
INSERT
  5
1BE8
330
3EA
100
AcDbEntity
  8
寸法
 62
     0
370
    15
100
AcDbBlockReference
  2
_DotSmall
 10
865.256605860719
 20
1346.97154384069
 30
0.0
 41
35.0
 42
35.0
 43
35.0
 50
270.0
  0
INSERT
  5
1BE9
330
3EA
100
AcDbEntity
  8
寸法
 62
     0
370
    15
100
AcDbBlockReference
  2
_DotSmall
 10
865.256605860719
 20
1476.97154384069
 30
0.0
 41
35.0
 42
35.0
 43
35.0
 50
90.0
  0
MTEXT
  5
1BEA
330
3EA
100
AcDbEntity
  8
寸法
 62
     0
100
AcDbMText
 10
846.5066058607188
 20
1411.97154384069
 30
0.0
 40
25.0
 41
0.0
 71
     5
 72
     1
  1
130
 11
0.0000000000000001
 21
1.0
 31
0.0
 73
     1
 44
1.0
1001
ACAD
1000
MTEXTBEGIN
1070
    73
1070
     1
1070
    44
1040
1.0
1070
    74
1070
     0
1000
MTEXTEND
  0
POINT
  5
1BEB
330
3EA
100
AcDbEntity
  8
Defpoints
 62
     0
100
AcDbPoint
 10
689.4332136006341
 20
1346.97154384069
 30
0.0
  0
POINT
  5
1BEC
330
3EA
100
AcDbEntity
  8
Defpoints
 62
     0
100
AcDbPoint
 10
798.2684511875167
 20
1476.97154384069
 30
0.0
  0
POINT
  5
1BED
330
3EA
100
AcDbEntity
  8
Defpoints
 62
     0
100
AcDbPoint
 10
865.256605860719
 20
1476.97154384069
 30
0.0
  0
ENDBLK
  5
3F5
330
3EA
100
AcDbEntity
  8
0
100
AcDbBlockEnd
  0
BLOCK
  5
401
330
3F7
100
AcDbEntity
  8
0
100
AcDbBlockBegin
  2
*D6
 70
     1
 10
0.0
 20
0.0
 30
0.0
  3
*D6
  1

  0
LINE
  5
1BEE
330
3F7
100
AcDbEntity
  8
寸法
 62
     0
370
    15
100
AcDbLine
 10
623.2684511875167
 20
1202.47154384069
 30
0.0
 11
623.2684511875167
 21
1194.378777569689
 31
0.0
  0
LINE
  5
1BEF
330
3F7
100
AcDbEntity
  8
寸法
 62
     0
370
    15
100
AcDbLine
 10
473.2684511875167
 20
1191.47154384069
 30
0.0
 11
473.2684511875167
 21
1194.378777569689
 31
0.0
  0
LINE
  5
1BF0
330
3F7
100
AcDbEntity
  8
寸法
 62
     0
370
    15
100
AcDbLine
 10
623.2684511875167
 20
1194.378777569689
 30
0.0
 11
473.2684511875167
 21
1194.378777569689
 31
0.0
  0
INSERT
  5
1BF1
330
3F7
100
AcDbEntity
  8
寸法
 62
     0
370
    15
100
AcDbBlockReference
  2
_DotSmall
 10
623.2684511875167
 20
1194.378777569689
 30
0.0
 41
35.0
 42
35.0
 43
35.0
  0
INSERT
  5
1BF2
330
3F7
100
AcDbEntity
  8
寸法
 62
     0
370
    15
100
AcDbBlockReference
  2
_DotSmall
 10
473.2684511875167
 20
1194.378777569689
 30
0.0
 41
35.0
 42
35.0
 43
35.0
 50
180.0
  0
MTEXT
  5
1BF3
330
3F7
100
AcDbEntity
  8
寸法
 62
     0
100
AcDbMText
 10
548.2684511875167
 20
1213.128777569689
 30
0.0
 40
25.0
 41
0.0
 71
     5
 72
     1
  1
150
 73
     1
 44
1.0
1001
ACAD
1000
MTEXTBEGIN
1070
    73
1070
     1
1070
    44
1040
1.0
1070
    74
1070
     0
1000
MTEXTEND
  0
POINT
  5
1BF4
330
3F7
100
AcDbEntity
  8
Defpoints
 62
     0
100
AcDbPoint
 10
623.2684511875167
 20
1267.47154384069
 30
0.0
  0
POINT
  5
1BF5
330
3F7
100
AcDbEntity
  8
Defpoints
 62
     0
100
AcDbPoint
 10
473.2684511875167
 20
1256.47154384069
 30
0.0
  0
POINT
  5
1BF6
330
3F7
100
AcDbEntity
  8
Defpoints
 62
     0
100
AcDbPoint
 10
473.2684511875167
 20
1194.378777569689
 30
0.0
  0
ENDBLK
  5
402
330
3F7
100
AcDbEntity
  8
0
100
AcDbBlockEnd
  0
BLOCK
  5
418
330
40D
100
AcDbEntity
  8
0
100
AcDbBlockBegin
  2
*D7
 70
     1
 10
0.0
 20
0.0
 30
0.0
  3
*D7
  1

  0
LINE
  5
1BF7
330
40D
100
AcDbEntity
  8
寸法
 62
     0
370
    15
100
AcDbLine
 10
393.2684511875168
 20
1051.97154384069
 30
0.0
 11
354.4727903259574
 21
1051.97154384069
 31
0.0
  0
LINE
  5
1BF8
330
40D
100
AcDbEntity
  8
寸法
 62
     0
370
    15
100
AcDbLine
 10
393.2684511875168
 20
1066.97154384069
 30
0.0
 11
354.4727903259574
 21
1066.97154384069
 31
0.0
  0
LINE
  5
1BF9
330
40D
100
AcDbEntity
  8
寸法
 62
     0
370
    15
100
AcDbLine
 10
354.4727903259574
 20
1051.97154384069
 30
0.0
 11
354.4727903259574
 21
1066.97154384069
 31
0.0
  0
MTEXT
  5
1BFA
330
40D
100
AcDbEntity
  8
寸法
 62
     0
100
AcDbMText
 10
328.572539136374
 20
1075.400667893027
 30
0.0
 40
25.0
 41
0.0
 71
     5
 72
     1
  1
15
 11
0.0000000000000001
 21
1.0
 31
0.0
 73
     1
 44
1.0
1001
ACAD
1000
MTEXTBEGIN
1070
    73
1070
     1
1070
    44
1040
1.0
1070
    74
1070
     0
1000
MTEXTEND
  0
INSERT
  5
1BFB
330
40D
100
AcDbEntity
  8
寸法
 62
     0
370
    15
100
AcDbBlockReference
  2
_DotSmall
 10
354.4727903259574
 20
1051.97154384069
 30
0.0
 41
35.0
 42
35.0
 43
35.0
 50
270.0
  0
INSERT
  5
1BFC
330
40D
100
AcDbEntity
  8
寸法
 62
     0
370
    15
100
AcDbBlockReference
  2
_DotSmall
 10
354.4727903259574
 20
1066.97154384069
 30
0.0
 41
35.0
 42
35.0
 43
35.0
 50
90.0
  0
POINT
  5
1BFD
330
40D
100
AcDbEntity
  8
Defpoints
 62
     0
100
AcDbPoint
 10
458.2684511875168
 20
1051.97154384069
 30
0.0
  0
POINT
  5
1BFE
330
40D
100
AcDbEntity
  8
Defpoints
 62
     0
100
AcDbPoint
 10
458.2684511875168
 20
1066.97154384069
 30
0.0
  0
POINT
  5
1BFF
330
40D
100
AcDbEntity
  8
Defpoints
 62
     0
100
AcDbPoint
 10
354.4727903259574
 20
1066.97154384069
 30
0.0
  0
ENDBLK
  5
419
330
40D
100
AcDbEntity
  8
0
100
AcDbBlockEnd
  0
BLOCK
  5
425
330
41B
100
AcDbEntity
  8
0
100
AcDbBlockBegin
  2
*D8
 70
     1
 10
0.0
 20
0.0
 30
0.0
  3
*D8
  1

  0
LINE
  5
1C00
330
41B
100
AcDbEntity
  8
寸法
 62
     0
370
    15
100
AcDbLine
 10
393.2684511875168
 20
1066.97154384069
 30
0.0
 11
354.4727903259572
 21
1066.97154384069
 31
0.0
  0
LINE
  5
1C01
330
41B
100
AcDbEntity
  8
寸法
 62
     0
370
    15
100
AcDbLine
 10
393.2684511875168
 20
1476.97154384069
 30
0.0
 11
354.4727903259574
 21
1476.97154384069
 31
0.0
  0
LINE
  5
1C02
330
41B
100
AcDbEntity
  8
寸法
 62
     0
370
    15
100
AcDbLine
 10
354.4727903259572
 20
1066.97154384069
 30
0.0
 11
354.4727903259574
 21
1476.97154384069
 31
0.0
  0
INSERT
  5
1C03
330
41B
100
AcDbEntity
  8
寸法
 62
     0
370
    15
100
AcDbBlockReference
  2
_DotSmall
 10
354.4727903259572
 20
1066.97154384069
 30
0.0
 41
35.0
 42
35.0
 43
35.0
 50
270.0
  0
INSERT
  5
1C04
330
41B
100
AcDbEntity
  8
寸法
 62
     0
370
    15
100
AcDbBlockReference
  2
_DotSmall
 10
354.4727903259574
 20
1476.97154384069
 30
0.0
 41
35.0
 42
35.0
 43
35.0
 50
90.0
  0
MTEXT
  5
1C05
330
41B
100
AcDbEntity
  8
寸法
 62
     0
100
AcDbMText
 10
335.7227903259571
 20
1271.97154384069
 30
0.0
 40
25.0
 41
0.0
 71
     5
 72
     1
  1
410
 11
0.0000000000000001
 21
1.0
 31
0.0
 73
     1
 44
1.0
1001
ACAD
1000
MTEXTBEGIN
1070
    73
1070
     1
1070
    44
1040
1.0
1070
    74
1070
     0
1000
MTEXTEND
  0
POINT
  5
1C06
330
41B
100
AcDbEntity
  8
Defpoints
 62
     0
100
AcDbPoint
 10
458.2684511875168
 20
1066.97154384069
 30
0.0
  0
POINT
  5
1C07
330
41B
100
AcDbEntity
  8
Defpoints
 62
     0
100
AcDbPoint
 10
458.2684511875168
 20
1476.97154384069
 30
0.0
  0
POINT
  5
1C08
330
41B
100
AcDbEntity
  8
Defpoints
 62
     0
100
AcDbPoint
 10
354.4727903259574
 20
1476.97154384069
 30
0.0
  0
ENDBLK
  5
426
330
41B
100
AcDbEntity
  8
0
100
AcDbBlockEnd
  0
BLOCK
  5
432
330
428
100
AcDbEntity
  8
0
100
AcDbBlockBegin
  2
*D9
 70
     1
 10
0.0
 20
0.0
 30
0.0
  3
*D9
  1

  0
LINE
  5
1C09
330
428
100
AcDbEntity
  8
寸法
 62
     0
370
    15
100
AcDbLine
 10
393.2684511875168
 20
1476.97154384069
 30
0.0
 11
354.4727903259574
 21
1476.97154384069
 31
0.0
  0
LINE
  5
1C0A
330
428
100
AcDbEntity
  8
寸法
 62
     0
370
    15
100
AcDbLine
 10
393.2684511875168
 20
1491.97154384069
 30
0.0
 11
354.4727903259574
 21
1491.97154384069
 31
0.0
  0
LINE
  5
1C0B
330
428
100
AcDbEntity
  8
寸法
 62
     0
370
    15
100
AcDbLine
 10
354.4727903259574
 20
1476.97154384069
 30
0.0
 11
354.4727903259574
 21
1491.97154384069
 31
0.0
  0
MTEXT
  5
1C0C
330
428
100
AcDbEntity
  8
寸法
 62
     0
100
AcDbMText
 10
327.1046395086451
 20
1467.865253744407
 30
0.0
 40
25.0
 41
0.0
 71
     5
 72
     1
  1
15
 11
0.0000000000000001
 21
1.0
 31
0.0
 73
     1
 44
1.0
1001
ACAD
1000
MTEXTBEGIN
1070
    73
1070
     1
1070
    44
1040
1.0
1070
    74
1070
     0
1000
MTEXTEND
  0
INSERT
  5
1C0D
330
428
100
AcDbEntity
  8
寸法
 62
     0
370
    15
100
AcDbBlockReference
  2
_DotSmall
 10
354.4727903259574
 20
1476.97154384069
 30
0.0
 41
35.0
 42
35.0
 43
35.0
 50
270.0
  0
INSERT
  5
1C0E
330
428
100
AcDbEntity
  8
寸法
 62
     0
370
    15
100
AcDbBlockReference
  2
_DotSmall
 10
354.4727903259574
 20
1491.97154384069
 30
0.0
 41
35.0
 42
35.0
 43
35.0
 50
90.0
  0
POINT
  5
1C0F
330
428
100
AcDbEntity
  8
Defpoints
 62
     0
100
AcDbPoint
 10
458.2684511875168
 20
1476.97154384069
 30
0.0
  0
POINT
  5
1C10
330
428
100
AcDbEntity
  8
Defpoints
 62
     0
100
AcDbPoint
 10
458.2684511875168
 20
1491.97154384069
 30
0.0
  0
POINT
  5
1C11
330
428
100
AcDbEntity
  8
Defpoints
 62
     0
100
AcDbPoint
 10
354.4727903259574
 20
1491.97154384069
 30
0.0
  0
ENDBLK
  5
433
330
428
100
AcDbEntity
  8
0
100
AcDbBlockEnd
  0
BLOCK
  5
464
330
45A
100
AcDbEntity
  8
0
100
AcDbBlockBegin
  2
*D10
 70
     1
 10
0.0
 20
0.0
 30
0.0
  3
*D10
  1

  0
LINE
  5
1C12
330
45A
100
AcDbEntity
  8
寸法
 62
     0
370
    15
100
AcDbLine
 10
393.2684511875168
 20
1491.97154384069
 30
0.0
 11
277.9803480864003
 21
1491.97154384069
 31
0.0
  0
LINE
  5
1C13
330
45A
100
AcDbEntity
  8
寸法
 62
     0
370
    15
100
AcDbLine
 10
393.2684511875168
 20
1051.97154384069
 30
0.0
 11
277.9803480864002
 21
1051.97154384069
 31
0.0
  0
LINE
  5
1C14
330
45A
100
AcDbEntity
  8
寸法
 62
     0
370
    15
100
AcDbLine
 10
277.9803480864003
 20
1491.97154384069
 30
0.0
 11
277.9803480864002
 21
1051.97154384069
 31
0.0
  0
INSERT
  5
1C15
330
45A
100
AcDbEntity
  8
寸法
 62
     0
370
    15
100
AcDbBlockReference
  2
_DotSmall
 10
277.9803480864003
 20
1491.97154384069
 30
0.0
 41
35.0
 42
35.0
 43
35.0
 50
90.0
  0
INSERT
  5
1C16
330
45A
100
AcDbEntity
  8
寸法
 62
     0
370
    15
100
AcDbBlockReference
  2
_DotSmall
 10
277.9803480864002
 20
1051.97154384069
 30
0.0
 41
35.0
 42
35.0
 43
35.0
 50
270.0
  0
MTEXT
  5
1C17
330
45A
100
AcDbEntity
  8
寸法
 62
     0
100
AcDbMText
 10
259.2303480864
 20
1271.97154384069
 30
0.0
 40
25.0
 41
0.0
 71
     5
 72
     1
  1
440
 11
0.0000000000000001
 21
1.0
 31
0.0
 73
     1
 44
1.0
1001
ACAD
1000
MTEXTBEGIN
1070
    73
1070
     1
1070
    44
1040
1.0
1070
    74
1070
     0
1000
MTEXTEND
  0
POINT
  5
1C18
330
45A
100
AcDbEntity
  8
Defpoints
 62
     0
100
AcDbPoint
 10
458.2684511875168
 20
1491.97154384069
 30
0.0
  0
POINT
  5
1C19
330
45A
100
AcDbEntity
  8
Defpoints
 62
     0
100
AcDbPoint
 10
458.2684511875168
 20
1051.97154384069
 30
0.0
  0
POINT
  5
1C1A
330
45A
100
AcDbEntity
  8
Defpoints
 62
     0
100
AcDbPoint
 10
277.9803480864002
 20
1051.97154384069
 30
0.0
  0
ENDBLK
  5
465
330
45A
100
AcDbEntity
  8
0
100
AcDbBlockEnd
  0
BLOCK
  5
471
330
467
100
AcDbEntity
  8
0
100
AcDbBlockBegin
  2
*D11
 70
     1
 10
0.0
 20
0.0
 30
0.0
  3
*D11
  1

  0
LINE
  5
1C1B
330
467
100
AcDbEntity
  8
寸法
 62
     0
370
    15
100
AcDbLine
 10
393.2684511875168
 20
1491.97154384069
 30
0.0
 11
277.9803480864002
 21
1491.97154384069
 31
0.0
  0
LINE
  5
1C1C
330
467
100
AcDbEntity
  8
寸法
 62
     0
370
    15
100
AcDbLine
 10
393.2684511875168
 20
1571.97154384069
 30
0.0
 11
277.9803480864002
 21
1571.97154384069
 31
0.0
  0
LINE
  5
1C1D
330
467
100
AcDbEntity
  8
寸法
 62
     0
370
    15
100
AcDbLine
 10
277.9803480864002
 20
1491.97154384069
 30
0.0
 11
277.9803480864002
 21
1571.97154384069
 31
0.0
  0
INSERT
  5
1C1E
330
467
100
AcDbEntity
  8
寸法
 62
     0
370
    15
100
AcDbBlockReference
  2
_DotSmall
 10
277.9803480864002
 20
1491.97154384069
 30
0.0
 41
35.0
 42
35.0
 43
35.0
 50
270.0
  0
INSERT
  5
1C1F
330
467
100
AcDbEntity
  8
寸法
 62
     0
370
    15
100
AcDbBlockReference
  2
_DotSmall
 10
277.9803480864002
 20
1571.97154384069
 30
0.0
 41
35.0
 42
35.0
 43
35.0
 50
90.0
  0
MTEXT
  5
1C20
330
467
100
AcDbEntity
  8
寸法
 62
     0
100
AcDbMText
 10
259.2303480864
 20
1531.97154384069
 30
0.0
 40
25.0
 41
0.0
 71
     5
 72
     1
  1
80
 11
0.0000000000000001
 21
1.0
 31
0.0
 73
     1
 44
1.0
1001
ACAD
1000
MTEXTBEGIN
1070
    73
1070
     1
1070
    44
1040
1.0
1070
    74
1070
     0
1000
MTEXTEND
  0
POINT
  5
1C21
330
467
100
AcDbEntity
  8
Defpoints
 62
     0
100
AcDbPoint
 10
458.2684511875168
 20
1491.97154384069
 30
0.0
  0
POINT
  5
1C22
330
467
100
AcDbEntity
  8
Defpoints
 62
     0
100
AcDbPoint
 10
458.2684511875168
 20
1571.97154384069
 30
0.0
  0
POINT
  5
1C23
330
467
100
AcDbEntity
  8
Defpoints
 62
     0
100
AcDbPoint
 10
277.9803480864002
 20
1571.97154384069
 30
0.0
  0
ENDBLK
  5
472
330
467
100
AcDbEntity
  8
0
100
AcDbBlockEnd
  0
BLOCK
  5
487
330
47D
100
AcDbEntity
  8
0
100
AcDbBlockBegin
  2
*D12
 70
     1
 10
0.0
 20
0.0
 30
0.0
  3
*D12
  1

  0
LINE
  5
1C24
330
47D
100
AcDbEntity
  8
寸法
 62
     0
370
    15
100
AcDbLine
 10
393.2684511875168
 20
1571.97154384069
 30
0.0
 11
277.9803480864002
 21
1571.97154384069
 31
0.0
  0
LINE
  5
1C25
330
47D
100
AcDbEntity
  8
寸法
 62
     0
370
    15
100
AcDbLine
 10
393.2684511875168
 20
1586.97154384069
 30
0.0
 11
277.9803480864002
 21
1586.97154384069
 31
0.0
  0
LINE
  5
1C26
330
47D
100
AcDbEntity
  8
寸法
 62
     0
370
    15
100
AcDbLine
 10
277.9803480864002
 20
1571.97154384069
 30
0.0
 11
277.9803480864002
 21
1586.97154384069
 31
0.0
  0
MTEXT
  5
1C27
330
47D
100
AcDbEntity
  8
寸法
 62
     0
100
AcDbMText
 10
269.745438391802
 20
1613.898263121023
 30
0.0
 40
25.0
 41
0.0
 71
     5
 72
     1
  1
15
 11
0.0000000000000001
 21
1.0
 31
0.0
 73
     1
 44
1.0
1001
ACAD
1000
MTEXTBEGIN
1070
    73
1070
     1
1070
    44
1040
1.0
1070
    74
1070
     0
1000
MTEXTEND
  0
INSERT
  5
1C28
330
47D
100
AcDbEntity
  8
寸法
 62
     0
370
    15
100
AcDbBlockReference
  2
_DotSmall
 10
277.9803480864002
 20
1571.97154384069
 30
0.0
 41
35.0
 42
35.0
 43
35.0
 50
270.0
  0
INSERT
  5
1C29
330
47D
100
AcDbEntity
  8
寸法
 62
     0
370
    15
100
AcDbBlockReference
  2
_DotSmall
 10
277.9803480864002
 20
1586.97154384069
 30
0.0
 41
35.0
 42
35.0
 43
35.0
 50
90.0
  0
POINT
  5
1C2A
330
47D
100
AcDbEntity
  8
Defpoints
 62
     0
100
AcDbPoint
 10
458.2684511875168
 20
1571.97154384069
 30
0.0
  0
POINT
  5
1C2B
330
47D
100
AcDbEntity
  8
Defpoints
 62
     0
100
AcDbPoint
 10
458.2684511875168
 20
1586.97154384069
 30
0.0
  0
POINT
  5
1C2C
330
47D
100
AcDbEntity
  8
Defpoints
 62
     0
100
AcDbPoint
 10
277.9803480864002
 20
1586.97154384069
 30
0.0
  0
ENDBLK
  5
488
330
47D
100
AcDbEntity
  8
0
100
AcDbBlockEnd
  0
BLOCK
  5
49D
330
493
100
AcDbEntity
  8
0
100
AcDbBlockBegin
  2
*D13
 70
     1
 10
0.0
 20
0.0
 30
0.0
  3
*D13
  1

  0
LINE
  5
1C2D
330
493
100
AcDbEntity
  8
寸法
 62
     0
370
    15
100
AcDbLine
 10
393.2684511875168
 20
1586.97154384069
 30
0.0
 11
200.4315643762221
 21
1586.97154384069
 31
0.0
  0
LINE
  5
1C2E
330
493
100
AcDbEntity
  8
寸法
 62
     0
370
    15
100
AcDbLine
 10
393.2684511875168
 20
1036.97154384069
 30
0.0
 11
200.431564376222
 21
1036.97154384069
 31
0.0
  0
LINE
  5
1C2F
330
493
100
AcDbEntity
  8
寸法
 62
     0
370
    15
100
AcDbLine
 10
200.4315643762221
 20
1586.97154384069
 30
0.0
 11
200.431564376222
 21
1036.97154384069
 31
0.0
  0
INSERT
  5
1C30
330
493
100
AcDbEntity
  8
寸法
 62
     0
370
    15
100
AcDbBlockReference
  2
_DotSmall
 10
200.4315643762221
 20
1586.97154384069
 30
0.0
 41
35.0
 42
35.0
 43
35.0
 50
90.0
  0
INSERT
  5
1C31
330
493
100
AcDbEntity
  8
寸法
 62
     0
370
    15
100
AcDbBlockReference
  2
_DotSmall
 10
200.431564376222
 20
1036.97154384069
 30
0.0
 41
35.0
 42
35.0
 43
35.0
 50
270.0
  0
MTEXT
  5
1C32
330
493
100
AcDbEntity
  8
寸法
 62
     0
100
AcDbMText
 10
181.6815643762218
 20
1311.97154384069
 30
0.0
 40
25.0
 41
0.0
 71
     5
 72
     1
  1
550
 11
0.0000000000000001
 21
1.0
 31
0.0
 73
     1
 44
1.0
1001
ACAD
1000
MTEXTBEGIN
1070
    73
1070
     1
1070
    44
1040
1.0
1070
    74
1070
     0
1000
MTEXTEND
  0
POINT
  5
1C33
330
493
100
AcDbEntity
  8
Defpoints
 62
     0
100
AcDbPoint
 10
458.2684511875168
 20
1586.97154384069
 30
0.0
  0
POINT
  5
1C34
330
493
100
AcDbEntity
  8
Defpoints
 62
     0
100
AcDbPoint
 10
458.2684511875168
 20
1036.97154384069
 30
0.0
  0
POINT
  5
1C35
330
493
100
AcDbEntity
  8
Defpoints
 62
     0
100
AcDbPoint
 10
200.431564376222
 20
1036.97154384069
 30
0.0
  0
ENDBLK
  5
49E
330
493
100
AcDbEntity
  8
0
100
AcDbBlockEnd
  0
BLOCK
  5
4CF
330
4C4
100
AcDbEntity
  8
0
100
AcDbBlockBegin
  2
*D14
 70
     1
 10
0.0
 20
0.0
 30
0.0
  3
*D14
  1

  0
LINE
  5
1C36
330
4C4
100
AcDbEntity
  8
寸法
 62
     0
370
    15
100
AcDbLine
 10
393.2684511875168
 20
1051.97154384069
 30
0.0
 11
277.9803480864002
 21
1051.97154384069
 31
0.0
  0
LINE
  5
1C37
330
4C4
100
AcDbEntity
  8
寸法
 62
     0
370
    15
100
AcDbLine
 10
393.2684511875168
 20
1036.97154384069
 30
0.0
 11
277.9803480864002
 21
1036.97154384069
 31
0.0
  0
LINE
  5
1C38
330
4C4
100
AcDbEntity
  8
寸法
 62
     0
370
    15
100
AcDbLine
 10
277.9803480864002
 20
1051.97154384069
 30
0.0
 11
277.9803480864002
 21
1036.97154384069
 31
0.0
  0
MTEXT
  5
1C39
330
4C4
100
AcDbEntity
  8
寸法
 62
     0
100
AcDbMText
 10
250.0175618932044
 20
1064.411651297272
 30
0.0
 40
25.0
 41
0.0
 71
     5
 72
     1
  1
15
 11
0.0000000000000001
 21
1.0
 31
0.0
 73
     1
 44
1.0
1001
ACAD
1000
MTEXTBEGIN
1070
    73
1070
     1
1070
    44
1040
1.0
1070
    74
1070
     0
1000
MTEXTEND
  0
INSERT
  5
1C3A
330
4C4
100
AcDbEntity
  8
寸法
 62
     0
370
    15
100
AcDbBlockReference
  2
_DotSmall
 10
277.9803480864002
 20
1051.97154384069
 30
0.0
 41
35.0
 42
35.0
 43
35.0
 50
90.0
  0
INSERT
  5
1C3B
330
4C4
100
AcDbEntity
  8
寸法
 62
     0
370
    15
100
AcDbBlockReference
  2
_DotSmall
 10
277.9803480864002
 20
1036.97154384069
 30
0.0
 41
35.0
 42
35.0
 43
35.0
 50
270.0
  0
POINT
  5
1C3C
330
4C4
100
AcDbEntity
  8
Defpoints
 62
     0
100
AcDbPoint
 10
458.2684511875168
 20
1051.97154384069
 30
0.0
  0
POINT
  5
1C3D
330
4C4
100
AcDbEntity
  8
Defpoints
 62
     0
100
AcDbPoint
 10
458.2684511875168
 20
1036.97154384069
 30
0.0
  0
POINT
  5
1C3E
330
4C4
100
AcDbEntity
  8
Defpoints
 62
     0
100
AcDbPoint
 10
277.9803480864002
 20
1036.97154384069
 30
0.0
  0
ENDBLK
  5
4D0
330
4C4
100
AcDbEntity
  8
0
100
AcDbBlockEnd
  0
BLOCK
  5
4F1
330
4E6
100
AcDbEntity
  8
0
100
AcDbBlockBegin
  2
*D15
 70
     1
 10
0.0
 20
0.0
 30
0.0
  3
*D15
  1

  0
LINE
  5
2280
330
4E6
100
AcDbEntity
  8
寸法
 62
     0
370
    15
100
AcDbLine
 10
458.2684511875168
 20
971.9715438406902
 30
0.0
 11
458.2684511875168
 21
919.748218439785
 31
0.0
  0
LINE
  5
2281
330
4E6
100
AcDbEntity
  8
寸法
 62
     0
370
    15
100
AcDbLine
 10
473.2684511875167
 20
971.9715438406902
 30
0.0
 11
473.2684511875167
 21
919.748218439785
 31
0.0
  0
LINE
  5
2282
330
4E6
100
AcDbEntity
  8
寸法
 62
     0
370
    15
100
AcDbLine
 10
458.2684511875168
 20
919.748218439785
 30
0.0
 11
473.2684511875167
 21
919.748218439785
 31
0.0
  0
MTEXT
  5
2283
330
4E6
100
AcDbEntity
  8
寸法
 62
     0
100
AcDbMText
 10
509.162872574765
 20
939.2960975418537
 30
0.0
 40
25.0
 41
0.0
 71
     5
 72
     1
  1
15
 73
     1
 44
1.0
1001
ACAD
1000
MTEXTBEGIN
1070
    73
1070
     1
1070
    44
1040
1.0
1070
    74
1070
     0
1000
MTEXTEND
  0
INSERT
  5
2284
330
4E6
100
AcDbEntity
  8
寸法
 62
     0
370
    15
100
AcDbBlockReference
  2
_DotSmall
 10
458.2684511875168
 20
919.748218439785
 30
0.0
 41
35.0
 42
35.0
 43
35.0
 50
180.0
  0
INSERT
  5
2285
330
4E6
100
AcDbEntity
  8
寸法
 62
     0
370
    15
100
AcDbBlockReference
  2
_DotSmall
 10
473.2684511875167
 20
919.748218439785
 30
0.0
 41
35.0
 42
35.0
 43
35.0
  0
POINT
  5
2286
330
4E6
100
AcDbEntity
  8
Defpoints
 62
     0
100
AcDbPoint
 10
458.2684511875168
 20
1036.97154384069
 30
0.0
  0
POINT
  5
2287
330
4E6
100
AcDbEntity
  8
Defpoints
 62
     0
100
AcDbPoint
 10
473.2684511875167
 20
1036.97154384069
 30
0.0
  0
POINT
  5
2288
330
4E6
100
AcDbEntity
  8
Defpoints
 62
     0
100
AcDbPoint
 10
473.2684511875167
 20
919.748218439785
 30
0.0
  0
ENDBLK
  5
4F2
330
4E6
100
AcDbEntity
  8
0
100
AcDbBlockEnd
  0
BLOCK
  5
508
330
4FE
100
AcDbEntity
  8
0
100
AcDbBlockBegin
  2
*D16
 70
     1
 10
0.0
 20
0.0
 30
0.0
  3
*D16
  1

  0
LINE
  5
2246
330
4FE
100
AcDbEntity
  8
寸法
 62
     0
370
    15
100
AcDbLine
 10
473.2684511875167
 20
971.9715438406902
 30
0.0
 11
473.2684511875167
 21
919.748218439785
 31
0.0
  0
LINE
  5
2247
330
4FE
100
AcDbEntity
  8
寸法
 62
     0
370
    15
100
AcDbLine
 10
1273.268451187517
 20
971.9715438406902
 30
0.0
 11
1273.268451187517
 21
919.748218439785
 31
0.0
  0
LINE
  5
2248
330
4FE
100
AcDbEntity
  8
寸法
 62
     0
370
    15
100
AcDbLine
 10
473.2684511875167
 20
919.748218439785
 30
0.0
 11
1273.268451187517
 21
919.748218439785
 31
0.0
  0
INSERT
  5
2249
330
4FE
100
AcDbEntity
  8
寸法
 62
     0
370
    15
100
AcDbBlockReference
  2
_DotSmall
 10
473.2684511875167
 20
919.748218439785
 30
0.0
 41
35.0
 42
35.0
 43
35.0
 50
180.0
  0
INSERT
  5
224A
330
4FE
100
AcDbEntity
  8
寸法
 62
     0
370
    15
100
AcDbBlockReference
  2
_DotSmall
 10
1273.268451187517
 20
919.748218439785
 30
0.0
 41
35.0
 42
35.0
 43
35.0
  0
MTEXT
  5
224B
330
4FE
100
AcDbEntity
  8
寸法
 62
     0
100
AcDbMText
 10
873.2684511875168
 20
938.498218439785
 30
0.0
 40
25.0
 41
0.0
 71
     5
 72
     1
  1
800
 73
     1
 44
1.0
1001
ACAD
1000
MTEXTBEGIN
1070
    73
1070
     1
1070
    44
1040
1.0
1070
    74
1070
     0
1000
MTEXTEND
  0
POINT
  5
224C
330
4FE
100
AcDbEntity
  8
Defpoints
 62
     0
100
AcDbPoint
 10
473.2684511875167
 20
1036.97154384069
 30
0.0
  0
POINT
  5
224D
330
4FE
100
AcDbEntity
  8
Defpoints
 62
     0
100
AcDbPoint
 10
1273.268451187517
 20
1036.97154384069
 30
0.0
  0
POINT
  5
224E
330
4FE
100
AcDbEntity
  8
Defpoints
 62
     0
100
AcDbPoint
 10
1273.268451187517
 20
919.748218439785
 30
0.0
  0
ENDBLK
  5
509
330
4FE
100
AcDbEntity
  8
0
100
AcDbBlockEnd
  0
BLOCK
  5
517
330
50B
100
AcDbEntity
  8
0
100
AcDbBlockBegin
  2
*D17
 70
     1
 10
0.0
 20
0.0
 30
0.0
  3
*D17
  1

  0
LINE
  5
2289
330
50B
100
AcDbEntity
  8
寸法
 62
     0
370
    15
100
AcDbLine
 10
1273.268451187517
 20
971.9715438406902
 30
0.0
 11
1273.268451187517
 21
919.748218439785
 31
0.0
  0
LINE
  5
228A
330
50B
100
AcDbEntity
  8
寸法
 62
     0
370
    15
100
AcDbLine
 10
1288.268451187517
 20
971.9715438406902
 30
0.0
 11
1288.268451187517
 21
919.748218439785
 31
0.0
  0
LINE
  5
228B
330
50B
100
AcDbEntity
  8
寸法
 62
     0
370
    15
100
AcDbLine
 10
1273.268451187517
 20
919.748218439785
 30
0.0
 11
1288.268451187517
 21
919.748218439785
 31
0.0
  0
MTEXT
  5
228C
330
50B
100
AcDbEntity
  8
寸法
 62
     0
100
AcDbMText
 10
1231.635673380778
 20
938.498218439785
 30
0.0
 40
25.0
 41
0.0
 71
     5
 72
     1
  1
15
 73
     1
 44
1.0
1001
ACAD
1000
MTEXTBEGIN
1070
    73
1070
     1
1070
    44
1040
1.0
1070
    74
1070
     0
1000
MTEXTEND
  0
INSERT
  5
228D
330
50B
100
AcDbEntity
  8
寸法
 62
     0
370
    15
100
AcDbBlockReference
  2
_DotSmall
 10
1273.268451187517
 20
919.748218439785
 30
0.0
 41
35.0
 42
35.0
 43
35.0
 50
180.0
  0
INSERT
  5
228E
330
50B
100
AcDbEntity
  8
寸法
 62
     0
370
    15
100
AcDbBlockReference
  2
_DotSmall
 10
1288.268451187517
 20
919.748218439785
 30
0.0
 41
35.0
 42
35.0
 43
35.0
  0
POINT
  5
228F
330
50B
100
AcDbEntity
  8
Defpoints
 62
     0
100
AcDbPoint
 10
1273.268451187517
 20
1036.97154384069
 30
0.0
  0
POINT
  5
2290
330
50B
100
AcDbEntity
  8
Defpoints
 62
     0
100
AcDbPoint
 10
1288.268451187517
 20
1036.97154384069
 30
0.0
  0
POINT
  5
2291
330
50B
100
AcDbEntity
  8
Defpoints
 62
     0
100
AcDbPoint
 10
1288.268451187517
 20
919.748218439785
 30
0.0
  0
ENDBLK
  5
518
330
50B
100
AcDbEntity
  8
0
100
AcDbBlockEnd
  0
BLOCK
  5
52D
330
523
100
AcDbEntity
  8
0
100
AcDbBlockBegin
  2
*D18
 70
     1
 10
0.0
 20
0.0
 30
0.0
  3
*D18
  1

  0
LINE
  5
223D
330
523
100
AcDbEntity
  8
寸法
 62
     0
370
    15
100
AcDbLine
 10
458.2684511875168
 20
971.9715438406902
 30
0.0
 11
458.2684511875168
 21
845.6278032061254
 31
0.0
  0
LINE
  5
223E
330
523
100
AcDbEntity
  8
寸法
 62
     0
370
    15
100
AcDbLine
 10
1288.268451187517
 20
971.9715438406902
 30
0.0
 11
1288.268451187517
 21
845.6278032061254
 31
0.0
  0
LINE
  5
223F
330
523
100
AcDbEntity
  8
寸法
 62
     0
370
    15
100
AcDbLine
 10
458.2684511875168
 20
845.6278032061254
 30
0.0
 11
1288.268451187517
 21
845.6278032061254
 31
0.0
  0
INSERT
  5
2240
330
523
100
AcDbEntity
  8
寸法
 62
     0
370
    15
100
AcDbBlockReference
  2
_DotSmall
 10
458.2684511875168
 20
845.6278032061254
 30
0.0
 41
35.0
 42
35.0
 43
35.0
 50
180.0
  0
INSERT
  5
2241
330
523
100
AcDbEntity
  8
寸法
 62
     0
370
    15
100
AcDbBlockReference
  2
_DotSmall
 10
1288.268451187517
 20
845.6278032061254
 30
0.0
 41
35.0
 42
35.0
 43
35.0
  0
MTEXT
  5
2242
330
523
100
AcDbEntity
  8
寸法
 62
     0
100
AcDbMText
 10
873.2684511875168
 20
864.3778032061254
 30
0.0
 40
25.0
 41
0.0
 71
     5
 72
     1
  1
830
 73
     1
 44
1.0
1001
ACAD
1000
MTEXTBEGIN
1070
    73
1070
     1
1070
    44
1040
1.0
1070
    74
1070
     0
1000
MTEXTEND
  0
POINT
  5
2243
330
523
100
AcDbEntity
  8
Defpoints
 62
     0
100
AcDbPoint
 10
458.2684511875168
 20
1036.97154384069
 30
0.0
  0
POINT
  5
2244
330
523
100
AcDbEntity
  8
Defpoints
 62
     0
100
AcDbPoint
 10
1288.268451187517
 20
1036.97154384069
 30
0.0
  0
POINT
  5
2245
330
523
100
AcDbEntity
  8
Defpoints
 62
     0
100
AcDbPoint
 10
1288.268451187517
 20
845.6278032061254
 30
0.0
  0
ENDBLK
  5
52E
330
523
100
AcDbEntity
  8
0
100
AcDbBlockEnd
  0
BLOCK
  5
170C
330
1702
100
AcDbEntity
  8
0
100
AcDbBlockBegin
  2
*D19
 70
     1
 10
0.0
 20
0.0
 30
0.0
  3
*D19
  1

  0
LINE
  5
1D4C
330
1702
100
AcDbEntity
  8
実形
 62
     0
370
    15
100
AcDbLine
 10
473.2684511875167
 20
1667.564249497394
 30
0.0
 11
473.2684511875167
 21
1665.544543193063
 31
0.0
  0
LINE
  5
1D4D
330
1702
100
AcDbEntity
  8
実形
 62
     0
370
    15
100
AcDbLine
 10
513.2684511875168
 20
1667.564249497394
 30
0.0
 11
513.2684511875168
 21
1665.544543193063
 31
0.0
  0
LINE
  5
1D4E
330
1702
100
AcDbEntity
  8
実形
 62
     0
370
    15
100
AcDbLine
 10
473.2684511875167
 20
1665.544543193063
 30
0.0
 11
513.2684511875168
 21
1665.544543193063
 31
0.0
  0
MTEXT
  5
1D4F
330
1702
100
AcDbEntity
  8
実形
 62
     0
100
AcDbMText
 10
507.680935481967
 20
1691.579740174771
 30
0.0
 40
25.0
 41
0.0
 71
     5
 72
     1
  1
40
 73
     1
 44
1.0
1001
ACAD
1000
MTEXTBEGIN
1070
    73
1070
     1
1070
    44
1040
1.0
1070
    74
1070
     0
1000
MTEXTEND
  0
INSERT
  5
1D50
330
1702
100
AcDbEntity
  8
実形
 62
     0
370
    15
100
AcDbBlockReference
  2
_DotSmall
 10
473.2684511875167
 20
1665.544543193063
 30
0.0
 41
35.0
 42
35.0
 43
35.0
 50
180.0
  0
INSERT
  5
1D51
330
1702
100
AcDbEntity
  8
実形
 62
     0
370
    15
100
AcDbBlockReference
  2
_DotSmall
 10
513.2684511875168
 20
1665.544543193063
 30
0.0
 41
35.0
 42
35.0
 43
35.0
  0
POINT
  5
1D52
330
1702
100
AcDbEntity
  8
Defpoints
 62
     0
100
AcDbPoint
 10
473.2684511875167
 20
1557.564249497394
 30
0.0
  0
POINT
  5
1D53
330
1702
100
AcDbEntity
  8
Defpoints
 62
     0
100
AcDbPoint
 10
513.2684511875168
 20
1557.564249497394
 30
0.0
  0
POINT
  5
1D54
330
1702
100
AcDbEntity
  8
Defpoints
 62
     0
100
AcDbPoint
 10
513.2684511875168
 20
1665.544543193063
 30
0.0
  0
ENDBLK
  5
170D
330
1702
100
AcDbEntity
  8
0
100
AcDbBlockEnd
  0
BLOCK
  5
186F
330
1865
100
AcDbEntity
  8
0
100
AcDbBlockBegin
  2
*D20
 70
     1
 10
0.0
 20
0.0
 30
0.0
  3
*D20
  1

  0
LINE
  5
1C6C
330
1865
100
AcDbEntity
  8
寸法
 62
     0
370
    15
100
AcDbLine
 10
513.2684511875164
 20
1627.06085629634
 30
0.0
 11
513.2684511875164
 21
1666.392055524005
 31
0.0
  0
LINE
  5
1C6D
330
1865
100
AcDbEntity
  8
寸法
 62
     0
370
    15
100
AcDbLine
 10
803.2684511875164
 20
1627.06085629634
 30
0.0
 11
803.2684511875164
 21
1666.392055524005
 31
0.0
  0
LINE
  5
1C6E
330
1865
100
AcDbEntity
  8
寸法
 62
     0
370
    15
100
AcDbLine
 10
513.2684511875164
 20
1666.392055524005
 30
0.0
 11
803.2684511875164
 21
1666.392055524005
 31
0.0
  0
INSERT
  5
1C6F
330
1865
100
AcDbEntity
  8
寸法
 62
     0
370
    15
100
AcDbBlockReference
  2
_DotSmall
 10
513.2684511875164
 20
1666.392055524005
 30
0.0
 41
35.0
 42
35.0
 43
35.0
 50
180.0
  0
INSERT
  5
1C70
330
1865
100
AcDbEntity
  8
寸法
 62
     0
370
    15
100
AcDbBlockReference
  2
_DotSmall
 10
803.2684511875164
 20
1666.392055524005
 30
0.0
 41
35.0
 42
35.0
 43
35.0
  0
MTEXT
  5
1C71
330
1865
100
AcDbEntity
  8
寸法
 62
     0
100
AcDbMText
 10
658.2684511875164
 20
1685.142055524005
 30
0.0
 40
25.0
 41
0.0
 71
     5
 72
     1
  1
290
 73
     1
 44
1.0
1001
ACAD
1000
MTEXTBEGIN
1070
    73
1070
     1
1070
    44
1040
1.0
1070
    74
1070
     0
1000
MTEXTEND
  0
POINT
  5
1C72
330
1865
100
AcDbEntity
  8
Defpoints
 62
     0
100
AcDbPoint
 10
513.2684511875164
 20
1562.06085629634
 30
0.0
  0
POINT
  5
1C73
330
1865
100
AcDbEntity
  8
Defpoints
 62
     0
100
AcDbPoint
 10
803.2684511875164
 20
1562.06085629634
 30
0.0
  0
POINT
  5
1C74
330
1865
100
AcDbEntity
  8
Defpoints
 62
     0
100
AcDbPoint
 10
803.2684511875164
 20
1666.392055524005
 30
0.0
  0
ENDBLK
  5
1870
330
1865
100
AcDbEntity
  8
0
100
AcDbBlockEnd
  0
BLOCK
  5
18A9
330
18A8
100
AcDbEntity
  8
0
100
AcDbBlockBegin
  2
_None
 70
     0
 10
0.0
 20
0.0
 30
0.0
  3
_None
  1

  0
ENDBLK
  5
18AA
330
18A8
100
AcDbEntity
  8
0
100
AcDbBlockEnd
  0
BLOCK
  5
1CA2
330
1C98
100
AcDbEntity
  8
0
100
AcDbBlockBegin
  2
*D24
 70
     1
 10
0.0
 20
0.0
 30
0.0
  3
*D24
  1

  0
LINE
  5
1D31
330
1C98
100
AcDbEntity
  8
実形
 62
     0
370
    15
100
AcDbLine
 10
439.2684511875168
 20
1691.52980469384
 30
0.0
 11
439.2684511875168
 21
1726.450414333078
 31
0.0
  0
LINE
  5
1D32
330
1C98
100
AcDbEntity
  8
実形
 62
     0
370
    15
100
AcDbLine
 10
473.2684511875169
 20
1691.52980469384
 30
0.0
 11
473.2684511875169
 21
1726.450414333078
 31
0.0
  0
LINE
  5
1D33
330
1C98
100
AcDbEntity
  8
実形
 62
     0
370
    15
100
AcDbLine
 10
439.2684511875168
 20
1726.450414333078
 30
0.0
 11
473.2684511875169
 21
1726.450414333078
 31
0.0
  0
MTEXT
  5
1D34
330
1C98
100
AcDbEntity
  8
実形
 62
     0
100
AcDbMText
 10
479.1625334921246
 20
1761.450414333078
 30
0.0
 40
25.0
 41
0.0
 71
     5
 72
     1
  1
35
 73
     1
 44
1.0
1001
ACAD
1000
MTEXTBEGIN
1070
    73
1070
     1
1070
    44
1040
1.0
1070
    74
1070
     0
1000
MTEXTEND
  0
INSERT
  5
1D35
330
1C98
100
AcDbEntity
  8
実形
 62
     0
370
    15
100
AcDbBlockReference
  2
_DotSmall
 10
439.2684511875168
 20
1726.450414333078
 30
0.0
 41
35.0
 42
35.0
 43
35.0
 50
180.0
  0
INSERT
  5
1D36
330
1C98
100
AcDbEntity
  8
実形
 62
     0
370
    15
100
AcDbBlockReference
  2
_DotSmall
 10
473.2684511875169
 20
1726.450414333078
 30
0.0
 41
35.0
 42
35.0
 43
35.0
  0
POINT
  5
1D37
330
1C98
100
AcDbEntity
  8
Defpoints
 62
     0
100
AcDbPoint
 10
439.2684511875168
 20
1626.52980469384
 30
0.0
  0
POINT
  5
1D38
330
1C98
100
AcDbEntity
  8
Defpoints
 62
     0
100
AcDbPoint
 10
473.2684511875169
 20
1626.52980469384
 30
0.0
  0
POINT
  5
1D39
330
1C98
100
AcDbEntity
  8
Defpoints
 62
     0
100
AcDbPoint
 10
473.2684511875169
 20
1726.450414333078
 30
0.0
  0
ENDBLK
  5
1CA3
330
1C98
100
AcDbEntity
  8
0
100
AcDbBlockEnd
  0
BLOCK
  5
1CAF
330
1CA5
100
AcDbEntity
  8
0
100
AcDbBlockBegin
  2
*D25
 70
     1
 10
0.0
 20
0.0
 30
0.0
  3
*D25
  1

  0
LINE
  5
1D3A
330
1CA5
100
AcDbEntity
  8
実形
 62
     0
370
    15
100
AcDbLine
 10
1273.268451187516
 20
1691.52980469384
 30
0.0
 11
1273.268451187516
 21
1726.450414333078
 31
0.0
  0
LINE
  5
1D3B
330
1CA5
100
AcDbEntity
  8
実形
 62
     0
370
    15
100
AcDbLine
 10
1307.268451187517
 20
1691.52980469384
 30
0.0
 11
1307.268451187517
 21
1726.450414333078
 31
0.0
  0
LINE
  5
1D3C
330
1CA5
100
AcDbEntity
  8
実形
 62
     0
370
    15
100
AcDbLine
 10
1273.268451187516
 20
1726.450414333078
 30
0.0
 11
1307.268451187517
 21
1726.450414333078
 31
0.0
  0
MTEXT
  5
1D3D
330
1CA5
100
AcDbEntity
  8
実形
 62
     0
100
AcDbMText
 10
1266.381163401729
 20
1761.450414333078
 30
0.0
 40
25.0
 41
0.0
 71
     5
 72
     1
  1
35
 73
     1
 44
1.0
1001
ACAD
1000
MTEXTBEGIN
1070
    73
1070
     1
1070
    44
1040
1.0
1070
    74
1070
     0
1000
MTEXTEND
  0
INSERT
  5
1D3E
330
1CA5
100
AcDbEntity
  8
実形
 62
     0
370
    15
100
AcDbBlockReference
  2
_DotSmall
 10
1273.268451187516
 20
1726.450414333078
 30
0.0
 41
35.0
 42
35.0
 43
35.0
 50
180.0
  0
INSERT
  5
1D3F
330
1CA5
100
AcDbEntity
  8
実形
 62
     0
370
    15
100
AcDbBlockReference
  2
_DotSmall
 10
1307.268451187517
 20
1726.450414333078
 30
0.0
 41
35.0
 42
35.0
 43
35.0
  0
POINT
  5
1D40
330
1CA5
100
AcDbEntity
  8
Defpoints
 62
     0
100
AcDbPoint
 10
1273.268451187516
 20
1626.52980469384
 30
0.0
  0
POINT
  5
1D41
330
1CA5
100
AcDbEntity
  8
Defpoints
 62
     0
100
AcDbPoint
 10
1307.268451187517
 20
1626.52980469384
 30
0.0
  0
POINT
  5
1D42
330
1CA5
100
AcDbEntity
  8
Defpoints
 62
     0
100
AcDbPoint
 10
1307.268451187517
 20
1726.450414333078
 30
0.0
  0
ENDBLK
  5
1CB0
330
1CA5
100
AcDbEntity
  8
0
100
AcDbBlockEnd
  0
BLOCK
  5
1CE0
330
1CD6
100
AcDbEntity
  8
0
100
AcDbBlockBegin
  2
*D26
 70
     1
 10
0.0
 20
0.0
 30
0.0
  3
*D26
  1

  0
LINE
  5
1D43
330
1CD6
100
AcDbEntity
  8
実形
 62
     0
370
    15
100
AcDbLine
 10
439.2684511875168
 20
1691.52980469384
 30
0.0
 11
439.2684511875168
 21
1798.119625820569
 31
0.0
  0
LINE
  5
1D44
330
1CD6
100
AcDbEntity
  8
実形
 62
     0
370
    15
100
AcDbLine
 10
1307.268451187517
 20
1691.52980469384
 30
0.0
 11
1307.268451187517
 21
1798.119625820569
 31
0.0
  0
LINE
  5
1D45
330
1CD6
100
AcDbEntity
  8
実形
 62
     0
370
    15
100
AcDbLine
 10
439.2684511875168
 20
1798.119625820569
 30
0.0
 11
1307.268451187517
 21
1798.119625820569
 31
0.0
  0
INSERT
  5
1D46
330
1CD6
100
AcDbEntity
  8
実形
 62
     0
370
    15
100
AcDbBlockReference
  2
_DotSmall
 10
439.2684511875168
 20
1798.119625820569
 30
0.0
 41
35.0
 42
35.0
 43
35.0
 50
180.0
  0
INSERT
  5
1D47
330
1CD6
100
AcDbEntity
  8
実形
 62
     0
370
    15
100
AcDbBlockReference
  2
_DotSmall
 10
1307.268451187517
 20
1798.119625820569
 30
0.0
 41
35.0
 42
35.0
 43
35.0
  0
MTEXT
  5
1D48
330
1CD6
100
AcDbEntity
  8
実形
 62
     0
100
AcDbMText
 10
873.2684511875168
 20
1816.869625820569
 30
0.0
 40
25.0
 41
0.0
 71
     5
 72
     1
  1
868
 73
     1
 44
1.0
1001
ACAD
1000
MTEXTBEGIN
1070
    73
1070
     1
1070
    44
1040
1.0
1070
    74
1070
     0
1000
MTEXTEND
  0
POINT
  5
1D49
330
1CD6
100
AcDbEntity
  8
Defpoints
 62
     0
100
AcDbPoint
 10
439.2684511875168
 20
1626.52980469384
 30
0.0
  0
POINT
  5
1D4A
330
1CD6
100
AcDbEntity
  8
Defpoints
 62
     0
100
AcDbPoint
 10
1307.268451187517
 20
1626.52980469384
 30
0.0
  0
POINT
  5
1D4B
330
1CD6
100
AcDbEntity
  8
Defpoints
 62
     0
100
AcDbPoint
 10
1307.268451187517
 20
1798.119625820569
 30
0.0
  0
ENDBLK
  5
1CE1
330
1CD6
100
AcDbEntity
  8
0
100
AcDbBlockEnd
  0
BLOCK
  5
1CF1
330
1CE7
100
AcDbEntity
  8
0
100
AcDbBlockBegin
  2
*D27
 70
     1
 10
0.0
 20
0.0
 30
0.0
  3
*D27
  1

  0
LINE
  5
1D55
330
1CE7
100
AcDbEntity
  8
実形
 62
     0
370
    15
100
AcDbLine
 10
1328.894751395328
 20
1605.97154384069
 30
0.0
 11
1375.971909328977
 21
1605.97154384069
 31
0.0
  0
LINE
  5
1D56
330
1CE7
100
AcDbEntity
  8
実形
 62
     0
370
    15
100
AcDbLine
 10
1328.894751395328
 20
1571.97154384069
 30
0.0
 11
1375.971909328977
 21
1571.97154384069
 31
0.0
  0
LINE
  5
1D57
330
1CE7
100
AcDbEntity
  8
実形
 62
     0
370
    15
100
AcDbLine
 10
1375.971909328977
 20
1605.97154384069
 30
0.0
 11
1375.971909328977
 21
1571.97154384069
 31
0.0
  0
MTEXT
  5
1D58
330
1CE7
100
AcDbEntity
  8
実形
 62
     0
100
AcDbMText
 10
1350.544778831941
 20
1528.668103810878
 30
0.0
 40
25.0
 41
0.0
 71
     5
 72
     1
  1
35
 11
0.0000000000000001
 21
1.0
 31
0.0
 73
     1
 44
1.0
1001
ACAD
1000
MTEXTBEGIN
1070
    73
1070
     1
1070
    44
1040
1.0
1070
    74
1070
     0
1000
MTEXTEND
  0
INSERT
  5
1D59
330
1CE7
100
AcDbEntity
  8
実形
 62
     0
370
    15
100
AcDbBlockReference
  2
_DotSmall
 10
1375.971909328977
 20
1605.97154384069
 30
0.0
 41
35.0
 42
35.0
 43
35.0
 50
90.0
  0
INSERT
  5
1D5A
330
1CE7
100
AcDbEntity
  8
実形
 62
     0
370
    15
100
AcDbBlockReference
  2
_DotSmall
 10
1375.971909328977
 20
1571.97154384069
 30
0.0
 41
35.0
 42
35.0
 43
35.0
 50
270.0
  0
POINT
  5
1D5B
330
1CE7
100
AcDbEntity
  8
Defpoints
 62
     0
100
AcDbPoint
 10
1263.894751395328
 20
1605.97154384069
 30
0.0
  0
POINT
  5
1D5C
330
1CE7
100
AcDbEntity
  8
Defpoints
 62
     0
100
AcDbPoint
 10
1263.894751395328
 20
1571.97154384069
 30
0.0
  0
POINT
  5
1D5D
330
1CE7
100
AcDbEntity
  8
Defpoints
 62
     0
100
AcDbPoint
 10
1375.971909328977
 20
1571.97154384069
 30
0.0
  0
ENDBLK
  5
1CF2
330
1CE7
100
AcDbEntity
  8
0
100
AcDbBlockEnd
  0
BLOCK
  5
1CFE
330
1CF4
100
AcDbEntity
  8
0
100
AcDbBlockBegin
  2
*D28
 70
     1
 10
0.0
 20
0.0
 30
0.0
  3
*D28
  1

  0
LINE
  5
1D5E
330
1CF4
100
AcDbEntity
  8
実形
 62
     0
370
    15
100
AcDbLine
 10
1328.894751395328
 20
1051.97154384069
 30
0.0
 11
1375.971909328976
 21
1051.97154384069
 31
0.0
  0
LINE
  5
1D5F
330
1CF4
100
AcDbEntity
  8
実形
 62
     0
370
    15
100
AcDbLine
 10
1328.894751395328
 20
1017.97154384069
 30
0.0
 11
1375.971909328976
 21
1017.97154384069
 31
0.0
  0
LINE
  5
1D60
330
1CF4
100
AcDbEntity
  8
実形
 62
     0
370
    15
100
AcDbLine
 10
1375.971909328976
 20
1051.97154384069
 30
0.0
 11
1375.971909328976
 21
1017.97154384069
 31
0.0
  0
MTEXT
  5
1D61
330
1CF4
100
AcDbEntity
  8
実形
 62
     0
100
AcDbMText
 10
1354.615662778857
 20
1096.935634186067
 30
0.0
 40
25.0
 41
0.0
 71
     5
 72
     1
  1
35
 11
0.0000000000000001
 21
1.0
 31
0.0
 73
     1
 44
1.0
1001
ACAD
1000
MTEXTBEGIN
1070
    73
1070
     1
1070
    44
1040
1.0
1070
    74
1070
     0
1000
MTEXTEND
  0
INSERT
  5
1D62
330
1CF4
100
AcDbEntity
  8
実形
 62
     0
370
    15
100
AcDbBlockReference
  2
_DotSmall
 10
1375.971909328976
 20
1051.97154384069
 30
0.0
 41
35.0
 42
35.0
 43
35.0
 50
90.0
  0
INSERT
  5
1D63
330
1CF4
100
AcDbEntity
  8
実形
 62
     0
370
    15
100
AcDbBlockReference
  2
_DotSmall
 10
1375.971909328976
 20
1017.97154384069
 30
0.0
 41
35.0
 42
35.0
 43
35.0
 50
270.0
  0
POINT
  5
1D64
330
1CF4
100
AcDbEntity
  8
Defpoints
 62
     0
100
AcDbPoint
 10
1263.894751395328
 20
1051.97154384069
 30
0.0
  0
POINT
  5
1D65
330
1CF4
100
AcDbEntity
  8
Defpoints
 62
     0
100
AcDbPoint
 10
1263.894751395328
 20
1017.97154384069
 30
0.0
  0
POINT
  5
1D66
330
1CF4
100
AcDbEntity
  8
Defpoints
 62
     0
100
AcDbPoint
 10
1375.971909328976
 20
1017.97154384069
 30
0.0
  0
ENDBLK
  5
1CFF
330
1CF4
100
AcDbEntity
  8
0
100
AcDbBlockEnd
  0
BLOCK
  5
1D2F
330
1D25
100
AcDbEntity
  8
0
100
AcDbBlockBegin
  2
*D29
 70
     1
 10
0.0
 20
0.0
 30
0.0
  3
*D29
  1

  0
LINE
  5
1D67
330
1D25
100
AcDbEntity
  8
実形
 62
     0
370
    15
100
AcDbLine
 10
1328.894751395328
 20
1605.97154384069
 30
0.0
 11
1447.979645116479
 21
1605.97154384069
 31
0.0
  0
LINE
  5
1D68
330
1D25
100
AcDbEntity
  8
実形
 62
     0
370
    15
100
AcDbLine
 10
1328.894751395329
 20
1017.97154384069
 30
0.0
 11
1447.979645116478
 21
1017.97154384069
 31
0.0
  0
LINE
  5
1D69
330
1D25
100
AcDbEntity
  8
実形
 62
     0
370
    15
100
AcDbLine
 10
1447.979645116479
 20
1605.97154384069
 30
0.0
 11
1447.979645116478
 21
1017.97154384069
 31
0.0
  0
INSERT
  5
1D6A
330
1D25
100
AcDbEntity
  8
実形
 62
     0
370
    15
100
AcDbBlockReference
  2
_DotSmall
 10
1447.979645116479
 20
1605.97154384069
 30
0.0
 41
35.0
 42
35.0
 43
35.0
 50
90.0
  0
INSERT
  5
1D6B
330
1D25
100
AcDbEntity
  8
実形
 62
     0
370
    15
100
AcDbBlockReference
  2
_DotSmall
 10
1447.979645116478
 20
1017.97154384069
 30
0.0
 41
35.0
 42
35.0
 43
35.0
 50
270.0
  0
MTEXT
  5
1D6C
330
1D25
100
AcDbEntity
  8
実形
 62
     0
100
AcDbMText
 10
1429.229645116478
 20
1311.97154384069
 30
0.0
 40
25.0
 41
0.0
 71
     5
 72
     1
  1
588
 11
0.0000000000000001
 21
1.0
 31
0.0
 73
     1
 44
1.0
1001
ACAD
1000
MTEXTBEGIN
1070
    73
1070
     1
1070
    44
1040
1.0
1070
    74
1070
     0
1000
MTEXTEND
  0
POINT
  5
1D6D
330
1D25
100
AcDbEntity
  8
Defpoints
 62
     0
100
AcDbPoint
 10
1263.894751395328
 20
1605.97154384069
 30
0.0
  0
POINT
  5
1D6E
330
1D25
100
AcDbEntity
  8
Defpoints
 62
     0
100
AcDbPoint
 10
1263.894751395328
 20
1017.97154384069
 30
0.0
  0
POINT
  5
1D6F
330
1D25
100
AcDbEntity
  8
Defpoints
 62
     0
100
AcDbPoint
 10
1447.979645116478
 20
1017.97154384069
 30
0.0
  0
ENDBLK
  5
1D30
330
1D25
100
AcDbEntity
  8
0
100
AcDbBlockEnd
  0
BLOCK
  5
1EA2
330
1E98
100
AcDbEntity
  8
0
100
AcDbBlockBegin
  2
*D35
 70
     1
 10
0.0
 20
0.0
 30
0.0
  3
*D35
  1

  0
LINE
  5
2277
330
1E98
100
AcDbEntity
  8
実形
 62
     0
370
    18
100
AcDbLine
 10
401.5464012379363
 20
756.3558673239043
 30
0.0
 11
323.5466231292214
 21
756.3558673239043
 31
0.0
  0
LINE
  5
2278
330
1E98
100
AcDbEntity
  8
実形
 62
     0
370
    18
100
AcDbLine
 10
402.5251788791122
 20
738.3558673239043
 30
0.0
 11
323.5466231292214
 21
738.3558673239043
 31
0.0
  0
LINE
  5
2279
330
1E98
100
AcDbEntity
  8
実形
 62
     0
370
    18
100
AcDbLine
 10
323.5466231292214
 20
756.3558673239043
 30
0.0
 11
323.5466231292214
 21
738.3558673239043
 31
0.0
  0
MTEXT
  5
227A
330
1E98
100
AcDbEntity
  8
実形
 62
     0
100
AcDbMText
 10
243.3445424618678
 20
807.9023466689633
 30
0.0
 40
25.0
 41
0.0
 71
     5
 72
     1
  1
18
 11
0.0000000000000001
 21
1.0
 31
0.0
 73
     1
 44
1.0
1001
ACAD
1000
MTEXTBEGIN
1070
    73
1070
     1
1070
    44
1040
1.0
1070
    74
1070
     0
1000
MTEXTEND
  0
INSERT
  5
227B
330
1E98
100
AcDbEntity
  8
実形
 62
     0
370
    18
100
AcDbBlockReference
  2
_DotSmall
 10
323.5466231292214
 20
756.3558673239043
 30
0.0
 41
35.0
 42
35.0
 43
35.0
 50
90.0
  0
INSERT
  5
227C
330
1E98
100
AcDbEntity
  8
実形
 62
     0
370
    18
100
AcDbBlockReference
  2
_DotSmall
 10
323.5466231292214
 20
738.3558673239043
 30
0.0
 41
35.0
 42
35.0
 43
35.0
 50
270.0
  0
POINT
  5
227D
330
1E98
100
AcDbEntity
  8
Defpoints
 62
     0
100
AcDbPoint
 10
466.5464012379364
 20
756.3558673239043
 30
0.0
  0
POINT
  5
227E
330
1E98
100
AcDbEntity
  8
Defpoints
 62
     0
100
AcDbPoint
 10
467.5251788791122
 20
738.3558673239043
 30
0.0
  0
POINT
  5
227F
330
1E98
100
AcDbEntity
  8
Defpoints
 62
     0
100
AcDbPoint
 10
323.5466231292214
 20
738.3558673239043
 30
0.0
  0
ENDBLK
  5
1EA3
330
1E98
100
AcDbEntity
  8
0
100
AcDbBlockEnd
  0
BLOCK
  5
1EB0
330
1EA4
100
AcDbEntity
  8
0
100
AcDbBlockBegin
  2
*D36
 70
     1
 10
0.0
 20
0.0
 30
0.0
  3
*D36
  1

  0
LINE
  5
226C
330
1EA4
100
AcDbEntity
  8
実形
 62
     0
370
    18
100
AcDbLine
 10
402.5251788791122
 20
738.3558673239043
 30
0.0
 11
323.5466231292214
 21
738.3558673239043
 31
0.0
  0
LINE
  5
226D
330
1EA4
100
AcDbEntity
  8
実形
 62
     0
370
    18
100
AcDbLine
 10
402.5251788791122
 20
733.1558673239044
 30
0.0
 11
323.5466231292214
 21
733.1558673239044
 31
0.0
  0
LINE
  5
226E
330
1EA4
100
AcDbEntity
  8
実形
 62
     0
370
    18
100
AcDbLine
 10
323.5466231292214
 20
738.3558673239043
 30
0.0
 11
323.5466231292214
 21
773.3558673239043
 31
0.0
  0
LINE
  5
226F
330
1EA4
100
AcDbEntity
  8
実形
 62
     0
370
    18
100
AcDbLine
 10
323.5466231292214
 20
733.1558673239044
 30
0.0
 11
323.5466231292214
 21
698.1558673239044
 31
0.0
  0
MTEXT
  5
2270
330
1EA4
100
AcDbEntity
  8
実形
 62
     0
100
AcDbMText
 10
246.1193928832474
 20
710.0955848679624
 30
0.0
 40
25.0
 41
0.0
 71
     5
 72
     1
  1
5.2
 11
0.0000000000000001
 21
1.0
 31
0.0
 73
     1
 44
1.0
1001
ACAD
1000
MTEXTBEGIN
1070
    73
1070
     1
1070
    44
1040
1.0
1070
    74
1070
     0
1000
MTEXTEND
  0
LINE
  5
2271
330
1EA4
100
AcDbEntity
  8
実形
 62
     0
370
    18
100
AcDbLine
 10
323.5466231292214
 20
738.3558673239043
 30
0.0
 11
323.5466231292214
 21
733.1558673239044
 31
0.0
  0
INSERT
  5
2272
330
1EA4
100
AcDbEntity
  8
実形
 62
     0
370
    18
100
AcDbBlockReference
  2
_DotSmall
 10
323.5466231292214
 20
738.3558673239043
 30
0.0
 41
35.0
 42
35.0
 43
35.0
 50
270.0
  0
INSERT
  5
2273
330
1EA4
100
AcDbEntity
  8
実形
 62
     0
370
    18
100
AcDbBlockReference
  2
_DotSmall
 10
323.5466231292214
 20
733.1558673239044
 30
0.0
 41
35.0
 42
35.0
 43
35.0
 50
90.0
  0
POINT
  5
2274
330
1EA4
100
AcDbEntity
  8
Defpoints
 62
     0
100
AcDbPoint
 10
467.5251788791122
 20
738.3558673239043
 30
0.0
  0
POINT
  5
2275
330
1EA4
100
AcDbEntity
  8
Defpoints
 62
     0
100
AcDbPoint
 10
467.5251788791122
 20
733.1558673239044
 30
0.0
  0
POINT
  5
2276
330
1EA4
100
AcDbEntity
  8
Defpoints
 62
     0
100
AcDbPoint
 10
323.5466231292214
 20
733.1558673239044
 30
0.0
  0
ENDBLK
  5
1EB1
330
1EA4
100
AcDbEntity
  8
0
100
AcDbBlockEnd
  0
BLOCK
  5
1EBC
330
1EB2
100
AcDbEntity
  8
0
100
AcDbBlockBegin
  2
*D37
 70
     1
 10
0.0
 20
0.0
 30
0.0
  3
*D37
  1

  0
LINE
  5
2258
330
1EB2
100
AcDbEntity
  8
実形
 62
     0
370
    18
100
AcDbLine
 10
402.5251788791122
 20
733.1558673239044
 30
0.0
 11
323.5466231292214
 21
733.1558673239044
 31
0.0
  0
LINE
  5
2259
330
1EB2
100
AcDbEntity
  8
実形
 62
     0
370
    18
100
AcDbLine
 10
347.458671104365
 20
548.1558673239042
 30
0.0
 11
323.5466231292213
 21
548.1558673239042
 31
0.0
  0
LINE
  5
225A
330
1EB2
100
AcDbEntity
  8
実形
 62
     0
370
    18
100
AcDbLine
 10
323.5466231292214
 20
733.1558673239044
 30
0.0
 11
323.5466231292213
 21
548.1558673239042
 31
0.0
  0
MTEXT
  5
225B
330
1EB2
100
AcDbEntity
  8
実形
 62
     0
100
AcDbMText
 10
297.6727967846911
 20
628.9186192081562
 30
0.0
 40
25.0
 41
0.0
 71
     5
 72
     1
  1
185
 11
0.0000000000000001
 21
1.0
 31
0.0
 73
     1
 44
1.0
1001
ACAD
1000
MTEXTBEGIN
1070
    73
1070
     1
1070
    44
1040
1.0
1070
    74
1070
     0
1000
MTEXTEND
  0
INSERT
  5
225C
330
1EB2
100
AcDbEntity
  8
実形
 62
     0
370
    18
100
AcDbBlockReference
  2
_DotSmall
 10
323.5466231292214
 20
733.1558673239044
 30
0.0
 41
35.0
 42
35.0
 43
35.0
 50
90.0
  0
INSERT
  5
225D
330
1EB2
100
AcDbEntity
  8
実形
 62
     0
370
    18
100
AcDbBlockReference
  2
_DotSmall
 10
323.5466231292213
 20
548.1558673239042
 30
0.0
 41
35.0
 42
35.0
 43
35.0
 50
270.0
  0
POINT
  5
225E
330
1EB2
100
AcDbEntity
  8
Defpoints
 62
     0
100
AcDbPoint
 10
467.5251788791122
 20
733.1558673239044
 30
0.0
  0
POINT
  5
225F
330
1EB2
100
AcDbEntity
  8
Defpoints
 62
     0
100
AcDbPoint
 10
412.458671104365
 20
548.1558673239042
 30
0.0
  0
POINT
  5
2260
330
1EB2
100
AcDbEntity
  8
Defpoints
 62
     0
100
AcDbPoint
 10
323.5466231292213
 20
548.1558673239042
 30
0.0
  0
ENDBLK
  5
1EBD
330
1EB2
100
AcDbEntity
  8
0
100
AcDbBlockEnd
  0
BLOCK
  5
1EC8
330
1EBE
100
AcDbEntity
  8
0
100
AcDbBlockBegin
  2
*D38
 70
     1
 10
0.0
 20
0.0
 30
0.0
  3
*D38
  1

  0
LINE
  5
224F
330
1EBE
100
AcDbEntity
  8
実形
 62
     0
370
    18
100
AcDbLine
 10
401.5464012379363
 20
756.3558673239043
 30
0.0
 11
212.9247246785801
 21
756.3558673239044
 31
0.0
  0
LINE
  5
2250
330
1EBE
100
AcDbEntity
  8
実形
 62
     0
370
    18
100
AcDbLine
 10
347.458671104365
 20
548.1558673239042
 30
0.0
 11
212.9247246785801
 21
548.1558673239044
 31
0.0
  0
LINE
  5
2251
330
1EBE
100
AcDbEntity
  8
実形
 62
     0
370
    18
100
AcDbLine
 10
212.9247246785801
 20
756.3558673239044
 30
0.0
 11
212.9247246785801
 21
548.1558673239044
 31
0.0
  0
INSERT
  5
2252
330
1EBE
100
AcDbEntity
  8
実形
 62
     0
370
    18
100
AcDbBlockReference
  2
_DotSmall
 10
212.9247246785801
 20
756.3558673239044
 30
0.0
 41
35.0
 42
35.0
 43
35.0
 50
90.0
  0
INSERT
  5
2253
330
1EBE
100
AcDbEntity
  8
実形
 62
     0
370
    18
100
AcDbBlockReference
  2
_DotSmall
 10
212.9247246785801
 20
548.1558673239044
 30
0.0
 41
35.0
 42
35.0
 43
35.0
 50
270.0
  0
MTEXT
  5
2254
330
1EBE
100
AcDbEntity
  8
実形
 62
     0
100
AcDbMText
 10
194.1747246785799
 20
652.2558673239045
 30
0.0
 40
25.0
 41
0.0
 71
     5
 72
     1
  1
208.2
 11
0.0000000000000001
 21
1.0
 31
0.0
 73
     1
 44
1.0
1001
ACAD
1000
MTEXTBEGIN
1070
    73
1070
     1
1070
    44
1040
1.0
1070
    74
1070
     0
1000
MTEXTEND
  0
POINT
  5
2255
330
1EBE
100
AcDbEntity
  8
Defpoints
 62
     0
100
AcDbPoint
 10
466.5464012379364
 20
756.3558673239043
 30
0.0
  0
POINT
  5
2256
330
1EBE
100
AcDbEntity
  8
Defpoints
 62
     0
100
AcDbPoint
 10
412.458671104365
 20
548.1558673239042
 30
0.0
  0
POINT
  5
2257
330
1EBE
100
AcDbEntity
  8
Defpoints
 62
     0
100
AcDbPoint
 10
212.9247246785801
 20
548.1558673239044
 30
0.0
  0
ENDBLK
  5
1EC9
330
1EBE
100
AcDbEntity
  8
0
100
AcDbBlockEnd
  0
BLOCK
  5
1ED6
330
1ECA
100
AcDbEntity
  8
0
100
AcDbBlockBegin
  2
*D39
 70
     1
 10
0.0
 20
0.0
 30
0.0
  3
*D39
  1

  0
LINE
  5
2261
330
1ECA
100
AcDbEntity
  8
実形
 62
     0
370
    18
100
AcDbLine
 10
403.6185766883447
 20
538.1558673239043
 30
0.0
 11
323.5466231292213
 21
538.1558673239043
 31
0.0
  0
LINE
  5
2262
330
1ECA
100
AcDbEntity
  8
実形
 62
     0
370
    18
100
AcDbLine
 10
403.6185766883447
 20
548.1558673239042
 30
0.0
 11
323.5466231292213
 21
548.1558673239042
 31
0.0
  0
LINE
  5
2263
330
1ECA
100
AcDbEntity
  8
実形
 62
     0
370
    18
100
AcDbLine
 10
323.5466231292213
 20
538.1558673239043
 30
0.0
 11
323.5466231292213
 21
503.1558673239043
 31
0.0
  0
LINE
  5
2264
330
1ECA
100
AcDbEntity
  8
実形
 62
     0
370
    18
100
AcDbLine
 10
323.5466231292213
 20
548.1558673239042
 30
0.0
 11
323.5466231292213
 21
583.1558673239043
 31
0.0
  0
MTEXT
  5
2265
330
1ECA
100
AcDbEntity
  8
実形
 62
     0
100
AcDbMText
 10
288.5466231292213
 20
521.8180836596676
 30
0.0
 40
25.0
 41
0.0
 71
     5
 72
     1
  1
7
 11
0.0000000000000001
 21
1.0
 31
0.0
 73
     1
 44
1.0
1001
ACAD
1000
MTEXTBEGIN
1070
    73
1070
     1
1070
    44
1040
1.0
1070
    74
1070
     0
1000
MTEXTEND
  0
LINE
  5
2266
330
1ECA
100
AcDbEntity
  8
実形
 62
     0
370
    18
100
AcDbLine
 10
323.5466231292213
 20
538.1558673239043
 30
0.0
 11
323.5466231292213
 21
548.1558673239042
 31
0.0
  0
INSERT
  5
2267
330
1ECA
100
AcDbEntity
  8
実形
 62
     0
370
    18
100
AcDbBlockReference
  2
_DotSmall
 10
323.5466231292213
 20
538.1558673239043
 30
0.0
 41
35.0
 42
35.0
 43
35.0
 50
90.0
  0
INSERT
  5
2268
330
1ECA
100
AcDbEntity
  8
実形
 62
     0
370
    18
100
AcDbBlockReference
  2
_DotSmall
 10
323.5466231292213
 20
548.1558673239042
 30
0.0
 41
35.0
 42
35.0
 43
35.0
 50
270.0
  0
POINT
  5
2269
330
1ECA
100
AcDbEntity
  8
Defpoints
 62
     0
100
AcDbPoint
 10
468.6185766883447
 20
538.1558673239043
 30
0.0
  0
POINT
  5
226A
330
1ECA
100
AcDbEntity
  8
Defpoints
 62
     0
100
AcDbPoint
 10
468.6185766883447
 20
548.1558673239042
 30
0.0
  0
POINT
  5
226B
330
1ECA
100
AcDbEntity
  8
Defpoints
 62
     0
100
AcDbPoint
 10
323.5466231292213
 20
548.1558673239042
 30
0.0
  0
ENDBLK
  5
1ED7
330
1ECA
100
AcDbEntity
  8
0
100
AcDbBlockEnd
  0
BLOCK
  5
2070
330
2066
100
AcDbEntity
  8
0
100
AcDbBlockBegin
  2
*D53
 70
     1
 10
0.0
 20
0.0
 30
0.0
  3
*D53
  1

  0
LINE
  5
221B
330
2066
100
AcDbEntity
  8
寸法
 62
     0
370
    15
100
AcDbLine
 10
1746.967133772457
 20
1437.47154384069
 30
0.0
 11
1704.264009183182
 21
1437.47154384069
 31
0.0
  0
LINE
  5
221C
330
2066
100
AcDbEntity
  8
寸法
 62
     0
370
    15
100
AcDbLine
 10
1746.967133772457
 20
1256.47154384069
 30
0.0
 11
1704.264009183182
 21
1256.47154384069
 31
0.0
  0
LINE
  5
221D
330
2066
100
AcDbEntity
  8
寸法
 62
     0
370
    15
100
AcDbLine
 10
1704.264009183182
 20
1437.47154384069
 30
0.0
 11
1704.264009183182
 21
1256.47154384069
 31
0.0
  0
MTEXT
  5
221E
330
2066
100
AcDbEntity
  8
寸法
 62
     0
100
AcDbMText
 10
1680.638753719176
 20
1349.24204733513
 30
0.0
 40
25.0
 41
0.0
 71
     5
 72
     1
  1
181%%C
 11
0.0000000000000001
 21
1.0
 31
0.0
 73
     1
 44
1.0
1001
ACAD
1000
MTEXTBEGIN
1070
    73
1070
     1
1070
    44
1040
1.0
1070
    74
1070
     0
1000
MTEXTEND
  0
INSERT
  5
221F
330
2066
100
AcDbEntity
  8
寸法
 62
     0
370
    15
100
AcDbBlockReference
  2
_DotSmall
 10
1704.264009183182
 20
1437.47154384069
 30
0.0
 41
35.0
 42
35.0
 43
35.0
 50
90.0
  0
INSERT
  5
2220
330
2066
100
AcDbEntity
  8
寸法
 62
     0
370
    15
100
AcDbBlockReference
  2
_DotSmall
 10
1704.264009183182
 20
1256.47154384069
 30
0.0
 41
35.0
 42
35.0
 43
35.0
 50
270.0
  0
POINT
  5
2221
330
2066
100
AcDbEntity
  8
Defpoints
 62
     0
100
AcDbPoint
 10
1811.967133772457
 20
1437.47154384069
 30
0.0
  0
POINT
  5
2222
330
2066
100
AcDbEntity
  8
Defpoints
 62
     0
100
AcDbPoint
 10
1811.967133772457
 20
1256.47154384069
 30
0.0
  0
POINT
  5
2223
330
2066
100
AcDbEntity
  8
Defpoints
 62
     0
100
AcDbPoint
 10
1704.264009183182
 20
1256.47154384069
 30
0.0
  0
ENDBLK
  5
2071
330
2066
100
AcDbEntity
  8
0
100
AcDbBlockEnd
  0
BLOCK
  5
2091
330
2089
100
AcDbEntity
  8
0
100
AcDbBlockBegin
  2
*D56
 70
     1
 10
0.0
 20
0.0
 30
0.0
  3
*D56
  1

  0
LINE
  5
2236
330
2089
100
AcDbEntity
  8
実形
 62
     0
370
    15
100
AcDbLine
 10
1724.514087548278
 20
1548.57154384069
 30
0.0
 11
1724.514087548278
 21
1515.37154384069
 31
0.0
  0
MTEXT
  5
2237
330
2089
100
AcDbEntity
  8
実形
 62
     0
100
AcDbMText
 10
1753.162521239351
 20
1531.97154384069
 30
0.0
 40
25.0
 41
0.0
 71
     5
 72
     1
  1
33
 11
0.0000000000000001
 21
1.0
 31
0.0
 73
     1
 44
1.0
1001
ACAD
1000
MTEXTBEGIN
1070
    73
1070
     1
1070
    44
1040
1.0
1070
    74
1070
     0
1000
MTEXTEND
  0
INSERT
  5
2238
330
2089
100
AcDbEntity
  8
実形
 62
     0
370
    15
100
AcDbBlockReference
  2
_DotSmall
 10
1724.514087548278
 20
1548.57154384069
 30
0.0
 41
35.0
 42
35.0
 43
35.0
 50
90.0
  0
INSERT
  5
2239
330
2089
100
AcDbEntity
  8
実形
 62
     0
370
    15
100
AcDbBlockReference
  2
_DotSmall
 10
1724.514087548278
 20
1515.37154384069
 30
0.0
 41
35.0
 42
35.0
 43
35.0
 50
270.0
  0
POINT
  5
223A
330
2089
100
AcDbEntity
  8
Defpoints
 62
     0
100
AcDbPoint
 10
1676.727747949327
 20
1548.57154384069
 30
0.0
  0
POINT
  5
223B
330
2089
100
AcDbEntity
  8
Defpoints
 62
     0
100
AcDbPoint
 10
1676.727747949327
 20
1515.37154384069
 30
0.0
  0
POINT
  5
223C
330
2089
100
AcDbEntity
  8
Defpoints
 62
     0
100
AcDbPoint
 10
1724.514087548278
 20
1515.37154384069
 30
0.0
  0
ENDBLK
  5
2092
330
2089
100
AcDbEntity
  8
0
100
AcDbBlockEnd
  0
BLOCK
  5
215E
330
2152
100
AcDbEntity
  8
0
 62
     3
100
AcDbBlockBegin
  2
*D64
 70
     1
 10
0.0
 20
0.0
 30
0.0
  3
*D64
  1

  0
LINE
  5
2207
330
2152
100
AcDbEntity
  8
実形
 62
     0
370
    15
100
AcDbLine
 10
1757.727747949327
 20
989.060169477733
 30
0.0
 11
1757.727747949327
 21
937.5533148900222
 31
0.0
  0
LINE
  5
2208
330
2152
100
AcDbEntity
  8
実形
 62
     0
370
    15
100
AcDbLine
 10
1764.727747949328
 20
989.060169477733
 30
0.0
 11
1764.727747949328
 21
937.5533148900222
 31
0.0
  0
LINE
  5
2209
330
2152
100
AcDbEntity
  8
実形
 62
     0
370
    15
100
AcDbLine
 10
1757.727747949327
 20
937.5533148900222
 30
0.0
 11
1722.727747949327
 21
937.5533148900222
 31
0.0
  0
LINE
  5
220A
330
2152
100
AcDbEntity
  8
実形
 62
     0
370
    15
100
AcDbLine
 10
1764.727747949328
 20
937.5533148900222
 30
0.0
 11
1799.727747949328
 21
937.5533148900222
 31
0.0
  0
MTEXT
  5
220B
330
2152
100
AcDbEntity
  8
実形
 62
     0
100
AcDbMText
 10
1816.129791484945
 20
948.4902093674728
 30
0.0
 40
25.0
 41
0.0
 71
     5
 72
     1
  1
7
 73
     1
 44
1.0
1001
ACAD
1000
MTEXTBEGIN
1070
    73
1070
     1
1070
    44
1040
1.0
1070
    74
1070
     0
1000
MTEXTEND
  0
LINE
  5
220C
330
2152
100
AcDbEntity
  8
実形
 62
     0
370
    15
100
AcDbLine
 10
1757.727747949327
 20
937.5533148900222
 30
0.0
 11
1764.727747949328
 21
937.5533148900222
 31
0.0
  0
INSERT
  5
220D
330
2152
100
AcDbEntity
  8
実形
 62
     0
370
    15
100
AcDbBlockReference
  2
_DotSmall
 10
1757.727747949327
 20
937.5533148900222
 30
0.0
 41
35.0
 42
35.0
 43
35.0
  0
INSERT
  5
220E
330
2152
100
AcDbEntity
  8
実形
 62
     0
370
    15
100
AcDbBlockReference
  2
_DotSmall
 10
1764.727747949328
 20
937.5533148900222
 30
0.0
 41
35.0
 42
35.0
 43
35.0
 50
180.0
  0
POINT
  5
220F
330
2152
100
AcDbEntity
  8
Defpoints
 62
     0
100
AcDbPoint
 10
1757.727747949327
 20
1054.060169477733
 30
0.0
  0
POINT
  5
2210
330
2152
100
AcDbEntity
  8
Defpoints
 62
     0
100
AcDbPoint
 10
1764.727747949328
 20
1054.060169477733
 30
0.0
  0
POINT
  5
2211
330
2152
100
AcDbEntity
  8
Defpoints
 62
     0
100
AcDbPoint
 10
1764.727747949328
 20
937.5533148900222
 30
0.0
  0
ENDBLK
  5
215F
330
2152
100
AcDbEntity
  8
0
 62
     3
100
AcDbBlockEnd
  0
BLOCK
  5
216A
330
2160
100
AcDbEntity
  8
0
 62
     3
100
AcDbBlockBegin
  2
*D65
 70
     1
 10
0.0
 20
0.0
 30
0.0
  3
*D65
  1

  0
LINE
  5
2212
330
2160
100
AcDbEntity
  8
実形
 62
     0
370
    15
100
AcDbLine
 10
1567.527747949327
 20
989.0601694777332
 30
0.0
 11
1567.527747949327
 21
894.3864695107631
 31
0.0
  0
LINE
  5
2213
330
2160
100
AcDbEntity
  8
実形
 62
     0
370
    15
100
AcDbLine
 10
1757.727747949327
 20
989.0601694777336
 30
0.0
 11
1757.727747949327
 21
894.3864695107631
 31
0.0
  0
LINE
  5
2214
330
2160
100
AcDbEntity
  8
実形
 62
     0
370
    15
100
AcDbLine
 10
1567.527747949327
 20
894.3864695107631
 30
0.0
 11
1757.727747949327
 21
894.3864695107631
 31
0.0
  0
INSERT
  5
2215
330
2160
100
AcDbEntity
  8
実形
 62
     0
370
    15
100
AcDbBlockReference
  2
_DotSmall
 10
1567.527747949327
 20
894.3864695107631
 30
0.0
 41
35.0
 42
35.0
 43
35.0
 50
180.0
  0
INSERT
  5
2216
330
2160
100
AcDbEntity
  8
実形
 62
     0
370
    15
100
AcDbBlockReference
  2
_DotSmall
 10
1757.727747949327
 20
894.3864695107631
 30
0.0
 41
35.0
 42
35.0
 43
35.0
  0
MTEXT
  5
2217
330
2160
100
AcDbEntity
  8
実形
 62
     0
100
AcDbMText
 10
1662.627747949327
 20
913.1364695107631
 30
0.0
 40
25.0
 41
0.0
 71
     5
 72
     1
  1
190.2
 73
     1
 44
1.0
1001
ACAD
1000
MTEXTBEGIN
1070
    73
1070
     1
1070
    44
1040
1.0
1070
    74
1070
     0
1000
MTEXTEND
  0
POINT
  5
2218
330
2160
100
AcDbEntity
  8
Defpoints
 62
     0
100
AcDbPoint
 10
1567.527747949327
 20
1054.060169477733
 30
0.0
  0
POINT
  5
2219
330
2160
100
AcDbEntity
  8
Defpoints
 62
     0
100
AcDbPoint
 10
1757.727747949327
 20
1054.060169477733
 30
0.0
  0
POINT
  5
221A
330
2160
100
AcDbEntity
  8
Defpoints
 62
     0
100
AcDbPoint
 10
1757.727747949327
 20
894.3864695107631
 30
0.0
  0
ENDBLK
  5
216B
330
2160
100
AcDbEntity
  8
0
 62
     3
100
AcDbBlockEnd
  0
BLOCK
  5
2176
330
216C
100
AcDbEntity
  8
0
 62
     3
100
AcDbBlockBegin
  2
*D66
 70
     1
 10
0.0
 20
0.0
 30
0.0
  3
*D66
  1

  0
LINE
  5
21FE
330
216C
100
AcDbEntity
  8
実形
 62
     0
370
    15
100
AcDbLine
 10
1549.527747949327
 20
989.0601694777332
 30
0.0
 11
1549.527747949327
 21
894.3864695107631
 31
0.0
  0
LINE
  5
21FF
330
216C
100
AcDbEntity
  8
実形
 62
     0
370
    15
100
AcDbLine
 10
1757.727747949327
 20
989.060169477733
 30
0.0
 11
1757.727747949327
 21
894.3864695107631
 31
0.0
  0
LINE
  5
2200
330
216C
100
AcDbEntity
  8
実形
 62
     0
370
    15
100
AcDbLine
 10
1549.527747949327
 20
894.3864695107631
 30
0.0
 11
1757.727747949327
 21
894.3864695107631
 31
0.0
  0
MTEXT
  5
2201
330
216C
100
AcDbEntity
  8
実形
 62
     0
100
AcDbMText
 10
1514.038707659492
 20
913.1364695107631
 30
0.0
 40
25.0
 41
0.0
 71
     5
 72
     1
  1
18
 73
     1
 44
1.0
1001
ACAD
1000
MTEXTBEGIN
1070
    73
1070
     1
1070
    44
1040
1.0
1070
    74
1070
     0
1000
MTEXTEND
  0
INSERT
  5
2202
330
216C
100
AcDbEntity
  8
実形
 62
     0
370
    15
100
AcDbBlockReference
  2
_DotSmall
 10
1549.527747949327
 20
894.3864695107631
 30
0.0
 41
35.0
 42
35.0
 43
35.0
 50
180.0
  0
INSERT
  5
2203
330
216C
100
AcDbEntity
  8
実形
 62
     0
370
    15
100
AcDbBlockReference
  2
_DotSmall
 10
1757.727747949327
 20
894.3864695107631
 30
0.0
 41
35.0
 42
35.0
 43
35.0
  0
POINT
  5
2204
330
216C
100
AcDbEntity
  8
Defpoints
 62
     0
100
AcDbPoint
 10
1549.527747949327
 20
1054.060169477733
 30
0.0
  0
POINT
  5
2205
330
216C
100
AcDbEntity
  8
Defpoints
 62
     0
100
AcDbPoint
 10
1757.727747949327
 20
1054.060169477733
 30
0.0
  0
POINT
  5
2206
330
216C
100
AcDbEntity
  8
Defpoints
 62
     0
100
AcDbPoint
 10
1757.727747949327
 20
894.3864695107631
 30
0.0
  0
ENDBLK
  5
2177
330
216C
100
AcDbEntity
  8
0
 62
     3
100
AcDbBlockEnd
  0
BLOCK
  5
2182
330
2178
100
AcDbEntity
  8
0
 62
     3
100
AcDbBlockBegin
  2
*D67
 70
     1
 10
0.0
 20
0.0
 30
0.0
  3
*D67
  1

  0
LINE
  5
21A1
330
2178
100
AcDbEntity
  8
実形
 62
     0
370
    15
100
AcDbLine
 10
1549.527747949327
 20
924.0601694777334
 30
0.0
 11
1549.527747949327
 21
846.3682841952277
 31
0.0
  0
LINE
  5
21A2
330
2178
100
AcDbEntity
  8
実形
 62
     0
370
    15
100
AcDbLine
 10
1757.727747949327
 20
924.060169477733
 30
0.0
 11
1757.727747949327
 21
846.3682841952277
 31
0.0
  0
LINE
  5
21A3
330
2178
100
AcDbEntity
  8
実形
 62
     0
370
    15
100
AcDbLine
 10
1549.527747949327
 20
846.3682841952277
 30
0.0
 11
1757.727747949327
 21
846.3682841952277
 31
0.0
  0
INSERT
  5
21A4
330
2178
100
AcDbEntity
  8
実形
 62
     0
370
    15
100
AcDbBlockReference
  2
_DotSmall
 10
1549.527747949327
 20
846.3682841952277
 30
0.0
 41
35.0
 42
35.0
 43
35.0
 50
180.0
  0
INSERT
  5
21A5
330
2178
100
AcDbEntity
  8
実形
 62
     0
370
    15
100
AcDbBlockReference
  2
_DotSmall
 10
1757.727747949327
 20
846.3682841952277
 30
0.0
 41
35.0
 42
35.0
 43
35.0
  0
MTEXT
  5
21A6
330
2178
100
AcDbEntity
  8
実形
 62
     0
100
AcDbMText
 10
1653.627747949327
 20
865.1182841952277
 30
0.0
 40
25.0
 41
0.0
 71
     5
 72
     1
  1
208.2
 73
     1
 44
1.0
1001
ACAD
1000
MTEXTBEGIN
1070
    73
1070
     1
1070
    44
1040
1.0
1070
    74
1070
     0
1000
MTEXTEND
  0
POINT
  5
21A7
330
2178
100
AcDbEntity
  8
Defpoints
 62
     0
100
AcDbPoint
 10
1549.527747949327
 20
989.0601694777332
 30
0.0
  0
POINT
  5
21A8
330
2178
100
AcDbEntity
  8
Defpoints
 62
     0
100
AcDbPoint
 10
1757.727747949327
 20
989.060169477733
 30
0.0
  0
POINT
  5
21A9
330
2178
100
AcDbEntity
  8
Defpoints
 62
     0
100
AcDbPoint
 10
1757.727747949327
 20
846.3682841952277
 30
0.0
  0
ENDBLK
  5
2183
330
2178
100
AcDbEntity
  8
0
 62
     3
100
AcDbBlockEnd
  0
BLOCK
  5
21DB
330
21D1
100
AcDbEntity
  8
0
 62
     3
100
AcDbBlockBegin
  2
*D70
 70
     1
 10
0.0
 20
0.0
 30
0.0
  3
*D70
  1

  0
LINE
  5
222D
330
21D1
100
AcDbEntity
  8
実形
 62
     0
370
    15
100
AcDbLine
 10
1549.527747949326
 20
1613.57154384069
 30
0.0
 11
1549.527747949326
 21
1647.880690845475
 31
0.0
  0
LINE
  5
222E
330
21D1
100
AcDbEntity
  8
実形
 62
     0
370
    15
100
AcDbLine
 10
1663.727747949327
 20
1613.57154384069
 30
0.0
 11
1663.727747949327
 21
1647.880690845475
 31
0.0
  0
LINE
  5
222F
330
21D1
100
AcDbEntity
  8
実形
 62
     0
370
    15
100
AcDbLine
 10
1549.527747949326
 20
1647.880690845475
 30
0.0
 11
1663.727747949327
 21
1647.880690845475
 31
0.0
  0
INSERT
  5
2230
330
21D1
100
AcDbEntity
  8
実形
 62
     0
370
    15
100
AcDbBlockReference
  2
_DotSmall
 10
1549.527747949326
 20
1647.880690845475
 30
0.0
 41
35.0
 42
35.0
 43
35.0
 50
180.0
  0
INSERT
  5
2231
330
21D1
100
AcDbEntity
  8
実形
 62
     0
370
    15
100
AcDbBlockReference
  2
_DotSmall
 10
1663.727747949327
 20
1647.880690845475
 30
0.0
 41
35.0
 42
35.0
 43
35.0
  0
MTEXT
  5
2232
330
21D1
100
AcDbEntity
  8
実形
 62
     0
100
AcDbMText
 10
1606.627747949326
 20
1666.630690845474
 30
0.0
 40
25.0
 41
0.0
 71
     5
 72
     1
  1
114.2
 73
     1
 44
1.0
1001
ACAD
1000
MTEXTBEGIN
1070
    73
1070
     1
1070
    44
1040
1.0
1070
    74
1070
     0
1000
MTEXTEND
  0
POINT
  5
2233
330
21D1
100
AcDbEntity
  8
Defpoints
 62
     0
100
AcDbPoint
 10
1549.527747949326
 20
1548.57154384069
 30
0.0
  0
POINT
  5
2234
330
21D1
100
AcDbEntity
  8
Defpoints
 62
     0
100
AcDbPoint
 10
1663.727747949327
 20
1548.57154384069
 30
0.0
  0
POINT
  5
2235
330
21D1
100
AcDbEntity
  8
Defpoints
 62
     0
100
AcDbPoint
 10
1663.727747949327
 20
1647.880690845475
 30
0.0
  0
ENDBLK
  5
21DC
330
21D1
100
AcDbEntity
  8
0
 62
     3
100
AcDbBlockEnd
  0
BLOCK
  5
21E7
330
21DD
100
AcDbEntity
  8
0
 62
     3
100
AcDbBlockBegin
  2
*D71
 70
     1
 10
0.0
 20
0.0
 30
0.0
  3
*D71
  1

  0
LINE
  5
2224
330
21DD
100
AcDbEntity
  8
実形
 62
     0
370
    15
100
AcDbLine
 10
1663.727747949327
 20
1613.57154384069
 30
0.0
 11
1663.727747949327
 21
1647.880690845475
 31
0.0
  0
LINE
  5
2225
330
21DD
100
AcDbEntity
  8
実形
 62
     0
370
    15
100
AcDbLine
 10
1683.727747949327
 20
1613.57154384069
 30
0.0
 11
1683.727747949327
 21
1647.880690845475
 31
0.0
  0
LINE
  5
2226
330
21DD
100
AcDbEntity
  8
実形
 62
     0
370
    15
100
AcDbLine
 10
1663.727747949327
 20
1647.880690845475
 30
0.0
 11
1683.727747949327
 21
1647.880690845475
 31
0.0
  0
MTEXT
  5
2227
330
21DD
100
AcDbEntity
  8
実形
 62
     0
100
AcDbMText
 10
1710.68679025414
 20
1651.542400373514
 30
0.0
 40
25.0
 41
0.0
 71
     5
 72
     1
  1
20
 73
     1
 44
1.0
1001
ACAD
1000
MTEXTBEGIN
1070
    73
1070
     1
1070
    44
1040
1.0
1070
    74
1070
     0
1000
MTEXTEND
  0
INSERT
  5
2228
330
21DD
100
AcDbEntity
  8
実形
 62
     0
370
    15
100
AcDbBlockReference
  2
_DotSmall
 10
1663.727747949327
 20
1647.880690845475
 30
0.0
 41
35.0
 42
35.0
 43
35.0
 50
180.0
  0
INSERT
  5
2229
330
21DD
100
AcDbEntity
  8
実形
 62
     0
370
    15
100
AcDbBlockReference
  2
_DotSmall
 10
1683.727747949327
 20
1647.880690845475
 30
0.0
 41
35.0
 42
35.0
 43
35.0
  0
POINT
  5
222A
330
21DD
100
AcDbEntity
  8
Defpoints
 62
     0
100
AcDbPoint
 10
1663.727747949327
 20
1548.57154384069
 30
0.0
  0
POINT
  5
222B
330
21DD
100
AcDbEntity
  8
Defpoints
 62
     0
100
AcDbPoint
 10
1683.727747949327
 20
1548.57154384069
 30
0.0
  0
POINT
  5
222C
330
21DD
100
AcDbEntity
  8
Defpoints
 62
     0
100
AcDbPoint
 10
1683.727747949327
 20
1647.880690845475
 30
0.0
  0
ENDBLK
  5
21E8
330
21DD
100
AcDbEntity
  8
0
 62
     3
100
AcDbBlockEnd
  0
BLOCK
  5
2410
330
2409
100
AcDbEntity
  8
0
 62
     3
100
AcDbBlockBegin
  2
*D92
 70
     1
 10
0.0
 20
0.0
 30
0.0
  3
*D92
  1

  0
LINE
  5
24F6
330
2409
100
AcDbEntity
  8
実形
 62
     0
370
    13
100
AcDbLine
 10
2090.833877365067
 20
553.2947101512847
 30
0.0
 11
2090.833877365067
 21
467.1003685502147
 31
0.0
  0
LINE
  5
24F7
330
2409
100
AcDbEntity
  8
実形
 62
     0
370
    13
100
AcDbLine
 10
2075.233877365067
 20
527.502986728412
 30
0.0
 11
2075.233877365067
 21
467.1003685502147
 31
0.0
  0
MTEXT
  5
24F8
330
2409
100
AcDbEntity
  8
実形
 62
     0
100
AcDbMText
 10
2054.88545157578
 20
491.5915116428197
 30
0.0
 40
25.0
 41
0.0
 71
     5
 72
     1
  1
1
 73
     1
 44
1.0
1001
ACAD
1000
MTEXTBEGIN
1070
    73
1070
     1
1070
    44
1040
1.0
1070
    74
1070
     0
1000
MTEXTEND
  0
POINT
  5
24F9
330
2409
100
AcDbEntity
  8
Defpoints
 62
     0
100
AcDbPoint
 10
2090.833877365067
 20
559.2947101512846
 30
0.0
  0
POINT
  5
24FA
330
2409
100
AcDbEntity
  8
Defpoints
 62
     0
100
AcDbPoint
 10
2075.233877365067
 20
533.5029867284119
 30
0.0
  0
POINT
  5
24FB
330
2409
100
AcDbEntity
  8
Defpoints
 62
     0
100
AcDbPoint
 10
2075.233877365067
 20
467.1003685502147
 30
0.0
  0
ENDBLK
  5
2411
330
2409
100
AcDbEntity
  8
0
 62
     3
100
AcDbBlockEnd
  0
BLOCK
  5
241C
330
2412
100
AcDbEntity
  8
0
 62
     3
100
AcDbBlockBegin
  2
*D93
 70
     1
 10
0.0
 20
0.0
 30
0.0
  3
*D93
  1

  0
LINE
  5
24FC
330
2412
100
AcDbEntity
  8
実形
 62
     0
370
    18
100
AcDbLine
 10
2090.833877365066
 20
591.9073852958003
 30
0.0
 11
2090.833877365066
 21
617.1548568615962
 31
0.0
  0
LINE
  5
24FD
330
2412
100
AcDbEntity
  8
実形
 62
     0
370
    18
100
AcDbLine
 10
2324.833877365066
 20
591.9073852958003
 30
0.0
 11
2324.833877365066
 21
617.1548568615962
 31
0.0
  0
LINE
  5
24FE
330
2412
100
AcDbEntity
  8
実形
 62
     0
370
    18
100
AcDbLine
 10
2090.833877365066
 20
617.1548568615962
 30
0.0
 11
2324.833877365066
 21
617.1548568615962
 31
0.0
  0
INSERT
  5
24FF
330
2412
100
AcDbEntity
  8
実形
 62
     0
370
    18
100
AcDbBlockReference
  2
_DotSmall
 10
2090.833877365066
 20
617.1548568615962
 30
0.0
 41
35.0
 42
35.0
 43
35.0
 50
180.0
  0
INSERT
  5
2500
330
2412
100
AcDbEntity
  8
実形
 62
     0
370
    18
100
AcDbBlockReference
  2
_DotSmall
 10
2324.833877365066
 20
617.1548568615962
 30
0.0
 41
35.0
 42
35.0
 43
35.0
  0
MTEXT
  5
2501
330
2412
100
AcDbEntity
  8
実形
 62
     0
100
AcDbMText
 10
2207.833877365066
 20
635.9048568615962
 30
0.0
 40
25.0
 41
0.0
 71
     5
 72
     1
  1
15
 73
     1
 44
1.0
1001
ACAD
1000
MTEXTBEGIN
1070
    73
1070
     1
1070
    44
1040
1.0
1070
    74
1070
     0
1000
MTEXTEND
  0
POINT
  5
2502
330
2412
100
AcDbEntity
  8
Defpoints
 62
     0
100
AcDbPoint
 10
2090.833877365066
 20
526.9073852958004
 30
0.0
  0
POINT
  5
2503
330
2412
100
AcDbEntity
  8
Defpoints
 62
     0
100
AcDbPoint
 10
2324.833877365066
 20
526.9073852958004
 30
0.0
  0
POINT
  5
2504
330
2412
100
AcDbEntity
  8
Defpoints
 62
     0
100
AcDbPoint
 10
2324.833877365066
 20
617.1548568615962
 30
0.0
  0
ENDBLK
  5
241D
330
2412
100
AcDbEntity
  8
0
 62
     3
100
AcDbBlockEnd
  0
BLOCK
  5
2428
330
241E
100
AcDbEntity
  8
0
 62
     3
100
AcDbBlockBegin
  2
*D94
 70
     1
 10
0.0
 20
0.0
 30
0.0
  3
*D94
  1

  0
LINE
  5
2505
330
241E
100
AcDbEntity
  8
実形
 62
     0
370
    18
100
AcDbLine
 10
2292.614562018892
 20
504.6947101512855
 30
0.0
 11
2228.767481940162
 21
504.6947101512855
 31
0.0
  0
LINE
  5
2506
330
241E
100
AcDbEntity
  8
実形
 62
     0
370
    18
100
AcDbLine
 10
2216.267191428404
 20
543.6947101512855
 30
0.0
 11
2228.767481940162
 21
543.6947101512855
 31
0.0
  0
LINE
  5
2507
330
241E
100
AcDbEntity
  8
実形
 62
     0
370
    18
100
AcDbLine
 10
2228.767481940162
 20
504.6947101512855
 30
0.0
 11
2228.767481940162
 21
543.6947101512855
 31
0.0
  0
MTEXT
  5
2508
330
241E
100
AcDbEntity
  8
実形
 62
     0
100
AcDbMText
 10
2197.294896545438
 20
515.0052225685112
 30
0.0
 40
23.0
 41
0.0
 71
     5
 72
     1
  1
2.5
 11
0.0000000000000001
 21
1.0
 31
0.0
 73
     1
 44
1.0
1001
ACAD
1000
MTEXTBEGIN
1070
    73
1070
     1
1070
    44
1040
1.0
1070
    74
1070
     0
1000
MTEXTEND
  0
INSERT
  5
2509
330
241E
100
AcDbEntity
  8
実形
 62
     0
370
    18
100
AcDbBlockReference
  2
_DotSmall
 10
2228.767481940162
 20
504.6947101512855
 30
0.0
 41
35.0
 42
35.0
 43
35.0
 50
270.0
  0
INSERT
  5
250A
330
241E
100
AcDbEntity
  8
実形
 62
     0
370
    18
100
AcDbBlockReference
  2
_DotSmall
 10
2228.767481940162
 20
543.6947101512855
 30
0.0
 41
35.0
 42
35.0
 43
35.0
 50
90.0
  0
POINT
  5
250B
330
241E
100
AcDbEntity
  8
Defpoints
 62
     0
100
AcDbPoint
 10
2357.614562018891
 20
504.6947101512855
 30
0.0
  0
POINT
  5
250C
330
241E
100
AcDbEntity
  8
Defpoints
 62
     0
100
AcDbPoint
 10
2281.267191428404
 20
543.6947101512855
 30
0.0
  0
POINT
  5
250D
330
241E
100
AcDbEntity
  8
Defpoints
 62
     0
100
AcDbPoint
 10
2228.767481940162
 20
543.6947101512855
 30
0.0
  0
ENDBLK
  5
2429
330
241E
100
AcDbEntity
  8
0
 62
     3
100
AcDbBlockEnd
  0
BLOCK
  5
2434
330
242A
100
AcDbEntity
  8
0
 62
     3
100
AcDbBlockBegin
  2
*D95
 70
     1
 10
0.0
 20
0.0
 30
0.0
  3
*D95
  1

  0
LINE
  5
250E
330
242A
100
AcDbEntity
  8
実形
 62
     0
370
    18
100
AcDbLine
 10
2278.033877365066
 20
448.0145559292668
 30
0.0
 11
2278.033877365066
 21
452.0882219802177
 31
0.0
  0
LINE
  5
250F
330
242A
100
AcDbEntity
  8
実形
 62
     0
370
    18
100
AcDbLine
 10
2356.033877365066
 20
448.0145559292668
 30
0.0
 11
2356.033877365066
 21
452.0882219802177
 31
0.0
  0
LINE
  5
2510
330
242A
100
AcDbEntity
  8
実形
 62
     0
370
    18
100
AcDbLine
 10
2278.033877365066
 20
452.0882219802177
 30
0.0
 11
2356.033877365066
 21
452.0882219802177
 31
0.0
  0
INSERT
  5
2511
330
242A
100
AcDbEntity
  8
実形
 62
     0
370
    18
100
AcDbBlockReference
  2
_DotSmall
 10
2278.033877365066
 20
452.0882219802177
 30
0.0
 41
35.0
 42
35.0
 43
35.0
 50
180.0
  0
INSERT
  5
2512
330
242A
100
AcDbEntity
  8
実形
 62
     0
370
    18
100
AcDbBlockReference
  2
_DotSmall
 10
2356.033877365066
 20
452.0882219802177
 30
0.0
 41
35.0
 42
35.0
 43
35.0
  0
MTEXT
  5
2513
330
242A
100
AcDbEntity
  8
実形
 62
     0
100
AcDbMText
 10
2317.033877365066
 20
470.8382219802177
 30
0.0
 40
25.0
 41
0.0
 71
     5
 72
     1
  1
5
 73
     1
 44
1.0
1001
ACAD
1000
MTEXTBEGIN
1070
    73
1070
     1
1070
    44
1040
1.0
1070
    74
1070
     0
1000
MTEXTEND
  0
POINT
  5
2514
330
242A
100
AcDbEntity
  8
Defpoints
 62
     0
100
AcDbPoint
 10
2278.033877365066
 20
513.0145559292668
 30
0.0
  0
POINT
  5
2515
330
242A
100
AcDbEntity
  8
Defpoints
 62
     0
100
AcDbPoint
 10
2356.033877365066
 20
513.0145559292668
 30
0.0
  0
POINT
  5
2516
330
242A
100
AcDbEntity
  8
Defpoints
 62
     0
100
AcDbPoint
 10
2356.033877365066
 20
452.0882219802177
 30
0.0
  0
ENDBLK
  5
2435
330
242A
100
AcDbEntity
  8
0
 62
     3
100
AcDbBlockEnd
  0
BLOCK
  5
2440
330
2436
100
AcDbEntity
  8
0
 62
     3
100
AcDbBlockBegin
  2
*D96
 70
     1
 10
0.0
 20
0.0
 30
0.0
  3
*D96
  1

  0
LINE
  5
2517
330
2436
100
AcDbEntity
  8
実形
 62
     0
370
    18
100
AcDbLine
 10
2266.326187506493
 20
442.2947101512853
 30
0.0
 11
2230.705930897853
 21
442.2947101512853
 31
0.0
  0
LINE
  5
2518
330
2436
100
AcDbEntity
  8
実形
 62
     0
370
    18
100
AcDbLine
 10
2278.612691407768
 20
403.2947101512855
 30
0.0
 11
2230.705930897853
 21
403.2947101512855
 31
0.0
  0
LINE
  5
2519
330
2436
100
AcDbEntity
  8
実形
 62
     0
370
    18
100
AcDbLine
 10
2230.705930897853
 20
442.2947101512853
 30
0.0
 11
2230.705930897853
 21
403.2947101512855
 31
0.0
  0
MTEXT
  5
251A
330
2436
100
AcDbEntity
  8
実形
 62
     0
100
AcDbMText
 10
2198.086469593912
 20
431.6583152348946
 30
0.0
 40
23.0
 41
0.0
 71
     5
 72
     1
  1
2.5
 11
0.0000000000000001
 21
1.0
 31
0.0
 73
     1
 44
1.0
1001
ACAD
1000
MTEXTBEGIN
1070
    73
1070
     1
1070
    44
1040
1.0
1070
    74
1070
     0
1000
MTEXTEND
  0
INSERT
  5
251B
330
2436
100
AcDbEntity
  8
実形
 62
     0
370
    18
100
AcDbBlockReference
  2
_DotSmall
 10
2230.705930897853
 20
442.2947101512853
 30
0.0
 41
35.0
 42
35.0
 43
35.0
 50
90.0
  0
INSERT
  5
251C
330
2436
100
AcDbEntity
  8
実形
 62
     0
370
    18
100
AcDbBlockReference
  2
_DotSmall
 10
2230.705930897853
 20
403.2947101512855
 30
0.0
 41
35.0
 42
35.0
 43
35.0
 50
270.0
  0
POINT
  5
251D
330
2436
100
AcDbEntity
  8
Defpoints
 62
     0
100
AcDbPoint
 10
2331.326187506493
 20
442.2947101512853
 30
0.0
  0
POINT
  5
251E
330
2436
100
AcDbEntity
  8
Defpoints
 62
     0
100
AcDbPoint
 10
2343.612691407768
 20
403.2947101512855
 30
0.0
  0
POINT
  5
251F
330
2436
100
AcDbEntity
  8
Defpoints
 62
     0
100
AcDbPoint
 10
2230.705930897853
 20
403.2947101512855
 30
0.0
  0
ENDBLK
  5
2441
330
2436
100
AcDbEntity
  8
0
 62
     3
100
AcDbBlockEnd
  0
BLOCK
  5
244C
330
2442
100
AcDbEntity
  8
0
 62
     3
100
AcDbBlockBegin
  2
*D97
 70
     1
 10
0.0
 20
0.0
 30
0.0
  3
*D97
  1

  0
LINE
  5
2520
330
2442
100
AcDbEntity
  8
実形
 62
     0
370
    18
100
AcDbLine
 10
2075.233877365066
 20
696.1956311673393
 30
0.0
 11
2075.233877365066
 21
733.9587029177619
 31
0.0
  0
LINE
  5
2521
330
2442
100
AcDbEntity
  8
実形
 62
     0
370
    18
100
AcDbLine
 10
2356.033877365066
 20
696.1956311673393
 30
0.0
 11
2356.033877365066
 21
733.9587029177619
 31
0.0
  0
LINE
  5
2522
330
2442
100
AcDbEntity
  8
実形
 62
     0
370
    18
100
AcDbLine
 10
2075.233877365066
 20
733.9587029177619
 30
0.0
 11
2356.033877365066
 21
733.9587029177619
 31
0.0
  0
INSERT
  5
2523
330
2442
100
AcDbEntity
  8
実形
 62
     0
370
    18
100
AcDbBlockReference
  2
_DotSmall
 10
2075.233877365066
 20
733.9587029177619
 30
0.0
 41
35.0
 42
35.0
 43
35.0
 50
180.0
  0
INSERT
  5
2524
330
2442
100
AcDbEntity
  8
実形
 62
     0
370
    18
100
AcDbBlockReference
  2
_DotSmall
 10
2356.033877365066
 20
733.9587029177619
 30
0.0
 41
35.0
 42
35.0
 43
35.0
  0
MTEXT
  5
2525
330
2442
100
AcDbEntity
  8
実形
 62
     0
100
AcDbMText
 10
2215.633877365066
 20
752.7087029177619
 30
0.0
 40
25.0
 41
0.0
 71
     5
 72
     1
  1
18
 73
     1
 44
1.0
1001
ACAD
1000
MTEXTBEGIN
1070
    73
1070
     1
1070
    44
1040
1.0
1070
    74
1070
     0
1000
MTEXTEND
  0
POINT
  5
2526
330
2442
100
AcDbEntity
  8
Defpoints
 62
     0
100
AcDbPoint
 10
2075.233877365066
 20
631.1956311673393
 30
0.0
  0
POINT
  5
2527
330
2442
100
AcDbEntity
  8
Defpoints
 62
     0
100
AcDbPoint
 10
2356.033877365066
 20
631.1956311673393
 30
0.0
  0
POINT
  5
2528
330
2442
100
AcDbEntity
  8
Defpoints
 62
     0
100
AcDbPoint
 10
2356.033877365066
 20
733.9587029177619
 30
0.0
  0
ENDBLK
  5
244D
330
2442
100
AcDbEntity
  8
0
 62
     3
100
AcDbBlockEnd
  0
BLOCK
  5
2458
330
244E
100
AcDbEntity
  8
0
 62
     3
100
AcDbBlockBegin
  2
*D98
 70
     1
 10
0.0
 20
0.0
 30
0.0
  3
*D98
  1

  0
LINE
  5
2529
330
244E
100
AcDbEntity
  8
実形
 62
     0
370
    18
100
AcDbLine
 10
2356.033877365066
 20
696.1956311673382
 30
0.0
 11
2356.033877365066
 21
733.9587029177619
 31
0.0
  0
LINE
  5
252A
330
244E
100
AcDbEntity
  8
実形
 62
     0
370
    18
100
AcDbLine
 10
2621.233877365066
 20
696.1956311673382
 30
0.0
 11
2621.233877365066
 21
733.9587029177619
 31
0.0
  0
LINE
  5
252B
330
244E
100
AcDbEntity
  8
実形
 62
     0
370
    18
100
AcDbLine
 10
2356.033877365066
 20
733.9587029177619
 30
0.0
 11
2621.233877365066
 21
733.9587029177619
 31
0.0
  0
INSERT
  5
252C
330
244E
100
AcDbEntity
  8
実形
 62
     0
370
    18
100
AcDbBlockReference
  2
_DotSmall
 10
2356.033877365066
 20
733.9587029177619
 30
0.0
 41
35.0
 42
35.0
 43
35.0
 50
180.0
  0
INSERT
  5
252D
330
244E
100
AcDbEntity
  8
実形
 62
     0
370
    18
100
AcDbBlockReference
  2
_DotSmall
 10
2621.233877365066
 20
733.9587029177619
 30
0.0
 41
35.0
 42
35.0
 43
35.0
  0
MTEXT
  5
252E
330
244E
100
AcDbEntity
  8
実形
 62
     0
100
AcDbMText
 10
2488.633877365066
 20
752.7087029177619
 30
0.0
 40
25.0
 41
0.0
 71
     5
 72
     1
  1
17
 73
     1
 44
1.0
1001
ACAD
1000
MTEXTBEGIN
1070
    73
1070
     1
1070
    44
1040
1.0
1070
    74
1070
     0
1000
MTEXTEND
  0
POINT
  5
252F
330
244E
100
AcDbEntity
  8
Defpoints
 62
     0
100
AcDbPoint
 10
2356.033877365066
 20
631.1956311673382
 30
0.0
  0
POINT
  5
2530
330
244E
100
AcDbEntity
  8
Defpoints
 62
     0
100
AcDbPoint
 10
2621.233877365066
 20
631.1956311673382
 30
0.0
  0
POINT
  5
2531
330
244E
100
AcDbEntity
  8
Defpoints
 62
     0
100
AcDbPoint
 10
2621.233877365066
 20
733.9587029177619
 30
0.0
  0
ENDBLK
  5
2459
330
244E
100
AcDbEntity
  8
0
 62
     3
100
AcDbBlockEnd
  0
BLOCK
  5
2464
330
245A
100
AcDbEntity
  8
0
 62
     3
100
AcDbBlockBegin
  2
*D99
 70
     1
 10
0.0
 20
0.0
 30
0.0
  3
*D99
  1

  0
LINE
  5
2532
330
245A
100
AcDbEntity
  8
実形
 62
     0
370
    18
100
AcDbLine
 10
2075.233877365066
 20
696.1956311673382
 30
0.0
 11
2075.233877365066
 21
777.4666415156134
 31
0.0
  0
LINE
  5
2533
330
245A
100
AcDbEntity
  8
実形
 62
     0
370
    18
100
AcDbLine
 10
2621.233877365066
 20
696.1956311673382
 30
0.0
 11
2621.233877365066
 21
777.4666415156134
 31
0.0
  0
LINE
  5
2534
330
245A
100
AcDbEntity
  8
実形
 62
     0
370
    18
100
AcDbLine
 10
2075.233877365066
 20
777.4666415156134
 30
0.0
 11
2621.233877365066
 21
777.4666415156134
 31
0.0
  0
INSERT
  5
2535
330
245A
100
AcDbEntity
  8
実形
 62
     0
370
    18
100
AcDbBlockReference
  2
_DotSmall
 10
2075.233877365066
 20
777.4666415156134
 30
0.0
 41
35.0
 42
35.0
 43
35.0
 50
180.0
  0
INSERT
  5
2536
330
245A
100
AcDbEntity
  8
実形
 62
     0
370
    18
100
AcDbBlockReference
  2
_DotSmall
 10
2621.233877365066
 20
777.4666415156134
 30
0.0
 41
35.0
 42
35.0
 43
35.0
  0
MTEXT
  5
2537
330
245A
100
AcDbEntity
  8
実形
 62
     0
100
AcDbMText
 10
2348.233877365066
 20
796.2166415156134
 30
0.0
 40
25.0
 41
0.0
 71
     5
 72
     1
  1
35
 73
     1
 44
1.0
1001
ACAD
1000
MTEXTBEGIN
1070
    73
1070
     1
1070
    44
1040
1.0
1070
    74
1070
     0
1000
MTEXTEND
  0
POINT
  5
2538
330
245A
100
AcDbEntity
  8
Defpoints
 62
     0
100
AcDbPoint
 10
2075.233877365066
 20
631.1956311673382
 30
0.0
  0
POINT
  5
2539
330
245A
100
AcDbEntity
  8
Defpoints
 62
     0
100
AcDbPoint
 10
2621.233877365066
 20
631.1956311673382
 30
0.0
  0
POINT
  5
253A
330
245A
100
AcDbEntity
  8
Defpoints
 62
     0
100
AcDbPoint
 10
2621.233877365066
 20
777.4666415156134
 30
0.0
  0
ENDBLK
  5
2465
330
245A
100
AcDbEntity
  8
0
 62
     3
100
AcDbBlockEnd
  0
BLOCK
  5
2470
330
2466
100
AcDbEntity
  8
0
 62
     3
100
AcDbBlockBegin
  2
*D100
 70
     1
 10
0.0
 20
0.0
 30
0.0
  3
*D100
  1

  0
LINE
  5
253B
330
2466
100
AcDbEntity
  8
実形
 62
     0
370
    18
100
AcDbLine
 10
2106.433877365066
 20
346.5474686202858
 30
0.0
 11
2106.433877365066
 21
297.5085770831867
 31
0.0
  0
LINE
  5
253C
330
2466
100
AcDbEntity
  8
実形
 62
     0
370
    18
100
AcDbLine
 10
2153.233877365066
 20
346.5474686202858
 30
0.0
 11
2153.233877365066
 21
297.5085770831867
 31
0.0
  0
LINE
  5
253D
330
2466
100
AcDbEntity
  8
実形
 62
     0
370
    18
100
AcDbLine
 10
2106.433877365066
 20
297.5085770831867
 30
0.0
 11
2153.233877365066
 21
297.5085770831867
 31
0.0
  0
MTEXT
  5
253E
330
2466
100
AcDbEntity
  8
実形
 62
     0
100
AcDbMText
 10
2053.203290699754
 20
332.9138518235977
 30
0.0
 40
25.0
 41
0.0
 71
     5
 72
     1
  1
3.2
 73
     1
 44
1.0
1001
ACAD
1000
MTEXTBEGIN
1070
    73
1070
     1
1070
    44
1040
1.0
1070
    74
1070
     0
1000
MTEXTEND
  0
INSERT
  5
253F
330
2466
100
AcDbEntity
  8
実形
 62
     0
370
    18
100
AcDbBlockReference
  2
_DotSmall
 10
2106.433877365066
 20
297.5085770831867
 30
0.0
 41
35.0
 42
35.0
 43
35.0
 50
180.0
  0
INSERT
  5
2540
330
2466
100
AcDbEntity
  8
実形
 62
     0
370
    18
100
AcDbBlockReference
  2
_DotSmall
 10
2153.233877365066
 20
297.5085770831867
 30
0.0
 41
35.0
 42
35.0
 43
35.0
  0
POINT
  5
2541
330
2466
100
AcDbEntity
  8
Defpoints
 62
     0
100
AcDbPoint
 10
2106.433877365066
 20
411.5474686202857
 30
0.0
  0
POINT
  5
2542
330
2466
100
AcDbEntity
  8
Defpoints
 62
     0
100
AcDbPoint
 10
2153.233877365066
 20
411.5474686202857
 30
0.0
  0
POINT
  5
2543
330
2466
100
AcDbEntity
  8
Defpoints
 62
     0
100
AcDbPoint
 10
2153.233877365066
 20
297.5085770831867
 30
0.0
  0
ENDBLK
  5
2471
330
2466
100
AcDbEntity
  8
0
 62
     3
100
AcDbBlockEnd
  0
BLOCK
  5
247C
330
2472
100
AcDbEntity
  8
0
 62
     3
100
AcDbBlockBegin
  2
*D101
 70
     1
 10
0.0
 20
0.0
 30
0.0
  3
*D101
  1

  0
LINE
  5
2544
330
2472
100
AcDbEntity
  8
実形
 62
     0
370
    18
100
AcDbLine
 10
2153.233877365066
 20
346.5474686202858
 30
0.0
 11
2153.233877365066
 21
297.5085770831867
 31
0.0
  0
LINE
  5
2545
330
2472
100
AcDbEntity
  8
実形
 62
     0
370
    18
100
AcDbLine
 10
2278.033877365066
 20
346.5474686202858
 30
0.0
 11
2278.033877365066
 21
297.5085770831867
 31
0.0
  0
LINE
  5
2546
330
2472
100
AcDbEntity
  8
実形
 62
     0
370
    18
100
AcDbLine
 10
2153.233877365066
 20
297.5085770831867
 30
0.0
 11
2278.033877365066
 21
297.5085770831867
 31
0.0
  0
INSERT
  5
2547
330
2472
100
AcDbEntity
  8
実形
 62
     0
370
    18
100
AcDbBlockReference
  2
_DotSmall
 10
2153.233877365066
 20
297.5085770831867
 30
0.0
 41
35.0
 42
35.0
 43
35.0
 50
180.0
  0
INSERT
  5
2548
330
2472
100
AcDbEntity
  8
実形
 62
     0
370
    18
100
AcDbBlockReference
  2
_DotSmall
 10
2278.033877365066
 20
297.5085770831867
 30
0.0
 41
35.0
 42
35.0
 43
35.0
  0
MTEXT
  5
2549
330
2472
100
AcDbEntity
  8
実形
 62
     0
100
AcDbMText
 10
2215.633877365066
 20
316.2585770831867
 30
0.0
 40
25.0
 41
0.0
 71
     5
 72
     1
  1
8
 73
     1
 44
1.0
1001
ACAD
1000
MTEXTBEGIN
1070
    73
1070
     1
1070
    44
1040
1.0
1070
    74
1070
     0
1000
MTEXTEND
  0
POINT
  5
254A
330
2472
100
AcDbEntity
  8
Defpoints
 62
     0
100
AcDbPoint
 10
2153.233877365066
 20
411.5474686202857
 30
0.0
  0
POINT
  5
254B
330
2472
100
AcDbEntity
  8
Defpoints
 62
     0
100
AcDbPoint
 10
2278.033877365066
 20
411.5474686202857
 30
0.0
  0
POINT
  5
254C
330
2472
100
AcDbEntity
  8
Defpoints
 62
     0
100
AcDbPoint
 10
2278.033877365066
 20
297.5085770831867
 30
0.0
  0
ENDBLK
  5
247D
330
2472
100
AcDbEntity
  8
0
 62
     3
100
AcDbBlockEnd
  0
BLOCK
  5
2488
330
247E
100
AcDbEntity
  8
0
 62
     3
100
AcDbBlockBegin
  2
*D102
 70
     1
 10
0.0
 20
0.0
 30
0.0
  3
*D102
  1

  0
LINE
  5
254D
330
247E
100
AcDbEntity
  8
実形
 62
     0
370
    18
100
AcDbLine
 10
2278.033877365066
 20
346.5474686202858
 30
0.0
 11
2278.033877365066
 21
297.5085770831867
 31
0.0
  0
LINE
  5
254E
330
247E
100
AcDbEntity
  8
実形
 62
     0
370
    18
100
AcDbLine
 10
2356.033877365066
 20
346.5474686202858
 30
0.0
 11
2356.033877365066
 21
297.5085770831867
 31
0.0
  0
LINE
  5
254F
330
247E
100
AcDbEntity
  8
実形
 62
     0
370
    18
100
AcDbLine
 10
2278.033877365066
 20
297.5085770831867
 30
0.0
 11
2356.033877365066
 21
297.5085770831867
 31
0.0
  0
INSERT
  5
2550
330
247E
100
AcDbEntity
  8
実形
 62
     0
370
    18
100
AcDbBlockReference
  2
_DotSmall
 10
2278.033877365066
 20
297.5085770831867
 30
0.0
 41
35.0
 42
35.0
 43
35.0
 50
180.0
  0
INSERT
  5
2551
330
247E
100
AcDbEntity
  8
実形
 62
     0
370
    18
100
AcDbBlockReference
  2
_DotSmall
 10
2356.033877365066
 20
297.5085770831867
 30
0.0
 41
35.0
 42
35.0
 43
35.0
  0
MTEXT
  5
2552
330
247E
100
AcDbEntity
  8
実形
 62
     0
100
AcDbMText
 10
2317.033877365066
 20
316.2585770831867
 30
0.0
 40
25.0
 41
0.0
 71
     5
 72
     1
  1
5
 73
     1
 44
1.0
1001
ACAD
1000
MTEXTBEGIN
1070
    73
1070
     1
1070
    44
1040
1.0
1070
    74
1070
     0
1000
MTEXTEND
  0
POINT
  5
2553
330
247E
100
AcDbEntity
  8
Defpoints
 62
     0
100
AcDbPoint
 10
2278.033877365066
 20
411.5474686202857
 30
0.0
  0
POINT
  5
2554
330
247E
100
AcDbEntity
  8
Defpoints
 62
     0
100
AcDbPoint
 10
2356.033877365066
 20
411.5474686202857
 30
0.0
  0
POINT
  5
2555
330
247E
100
AcDbEntity
  8
Defpoints
 62
     0
100
AcDbPoint
 10
2356.033877365066
 20
297.5085770831867
 30
0.0
  0
ENDBLK
  5
2489
330
247E
100
AcDbEntity
  8
0
 62
     3
100
AcDbBlockEnd
  0
BLOCK
  5
2494
330
248A
100
AcDbEntity
  8
0
 62
     3
100
AcDbBlockBegin
  2
*D103
 70
     1
 10
0.0
 20
0.0
 30
0.0
  3
*D103
  1

  0
LINE
  5
2556
330
248A
100
AcDbEntity
  8
実形
 62
     0
370
    18
100
AcDbLine
 10
2356.033877365066
 20
346.5474686202858
 30
0.0
 11
2356.033877365066
 21
297.5085770831867
 31
0.0
  0
LINE
  5
2557
330
248A
100
AcDbEntity
  8
実形
 62
     0
370
    18
100
AcDbLine
 10
2621.233877365066
 20
346.5474686202858
 30
0.0
 11
2621.233877365066
 21
297.5085770831867
 31
0.0
  0
LINE
  5
2558
330
248A
100
AcDbEntity
  8
実形
 62
     0
370
    18
100
AcDbLine
 10
2356.033877365066
 20
297.5085770831867
 30
0.0
 11
2621.233877365066
 21
297.5085770831867
 31
0.0
  0
INSERT
  5
2559
330
248A
100
AcDbEntity
  8
実形
 62
     0
370
    18
100
AcDbBlockReference
  2
_DotSmall
 10
2356.033877365066
 20
297.5085770831867
 30
0.0
 41
35.0
 42
35.0
 43
35.0
 50
180.0
  0
INSERT
  5
255A
330
248A
100
AcDbEntity
  8
実形
 62
     0
370
    18
100
AcDbBlockReference
  2
_DotSmall
 10
2621.233877365066
 20
297.5085770831867
 30
0.0
 41
35.0
 42
35.0
 43
35.0
  0
MTEXT
  5
255B
330
248A
100
AcDbEntity
  8
実形
 62
     0
100
AcDbMText
 10
2488.633877365066
 20
316.2585770831867
 30
0.0
 40
25.0
 41
0.0
 71
     5
 72
     1
  1
17
 73
     1
 44
1.0
1001
ACAD
1000
MTEXTBEGIN
1070
    73
1070
     1
1070
    44
1040
1.0
1070
    74
1070
     0
1000
MTEXTEND
  0
POINT
  5
255C
330
248A
100
AcDbEntity
  8
Defpoints
 62
     0
100
AcDbPoint
 10
2356.033877365066
 20
411.5474686202857
 30
0.0
  0
POINT
  5
255D
330
248A
100
AcDbEntity
  8
Defpoints
 62
     0
100
AcDbPoint
 10
2621.233877365066
 20
411.5474686202857
 30
0.0
  0
POINT
  5
255E
330
248A
100
AcDbEntity
  8
Defpoints
 62
     0
100
AcDbPoint
 10
2621.233877365066
 20
297.5085770831867
 30
0.0
  0
ENDBLK
  5
2495
330
248A
100
AcDbEntity
  8
0
 62
     3
100
AcDbBlockEnd
  0
BLOCK
  5
24A0
330
2496
100
AcDbEntity
  8
0
 62
     3
100
AcDbBlockBegin
  2
*D104
 70
     1
 10
0.0
 20
0.0
 30
0.0
  3
*D104
  1

  0
LINE
  5
255F
330
2496
100
AcDbEntity
  8
実形
 62
     0
370
    18
100
AcDbLine
 10
2077.023276234157
 20
297.8281686160613
 30
0.0
 11
2077.023276234157
 21
247.5388396829094
 31
0.0
  0
LINE
  5
2560
330
2496
100
AcDbEntity
  8
実形
 62
     0
370
    18
100
AcDbLine
 10
2155.023276234156
 20
297.8281686160613
 30
0.0
 11
2155.023276234156
 21
247.5388396829094
 31
0.0
  0
LINE
  5
2561
330
2496
100
AcDbEntity
  8
実形
 62
     0
370
    18
100
AcDbLine
 10
2077.023276234157
 20
247.5388396829094
 30
0.0
 11
2155.023276234156
 21
247.5388396829094
 31
0.0
  0
INSERT
  5
2562
330
2496
100
AcDbEntity
  8
実形
 62
     0
370
    18
100
AcDbBlockReference
  2
_DotSmall
 10
2077.023276234157
 20
247.5388396829094
 30
0.0
 41
35.0
 42
35.0
 43
35.0
 50
180.0
  0
INSERT
  5
2563
330
2496
100
AcDbEntity
  8
実形
 62
     0
370
    18
100
AcDbBlockReference
  2
_DotSmall
 10
2155.023276234156
 20
247.5388396829094
 30
0.0
 41
35.0
 42
35.0
 43
35.0
  0
MTEXT
  5
2564
330
2496
100
AcDbEntity
  8
実形
 62
     0
100
AcDbMText
 10
2116.023276234157
 20
266.2888396829094
 30
0.0
 40
25.0
 41
0.0
 71
     5
 72
     1
  1
5
 73
     1
 44
1.0
1001
ACAD
1000
MTEXTBEGIN
1070
    73
1070
     1
1070
    44
1040
1.0
1070
    74
1070
     0
1000
MTEXTEND
  0
POINT
  5
2565
330
2496
100
AcDbEntity
  8
Defpoints
 62
     0
100
AcDbPoint
 10
2077.023276234157
 20
362.8281686160613
 30
0.0
  0
POINT
  5
2566
330
2496
100
AcDbEntity
  8
Defpoints
 62
     0
100
AcDbPoint
 10
2155.023276234156
 20
362.8281686160613
 30
0.0
  0
POINT
  5
2567
330
2496
100
AcDbEntity
  8
Defpoints
 62
     0
100
AcDbPoint
 10
2155.023276234156
 20
247.5388396829094
 30
0.0
  0
ENDBLK
  5
24A1
330
2496
100
AcDbEntity
  8
0
 62
     3
100
AcDbBlockEnd
  0
BLOCK
  5
24AC
330
24A2
100
AcDbEntity
  8
0
 62
     3
100
AcDbBlockBegin
  2
*D105
 70
     1
 10
0.0
 20
0.0
 30
0.0
  3
*D105
  1

  0
LINE
  5
2568
330
24A2
100
AcDbEntity
  8
実形
 62
     0
370
    18
100
AcDbLine
 10
2155.023276234156
 20
297.8281686160613
 30
0.0
 11
2155.023276234156
 21
247.5388396829094
 31
0.0
  0
LINE
  5
2569
330
24A2
100
AcDbEntity
  8
実形
 62
     0
370
    18
100
AcDbLine
 10
2623.023276234156
 20
297.8281686160613
 30
0.0
 11
2623.023276234156
 21
247.5388396829094
 31
0.0
  0
LINE
  5
256A
330
24A2
100
AcDbEntity
  8
実形
 62
     0
370
    18
100
AcDbLine
 10
2155.023276234156
 20
247.5388396829094
 30
0.0
 11
2623.023276234156
 21
247.5388396829094
 31
0.0
  0
INSERT
  5
256B
330
24A2
100
AcDbEntity
  8
実形
 62
     0
370
    18
100
AcDbBlockReference
  2
_DotSmall
 10
2155.023276234156
 20
247.5388396829094
 30
0.0
 41
35.0
 42
35.0
 43
35.0
 50
180.0
  0
INSERT
  5
256C
330
24A2
100
AcDbEntity
  8
実形
 62
     0
370
    18
100
AcDbBlockReference
  2
_DotSmall
 10
2623.023276234156
 20
247.5388396829094
 30
0.0
 41
35.0
 42
35.0
 43
35.0
  0
MTEXT
  5
256D
330
24A2
100
AcDbEntity
  8
実形
 62
     0
100
AcDbMText
 10
2389.023276234156
 20
266.2888396829094
 30
0.0
 40
25.0
 41
0.0
 71
     5
 72
     1
  1
30
 73
     1
 44
1.0
1001
ACAD
1000
MTEXTBEGIN
1070
    73
1070
     1
1070
    44
1040
1.0
1070
    74
1070
     0
1000
MTEXTEND
  0
POINT
  5
256E
330
24A2
100
AcDbEntity
  8
Defpoints
 62
     0
100
AcDbPoint
 10
2155.023276234156
 20
362.8281686160613
 30
0.0
  0
POINT
  5
256F
330
24A2
100
AcDbEntity
  8
Defpoints
 62
     0
100
AcDbPoint
 10
2623.023276234156
 20
362.8281686160613
 30
0.0
  0
POINT
  5
2570
330
24A2
100
AcDbEntity
  8
Defpoints
 62
     0
100
AcDbPoint
 10
2623.023276234156
 20
247.5388396829094
 30
0.0
  0
ENDBLK
  5
24AD
330
24A2
100
AcDbEntity
  8
0
 62
     3
100
AcDbBlockEnd
  0
BLOCK
  5
24B8
330
24AE
100
AcDbEntity
  8
0
 62
     3
100
AcDbBlockBegin
  2
*D106
 70
     1
 10
0.0
 20
0.0
 30
0.0
  3
*D106
  1

  0
LINE
  5
2571
330
24AE
100
AcDbEntity
  8
実形
 62
     0
370
    18
100
AcDbLine
 10
2032.328912889143
 20
684.0947101512855
 30
0.0
 11
1970.032114275532
 21
684.0947101512855
 31
0.0
  0
LINE
  5
2572
330
24AE
100
AcDbEntity
  8
実形
 62
     0
370
    18
100
AcDbLine
 10
2032.328912889143
 20
585.2947101512854
 30
0.0
 11
1970.032114275532
 21
585.2947101512854
 31
0.0
  0
LINE
  5
2573
330
24AE
100
AcDbEntity
  8
実形
 62
     0
370
    18
100
AcDbLine
 10
1970.032114275532
 20
684.0947101512855
 30
0.0
 11
1970.032114275532
 21
585.2947101512854
 31
0.0
  0
INSERT
  5
2574
330
24AE
100
AcDbEntity
  8
実形
 62
     0
370
    18
100
AcDbBlockReference
  2
_DotSmall
 10
1970.032114275532
 20
684.0947101512855
 30
0.0
 41
35.0
 42
35.0
 43
35.0
 50
90.0
  0
INSERT
  5
2575
330
24AE
100
AcDbEntity
  8
実形
 62
     0
370
    18
100
AcDbBlockReference
  2
_DotSmall
 10
1970.032114275532
 20
585.2947101512854
 30
0.0
 41
35.0
 42
35.0
 43
35.0
 50
270.0
  0
MTEXT
  5
2576
330
24AE
100
AcDbEntity
  8
実形
 62
     0
100
AcDbMText
 10
1951.282114275532
 20
634.6947101512859
 30
0.0
 40
25.0
 41
0.0
 71
     5
 72
     1
  1
6.5
 11
0.0000000000000001
 21
1.0
 31
0.0
 73
     1
 44
1.0
1001
ACAD
1000
MTEXTBEGIN
1070
    73
1070
     1
1070
    44
1040
1.0
1070
    74
1070
     0
1000
MTEXTEND
  0
POINT
  5
2577
330
24AE
100
AcDbEntity
  8
Defpoints
 62
     0
100
AcDbPoint
 10
2097.328912889143
 20
684.0947101512855
 30
0.0
  0
POINT
  5
2578
330
24AE
100
AcDbEntity
  8
Defpoints
 62
     0
100
AcDbPoint
 10
2097.328912889143
 20
585.2947101512854
 30
0.0
  0
POINT
  5
2579
330
24AE
100
AcDbEntity
  8
Defpoints
 62
     0
100
AcDbPoint
 10
1970.032114275532
 20
585.2947101512854
 30
0.0
  0
ENDBLK
  5
24B9
330
24AE
100
AcDbEntity
  8
0
 62
     3
100
AcDbBlockEnd
  0
BLOCK
  5
24C4
330
24BA
100
AcDbEntity
  8
0
 62
     3
100
AcDbBlockBegin
  2
*D107
 70
     1
 10
0.0
 20
0.0
 30
0.0
  3
*D107
  1

  0
LINE
  5
257A
330
24BA
100
AcDbEntity
  8
実形
 62
     0
370
    18
100
AcDbLine
 10
2032.328912889143
 20
684.0947101512855
 30
0.0
 11
1916.035186721017
 21
684.0947101512855
 31
0.0
  0
LINE
  5
257B
330
24BA
100
AcDbEntity
  8
実形
 62
     0
370
    18
100
AcDbLine
 10
2032.328912889143
 20
559.2947101512846
 30
0.0
 11
1916.035186721017
 21
559.2947101512846
 31
0.0
  0
LINE
  5
257C
330
24BA
100
AcDbEntity
  8
実形
 62
     0
370
    18
100
AcDbLine
 10
1916.035186721017
 20
684.0947101512855
 30
0.0
 11
1916.035186721017
 21
559.2947101512846
 31
0.0
  0
INSERT
  5
257D
330
24BA
100
AcDbEntity
  8
実形
 62
     0
370
    18
100
AcDbBlockReference
  2
_DotSmall
 10
1916.035186721017
 20
684.0947101512855
 30
0.0
 41
35.0
 42
35.0
 43
35.0
 50
90.0
  0
INSERT
  5
257E
330
24BA
100
AcDbEntity
  8
実形
 62
     0
370
    18
100
AcDbBlockReference
  2
_DotSmall
 10
1916.035186721017
 20
559.2947101512846
 30
0.0
 41
35.0
 42
35.0
 43
35.0
 50
270.0
  0
MTEXT
  5
257F
330
24BA
100
AcDbEntity
  8
実形
 62
     0
100
AcDbMText
 10
1897.285186721017
 20
621.6947101512854
 30
0.0
 40
25.0
 41
0.0
 71
     5
 72
     1
  1
8.2
 11
0.0000000000000001
 21
1.0
 31
0.0
 73
     1
 44
1.0
1001
ACAD
1000
MTEXTBEGIN
1070
    73
1070
     1
1070
    44
1040
1.0
1070
    74
1070
     0
1000
MTEXTEND
  0
POINT
  5
2580
330
24BA
100
AcDbEntity
  8
Defpoints
 62
     0
100
AcDbPoint
 10
2097.328912889143
 20
684.0947101512855
 30
0.0
  0
POINT
  5
2581
330
24BA
100
AcDbEntity
  8
Defpoints
 62
     0
100
AcDbPoint
 10
2097.328912889143
 20
559.2947101512846
 30
0.0
  0
POINT
  5
2582
330
24BA
100
AcDbEntity
  8
Defpoints
 62
     0
100
AcDbPoint
 10
1916.035186721017
 20
559.2947101512846
 30
0.0
  0
ENDBLK
  5
24C5
330
24BA
100
AcDbEntity
  8
0
 62
     3
100
AcDbBlockEnd
  0
BLOCK
  5
24D0
330
24C6
100
AcDbEntity
  8
0
 62
     3
100
AcDbBlockBegin
  2
*D108
 70
     1
 10
0.0
 20
0.0
 30
0.0
  3
*D108
  1

  0
LINE
  5
2583
330
24C6
100
AcDbEntity
  8
実形
 62
     0
370
    18
100
AcDbLine
 10
2032.328912889143
 20
543.6947101512854
 30
0.0
 11
1864.389549972262
 21
543.6947101512854
 31
0.0
  0
LINE
  5
2584
330
24C6
100
AcDbEntity
  8
実形
 62
     0
370
    18
100
AcDbLine
 10
2032.328912889143
 20
684.0947101512855
 30
0.0
 11
1864.389549972262
 21
684.0947101512855
 31
0.0
  0
LINE
  5
2585
330
24C6
100
AcDbEntity
  8
実形
 62
     0
370
    18
100
AcDbLine
 10
1864.389549972262
 20
543.6947101512854
 30
0.0
 11
1864.389549972262
 21
684.0947101512855
 31
0.0
  0
INSERT
  5
2586
330
24C6
100
AcDbEntity
  8
実形
 62
     0
370
    18
100
AcDbBlockReference
  2
_DotSmall
 10
1864.389549972262
 20
543.6947101512854
 30
0.0
 41
35.0
 42
35.0
 43
35.0
 50
270.0
  0
INSERT
  5
2587
330
24C6
100
AcDbEntity
  8
実形
 62
     0
370
    18
100
AcDbBlockReference
  2
_DotSmall
 10
1864.389549972262
 20
684.0947101512855
 30
0.0
 41
35.0
 42
35.0
 43
35.0
 50
90.0
  0
MTEXT
  5
2588
330
24C6
100
AcDbEntity
  8
実形
 62
     0
100
AcDbMText
 10
1845.639549972261
 20
613.8947101512858
 30
0.0
 40
25.0
 41
0.0
 71
     5
 72
     1
  1
9
 11
0.0000000000000001
 21
1.0
 31
0.0
 73
     1
 44
1.0
1001
ACAD
1000
MTEXTBEGIN
1070
    73
1070
     1
1070
    44
1040
1.0
1070
    74
1070
     0
1000
MTEXTEND
  0
POINT
  5
2589
330
24C6
100
AcDbEntity
  8
Defpoints
 62
     0
100
AcDbPoint
 10
2097.328912889143
 20
543.6947101512854
 30
0.0
  0
POINT
  5
258A
330
24C6
100
AcDbEntity
  8
Defpoints
 62
     0
100
AcDbPoint
 10
2097.328912889143
 20
684.0947101512855
 30
0.0
  0
POINT
  5
258B
330
24C6
100
AcDbEntity
  8
Defpoints
 62
     0
100
AcDbPoint
 10
1864.389549972262
 20
684.0947101512855
 30
0.0
  0
ENDBLK
  5
24D1
330
24C6
100
AcDbEntity
  8
0
 62
     3
100
AcDbBlockEnd
  0
BLOCK
  5
24DC
330
24D2
100
AcDbEntity
  8
0
 62
     3
100
AcDbBlockBegin
  2
*D109
 70
     1
 10
0.0
 20
0.0
 30
0.0
  3
*D109
  1

  0
LINE
  5
258C
330
24D2
100
AcDbEntity
  8
実形
 62
     0
370
    18
100
AcDbLine
 10
2647.25404811461
 20
543.6947101512855
 30
0.0
 11
2673.699912636183
 21
543.6947101512855
 31
0.0
  0
LINE
  5
258D
330
24D2
100
AcDbEntity
  8
実形
 62
     0
370
    18
100
AcDbLine
 10
2647.25404811461
 20
403.2947101512855
 30
0.0
 11
2673.699912636183
 21
403.2947101512855
 31
0.0
  0
LINE
  5
258E
330
24D2
100
AcDbEntity
  8
実形
 62
     0
370
    18
100
AcDbLine
 10
2673.699912636183
 20
543.6947101512855
 30
0.0
 11
2673.699912636183
 21
403.2947101512855
 31
0.0
  0
INSERT
  5
258F
330
24D2
100
AcDbEntity
  8
実形
 62
     0
370
    18
100
AcDbBlockReference
  2
_DotSmall
 10
2673.699912636183
 20
543.6947101512855
 30
0.0
 41
35.0
 42
35.0
 43
35.0
 50
90.0
  0
INSERT
  5
2590
330
24D2
100
AcDbEntity
  8
実形
 62
     0
370
    18
100
AcDbBlockReference
  2
_DotSmall
 10
2673.699912636183
 20
403.2947101512855
 30
0.0
 41
35.0
 42
35.0
 43
35.0
 50
270.0
  0
MTEXT
  5
2591
330
24D2
100
AcDbEntity
  8
実形
 62
     0
100
AcDbMText
 10
2654.949912636183
 20
473.4947101512859
 30
0.0
 40
25.0
 41
0.0
 71
     5
 72
     1
  1
9
 11
0.0000000000000001
 21
1.0
 31
0.0
 73
     1
 44
1.0
1001
ACAD
1000
MTEXTBEGIN
1070
    73
1070
     1
1070
    44
1040
1.0
1070
    74
1070
     0
1000
MTEXTEND
  0
POINT
  5
2592
330
24D2
100
AcDbEntity
  8
Defpoints
 62
     0
100
AcDbPoint
 10
2582.25404811461
 20
543.6947101512855
 30
0.0
  0
POINT
  5
2593
330
24D2
100
AcDbEntity
  8
Defpoints
 62
     0
100
AcDbPoint
 10
2582.25404811461
 20
403.2947101512855
 30
0.0
  0
POINT
  5
2594
330
24D2
100
AcDbEntity
  8
Defpoints
 62
     0
100
AcDbPoint
 10
2673.699912636183
 20
403.2947101512855
 30
0.0
  0
ENDBLK
  5
24DD
330
24D2
100
AcDbEntity
  8
0
 62
     3
100
AcDbBlockEnd
  0
BLOCK
  5
24E8
330
24DE
100
AcDbEntity
  8
0
 62
     3
100
AcDbBlockBegin
  2
*D110
 70
     1
 10
0.0
 20
0.0
 30
0.0
  3
*D110
  1

  0
LINE
  5
2595
330
24DE
100
AcDbEntity
  8
実形
 62
     0
370
    18
100
AcDbLine
 10
2647.25404811461
 20
684.0947101512855
 30
0.0
 11
2673.699912636183
 21
684.0947101512855
 31
0.0
  0
LINE
  5
2596
330
24DE
100
AcDbEntity
  8
実形
 62
     0
370
    18
100
AcDbLine
 10
2647.25404811461
 20
543.6947101512855
 30
0.0
 11
2673.699912636183
 21
543.6947101512855
 31
0.0
  0
LINE
  5
2597
330
24DE
100
AcDbEntity
  8
実形
 62
     0
370
    18
100
AcDbLine
 10
2673.699912636183
 20
684.0947101512855
 30
0.0
 11
2673.699912636183
 21
543.6947101512855
 31
0.0
  0
INSERT
  5
2598
330
24DE
100
AcDbEntity
  8
実形
 62
     0
370
    18
100
AcDbBlockReference
  2
_DotSmall
 10
2673.699912636183
 20
684.0947101512855
 30
0.0
 41
35.0
 42
35.0
 43
35.0
 50
90.0
  0
INSERT
  5
2599
330
24DE
100
AcDbEntity
  8
実形
 62
     0
370
    18
100
AcDbBlockReference
  2
_DotSmall
 10
2673.699912636183
 20
543.6947101512855
 30
0.0
 41
35.0
 42
35.0
 43
35.0
 50
270.0
  0
MTEXT
  5
259A
330
24DE
100
AcDbEntity
  8
実形
 62
     0
100
AcDbMText
 10
2654.949912636183
 20
613.8947101512859
 30
0.0
 40
25.0
 41
0.0
 71
     5
 72
     1
  1
9
 11
0.0000000000000001
 21
1.0
 31
0.0
 73
     1
 44
1.0
1001
ACAD
1000
MTEXTBEGIN
1070
    73
1070
     1
1070
    44
1040
1.0
1070
    74
1070
     0
1000
MTEXTEND
  0
POINT
  5
259B
330
24DE
100
AcDbEntity
  8
Defpoints
 62
     0
100
AcDbPoint
 10
2582.25404811461
 20
684.0947101512855
 30
0.0
  0
POINT
  5
259C
330
24DE
100
AcDbEntity
  8
Defpoints
 62
     0
100
AcDbPoint
 10
2582.25404811461
 20
543.6947101512855
 30
0.0
  0
POINT
  5
259D
330
24DE
100
AcDbEntity
  8
Defpoints
 62
     0
100
AcDbPoint
 10
2673.699912636183
 20
543.6947101512855
 30
0.0
  0
ENDBLK
  5
24E9
330
24DE
100
AcDbEntity
  8
0
 62
     3
100
AcDbBlockEnd
  0
BLOCK
  5
24F4
330
24EA
100
AcDbEntity
  8
0
 62
     3
100
AcDbBlockBegin
  2
*D111
 70
     1
 10
0.0
 20
0.0
 30
0.0
  3
*D111
  1

  0
LINE
  5
259E
330
24EA
100
AcDbEntity
  8
実形
 62
     0
370
    18
100
AcDbLine
 10
2647.25404811461
 20
684.0947101512855
 30
0.0
 11
2715.480008308167
 21
684.0947101512855
 31
0.0
  0
LINE
  5
259F
330
24EA
100
AcDbEntity
  8
実形
 62
     0
370
    18
100
AcDbLine
 10
2647.25404811461
 20
403.2947101512855
 30
0.0
 11
2715.480008308167
 21
403.2947101512855
 31
0.0
  0
LINE
  5
25A0
330
24EA
100
AcDbEntity
  8
実形
 62
     0
370
    18
100
AcDbLine
 10
2715.480008308167
 20
684.0947101512855
 30
0.0
 11
2715.480008308167
 21
403.2947101512855
 31
0.0
  0
INSERT
  5
25A1
330
24EA
100
AcDbEntity
  8
実形
 62
     0
370
    18
100
AcDbBlockReference
  2
_DotSmall
 10
2715.480008308167
 20
684.0947101512855
 30
0.0
 41
35.0
 42
35.0
 43
35.0
 50
90.0
  0
INSERT
  5
25A2
330
24EA
100
AcDbEntity
  8
実形
 62
     0
370
    18
100
AcDbBlockReference
  2
_DotSmall
 10
2715.480008308167
 20
403.2947101512855
 30
0.0
 41
35.0
 42
35.0
 43
35.0
 50
270.0
  0
MTEXT
  5
25A3
330
24EA
100
AcDbEntity
  8
実形
 62
     0
100
AcDbMText
 10
2696.730008308167
 20
543.694710151286
 30
0.0
 40
25.0
 41
0.0
 71
     5
 72
     1
  1
18
 11
0.0000000000000001
 21
1.0
 31
0.0
 73
     1
 44
1.0
1001
ACAD
1000
MTEXTBEGIN
1070
    73
1070
     1
1070
    44
1040
1.0
1070
    74
1070
     0
1000
MTEXTEND
  0
POINT
  5
25A4
330
24EA
100
AcDbEntity
  8
Defpoints
 62
     0
100
AcDbPoint
 10
2582.25404811461
 20
684.0947101512855
 30
0.0
  0
POINT
  5
25A5
330
24EA
100
AcDbEntity
  8
Defpoints
 62
     0
100
AcDbPoint
 10
2582.25404811461
 20
403.2947101512855
 30
0.0
  0
POINT
  5
25A6
330
24EA
100
AcDbEntity
  8
Defpoints
 62
     0
100
AcDbPoint
 10
2715.480008308167
 20
403.2947101512855
 30
0.0
  0
ENDBLK
  5
24F5
330
24EA
100
AcDbEntity
  8
0
 62
     3
100
AcDbBlockEnd
  0
ENDSEC
  0
SECTION
  2
ENTITIES
  0
LINE
  5
73
330
1F
100
AcDbEntity
  8
0
100
AcDbLine
 10
104.0
 20
4.0
 30
0.0
 11
278.0
 21
4.0
 31
0.0
  0
LINE
  5
9C
330
1F
100
AcDbEntity
  8
補助
100
AcDbLine
 10
104.0
 20
4.0
 30
0.0
 11
2784.0
 21
4.0
 31
0.0
  0
LINE
  5
A0
330
1F
100
AcDbEntity
  8
補助
100
AcDbLine
 10
2784.0
 20
2024.0
 30
0.0
 11
104.0
 21
2024.0
 31
0.0
  0
LINE
  5
A5
330
1F
100
AcDbEntity
  8
補助
100
AcDbLine
 10
2784.0
 20
4.0
 30
0.0
 11
2784.0
 21
2024.0
 31
0.0
  0
LINE
  5
2DD
330
1F
100
AcDbEntity
  8
実形
100
AcDbLine
 10
533.2684511875168
 20
1051.97154384069
 30
0.0
 11
1213.268451187517
 21
1051.97154384069
 31
0.0
  0
LINE
  5
2E0
330
1F
100
AcDbEntity
  8
実形
100
AcDbLine
 10
533.2684511875168
 20
1571.97154384069
 30
0.0
 11
1213.268451187516
 21
1571.97154384069
 31
0.0
  0
CIRCLE
  5
2E8
330
1F
100
AcDbEntity
  8
実形
100
AcDbCircle
 10
623.2684511875167
 20
1346.97154384069
 30
0.0
 40
90.5
  0
CIRCLE
  5
2E9
330
1F
100
AcDbEntity
  8
実形
100
AcDbCircle
 10
623.2684511875167
 20
1346.97154384069
 30
0.0
 40
79.5
  0
LINE
  5
2F1
330
1F
100
AcDbEntity
  8
実形
100
AcDbLine
 10
473.2684511875167
 20
1370.030011666865
 30
0.0
 11
473.2684511875167
 21
1173.913076014515
 31
0.0
  0
LINE
  5
2F2
330
1F
100
AcDbEntity
  8
実形
100
AcDbLine
 10
1273.268451187517
 20
1370.030011666865
 30
0.0
 11
1273.268451187517
 21
1173.913076014515
 31
0.0
  0
LINE
  5
2FD
330
1F
100
AcDbEntity
  8
実形
100
AcDbLine
 10
473.2684511875167
 20
1431.97154384069
 30
0.0
 11
473.2684511875167
 21
1111.97154384069
 31
0.0
  0
LINE
  5
2FE
330
1F
100
AcDbEntity
  8
実形
100
AcDbLine
 10
533.2684511875168
 20
1491.97154384069
 30
0.0
 11
1213.268451187517
 21
1491.97154384069
 31
0.0
  0
LINE
  5
2FF
330
1F
100
AcDbEntity
  8
実形
100
AcDbLine
 10
1273.268451187517
 20
1431.97154384069
 30
0.0
 11
1273.268451187517
 21
1111.97154384069
 31
0.0
  0
ARC
  5
300
330
1F
100
AcDbEntity
  8
実形
100
AcDbCircle
 10
533.2684511875168
 20
1431.97154384069
 30
0.0
 40
60.0
100
AcDbArc
 50
90.0
 51
180.0
  0
ARC
  5
301
330
1F
100
AcDbEntity
  8
実形
100
AcDbCircle
 10
533.2684511875168
 20
1111.97154384069
 30
0.0
 40
60.0
100
AcDbArc
 50
180.0
 51
270.0
  0
ARC
  5
302
330
1F
100
AcDbEntity
  8
実形
100
AcDbCircle
 10
1213.268451187517
 20
1111.97154384069
 30
0.0
 40
60.0
100
AcDbArc
 50
270.0
 51
0.0
  0
ARC
  5
303
330
1F
100
AcDbEntity
  8
実形
100
AcDbCircle
 10
1213.268451187517
 20
1431.97154384069
 30
0.0
 40
60.0
100
AcDbArc
 50
0.0
 51
90.0
  0
LINE
  5
306
330
1F
100
AcDbEntity
  8
実形
100
AcDbLine
 10
473.2684511875167
 20
1511.97154384069
 30
0.0
 11
473.2684511875167
 21
1173.913076014515
 31
0.0
  0
LINE
  5
307
330
1F
100
AcDbEntity
  8
実形
100
AcDbLine
 10
1273.268451187516
 20
1511.97154384069
 30
0.0
 11
1273.268451187517
 21
1173.913076014515
 31
0.0
  0
ARC
  5
308
330
1F
100
AcDbEntity
  8
実形
100
AcDbCircle
 10
533.2684511875168
 20
1511.97154384069
 30
0.0
 40
60.0
100
AcDbArc
 50
90.0
 51
180.0
  0
ARC
  5
309
330
1F
100
AcDbEntity
  8
実形
100
AcDbCircle
 10
1213.268451187516
 20
1511.97154384069
 30
0.0
 40
60.0
100
AcDbArc
 50
0.0
 51
90.0
  0
LINE
  5
315
330
1F
100
AcDbEntity
  8
センター
100
AcDbLine
 10
623.2684511875167
 20
1481.099667154029
 30
0.0
 11
623.2684511875167
 21
1192.25147438974
 31
0.0
  0
LINE
  5
316
330
1F
100
AcDbEntity
  8
センター
100
AcDbLine
 10
486.7001371572223
 20
1346.97154384069
 30
0.0
 11
759.8750090752291
 21
1346.97154384069
 31
0.0
  0
LINE
  5
319
330
1F
100
AcDbEntity
  8
実形
100
AcDbLine
 10
473.2684511875169
 20
738.3558673239041
 30
0.0
 11
473.2684511875167
 21
578.155867323904
 31
0.0
  0
LINE
  5
31A
330
1F
100
AcDbEntity
  8
実形
100
AcDbLine
 10
503.2684511875167
 20
548.1558673239041
 30
0.0
 11
713.7684511875163
 21
548.1558673239041
 31
0.0
  0
LINE
  5
31B
330
1F
100
AcDbEntity
  8
実形
100
AcDbLine
 10
1273.268451187517
 20
588.1037083341367
 30
0.0
 11
1273.268451187517
 21
738.3558673239039
 31
0.0
  0
LINE
  5
323
330
1F
100
AcDbEntity
  8
実形
100
AcDbLine
 10
713.7684511875168
 20
548.1558673239042
 30
0.0
 11
1244.053759636753
 21
558.11398858487
 31
0.0
  0
ARC
  5
324
330
1F
100
AcDbEntity
  8
実形
100
AcDbCircle
 10
1243.268451187517
 20
588.1037083341367
 30
0.0
 40
30.0
100
AcDbArc
 50
271.5
 51
0.000000000000007
  0
ARC
  5
325
330
1F
100
AcDbEntity
  8
実形
100
AcDbCircle
 10
503.2684511875167
 20
578.155867323904
 30
0.0
 40
30.0
100
AcDbArc
 50
180.0
 51
270.0
  0
LINE
  5
327
330
1F
100
AcDbEntity
  8
実形
100
AcDbLine
 10
473.2684511875167
 20
733.1558673239042
 30
0.0
 11
1273.268451187517
 21
733.1558673239042
 31
0.0
  0
LINE
  5
328
330
1F
100
AcDbEntity
  8
センター
100
AcDbLine
 10
713.7684511875124
 20
548.1558673239041
 30
0.0
 11
1267.396976305318
 21
548.1558673239041
 31
0.0
  0
LINE
  5
329
330
1F
100
AcDbEntity
  8
センター
 48
0.5
100
AcDbLine
 10
623.2684511875167
 20
620.4034181423184
 30
0.0
 11
623.2684511875167
 21
458.4577642847052
 31
0.0
  0
DIMENSION
  5
3C2
330
1F
100
AcDbEntity
  8
寸法
100
AcDbDimension
  2
*D4
 10
891.5685001066329
 20
1501.97154384069
 30
0.0
 11
872.8185001066327
 21
1531.97154384069
 31
0.0
 70
    33
 71
     5
 42
59.99999999999977
  3
ISO-25
100
AcDbAlignedDimension
 13
764.2684511875166
 23
1561.97154384069
 33
0.0
 14
764.2684511875168
 24
1501.97154384069
 34
0.0
  0
DIMENSION
  5
3E9
330
1F
100
AcDbEntity
  8
寸法
100
AcDbDimension
  2
*D5
 10
865.256605860719
 20
1476.97154384069
 30
0.0
 11
846.5066058607188
 21
1411.97154384069
 31
0.0
 70
    32
 71
     5
 42
130.0
  3
ISO-25
100
AcDbAlignedDimension
 13
689.4332136006341
 23
1346.97154384069
 33
0.0
 14
798.2684511875167
 24
1476.97154384069
 34
0.0
 50
90.0
100
AcDbRotatedDimension
  0
DIMENSION
  5
3F6
330
1F
100
AcDbEntity
  8
寸法
100
AcDbDimension
  2
*D6
 10
473.2684511875167
 20
1194.378777569689
 30
0.0
 11
548.2684511875167
 21
1213.128777569689
 31
0.0
 70
    32
 71
     5
 42
150.0
  3
ISO-25
100
AcDbAlignedDimension
 13
623.2684511875167
 23
1267.47154384069
 33
0.0
 14
473.2684511875167
 24
1256.47154384069
 34
0.0
100
AcDbRotatedDimension
  0
DIMENSION
  5
40C
330
1F
100
AcDbEntity
  8
寸法
100
AcDbDimension
  2
*D7
 10
354.4727903259574
 20
1066.97154384069
 30
0.0
 11
328.572539136374
 21
1075.400667893027
 31
0.0
 70
   160
 71
     5
 42
15.0
  3
ISO-25
100
AcDbAlignedDimension
 13
458.2684511875168
 23
1051.97154384069
 33
0.0
 14
458.2684511875168
 24
1066.97154384069
 34
0.0
 50
90.0
100
AcDbRotatedDimension
  0
DIMENSION
  5
41A
330
1F
100
AcDbEntity
  8
寸法
100
AcDbDimension
  2
*D8
 10
354.4727903259574
 20
1476.97154384069
 30
0.0
 11
335.7227903259571
 21
1271.97154384069
 31
0.0
 70
    32
 71
     5
 42
410.0
  3
ISO-25
100
AcDbAlignedDimension
 13
458.2684511875168
 23
1066.97154384069
 33
0.0
 14
458.2684511875168
 24
1476.97154384069
 34
0.0
 50
90.0
100
AcDbRotatedDimension
1001
ACAD
1000
DSTYLE
1002
{
1070
   279
1070
     1
1002
}
  0
DIMENSION
  5
427
330
1F
100
AcDbEntity
  8
寸法
100
AcDbDimension
  2
*D9
 10
354.4727903259574
 20
1491.97154384069
 30
0.0
 11
345.8546395086451
 21
1467.865253744407
 31
0.0
 70
   160
 71
     5
 42
15.0
  3
ISO-25
100
AcDbAlignedDimension
 13
458.2684511875168
 23
1476.97154384069
 33
0.0
 14
458.2684511875168
 24
1491.97154384069
 34
0.0
 50
90.0
100
AcDbRotatedDimension
1001
ACAD
1000
DSTYLE
1002
{
1070
   279
1070
     1
1002
}
  0
DIMENSION
  5
459
330
1F
100
AcDbEntity
  8
寸法
100
AcDbDimension
  2
*D10
 10
277.9803480864002
 20
1051.97154384069
 30
0.0
 11
259.2303480864
 21
1271.97154384069
 31
0.0
 70
    32
 71
     5
 42
440.0
  3
ISO-25
100
AcDbAlignedDimension
 13
458.2684511875168
 23
1491.97154384069
 33
0.0
 14
458.2684511875168
 24
1051.97154384069
 34
0.0
 50
90.0
100
AcDbRotatedDimension
  0
DIMENSION
  5
466
330
1F
100
AcDbEntity
  8
寸法
100
AcDbDimension
  2
*D11
 10
277.9803480864002
 20
1571.97154384069
 30
0.0
 11
259.2303480864
 21
1531.97154384069
 31
0.0
 70
    32
 71
     5
 42
80.0
  3
ISO-25
100
AcDbAlignedDimension
 13
458.2684511875168
 23
1491.97154384069
 33
0.0
 14
458.2684511875168
 24
1571.97154384069
 34
0.0
 50
90.0
100
AcDbRotatedDimension
  0
DIMENSION
  5
47C
330
1F
100
AcDbEntity
  8
寸法
100
AcDbDimension
  2
*D12
 10
277.9803480864002
 20
1586.97154384069
 30
0.0
 11
288.4954383918021
 21
1613.898263121023
 31
0.0
 70
   160
 71
     5
 42
15.0
  3
ISO-25
100
AcDbAlignedDimension
 13
458.2684511875168
 23
1571.97154384069
 33
0.0
 14
458.2684511875168
 24
1586.97154384069
 34
0.0
 50
90.0
100
AcDbRotatedDimension
1001
ACAD
1000
DSTYLE
1002
{
1070
   279
1070
     1
1002
}
  0
DIMENSION
  5
492
330
1F
100
AcDbEntity
  8
寸法
100
AcDbDimension
  2
*D13
 10
200.431564376222
 20
1036.97154384069
 30
0.0
 11
181.6815643762218
 21
1311.97154384069
 31
0.0
 70
    32
 71
     5
 42
550.0
  3
ISO-25
100
AcDbAlignedDimension
 13
458.2684511875168
 23
1586.97154384069
 33
0.0
 14
458.2684511875168
 24
1036.97154384069
 34
0.0
 50
90.0
100
AcDbRotatedDimension
  0
DIMENSION
  5
4C3
330
1F
100
AcDbEntity
  8
寸法
100
AcDbDimension
  2
*D14
 10
277.9803480864002
 20
1036.97154384069
 30
0.0
 11
250.0175618932044
 21
1064.411651297272
 31
0.0
 70
   160
 71
     5
 42
15.0
  3
ISO-25
100
AcDbAlignedDimension
 13
458.2684511875168
 23
1051.97154384069
 33
0.0
 14
458.2684511875168
 24
1036.97154384069
 34
0.0
 50
90.0
100
AcDbRotatedDimension
  0
DIMENSION
  5
4E5
330
1F
100
AcDbEntity
  8
寸法
100
AcDbDimension
  2
*D15
 10
473.2684511875167
 20
919.748218439785
 30
0.0
 11
509.162872574765
 21
939.2960975418537
 31
0.0
 70
   160
 71
     5
 42
15.0
  3
ISO-25
100
AcDbAlignedDimension
 13
458.2684511875168
 23
1036.97154384069
 33
0.0
 14
473.2684511875167
 24
1036.97154384069
 34
0.0
100
AcDbRotatedDimension
  0
DIMENSION
  5
4FD
330
1F
100
AcDbEntity
  8
寸法
100
AcDbDimension
  2
*D16
 10
1273.268451187517
 20
919.748218439785
 30
0.0
 11
873.2684511875168
 21
938.498218439785
 31
0.0
 70
    32
 71
     5
 42
800.0
  3
ISO-25
100
AcDbAlignedDimension
 13
473.2684511875167
 23
1036.97154384069
 33
0.0
 14
1273.268451187517
 24
1036.97154384069
 34
0.0
100
AcDbRotatedDimension
1001
ACAD
1000
DSTYLE
1002
{
1070
   279
1070
     1
1002
}
  0
DIMENSION
  5
50A
330
1F
100
AcDbEntity
  8
寸法
100
AcDbDimension
  2
*D17
 10
1288.268451187517
 20
919.748218439785
 30
0.0
 11
1231.635673380778
 21
919.748218439785
 31
0.0
 70
   160
 71
     5
 42
15.0
  3
ISO-25
100
AcDbAlignedDimension
 13
1273.268451187517
 23
1036.97154384069
 33
0.0
 14
1288.268451187517
 24
1036.97154384069
 34
0.0
100
AcDbRotatedDimension
1001
ACAD
1000
DSTYLE
1002
{
1070
   279
1070
     1
1002
}
  0
DIMENSION
  5
522
330
1F
100
AcDbEntity
  8
寸法
100
AcDbDimension
  2
*D18
 10
1288.268451187517
 20
845.6278032061254
 30
0.0
 11
873.2684511875168
 21
864.3778032061254
 31
0.0
 70
    33
 71
     5
 42
830.0
  3
ISO-25
100
AcDbAlignedDimension
 13
458.2684511875168
 23
1036.97154384069
 33
0.0
 14
1288.268451187517
 24
1036.97154384069
 34
0.0
  0
ARC
  5
570
330
1F
100
AcDbEntity
  8
寸法
100
AcDbCircle
 10
863.7684511875125
 20
548.1558673239041
 30
0.0
 40
346.6490970545442
100
AcDbArc
 50
0.0
 51
1.500000000000023
  0
TEXT
  5
571
330
1F
100
AcDbEntity
  8
寸法
100
AcDbText
 10
1190.345000796449
 20
506.5295701195839
 30
0.0
 40
25.0
  1
1.5゜
 11
1190.345000796449
 21
503.1962367862506
 31
0.0
100
AcDbText
 73
     1
  0
LEADER
  5
8DB
330
1F
100
AcDbEntity
  8
寸法
100
AcDbLeader
  3
ISO-25
 40
66.66666666666666
 41
87.5
 76
     2
 10
679.7967626628624
 20
1075.579868832167
 30
0.0
 10
707.9405605218972
 20
1115.41875555903
 30
0.0
213
0.0
223
-12.5
233
0.0
1001
ACAD
1000
DSTYLE
1002
{
1070
   147
1040
6.25
1070
    77
1070
     0
1070
    41
1040
20.0
1070
   342
1005
DA
1002
}
  0
TEXT
  5
8DD
330
1F
100
AcDbEntity
  8
寸法
100
AcDbText
 10
718.4944868025113
 20
1115.23689314469
 30
0.0
 40
25.0
  1
4600R
 11
718.4944868025113
 21
1111.903559811357
 31
0.0
100
AcDbText
 73
     1
  0
LEADER
  5
C24
330
1F
100
AcDbEntity
  8
実形
100
AcDbLeader
  3
ISO-25
 40
25.0
 41
16.66666666666666
 76
     2
 10
1245.641721632773
 20
1474.394968098214
 30
0.0
 10
1177.371475707173
 20
1444.287160057527
 30
0.0
213
0.0
223
12.5
233
0.0
1001
ACAD
1000
DSTYLE
1002
{
1070
   147
1040
6.25
1070
    77
1070
     0
1070
    41
1040
20.0
1070
   342
1005
DA
1002
}
  0
LEADER
  5
C26
330
1F
100
AcDbEntity
  8
実形
100
AcDbLeader
  3
ISO-25
 40
25.0
 41
16.66666666666666
 76
     2
 10
1242.382282427381
 20
1433.133774365872
 30
0.0
 10
1204.860401951105
 20
1391.624015575478
 30
0.0
213
0.0
223
12.5
233
0.0
1001
ACAD
1000
DSTYLE
1002
{
1070
   147
1040
6.25
1070
    77
1070
     0
1070
    41
1040
20.0
1070
   342
1005
DA
1002
}
  0
LEADER
  5
C29
330
1F
100
AcDbEntity
  8
実形
100
AcDbLeader
  3
ISO-25
 40
74.99999999999999
 41
41.66666666666666
 76
     2
 10
1266.399033884473
 20
1272.065626933014
 30
0.0
 10
1207.112088458808
 20
1272.065626933014
 30
0.0
213
0.0
223
12.5
233
0.0
1001
ACAD
1000
DSTYLE
1002
{
1070
   147
1040
6.25
1070
    77
1070
     0
1070
    41
1040
20.0
1070
   342
1005
DA
1002
}
  0
TEXT
  5
C2B
330
1F
100
AcDbEntity
  8
実形
100
AcDbText
 10
1105.198373946666
 20
1426.52239118244
 30
0.0
 40
25.0
  1
60R
 72
     2
 11
1167.698373946666
 21
1423.189057849107
 31
0.0
100
AcDbText
 73
     1
  0
TEXT
  5
C2C
330
1F
100
AcDbEntity
  8
実形
100
AcDbText
 10
1125.595603498211
 20
1362.286400055527
 30
0.0
 40
25.0
  1
100R
 72
     2
 11
1200.595603498211
 21
1358.953066722194
 31
0.0
100
AcDbText
 73
     1
  0
TEXT
  5
C2E
330
1F
100
AcDbEntity
  8
実形
100
AcDbText
 10
1091.572631473693
 20
1259.565626933014
 30
0.0
 40
25.0
  1
2000R
 72
     2
 11
1195.73929814036
 21
1272.065626933014
 31
0.0
100
AcDbText
 73
     2
  0
LEADER
  5
CB8
330
1F
100
AcDbEntity
  8
実形
100
AcDbLeader
  3
ISO-25
 76
     2
 10
1256.375434977476
 20
571.4581494735463
 30
0.0
 10
1213.183604427769
 20
610.4296169976687
 30
0.0
1001
ACAD
1000
DSTYLE
1002
{
1070
   147
1040
6.25
1070
    77
1070
     0
1070
    41
1040
20.0
1070
   342
1005
DA
1002
}
  0
LEADER
  5
CB9
330
1F
100
AcDbEntity
  8
実形
100
AcDbLeader
  3
ISO-25
 76
     2
 10
489.3941831302794
 20
559.9575328860217
 30
0.0
 10
530.0439367716108
 20
600.5896296333812
 30
0.0
1001
ACAD
1000
DSTYLE
1002
{
1070
   147
1040
6.25
1070
    77
1070
     0
1070
    41
1040
20.0
1070
   342
1005
DA
1002
}
  0
TEXT
  5
CC2
330
1F
100
AcDbEntity
  8
寸法
100
AcDbText
 10
1141.887812753782
 20
603.9328679432632
 30
0.0
 40
25.0
  1
30R
 11
1141.887812753782
 21
600.5995346099298
 31
0.0
100
AcDbText
 73
     1
  0
TEXT
  5
CC3
330
1F
100
AcDbEntity
  8
寸法
100
AcDbText
 10
538.8882884224139
 20
606.2521807037797
 30
0.0
 40
25.0
  1
30R
 11
538.8882884224139
 21
602.9188473704464
 31
0.0
100
AcDbText
 73
     1
  0
TEXT
  5
DC3
330
1F
100
AcDbEntity
  8
0
100
AcDbText
 10
191.7098177320886
 20
90.06009540427749
 30
0.0
 40
30.0
  1
※実寸には製造上の誤差が多少生ずる場合があります。シンクの穴あけ加工は現物合わせにてお願いします。
100
AcDbText
  0
TEXT
  5
FFB
330
1F
100
AcDbEntity
  8
補助
100
AcDbText
 10
2086.666666666667
 20
84.0
 30
0.0
 40
35.0
  1
尺度
 72
     4
 11
2124.0
 21
101.5
 31
0.0
100
AcDbText
  0
TEXT
  5
FFC
330
1F
100
AcDbEntity
  8
補助
100
AcDbText
 10
2086.666666666667
 20
149.0
 30
0.0
 40
35.0
  1
品番
 72
     4
 11
2124.0
 21
166.5
 31
0.0
100
AcDbText
  0
LINE
  5
FFD
330
1F
100
AcDbEntity
  8
補助
100
AcDbLine
 10
2064.0
 20
69.0
 30
0.0
 11
2784.0
 21
69.0
 31
0.0
  0
LINE
  5
FFE
330
1F
100
AcDbEntity
  8
補助
100
AcDbLine
 10
2064.0
 20
199.0
 30
0.0
 11
2784.0
 21
199.0
 31
0.0
  0
LINE
  5
FFF
330
1F
100
AcDbEntity
  8
補助
100
AcDbLine
 10
2064.0
 20
134.0
 30
0.0
 11
2784.0
 21
134.0
 31
0.0
  0
LINE
  5
1000
330
1F
100
AcDbEntity
  8
補助
100
AcDbLine
 10
2064.0
 20
4.0
 30
0.0
 11
2064.0
 21
199.0
 31
0.0
  0
TEXT
  5
1001
330
1F
100
AcDbEntity
  8
補助
100
AcDbText
 10
2300.255774665348
 20
16.49999999999999
 30
0.0
 40
40.0
  1
中外交易株式会社
 72
     4
 11
2488.255774665347
 21
36.5
 31
0.0
100
AcDbText
  0
LINE
  5
1003
330
1F
100
AcDbEntity
  8
補助
100
AcDbLine
 10
2184.0
 20
69.0
 30
0.0
 11
2784.0
 21
69.0
 31
0.0
  0
LINE
  5
1004
102
{ACAD_REACTORS
330
1011
102
}
330
1F
100
AcDbEntity
  8
補助
370
     5
100
AcDbLine
 10
2207.843923164362
 20
40.53787547858519
 30
0.0
 11
2183.255774665347
 21
40.53787547858519
 31
0.0
  0
LINE
  5
1005
102
{ACAD_REACTORS
330
1011
102
}
330
1F
100
AcDbEntity
  8
補助
370
     5
100
AcDbLine
 10
2183.255774665347
 20
40.53787547858519
 30
0.0
 11
2183.255774665347
 21
30.53787547858519
 31
0.0
  0
LINE
  5
1006
102
{ACAD_REACTORS
330
1011
102
}
330
1F
100
AcDbEntity
  8
補助
370
     5
100
AcDbLine
 10
2183.255774665347
 20
30.53787547858519
 30
0.0
 11
2207.346428692676
 21
30.53787547858514
 31
0.0
  0
LINE
  5
1007
102
{ACAD_REACTORS
330
1011
102
}
330
1F
100
AcDbEntity
  8
補助
370
     5
100
AcDbLine
 10
2210.641894042939
 20
56.5
 30
0.0
 11
2210.641894042939
 21
16.5
 31
0.0
  0
LINE
  5
1008
102
{ACAD_REACTORS
330
1011
102
}
330
1F
100
AcDbEntity
  8
補助
370
     5
100
AcDbLine
 10
2210.641894042939
 20
16.5
 30
0.0
 11
2245.64189404294
 21
16.5
 31
0.0
  0
LINE
  5
1009
102
{ACAD_REACTORS
330
1011
102
}
330
1F
100
AcDbEntity
  8
補助
370
     5
100
AcDbLine
 10
2245.64189404294
 20
16.5
 30
0.0
 11
2210.641894042939
 21
36.5
 31
0.0
  0
LINE
  5
100A
102
{ACAD_REACTORS
330
1011
102
}
330
1F
100
AcDbEntity
  8
補助
370
     5
100
AcDbLine
 10
2210.641894042939
 20
36.5
 30
0.0
 11
2245.64189404294
 21
56.5
 31
0.0
  0
LINE
  5
100B
102
{ACAD_REACTORS
330
1011
102
}
330
1F
100
AcDbEntity
  8
補助
370
     5
100
AcDbLine
 10
2245.64189404294
 20
56.5
 30
0.0
 11
2210.641894042939
 21
56.5
 31
0.0
  0
LINE
  5
100C
102
{ACAD_REACTORS
330
1011
102
}
330
1F
100
AcDbEntity
  8
補助
370
     5
100
AcDbLine
 10
2276.75434681301
 20
40.53787547858519
 30
0.0
 11
2252.166198313995
 21
40.53787547858519
 31
0.0
  0
LINE
  5
100D
102
{ACAD_REACTORS
330
1011
102
}
330
1F
100
AcDbEntity
  8
補助
370
     5
100
AcDbLine
 10
2252.166198313995
 20
40.53787547858519
 30
0.0
 11
2252.166198313995
 21
30.53787547858519
 31
0.0
  0
LINE
  5
100E
102
{ACAD_REACTORS
330
1011
102
}
330
1F
100
AcDbEntity
  8
補助
370
     5
100
AcDbLine
 10
2252.166198313995
 20
30.53787547858519
 30
0.0
 11
2276.256852341323
 21
30.53787547858514
 31
0.0
  0
ARC
  5
100F
102
{ACAD_REACTORS
330
1011
102
}
330
1F
100
AcDbEntity
  8
補助
370
     5
100
AcDbCircle
 10
2188.255774665348
 20
36.5
 30
0.0
 40
20.0
100
AcDbArc
 50
11.6477236670766
 51
342.6561058784746
  0
ARC
  5
1010
102
{ACAD_REACTORS
330
1011
102
}
330
1F
100
AcDbEntity
  8
補助
370
     5
100
AcDbCircle
 10
2257.166198313996
 20
36.5
 30
0.0
 40
20.0
100
AcDbArc
 50
11.6477236670766
 51
342.6561058784746
  0
HATCH
  5
1011
330
1F
100
AcDbEntity
  8
補助
100
AcDbHatch
 10
0.0
 20
0.0
 30
0.0
210
0.0
220
0.0
230
1.0
  2
SOLID
 70
     1
 71
     1
 91
        3
 92
        1
 93
        4
 72
     2
 10
2257.166198313996
 20
36.5
 40
20.0
 50
11.6477236670766
 51
342.6561058784746
 73
     1
 72
     1
 10
2276.256852341323
 20
30.53787547858514
 11
2252.166198313995
 21
30.53787547858519
 72
     1
 10
2252.166198313995
 20
30.53787547858519
 11
2252.166198313995
 21
40.53787547858519
 72
     1
 10
2252.166198313995
 20
40.53787547858519
 11
2276.75434681301
 21
40.53787547858519
 97
        4
330
1010
330
100E
330
100D
330
100C
 92
        1
 93
        4
 72
     2
 10
2188.255774665348
 20
36.5
 40
20.0
 50
11.6477236670766
 51
342.6561058784746
 73
     1
 72
     1
 10
2207.346428692676
 20
30.53787547858514
 11
2183.255774665347
 21
30.53787547858519
 72
     1
 10
2183.255774665347
 20
30.53787547858519
 11
2183.255774665347
 21
40.53787547858519
 72
     1
 10
2183.255774665347
 20
40.53787547858519
 11
2207.843923164362
 21
40.53787547858519
 97
        4
330
100F
330
1006
330
1005
330
1004
 92
        1
 93
        5
 72
     1
 10
2245.64189404294
 20
56.5
 11
2210.641894042939
 21
56.5
 72
     1
 10
2210.641894042939
 20
56.5
 11
2210.641894042939
 21
16.5
 72
     1
 10
2210.641894042939
 20
16.5
 11
2245.64189404294
 21
16.5
 72
     1
 10
2245.64189404294
 20
16.5
 11
2210.641894042939
 21
36.5
 72
     1
 10
2210.641894042939
 20
36.5
 11
2245.64189404294
 21
56.5
 97
        5
330
100B
330
1007
330
1008
330
1009
330
100A
 75
     0
 76
     1
 98
        1
 10
-60.0
 20
0.0
  0
LINE
  5
1012
330
1F
100
AcDbEntity
  8
補助
100
AcDbLine
 10
2184.0
 20
69.0
 30
0.0
 11
2184.0
 21
199.0
 31
0.0
  0
TEXT
  5
1013
330
1F
100
AcDbEntity
  8
0
100
AcDbText
 10
2430.916666666667
 20
84.0
 30
0.0
 40
35.0
  1
1：10
 72
     4
 11
2484.0
 21
101.5
 31
0.0
100
AcDbText
  0
LINE
  5
1014
330
1F
100
AcDbEntity
  8
補助
100
AcDbLine
 10
2784.0
 20
69.0
 30
0.0
 11
2784.0
 21
134.0
 31
0.0
  0
LINE
  5
1015
330
1F
100
AcDbEntity
  8
補助
100
AcDbLine
 10
2784.0
 20
134.0
 30
0.0
 11
2784.0
 21
199.0
 31
0.0
  0
LINE
  5
1016
330
1F
100
AcDbEntity
  8
補助
100
AcDbLine
 10
2784.0
 20
4.0
 30
0.0
 11
2784.0
 21
69.0
 31
0.0
  0
ARC
  5
12E5
330
1F
100
AcDbEntity
  8
実形
100
AcDbCircle
 10
2473.268451187517
 20
1271.97154384069
 30
0.0
 40
2000.0
100
AcDbArc
 50
177.1295622366263
 51
182.8704377633737
  0
ARC
  5
12E7
330
1F
100
AcDbEntity
  8
実形
100
AcDbCircle
 10
873.2684511875168
 20
5666.97154384069
 30
0.0
 40
4600.0
100
AcDbArc
 50
266.2078658679419
 51
273.7921341320581
  0
ARC
  5
12E8
330
1F
100
AcDbEntity
  8
実形
100
AcDbCircle
 10
873.2684511875168
 20
-3123.02845615931
 30
0.0
 40
4600.0
100
AcDbArc
 50
86.20786586794189
 51
93.79213413205809
  0
ARC
  5
12E9
330
1F
100
AcDbEntity
  8
実形
100
AcDbCircle
 10
-726.7315488124832
 20
1271.97154384069
 30
0.0
 40
2000.0
100
AcDbArc
 50
357.1295622366263
 51
2.870437763373696
  0
ARC
  5
12EA
330
1F
100
AcDbEntity
  8
実形
100
AcDbCircle
 10
1170.884574572837
 20
1367.119051785289
 30
0.0
 40
100.0
100
AcDbArc
 50
2.870437763373678
 51
86.20786586794194
  0
ARC
  5
12EB
330
1F
100
AcDbEntity
  8
実形
100
AcDbCircle
 10
1170.884574572837
 20
1176.824035896091
 30
0.0
 40
100.0
100
AcDbArc
 50
273.7921341320579
 51
357.1295622366263
  0
ARC
  5
12EC
330
1F
100
AcDbEntity
  8
実形
100
AcDbCircle
 10
575.6523278021961
 20
1176.824035896091
 30
0.0
 40
100.0
100
AcDbArc
 50
182.8704377633737
 51
266.207865867941
  0
ARC
  5
12ED
330
1F
100
AcDbEntity
  8
実形
100
AcDbCircle
 10
575.6523278021961
 20
1367.119051785289
 30
0.0
 40
100.0
100
AcDbArc
 50
93.79213413205766
 51
177.1295622366261
  0
DIMENSION
  5
1701
330
1F
100
AcDbEntity
  8
実形
100
AcDbDimension
  2
*D19
 10
513.2684511875168
 20
1665.544543193063
 30
0.0
 11
507.680935481967
 21
1691.579740174771
 31
0.0
 70
   160
 71
     5
 42
40.0
  3
ISO-25
100
AcDbAlignedDimension
 13
473.2684511875167
 23
1557.564249497394
 33
0.0
 14
513.2684511875168
 24
1557.564249497394
 34
0.0
100
AcDbRotatedDimension
1001
ACAD
1000
DSTYLE
1002
{
1070
    42
1040
110.0
1002
}
  0
LINE
  5
1820
330
1F
100
AcDbEntity
  8
実形
100
AcDbLine
 10
774.2684511875168
 20
1502.06085629634
 30
0.0
 11
542.2684511875167
 21
1502.06085629634
 31
0.0
  0
LINE
  5
1821
330
1F
100
AcDbEntity
  8
実形
100
AcDbLine
 10
774.2684511875163
 20
1562.060856296341
 30
0.0
 11
542.2684511875167
 21
1562.060856296341
 31
0.0
  0
ARC
  5
1822
330
1F
100
AcDbEntity
  8
実形
100
AcDbCircle
 10
774.2684511875163
 20
1533.060856296341
 30
0.0
 40
29.0
100
AcDbArc
 50
0.0
 51
90.0
  0
ARC
  5
1823
330
1F
100
AcDbEntity
  8
実形
100
AcDbCircle
 10
774.2684511875168
 20
1531.06085629634
 30
0.0
 40
29.0
100
AcDbArc
 50
270.0
 51
0.0
  0
ARC
  5
1824
330
1F
100
AcDbEntity
  8
実形
100
AcDbCircle
 10
542.2684511875167
 20
1531.06085629634
 30
0.0
 40
29.0
100
AcDbArc
 50
180.0
 51
270.0
  0
ARC
  5
1825
330
1F
100
AcDbEntity
  8
実形
100
AcDbCircle
 10
542.2684511875167
 20
1533.060856296341
 30
0.0
 40
29.0
100
AcDbArc
 50
90.0
 51
180.0
  0
DIMENSION
  5
1826
330
1F
100
AcDbEntity
  8
寸法
100
AcDbDimension
  2
*D20
 10
803.2684511875164
 20
1666.392055524005
 30
0.0
 11
658.2684511875164
 21
1685.142055524005
 31
0.0
 70
    32
 71
     5
 42
289.9999999999999
  3
ISO-25
100
AcDbAlignedDimension
 13
513.2684511875164
 23
1562.06085629634
 33
0.0
 14
803.2684511875164
 24
1562.06085629634
 34
0.0
100
AcDbRotatedDimension
1001
ACAD
1000
DSTYLE
1002
{
1070
   279
1070
     1
1002
}
  0
LEADER
  5
1827
330
1F
100
AcDbEntity
  8
実形
100
AcDbLeader
  3
ISO-25
 40
74.99999999999999
 41
41.66666666666666
 76
     2
 10
804.3788834033211
 20
1538.816121677793
 30
0.0
 10
850.8146800568519
 20
1620.046673322687
 30
0.0
213
0.0
223
12.5
233
0.0
1001
ACAD
1000
DSTYLE
1002
{
1070
   147
1040
6.25
1070
    77
1070
     0
1070
    41
1040
20.0
1070
   342
1005
DA
1002
}
  0
TEXT
  5
1828
330
1F
100
AcDbEntity
  8
実形
100
AcDbText
 10
840.8060686264343
 20
1625.434186158122
 30
0.0
 40
25.0
  1
30R
 41
0.9
 72
     2
 11
897.0560686264343
 21
1637.934186158122
 31
0.0
100
AcDbText
 73
     2
  0
LINE
  5
1829
330
1F
100
AcDbEntity
  8
実形
370
    15
100
AcDbLine
 10
583.2349899006153
 20
1521.97154384069
 30
0.0
 11
623.2349899006153
 21
1521.971543840691
 31
0.0
  0
LINE
  5
182A
330
1F
100
AcDbEntity
  8
実形
370
    15
100
AcDbLine
 10
633.2349899006153
 20
1531.971543840691
 30
0.0
 11
633.2349899006153
 21
1531.971543840691
 31
0.0
  0
LINE
  5
182B
330
1F
100
AcDbEntity
  8
実形
370
    15
100
AcDbLine
 10
623.2349899006153
 20
1541.971543840691
 30
0.0
 11
532.5349323843941
 21
1541.97154384069
 31
0.0
  0
ARC
  5
182C
330
1F
100
AcDbEntity
  8
実形
370
    15
100
AcDbCircle
 10
623.2349899006153
 20
1531.971543840691
 30
0.0
 40
10.0
100
AcDbArc
 50
0.0
 51
90.0
  0
ARC
  5
182D
330
1F
100
AcDbEntity
  8
実形
370
    15
100
AcDbCircle
 10
623.2349899006153
 20
1531.971543840691
 30
0.0
 40
10.0
100
AcDbArc
 50
270.0
 51
0.0
  0
LINE
  5
182E
330
1F
100
AcDbEntity
  8
実形
370
    15
100
AcDbLine
 10
533.8684511875166
 20
1526.97154384069
 30
0.0
 11
623.2349899006153
 21
1526.971543840691
 31
0.0
  0
LINE
  5
182F
330
1F
100
AcDbEntity
  8
実形
370
    15
100
AcDbLine
 10
623.2349899006153
 20
1536.971543840691
 30
0.0
 11
532.9276282276708
 21
1536.97154384069
 31
0.0
  0
LINE
  5
1831
330
1F
100
AcDbEntity
  8
実形
370
    15
100
AcDbLine
 10
623.2349899006153
 20
1526.971543840691
 30
0.0
 11
532.9276282276708
 21
1526.97154384069
 31
0.0
  0
LINE
  5
1832
330
1F
100
AcDbEntity
  8
実形
370
    15
100
AcDbLine
 10
623.2349899006153
 20
1526.971543840691
 30
0.0
 11
532.9276282276708
 21
1526.97154384069
 31
0.0
  0
LINE
  5
1833
330
1F
100
AcDbEntity
  8
実形
370
    15
100
AcDbLine
 10
623.2349899006153
 20
1526.971543840691
 30
0.0
 11
532.9276282276708
 21
1526.97154384069
 31
0.0
  0
LINE
  5
1834
330
1F
100
AcDbEntity
  8
実形
370
    15
100
AcDbLine
 10
623.2349899006153
 20
1526.971543840691
 30
0.0
 11
532.9276282276708
 21
1526.97154384069
 31
0.0
  0
LINE
  5
1835
330
1F
100
AcDbEntity
  8
実形
370
    15
100
AcDbLine
 10
623.2349899006153
 20
1526.971543840691
 30
0.0
 11
532.9276282276708
 21
1526.97154384069
 31
0.0
  0
LINE
  5
1836
330
1F
100
AcDbEntity
  8
実形
370
    15
100
AcDbLine
 10
623.2349899006153
 20
1526.971543840691
 30
0.0
 11
532.9276282276708
 21
1526.97154384069
 31
0.0
  0
ARC
  5
1837
330
1F
100
AcDbEntity
  8
実形
370
    15
100
AcDbCircle
 10
623.2349899006153
 20
1531.971543840691
 30
0.0
 40
5.0
100
AcDbArc
 50
0.0
 51
90.0
  0
ARC
  5
1838
330
1F
100
AcDbEntity
  8
実形
370
    15
100
AcDbCircle
 10
623.2349899006153
 20
1531.971543840691
 30
0.0
 40
5.0
100
AcDbArc
 50
270.0
 51
0.0
  0
LINE
  5
1839
330
1F
100
AcDbEntity
  8
実形
370
    15
100
AcDbLine
 10
683.2349899006153
 20
1531.971543840691
 30
0.0
 11
683.2349899006153
 21
1531.971543840691
 31
0.0
  0
ARC
  5
183A
330
1F
100
AcDbEntity
  8
実形
370
    15
100
AcDbCircle
 10
533.8684511875166
 20
1532.06085629634
 30
0.0
 40
10.0
100
AcDbArc
 50
180.0
 51
270.0
  0
ARC
  5
183B
330
1F
100
AcDbEntity
  8
実形
370
    15
100
AcDbCircle
 10
533.8684511875166
 20
1532.06085629634
 30
0.0
 40
10.0
100
AcDbArc
 50
97.66332789946368
 51
180.0
  0
ARC
  5
183C
330
1F
100
AcDbEntity
  8
実形
370
    15
100
AcDbCircle
 10
534.0242465999239
 20
1532.125388869116
 30
0.0
 40
5.156199257937148
100
AcDbArc
 50
180.7171058390016
 51
268.2685350296829
  0
ARC
  5
183D
330
1F
100
AcDbEntity
  8
実形
370
    15
100
AcDbCircle
 10
533.8684511875166
 20
1532.06085629634
 30
0.0
 40
5.0
100
AcDbArc
 50
100.8456912240022
 51
180.0
  0
LINE
  5
183E
330
1F
100
AcDbEntity
  8
実形
100
AcDbLine
 10
583.2349899006153
 20
1521.97154384069
 30
0.0
 11
535.1969706684666
 21
1521.97154384069
 31
0.0
  0
LWPOLYLINE
  5
183F
330
1F
100
AcDbEntity
  8
実形
100
AcDbPolyline
 90
        2
 70
     0
 43
0.0
 10
533.8684511875166
 20
1522.06085629634
 10
535.1969706684666
 20
1521.97154384069
  0
LINE
  5
1840
330
1F
100
AcDbEntity
  8
実形
370
    15
100
AcDbLine
 10
693.3019124744178
 20
1541.971543840691
 30
0.0
 11
784.0019699906388
 21
1541.97154384069
 31
0.0
  0
ARC
  5
1841
330
1F
100
AcDbEntity
  8
実形
370
    15
100
AcDbCircle
 10
693.3019124744178
 20
1531.971543840691
 30
0.0
 40
10.0
100
AcDbArc
 50
90.0
 51
180.0
  0
ARC
  5
1842
330
1F
100
AcDbEntity
  8
実形
370
    15
100
AcDbCircle
 10
693.4357147209075
 20
1532.026966545862
 30
0.0
 40
10.13395380131631
100
AcDbArc
 50
180.3133528125275
 51
277.1375613778998
  0
LINE
  5
1843
330
1F
100
AcDbEntity
  8
実形
370
    15
100
AcDbLine
 10
782.6684511875164
 20
1526.97154384069
 30
0.0
 11
693.3019124744178
 21
1526.971543840691
 31
0.0
  0
LINE
  5
1844
330
1F
100
AcDbEntity
  8
実形
370
    15
100
AcDbLine
 10
693.3019124744178
 20
1536.971543840691
 30
0.0
 11
783.6092741473621
 21
1536.97154384069
 31
0.0
  0
ARC
  5
1845
330
1F
100
AcDbEntity
  8
実形
370
    15
100
AcDbCircle
 10
693.3019124744178
 20
1531.971543840691
 30
0.0
 40
5.0
100
AcDbArc
 50
90.0
 51
180.0
  0
ARC
  5
1846
330
1F
100
AcDbEntity
  8
実形
370
    15
100
AcDbCircle
 10
693.3019124744178
 20
1531.971543840691
 30
0.0
 40
5.0
100
AcDbArc
 50
180.0
 51
270.0
  0
ARC
  5
1847
330
1F
100
AcDbEntity
  8
実形
370
    15
100
AcDbCircle
 10
782.6684511875164
 20
1532.06085629634
 30
0.0
 40
10.0
100
AcDbArc
 50
270.0
 51
0.0
  0
ARC
  5
1848
330
1F
100
AcDbEntity
  8
実形
370
    15
100
AcDbCircle
 10
782.6684511875164
 20
1532.06085629634
 30
0.0
 40
10.0
100
AcDbArc
 50
0.0
 51
82.33667210053631
  0
ARC
  5
1849
330
1F
100
AcDbEntity
  8
実形
370
    15
100
AcDbCircle
 10
782.5126557751091
 20
1532.125388869116
 30
0.0
 40
5.156199257937148
100
AcDbArc
 50
271.7314649703171
 51
359.2828941609984
  0
ARC
  5
184A
330
1F
100
AcDbEntity
  8
実形
370
    15
100
AcDbCircle
 10
782.6684511875164
 20
1532.06085629634
 30
0.0
 40
5.0
100
AcDbArc
 50
0.0
 51
79.15430877599776
  0
LINE
  5
184B
330
1F
100
AcDbEntity
  8
実形
100
AcDbLine
 10
733.3019124744177
 20
1521.97154384069
 30
0.0
 11
781.3399317065663
 21
1521.97154384069
 31
0.0
  0
LINE
  5
184C
330
1F
100
AcDbEntity
  8
実形
100
AcDbLine
 10
733.3019124744177
 20
1521.97154384069
 30
0.0
 11
694.6948786766824
 21
1521.97154384069
 31
0.0
  0
ARC
  5
184D
330
1F
100
AcDbEntity
  8
実形
370
    15
100
AcDbCircle
 10
658.2684511875168
 20
1531.97154384069
 30
0.0
 40
12.5
100
AcDbArc
 50
282.555857798594
 51
347.4441422014061
  0
LINE
  5
184E
330
1F
100
AcDbEntity
  8
実形
370
    15
100
AcDbLine
 10
647.0434790271951
 20
1533.47154384069
 30
0.0
 11
655.7684511875168
 21
1533.47154384069
 31
0.0
  0
LINE
  5
184F
330
1F
100
AcDbEntity
  8
実形
370
    15
100
AcDbLine
 10
647.043479027195
 20
1530.47154384069
 30
0.0
 11
655.7684511875168
 21
1530.47154384069
 31
0.0
  0
LINE
  5
1850
330
1F
100
AcDbEntity
  8
実形
370
    15
100
AcDbLine
 10
659.7684511875168
 20
1543.196516001012
 30
0.0
 11
659.7684511875168
 21
1534.47154384069
 31
0.0
  0
LINE
  5
1851
330
1F
100
AcDbEntity
  8
実形
370
    15
100
AcDbLine
 10
656.7684511875167
 20
1543.196516001012
 30
0.0
 11
656.7684511875167
 21
1534.47154384069
 31
0.0
  0
LINE
  5
1852
330
1F
100
AcDbEntity
  8
実形
370
    15
100
AcDbLine
 10
656.7684511875167
 20
1529.47154384069
 30
0.0
 11
656.7684511875167
 21
1520.746571680368
 31
0.0
  0
LINE
  5
1853
330
1F
100
AcDbEntity
  8
実形
370
    15
100
AcDbLine
 10
660.7684511875167
 20
1533.47154384069
 30
0.0
 11
669.4934233478388
 21
1533.471543840691
 31
0.0
  0
LINE
  5
1854
330
1F
100
AcDbEntity
  8
実形
370
    15
100
AcDbLine
 10
659.7684511875168
 20
1529.47154384069
 30
0.0
 11
659.7684511875168
 21
1520.746571680368
 31
0.0
  0
LINE
  5
1855
330
1F
100
AcDbEntity
  8
実形
370
    15
100
AcDbLine
 10
660.7684511875167
 20
1530.47154384069
 30
0.0
 11
669.4934233478384
 21
1530.47154384069
 31
0.0
  0
ARC
  5
1856
330
1F
100
AcDbEntity
  8
実形
370
    15
100
AcDbCircle
 10
658.2684511875168
 20
1531.97154384069
 30
0.0
 40
12.5
100
AcDbArc
 50
192.5558577985939
 51
257.4441422014061
  0
ARC
  5
1857
330
1F
100
AcDbEntity
  8
実形
370
    15
100
AcDbCircle
 10
658.2684511875168
 20
1531.97154384069
 30
0.0
 40
12.5
100
AcDbArc
 50
102.5558577985939
 51
167.444142201406
  0
ARC
  5
1858
330
1F
100
AcDbEntity
  8
実形
370
    15
100
AcDbCircle
 10
658.2684511875168
 20
1531.97154384069
 30
0.0
 40
12.5
100
AcDbArc
 50
12.55585779859394
 51
77.44414220140606
  0
ARC
  5
1859
330
1F
100
AcDbEntity
  8
実形
370
    15
100
AcDbCircle
 10
660.7684511875167
 20
1543.196516001012
 30
0.0
 40
1.0
100
AcDbArc
 50
77.44414220140606
 51
180.0
  0
ARC
  5
185A
330
1F
100
AcDbEntity
  8
実形
370
    15
100
AcDbCircle
 10
669.4934233478388
 20
1534.47154384069
 30
0.0
 40
1.0
100
AcDbArc
 50
270.0
 51
12.55585779859394
  0
ARC
  5
185B
330
1F
100
AcDbEntity
  8
実形
370
    15
100
AcDbCircle
 10
669.4934233478384
 20
1529.47154384069
 30
0.0
 40
1.0
100
AcDbArc
 50
347.4441422014061
 51
90.0
  0
ARC
  5
185C
330
1F
100
AcDbEntity
  8
実形
370
    15
100
AcDbCircle
 10
660.7684511875167
 20
1520.746571680368
 30
0.0
 40
1.0
100
AcDbArc
 50
180.0
 51
282.555857798594
  0
ARC
  5
185D
330
1F
100
AcDbEntity
  8
実形
370
    15
100
AcDbCircle
 10
655.7684511875168
 20
1520.746571680368
 30
0.0
 40
1.0
100
AcDbArc
 50
257.4441422014061
 51
0.0
  0
ARC
  5
185E
330
1F
100
AcDbEntity
  8
実形
370
    15
100
AcDbCircle
 10
647.043479027195
 20
1529.471543840691
 30
0.0
 40
1.0
100
AcDbArc
 50
90.0
 51
192.5558577985685
  0
ARC
  5
185F
330
1F
100
AcDbEntity
  8
実形
370
    15
100
AcDbCircle
 10
647.0434790271951
 20
1534.471543840691
 30
0.0
 40
1.0
100
AcDbArc
 50
167.4441422014315
 51
270.0
  0
ARC
  5
1860
330
1F
100
AcDbEntity
  8
実形
370
    15
100
AcDbCircle
 10
655.7684511875168
 20
1543.196516001012
 30
0.0
 40
1.0
100
AcDbArc
 50
0.0
 51
102.5558577985939
  0
ARC
  5
1861
330
1F
100
AcDbEntity
  8
実形
370
    15
100
AcDbCircle
 10
655.7684511875168
 20
1529.47154384069
 30
0.0
 40
1.0
100
AcDbArc
 50
0.0
 51
90.0
  0
ARC
  5
1862
330
1F
100
AcDbEntity
  8
実形
370
    15
100
AcDbCircle
 10
660.7684511875167
 20
1529.47154384069
 30
0.0
 40
1.0
100
AcDbArc
 50
90.0
 51
180.0
  0
ARC
  5
1863
330
1F
100
AcDbEntity
  8
実形
370
    15
100
AcDbCircle
 10
660.7684511875167
 20
1534.47154384069
 30
0.0
 40
1.0
100
AcDbArc
 50
180.0
 51
270.0
  0
ARC
  5
1864
330
1F
100
AcDbEntity
  8
実形
370
    15
100
AcDbCircle
 10
655.7684511875168
 20
1534.47154384069
 30
0.0
 40
1.0
100
AcDbArc
 50
270.0
 51
0.0
  0
LINE
  5
187A
330
1F
100
AcDbEntity
  8
実形
100
AcDbLine
 10
473.2684511875167
 20
1665.544543193063
 30
0.0
 11
473.2684511875167
 21
1628.166524766157
 31
0.0
  0
LWPOLYLINE
  5
187B
330
1F
100
AcDbEntity
  8
実形
100
AcDbPolyline
 90
        2
 70
     0
 43
0.0
 10
513.2684511875167
 20
1533.060856296341
 10
513.2684511875167
 20
1531.06085629634
  0
LWPOLYLINE
  5
187C
330
1F
100
AcDbEntity
  8
実形
100
AcDbPolyline
 90
        2
 70
     0
 43
0.0
 10
803.2684511875164
 20
1533.060856296341
 10
803.2684511875167
 20
1531.06085629634
  0
CIRCLE
  5
1A11
330
1F
100
AcDbEntity
  8
実形
100
AcDbCircle
 10
623.2684511875167
 20
1346.97154384069
 30
0.0
 40
115.5
  0
LINE
  5
1B63
330
1F
100
AcDbEntity
  8
実形
100
AcDbLine
 10
713.768451187517
 20
541.1558673239041
 30
0.0
 11
532.7684511875168
 21
541.1558673239041
 31
0.0
  0
LINE
  5
1B64
330
1F
100
AcDbEntity
  8
実形
100
AcDbLine
 10
532.7684511875168
 20
548.1558673239042
 30
0.0
 11
532.7684511875165
 21
541.1558673239041
 31
0.0
  0
LINE
  5
1B65
330
1F
100
AcDbEntity
  8
実形
100
AcDbLine
 10
713.7684511875168
 20
548.1558673239042
 30
0.0
 11
713.7684511875168
 21
541.1558673239041
 31
0.0
  0
TEXT
  5
1BC1
330
1F
100
AcDbEntity
  8
0
100
AcDbText
 10
2279.446829891798
 20
151.8
 30
0.0
 40
35.0
  1
Jstn         
  7
MS明朝
 72
     4
 11
2445.846829891798
 21
166.5
 31
0.0
100
AcDbText
  0
TEXT
  5
1BC2
330
1F
100
AcDbEntity
  8
0
100
AcDbText
 10
2409.17420448973
 20
148.5415142773858
 30
0.0
 40
35.0
  1
868-588
  7
MS明朝
 72
     4
 11
2498.77420448973
 21
165.6415142773858
 31
0.0
100
AcDbText
  0
TEXT
  5
1BC3
330
1F
100
AcDbEntity
  8
0
100
AcDbText
 10
2591.766661827541
 20
149.277932775477
 30
0.0
 40
35.0
  1
S-POL
  7
MS明朝
 72
     4
 11
2655.766661827541
 21
166.377932775477
 31
0.0
100
AcDbText
  0
LINE
  5
1BD8
330
1F
100
AcDbEntity
  8
補助
100
AcDbLine
 10
104.0
 20
2024.0
 30
0.0
 11
104.0
 21
4.0
 31
0.0
  0
LINE
  5
1C87
330
1F
100
AcDbEntity
  8
実形
100
AcDbLine
 10
533.2684511875168
 20
1605.97154384069
 30
0.0
 11
1213.268451187516
 21
1605.97154384069
 31
0.0
  0
ARC
  5
1C88
330
1F
100
AcDbEntity
  8
実形
100
AcDbCircle
 10
1213.268451187516
 20
1511.97154384069
 30
0.0
 40
94.0
100
AcDbArc
 50
0.0
 51
90.0
  0
LINE
  5
1C89
330
1F
100
AcDbEntity
  8
実形
100
AcDbLine
 10
1307.268451187516
 20
1511.97154384069
 30
0.0
 11
1307.268451187517
 21
1173.913076014515
 31
0.0
  0
ARC
  5
1C8A
330
1F
100
AcDbEntity
  8
実形
100
AcDbCircle
 10
1213.268451187517
 20
1111.97154384069
 30
0.0
 40
94.0
100
AcDbArc
 50
270.0
 51
0.0
  0
LINE
  5
1C8B
330
1F
100
AcDbEntity
  8
実形
100
AcDbLine
 10
1307.268451187517
 20
1431.97154384069
 30
0.0
 11
1307.268451187517
 21
1111.97154384069
 31
0.0
  0
LINE
  5
1C8C
330
1F
100
AcDbEntity
  8
実形
100
AcDbLine
 10
533.2684511875168
 20
1017.97154384069
 30
0.0
 11
1213.268451187517
 21
1017.97154384069
 31
0.0
  0
ARC
  5
1C8D
330
1F
100
AcDbEntity
  8
実形
100
AcDbCircle
 10
533.2684511875168
 20
1111.97154384069
 30
0.0
 40
94.0
100
AcDbArc
 50
180.0
 51
270.0
  0
LINE
  5
1C8E
330
1F
100
AcDbEntity
  8
実形
100
AcDbLine
 10
439.2684511875168
 20
1431.97154384069
 30
0.0
 11
439.2684511875168
 21
1111.97154384069
 31
0.0
  0
LINE
  5
1C8F
330
1F
100
AcDbEntity
  8
実形
100
AcDbLine
 10
439.2684511875168
 20
1511.97154384069
 30
0.0
 11
439.2684511875168
 21
1173.913076014515
 31
0.0
  0
ARC
  5
1C90
330
1F
100
AcDbEntity
  8
実形
100
AcDbCircle
 10
533.2684511875168
 20
1511.97154384069
 30
0.0
 40
94.0
100
AcDbArc
 50
90.0
 51
180.0
  0
DIMENSION
  5
1C97
330
1F
100
AcDbEntity
  8
実形
100
AcDbDimension
  2
*D24
 10
473.2684511875169
 20
1726.450414333078
 30
0.0
 11
479.1625334921246
 21
1761.450414333078
 31
0.0
 70
   160
  1
35
 71
     5
 42
34.00000000000011
  3
ISO-25
100
AcDbAlignedDimension
 13
439.2684511875168
 23
1626.52980469384
 33
0.0
 14
473.2684511875169
 24
1626.52980469384
 34
0.0
100
AcDbRotatedDimension
  0
DIMENSION
  5
1CA4
330
1F
100
AcDbEntity
  8
実形
100
AcDbDimension
  2
*D25
 10
1307.268451187517
 20
1726.450414333078
 30
0.0
 11
1266.381163401729
 21
1761.450414333078
 31
0.0
 70
   160
  1
35
 71
     5
 42
34.00000000000023
  3
ISO-25
100
AcDbAlignedDimension
 13
1273.268451187516
 23
1626.52980469384
 33
0.0
 14
1307.268451187517
 24
1626.52980469384
 34
0.0
100
AcDbRotatedDimension
  0
DIMENSION
  5
1CD5
330
1F
100
AcDbEntity
  8
実形
100
AcDbDimension
  2
*D26
 10
1307.268451187517
 20
1798.119625820569
 30
0.0
 11
873.2684511875168
 21
1816.869625820569
 31
0.0
 70
    32
 71
     5
 42
868.0
  3
ISO-25
100
AcDbAlignedDimension
 13
439.2684511875168
 23
1626.52980469384
 33
0.0
 14
1307.268451187517
 24
1626.52980469384
 34
0.0
100
AcDbRotatedDimension
  0
DIMENSION
  5
1CE6
330
1F
100
AcDbEntity
  8
実形
100
AcDbDimension
  2
*D27
 10
1375.971909328977
 20
1571.97154384069
 30
0.0
 11
1350.544778831941
 21
1528.668103810878
 31
0.0
 70
   160
  1
35
 71
     5
 42
33.99999999999955
  3
ISO-25
100
AcDbAlignedDimension
 13
1263.894751395328
 23
1605.97154384069
 33
0.0
 14
1263.894751395328
 24
1571.97154384069
 34
0.0
 50
90.0
100
AcDbRotatedDimension
  0
DIMENSION
  5
1CF3
330
1F
100
AcDbEntity
  8
実形
100
AcDbDimension
  2
*D28
 10
1375.971909328976
 20
1017.97154384069
 30
0.0
 11
1354.615662778857
 21
1096.935634186067
 31
0.0
 70
   160
  1
35
 71
     5
 42
34.0
  3
ISO-25
100
AcDbAlignedDimension
 13
1263.894751395328
 23
1051.97154384069
 33
0.0
 14
1263.894751395328
 24
1017.97154384069
 34
0.0
 50
90.0
100
AcDbRotatedDimension
  0
DIMENSION
  5
1D24
330
1F
100
AcDbEntity
  8
実形
100
AcDbDimension
  2
*D29
 10
1447.979645116478
 20
1017.97154384069
 30
0.0
 11
1429.229645116478
 21
1311.97154384069
 31
0.0
 70
    32
 71
     5
 42
587.9999999999998
  3
ISO-25
100
AcDbAlignedDimension
 13
1263.894751395328
 23
1605.97154384069
 33
0.0
 14
1263.894751395328
 24
1017.97154384069
 34
0.0
 50
90.0
100
AcDbRotatedDimension
  0
LEADER
  5
1D7C
330
1F
100
AcDbEntity
  8
実形
100
AcDbLeader
  3
ISO-25
 40
25.0
 41
16.66666666666666
 76
     2
 10
450.4607858213455
 20
1568.67333262761
 30
0.0
 10
408.8394264033593
 20
1623.520087035105
 30
0.0
213
0.0
223
12.5
233
0.0
1001
ACAD
1000
DSTYLE
1002
{
1070
   147
1040
6.25
1070
    77
1070
     0
1070
    41
1040
20.0
1070
   342
1005
DA
1002
}
  0
TEXT
  5
1D7D
330
1F
100
AcDbEntity
  8
実形
100
AcDbText
 10
347.9163655317426
 20
1634.867681562317
 30
0.0
 40
25.0
  1
94R
 72
     2
 11
414.5830321984091
 21
1659.867681562317
 31
0.0
100
AcDbText
 73
     3
  0
LEADER
  5
1D7E
330
1F
100
AcDbEntity
  8
実形
100
AcDbLeader
  3
ISO-25
 40
25.0
 41
16.66666666666666
 76
     2
 10
461.8182470687531
 20
1039.775187344436
 30
0.0
 10
405.0491014901342
 20
981.4258432282876
 30
0.0
213
0.0
223
12.5
233
0.0
1001
ACAD
1000
DSTYLE
1002
{
1070
   147
1040
6.25
1070
    77
1070
     0
1070
    41
1040
20.0
1070
   342
1005
DA
1002
}
  0
TEXT
  5
1D7F
330
1F
100
AcDbEntity
  8
実形
100
AcDbText
 10
366.4274171681756
 20
950.90852297315
 30
0.0
 40
25.0
  1
94R
 72
     2
 11
433.0940838348421
 21
975.90852297315
 31
0.0
100
AcDbText
 73
     3
  0
LEADER
  5
1D8A
330
1F
100
AcDbEntity
  8
実形
100
AcDbLeader
  3
ISO-25
 40
25.0
 41
16.66666666666666
 76
     2
 10
1294.186458907772
 20
1580.351987430115
 30
0.0
 10
1349.408840458337
 20
1639.206106535961
 30
0.0
213
0.0
223
12.5
233
0.0
1001
ACAD
1000
DSTYLE
1002
{
1070
   147
1040
6.25
1070
    77
1070
     0
1070
    41
1040
20.0
1070
   342
1005
DA
1002
}
  0
TEXT
  5
1D8B
330
1F
100
AcDbEntity
  8
実形
100
AcDbText
 10
1326.93520944164
 20
1644.347885794422
 30
0.0
 40
25.0
  1
94R
 72
     2
 11
1393.601876108306
 21
1669.347885794422
 31
0.0
100
AcDbText
 73
     3
  0
LEADER
  5
1D8C
330
1F
100
AcDbEntity
  8
実形
100
AcDbLeader
  3
ISO-25
 40
25.0
 41
16.66666666666666
 76
     2
 10
1276.801880738521
 20
1031.923383945966
 30
0.0
 10
1336.350913486041
 20
986.9952720453365
 30
0.0
213
0.0
223
12.5
233
0.0
1001
ACAD
1000
DSTYLE
1002
{
1070
   147
1040
6.25
1070
    77
1070
     0
1070
    41
1040
20.0
1070
   342
1005
DA
1002
}
  0
TEXT
  5
1D8D
330
1F
100
AcDbEntity
  8
実形
100
AcDbText
 10
1330.261388365167
 20
951.8920222518046
 30
0.0
 40
25.0
  1
94R
 72
     2
 11
1396.928055031833
 21
976.8920222518046
 31
0.0
100
AcDbText
 73
     3
  0
TEXT
  5
1DB7
330
1F
100
AcDbEntity
  8
実形
100
AcDbText
 10
996.2253949882716
 20
1517.930085703337
 30
0.0
 40
25.0
  1
4角×
  7
MS明朝
 72
     2
 11
1087.653966416843
 21
1542.930085703337
 31
0.0
100
AcDbText
 73
     3
  0
LEADER
  5
1DB8
330
1F
100
AcDbEntity
  8
実形
100
AcDbLeader
  3
ISO-25
 40
25.0
 41
16.66666666666666
 76
     2
 10
1231.318781088297
 20
1557.65330882243
 30
0.0
 10
1165.987077334838
 20
1534.240100362965
 30
0.0
213
0.0
223
12.5
233
0.0
1001
ACAD
1000
DSTYLE
1002
{
1070
   147
1040
6.25
1070
    77
1070
     0
1070
    41
1040
20.0
1070
   342
1005
DA
1002
}
  0
TEXT
  5
1DB9
330
1F
100
AcDbEntity
  8
実形
100
AcDbText
 10
1093.47424913397
 20
1518.224145900811
 30
0.0
 40
25.0
  1
59R
 72
     2
 11
1160.140915800637
 21
1543.224145900811
 31
0.0
100
AcDbText
 73
     3
  0
LINE
  5
1E11
330
1F
100
AcDbEntity
  8
補助
100
AcDbLine
 10
2784.0
 20
1959.0
 30
0.0
 11
2019.387286519283
 21
1959.000000000001
 31
0.0
  0
LINE
  5
1E12
330
1F
100
AcDbEntity
  8
補助
100
AcDbLine
 10
2784.0
 20
1894.0
 30
0.0
 11
2019.387286519283
 21
1894.0
 31
0.0
  0
LINE
  5
1E13
330
1F
100
AcDbEntity
  8
補助
100
AcDbLine
 10
2784.0
 20
1829.0
 30
0.0
 11
2019.387286519283
 21
1829.0
 31
0.0
  0
LINE
  5
1E14
330
1F
100
AcDbEntity
  8
補助
100
AcDbLine
 10
2784.0
 20
1764.0
 30
0.0
 11
2019.387286519283
 21
1764.0
 31
0.0
  0
LINE
  5
1E15
330
1F
100
AcDbEntity
  8
補助
100
AcDbLine
 10
2202.547653420927
 20
1764.0
 30
0.0
 11
2202.547653420927
 21
2024.0
 31
0.0
  0
LINE
  5
1E16
330
1F
100
AcDbEntity
  8
補助
100
AcDbLine
 10
2019.387286519283
 20
1764.0
 30
0.0
 11
2019.387286519283
 21
2024.0
 31
0.0
  0
TEXT
  5
1E17
330
1F
100
AcDbEntity
  8
補助
100
AcDbText
 10
2050.295698850121
 20
1976.328571428572
 30
0.0
 40
30.0
  1
部品名
  7
明朝
 72
     4
 11
2116.124270278692
 21
1991.5
 31
0.0
100
AcDbText
  0
TEXT
  5
1E18
330
1F
100
AcDbEntity
  8
補助
100
AcDbText
 10
2627.614285714286
 20
1976.071428571429
 30
0.0
 40
30.0
  1
厚さ
  7
明朝
 72
     4
 11
2671.5
 21
1991.5
 31
0.0
100
AcDbText
  0
LINE
  5
1E19
330
1F
100
AcDbEntity
  8
補助
100
AcDbLine
 10
2559.0
 20
1764.0
 30
0.0
 11
2559.0
 21
2024.0
 31
0.0
  0
TEXT
  5
1E1A
330
1F
100
AcDbEntity
  8
補助
100
AcDbText
 10
2338.490869919937
 20
1975.947979478155
 30
0.0
 40
30.0
  1
材質
  7
明朝
 72
     4
 11
2382.376584205651
 21
1991.119408049583
 31
0.0
100
AcDbText
  0
TEXT
  5
1E1B
330
1F
100
AcDbEntity
  8
実形
100
AcDbText
 10
2048.227810657788
 20
1910.557142857143
 30
0.0
 40
30.0
  1
ボウル
  7
明朝
 72
     4
 11
2114.056382086359
 21
1926.5
 31
0.0
100
AcDbText
  0
TEXT
  5
1E1C
330
1F
100
AcDbEntity
  8
実形
100
AcDbText
 10
2594.700000000001
 20
1911.842857142857
 30
0.0
 40
30.0
  1
0.8ｍｍ
  7
明朝
 72
     4
 11
2671.500000000001
 21
1926.5
 31
0.0
100
AcDbText
  0
TEXT
  5
1E1D
330
1F
100
AcDbEntity
  8
実形
100
AcDbText
 10
2239.074011965008
 20
1910.728571428572
 30
0.0
 40
30.0
  1
SUS304（No.4）
  7
明朝
 72
     4
 11
2392.674011965008
 21
1926.5
 31
0.0
100
AcDbText
  0
TEXT
  5
1E1E
330
1F
100
AcDbEntity
  8
実形
100
AcDbText
 10
2070.170667800645
 20
1846.242857142857
 30
0.0
 40
30.0
  1
天板
  7
明朝
 72
     4
 11
2114.056382086359
 21
1861.5
 31
0.0
100
AcDbText
  0
TEXT
  5
1E1F
330
1F
100
AcDbEntity
  8
実形
100
AcDbText
 10
2219.734774251222
 20
1848.285714285714
 30
0.0
 40
25.0
  1
アクリル人工大理石
  7
明朝
 72
     4
 11
2384.306202822651
 21
1861.5
 31
0.0
100
AcDbText
  0
TEXT
  5
1E20
330
1F
100
AcDbEntity
  8
実形
100
AcDbText
 10
2605.67142857143
 20
1846.842857142857
 30
0.0
 40
30.0
  1
18ｍｍ
  7
明朝
 72
     4
 11
2671.500000000001
 21
1861.5
 31
0.0
100
AcDbText
  0
TEXT
  5
1E21
330
1F
100
AcDbEntity
  8
実形
100
AcDbText
 10
2026.284953514931
 20
1780.557142857143
 30
0.0
 40
30.0
  1
ポケット
  7
明朝
 72
     4
 11
2114.056382086359
 21
1796.5
 31
0.0
100
AcDbText
  0
TEXT
  5
1E22
330
1F
100
AcDbEntity
  8
実形
100
AcDbText
 10
2292.877631394079
 20
1783.642857142857
 30
0.0
 40
25.0
  1
樹脂（PP）
  7
明朝
 72
     4
 11
2384.306202822651
 21
1796.5
 31
0.0
100
AcDbText
  0
TEXT
  5
1E23
330
1F
100
AcDbEntity
  8
実形
100
AcDbText
 10
2616.642857142859
 20
1781.842857142857
 30
0.0
 40
30.0
  1
3ｍｍ
  7
明朝
 72
     4
 11
2671.500000000001
 21
1796.5
 31
0.0
100
AcDbText
  0
LINE
  5
1E2E
330
1F
100
AcDbEntity
  8
実形
100
AcDbLine
 10
439.2684511875167
 20
738.3558673239043
 30
0.0
 11
1307.268451187517
 21
738.3558673239041
 31
0.0
  0
LINE
  5
1E2F
330
1F
100
AcDbEntity
  8
実形
100
AcDbLine
 10
444.2684511875167
 20
756.3558673239042
 30
0.0
 11
1302.268451187517
 21
756.3558673239041
 31
0.0
  0
LINE
  5
1E30
330
1F
100
AcDbEntity
  8
実形
100
AcDbLine
 10
439.2684511875167
 20
751.3558673239042
 30
0.0
 11
439.2684511875167
 21
738.3558673239041
 31
0.0
  0
LINE
  5
1E32
330
1F
100
AcDbEntity
  8
実形
100
AcDbLine
 10
1307.268451187517
 20
751.3558673239041
 30
0.0
 11
1307.268451187517
 21
738.3558673239041
 31
0.0
  0
DIMENSION
  5
1E89
330
1F
100
AcDbEntity
  8
実形
100
AcDbDimension
  2
*D35
 10
323.5466231292214
 20
738.3558673239043
 30
0.0
 11
243.3445424618678
 21
807.9023466689633
 31
0.0
 70
   160
 71
     5
 42
18.0
  3
ISO-25
100
AcDbAlignedDimension
 13
466.5464012379364
 23
756.3558673239043
 33
0.0
 14
467.5251788791122
 24
738.3558673239043
 34
0.0
 50
90.0
100
AcDbRotatedDimension
1001
ACAD
1000
DSTYLE
1002
{
1070
   140
1040
25.0
1070
   279
1070
     2
1070
   371
1070
    18
1070
   372
1070
    18
1002
}
  0
DIMENSION
  5
1E8A
330
1F
100
AcDbEntity
  8
実形
100
AcDbDimension
  2
*D36
 10
323.5466231292214
 20
733.1558673239044
 30
0.0
 11
246.1193928832474
 21
710.0955848679624
 31
0.0
 70
   160
 71
     5
 42
5.199999999999931
  3
ISO-25
100
AcDbAlignedDimension
 13
467.5251788791122
 23
738.3558673239043
 33
0.0
 14
467.5251788791122
 24
733.1558673239044
 34
0.0
 50
90.0
100
AcDbRotatedDimension
1001
ACAD
1000
DSTYLE
1002
{
1070
   140
1040
25.0
1070
   279
1070
     2
1070
   371
1070
    18
1070
   372
1070
    18
1002
}
  0
DIMENSION
  5
1E8B
330
1F
100
AcDbEntity
  8
実形
100
AcDbDimension
  2
*D37
 10
323.5466231292213
 20
548.1558673239042
 30
0.0
 11
297.6727967846911
 21
628.9186192081562
 31
0.0
 70
   160
 71
     5
 42
185.0000000000001
  3
ISO-25
100
AcDbAlignedDimension
 13
467.5251788791122
 23
733.1558673239044
 33
0.0
 14
412.458671104365
 24
548.1558673239042
 34
0.0
 50
90.0
100
AcDbRotatedDimension
1001
ACAD
1000
DSTYLE
1002
{
1070
   279
1070
     2
1070
   371
1070
    18
1070
   372
1070
    18
1002
}
  0
DIMENSION
  5
1E8C
330
1F
100
AcDbEntity
  8
実形
100
AcDbDimension
  2
*D38
 10
212.9247246785801
 20
548.1558673239044
 30
0.0
 11
194.1747246785799
 21
652.2558673239045
 31
0.0
 70
    32
 71
     5
 42
208.2
  3
ISO-25
100
AcDbAlignedDimension
 13
466.5464012379364
 23
756.3558673239043
 33
0.0
 14
412.458671104365
 24
548.1558673239042
 34
0.0
 50
90.0
100
AcDbRotatedDimension
1001
ACAD
1000
DSTYLE
1002
{
1070
   279
1070
     2
1070
   371
1070
    18
1070
   372
1070
    18
1002
}
  0
DIMENSION
  5
1E8D
330
1F
100
AcDbEntity
  8
実形
100
AcDbDimension
  2
*D39
 10
323.5466231292213
 20
548.1558673239042
 30
0.0
 11
288.5466231292213
 21
521.8180836596676
 31
0.0
 70
   160
  1
7
 71
     5
 42
10.0
  3
ISO-25
100
AcDbAlignedDimension
 13
468.6185766883447
 23
538.1558673239043
 33
0.0
 14
468.6185766883447
 24
548.1558673239042
 34
0.0
 50
90.0
100
AcDbRotatedDimension
1001
ACAD
1000
DSTYLE
1002
{
1070
   279
1070
     2
1070
   371
1070
    18
1070
   372
1070
    18
1002
}
  0
LINE
  5
1E8E
330
1F
100
AcDbEntity
  8
実形
100
AcDbLine
 10
321.3436380885416
 20
735.7739570809646
 30
0.0
 11
274.3697706824116
 21
713.8121989728389
 31
0.0
  0
LINE
  5
1E8F
330
1F
100
AcDbEntity
  8
実形
100
AcDbLine
 10
318.9780528915782
 20
735.0982195642155
 30
0.0
 11
300.729209100051
 21
730.367984743527
 31
0.0
  0
LINE
  5
1E90
330
1F
100
AcDbEntity
  8
実形
100
AcDbLine
 10
319.3160070803662
 20
734.4224676067771
 30
0.0
 11
305.7983336827621
 21
724.2862748893386
 31
0.0
  0
ARC
  5
1E91
330
1F
100
AcDbEntity
  8
実形
100
AcDbCircle
 10
366.3893187501098
 20
868.3592052736912
 30
0.0
 40
128.7156019851906
100
AcDbArc
 50
213.3909885014397
 51
249.3522921630743
  0
LINE
  5
1E92
330
1F
100
AcDbEntity
  8
実形
100
AcDbLine
 10
321.039428803577
 20
748.0666583049898
 30
0.0
 11
310.1340756067986
 21
755.7433587477772
 31
0.0
  0
LINE
  5
1E93
330
1F
100
AcDbEntity
  8
実形
100
AcDbLine
 10
320.8370346763715
 20
747.9257081864144
 30
0.0
 11
306.9523877049325
 21
751.5081109231015
 31
0.0
  0
LEADER
  5
1E94
330
1F
100
AcDbEntity
  8
実形
100
AcDbLeader
  3
ISO-25
 40
25.0
 41
16.66666666666666
 76
     2
 10
433.8084874230337
 20
762.0254111559853
 30
0.0
 10
392.9353954175887
 20
805.7330594376745
 30
0.0
213
0.0
223
12.5
233
0.0
1001
ACAD
1000
DSTYLE
1002
{
1070
   147
1040
6.25
1070
    77
1070
     0
1070
    41
1040
20.0
1070
   342
1005
DA
1002
}
  0
TEXT
  5
1E95
330
1F
100
AcDbEntity
  8
実形
100
AcDbText
 10
368.0604573793321
 20
818.1599064634076
 30
0.0
 40
25.0
  1
5R
 72
     2
 11
409.7271240459988
 21
843.1599064634076
 31
0.0
100
AcDbText
 73
     3
  0
LEADER
  5
1E96
330
1F
100
AcDbEntity
  8
実形
100
AcDbLeader
  3
ISO-25
 40
25.0
 41
16.66666666666666
 76
     2
 10
1319.922348506483
 20
761.7639715747154
 30
0.0
 10
1357.30982383003
 20
795.503383035254
 30
0.0
213
0.0
223
12.5
233
0.0
1001
ACAD
1000
DSTYLE
1002
{
1070
   147
1040
6.25
1070
    77
1070
     0
1070
    41
1040
20.0
1070
   342
1005
DA
1002
}
  0
TEXT
  5
1E97
330
1F
100
AcDbEntity
  8
実形
100
AcDbText
 10
1347.6767659222
 20
802.3028933267742
 30
0.0
 40
25.0
  1
5R
 72
     2
 11
1389.343432588867
 21
827.3028933267742
 31
0.0
100
AcDbText
 73
     3
  0
LINE
  5
1FE4
330
1F
100
AcDbEntity
  8
実形
100
AcDbLine
 10
1567.527747949327
 20
1051.97154384069
 30
0.0
 11
1569.727747949326
 21
1051.97154384069
 31
0.0
  0
LINE
  5
1FE5
330
1F
100
AcDbEntity
  8
実形
100
AcDbLine
 10
1572.727747949327
 20
1054.97154384069
 30
0.0
 11
1572.727747949327
 21
1061.97154384069
 31
0.0
  0
LINE
  5
1FE6
330
1F
100
AcDbEntity
  8
実形
100
AcDbLine
 10
1577.727747949326
 20
1066.97154384069
 30
0.0
 11
1723.540809684315
 21
1066.97154384069
 31
0.0
  0
LINE
  5
1FE7
330
1F
100
AcDbEntity
  8
実形
100
AcDbLine
 10
1757.727747949326
 20
1256.471543840689
 30
0.0
 11
1757.727747949327
 21
1446.97154384069
 31
0.0
  0
LINE
  5
1FE8
330
1F
100
AcDbEntity
  8
実形
100
AcDbLine
 10
1727.727747949327
 20
1476.97154384069
 30
0.0
 11
1577.727747949326
 21
1476.97154384069
 31
0.0
  0
LINE
  5
1FE9
330
1F
100
AcDbEntity
  8
実形
100
AcDbLine
 10
1572.727747949327
 20
1481.97154384069
 30
0.0
 11
1572.727747949327
 21
1488.97154384069
 31
0.0
  0
LINE
  5
1FEA
330
1F
100
AcDbEntity
  8
実形
100
AcDbLine
 10
1569.727747949326
 20
1491.97154384069
 30
0.0
 11
1567.527747949326
 21
1491.97154384069
 31
0.0
  0
ARC
  5
1FEF
330
1F
100
AcDbEntity
  8
実形
100
AcDbCircle
 10
1569.727747949326
 20
1488.97154384069
 30
0.0
 40
3.0
100
AcDbArc
 50
0.0
 51
90.0
  0
ARC
  5
1FF0
330
1F
100
AcDbEntity
  8
実形
100
AcDbCircle
 10
1577.727747949326
 20
1061.97154384069
 30
0.0
 40
5.0
100
AcDbArc
 50
90.0
 51
180.0
  0
ARC
  5
1FF1
330
1F
100
AcDbEntity
  8
実形
100
AcDbCircle
 10
1577.727747949326
 20
1481.97154384069
 30
0.0
 40
5.0
100
AcDbArc
 50
180.0
 51
270.0
  0
ARC
  5
1FF2
330
1F
100
AcDbEntity
  8
実形
100
AcDbCircle
 10
1727.727747949327
 20
1446.97154384069
 30
0.0
 40
30.0
100
AcDbArc
 50
0.0
 51
90.0
  0
LINE
  5
1FF3
330
1F
100
AcDbEntity
  8
実形
100
AcDbLine
 10
1757.727747949327
 20
1256.47154384069
 30
0.0
 11
1753.530529433582
 21
1096.186235391454
 31
0.0
  0
ARC
  5
1FF4
330
1F
100
AcDbEntity
  8
実形
100
AcDbCircle
 10
1723.540809684315
 20
1096.97154384069
 30
0.0
 40
30.0
100
AcDbArc
 50
270.0
 51
358.4999999999973
  0
ARC
  5
1FF6
330
1F
100
AcDbEntity
  8
実形
100
AcDbCircle
 10
1569.727747949326
 20
1054.97154384069
 30
0.0
 40
3.0
100
AcDbArc
 50
270.0
 51
0.0
  0
LINE
  5
1FFA
330
1F
100
AcDbEntity
  8
寸法
370
    15
100
AcDbLine
 10
1829.727747949327
 20
1426.47154384069
 30
0.0
 11
1876.299592620715
 21
1426.47154384069
 31
0.0
  0
LINE
  5
1FFB
330
1F
100
AcDbEntity
  8
寸法
370
    15
100
AcDbLine
 10
1829.727747949327
 20
1267.47154384069
 30
0.0
 11
1876.299592620715
 21
1267.47154384069
 31
0.0
  0
LINE
  5
1FFC
330
1F
100
AcDbEntity
  8
寸法
370
    15
100
AcDbLine
 10
1876.299592620715
 20
1426.47154384069
 30
0.0
 11
1876.299592620715
 21
1267.47154384069
 31
0.0
  0
MTEXT
  5
1FFD
330
1F
100
AcDbEntity
  8
寸法
100
AcDbMText
 10
1855.496789964621
 20
1348.624658663757
 30
0.0
 40
25.0
 41
0.0
 71
     5
 72
     1
  1
158%%C
 11
0.0000000000000001
 21
1.0
 31
0.0
 73
     1
 44
1.0
1001
ACAD
1000
MTEXTBEGIN
1070
    73
1070
     1
1070
    44
1040
1.0
1070
    74
1070
     0
1000
MTEXTEND
  0
INSERT
  5
1FFE
330
1F
100
AcDbEntity
  8
寸法
370
    15
100
AcDbBlockReference
  2
_DotSmall
 10
1876.299592620715
 20
1426.47154384069
 30
0.0
 41
35.0
 42
35.0
 43
35.0
 50
90.0
  0
INSERT
  5
1FFF
330
1F
100
AcDbEntity
  8
寸法
370
    15
100
AcDbBlockReference
  2
_DotSmall
 10
1876.299592620715
 20
1267.47154384069
 30
0.0
 41
35.0
 42
35.0
 43
35.0
 50
270.0
  0
DIMENSION
  5
2000
330
1F
100
AcDbEntity
  8
寸法
100
AcDbDimension
  2
*D53
 10
1704.264009183182
 20
1256.47154384069
 30
0.0
 11
1680.638753719176
 21
1349.24204733513
 31
0.0
 70
   160
  1
181%%C
 71
     5
 42
181.0
  3
ISO-25
100
AcDbAlignedDimension
 13
1811.967133772457
 23
1437.47154384069
 33
0.0
 14
1811.967133772457
 24
1256.47154384069
 34
0.0
 50
90.0
100
AcDbRotatedDimension
  0
LEADER
  5
2001
330
1F
100
AcDbEntity
  8
寸法
100
AcDbLeader
  3
ISO-25
 40
25.0
 41
62.5
 76
     2
 10
1753.056001250943
 20
1465.954377283149
 30
0.0
 10
1799.635025127201
 20
1498.409272942415
 30
0.0
213
0.0
223
-12.5
233
0.0
1001
ACAD
1000
DSTYLE
1002
{
1070
   147
1040
6.25
1070
    77
1070
     0
1070
    41
1040
25.0
1070
   342
1005
DA
1002
}
  0
TEXT
  5
2002
330
1F
100
AcDbEntity
  8
寸法
100
AcDbText
 10
1810.112621215334
 20
1497.362339288981
 30
0.0
 40
25.0
  1
30R
 11
1810.112621215334
 21
1494.029005955648
 31
0.0
100
AcDbText
 73
     1
  0
LEADER
  5
2003
330
1F
100
AcDbEntity
  8
実形
100
AcDbLeader
  3
ISO-25
 76
     2
 10
1577.863259020469
 20
1062.78916348213
 30
0.0
 10
1612.477546392809
 20
1025.067182294056
 30
0.0
1001
ACAD
1000
DSTYLE
1002
{
1070
   147
1040
6.25
1070
    77
1070
     0
1070
    41
1040
20.0
1070
   342
1005
DA
1002
}
  0
LEADER
  5
2004
330
1F
100
AcDbEntity
  8
実形
100
AcDbLeader
  3
ISO-25
 76
     2
 10
1568.973842081982
 20
1055.292008364425
 30
0.0
 10
1518.571408281234
 20
1091.254096827554
 30
0.0
1001
ACAD
1000
DSTYLE
1002
{
1070
   147
1040
6.25
1070
    77
1070
     0
1070
    41
1040
20.0
1070
   342
1005
DA
1002
}
  0
LEADER
  5
2005
330
1F
100
AcDbEntity
  8
実形
100
AcDbLeader
  3
ISO-25
 76
     2
 10
1742.835517917224
 20
1080.242410096731
 30
0.0
 10
1705.180747406712
 20
1116.481762785689
 30
0.0
1001
ACAD
1000
DSTYLE
1002
{
1070
   147
1040
6.25
1070
    77
1070
     0
1070
    41
1040
20.0
1070
   342
1005
DA
1002
}
  0
TEXT
  5
2006
330
1F
100
AcDbEntity
  8
寸法
100
AcDbText
 10
1633.181963299221
 20
1114.53185795913
 30
0.0
 40
25.0
  1
30R
 11
1633.181963299221
 21
1111.198524625797
 31
0.0
100
AcDbText
 73
     1
  0
TEXT
  5
2007
330
1F
100
AcDbEntity
  8
寸法
100
AcDbText
 10
1469.141137376702
 20
1084.72114839178
 30
0.0
 40
25.0
  1
3R
 11
1469.141137376702
 21
1081.387815058446
 31
0.0
100
AcDbText
 73
     1
  0
TEXT
  5
2008
330
1F
100
AcDbEntity
  8
寸法
100
AcDbText
 10
1632.446182858171
 20
1003.579620069669
 30
0.0
 40
25.0
  1
5R
 11
1632.446182858171
 21
1000.246286736335
 31
0.0
100
AcDbText
 73
     1
  0
LINE
  5
200C
330
1F
100
AcDbEntity
  8
実形
100
AcDbLine
 10
1674.727747949327
 20
1548.57154384069
 30
0.0
 11
1662.727747949327
 21
1548.57154384069
 31
0.0
  0
LINE
  5
200D
330
1F
100
AcDbEntity
  8
実形
100
AcDbLine
 10
1676.727747949327
 20
1547.12154384069
 30
0.0
 11
1656.727747949326
 21
1547.12154384069
 31
0.0
  0
LINE
  5
200F
330
1F
100
AcDbEntity
  8
実形
100
AcDbLine
 10
1569.727747949326
 20
1571.97154384069
 30
0.0
 11
1567.527747949326
 21
1571.97154384069
 31
0.0
  0
ARC
  5
2010
330
1F
100
AcDbEntity
  8
実形
100
AcDbCircle
 10
1569.727747949326
 20
1568.97154384069
 30
0.0
 40
3.0
100
AcDbArc
 50
0.0
 51
90.0
  0
LINE
  5
2011
330
1F
100
AcDbEntity
  8
実形
100
AcDbLine
 10
1575.727747949327
 20
1561.971543840689
 30
0.0
 11
1650.727747949327
 21
1561.971543840689
 31
0.0
  0
ARC
  5
2012
330
1F
100
AcDbEntity
  8
実形
100
AcDbCircle
 10
1656.727747949326
 20
1558.271543840689
 30
0.0
 40
3.0
100
AcDbArc
 50
180.0
 51
240.0000000000027
  0
ARC
  5
2013
330
1F
100
AcDbEntity
  8
実形
100
AcDbCircle
 10
1653.727747949327
 20
1553.075391417983
 30
0.0
 40
3.0
100
AcDbArc
 50
0.0
 51
60.00000000000272
  0
LINE
  5
2014
330
1F
100
AcDbEntity
  8
実形
100
AcDbLine
 10
1653.727747949327
 20
1558.97154384069
 30
0.0
 11
1653.727747949327
 21
1557.467696263396
 31
0.0
  0
LINE
  5
2015
330
1F
100
AcDbEntity
  8
実形
100
AcDbLine
 10
1656.727747949326
 20
1553.075391417983
 30
0.0
 11
1656.727747949326
 21
1510.867696263398
 31
0.0
  0
LINE
  5
2016
330
1F
100
AcDbEntity
  8
実形
100
AcDbLine
 10
1676.727747949327
 20
1547.12154384069
 30
0.0
 11
1676.727747949327
 21
1531.97154384069
 31
0.0
  0
LINE
  5
2017
330
1F
100
AcDbEntity
  8
実形
100
AcDbLine
 10
1661.727747949327
 20
1547.12154384069
 30
0.0
 11
1661.727747949327
 21
1531.97154384069
 31
0.0
  0
LINE
  5
2018
330
1F
100
AcDbEntity
  8
実形
100
AcDbLine
 10
1644.227747949327
 20
1501.97154384069
 30
0.0
 11
1567.527747949326
 21
1501.971543840689
 31
0.0
  0
ARC
  5
2019
330
1F
100
AcDbEntity
  8
実形
100
AcDbCircle
 10
1650.727747949327
 20
1558.971543840689
 30
0.0
 40
3.0
100
AcDbArc
 50
0.0
 51
90.0
  0
LINE
  5
201D
330
1F
100
AcDbEntity
  8
実形
100
AcDbLine
 10
1572.727747949327
 20
1568.97154384069
 30
0.0
 11
1572.727747949327
 21
1564.971543840689
 31
0.0
  0
ARC
  5
201E
330
1F
100
AcDbEntity
  8
実形
100
AcDbCircle
 10
1575.727747949327
 20
1564.971543840689
 30
0.0
 40
3.0
100
AcDbArc
 50
180.0
 51
270.0
  0
LINE
  5
2021
330
1F
100
AcDbEntity
  8
実形
100
AcDbLine
 10
1575.727747949327
 20
1501.97154384069
 30
0.0
 11
1650.727747949327
 21
1501.97154384069
 31
0.0
  0
LINE
  5
2022
330
1F
100
AcDbEntity
  8
実形
100
AcDbLine
 10
1656.727747949326
 20
1510.867696263397
 30
0.0
 11
1656.727747949326
 21
1553.075391417983
 31
0.0
  0
LINE
  5
2023
330
1F
100
AcDbEntity
  8
実形
100
AcDbLine
 10
1653.727747949327
 20
1504.97154384069
 30
0.0
 11
1653.727747949327
 21
1505.67154384069
 31
0.0
  0
DIMENSION
  5
2024
330
1F
100
AcDbEntity
  8
実形
100
AcDbDimension
  2
*D56
 10
1724.514087548278
 20
1515.37154384069
 30
0.0
 11
1753.162521239351
 21
1531.97154384069
 31
0.0
 70
   160
  1
33
 71
     5
 42
33.19999999999982
  3
ISO-25
100
AcDbAlignedDimension
 13
1676.727747949327
 23
1548.57154384069
 33
0.0
 14
1676.727747949327
 24
1515.37154384069
 34
0.0
 50
90.0
100
AcDbRotatedDimension
1001
ACAD
1000
DSTYLE
1002
{
1070
    76
1070
     1
1070
    75
1070
     1
1070
   279
1070
     2
1070
   341
1005
18A8
1002
}
  0
LINE
  5
2025
330
1F
100
AcDbEntity
  8
実形
100
AcDbLine
 10
1724.514087548278
 20
1515.37154384069
 30
0.0
 11
1695.567019409823
 21
1515.37154384069
 31
0.0
  0
LINE
  5
2026
330
1F
100
AcDbEntity
  8
実形
100
AcDbLine
 10
1724.514087548278
 20
1546.38404384069
 30
0.0
 11
1724.514087548278
 21
1548.57154384069
 31
0.0
  0
LINE
  5
2027
330
1F
100
AcDbEntity
  8
実形
100
AcDbLine
 10
1724.514087548278
 20
1548.57154384069
 30
0.0
 11
1695.7398859433
 21
1548.57154384069
 31
0.0
  0
ARC
  5
2029
330
1F
100
AcDbEntity
  8
実形
100
AcDbCircle
 10
1656.727747949327
 20
1505.671543840691
 30
0.0
 40
3.0
100
AcDbArc
 50
119.9999999999973
 51
180.0
  0
ARC
  5
202A
330
1F
100
AcDbEntity
  8
実形
100
AcDbCircle
 10
1653.727747949327
 20
1510.867696263398
 30
0.0
 40
3.0
100
AcDbArc
 50
299.9999999999973
 51
0.0
  0
ARC
  5
202B
330
1F
100
AcDbEntity
  8
実形
100
AcDbCircle
 10
1650.727747949327
 20
1504.97154384069
 30
0.0
 40
3.0
100
AcDbArc
 50
270.0
 51
0.0
  0
LINE
  5
202C
330
1F
100
AcDbEntity
  8
実形
100
AcDbLine
 10
1656.727747949326
 20
1553.075391417983
 30
0.0
 11
1656.727747949327
 21
1510.867696263398
 31
0.0
  0
LINE
  5
202D
330
1F
100
AcDbEntity
  8
実形
100
AcDbLine
 10
1675.727747949327
 20
1547.12154384069
 30
0.0
 11
1674.727747949327
 21
1548.57154384069
 31
0.0
  0
LINE
  5
202E
330
1F
100
AcDbEntity
  8
実形
100
AcDbLine
 10
1662.727747949327
 20
1548.57154384069
 30
0.0
 11
1661.727747949327
 21
1547.12154384069
 31
0.0
  0
LINE
  5
202F
330
1F
100
AcDbEntity
  8
実形
100
AcDbLine
 10
1674.727747949327
 20
1515.37154384069
 30
0.0
 11
1662.727747949327
 21
1515.37154384069
 31
0.0
  0
LINE
  5
2030
330
1F
100
AcDbEntity
  8
実形
100
AcDbLine
 10
1676.727747949327
 20
1516.82154384069
 30
0.0
 11
1656.727747949326
 21
1516.82154384069
 31
0.0
  0
LINE
  5
2031
330
1F
100
AcDbEntity
  8
実形
100
AcDbLine
 10
1676.727747949327
 20
1516.82154384069
 30
0.0
 11
1676.727747949327
 21
1531.97154384069
 31
0.0
  0
LINE
  5
2032
330
1F
100
AcDbEntity
  8
実形
100
AcDbLine
 10
1661.727747949327
 20
1516.82154384069
 30
0.0
 11
1661.727747949327
 21
1531.97154384069
 31
0.0
  0
LINE
  5
2033
330
1F
100
AcDbEntity
  8
実形
100
AcDbLine
 10
1675.727747949327
 20
1516.82154384069
 30
0.0
 11
1674.727747949327
 21
1515.37154384069
 31
0.0
  0
LINE
  5
2034
330
1F
100
AcDbEntity
  8
実形
100
AcDbLine
 10
1662.727747949327
 20
1515.37154384069
 30
0.0
 11
1661.727747949327
 21
1516.82154384069
 31
0.0
  0
LINE
  5
2035
330
1F
100
AcDbEntity
  8
実形
100
AcDbLine
 10
1746.212943664651
 20
1462.47154384069
 30
0.0
 11
1704.042098620016
 21
1462.47154384069
 31
0.0
  0
LINE
  5
2036
330
1F
100
AcDbEntity
  8
実形
100
AcDbLine
 10
1704.264009183182
 20
1437.47154384069
 30
0.0
 11
1704.264009183182
 21
1462.419587233664
 31
0.0
  0
HATCH
  5
2037
330
1F
100
AcDbEntity
  8
実形
100
AcDbHatch
 10
0.0
 20
0.0
 30
0.0
210
0.0
220
0.0
230
1.0
  2
SOLID
 70
     1
 71
     0
 91
        1
 92
        7
 72
     1
 73
     1
 93
        2
 10
1707.833693284921
 20
1462.709180681158
 42
1.0
 10
1700.84743451183
 20
1462.709180681158
 42
1.0
 97
        0
 75
     0
 76
     1
 47
0.3373960739521582
 98
        1
 10
1704.560460109505
 20
1460.903031307744
  0
TEXT
  5
2038
330
1F
100
AcDbEntity
  8
寸法
100
AcDbText
 10
1696.11783746865
 20
1432.095332502483
 30
0.0
 40
20.0
  1
25
 50
90.0
 11
1698.784504135317
 21
1432.095332502483
 31
0.0
100
AcDbText
 73
     1
  0
LINE
  5
2039
330
1F
100
AcDbEntity
  8
実形
100
AcDbLine
 10
1746.212943664651
 20
1231.47154384069
 30
0.0
 11
1704.042098620016
 21
1231.47154384069
 31
0.0
  0
LINE
  5
203A
330
1F
100
AcDbEntity
  8
実形
100
AcDbLine
 10
1704.264009183182
 20
1256.47154384069
 30
0.0
 11
1704.264009183182
 21
1231.523500447716
 31
0.0
  0
HATCH
  5
203B
330
1F
100
AcDbEntity
  8
実形
100
AcDbHatch
 10
0.0
 20
0.0
 30
0.0
210
0.0
220
0.0
230
1.0
  2
SOLID
 70
     1
 71
     0
 91
        1
 92
        7
 72
     1
 73
     1
 93
        2
 10
1707.833693284921
 20
1231.233907000222
 42
-1.0
 10
1700.84743451183
 20
1231.233907000222
 42
-1.0
 97
        0
 75
     0
 76
     1
 47
0.3373960739521582
 98
        1
 10
1704.560460109505
 20
1233.040056373637
  0
TEXT
  5
203C
330
1F
100
AcDbEntity
  8
寸法
100
AcDbText
 10
1696.11783746865
 20
1226.095332502483
 30
0.0
 40
20.0
  1
25
 50
90.0
 11
1698.784504135317
 21
1226.095332502483
 31
0.0
100
AcDbText
 73
     1
  0
LINE
  5
2045
330
1F
100
AcDbEntity
  8
実形
100
AcDbLine
 10
1764.727747949327
 20
1437.47154384069
 30
0.0
 11
1764.727747949327
 21
1256.471543840675
 31
0.0
  0
LINE
  5
2046
330
1F
100
AcDbEntity
  8
実形
100
AcDbLine
 10
1757.727747949327
 20
1437.47154384069
 30
0.0
 11
1764.727747949327
 21
1437.47154384069
 31
0.0
  0
LINE
  5
2047
330
1F
100
AcDbEntity
  8
実形
100
AcDbLine
 10
1757.727747949326
 20
1256.471543840673
 30
0.0
 11
1764.727747949327
 21
1256.471543840675
 31
0.0
  0
ARC
  5
2108
330
1F
100
AcDbEntity
  8
実形
100
AcDbCircle
 10
444.2684511875167
 20
751.3558673239042
 30
0.0
 40
5.0
100
AcDbArc
 50
90.0
 51
180.0
  0
ARC
  5
2109
330
1F
100
AcDbEntity
  8
実形
100
AcDbCircle
 10
1302.268451187517
 20
751.3558673239041
 30
0.0
 40
5.0
100
AcDbArc
 50
0.0
 51
90.0
  0
LINE
  5
210A
330
1F
100
AcDbEntity
  8
実形
100
AcDbLine
 10
1554.527747949326
 20
1605.97154384069
 30
0.0
 11
1567.527747949326
 21
1605.97154384069
 31
0.0
  0
LINE
  5
210B
330
1F
100
AcDbEntity
  8
実形
100
AcDbLine
 10
1554.527747949327
 20
1017.97154384069
 30
0.0
 11
1567.527747949327
 21
1017.97154384069
 31
0.0
  0
LINE
  5
210C
330
1F
100
AcDbEntity
  8
実形
100
AcDbLine
 10
1549.527747949326
 20
1600.97154384069
 30
0.0
 11
1549.527747949327
 21
1022.97154384069
 31
0.0
  0
LINE
  5
210D
330
1F
100
AcDbEntity
  8
実形
100
AcDbLine
 10
1567.527747949326
 20
1605.97154384069
 30
0.0
 11
1567.527747949327
 21
1017.97154384069
 31
0.0
  0
LEADER
  5
214C
330
1F
100
AcDbEntity
  8
実形
100
AcDbLeader
  3
ISO-25
 40
25.0
 41
16.66666666666666
 76
     2
 10
1541.113225646625
 20
1034.425136968943
 30
0.0
 10
1481.636524464195
 20
994.7894771700944
 30
0.0
213
0.0
223
12.5
233
0.0
1001
ACAD
1000
DSTYLE
1002
{
1070
   147
1040
6.25
1070
    77
1070
     0
1070
    41
1040
20.0
1070
   342
1005
DA
1002
}
  0
TEXT
  5
214D
330
1F
100
AcDbEntity
  8
実形
100
AcDbText
 10
1450.246047361696
 20
962.1015092458742
 30
0.0
 40
25.0
  1
5R
 72
     2
 11
1491.912714028362
 21
987.1015092458742
 31
0.0
100
AcDbText
 73
     3
  0
DIMENSION
  5
214E
330
1F
100
AcDbEntity
  8
実形
100
AcDbDimension
  2
*D64
 10
1764.727747949328
 20
937.5533148900222
 30
0.0
 11
1816.129791484945
 21
948.4902093674728
 31
0.0
 70
   160
 71
     5
 42
7.000000000000682
  3
ISO-25
100
AcDbAlignedDimension
 13
1757.727747949327
 23
1054.060169477733
 33
0.0
 14
1764.727747949328
 24
1054.060169477733
 34
0.0
100
AcDbRotatedDimension
1001
ACAD
1000
DSTYLE
1002
{
1070
   279
1070
     2
1070
   289
1070
     2
1002
}
  0
DIMENSION
  5
214F
330
1F
100
AcDbEntity
  8
実形
100
AcDbDimension
  2
*D65
 10
1757.727747949327
 20
894.3864695107631
 30
0.0
 11
1662.627747949327
 21
913.1364695107631
 31
0.0
 70
    32
 71
     5
 42
190.2
  3
ISO-25
100
AcDbAlignedDimension
 13
1567.527747949327
 23
1054.060169477733
 33
0.0
 14
1757.727747949327
 24
1054.060169477733
 34
0.0
100
AcDbRotatedDimension
1001
ACAD
1000
DSTYLE
1002
{
1070
   279
1070
     2
1070
   289
1070
     2
1002
}
  0
DIMENSION
  5
2150
330
1F
100
AcDbEntity
  8
実形
100
AcDbDimension
  2
*D66
 10
1757.727747949327
 20
894.3864695107631
 30
0.0
 11
1514.038707659492
 21
913.1364695107631
 31
0.0
 70
   160
  1
18
 71
     5
 42
208.2
  3
ISO-25
100
AcDbAlignedDimension
 13
1549.527747949327
 23
1054.060169477733
 33
0.0
 14
1757.727747949327
 24
1054.060169477733
 34
0.0
100
AcDbRotatedDimension
1001
ACAD
1000
DSTYLE
1002
{
1070
   279
1070
     2
1070
   289
1070
     2
1002
}
  0
DIMENSION
  5
2151
330
1F
100
AcDbEntity
  8
実形
100
AcDbDimension
  2
*D67
 10
1757.727747949327
 20
846.3682841952277
 30
0.0
 11
1653.627747949327
 21
865.1182841952277
 31
0.0
 70
    32
 71
     5
 42
208.2
  3
ISO-25
100
AcDbAlignedDimension
 13
1549.527747949327
 23
989.0601694777332
 33
0.0
 14
1757.727747949327
 24
989.060169477733
 34
0.0
100
AcDbRotatedDimension
1001
ACAD
1000
DSTYLE
1002
{
1070
   279
1070
     2
1070
   289
1070
     2
1002
}
  0
DIMENSION
  5
21CD
330
1F
100
AcDbEntity
  8
実形
100
AcDbDimension
  2
*D70
 10
1663.727747949327
 20
1647.880690845475
 30
0.0
 11
1606.627747949326
 21
1666.630690845474
 31
0.0
 70
    32
 71
     5
 42
114.2000000000007
  3
ISO-25
100
AcDbAlignedDimension
 13
1549.527747949326
 23
1548.57154384069
 33
0.0
 14
1663.727747949327
 24
1548.57154384069
 34
0.0
100
AcDbRotatedDimension
1001
ACAD
1000
DSTYLE
1002
{
1070
   341
1005
18A8
1002
}
  0
DIMENSION
  5
21CE
330
1F
100
AcDbEntity
  8
実形
100
AcDbDimension
  2
*D71
 10
1683.727747949327
 20
1647.880690845475
 30
0.0
 11
1710.68679025414
 21
1651.542400373514
 31
0.0
 70
   160
 71
     5
 42
20.0
  3
ISO-25
100
AcDbAlignedDimension
 13
1663.727747949327
 23
1548.57154384069
 33
0.0
 14
1683.727747949327
 24
1548.57154384069
 34
0.0
100
AcDbRotatedDimension
1001
ACAD
1000
DSTYLE
1002
{
1070
   279
1070
     2
1070
   341
1005
18A8
1002
}
  0
LEADER
  5
21CF
330
1F
100
AcDbEntity
  8
実形
100
AcDbLeader
  3
ISO-25
 40
25.0
 41
16.66666666666666
 76
     2
 10
1543.131109883257
 20
1610.232811075197
 30
0.0
 10
1496.626442005976
 20
1652.587200896781
 30
0.0
213
0.0
223
12.5
233
0.0
1001
ACAD
1000
DSTYLE
1002
{
1070
   147
1040
6.25
1070
    77
1070
     0
1070
    41
1040
20.0
1070
   342
1005
DA
1002
}
  0
TEXT
  5
21D0
330
1F
100
AcDbEntity
  8
実形
100
AcDbText
 10
1470.205439394044
 20
1660.119147088834
 30
0.0
 40
25.0
  1
5R
 72
     2
 11
1511.872106060711
 21
1685.119147088834
 31
0.0
100
AcDbText
 73
     3
  0
ARC
  5
21FB
330
1F
100
AcDbEntity
  8
実形
100
AcDbCircle
 10
1554.527747949326
 20
1600.97154384069
 30
0.0
 40
5.0
100
AcDbArc
 50
90.0
 51
180.0
  0
ARC
  5
21FC
330
1F
100
AcDbEntity
  8
実形
100
AcDbCircle
 10
1554.527747949327
 20
1022.97154384069
 30
0.0
 40
5.0
100
AcDbArc
 50
180.0
 51
270.0
  0
LINE
  5
23C7
330
1F
100
AcDbEntity
  8
実形
100
AcDbLine
 10
2543.233877365066
 20
684.0947101512854
 30
0.0
 11
2153.233877365066
 21
684.0947101512854
 31
0.0
  0
LINE
  5
23C8
330
1F
100
AcDbEntity
  8
実形
100
AcDbLine
 10
2356.033877365065
 20
585.2947101512854
 30
0.0
 11
2075.233877365066
 21
585.2947101512854
 31
0.0
  0
ARC
  5
23C9
330
1F
100
AcDbEntity
  8
実形
100
AcDbCircle
 10
2153.233877365066
 20
606.0947101512854
 30
0.0
 40
78.0
100
AcDbArc
 50
90.0
 51
180.0
  0
ARC
  5
23CA
330
1F
100
AcDbEntity
  8
実形
100
AcDbCircle
 10
2543.233877365066
 20
606.0947101512854
 30
0.0
 40
78.0
100
AcDbArc
 50
0.0
 51
90.0
  0
LINE
  5
23CB
330
1F
100
AcDbEntity
  8
実形
100
AcDbLine
 10
2621.233877365066
 20
543.6947101512854
 30
0.0
 11
2356.033877365065
 21
543.6947101512854
 31
0.0
  0
LINE
  5
23CC
330
1F
100
AcDbEntity
  8
実形
100
AcDbLine
 10
2278.033877365066
 20
543.6947101512854
 30
0.0
 11
2153.233877365066
 21
543.6947101512854
 31
0.0
  0
LINE
  5
23CD
330
1F
100
AcDbEntity
  8
実形
100
AcDbLine
 10
2324.833877365066
 20
543.6947101512854
 30
0.0
 11
2106.433877365066
 21
543.6947101512854
 31
0.0
  0
LINE
  5
23CE
330
1F
100
AcDbEntity
  8
実形
100
AcDbLine
 10
2621.233877365066
 20
403.2947101512855
 30
0.0
 11
2386.105494977745
 21
403.2947101512855
 31
0.0
  0
LINE
  5
23CF
330
1F
100
AcDbEntity
  8
実形
100
AcDbLine
 10
2278.033877365066
 20
403.2947101512855
 30
0.0
 11
2153.233877365066
 21
403.2947101512855
 31
0.0
  0
LINE
  5
23D0
330
1F
100
AcDbEntity
  8
実形
100
AcDbLine
 10
2075.233877365066
 20
606.0947101512854
 30
0.0
 11
2075.233877365066
 21
585.2947101512854
 31
0.0
  0
LINE
  5
23D1
330
1F
100
AcDbEntity
  8
実形
100
AcDbLine
 10
2090.833877365066
 20
559.2947101512845
 30
0.0
 11
2324.833877365066
 21
559.2947101512845
 31
0.0
  0
LINE
  5
23D2
330
1F
100
AcDbEntity
  8
実形
100
AcDbLine
 10
2356.033877365065
 20
585.2947101512854
 30
0.0
 11
2356.033877365065
 21
543.6947101512854
 31
0.0
  0
LINE
  5
23D3
330
1F
100
AcDbEntity
  8
実形
100
AcDbLine
 10
2278.033877365066
 20
543.6947101512854
 30
0.0
 11
2153.233877365066
 21
543.6947101512854
 31
0.0
  0
LINE
  5
23D4
330
1F
100
AcDbEntity
  8
実形
100
AcDbLine
 10
2621.233877365066
 20
606.0947101512854
 30
0.0
 11
2621.233877365066
 21
403.2947101512855
 31
0.0
  0
LINE
  5
23D5
330
1F
100
AcDbEntity
  8
実形
100
AcDbLine
 10
2153.233877365066
 20
543.6947101512854
 30
0.0
 11
2153.233877365066
 21
403.2947101512863
 31
0.0
  0
LINE
  5
23D6
330
1F
100
AcDbEntity
  8
実形
100
AcDbLine
 10
2090.833877365066
 20
559.2947101512845
 30
0.0
 11
2090.833877365066
 21
356.5086976533553
 31
0.0
  0
LINE
  5
23D7
330
1F
100
AcDbEntity
  8
実形
100
AcDbLine
 10
2106.433877365066
 20
543.6947101512854
 30
0.0
 11
2106.433877365066
 21
356.5086976533554
 31
0.0
  0
ARC
  5
23D8
330
1F
100
AcDbEntity
  8
実形
100
AcDbCircle
 10
2317.033877365066
 20
543.6947101512854
 30
0.0
 40
39.0
100
AcDbArc
 50
180.0
 51
0.0
  0
TEXT
  5
23D9
330
1F
100
AcDbEntity
  8
実形
100
AcDbText
 10
1844.08269694555
 20
410.9876312842443
 30
0.0
 40
35.0
  1
シンク厚　
 11
1844.08269694555
 21
406.3209646175776
 31
0.0
100
AcDbText
 73
     1
  0
DIMENSION
  5
23DA
330
1F
100
AcDbEntity
  8
実形
100
AcDbDimension
  2
*D92
 10
2075.233877365067
 20
467.1003685502147
 30
0.0
 11
2054.88545157578
 21
491.5915116428197
 31
0.0
 70
   160
  1
1
 71
     5
 42
15.59999999999991
  3
ISO-25
100
AcDbAlignedDimension
 13
2090.833877365067
 23
559.2947101512846
 33
0.0
 14
2075.233877365067
 24
533.5029867284119
 34
0.0
 50
180.0
100
AcDbRotatedDimension
1001
ACAD
1000
DSTYLE
1002
{
1070
   282
1070
     1
1070
   281
1070
     1
1070
    41
1040
5.0
1070
    42
1040
6.0
1070
   140
1040
25.0
1070
   147
1040
1.199999999999999
1070
   279
1070
     2
1070
   289
1070
     2
1070
   371
1070
    13
1070
   372
1070
    13
1002
}
  0
TEXT
  5
23DB
330
1F
100
AcDbEntity
  8
実形
  6
HIDDEN2
100
AcDbText
 10
2095.797198899368
 20
462.9308652071995
 30
0.0
 40
10.14
  1
● 
 71
     2
100
AcDbText
  0
TEXT
  5
23DC
330
1F
100
AcDbEntity
  8
実形
  6
HIDDEN2
100
AcDbText
 10
2079.566838424828
 20
462.4970760796131
 30
0.0
 40
10.14
  1
● 
 71
     2
100
AcDbText
  0
LINE
  5
23DD
330
1F
100
AcDbEntity
  8
実形
100
AcDbLine
 10
2091.245173341136
 20
467.4229398449074
 30
0.0
 11
2075.560266305432
 21
467.4229398449074
 31
0.0
  0
LINE
  5
23DE
330
1F
100
AcDbEntity
  8
実形
100
AcDbLine
 10
2386.105494977745
 20
403.2947101512855
 30
0.0
 11
2356.033877365065
 21
403.2947101512855
 31
0.0
  0
ARC
  5
23DF
330
1F
100
AcDbEntity
  8
実形
100
AcDbCircle
 10
2317.033877365066
 20
403.2947101512855
 30
0.0
 40
39.0
100
AcDbArc
 50
0.0
 51
180.0
  0
LINE
  5
23E0
330
1F
100
AcDbEntity
  8
実形
100
AcDbLine
 10
2278.033877365066
 20
457.3521962228079
 30
0.0
 11
2278.033877365066
 21
439.4500692892673
 31
0.0
  0
LINE
  5
23E1
330
1F
100
AcDbEntity
  8
実形
100
AcDbLine
 10
2356.033877365065
 20
457.3521962228079
 30
0.0
 11
2356.033877365065
 21
439.4977027967055
 31
0.0
  0
TEXT
  5
23E2
330
1F
100
AcDbEntity
  8
実形
100
AcDbText
 10
1859.409434822997
 20
359.2737114633438
 30
0.0
 40
28.0
  1
0.8mm
 11
1859.409434822997
 21
355.5403781300104
 31
0.0
100
AcDbText
 73
     1
  0
TEXT
  5
23E3
330
1F
100
AcDbEntity
  8
実形
100
AcDbText
 10
1969.171950854548
 20
724.7069313792997
 30
0.0
 40
28.0
  1
5R
 11
1969.171950854548
 21
720.9735980459663
 31
0.0
100
AcDbText
 73
     1
  0
DIMENSION
  5
23E4
330
1F
100
AcDbEntity
  8
実形
100
AcDbDimension
  2
*D93
 10
2324.833877365066
 20
617.1548568615962
 30
0.0
 11
2207.833877365066
 21
635.9048568615962
 31
0.0
 70
    32
  1
15
 71
     5
 42
234.0
  3
ISO-25
100
AcDbAlignedDimension
 13
2090.833877365066
 23
526.9073852958004
 33
0.0
 14
2324.833877365066
 24
526.9073852958004
 34
0.0
100
AcDbRotatedDimension
1001
ACAD
1000
DSTYLE
1002
{
1070
   279
1070
     2
1070
   371
1070
    18
1070
   372
1070
    18
1002
}
  0
LEADER
  5
23E5
330
1F
100
AcDbEntity
  8
実形
100
AcDbLeader
  3
ISO-25
 76
     2
 10
2080.730586898456
 20
658.778126851076
 30
0.0
 10
2006.358162869183
 20
712.4806979619262
 30
0.0
1001
ACAD
1000
DSTYLE
1002
{
1070
   147
1040
6.25
1070
    77
1070
     0
1070
   279
1070
     2
1070
   371
1070
    18
1070
   372
1070
    18
1002
}
  0
LINE
  5
23E6
330
1F
100
AcDbEntity
  8
実形
100
AcDbLine
 10
2324.833877365066
 20
559.2947101512845
 30
0.0
 11
2324.833877365066
 21
543.6947101512854
 31
0.0
  0
DIMENSION
  5
23E7
330
1F
100
AcDbEntity
  8
実形
100
AcDbDimension
  2
*D94
 10
2228.767481940162
 20
543.6947101512855
 30
0.0
 11
2197.294896545438
 21
515.0052225685112
 31
0.0
 70
   160
  1
2.5
 71
     5
 42
38.99999999999995
  3
ISO-25
100
AcDbAlignedDimension
 13
2357.614562018891
 23
504.6947101512855
 33
0.0
 14
2281.267191428404
 24
543.6947101512855
 34
0.0
 50
90.0
100
AcDbRotatedDimension
1001
ACAD
1000
DSTYLE
1002
{
1070
   140
1040
23.0
1070
   279
1070
     2
1070
   371
1070
    18
1070
   372
1070
    18
1002
}
  0
DIMENSION
  5
23E8
330
1F
100
AcDbEntity
  8
実形
100
AcDbDimension
  2
*D95
 10
2356.033877365066
 20
452.0882219802177
 30
0.0
 11
2317.033877365066
 21
470.8382219802177
 31
0.0
 70
    32
  1
5
 71
     5
 42
78.0
  3
ISO-25
100
AcDbAlignedDimension
 13
2278.033877365066
 23
513.0145559292668
 33
0.0
 14
2356.033877365066
 24
513.0145559292668
 34
0.0
100
AcDbRotatedDimension
1001
ACAD
1000
DSTYLE
1002
{
1070
   279
1070
     2
1070
   371
1070
    18
1070
   372
1070
    18
1002
}
  0
LINE
  5
23E9
330
1F
100
AcDbEntity
  8
実形
100
AcDbLine
 10
2278.033877365066
 20
452.0882219802177
 30
0.0
 11
2278.033877365066
 21
494.7079487038194
 31
0.0
  0
LINE
  5
23EA
330
1F
100
AcDbEntity
  8
実形
100
AcDbLine
 10
2356.033877365065
 20
452.0882219802177
 30
0.0
 11
2356.033877365065
 21
493.5103420910408
 31
0.0
  0
DIMENSION
  5
23EB
330
1F
100
AcDbEntity
  8
実形
100
AcDbDimension
  2
*D96
 10
2230.705930897853
 20
403.2947101512855
 30
0.0
 11
2198.086469593912
 21
431.6583152348946
 31
0.0
 70
   160
  1
2.5
 71
     5
 42
38.99999999999995
  3
ISO-25
100
AcDbAlignedDimension
 13
2331.326187506493
 23
442.2947101512853
 33
0.0
 14
2343.612691407768
 24
403.2947101512855
 34
0.0
 50
90.0
100
AcDbRotatedDimension
1001
ACAD
1000
DSTYLE
1002
{
1070
   140
1040
23.0
1070
   279
1070
     2
1070
   371
1070
    18
1070
   372
1070
    18
1002
}
  0
DIMENSION
  5
23EC
330
1F
100
AcDbEntity
  8
実形
100
AcDbDimension
  2
*D97
 10
2356.033877365066
 20
733.9587029177619
 30
0.0
 11
2215.633877365066
 21
752.7087029177619
 31
0.0
 70
    32
  1
18
 71
     5
 42
280.7999999999997
  3
ISO-25
100
AcDbAlignedDimension
 13
2075.233877365066
 23
631.1956311673393
 33
0.0
 14
2356.033877365066
 24
631.1956311673393
 34
0.0
100
AcDbRotatedDimension
1001
ACAD
1000
DSTYLE
1002
{
1070
   279
1070
     2
1070
   371
1070
    18
1070
   372
1070
    18
1002
}
  0
DIMENSION
  5
23ED
330
1F
100
AcDbEntity
  8
実形
100
AcDbDimension
  2
*D98
 10
2621.233877365066
 20
733.9587029177619
 30
0.0
 11
2488.633877365066
 21
752.7087029177619
 31
0.0
 70
    32
  1
17
 71
     5
 42
265.1999999999998
  3
ISO-25
100
AcDbAlignedDimension
 13
2356.033877365066
 23
631.1956311673382
 33
0.0
 14
2621.233877365066
 24
631.1956311673382
 34
0.0
100
AcDbRotatedDimension
1001
ACAD
1000
DSTYLE
1002
{
1070
   279
1070
     2
1070
   371
1070
    18
1070
   372
1070
    18
1002
}
  0
DIMENSION
  5
23EE
330
1F
100
AcDbEntity
  8
実形
100
AcDbDimension
  2
*D99
 10
2621.233877365066
 20
777.4666415156134
 30
0.0
 11
2348.233877365066
 21
796.2166415156134
 31
0.0
 70
    32
  1
35
 71
     5
 42
545.9999999999995
  3
ISO-25
100
AcDbAlignedDimension
 13
2075.233877365066
 23
631.1956311673382
 33
0.0
 14
2621.233877365066
 24
631.1956311673382
 34
0.0
100
AcDbRotatedDimension
1001
ACAD
1000
DSTYLE
1002
{
1070
   279
1070
     2
1070
   371
1070
    18
1070
   372
1070
    18
1002
}
  0
TEXT
  5
23EF
330
1F
100
AcDbEntity
  8
実形
100
AcDbText
 10
2661.234589240095
 20
713.6502811430476
 30
0.0
 40
28.0
  1
5R
 11
2661.234589240095
 21
709.9169478097143
 31
0.0
100
AcDbText
 73
     1
  0
DIMENSION
  5
23F0
330
1F
100
AcDbEntity
  8
実形
100
AcDbDimension
  2
*D100
 10
2153.233877365066
 20
297.5085770831867
 30
0.0
 11
2053.203290699754
 21
332.9138518235977
 31
0.0
 70
   160
  1
3.2
 71
     5
 42
46.80000000000018
  3
ISO-25
100
AcDbAlignedDimension
 13
2106.433877365066
 23
411.5474686202857
 33
0.0
 14
2153.233877365066
 24
411.5474686202857
 34
0.0
100
AcDbRotatedDimension
1001
ACAD
1000
DSTYLE
1002
{
1070
   140
1040
25.0
1070
   279
1070
     2
1070
   371
1070
    18
1070
   372
1070
    18
1002
}
  0
DIMENSION
  5
23F1
330
1F
100
AcDbEntity
  8
実形
100
AcDbDimension
  2
*D101
 10
2278.033877365066
 20
297.5085770831867
 30
0.0
 11
2215.633877365066
 21
316.2585770831867
 31
0.0
 70
    32
  1
8
 71
     5
 42
124.8000000000001
  3
ISO-25
100
AcDbAlignedDimension
 13
2153.233877365066
 23
411.5474686202857
 33
0.0
 14
2278.033877365066
 24
411.5474686202857
 34
0.0
100
AcDbRotatedDimension
1001
ACAD
1000
DSTYLE
1002
{
1070
   279
1070
     2
1070
   371
1070
    18
1070
   372
1070
    18
1002
}
  0
DIMENSION
  5
23F2
330
1F
100
AcDbEntity
  8
実形
100
AcDbDimension
  2
*D102
 10
2356.033877365066
 20
297.5085770831867
 30
0.0
 11
2317.033877365066
 21
316.2585770831867
 31
0.0
 70
    32
  1
5
 71
     5
 42
78.0
  3
ISO-25
100
AcDbAlignedDimension
 13
2278.033877365066
 23
411.5474686202857
 33
0.0
 14
2356.033877365066
 24
411.5474686202857
 34
0.0
100
AcDbRotatedDimension
1001
ACAD
1000
DSTYLE
1002
{
1070
   279
1070
     2
1070
   371
1070
    18
1070
   372
1070
    18
1002
}
  0
DIMENSION
  5
23F3
330
1F
100
AcDbEntity
  8
実形
100
AcDbDimension
  2
*D103
 10
2621.233877365066
 20
297.5085770831867
 30
0.0
 11
2488.633877365066
 21
316.2585770831867
 31
0.0
 70
    32
  1
17
 71
     5
 42
265.1999999999998
  3
ISO-25
100
AcDbAlignedDimension
 13
2356.033877365066
 23
411.5474686202857
 33
0.0
 14
2621.233877365066
 24
411.5474686202857
 34
0.0
100
AcDbRotatedDimension
1001
ACAD
1000
DSTYLE
1002
{
1070
   279
1070
     2
1070
   371
1070
    18
1070
   372
1070
    18
1002
}
  0
DIMENSION
  5
23F4
330
1F
100
AcDbEntity
  8
実形
100
AcDbDimension
  2
*D104
 10
2155.023276234156
 20
247.5388396829094
 30
0.0
 11
2116.023276234157
 21
266.2888396829094
 31
0.0
 70
    32
  1
5
 71
     5
 42
77.99999999999954
  3
ISO-25
100
AcDbAlignedDimension
 13
2077.023276234157
 23
362.8281686160613
 33
0.0
 14
2155.023276234156
 24
362.8281686160613
 34
0.0
100
AcDbRotatedDimension
1001
ACAD
1000
DSTYLE
1002
{
1070
   279
1070
     2
1070
   371
1070
    18
1070
   372
1070
    18
1002
}
  0
DIMENSION
  5
23F5
330
1F
100
AcDbEntity
  8
実形
100
AcDbDimension
  2
*D105
 10
2623.023276234156
 20
247.5388396829094
 30
0.0
 11
2389.023276234156
 21
266.2888396829094
 31
0.0
 70
    32
  1
30
 71
     5
 42
468.0
  3
ISO-25
100
AcDbAlignedDimension
 13
2155.023276234156
 23
362.8281686160613
 33
0.0
 14
2623.023276234156
 24
362.8281686160613
 34
0.0
100
AcDbRotatedDimension
1001
ACAD
1000
DSTYLE
1002
{
1070
   279
1070
     2
1070
   371
1070
    18
1070
   372
1070
    18
1002
}
  0
LINE
  5
23F6
330
1F
100
AcDbEntity
  8
実形
100
AcDbLine
 10
2089.14414202772
 20
414.8786635805636
 30
0.0
 11
2005.196656620899
 21
408.9889439325022
 31
0.0
  0
LINE
  5
23F7
330
1F
100
AcDbEntity
  8
実形
100
AcDbLine
 10
2088.820600113063
 20
414.7274049971472
 30
0.0
 11
2056.485883910302
 21
400.9756935648645
 31
0.0
  0
LINE
  5
23F8
330
1F
100
AcDbEntity
  8
実形
100
AcDbLine
 10
2088.472360117057
 20
415.6242072570588
 30
0.0
 11
2056.198770657017
 21
421.9662971197472
 31
0.0
  0
TEXT
  5
23F9
330
1F
100
AcDbEntity
  8
実形
370
    -2
100
AcDbText
 10
1943.905583280765
 20
836.850626796042
 30
0.0
 40
38.0
  1
A-A　断面詳細図
100
AcDbText
  0
TEXT
  5
23FA
330
1F
100
AcDbEntity
  8
実形
370
    -2
100
AcDbText
 10
2039.041635208127
 20
838.8009194430942
 30
0.0
 40
35.0
  1
´
100
AcDbText
  0
DIMENSION
  5
23FB
330
1F
100
AcDbEntity
  8
実形
100
AcDbDimension
  2
*D106
 10
1970.032114275532
 20
585.2947101512854
 30
0.0
 11
1951.282114275532
 21
634.6947101512859
 31
0.0
 70
    32
  1
6.5
 71
     5
 42
98.80000000000007
  3
ISO-25
100
AcDbAlignedDimension
 13
2097.328912889143
 23
684.0947101512855
 33
0.0
 14
2097.328912889143
 24
585.2947101512854
 34
0.0
 50
90.0
100
AcDbRotatedDimension
1001
ACAD
1000
DSTYLE
1002
{
1070
   279
1070
     2
1070
   371
1070
    18
1070
   372
1070
    18
1002
}
  0
DIMENSION
  5
23FC
330
1F
100
AcDbEntity
  8
実形
100
AcDbDimension
  2
*D107
 10
1916.035186721017
 20
559.2947101512846
 30
0.0
 11
1897.285186721017
 21
621.6947101512854
 31
0.0
 70
    32
  1
8.2
 71
     5
 42
124.8000000000008
  3
ISO-25
100
AcDbAlignedDimension
 13
2097.328912889143
 23
684.0947101512855
 33
0.0
 14
2097.328912889143
 24
559.2947101512846
 34
0.0
 50
90.0
100
AcDbRotatedDimension
1001
ACAD
1000
DSTYLE
1002
{
1070
   279
1070
     2
1070
   371
1070
    18
1070
   372
1070
    18
1002
}
  0
DIMENSION
  5
23FD
330
1F
100
AcDbEntity
  8
実形
100
AcDbDimension
  2
*D108
 10
1864.389549972262
 20
684.0947101512855
 30
0.0
 11
1845.639549972261
 21
613.8947101512858
 31
0.0
 70
    32
  1
9
 71
     5
 42
140.4000000000001
  3
ISO-25
100
AcDbAlignedDimension
 13
2097.328912889143
 23
543.6947101512854
 33
0.0
 14
2097.328912889143
 24
684.0947101512855
 34
0.0
 50
90.0
100
AcDbRotatedDimension
1001
ACAD
1000
DSTYLE
1002
{
1070
   279
1070
     2
1070
   371
1070
    18
1070
   372
1070
    18
1002
}
  0
LINE
  5
23FE
330
1F
100
AcDbEntity
  8
実形
100
AcDbLine
 10
1970.032114275532
 20
559.4808025581515
 30
0.0
 11
1970.032114275532
 21
543.6947101512854
 31
0.0
  0
TEXT
  5
23FF
330
1F
100
AcDbEntity
  8
実形
  6
HIDDEN2
100
AcDbText
 10
1974.759963930668
 20
554.1584046865482
 30
0.0
 40
10.14
  1
● 
 71
     2
100
AcDbText
  0
TEXT
  5
2400
330
1F
100
AcDbEntity
  8
実形
  6
HIDDEN2
100
AcDbText
 10
1974.759963930668
 20
539.0050600708654
 30
0.0
 40
10.14
  1
● 
 71
     2
100
AcDbText
  0
TEXT
  5
2401
330
1F
100
AcDbEntity
  8
実形
100
AcDbText
 10
1965.904597556985
 20
483.7785695213888
 30
0.0
 40
29.25
  1
0.8
 50
90.0
 11
1969.804597556985
 21
483.7785695213888
 31
0.0
100
AcDbText
 73
     1
  0
ARC
  5
2402
330
1F
100
AcDbEntity
  8
実形
100
AcDbCircle
 10
2095.749391898479
 20
294.0352561825519
 30
0.0
 40
37.21807911390647
100
AcDbArc
 50
10.88380498131659
 51
99.73672806232286
  0
ARC
  5
2403
330
1F
100
AcDbEntity
  8
実形
100
AcDbCircle
 10
2101.132326064329
 20
286.3222816243725
 30
0.0
 40
34.71092069179851
100
AcDbArc
 50
27.82370983300087
 51
64.29661093933541
  0
ARC
  5
2404
330
1F
100
AcDbEntity
  8
実形
100
AcDbCircle
 10
2095.736654257051
 20
304.1012932169378
 30
0.0
 40
36.96117099445193
100
AcDbArc
 50
355.5051092068189
 51
31.89192001425599
  0
DIMENSION
  5
2405
330
1F
100
AcDbEntity
  8
実形
100
AcDbDimension
  2
*D109
 10
2673.699912636183
 20
403.2947101512855
 30
0.0
 11
2654.949912636183
 21
473.4947101512859
 31
0.0
 70
    32
  1
9
 71
     5
 42
140.4
  3
ISO-25
100
AcDbAlignedDimension
 13
2582.25404811461
 23
543.6947101512855
 33
0.0
 14
2582.25404811461
 24
403.2947101512855
 34
0.0
 50
90.0
100
AcDbRotatedDimension
1001
ACAD
1000
DSTYLE
1002
{
1070
   279
1070
     2
1070
   371
1070
    18
1070
   372
1070
    18
1002
}
  0
DIMENSION
  5
2406
330
1F
100
AcDbEntity
  8
実形
100
AcDbDimension
  2
*D110
 10
2673.699912636183
 20
543.6947101512855
 30
0.0
 11
2654.949912636183
 21
613.8947101512859
 31
0.0
 70
    32
  1
9
 71
     5
 42
140.3999999999999
  3
ISO-25
100
AcDbAlignedDimension
 13
2582.25404811461
 23
684.0947101512855
 33
0.0
 14
2582.25404811461
 24
543.6947101512855
 34
0.0
 50
90.0
100
AcDbRotatedDimension
1001
ACAD
1000
DSTYLE
1002
{
1070
   279
1070
     2
1070
   371
1070
    18
1070
   372
1070
    18
1002
}
  0
DIMENSION
  5
2407
330
1F
100
AcDbEntity
  8
実形
100
AcDbDimension
  2
*D111
 10
2715.480008308167
 20
403.2947101512855
 30
0.0
 11
2696.730008308167
 21
543.694710151286
 31
0.0
 70
    32
  1
18
 71
     5
 42
280.8
  3
ISO-25
100
AcDbAlignedDimension
 13
2582.25404811461
 23
684.0947101512855
 33
0.0
 14
2582.25404811461
 24
403.2947101512855
 34
0.0
 50
90.0
100
AcDbRotatedDimension
1001
ACAD
1000
DSTYLE
1002
{
1070
   279
1070
     2
1070
   371
1070
    18
1070
   372
1070
    18
1002
}
  0
LEADER
  5
2408
330
1F
100
AcDbEntity
  8
実形
100
AcDbLeader
  3
ISO-25
 76
     2
 10
2598.968887029636
 20
666.6445109732322
 30
0.0
 10
2665.822583513264
 20
707.9203906258708
 30
0.0
1001
ACAD
1000
DSTYLE
1002
{
1070
   147
1040
6.25
1070
    77
1070
     0
1070
   279
1070
     2
1070
   371
1070
    18
1070
   372
1070
    18
1002
}
  0
LINE
  5
25B1
330
1F
100
AcDbEntity
  8
センター
 48
0.5
370
    15
100
AcDbLine
 10
1246.332057661162
 20
1310.958577370827
 30
0.0
 11
1333.736831316834
 21
1310.958577370827
 31
0.0
  0
TEXT
  5
25B2
330
1F
100
AcDbEntity
  8
実形
370
    -2
100
AcDbText
 10
1219.924309305059
 20
1300.588257554738
 30
0.0
 40
25.0
  1
A
100
AcDbText
  0
TEXT
  5
25B3
330
1F
100
AcDbEntity
  8
実形
370
    -2
100
AcDbText
 10
1340.784228941762
 20
1300.588257554738
 30
0.0
 40
25.0
  1
A
100
AcDbText
  0
TEXT
  5
25B4
330
1F
100
AcDbEntity
  8
実形
370
    -2
100
AcDbText
 10
1350.389003701528
 20
1298.987796192567
 30
0.0
 40
25.0
  1
´
100
AcDbText
  0
VIEWPORT
  5
2E
102
{ACAD_XDICTIONARY
360
25D2
102
}
330
1B
100
AcDbEntity
 67
     1
  8
0
100
AcDbViewport
 10
144.7270812988281
 20
101.2295806407928
 30
0.0
 40
411.6736216682419
 41
222.1517806396485
 68
     1
 69
     1
 12
144.7270812988281
 22
101.2295806407928
 13
0.0
 23
0.0
 14
10.0
 24
10.0
 15
10.0
 25
10.0
 16
0.0
 26
0.0
 36
1.0
 17
0.0
 27
0.0
 37
0.0
 42
50.0
 43
0.0
 44
0.0
 45
222.1517806396485
 50
0.0
 51
0.0
 72
   100
 90
    32800
  1

281
     0
 71
     1
 74
     0
110
0.0
120
0.0
130
0.0
111
1.0
121
0.0
131
0.0
112
0.0
122
1.0
132
0.0
 79
     0
146
0.0
  0
VIEWPORT
  5
30
102
{ACAD_XDICTIONARY
360
25D4
102
}
330
1B
100
AcDbEntity
 67
     1
  8
0
100
AcDbViewport
 10
139.2237563133239
 20
101.2295821905136
 30
0.0
 40
222.7580101013184
 41
161.9673315048218
 68
     2
 69
     2
 12
210.0
 22
148.5
 13
0.0
 23
0.0
 14
10.0
 24
10.0
 15
10.0
 25
10.0
 16
0.0
 26
0.0
 36
1.0
 17
0.0
 27
0.0
 37
0.0
 42
50.0
 43
0.0
 44
0.0
 45
309.0686705647124
 50
0.0
 51
0.0
 72
   100
 90
    32864
  1

281
     0
 71
     1
 74
     0
110
0.0
120
0.0
130
0.0
111
1.0
121
0.0
131
0.0
112
0.0
122
1.0
132
0.0
 79
     0
146
0.0
  0
ENDSEC
  0
SECTION
  2
OBJECTS
  0
DICTIONARY
  5
C
330
0
100
AcDbDictionary
281
     1
  3
ACAD_COLOR
350
16B9
  3
ACAD_GROUP
350
D
  3
ACAD_LAYOUT
350
1A
  3
ACAD_MATERIAL
350
16B8
  3
ACAD_MLINESTYLE
350
17
  3
ACAD_PLOTSETTINGS
350
19
  3
ACAD_PLOTSTYLENAME
350
E
  3
ACAD_TABLESTYLE
350
16BA
  3
AcadDim
350
CBC
  3
ACDBHEADERROUNDTRIPXREC
350
25CB
  3
AcDbVariableDictionary
350
EFD
  0
DICTIONARY
  5
17D3
330
2
100
AcDbDictionary
280
     1
281
     1
  3
ACAD_LAYERFILTERS
360
1BD7
  3
ACAD_LAYERSTATES
360
17D4
  3
ACLYDICTIONARY
360
1BD6
  0
DICTIONARY
  5
16CD
330
1F
100
AcDbDictionary
280
     1
281
     1
  3
ACAD_SORTENTS
360
16CE
  0
DICTIONARY
  5
25D2
330
2E
100
AcDbDictionary
280
     1
281
     1
  3
ACAD_XREC_ROUNDTRIP
360
25D3
  0
DICTIONARY
  5
25D4
330
30
100
AcDbDictionary
280
     1
281
     1
  3
ACAD_XREC_ROUNDTRIP
360
25D5
  0
DICTIONARY
  5
16B9
102
{ACAD_REACTORS
330
C
102
}
330
C
100
AcDbDictionary
281
     1
  0
DICTIONARY
  5
D
102
{ACAD_REACTORS
330
C
102
}
330
C
100
AcDbDictionary
281
     1
  0
DICTIONARY
  5
1A
102
{ACAD_REACTORS
330
C
102
}
330
C
100
AcDbDictionary
281
     1
  3
Model
350
22
  3
ﾚｲｱｳﾄ1
350
1E
  3
ﾚｲｱｳﾄ2
350
26
  0
DICTIONARY
  5
16B8
102
{ACAD_REACTORS
330
C
102
}
330
C
100
AcDbDictionary
281
     1
  0
DICTIONARY
  5
17
102
{ACAD_REACTORS
330
C
102
}
330
C
100
AcDbDictionary
281
     1
  3
Standard
350
18
  0
DICTIONARY
  5
19
102
{ACAD_REACTORS
330
C
102
}
330
C
100
AcDbDictionary
281
     1
  0
ACDBDICTIONARYWDFLT
  5
E
102
{ACAD_REACTORS
330
C
102
}
330
C
100
AcDbDictionary
281
     1
  3
Normal
350
F
100
AcDbDictionaryWithDefault
340
F
  0
DICTIONARY
  5
16BA
102
{ACAD_REACTORS
330
C
102
}
330
C
100
AcDbDictionary
281
     1
  3
Standard
350
16BB
  0
XRECORD
  5
CBC
102
{ACAD_REACTORS
330
C
102
}
330
C
100
AcDbXrecord
280
     1
 90
   990106
  3

 60
     0
 61
     0
 62
     1
 63
     3
 64
     0
 65
     0
 66
     0
 67
     3
 68
     1
 69
     0
 70
     0
 71
     0
 72
     0
 40
30.0
170
     0
  0
DICTIONARY
  5
25CB
102
{ACAD_REACTORS
330
C
102
}
330
C
100
AcDbDictionary
281
     1
  0
DICTIONARY
  5
EFD
102
{ACAD_REACTORS
330
C
102
}
330
C
100
AcDbDictionary
281
     1
  3
CTABLESTYLE
350
16C1
  3
DIMASSOC
350
25C8
  3
PROJECTNAME
350
25C9
  3
SORTENTS
350
EFE
  0
DICTIONARY
  5
1BD7
102
{ACAD_REACTORS
330
17D3
102
}
330
17D3
100
AcDbDictionary
281
     1
  0
DICTIONARY
  5
17D4
102
{ACAD_REACTORS
330
17D3
102
}
330
17D3
100
AcDbDictionary
281
     1
  0
DICTIONARY
  5
1BD6
102
{ACAD_REACTORS
330
17D3
102
}
330
17D3
100
AcDbDictionary
281
     1
1001
ACAD
1000
<All
  0
SORTENTSTABLE
  5
16CE
102
{ACAD_REACTORS
330
16CD
102
}
330
16CD
100
AcDbSortentsTable
330
1F
331
1857
  5
18A6
331
214D
  5
214F
331
1FF0
  5
1FF2
331
1E1D
  5
1E21
331
459
  5
BE6
331
100D
  5
12EC
331
2037
  5
203C
331
C2E
  5
1011
331
2000
  5
2005
331
1015
  5
182E
331
1D7E
  5
1D8C
331
31B
  5
466
331
2008
  5
2010
331
2047
  5
210C
331
12E5
  5
1831
331
12E9
  5
1834
331
1820
  5
183A
331
1828
  5
1842
331
185F
  5
1902
331
1C8B
  5
308
331
1838
  5
1851
331
21FB
  5
214C
331
2010
  5
2015
331
A5
  5
2D8
331
323
  5
47C
331
41A
  5
BDE
331
2018
  5
201D
331
1E8C
  5
1E8E
331
1E94
  5
1E96
331
1FE9
  5
1FEB
331
1E16
  5
1E1A
331
FFE
  5
101D
331
1006
  5
1024
331
1840
  5
1859
331
1701
  5
1839
331
1848
  5
1861
331
1850
  5
1894
331
214E
  5
2150
331
1E1E
  5
1E22
331
1FF1
  5
1FF3
331
2030
  5
2035
331
100E
  5
12ED
331
2038
  5
203D
331
1016
  5
182F
331
1E2E
  5
50A
331
1D7F
  5
1D8D
331
2DD
  5
2E0
331
2001
  5
2006
331
12EA
  5
1835
331
1821
  5
183B
331
1858
  5
18A7
331
1829
  5
1843
331
1860
  5
1903
331
1C8C
  5
2E8
331
1CF3
  5
1D7E
331
1831
  5
184A
331
1839
  5
1852
331
21FC
  5
1FF9
331
1DB7
  5
1E12
331
324
  5
492
331
2011
  5
2016
331
570
  5
1003
331
2019
  5
2021
331
1E8D
  5
1E8F
331
2FD
  5
302
331
2021
  5
2026
331
1E95
  5
1E97
331
FFF
  5
101E
331
492
  5
C20
331
2029
  5
202E
331
1FEA
  5
1FEC
331
1E17
  5
1E1B
331
1007
  5
12E5
331
1841
  5
185A
331
1CA4
  5
1D24
331
1849
  5
1862
331
21CD
  5
21CF
331
1851
  5
1895
331
214F
  5
2151
331
2108
  5
549
331
1FF2
  5
1FF4
331
2031
  5
2036
331
1E1F
  5
1E23
331
100F
  5
1379
331
CB8
  5
1012
331
315
  5
336
331
1FFA
  5
1FFF
331
2039
  5
203E
331
2002
  5
2007
331
1E2F
  5
522
331
12E7
  5
1832
331
40C
  5
BDD
331
73
  5
73
331
12EB
  5
1836
331
1822
  5
183C
331
1859
  5
18FC
331
182A
  5
1844
331
1861
  5
1993
331
1C8D
  5
30B
331
1832
  5
184B
331
183A
  5
1853
331
1D24
  5
1D7F
331
325
  5
4C3
331
2012
  5
2017
331
1DB8
  5
1E13
331
571
  5
1007
331
1E8E
  5
1E90
331
2FE
  5
306
331
2022
  5
2027
331
1E96
  5
1FE4
331
1000
  5
101F
331
50A
  5
CB8
331
306
  5
316
331
202A
  5
202F
331
1842
  5
185B
331
184A
  5
1863
331
21CE
  5
21D0
331
1BD8
  5
A0
331
1A11
  5
1C8B
331
1852
  5
1896
331
2109
  5
52F
331
1CD5
  5
1D7C
331
1E18
  5
1E1C
331
1008
  5
12E7
331
C29
  5
100D
331
1FF3
  5
1FF5
331
2032
  5
2037
331
1E20
  5
1E2E
331
1010
  5
14DC
331
CB9
  5
1013
331
4C3
  5
C26
331
316
  5
337
331
1FFB
  5
2000
331
203A
  5
203F
331
522
  5
CB9
331
2003
  5
2008
331
9C
  5
9C
331
12EC
  5
1837
331
1823
  5
183D
331
185A
  5
18FD
331
2150
  5
21CD
331
182B
  5
1845
331
1862
  5
1994
331
1C8E
  5
303
331
1833
  5
184C
331
183B
  5
1854
331
A0
  5
A5
331
1E30
  5
1E89
331
47C
  5
C1E
331
2013
  5
2018
331
1DB9
  5
1E14
331
1E8F
  5
1E91
331
2023
  5
2028
331
2FF
  5
307
331
1FE4
  5
1FE6
331
1E97
  5
1FE5
331
1E11
  5
1E15
331
1001
  5
1020
331
307
  5
319
331
202B
  5
2030
331
1BC1
  5
1CA4
331
1843
  5
185C
331
187A
  5
1BC2
331
184B
  5
1864
331
21CF
  5
21FB
331
1853
  5
1897
331
210A
  5
210D
331
1E19
  5
1E1D
331
1009
  5
12E8
331
1FF4
  5
1FF6
331
2033
  5
2038
331
1E21
  5
1E2F
331
1011
  5
16CB
331
3F6
  5
BDC
331
1FFC
  5
2001
331
203B
  5
2040
331
CC2
  5
1014
331
2E0
  5
2E9
331
2004
  5
2009
331
1D8A
  5
1DB7
331
200C
  5
2011
331
12ED
  5
1838
331
1824
  5
183E
331
185B
  5
18FE
331
2151
  5
21CE
331
1C87
  5
2FD
331
1CE6
  5
1D7D
331
182C
  5
1846
331
1863
  5
1995
331
1C8F
  5
317
331
1834
  5
184D
331
1C97
  5
1CF3
331
183C
  5
1855
331
2E8
  5
2FE
331
327
  5
4FD
331
2014
  5
2019
331
1E90
  5
1E92
331
8DB
  5
1008
331
2024
  5
2029
331
300
  5
309
331
1FE5
  5
1FE7
331
1E12
  5
1E16
331
202C
  5
2031
331
1BC2
  5
1CD5
331
1844
  5
185D
331
187B
  5
1BC3
331
184C
  5
187A
331
1854
  5
1898
331
21D0
  5
21FC
331
210B
  5
214D
331
308
  5
31B
331
1E1A
  5
1E1E
331
100A
  5
12E9
331
C2B
  5
100F
331
2034
  5
2039
331
1E22
  5
1E30
331
1012
  5
16CC
331
466
  5
BE8
331
1FFD
  5
2002
331
203C
  5
2109
331
CC3
  5
1015
331
2005
  5
200A
331
1D8B
  5
1DB8
331
DC3
  5
1016
331
200D
  5
2012
331
1825
  5
183F
331
185C
  5
18FF
331
1C88
  5
325
331
182D
  5
1847
331
1864
  5
1BC1
331
1C90
  5
320
331
1B63
  5
1C8C
331
1835
  5
184E
331
183D
  5
1856
331
2E9
  5
2FF
331
1E32
  5
1E8A
331
4E5
  5
C29
331
2F1
  5
300
331
328
  5
556
331
2015
  5
201A
331
1E89
  5
1E8B
331
427
  5
BDF
331
201D
  5
2022
331
1E91
  5
1E93
331
4FD
  5
C2C
331
2025
  5
202A
331
301
  5
30A
331
1FE6
  5
1FE8
331
1E13
  5
1E17
331
FFB
  5
1019
331
1003
  5
1021
331
202D
  5
2032
331
C24
  5
100A
331
1BC3
  5
1CE6
331
1845
  5
185E
331
187C
  5
1C8A
331
184D
  5
187B
331
1855
  5
1899
331
210C
  5
1FF8
331
309
  5
321
331
1E1B
  5
1E1F
331
100B
  5
12EA
331
1FF6
  5
1FFE
331
2035
  5
203A
331
1E23
  5
1E32
331
C2C
  5
1010
331
319
  5
427
331
1FFE
  5
2003
331
1D7C
  5
1D8A
331
1013
  5
182C
331
2006
  5
200B
331
2045
  5
210A
331
1D8C
  5
1DB9
331
1826
  5
1840
331
185D
  5
1900
331
1C89
  5
31A
331
182E
  5
1848
331
1B64
  5
1C8D
331
1836
  5
184F
331
183E
  5
1857
331
2016
  5
201B
331
1E8A
  5
1E8C
331
2F2
  5
301
331
329
  5
570
331
201E
  5
2023
331
1E92
  5
1E94
331
FFC
  5
101A
331
2026
  5
202B
331
1FE7
  5
1FE9
331
1E14
  5
1E18
331
302
  5
30C
331
8DD
  5
1009
331
202E
  5
2033
331
1FEF
  5
1FF1
331
1004
  5
1022
331
1846
  5
185F
331
184E
  5
187C
331
1856
  5
189A
331
214C
  5
214E
331
210D
  5
1FFA
331
1E1C
  5
1E20
331
3E9
  5
66C
331
2036
  5
203B
331
100C
  5
12EB
331
1FFF
  5
2004
331
1014
  5
182D
331
1D7D
  5
1D8B
331
31A
  5
459
331
2007
  5
200C
331
2046
  5
210B
331
1D8D
  5
1E11
331
200F
  5
2014
331
12E8
  5
1833
331
1827
  5
1841
331
185E
  5
1901
331
1C8A
  5
30D
331
182F
  5
1849
331
1B65
  5
1C97
331
1837
  5
1850
331
183F
  5
1858
331
2017
  5
201C
331
1E8B
  5
1E8D
331
1E93
  5
1E95
331
3C2
  5
63C
331
2027
  5
202D
331
1FE8
  5
1FEA
331
FFD
  5
101B
331
1E15
  5
1E19
331
303
  5
315
331
1005
  5
1023
331
202F
  5
2034
331
C26
  5
100C
331
1847
  5
1860
331
184F
  5
1893
  0
XRECORD
  5
25D3
102
{ACAD_REACTORS
330
25D2
102
}
330
25D2
100
AcDbXrecord
280
     1
102
SHADEPLOT
 70
     0
  0
XRECORD
  5
25D5
102
{ACAD_REACTORS
330
25D4
102
}
330
25D4
100
AcDbXrecord
280
     1
102
SHADEPLOT
 70
     0
  0
LAYOUT
  5
22
102
{ACAD_XDICTIONARY
360
25CE
102
}
102
{ACAD_REACTORS
330
1A
102
}
330
1A
100
AcDbPlotSettings
  1

  2
EPSON PM-800C
  4
A4
  6

 40
3.757083177566528
 41
14.7637300491333
 42
3.757080078125
 43
3.757080078125
 44
209.9733276367187
 45
296.9683227539062
 46
0.0
 47
0.0
 48
0.0
 49
0.0
140
0.0
141
0.0
142
1.0
143
10.0
 70
 11952
 72
     1
 73
     1
 74
     2
  7

 75
    20
147
0.1
148
0.0
149
0.0
100
AcDbLayout
  1
Model
 70
     1
 71
     0
 10
0.0
 20
0.0
 11
12.0
 21
9.0
 12
0.0
 22
0.0
 32
0.0
 14
0.0
 24
0.0
 34
0.0
 15
0.0
 25
0.0
 35
0.0
146
0.0
 13
0.0
 23
0.0
 33
0.0
 16
1.0
 26
0.0
 36
0.0
 17
0.0
 27
1.0
 37
0.0
 76
     0
330
1F
  0
LAYOUT
  5
1E
102
{ACAD_XDICTIONARY
360
25CC
102
}
102
{ACAD_REACTORS
330
1A
102
}
330
1A
100
AcDbPlotSettings
  1

  2
EPSON PM-800C
  4
A4
  6

 40
3.757083177566528
 41
14.7637300491333
 42
3.757080078125
 43
3.757080078125
 44
209.9733276367187
 45
296.9683227539062
 46
0.0
 47
0.0
 48
0.0
 49
0.0
140
0.0
141
0.0
142
1.0
143
1.0
 70
   688
 72
     1
 73
     1
 74
     5
  7

 75
    16
147
1.0
148
0.0
149
0.0
100
AcDbLayout
  1
ﾚｲｱｳﾄ1
 70
     1
 71
     1
 10
-3.757080078125
 20
-3.757083177566528
 11
293.2112426757813
 21
206.2162444591522
 12
0.0
 22
0.0
 32
0.0
 14
27.8447512626648
 24
20.24591643810271
 34
0.0
 15
250.6027613639831
 25
182.2132479429245
 35
0.0
146
0.0
 13
0.0
 23
0.0
 33
0.0
 16
1.0
 26
0.0
 36
0.0
 17
0.0
 27
1.0
 37
0.0
 76
     0
330
1B
331
2E
  0
LAYOUT
  5
26
102
{ACAD_XDICTIONARY
360
25D0
102
}
102
{ACAD_REACTORS
330
1A
102
}
330
1A
100
AcDbPlotSettings
  1

  2
EPSON PM-800C
  4

  6

 40
0.0
 41
0.0
 42
0.0
 43
0.0
 44
0.0
 45
0.0
 46
0.0
 47
0.0
 48
0.0
 49
0.0
140
0.0
141
0.0
142
1.0
143
1.0
 70
   688
 72
     0
 73
     0
 74
     5
  7

 75
    16
147
1.0
148
0.0
149
0.0
100
AcDbLayout
  1
ﾚｲｱｳﾄ2
 70
     1
 71
     2
 10
0.0
 20
0.0
 11
12.0
 21
9.0
 12
0.0
 22
0.0
 32
0.0
 14
0.0
 24
0.0
 34
0.0
 15
0.0
 25
0.0
 35
0.0
146
0.0
 13
0.0
 23
0.0
 33
0.0
 16
1.0
 26
0.0
 36
0.0
 17
0.0
 27
1.0
 37
0.0
 76
     0
330
23
  0
MLINESTYLE
  5
18
102
{ACAD_REACTORS
330
17
102
}
330
17
100
AcDbMlineStyle
  2
STANDARD
 70
     0
  3

 62
   256
 51
90.0
 52
90.0
 71
     2
 49
0.5
 62
   256
  6
BYLAYER
 49
-0.5
 62
   256
  6
BYLAYER
  0
ACDBPLACEHOLDER
  5
F
102
{ACAD_REACTORS
330
E
102
}
330
E
  0
TABLESTYLE
  5
16BB
102
{ACAD_REACTORS
330
16BA
102
}
330
16BA
100
AcDbTableStyle
  3
Standard
 70
     0
 71
     0
 40
1.5
 41
1.5
280
     0
281
     0
  7
Standard
140
4.5
170
     2
 62
     0
 63
     7
283
     0
274
    -2
284
     1
 64
     0
275
    -2
285
     1
 65
     0
276
    -2
286
     1
 66
     0
277
    -2
287
     1
 67
     0
278
    -2
288
     1
 68
     0
279
    -2
289
     1
 69
     0
  7
Standard
140
6.0
170
     5
 62
     0
 63
     7
283
     0
274
    -2
284
     1
 64
     0
275
    -2
285
     1
 65
     0
276
    -2
286
     1
 66
     0
277
    -2
287
     1
 67
     0
278
    -2
288
     1
 68
     0
279
    -2
289
     1
 69
     0
  7
Standard
140
4.5
170
     5
 62
     0
 63
     7
283
     0
274
    -2
284
     1
 64
     0
275
    -2
285
     1
 65
     0
276
    -2
286
     1
 66
     0
277
    -2
287
     1
 67
     0
278
    -2
288
     1
 68
     0
279
    -2
289
     1
 69
     0
  0
DICTIONARYVAR
  5
16C1
102
{ACAD_REACTORS
330
EFD
102
}
330
EFD
100
DictionaryVariables
280
     0
  1
STANDARD
  0
DICTIONARYVAR
  5
25C8
102
{ACAD_REACTORS
330
EFD
102
}
330
EFD
100
DictionaryVariables
280
     0
  1
1
  0
DICTIONARYVAR
  5
25C9
102
{ACAD_REACTORS
330
EFD
102
}
330
EFD
100
DictionaryVariables
280
     0
  1

  0
DICTIONARYVAR
  5
EFE
102
{ACAD_REACTORS
330
EFD
102
}
330
EFD
100
DictionaryVariables
280
     0
  1
96
  0
DICTIONARY
  5
25CE
330
22
100
AcDbDictionary
280
     1
281
     1
  3
ACAD_XREC_ROUNDTRIP
360
25CF
  0
DICTIONARY
  5
25CC
330
1E
100
AcDbDictionary
280
     1
281
     1
  3
ACAD_XREC_ROUNDTRIP
360
25CD
  0
DICTIONARY
  5
25D0
330
26
100
AcDbDictionary
280
     1
281
     1
  3
ACAD_XREC_ROUNDTRIP
360
25D1
  0
XRECORD
  5
25CF
102
{ACAD_REACTORS
330
25CE
102
}
330
25CE
100
AcDbXrecord
280
     1
102
SHADEPLOT
 70
     0
102
SHADEPLOTRESLEVEL
 70
     2
102
SHADEPLOTCUSTOMDPI
 70
   300
  0
XRECORD
  5
25CD
102
{ACAD_REACTORS
330
25CC
102
}
330
25CC
100
AcDbXrecord
280
     1
102
SHADEPLOT
 70
     0
102
SHADEPLOTRESLEVEL
 70
     2
102
SHADEPLOTCUSTOMDPI
 70
   300
  0
XRECORD
  5
25D1
102
{ACAD_REACTORS
330
25D0
102
}
330
25D0
100
AcDbXrecord
280
     1
102
SHADEPLOT
 70
     0
102
SHADEPLOTRESLEVEL
 70
     2
102
SHADEPLOTCUSTOMDPI
 70
   300
  0
ENDSEC
  0
EOF
