  0
SECTION
  2
HEADER
  9
$ACADVER
  1
AC1015
  9
$ACADMAINTVER
 70
    20
  9
$DWGCODEPAGE
  3
ANSI_932
  9
$INSBASE
 10
0.0
 20
0.0
 30
0.0
  9
$EXTMIN
 10
104.0
 20
4.0
 30
0.0
  9
$EXTMAX
 10
2784.0
 20
2024.0
 30
0.0
  9
$LIMMIN
 10
0.0
 20
0.0
  9
$LIMMAX
 10
29700.0
 20
21000.0
  9
$ORTHOMODE
 70
     1
  9
$REGENMODE
 70
     1
  9
$FILLMODE
 70
     1
  9
$QTEXTMODE
 70
     0
  9
$MIRRTEXT
 70
     1
  9
$LTSCALE
 40
4.0
  9
$ATTMODE
 70
     1
  9
$TEXTSIZE
 40
35.0
  9
$TRACEWID
 40
1.0
  9
$TEXTSTYLE
  7
Standard
  9
$CLAYER
  8
実形
  9
$CELTYPE
  6
ByLayer
  9
$CECOLOR
 62
   256
  9
$CELTSCALE
 40
1.0
  9
$DISPSILH
 70
     0
  9
$DIMSCALE
 40
1.0
  9
$DIMASZ
 40
35.0
  9
$DIMEXO
 40
65.0
  9
$DIMDLI
 40
3.75
  9
$DIMRND
 40
0.0
  9
$DIMDLE
 40
0.0
  9
$DIMEXE
 40
0.0
  9
$DIMTP
 40
0.0
  9
$DIMTM
 40
0.0
  9
$DIMTXT
 40
25.0
  9
$DIMCEN
 40
2.5
  9
$DIMTSZ
 40
0.0
  9
$DIMTOL
 70
     0
  9
$DIMLIM
 70
     0
  9
$DIMTIH
 70
     0
  9
$DIMTOH
 70
     0
  9
$DIMSE1
 70
     0
  9
$DIMSE2
 70
     0
  9
$DIMTAD
 70
     1
  9
$DIMZIN
 70
     8
  9
$DIMBLK
  1
DotSmall
  9
$DIMASO
 70
     1
  9
$DIMSHO
 70
     1
  9
$DIMPOST
  1

  9
$DIMAPOST
  1

  9
$DIMALT
 70
     0
  9
$DIMALTD
 70
     3
  9
$DIMALTF
 40
0.03937007874016
  9
$DIMLFAC
 40
1.0
  9
$DIMTOFL
 70
     1
  9
$DIMTVP
 40
0.0
  9
$DIMTIX
 70
     0
  9
$DIMSOXD
 70
     0
  9
$DIMSAH
 70
     0
  9
$DIMBLK1
  1

  9
$DIMBLK2
  1

  9
$DIMSTYLE
  2
ISO-25
  9
$DIMCLRD
 70
     0
  9
$DIMCLRE
 70
     0
  9
$DIMCLRT
 70
     0
  9
$DIMTFAC
 40
1.0
  9
$DIMGAP
 40
6.25
  9
$DIMJUST
 70
     0
  9
$DIMSD1
 70
     0
  9
$DIMSD2
 70
     0
  9
$DIMTOLJ
 70
     0
  9
$DIMTZIN
 70
     8
  9
$DIMALTZ
 70
     0
  9
$DIMALTTZ
 70
     0
  9
$DIMUPT
 70
     0
  9
$DIMDEC
 70
     2
  9
$DIMTDEC
 70
     2
  9
$DIMALTU
 70
     2
  9
$DIMALTTD
 70
     3
  9
$DIMTXSTY
  7
Standard
  9
$DIMAUNIT
 70
     0
  9
$DIMADEC
 70
     0
  9
$DIMALTRND
 40
0.0
  9
$DIMAZIN
 70
     0
  9
$DIMDSEP
 70
    46
  9
$DIMATFIT
 70
     2
  9
$DIMFRAC
 70
     0
  9
$DIMLDRBLK
  1
Open30
  9
$DIMLUNIT
 70
     2
  9
$DIMLWD
 70
    15
  9
$DIMLWE
 70
    15
  9
$DIMTMOVE
 70
     2
  9
$LUNITS
 70
     2
  9
$LUPREC
 70
     2
  9
$SKETCHINC
 40
1.0
  9
$FILLETRAD
 40
5.0
  9
$AUNITS
 70
     0
  9
$AUPREC
 70
     0
  9
$MENU
  1
.
  9
$ELEVATION
 40
0.0
  9
$PELEVATION
 40
0.0
  9
$THICKNESS
 40
0.0
  9
$LIMCHECK
 70
     1
  9
$CHAMFERA
 40
10.0
  9
$CHAMFERB
 40
10.0
  9
$CHAMFERC
 40
20.0
  9
$CHAMFERD
 40
0.0
  9
$SKPOLY
 70
     0
  9
$TDCREATE
 40
2451673.575802199
  9
$TDUCREATE
 40
2451673.200802199
  9
$TDUPDATE
 40
2458813.755352847
  9
$TDUUPDATE
 40
2458813.380352847
  9
$TDINDWG
 40
1.1655184259
  9
$TDUSRTIMER
 40
1.1655177315
  9
$USRTIMER
 70
     1
  9
$ANGBASE
 50
0.0
  9
$ANGDIR
 70
     0
  9
$PDMODE
 70
     0
  9
$PDSIZE
 40
0.0
  9
$PLINEWID
 40
0.0
  9
$SPLFRAME
 70
     0
  9
$SPLINETYPE
 70
     6
  9
$SPLINESEGS
 70
     8
  9
$HANDSEED
  5
2683
  9
$SURFTAB1
 70
     6
  9
$SURFTAB2
 70
     6
  9
$SURFTYPE
 70
     6
  9
$SURFU
 70
     6
  9
$SURFV
 70
     6
  9
$UCSBASE
  2

  9
$UCSNAME
  2

  9
$UCSORG
 10
0.0
 20
0.0
 30
0.0
  9
$UCSXDIR
 10
1.0
 20
0.0
 30
0.0
  9
$UCSYDIR
 10
0.0
 20
1.0
 30
0.0
  9
$UCSORTHOREF
  2

  9
$UCSORTHOVIEW
 70
     0
  9
$UCSORGTOP
 10
0.0
 20
0.0
 30
0.0
  9
$UCSORGBOTTOM
 10
0.0
 20
0.0
 30
0.0
  9
$UCSORGLEFT
 10
0.0
 20
0.0
 30
0.0
  9
$UCSORGRIGHT
 10
0.0
 20
0.0
 30
0.0
  9
$UCSORGFRONT
 10
0.0
 20
0.0
 30
0.0
  9
$UCSORGBACK
 10
0.0
 20
0.0
 30
0.0
  9
$PUCSBASE
  2

  9
$PUCSNAME
  2

  9
$PUCSORG
 10
0.0
 20
0.0
 30
0.0
  9
$PUCSXDIR
 10
1.0
 20
0.0
 30
0.0
  9
$PUCSYDIR
 10
0.0
 20
1.0
 30
0.0
  9
$PUCSORTHOREF
  2

  9
$PUCSORTHOVIEW
 70
     0
  9
$PUCSORGTOP
 10
0.0
 20
0.0
 30
0.0
  9
$PUCSORGBOTTOM
 10
0.0
 20
0.0
 30
0.0
  9
$PUCSORGLEFT
 10
0.0
 20
0.0
 30
0.0
  9
$PUCSORGRIGHT
 10
0.0
 20
0.0
 30
0.0
  9
$PUCSORGFRONT
 10
0.0
 20
0.0
 30
0.0
  9
$PUCSORGBACK
 10
0.0
 20
0.0
 30
0.0
  9
$USERI1
 70
     0
  9
$USERI2
 70
     0
  9
$USERI3
 70
     0
  9
$USERI4
 70
     0
  9
$USERI5
 70
     0
  9
$USERR1
 40
0.0
  9
$USERR2
 40
0.0
  9
$USERR3
 40
0.0
  9
$USERR4
 40
0.0
  9
$USERR5
 40
0.0
  9
$WORLDVIEW
 70
     1
  9
$SHADEDGE
 70
     3
  9
$SHADEDIF
 70
    70
  9
$TILEMODE
 70
     1
  9
$MAXACTVP
 70
    64
  9
$PINSBASE
 10
0.0
 20
0.0
 30
0.0
  9
$PLIMCHECK
 70
     0
  9
$PEXTMIN
 10
27.8447512626648
 20
20.24591643810271
 30
0.0
  9
$PEXTMAX
 10
250.6027613639831
 20
182.2132479429245
 30
0.0
  9
$PLIMMIN
 10
-3.757080078125
 20
-3.757083177566528
  9
$PLIMMAX
 10
293.2112426757813
 20
206.2162444591522
  9
$UNITMODE
 70
     0
  9
$VISRETAIN
 70
     1
  9
$PLINEGEN
 70
     0
  9
$PSLTSCALE
 70
     1
  9
$TREEDEPTH
 70
  3020
  9
$CMLSTYLE
  2
Standard
  9
$CMLJUST
 70
     0
  9
$CMLSCALE
 40
20.0
  9
$PROXYGRAPHICS
 70
     1
  9
$MEASUREMENT
 70
     1
  9
$CELWEIGHT
370
    -1
  9
$ENDCAPS
280
     0
  9
$JOINSTYLE
280
     0
  9
$LWDISPLAY
290
     0
  9
$INSUNITS
 70
     4
  9
$HYPERLINKBASE
  1

  9
$STYLESHEET
  1

  9
$XEDIT
290
     1
  9
$CEPSNTYPE
380
     0
  9
$PSTYLEMODE
290
     1
  9
$FINGERPRINTGUID
  2
{C8EA1F16-24C9-11D4-9416-CE0A3B32152F}
  9
$VERSIONGUID
  2
{C1553BF0-E1CF-4DB0-99C1-89EDAE5EE3D3}
  9
$EXTNAMES
290
     1
  9
$PSVPSCALE
 40
0.0
  9
$OLESTARTUP
290
     0
  0
ENDSEC
  0
SECTION
  2
CLASSES
  0
CLASS
  1
ACDBDICTIONARYWDFLT
  2
AcDbDictionaryWithDefault
  3
ObjectDBX Classes
 90
        0
280
     0
281
     0
  0
CLASS
  1
ACDBPLACEHOLDER
  2
AcDbPlaceHolder
  3
ObjectDBX Classes
 90
        0
280
     0
281
     0
  0
CLASS
  1
LAYOUT
  2
AcDbLayout
  3
ObjectDBX Classes
 90
        0
280
     0
281
     0
  0
CLASS
  1
DICTIONARYVAR
  2
AcDbDictionaryVar
  3
ObjectDBX Classes
 90
        0
280
     0
281
     0
  0
CLASS
  1
TABLESTYLE
  2
AcDbTableStyle
  3
ObjectDBX Classes
 90
     2047
280
     0
281
     0
  0
CLASS
  1
SORTENTSTABLE
  2
AcDbSortentsTable
  3
ObjectDBX Classes
 90
        0
280
     0
281
     0
  0
ENDSEC
  0
SECTION
  2
TABLES
  0
TABLE
  2
VPORT
  5
8
330
0
100
AcDbSymbolTable
 70
     2
  0
VPORT
  5
2677
330
8
100
AcDbSymbolTableRecord
100
AcDbViewportTableRecord
  2
*Active
 70
     0
 10
0.0
 20
0.0
 11
1.0
 21
1.0
 12
1567.198784032875
 22
1084.628959822349
 13
0.0
 23
0.0
 14
10.0
 24
10.0
 15
10.0
 25
10.0
 16
0.0
 26
0.0
 36
1.0
 17
0.0
 27
0.0
 37
0.0
 40
2795.602165560489
 41
1.29038112522686
 42
50.0
 43
0.0
 44
0.0
 50
0.0
 51
0.0
 71
     0
 72
   100
 73
     1
 74
     3
 75
     0
 76
     0
 77
     0
 78
     0
281
     0
 65
     1
110
0.0
120
0.0
130
0.0
111
1.0
121
0.0
131
0.0
112
0.0
122
1.0
132
0.0
 79
     0
146
0.0
  0
ENDTAB
  0
TABLE
  2
LTYPE
  5
5
330
0
100
AcDbSymbolTable
 70
    46
  0
LTYPE
  5
14
330
5
100
AcDbSymbolTableRecord
100
AcDbLinetypeTableRecord
  2
ByBlock
 70
     0
  3

 72
    65
 73
     0
 40
0.0
  0
LTYPE
  5
15
330
5
100
AcDbSymbolTableRecord
100
AcDbLinetypeTableRecord
  2
ByLayer
 70
     0
  3

 72
    65
 73
     0
 40
0.0
  0
LTYPE
  5
16
330
5
100
AcDbSymbolTableRecord
100
AcDbLinetypeTableRecord
  2
Continuous
 70
     0
  3
Solid line
 72
    65
 73
     0
 40
0.0
  0
LTYPE
  5
34
330
5
100
AcDbSymbolTableRecord
100
AcDbLinetypeTableRecord
  2
ACAD_ISO02W100
 70
     0
  3
ISO dash __ __ __ __ __ __ __ __ __ __ __ __ __
 72
    65
 73
     2
 40
15.0
 49
12.0
 74
     0
 49
-3.0
 74
     0
  0
LTYPE
  5
35
330
5
100
AcDbSymbolTableRecord
100
AcDbLinetypeTableRecord
  2
ACAD_ISO03W100
 70
     0
  3
ISO dash space __    __    __    __    __    __
 72
    65
 73
     2
 40
30.0
 49
12.0
 74
     0
 49
-18.0
 74
     0
  0
LTYPE
  5
36
330
5
100
AcDbSymbolTableRecord
100
AcDbLinetypeTableRecord
  2
ACAD_ISO04W100
 70
     0
  3
ISO long-dash dot ____ . ____ . ____ . ____ . _
 72
    65
 73
     4
 40
30.0
 49
24.0
 74
     0
 49
-3.0
 74
     0
 49
0.0
 74
     0
 49
-3.0
 74
     0
  0
LTYPE
  5
37
330
5
100
AcDbSymbolTableRecord
100
AcDbLinetypeTableRecord
  2
ACAD_ISO05W100
 70
     0
  3
ISO long-dash double-dot ____ .. ____ .. ____ .
 72
    65
 73
     6
 40
34.0
 49
24.0
 74
     0
 49
-3.0
 74
     0
 49
0.5
 74
     0
 49
-3.0
 74
     0
 49
0.5
 74
     0
 49
-3.0
 74
     0
  0
LTYPE
  5
38
330
5
100
AcDbSymbolTableRecord
100
AcDbLinetypeTableRecord
  2
ACAD_ISO06W100
 70
     0
  3
ISO long-dash triple-dot ____ ... ____ ... ____
 72
    65
 73
     8
 40
37.5
 49
24.0
 74
     0
 49
-3.0
 74
     0
 49
0.5
 74
     0
 49
-3.0
 74
     0
 49
0.5
 74
     0
 49
-3.0
 74
     0
 49
0.5
 74
     0
 49
-3.0
 74
     0
  0
LTYPE
  5
39
330
5
100
AcDbSymbolTableRecord
100
AcDbLinetypeTableRecord
  2
ACAD_ISO07W100
 70
     0
  3
ISO dot . . . . . . . . . . . . . . . . . . . .
 72
    65
 73
     2
 40
3.0
 49
0.0
 74
     0
 49
-3.0
 74
     0
  0
LTYPE
  5
3A
330
5
100
AcDbSymbolTableRecord
100
AcDbLinetypeTableRecord
  2
ACAD_ISO08W100
 70
     0
  3
ISO long-dash short-dash ____ __ ____ __ ____ _
 72
    65
 73
     4
 40
36.0
 49
24.0
 74
     0
 49
-3.0
 74
     0
 49
6.0
 74
     0
 49
-3.0
 74
     0
  0
LTYPE
  5
3B
330
5
100
AcDbSymbolTableRecord
100
AcDbLinetypeTableRecord
  2
ACAD_ISO09W100
 70
     0
  3
ISO long-dash double-short-dash ____ __ __ ____
 72
    65
 73
     6
 40
45.0
 49
24.0
 74
     0
 49
-3.0
 74
     0
 49
6.0
 74
     0
 49
-3.0
 74
     0
 49
6.0
 74
     0
 49
-3.0
 74
     0
  0
LTYPE
  5
3C
330
5
100
AcDbSymbolTableRecord
100
AcDbLinetypeTableRecord
  2
ACAD_ISO10W100
 70
     0
  3
ISO dash dot __ . __ . __ . __ . __ . __ . __ .
 72
    65
 73
     4
 40
18.0
 49
12.0
 74
     0
 49
-3.0
 74
     0
 49
0.0
 74
     0
 49
-3.0
 74
     0
  0
LTYPE
  5
3D
330
5
100
AcDbSymbolTableRecord
100
AcDbLinetypeTableRecord
  2
ACAD_ISO11W100
 70
     0
  3
ISO double-dash dot __ __ . __ __ . __ __ . __ 
 72
    65
 73
     6
 40
33.0
 49
12.0
 74
     0
 49
-3.0
 74
     0
 49
12.0
 74
     0
 49
-3.0
 74
     0
 49
0.0
 74
     0
 49
-3.0
 74
     0
  0
LTYPE
  5
3E
330
5
100
AcDbSymbolTableRecord
100
AcDbLinetypeTableRecord
  2
ACAD_ISO12W100
 70
     0
  3
ISO dash double-dot __ . . __ . . __ . . __ . .
 72
    65
 73
     6
 40
21.0
 49
12.0
 74
     0
 49
-3.0
 74
     0
 49
0.0
 74
     0
 49
-3.0
 74
     0
 49
0.0
 74
     0
 49
-3.0
 74
     0
  0
LTYPE
  5
3F
330
5
100
AcDbSymbolTableRecord
100
AcDbLinetypeTableRecord
  2
ACAD_ISO13W100
 70
     0
  3
ISO double-dash double-dot __ __ . . __ __ . . 
 72
    65
 73
     8
 40
36.0
 49
12.0
 74
     0
 49
-3.0
 74
     0
 49
12.0
 74
     0
 49
-3.0
 74
     0
 49
0.0
 74
     0
 49
-3.0
 74
     0
 49
0.0
 74
     0
 49
-3.0
 74
     0
  0
LTYPE
  5
40
330
5
100
AcDbSymbolTableRecord
100
AcDbLinetypeTableRecord
  2
ACAD_ISO14W100
 70
     0
  3
ISO dash triple-dot __ . . . __ . . . __ . . . 
 72
    65
 73
     8
 40
24.0
 49
12.0
 74
     0
 49
-3.0
 74
     0
 49
0.0
 74
     0
 49
-3.0
 74
     0
 49
0.0
 74
     0
 49
-3.0
 74
     0
 49
0.0
 74
     0
 49
-3.0
 74
     0
  0
LTYPE
  5
41
330
5
100
AcDbSymbolTableRecord
100
AcDbLinetypeTableRecord
  2
ACAD_ISO15W100
 70
     0
  3
ISO double-dash triple-dot __ __ . . . __ __ . 
 72
    65
 73
    10
 40
39.0
 49
12.0
 74
     0
 49
-3.0
 74
     0
 49
12.0
 74
     0
 49
-3.0
 74
     0
 49
0.0
 74
     0
 49
-3.0
 74
     0
 49
0.0
 74
     0
 49
-3.0
 74
     0
 49
0.0
 74
     0
 49
-3.0
 74
     0
  0
LTYPE
  5
42
330
5
100
AcDbSymbolTableRecord
100
AcDbLinetypeTableRecord
  2
BATTING
 70
     0
  3
Batting SSSSSSSSSSSSSSSSSSSSSSSSSSSSSSSSSSSSSSS
 72
    65
 73
     4
 40
10.16254
 49
0.00254
 74
     0
 49
-2.54
 74
     4
 75
   134
340
33
 46
2.54
 50
0.0
 44
-2.54
 45
0.0
 49
-5.08
 74
     4
 75
   134
340
33
 46
2.54
 50
180.0
 44
2.54
 45
0.0
 49
-2.54
 74
     0
  0
LTYPE
  5
43
330
5
100
AcDbSymbolTableRecord
100
AcDbLinetypeTableRecord
  2
BORDER
 70
     0
  3
Border __ __ . __ __ . __ __ . __ __ . __ __ .
 72
    65
 73
     6
 40
44.45
 49
12.7
 74
     0
 49
-6.349999999999999
 74
     0
 49
12.7
 74
     0
 49
-6.349999999999999
 74
     0
 49
0.0
 74
     0
 49
-6.349999999999999
 74
     0
  0
LTYPE
  5
44
330
5
100
AcDbSymbolTableRecord
100
AcDbLinetypeTableRecord
  2
BORDER2
 70
     0
  3
Border (.5x) __.__.__.__.__.__.__.__.__.__.__.
 72
    65
 73
     6
 40
22.225
 49
6.349999999999999
 74
     0
 49
-3.174999999999999
 74
     0
 49
6.349999999999999
 74
     0
 49
-3.174999999999999
 74
     0
 49
0.0
 74
     0
 49
-3.174999999999999
 74
     0
  0
LTYPE
  5
45
330
5
100
AcDbSymbolTableRecord
100
AcDbLinetypeTableRecord
  2
BORDERX2
 70
     0
  3
Border (2x) ____  ____  .  ____  ____  .  ___
 72
    65
 73
     6
 40
88.9
 49
25.4
 74
     0
 49
-12.7
 74
     0
 49
25.4
 74
     0
 49
-12.7
 74
     0
 49
0.0
 74
     0
 49
-12.7
 74
     0
  0
LTYPE
  5
46
330
5
100
AcDbSymbolTableRecord
100
AcDbLinetypeTableRecord
  2
CENTER
 70
     0
  3
Center ____ _ ____ _ ____ _ ____ _ ____ _ ____
 72
    65
 73
     4
 40
50.8
 49
31.75
 74
     0
 49
-6.349999999999999
 74
     0
 49
6.349999999999999
 74
     0
 49
-6.349999999999999
 74
     0
  0
LTYPE
  5
47
330
5
100
AcDbSymbolTableRecord
100
AcDbLinetypeTableRecord
  2
CENTER2
 70
     0
  3
Center (.5x) ___ _ ___ _ ___ _ ___ _ ___ _ ___
 72
    65
 73
     4
 40
28.575
 49
19.05
 74
     0
 49
-3.174999999999999
 74
     0
 49
3.174999999999999
 74
     0
 49
-3.174999999999999
 74
     0
  0
LTYPE
  5
48
330
5
100
AcDbSymbolTableRecord
100
AcDbLinetypeTableRecord
  2
CENTERX2
 70
     0
  3
Center (2x) ________  __  ________  __  _____
 72
    65
 73
     4
 40
101.6
 49
63.5
 74
     0
 49
-12.7
 74
     0
 49
12.7
 74
     0
 49
-12.7
 74
     0
  0
LTYPE
  5
49
330
5
100
AcDbSymbolTableRecord
100
AcDbLinetypeTableRecord
  2
DASHDOT
 70
     0
  3
Dash dot __ . __ . __ . __ . __ . __ . __ . __
 72
    65
 73
     4
 40
25.4
 49
12.7
 74
     0
 49
-6.349999999999999
 74
     0
 49
0.0
 74
     0
 49
-6.349999999999999
 74
     0
  0
LTYPE
  5
4A
330
5
100
AcDbSymbolTableRecord
100
AcDbLinetypeTableRecord
  2
DASHDOT2
 70
     0
  3
Dash dot (.5x) _._._._._._._._._._._._._._._.
 72
    65
 73
     4
 40
12.7
 49
6.349999999999999
 74
     0
 49
-3.174999999999999
 74
     0
 49
0.0
 74
     0
 49
-3.174999999999999
 74
     0
  0
LTYPE
  5
4B
330
5
100
AcDbSymbolTableRecord
100
AcDbLinetypeTableRecord
  2
DASHDOTX2
 70
     0
  3
Dash dot (2x) ____  .  ____  .  ____  .  ___
 72
    65
 73
     4
 40
50.8
 49
25.4
 74
     0
 49
-12.7
 74
     0
 49
0.0
 74
     0
 49
-12.7
 74
     0
  0
LTYPE
  5
4C
330
5
100
AcDbSymbolTableRecord
100
AcDbLinetypeTableRecord
  2
DASHED
 70
     0
  3
Dashed __ __ __ __ __ __ __ __ __ __ __ __ __ _
 72
    65
 73
     2
 40
19.05
 49
12.7
 74
     0
 49
-6.349999999999999
 74
     0
  0
LTYPE
  5
4D
330
5
100
AcDbSymbolTableRecord
100
AcDbLinetypeTableRecord
  2
DASHED2
 70
     0
  3
Dashed (.5x) _ _ _ _ _ _ _ _ _ _ _ _ _ _ _ _ _
 72
    65
 73
     2
 40
9.524999999999998
 49
6.349999999999999
 74
     0
 49
-3.174999999999999
 74
     0
  0
LTYPE
  5
4E
330
5
100
AcDbSymbolTableRecord
100
AcDbLinetypeTableRecord
  2
DASHEDX2
 70
     0
  3
Dashed (2x) ____  ____  ____  ____  ____  ___
 72
    65
 73
     2
 40
38.1
 49
25.4
 74
     0
 49
-12.7
 74
     0
  0
LTYPE
  5
4F
330
5
100
AcDbSymbolTableRecord
100
AcDbLinetypeTableRecord
  2
DIVIDE
 70
     0
  3
Divide ____ . . ____ . . ____ . . ____ . . ____
 72
    65
 73
     6
 40
31.75
 49
12.7
 74
     0
 49
-6.349999999999999
 74
     0
 49
0.0
 74
     0
 49
-6.349999999999999
 74
     0
 49
0.0
 74
     0
 49
-6.349999999999999
 74
     0
  0
LTYPE
  5
50
330
5
100
AcDbSymbolTableRecord
100
AcDbLinetypeTableRecord
  2
DIVIDE2
 70
     0
  3
Divide (.5x) __..__..__..__..__..__..__..__.._
 72
    65
 73
     6
 40
15.875
 49
6.349999999999999
 74
     0
 49
-3.174999999999999
 74
     0
 49
0.0
 74
     0
 49
-3.174999999999999
 74
     0
 49
0.0
 74
     0
 49
-3.174999999999999
 74
     0
  0
LTYPE
  5
51
330
5
100
AcDbSymbolTableRecord
100
AcDbLinetypeTableRecord
  2
DIVIDEX2
 70
     0
  3
Divide (2x) ________  .  .  ________  .  .  _
 72
    65
 73
     6
 40
63.49999999999999
 49
25.4
 74
     0
 49
-12.7
 74
     0
 49
0.0
 74
     0
 49
-12.7
 74
     0
 49
0.0
 74
     0
 49
-12.7
 74
     0
  0
LTYPE
  5
52
330
5
100
AcDbSymbolTableRecord
100
AcDbLinetypeTableRecord
  2
DOT
 70
     0
  3
Dot . . . . . . . . . . . . . . . . . . . . . .
 72
    65
 73
     2
 40
6.349999999999999
 49
0.0
 74
     0
 49
-6.349999999999999
 74
     0
  0
LTYPE
  5
53
330
5
100
AcDbSymbolTableRecord
100
AcDbLinetypeTableRecord
  2
DOT2
 70
     0
  3
Dot (.5x) .....................................
 72
    65
 73
     2
 40
3.174999999999999
 49
0.0
 74
     0
 49
-3.174999999999999
 74
     0
  0
LTYPE
  5
54
330
5
100
AcDbSymbolTableRecord
100
AcDbLinetypeTableRecord
  2
DOTX2
 70
     0
  3
Dot (2x) .  .  .  .  .  .  .  .  .  .  .  .  . 
 72
    65
 73
     2
 40
12.7
 49
0.0
 74
     0
 49
-12.7
 74
     0
  0
LTYPE
  5
55
330
5
100
AcDbSymbolTableRecord
100
AcDbLinetypeTableRecord
  2
FENCELINE1
 70
     0
  3
Fenceline circle ----0-----0----0-----0----0---
 72
    65
 73
     4
 40
36.83
 49
6.349999999999999
 74
     0
 49
-2.54
 74
     4
 75
   133
340
33
 46
2.54
 50
0.0
 44
-2.54
 45
0.0
 49
-2.54
 74
     0
 49
25.4
 74
     0
  0
LTYPE
  5
56
330
5
100
AcDbSymbolTableRecord
100
AcDbLinetypeTableRecord
  2
FENCELINE2
 70
     0
  3
Fenceline square ----[]-----[]----[]-----[]----
 72
    65
 73
     4
 40
36.83
 49
6.349999999999999
 74
     0
 49
-2.54
 74
     4
 75
   132
340
33
 46
2.54
 50
0.0
 44
-2.54
 45
0.0
 49
-2.54
 74
     0
 49
25.4
 74
     0
  0
LTYPE
  5
57
330
5
100
AcDbSymbolTableRecord
100
AcDbLinetypeTableRecord
  2
GAS_LINE
 70
     0
  3
Gas line ----GAS----GAS----GAS----GAS----GAS---
 72
    65
 73
     3
 40
24.13
 49
12.7
 74
     0
 49
-5.08
 74
     2
 75
     0
340
11
 46
2.54
 50
0.0
 44
-2.54
 45
-1.27
  9
GAS
 49
-6.349999999999999
 74
     0
  0
LTYPE
  5
58
330
5
100
AcDbSymbolTableRecord
100
AcDbLinetypeTableRecord
  2
HIDDEN
 70
     0
  3
Hidden __ __ __ __ __ __ __ __ __ __ __ __ __ _
 72
    65
 73
     2
 40
9.524999999999998
 49
6.349999999999999
 74
     0
 49
-3.174999999999999
 74
     0
  0
LTYPE
  5
59
330
5
100
AcDbSymbolTableRecord
100
AcDbLinetypeTableRecord
  2
HIDDEN2
 70
     0
  3
Hidden (.5x) _ _ _ _ _ _ _ _ _ _ _ _ _ _ _ _ _
 72
    65
 73
     2
 40
4.762499999999999
 49
3.174999999999999
 74
     0
 49
-1.587499999999999
 74
     0
  0
LTYPE
  5
5A
330
5
100
AcDbSymbolTableRecord
100
AcDbLinetypeTableRecord
  2
HIDDENX2
 70
     0
  3
Hidden (2x) ____ ____ ____ ____ ____ ____ ____
 72
    65
 73
     2
 40
19.05
 49
12.7
 74
     0
 49
-6.349999999999999
 74
     0
  0
LTYPE
  5
5B
330
5
100
AcDbSymbolTableRecord
100
AcDbLinetypeTableRecord
  2
HOT_WATER_SUPPLY
 70
     0
  3
Hot water supply ---- HW ---- HW ---- HW ----
 72
    65
 73
     3
 40
22.86
 49
12.7
 74
     0
 49
-5.08
 74
     2
 75
     0
340
11
 46
2.54
 50
0.0
 44
-2.54
 45
-1.27
  9
HW
 49
-5.08
 74
     0
  0
LTYPE
  5
5C
330
5
100
AcDbSymbolTableRecord
100
AcDbLinetypeTableRecord
  2
PHANTOM
 70
     0
  3
Phantom ______  __  __  ______  __  __  ______
 72
    65
 73
     6
 40
63.5
 49
31.75
 74
     0
 49
-6.349999999999999
 74
     0
 49
6.349999999999999
 74
     0
 49
-6.349999999999999
 74
     0
 49
6.349999999999999
 74
     0
 49
-6.349999999999999
 74
     0
  0
LTYPE
  5
5D
330
5
100
AcDbSymbolTableRecord
100
AcDbLinetypeTableRecord
  2
PHANTOM2
 70
     0
  3
Phantom (.5x) ___ _ _ ___ _ _ ___ _ _ ___ _ _
 72
    65
 73
     6
 40
31.75
 49
15.875
 74
     0
 49
-3.174999999999999
 74
     0
 49
3.174999999999999
 74
     0
 49
-3.174999999999999
 74
     0
 49
3.174999999999999
 74
     0
 49
-3.174999999999999
 74
     0
  0
LTYPE
  5
5E
330
5
100
AcDbSymbolTableRecord
100
AcDbLinetypeTableRecord
  2
PHANTOMX2
 70
     0
  3
Phantom (2x) ____________    ____    ____   _
 72
    65
 73
     6
 40
127.0
 49
63.5
 74
     0
 49
-12.7
 74
     0
 49
12.7
 74
     0
 49
-12.7
 74
     0
 49
12.7
 74
     0
 49
-12.7
 74
     0
  0
LTYPE
  5
5F
330
5
100
AcDbSymbolTableRecord
100
AcDbLinetypeTableRecord
  2
TRACKS
 70
     0
  3
Tracks -|-|-|-|-|-|-|-|-|-|-|-|-|-|-|-|-|-|-|-|
 72
    65
 73
     2
 40
7.62
 49
3.81
 74
     4
 75
   130
340
33
 46
6.349999999999999
 50
0.0
 44
0.0
 45
0.0
 49
3.81
 74
     0
  0
LTYPE
  5
60
330
5
100
AcDbSymbolTableRecord
100
AcDbLinetypeTableRecord
  2
ZIGZAG
 70
     0
  3
Zig zag /\/\/\/\/\/\/\/\/\/\/\/\/\/\/\/\/\/\/\/
 72
    65
 73
     4
 40
20.32254
 49
0.00254
 74
     0
 49
-5.08
 74
     4
 75
   131
340
33
 46
5.08
 50
0.0
 44
-5.08
 45
0.0
 49
-10.16
 74
     4
 75
   131
340
33
 46
5.08
 50
180.0
 44
5.08
 45
0.0
 49
-5.08
 74
     0
  0
ENDTAB
  0
TABLE
  2
LAYER
  5
2
102
{ACAD_XDICTIONARY
360
15FF
102
}
330
0
100
AcDbSymbolTable
 70
     9
  0
LAYER
  5
10
330
2
100
AcDbSymbolTableRecord
100
AcDbLayerTableRecord
  2
0
 70
     0
 62
     7
  6
Continuous
370
    -3
390
F
  0
LAYER
  5
C3
330
2
100
AcDbSymbolTableRecord
100
AcDbLayerTableRecord
  2
Defpoints
 70
     0
 62
     7
  6
Continuous
290
     0
370
    -3
390
F
  0
LAYER
  5
256
330
2
100
AcDbSymbolTableRecord
100
AcDbLayerTableRecord
  2
センター
 70
     0
 62
     7
  6
CENTER2
370
    15
390
F
  0
LAYER
  5
268
330
2
100
AcDbSymbolTableRecord
100
AcDbLayerTableRecord
  2
実形
 70
     0
 62
     7
  6
Continuous
370
    -3
390
F
  0
LAYER
  5
269
330
2
100
AcDbSymbolTableRecord
100
AcDbLayerTableRecord
  2
補助
 70
     0
 62
     7
  6
Continuous
370
    -3
390
F
  0
LAYER
  5
26A
330
2
100
AcDbSymbolTableRecord
100
AcDbLayerTableRecord
  2
寸法
 70
     0
 62
     7
  6
Continuous
370
    -3
390
F
  0
LAYER
  5
26B
330
2
100
AcDbSymbolTableRecord
100
AcDbLayerTableRecord
  2
ハッチング
 70
     0
 62
     7
  6
Continuous
370
    18
390
F
  0
LAYER
  5
26D
330
2
100
AcDbSymbolTableRecord
100
AcDbLayerTableRecord
  2
文字
 70
     0
 62
     7
  6
Continuous
370
    -3
390
F
  0
LAYER
  5
FCC
330
2
100
AcDbSymbolTableRecord
100
AcDbLayerTableRecord
  2
Cen
 70
     0
 62
     7
  6
CENTER2
370
    15
390
F
  0
ENDTAB
  0
TABLE
  2
STYLE
  5
3
330
0
100
AcDbSymbolTable
 70
     5
  0
STYLE
  5
11
330
3
100
AcDbSymbolTableRecord
100
AcDbTextStyleTableRecord
  2
Standard
 70
     0
 40
0.0
 41
1.0
 50
0.0
 71
     0
 42
35.0
  3
txt.shx
  4
bigfont.shx
  0
STYLE
  5
33
330
3
100
AcDbSymbolTableRecord
100
AcDbTextStyleTableRecord
  2

 70
     1
 40
0.0
 41
1.0
 50
0.0
 71
     0
 42
2.5
  3
ltypeshp.shx
  4

  0
STYLE
  5
199C
330
3
100
AcDbSymbolTableRecord
100
AcDbTextStyleTableRecord
  2
MS明朝
 70
     0
 40
0.0
 41
1.0
 50
0.0
 71
     0
 42
35.0
  3
MS Mincho.ttf
  4

1001
ACAD
1000
MS Mincho
1071
    32785
  0
STYLE
  5
1CEE
330
3
100
AcDbSymbolTableRecord
100
AcDbTextStyleTableRecord
  2
ｍｓ明朝
 70
     0
 40
0.0
 41
1.0
 50
0.0
 71
     0
 42
35.0
  3
MS Mincho.ttf
  4

1001
ACAD
1000
MS Mincho
1071
    32785
  0
STYLE
  5
1CEF
330
3
100
AcDbSymbolTableRecord
100
AcDbTextStyleTableRecord
  2
明朝
 70
     0
 40
0.0
 41
1.0
 50
0.0
 71
     0
 42
25.0
  3
MS Mincho.ttf
  4

1001
ACAD
1000
MS Mincho
1071
    32785
  0
ENDTAB
  0
TABLE
  2
VIEW
  5
6
330
0
100
AcDbSymbolTable
 70
     0
  0
ENDTAB
  0
TABLE
  2
UCS
  5
7
330
0
100
AcDbSymbolTable
 70
     0
  0
ENDTAB
  0
TABLE
  2
APPID
  5
9
330
0
100
AcDbSymbolTable
 70
     1
  0
APPID
  5
12
330
9
100
AcDbSymbolTableRecord
100
AcDbRegAppTableRecord
  2
ACAD
 70
     0
  0
ENDTAB
  0
TABLE
  2
DIMSTYLE
  5
A
330
0
100
AcDbSymbolTable
 70
     1
100
AcDbDimStyleTable
 71
     1
340
27
  0
DIMSTYLE
105
27
102
{ACAD_REACTORS
330
50A
330
3F6
330
4E5
330
4FD
330
522
330
3E9
330
40C
330
41A
330
427
330
459
330
466
330
47C
330
492
330
4C3
330
13C4
330
1653
330
16A8
330
1A7F
330
1A9E
330
1ABD
330
1ACE
330
1AED
330
1B0C
330
1D5A
330
1D64
330
1D67
330
1D68
330
1D6B
330
1D6C
330
1D6D
330
1D6E
330
1D70
330
1D71
330
1D72
330
1D73
330
1D74
330
1D75
330
1D7B
330
1D7C
330
1D7D
330
1D85
330
1D86
330
1D87
330
1FCA
330
1FCB
330
1FCC
330
1FCD
330
1FCE
330
2203
330
2204
330
2224
330
2228
330
222C
330
24F1
330
2500
330
2518
330
2540
102
}
330
A
100
AcDbSymbolTableRecord
100
AcDbDimStyleTableRecord
  2
ISO-25
 70
     0
 41
35.0
 42
65.0
 43
3.75
 44
0.0
 73
     0
 74
     0
 77
     1
 78
     8
140
25.0
141
2.5
143
0.03937007874016
147
6.25
171
     3
172
     1
271
     2
272
     2
274
     3
283
     0
284
     8
340
11
341
DA
342
D0
371
    15
372
    15
  0
ENDTAB
  0
TABLE
  2
BLOCK_RECORD
  5
1
330
0
100
AcDbSymbolTable
 70
    63
  0
BLOCK_RECORD
  5
1F
102
{ACAD_XDICTIONARY
360
15EE
102
}
330
1
100
AcDbSymbolTableRecord
100
AcDbBlockTableRecord
  2
*Model_Space
340
22
  0
BLOCK_RECORD
  5
1B
330
1
100
AcDbSymbolTableRecord
100
AcDbBlockTableRecord
  2
*Paper_Space
340
1E
  0
BLOCK_RECORD
  5
23
330
1
100
AcDbSymbolTableRecord
100
AcDbBlockTableRecord
  2
*Paper_Space0
340
26
  0
BLOCK_RECORD
  5
D0
330
1
100
AcDbSymbolTableRecord
100
AcDbBlockTableRecord
  2
_DotSmall
340
0
102
{BLKREFS
331
19CF
331
19D0
331
19D9
331
19DA
331
19E1
331
19E2
331
19EB
331
19EC
331
19F3
331
19F4
331
19FC
331
19FD
331
1A06
331
1A07
331
1A0E
331
1A0F
331
1A18
331
1A19
331
1A22
331
1A23
331
1A2A
331
1A2B
331
1A34
331
1A35
331
1B1D
331
1B1E
331
1B2E
331
1B2F
331
1B36
331
1B37
331
1B48
331
1B49
331
1B50
331
1B51
331
1B59
331
1B5A
331
1B61
331
1B62
331
1B6B
331
1B6C
331
1B74
331
1B75
331
1E8E
331
1E8F
331
1E98
331
1E99
331
1EA0
331
1EA1
331
1EAA
331
1EAB
331
1EB2
331
1EB3
331
1EBB
331
1EBC
331
1EC4
331
1EC5
331
1ECE
331
1ECF
331
1ED6
331
1ED7
331
1EDF
331
1EE0
331
1EE8
331
1EE9
331
1EF1
331
1EF2
331
1EFA
331
1EFB
331
1F03
331
1F04
331
1F0C
331
1F0D
331
1F15
331
1F16
331
1F1E
331
1F1F
331
1F27
331
1F28
331
1F30
331
1F31
331
20C8
331
20C9
331
20D1
331
20D2
331
20DB
331
20DC
331
20E6
331
20E7
331
20F1
331
20F2
331
20FA
331
20FB
331
2579
331
257A
331
2583
331
2584
331
258B
331
258C
331
2594
331
2595
331
259E
331
259F
331
25A6
331
25A7
331
25B2
331
25B3
331
25B9
331
25BA
331
25C1
331
25C2
331
25CA
331
25CB
102
}
  0
BLOCK_RECORD
  5
D4
330
1
100
AcDbSymbolTableRecord
100
AcDbBlockTableRecord
  2
_Origin2
340
0
  0
BLOCK_RECORD
  5
DA
330
1
100
AcDbSymbolTableRecord
100
AcDbBlockTableRecord
  2
_Open30
340
0
  0
BLOCK_RECORD
  5
3EA
330
1
100
AcDbSymbolTableRecord
100
AcDbBlockTableRecord
  2
*D4
340
0
  0
BLOCK_RECORD
  5
3F7
330
1
100
AcDbSymbolTableRecord
100
AcDbBlockTableRecord
  2
*D5
340
0
  0
BLOCK_RECORD
  5
40D
330
1
100
AcDbSymbolTableRecord
100
AcDbBlockTableRecord
  2
*D6
340
0
  0
BLOCK_RECORD
  5
41B
330
1
100
AcDbSymbolTableRecord
100
AcDbBlockTableRecord
  2
*D7
340
0
  0
BLOCK_RECORD
  5
428
330
1
100
AcDbSymbolTableRecord
100
AcDbBlockTableRecord
  2
*D8
340
0
  0
BLOCK_RECORD
  5
45A
330
1
100
AcDbSymbolTableRecord
100
AcDbBlockTableRecord
  2
*D9
340
0
  0
BLOCK_RECORD
  5
467
330
1
100
AcDbSymbolTableRecord
100
AcDbBlockTableRecord
  2
*D10
340
0
  0
BLOCK_RECORD
  5
47D
330
1
100
AcDbSymbolTableRecord
100
AcDbBlockTableRecord
  2
*D11
340
0
  0
BLOCK_RECORD
  5
493
330
1
100
AcDbSymbolTableRecord
100
AcDbBlockTableRecord
  2
*D12
340
0
  0
BLOCK_RECORD
  5
4C4
330
1
100
AcDbSymbolTableRecord
100
AcDbBlockTableRecord
  2
*D13
340
0
  0
BLOCK_RECORD
  5
4E6
330
1
100
AcDbSymbolTableRecord
100
AcDbBlockTableRecord
  2
*D14
340
0
  0
BLOCK_RECORD
  5
4FE
330
1
100
AcDbSymbolTableRecord
100
AcDbBlockTableRecord
  2
*D15
340
0
  0
BLOCK_RECORD
  5
50B
330
1
100
AcDbSymbolTableRecord
100
AcDbBlockTableRecord
  2
*D16
340
0
  0
BLOCK_RECORD
  5
523
330
1
100
AcDbSymbolTableRecord
100
AcDbBlockTableRecord
  2
*D17
340
0
  0
BLOCK_RECORD
  5
13D2
330
1
100
AcDbSymbolTableRecord
100
AcDbBlockTableRecord
  2
*D18
340
0
  0
BLOCK_RECORD
  5
1693
330
1
100
AcDbSymbolTableRecord
100
AcDbBlockTableRecord
  2
*D19
340
0
  0
BLOCK_RECORD
  5
16A9
330
1
100
AcDbSymbolTableRecord
100
AcDbBlockTableRecord
  2
*D20
340
0
  0
BLOCK_RECORD
  5
172A
330
1
100
AcDbSymbolTableRecord
100
AcDbBlockTableRecord
  2
_None
340
0
  0
BLOCK_RECORD
  5
1A80
330
1
100
AcDbSymbolTableRecord
100
AcDbBlockTableRecord
  2
*D22
340
0
  0
BLOCK_RECORD
  5
1A9F
330
1
100
AcDbSymbolTableRecord
100
AcDbBlockTableRecord
  2
*D23
340
0
  0
BLOCK_RECORD
  5
1ABE
330
1
100
AcDbSymbolTableRecord
100
AcDbBlockTableRecord
  2
*D24
340
0
  0
BLOCK_RECORD
  5
1ACF
330
1
100
AcDbSymbolTableRecord
100
AcDbBlockTableRecord
  2
*D25
340
0
  0
BLOCK_RECORD
  5
1AEE
330
1
100
AcDbSymbolTableRecord
100
AcDbBlockTableRecord
  2
*D26
340
0
  0
BLOCK_RECORD
  5
1B0D
330
1
100
AcDbSymbolTableRecord
100
AcDbBlockTableRecord
  2
*D27
340
0
  0
BLOCK_RECORD
  5
1D98
330
1
100
AcDbSymbolTableRecord
100
AcDbBlockTableRecord
  2
*D28
340
0
  0
BLOCK_RECORD
  5
1DA1
330
1
100
AcDbSymbolTableRecord
100
AcDbBlockTableRecord
  2
*D29
340
0
  0
BLOCK_RECORD
  5
1DAD
330
1
100
AcDbSymbolTableRecord
100
AcDbBlockTableRecord
  2
*D30
340
0
  0
BLOCK_RECORD
  5
1DB9
330
1
100
AcDbSymbolTableRecord
100
AcDbBlockTableRecord
  2
*D31
340
0
  0
BLOCK_RECORD
  5
1DC5
330
1
100
AcDbSymbolTableRecord
100
AcDbBlockTableRecord
  2
*D32
340
0
  0
BLOCK_RECORD
  5
1DD1
330
1
100
AcDbSymbolTableRecord
100
AcDbBlockTableRecord
  2
*D33
340
0
  0
BLOCK_RECORD
  5
1DDD
330
1
100
AcDbSymbolTableRecord
100
AcDbBlockTableRecord
  2
*D34
340
0
  0
BLOCK_RECORD
  5
1DE9
330
1
100
AcDbSymbolTableRecord
100
AcDbBlockTableRecord
  2
*D35
340
0
  0
BLOCK_RECORD
  5
1DF5
330
1
100
AcDbSymbolTableRecord
100
AcDbBlockTableRecord
  2
*D36
340
0
  0
BLOCK_RECORD
  5
1E01
330
1
100
AcDbSymbolTableRecord
100
AcDbBlockTableRecord
  2
*D37
340
0
  0
BLOCK_RECORD
  5
1E0D
330
1
100
AcDbSymbolTableRecord
100
AcDbBlockTableRecord
  2
*D38
340
0
  0
BLOCK_RECORD
  5
1E19
330
1
100
AcDbSymbolTableRecord
100
AcDbBlockTableRecord
  2
*D39
340
0
  0
BLOCK_RECORD
  5
1E25
330
1
100
AcDbSymbolTableRecord
100
AcDbBlockTableRecord
  2
*D40
340
0
  0
BLOCK_RECORD
  5
1E31
330
1
100
AcDbSymbolTableRecord
100
AcDbBlockTableRecord
  2
*D41
340
0
  0
BLOCK_RECORD
  5
1E3D
330
1
100
AcDbSymbolTableRecord
100
AcDbBlockTableRecord
  2
*D42
340
0
  0
BLOCK_RECORD
  5
1E49
330
1
100
AcDbSymbolTableRecord
100
AcDbBlockTableRecord
  2
*D43
340
0
  0
BLOCK_RECORD
  5
1E55
330
1
100
AcDbSymbolTableRecord
100
AcDbBlockTableRecord
  2
*D44
340
0
  0
BLOCK_RECORD
  5
1E61
330
1
100
AcDbSymbolTableRecord
100
AcDbBlockTableRecord
  2
*D45
340
0
  0
BLOCK_RECORD
  5
1E6D
330
1
100
AcDbSymbolTableRecord
100
AcDbBlockTableRecord
  2
*D46
340
0
  0
BLOCK_RECORD
  5
1E79
330
1
100
AcDbSymbolTableRecord
100
AcDbBlockTableRecord
  2
*D47
340
0
  0
BLOCK_RECORD
  5
1F53
102
{ACAD_XDICTIONARY
360
1F55
102
}
330
1
100
AcDbSymbolTableRecord
100
AcDbBlockTableRecord
  2
A$C537F0D52
340
0
  0
BLOCK_RECORD
  5
1FD7
330
1
100
AcDbSymbolTableRecord
100
AcDbBlockTableRecord
  2
*D49
340
0
  0
BLOCK_RECORD
  5
1FE3
330
1
100
AcDbSymbolTableRecord
100
AcDbBlockTableRecord
  2
*D50
340
0
  0
BLOCK_RECORD
  5
1FF1
330
1
100
AcDbSymbolTableRecord
100
AcDbBlockTableRecord
  2
*D51
340
0
  0
BLOCK_RECORD
  5
1FFD
330
1
100
AcDbSymbolTableRecord
100
AcDbBlockTableRecord
  2
*D52
340
0
  0
BLOCK_RECORD
  5
2009
330
1
100
AcDbSymbolTableRecord
100
AcDbBlockTableRecord
  2
*D53
340
0
  0
BLOCK_RECORD
  5
226A
330
1
100
AcDbSymbolTableRecord
100
AcDbBlockTableRecord
  2
*D54
340
0
  0
BLOCK_RECORD
  5
2276
330
1
100
AcDbSymbolTableRecord
100
AcDbBlockTableRecord
  2
*D55
340
0
  0
BLOCK_RECORD
  5
228D
330
1
100
AcDbSymbolTableRecord
100
AcDbBlockTableRecord
  2
*D56
340
0
  0
BLOCK_RECORD
  5
2299
330
1
100
AcDbSymbolTableRecord
100
AcDbBlockTableRecord
  2
*D57
340
0
  0
BLOCK_RECORD
  5
22A3
330
1
100
AcDbSymbolTableRecord
100
AcDbBlockTableRecord
  2
*D58
340
0
  0
BLOCK_RECORD
  5
24F2
330
1
100
AcDbSymbolTableRecord
100
AcDbBlockTableRecord
  2
*D59
340
0
  0
BLOCK_RECORD
  5
2501
330
1
100
AcDbSymbolTableRecord
100
AcDbBlockTableRecord
  2
*D60
340
0
  0
BLOCK_RECORD
  5
2519
330
1
100
AcDbSymbolTableRecord
100
AcDbBlockTableRecord
  2
*D61
340
0
  0
BLOCK_RECORD
  5
2541
330
1
100
AcDbSymbolTableRecord
100
AcDbBlockTableRecord
  2
*D62
340
0
  0
ENDTAB
  0
ENDSEC
  0
SECTION
  2
BLOCKS
  0
BLOCK
  5
20
330
1F
100
AcDbEntity
  8
0
100
AcDbBlockBegin
  2
*Model_Space
 70
     0
 10
0.0
 20
0.0
 30
0.0
  3
*Model_Space
  1

  0
ENDBLK
  5
21
330
1F
100
AcDbEntity
  8
0
100
AcDbBlockEnd
  0
BLOCK
  5
1C
330
1B
100
AcDbEntity
 67
     1
  8
0
100
AcDbBlockBegin
  2
*Paper_Space
 70
     0
 10
0.0
 20
0.0
 30
0.0
  3
*Paper_Space
  1

  0
ENDBLK
  5
1D
330
1B
100
AcDbEntity
 67
     1
  8
0
100
AcDbBlockEnd
  0
BLOCK
  5
24
330
23
100
AcDbEntity
  8
0
100
AcDbBlockBegin
  2
*Paper_Space0
 70
     0
 10
0.0
 20
0.0
 30
0.0
  3
*Paper_Space0
  1

  0
ENDBLK
  5
25
330
23
100
AcDbEntity
  8
0
100
AcDbBlockEnd
  0
BLOCK
  5
D2
330
D0
100
AcDbEntity
  8
0
100
AcDbBlockBegin
  2
_DotSmall
 70
     0
 10
0.0
 20
0.0
 30
0.0
  3
_DotSmall
  1

  0
LWPOLYLINE
  5
D1
330
D0
100
AcDbEntity
  8
0
 62
     0
100
AcDbPolyline
 90
        2
 70
     1
 43
0.5
 10
-0.0625
 20
0.0
 42
1.0
 10
0.0625
 20
0.0
 42
1.0
  0
ENDBLK
  5
D3
330
D0
100
AcDbEntity
  8
0
100
AcDbBlockEnd
  0
BLOCK
  5
D8
330
D4
100
AcDbEntity
  8
0
100
AcDbBlockBegin
  2
_Origin2
 70
     0
 10
0.0
 20
0.0
 30
0.0
  3
_Origin2
  1

  0
CIRCLE
  5
D5
330
D4
100
AcDbEntity
  8
0
 62
     0
370
    -2
100
AcDbCircle
 10
0.0
 20
0.0
 30
0.0
 40
0.5
  0
CIRCLE
  5
D6
330
D4
100
AcDbEntity
  8
0
 62
     0
370
    -2
100
AcDbCircle
 10
0.0
 20
0.0
 30
0.0
 40
0.25
  0
LINE
  5
D7
330
D4
100
AcDbEntity
  8
0
 62
     0
370
    -2
100
AcDbLine
 10
-0.5
 20
0.0
 30
0.0
 11
-1.0
 21
0.0
 31
0.0
  0
ENDBLK
  5
D9
330
D4
100
AcDbEntity
  8
0
100
AcDbBlockEnd
  0
BLOCK
  5
DE
330
DA
100
AcDbEntity
  8
0
100
AcDbBlockBegin
  2
_Open30
 70
     0
 10
0.0
 20
0.0
 30
0.0
  3
_Open30
  1

  0
LINE
  5
DB
330
DA
100
AcDbEntity
  8
0
 62
     0
370
    -2
100
AcDbLine
 10
-1.0
 20
0.26794919
 30
0.0
 11
0.0
 21
0.0
 31
0.0
  0
LINE
  5
DC
330
DA
100
AcDbEntity
  8
0
 62
     0
370
    -2
100
AcDbLine
 10
0.0
 20
0.0
 30
0.0
 11
-1.0
 21
-0.26794919
 31
0.0
  0
LINE
  5
DD
330
DA
100
AcDbEntity
  8
0
 62
     0
370
    -2
100
AcDbLine
 10
0.0
 20
0.0
 30
0.0
 11
-1.0
 21
0.0
 31
0.0
  0
ENDBLK
  5
DF
330
DA
100
AcDbEntity
  8
0
100
AcDbBlockEnd
  0
BLOCK
  5
3F4
330
3EA
100
AcDbEntity
  8
0
100
AcDbBlockBegin
  2
*D4
 70
     1
 10
0.0
 20
0.0
 30
0.0
  3
*D4
  1

  0
LINE
  5
1B5F
330
3EA
100
AcDbEntity
  8
寸法
 62
     0
370
    15
100
AcDbLine
 10
980.1485995351814
 20
1401.249356137093
 30
0.0
 11
841.0822619048531
 21
1401.249356137093
 31
0.0
  0
LINE
  5
1B60
330
3EA
100
AcDbEntity
  8
寸法
 62
     0
370
    15
100
AcDbLine
 10
841.0822619048531
 20
1401.249356137093
 30
0.0
 11
841.0822619048531
 21
1531.249356137093
 31
0.0
  0
INSERT
  5
1B61
330
3EA
100
AcDbEntity
  8
寸法
 62
     0
370
    15
100
AcDbBlockReference
  2
_DotSmall
 10
841.0822619048531
 20
1401.249356137093
 30
0.0
 41
35.0
 42
35.0
 43
35.0
 50
270.0
  0
INSERT
  5
1B62
330
3EA
100
AcDbEntity
  8
寸法
 62
     0
370
    15
100
AcDbBlockReference
  2
_DotSmall
 10
841.0822619048531
 20
1531.249356137093
 30
0.0
 41
35.0
 42
35.0
 43
35.0
 50
90.0
  0
MTEXT
  5
1B63
330
3EA
100
AcDbEntity
  8
寸法
 62
     0
100
AcDbMText
 10
822.3322619048529
 20
1466.249356137093
 30
0.0
 40
25.0
 41
0.0
 71
     5
 72
     1
  1
130
 11
0.0000000000000001
 21
1.0
 31
0.0
 73
     1
 44
1.0
1001
ACAD
1000
MTEXTBEGIN
1070
    73
1070
     1
1070
    44
1040
1.0
1070
    74
1070
     0
1000
MTEXTEND
  0
POINT
  5
1B64
330
3EA
100
AcDbEntity
  8
Defpoints
 62
     0
100
AcDbPoint
 10
1045.148599535181
 20
1401.249356137093
 30
0.0
  0
POINT
  5
1B65
330
3EA
100
AcDbEntity
  8
Defpoints
 62
     0
100
AcDbPoint
 10
841.0822619048531
 20
1531.249356137093
 30
0.0
  0
POINT
  5
1B66
330
3EA
100
AcDbEntity
  8
Defpoints
 62
     0
100
AcDbPoint
 10
841.0822619048531
 20
1531.249356137093
 30
0.0
  0
ENDBLK
  5
3F5
330
3EA
100
AcDbEntity
  8
0
100
AcDbBlockEnd
  0
BLOCK
  5
401
330
3F7
100
AcDbEntity
  8
0
100
AcDbBlockBegin
  2
*D5
 70
     1
 10
0.0
 20
0.0
 30
0.0
  3
*D5
  1

  0
LINE
  5
19CC
330
3F7
100
AcDbEntity
  8
寸法
 62
     0
370
    15
100
AcDbLine
 10
1110.282013516542
 20
1256.749356137093
 30
0.0
 11
1110.282013516542
 21
1248.656589866092
 31
0.0
  0
LINE
  5
19CD
330
3F7
100
AcDbEntity
  8
寸法
 62
     0
370
    15
100
AcDbLine
 10
1260.282013516542
 20
1245.749356137093
 30
0.0
 11
1260.282013516542
 21
1248.656589866092
 31
0.0
  0
LINE
  5
19CE
330
3F7
100
AcDbEntity
  8
寸法
 62
     0
370
    15
100
AcDbLine
 10
1110.282013516542
 20
1248.656589866092
 30
0.0
 11
1260.282013516542
 21
1248.656589866092
 31
0.0
  0
INSERT
  5
19CF
330
3F7
100
AcDbEntity
  8
寸法
 62
     0
370
    15
100
AcDbBlockReference
  2
_DotSmall
 10
1110.282013516542
 20
1248.656589866092
 30
0.0
 41
35.0
 42
35.0
 43
35.0
 50
180.0
  0
INSERT
  5
19D0
330
3F7
100
AcDbEntity
  8
寸法
 62
     0
370
    15
100
AcDbBlockReference
  2
_DotSmall
 10
1260.282013516542
 20
1248.656589866092
 30
0.0
 41
35.0
 42
35.0
 43
35.0
  0
MTEXT
  5
19D1
330
3F7
100
AcDbEntity
  8
寸法
 62
     0
100
AcDbMText
 10
1185.282013516542
 20
1267.406589866092
 30
0.0
 40
25.0
 41
0.0
 71
     5
 72
     1
  1
150
 73
     1
 44
1.0
1001
ACAD
1000
MTEXTBEGIN
1070
    73
1070
     1
1070
    44
1040
1.0
1070
    74
1070
     0
1000
MTEXTEND
  0
POINT
  5
19D2
330
3F7
100
AcDbEntity
  8
Defpoints
 62
     0
100
AcDbPoint
 10
1110.282013516542
 20
1321.749356137093
 30
0.0
  0
POINT
  5
19D3
330
3F7
100
AcDbEntity
  8
Defpoints
 62
     0
100
AcDbPoint
 10
1260.282013516542
 20
1310.749356137093
 30
0.0
  0
POINT
  5
19D4
330
3F7
100
AcDbEntity
  8
Defpoints
 62
     0
100
AcDbPoint
 10
1260.282013516542
 20
1248.656589866092
 30
0.0
  0
ENDBLK
  5
402
330
3F7
100
AcDbEntity
  8
0
100
AcDbBlockEnd
  0
BLOCK
  5
418
330
40D
100
AcDbEntity
  8
0
100
AcDbBlockBegin
  2
*D6
 70
     1
 10
0.0
 20
0.0
 30
0.0
  3
*D6
  1

  0
LINE
  5
19D5
330
40D
100
AcDbEntity
  8
寸法
 62
     0
370
    15
100
AcDbLine
 10
380.2820135165421
 20
1106.249356137093
 30
0.0
 11
341.3980976233444
 21
1106.249356137093
 31
0.0
  0
LINE
  5
19D6
330
40D
100
AcDbEntity
  8
寸法
 62
     0
370
    15
100
AcDbLine
 10
380.2820135165421
 20
1121.249356137093
 30
0.0
 11
341.3980976233444
 21
1121.249356137093
 31
0.0
  0
LINE
  5
19D7
330
40D
100
AcDbEntity
  8
寸法
 62
     0
370
    15
100
AcDbLine
 10
341.3980976233444
 20
1106.249356137093
 30
0.0
 11
341.3980976233444
 21
1121.249356137093
 31
0.0
  0
MTEXT
  5
19D8
330
40D
100
AcDbEntity
  8
寸法
 62
     0
100
AcDbMText
 10
317.0834741536355
 20
1131.252548898827
 30
0.0
 40
25.0
 41
0.0
 71
     5
 72
     1
  1
15
 11
0.0000000000000001
 21
1.0
 31
0.0
 73
     1
 44
1.0
1001
ACAD
1000
MTEXTBEGIN
1070
    73
1070
     1
1070
    44
1040
1.0
1070
    74
1070
     0
1000
MTEXTEND
  0
INSERT
  5
19D9
330
40D
100
AcDbEntity
  8
寸法
 62
     0
370
    15
100
AcDbBlockReference
  2
_DotSmall
 10
341.3980976233444
 20
1106.249356137093
 30
0.0
 41
35.0
 42
35.0
 43
35.0
 50
270.0
  0
INSERT
  5
19DA
330
40D
100
AcDbEntity
  8
寸法
 62
     0
370
    15
100
AcDbBlockReference
  2
_DotSmall
 10
341.3980976233444
 20
1121.249356137093
 30
0.0
 41
35.0
 42
35.0
 43
35.0
 50
90.0
  0
POINT
  5
19DB
330
40D
100
AcDbEntity
  8
Defpoints
 62
     0
100
AcDbPoint
 10
445.2820135165421
 20
1106.249356137093
 30
0.0
  0
POINT
  5
19DC
330
40D
100
AcDbEntity
  8
Defpoints
 62
     0
100
AcDbPoint
 10
445.2820135165421
 20
1121.249356137093
 30
0.0
  0
POINT
  5
19DD
330
40D
100
AcDbEntity
  8
Defpoints
 62
     0
100
AcDbPoint
 10
341.3980976233444
 20
1121.249356137093
 30
0.0
  0
ENDBLK
  5
419
330
40D
100
AcDbEntity
  8
0
100
AcDbBlockEnd
  0
BLOCK
  5
425
330
41B
100
AcDbEntity
  8
0
100
AcDbBlockBegin
  2
*D7
 70
     1
 10
0.0
 20
0.0
 30
0.0
  3
*D7
  1

  0
LINE
  5
19DE
330
41B
100
AcDbEntity
  8
寸法
 62
     0
370
    15
100
AcDbLine
 10
380.2820135165421
 20
1121.249356137093
 30
0.0
 11
341.4863526549825
 21
1121.249356137093
 31
0.0
  0
LINE
  5
19DF
330
41B
100
AcDbEntity
  8
寸法
 62
     0
370
    15
100
AcDbLine
 10
380.2820135165421
 20
1531.249356137093
 30
0.0
 11
341.4863526549826
 21
1531.249356137093
 31
0.0
  0
LINE
  5
19E0
330
41B
100
AcDbEntity
  8
寸法
 62
     0
370
    15
100
AcDbLine
 10
341.4863526549825
 20
1121.249356137093
 30
0.0
 11
341.4863526549826
 21
1531.249356137093
 31
0.0
  0
INSERT
  5
19E1
330
41B
100
AcDbEntity
  8
寸法
 62
     0
370
    15
100
AcDbBlockReference
  2
_DotSmall
 10
341.4863526549825
 20
1121.249356137093
 30
0.0
 41
35.0
 42
35.0
 43
35.0
 50
270.0
  0
INSERT
  5
19E2
330
41B
100
AcDbEntity
  8
寸法
 62
     0
370
    15
100
AcDbBlockReference
  2
_DotSmall
 10
341.4863526549826
 20
1531.249356137093
 30
0.0
 41
35.0
 42
35.0
 43
35.0
 50
90.0
  0
MTEXT
  5
19E3
330
41B
100
AcDbEntity
  8
寸法
 62
     0
100
AcDbMText
 10
322.7363526549823
 20
1326.249356137093
 30
0.0
 40
25.0
 41
0.0
 71
     5
 72
     1
  1
410
 11
0.0000000000000001
 21
1.0
 31
0.0
 73
     1
 44
1.0
1001
ACAD
1000
MTEXTBEGIN
1070
    73
1070
     1
1070
    44
1040
1.0
1070
    74
1070
     0
1000
MTEXTEND
  0
POINT
  5
19E4
330
41B
100
AcDbEntity
  8
Defpoints
 62
     0
100
AcDbPoint
 10
445.2820135165421
 20
1121.249356137093
 30
0.0
  0
POINT
  5
19E5
330
41B
100
AcDbEntity
  8
Defpoints
 62
     0
100
AcDbPoint
 10
445.2820135165421
 20
1531.249356137093
 30
0.0
  0
POINT
  5
19E6
330
41B
100
AcDbEntity
  8
Defpoints
 62
     0
100
AcDbPoint
 10
341.4863526549826
 20
1531.249356137093
 30
0.0
  0
ENDBLK
  5
426
330
41B
100
AcDbEntity
  8
0
100
AcDbBlockEnd
  0
BLOCK
  5
432
330
428
100
AcDbEntity
  8
0
100
AcDbBlockBegin
  2
*D8
 70
     1
 10
0.0
 20
0.0
 30
0.0
  3
*D8
  1

  0
LINE
  5
19E7
330
428
100
AcDbEntity
  8
寸法
 62
     0
370
    15
100
AcDbLine
 10
380.2820135165421
 20
1531.249356137093
 30
0.0
 11
341.4863526549826
 21
1531.249356137093
 31
0.0
  0
LINE
  5
19E8
330
428
100
AcDbEntity
  8
寸法
 62
     0
370
    15
100
AcDbLine
 10
380.2820135165421
 20
1546.249356137093
 30
0.0
 11
341.4863526549826
 21
1546.249356137093
 31
0.0
  0
LINE
  5
19E9
330
428
100
AcDbEntity
  8
寸法
 62
     0
370
    15
100
AcDbLine
 10
341.4863526549826
 20
1531.249356137093
 30
0.0
 11
341.4863526549826
 21
1546.249356137093
 31
0.0
  0
MTEXT
  5
19EA
330
428
100
AcDbEntity
  8
寸法
 62
     0
100
AcDbMText
 10
314.0441420487123
 20
1523.016207680146
 30
0.0
 40
25.0
 41
0.0
 71
     5
 72
     1
  1
15
 11
0.0000000000000001
 21
1.0
 31
0.0
 73
     1
 44
1.0
1001
ACAD
1000
MTEXTBEGIN
1070
    73
1070
     1
1070
    44
1040
1.0
1070
    74
1070
     0
1000
MTEXTEND
  0
INSERT
  5
19EB
330
428
100
AcDbEntity
  8
寸法
 62
     0
370
    15
100
AcDbBlockReference
  2
_DotSmall
 10
341.4863526549826
 20
1531.249356137093
 30
0.0
 41
35.0
 42
35.0
 43
35.0
 50
270.0
  0
INSERT
  5
19EC
330
428
100
AcDbEntity
  8
寸法
 62
     0
370
    15
100
AcDbBlockReference
  2
_DotSmall
 10
341.4863526549826
 20
1546.249356137093
 30
0.0
 41
35.0
 42
35.0
 43
35.0
 50
90.0
  0
POINT
  5
19ED
330
428
100
AcDbEntity
  8
Defpoints
 62
     0
100
AcDbPoint
 10
445.2820135165421
 20
1531.249356137093
 30
0.0
  0
POINT
  5
19EE
330
428
100
AcDbEntity
  8
Defpoints
 62
     0
100
AcDbPoint
 10
445.2820135165421
 20
1546.249356137093
 30
0.0
  0
POINT
  5
19EF
330
428
100
AcDbEntity
  8
Defpoints
 62
     0
100
AcDbPoint
 10
341.4863526549826
 20
1546.249356137093
 30
0.0
  0
ENDBLK
  5
433
330
428
100
AcDbEntity
  8
0
100
AcDbBlockEnd
  0
BLOCK
  5
464
330
45A
100
AcDbEntity
  8
0
100
AcDbBlockBegin
  2
*D9
 70
     1
 10
0.0
 20
0.0
 30
0.0
  3
*D9
  1

  0
LINE
  5
19F0
330
45A
100
AcDbEntity
  8
寸法
 62
     0
370
    15
100
AcDbLine
 10
380.2820135165421
 20
1546.249356137093
 30
0.0
 11
264.9939104154256
 21
1546.249356137093
 31
0.0
  0
LINE
  5
19F1
330
45A
100
AcDbEntity
  8
寸法
 62
     0
370
    15
100
AcDbLine
 10
380.2820135165421
 20
1106.249356137093
 30
0.0
 11
264.9939104154255
 21
1106.249356137093
 31
0.0
  0
LINE
  5
19F2
330
45A
100
AcDbEntity
  8
寸法
 62
     0
370
    15
100
AcDbLine
 10
264.9939104154256
 20
1546.249356137093
 30
0.0
 11
264.9939104154255
 21
1106.249356137093
 31
0.0
  0
INSERT
  5
19F3
330
45A
100
AcDbEntity
  8
寸法
 62
     0
370
    15
100
AcDbBlockReference
  2
_DotSmall
 10
264.9939104154256
 20
1546.249356137093
 30
0.0
 41
35.0
 42
35.0
 43
35.0
 50
90.0
  0
INSERT
  5
19F4
330
45A
100
AcDbEntity
  8
寸法
 62
     0
370
    15
100
AcDbBlockReference
  2
_DotSmall
 10
264.9939104154255
 20
1106.249356137093
 30
0.0
 41
35.0
 42
35.0
 43
35.0
 50
270.0
  0
MTEXT
  5
19F5
330
45A
100
AcDbEntity
  8
寸法
 62
     0
100
AcDbMText
 10
246.2439104154253
 20
1326.249356137093
 30
0.0
 40
25.0
 41
0.0
 71
     5
 72
     1
  1
440
 11
0.0000000000000001
 21
1.0
 31
0.0
 73
     1
 44
1.0
1001
ACAD
1000
MTEXTBEGIN
1070
    73
1070
     1
1070
    44
1040
1.0
1070
    74
1070
     0
1000
MTEXTEND
  0
POINT
  5
19F6
330
45A
100
AcDbEntity
  8
Defpoints
 62
     0
100
AcDbPoint
 10
445.2820135165421
 20
1546.249356137093
 30
0.0
  0
POINT
  5
19F7
330
45A
100
AcDbEntity
  8
Defpoints
 62
     0
100
AcDbPoint
 10
445.2820135165421
 20
1106.249356137093
 30
0.0
  0
POINT
  5
19F8
330
45A
100
AcDbEntity
  8
Defpoints
 62
     0
100
AcDbPoint
 10
264.9939104154255
 20
1106.249356137093
 30
0.0
  0
ENDBLK
  5
465
330
45A
100
AcDbEntity
  8
0
100
AcDbBlockEnd
  0
BLOCK
  5
471
330
467
100
AcDbEntity
  8
0
100
AcDbBlockBegin
  2
*D10
 70
     1
 10
0.0
 20
0.0
 30
0.0
  3
*D10
  1

  0
LINE
  5
19F9
330
467
100
AcDbEntity
  8
寸法
 62
     0
370
    15
100
AcDbLine
 10
380.2820135165421
 20
1546.249356137093
 30
0.0
 11
264.9939104154255
 21
1546.249356137093
 31
0.0
  0
LINE
  5
19FA
330
467
100
AcDbEntity
  8
寸法
 62
     0
370
    15
100
AcDbLine
 10
380.2820135165421
 20
1626.249356137093
 30
0.0
 11
264.9939104154255
 21
1626.249356137093
 31
0.0
  0
LINE
  5
19FB
330
467
100
AcDbEntity
  8
寸法
 62
     0
370
    15
100
AcDbLine
 10
264.9939104154255
 20
1546.249356137093
 30
0.0
 11
264.9939104154255
 21
1626.249356137093
 31
0.0
  0
INSERT
  5
19FC
330
467
100
AcDbEntity
  8
寸法
 62
     0
370
    15
100
AcDbBlockReference
  2
_DotSmall
 10
264.9939104154255
 20
1546.249356137093
 30
0.0
 41
35.0
 42
35.0
 43
35.0
 50
270.0
  0
INSERT
  5
19FD
330
467
100
AcDbEntity
  8
寸法
 62
     0
370
    15
100
AcDbBlockReference
  2
_DotSmall
 10
264.9939104154255
 20
1626.249356137093
 30
0.0
 41
35.0
 42
35.0
 43
35.0
 50
90.0
  0
MTEXT
  5
19FE
330
467
100
AcDbEntity
  8
寸法
 62
     0
100
AcDbMText
 10
246.2439104154253
 20
1586.249356137093
 30
0.0
 40
25.0
 41
0.0
 71
     5
 72
     1
  1
80
 11
0.0000000000000001
 21
1.0
 31
0.0
 73
     1
 44
1.0
1001
ACAD
1000
MTEXTBEGIN
1070
    73
1070
     1
1070
    44
1040
1.0
1070
    74
1070
     0
1000
MTEXTEND
  0
POINT
  5
19FF
330
467
100
AcDbEntity
  8
Defpoints
 62
     0
100
AcDbPoint
 10
445.2820135165421
 20
1546.249356137093
 30
0.0
  0
POINT
  5
1A00
330
467
100
AcDbEntity
  8
Defpoints
 62
     0
100
AcDbPoint
 10
445.2820135165421
 20
1626.249356137093
 30
0.0
  0
POINT
  5
1A01
330
467
100
AcDbEntity
  8
Defpoints
 62
     0
100
AcDbPoint
 10
264.9939104154255
 20
1626.249356137093
 30
0.0
  0
ENDBLK
  5
472
330
467
100
AcDbEntity
  8
0
100
AcDbBlockEnd
  0
BLOCK
  5
487
330
47D
100
AcDbEntity
  8
0
100
AcDbBlockBegin
  2
*D11
 70
     1
 10
0.0
 20
0.0
 30
0.0
  3
*D11
  1

  0
LINE
  5
1A02
330
47D
100
AcDbEntity
  8
寸法
 62
     0
370
    15
100
AcDbLine
 10
380.2820135165421
 20
1626.249356137093
 30
0.0
 11
264.9939104154255
 21
1626.249356137093
 31
0.0
  0
LINE
  5
1A03
330
47D
100
AcDbEntity
  8
寸法
 62
     0
370
    15
100
AcDbLine
 10
380.2820135165421
 20
1641.249356137093
 30
0.0
 11
264.9939104154255
 21
1641.249356137093
 31
0.0
  0
LINE
  5
1A04
330
47D
100
AcDbEntity
  8
寸法
 62
     0
370
    15
100
AcDbLine
 10
264.9939104154255
 20
1626.249356137093
 30
0.0
 11
264.9939104154255
 21
1641.249356137093
 31
0.0
  0
MTEXT
  5
1A05
330
47D
100
AcDbEntity
  8
寸法
 62
     0
100
AcDbMText
 10
256.7590007208273
 20
1668.176075417425
 30
0.0
 40
25.0
 41
0.0
 71
     5
 72
     1
  1
15
 11
0.0000000000000001
 21
1.0
 31
0.0
 73
     1
 44
1.0
1001
ACAD
1000
MTEXTBEGIN
1070
    73
1070
     1
1070
    44
1040
1.0
1070
    74
1070
     0
1000
MTEXTEND
  0
INSERT
  5
1A06
330
47D
100
AcDbEntity
  8
寸法
 62
     0
370
    15
100
AcDbBlockReference
  2
_DotSmall
 10
264.9939104154255
 20
1626.249356137093
 30
0.0
 41
35.0
 42
35.0
 43
35.0
 50
270.0
  0
INSERT
  5
1A07
330
47D
100
AcDbEntity
  8
寸法
 62
     0
370
    15
100
AcDbBlockReference
  2
_DotSmall
 10
264.9939104154255
 20
1641.249356137093
 30
0.0
 41
35.0
 42
35.0
 43
35.0
 50
90.0
  0
POINT
  5
1A08
330
47D
100
AcDbEntity
  8
Defpoints
 62
     0
100
AcDbPoint
 10
445.2820135165421
 20
1626.249356137093
 30
0.0
  0
POINT
  5
1A09
330
47D
100
AcDbEntity
  8
Defpoints
 62
     0
100
AcDbPoint
 10
445.2820135165421
 20
1641.249356137093
 30
0.0
  0
POINT
  5
1A0A
330
47D
100
AcDbEntity
  8
Defpoints
 62
     0
100
AcDbPoint
 10
264.9939104154255
 20
1641.249356137093
 30
0.0
  0
ENDBLK
  5
488
330
47D
100
AcDbEntity
  8
0
100
AcDbBlockEnd
  0
BLOCK
  5
49D
330
493
100
AcDbEntity
  8
0
100
AcDbBlockBegin
  2
*D12
 70
     1
 10
0.0
 20
0.0
 30
0.0
  3
*D12
  1

  0
LINE
  5
1A0B
330
493
100
AcDbEntity
  8
寸法
 62
     0
370
    15
100
AcDbLine
 10
380.2820135165421
 20
1641.249356137093
 30
0.0
 11
187.4451267052474
 21
1641.249356137093
 31
0.0
  0
LINE
  5
1A0C
330
493
100
AcDbEntity
  8
寸法
 62
     0
370
    15
100
AcDbLine
 10
380.2820135165421
 20
1091.249356137093
 30
0.0
 11
187.4451267052473
 21
1091.249356137093
 31
0.0
  0
LINE
  5
1A0D
330
493
100
AcDbEntity
  8
寸法
 62
     0
370
    15
100
AcDbLine
 10
187.4451267052474
 20
1641.249356137093
 30
0.0
 11
187.4451267052473
 21
1091.249356137093
 31
0.0
  0
INSERT
  5
1A0E
330
493
100
AcDbEntity
  8
寸法
 62
     0
370
    15
100
AcDbBlockReference
  2
_DotSmall
 10
187.4451267052474
 20
1641.249356137093
 30
0.0
 41
35.0
 42
35.0
 43
35.0
 50
90.0
  0
INSERT
  5
1A0F
330
493
100
AcDbEntity
  8
寸法
 62
     0
370
    15
100
AcDbBlockReference
  2
_DotSmall
 10
187.4451267052473
 20
1091.249356137093
 30
0.0
 41
35.0
 42
35.0
 43
35.0
 50
270.0
  0
MTEXT
  5
1A10
330
493
100
AcDbEntity
  8
寸法
 62
     0
100
AcDbMText
 10
168.6951267052471
 20
1366.249356137093
 30
0.0
 40
25.0
 41
0.0
 71
     5
 72
     1
  1
550
 11
0.0000000000000001
 21
1.0
 31
0.0
 73
     1
 44
1.0
1001
ACAD
1000
MTEXTBEGIN
1070
    73
1070
     1
1070
    44
1040
1.0
1070
    74
1070
     0
1000
MTEXTEND
  0
POINT
  5
1A11
330
493
100
AcDbEntity
  8
Defpoints
 62
     0
100
AcDbPoint
 10
445.2820135165421
 20
1641.249356137093
 30
0.0
  0
POINT
  5
1A12
330
493
100
AcDbEntity
  8
Defpoints
 62
     0
100
AcDbPoint
 10
445.2820135165421
 20
1091.249356137093
 30
0.0
  0
POINT
  5
1A13
330
493
100
AcDbEntity
  8
Defpoints
 62
     0
100
AcDbPoint
 10
187.4451267052473
 20
1091.249356137093
 30
0.0
  0
ENDBLK
  5
49E
330
493
100
AcDbEntity
  8
0
100
AcDbBlockEnd
  0
BLOCK
  5
4CF
330
4C4
100
AcDbEntity
  8
0
100
AcDbBlockBegin
  2
*D13
 70
     1
 10
0.0
 20
0.0
 30
0.0
  3
*D13
  1

  0
LINE
  5
1A14
330
4C4
100
AcDbEntity
  8
寸法
 62
     0
370
    15
100
AcDbLine
 10
380.2820135165421
 20
1106.249356137093
 30
0.0
 11
264.9939104154256
 21
1106.249356137093
 31
0.0
  0
LINE
  5
1A15
330
4C4
100
AcDbEntity
  8
寸法
 62
     0
370
    15
100
AcDbLine
 10
380.2820135165421
 20
1091.249356137093
 30
0.0
 11
264.9939104154256
 21
1091.249356137093
 31
0.0
  0
LINE
  5
1A16
330
4C4
100
AcDbEntity
  8
寸法
 62
     0
370
    15
100
AcDbLine
 10
264.9939104154256
 20
1091.249356137093
 30
0.0
 11
264.9939104154256
 21
1106.249356137093
 31
0.0
  0
LINE
  5
1A17
330
4C4
100
AcDbEntity
  8
寸法
 62
     0
370
    15
100
AcDbLine
 10
264.9939104154256
 20
1106.249356137093
 30
0.0
 11
264.9939104154256
 21
1187.082689470426
 31
0.0
  0
INSERT
  5
1A18
330
4C4
100
AcDbEntity
  8
寸法
 62
     0
370
    15
100
AcDbBlockReference
  2
_DotSmall
 10
264.9939104154256
 20
1091.249356137093
 30
0.0
 41
35.0
 42
35.0
 43
35.0
 50
270.0
  0
INSERT
  5
1A19
330
4C4
100
AcDbEntity
  8
寸法
 62
     0
370
    15
100
AcDbBlockReference
  2
_DotSmall
 10
264.9939104154256
 20
1106.249356137093
 30
0.0
 41
35.0
 42
35.0
 43
35.0
 50
90.0
  0
MTEXT
  5
1A1A
330
4C4
100
AcDbEntity
  8
寸法
 62
     0
100
AcDbMText
 10
246.2439104154254
 20
1164.16602280376
 30
0.0
 40
25.0
 41
0.0
 71
     5
 72
     1
  1
15
 11
0.0000000000000001
 21
1.0
 31
0.0
 73
     1
 44
1.0
1001
ACAD
1000
MTEXTBEGIN
1070
    73
1070
     1
1070
    44
1040
1.0
1070
    74
1070
     0
1000
MTEXTEND
  0
POINT
  5
1A1B
330
4C4
100
AcDbEntity
  8
Defpoints
 62
     0
100
AcDbPoint
 10
445.2820135165421
 20
1106.249356137093
 30
0.0
  0
POINT
  5
1A1C
330
4C4
100
AcDbEntity
  8
Defpoints
 62
     0
100
AcDbPoint
 10
445.2820135165421
 20
1091.249356137093
 30
0.0
  0
POINT
  5
1A1D
330
4C4
100
AcDbEntity
  8
Defpoints
 62
     0
100
AcDbPoint
 10
264.9939104154256
 20
1091.249356137093
 30
0.0
  0
ENDBLK
  5
4D0
330
4C4
100
AcDbEntity
  8
0
100
AcDbBlockEnd
  0
BLOCK
  5
4F1
330
4E6
100
AcDbEntity
  8
0
100
AcDbBlockBegin
  2
*D14
 70
     1
 10
0.0
 20
0.0
 30
0.0
  3
*D14
  1

  0
LINE
  5
1A1E
330
4E6
100
AcDbEntity
  8
寸法
 62
     0
370
    15
100
AcDbLine
 10
1275.282013516542
 20
1026.249356137093
 30
0.0
 11
1275.282013516542
 21
974.0260307361877
 31
0.0
  0
LINE
  5
1A1F
330
4E6
100
AcDbEntity
  8
寸法
 62
     0
370
    15
100
AcDbLine
 10
1260.282013516542
 20
1026.249356137093
 30
0.0
 11
1260.282013516542
 21
974.0260307361877
 31
0.0
  0
LINE
  5
1A20
330
4E6
100
AcDbEntity
  8
寸法
 62
     0
370
    15
100
AcDbLine
 10
1275.282013516542
 20
974.0260307361877
 30
0.0
 11
1260.282013516542
 21
974.0260307361877
 31
0.0
  0
MTEXT
  5
1A21
330
4E6
100
AcDbEntity
  8
寸法
 62
     0
100
AcDbMText
 10
1228.881915445477
 20
993.0723416014116
 30
0.0
 40
25.0
 41
0.0
 71
     5
 72
     1
  1
15
 73
     1
 44
1.0
1001
ACAD
1000
MTEXTBEGIN
1070
    73
1070
     1
1070
    44
1040
1.0
1070
    74
1070
     0
1000
MTEXTEND
  0
INSERT
  5
1A22
330
4E6
100
AcDbEntity
  8
寸法
 62
     0
370
    15
100
AcDbBlockReference
  2
_DotSmall
 10
1275.282013516542
 20
974.0260307361877
 30
0.0
 41
35.0
 42
35.0
 43
35.0
  0
INSERT
  5
1A23
330
4E6
100
AcDbEntity
  8
寸法
 62
     0
370
    15
100
AcDbBlockReference
  2
_DotSmall
 10
1260.282013516542
 20
974.0260307361877
 30
0.0
 41
35.0
 42
35.0
 43
35.0
 50
180.0
  0
POINT
  5
1A24
330
4E6
100
AcDbEntity
  8
Defpoints
 62
     0
100
AcDbPoint
 10
1275.282013516542
 20
1091.249356137093
 30
0.0
  0
POINT
  5
1A25
330
4E6
100
AcDbEntity
  8
Defpoints
 62
     0
100
AcDbPoint
 10
1260.282013516542
 20
1091.249356137093
 30
0.0
  0
POINT
  5
1A26
330
4E6
100
AcDbEntity
  8
Defpoints
 62
     0
100
AcDbPoint
 10
1260.282013516542
 20
974.0260307361877
 30
0.0
  0
ENDBLK
  5
4F2
330
4E6
100
AcDbEntity
  8
0
100
AcDbBlockEnd
  0
BLOCK
  5
508
330
4FE
100
AcDbEntity
  8
0
100
AcDbBlockBegin
  2
*D15
 70
     1
 10
0.0
 20
0.0
 30
0.0
  3
*D15
  1

  0
LINE
  5
1A27
330
4FE
100
AcDbEntity
  8
寸法
 62
     0
370
    15
100
AcDbLine
 10
1260.282013516542
 20
1026.249356137093
 30
0.0
 11
1260.282013516542
 21
974.0260307361877
 31
0.0
  0
LINE
  5
1A28
330
4FE
100
AcDbEntity
  8
寸法
 62
     0
370
    15
100
AcDbLine
 10
460.282013516542
 20
1026.249356137093
 30
0.0
 11
460.282013516542
 21
974.0260307361877
 31
0.0
  0
LINE
  5
1A29
330
4FE
100
AcDbEntity
  8
寸法
 62
     0
370
    15
100
AcDbLine
 10
1260.282013516542
 20
974.0260307361877
 30
0.0
 11
460.282013516542
 21
974.0260307361877
 31
0.0
  0
INSERT
  5
1A2A
330
4FE
100
AcDbEntity
  8
寸法
 62
     0
370
    15
100
AcDbBlockReference
  2
_DotSmall
 10
1260.282013516542
 20
974.0260307361877
 30
0.0
 41
35.0
 42
35.0
 43
35.0
  0
INSERT
  5
1A2B
330
4FE
100
AcDbEntity
  8
寸法
 62
     0
370
    15
100
AcDbBlockReference
  2
_DotSmall
 10
460.282013516542
 20
974.0260307361877
 30
0.0
 41
35.0
 42
35.0
 43
35.0
 50
180.0
  0
MTEXT
  5
1A2C
330
4FE
100
AcDbEntity
  8
寸法
 62
     0
100
AcDbMText
 10
860.2820135165421
 20
992.7760307361877
 30
0.0
 40
25.0
 41
0.0
 71
     5
 72
     1
  1
800
 73
     1
 44
1.0
1001
ACAD
1000
MTEXTBEGIN
1070
    73
1070
     1
1070
    44
1040
1.0
1070
    74
1070
     0
1000
MTEXTEND
  0
POINT
  5
1A2D
330
4FE
100
AcDbEntity
  8
Defpoints
 62
     0
100
AcDbPoint
 10
1260.282013516542
 20
1091.249356137093
 30
0.0
  0
POINT
  5
1A2E
330
4FE
100
AcDbEntity
  8
Defpoints
 62
     0
100
AcDbPoint
 10
460.282013516542
 20
1091.249356137093
 30
0.0
  0
POINT
  5
1A2F
330
4FE
100
AcDbEntity
  8
Defpoints
 62
     0
100
AcDbPoint
 10
460.282013516542
 20
974.0260307361877
 30
0.0
  0
ENDBLK
  5
509
330
4FE
100
AcDbEntity
  8
0
100
AcDbBlockEnd
  0
BLOCK
  5
517
330
50B
100
AcDbEntity
  8
0
100
AcDbBlockBegin
  2
*D16
 70
     1
 10
0.0
 20
0.0
 30
0.0
  3
*D16
  1

  0
LINE
  5
1A30
330
50B
100
AcDbEntity
  8
寸法
 62
     0
370
    15
100
AcDbLine
 10
460.282013516542
 20
1026.249356137093
 30
0.0
 11
460.282013516542
 21
974.0260307361877
 31
0.0
  0
LINE
  5
1A31
330
50B
100
AcDbEntity
  8
寸法
 62
     0
370
    15
100
AcDbLine
 10
445.2820135165421
 20
1026.249356137093
 30
0.0
 11
445.2820135165421
 21
974.0260307361877
 31
0.0
  0
LINE
  5
1A32
330
50B
100
AcDbEntity
  8
寸法
 62
     0
370
    15
100
AcDbLine
 10
460.282013516542
 20
974.0260307361877
 30
0.0
 11
445.2820135165421
 21
974.0260307361877
 31
0.0
  0
MTEXT
  5
1A33
330
50B
100
AcDbEntity
  8
寸法
 62
     0
100
AcDbMText
 10
491.8448365989852
 20
998.1561662759641
 30
0.0
 40
25.0
 41
0.0
 71
     5
 72
     1
  1
15
 73
     1
 44
1.0
1001
ACAD
1000
MTEXTBEGIN
1070
    73
1070
     1
1070
    44
1040
1.0
1070
    74
1070
     0
1000
MTEXTEND
  0
INSERT
  5
1A34
330
50B
100
AcDbEntity
  8
寸法
 62
     0
370
    15
100
AcDbBlockReference
  2
_DotSmall
 10
460.282013516542
 20
974.0260307361877
 30
0.0
 41
35.0
 42
35.0
 43
35.0
  0
INSERT
  5
1A35
330
50B
100
AcDbEntity
  8
寸法
 62
     0
370
    15
100
AcDbBlockReference
  2
_DotSmall
 10
445.2820135165421
 20
974.0260307361877
 30
0.0
 41
35.0
 42
35.0
 43
35.0
 50
180.0
  0
POINT
  5
1A36
330
50B
100
AcDbEntity
  8
Defpoints
 62
     0
100
AcDbPoint
 10
460.282013516542
 20
1091.249356137093
 30
0.0
  0
POINT
  5
1A37
330
50B
100
AcDbEntity
  8
Defpoints
 62
     0
100
AcDbPoint
 10
445.2820135165421
 20
1091.249356137093
 30
0.0
  0
POINT
  5
1A38
330
50B
100
AcDbEntity
  8
Defpoints
 62
     0
100
AcDbPoint
 10
445.2820135165421
 20
974.0260307361877
 30
0.0
  0
ENDBLK
  5
518
330
50B
100
AcDbEntity
  8
0
100
AcDbBlockEnd
  0
BLOCK
  5
52D
330
523
100
AcDbEntity
  8
0
100
AcDbBlockBegin
  2
*D17
 70
     1
 10
0.0
 20
0.0
 30
0.0
  3
*D17
  1

  0
LINE
  5
20C5
330
523
100
AcDbEntity
  8
寸法
 62
     0
370
    15
100
AcDbLine
 10
1275.282013516542
 20
1026.249356137093
 30
0.0
 11
1275.282013516542
 21
899.9056155025282
 31
0.0
  0
LINE
  5
20C6
330
523
100
AcDbEntity
  8
寸法
 62
     0
370
    15
100
AcDbLine
 10
445.2820135165421
 20
1026.249356137093
 30
0.0
 11
445.2820135165421
 21
899.9056155025282
 31
0.0
  0
LINE
  5
20C7
330
523
100
AcDbEntity
  8
寸法
 62
     0
370
    15
100
AcDbLine
 10
1275.282013516542
 20
899.9056155025282
 30
0.0
 11
445.2820135165421
 21
899.9056155025282
 31
0.0
  0
INSERT
  5
20C8
330
523
100
AcDbEntity
  8
寸法
 62
     0
370
    15
100
AcDbBlockReference
  2
_DotSmall
 10
1275.282013516542
 20
899.9056155025282
 30
0.0
 41
35.0
 42
35.0
 43
35.0
  0
INSERT
  5
20C9
330
523
100
AcDbEntity
  8
寸法
 62
     0
370
    15
100
AcDbBlockReference
  2
_DotSmall
 10
445.2820135165421
 20
899.9056155025282
 30
0.0
 41
35.0
 42
35.0
 43
35.0
 50
180.0
  0
MTEXT
  5
20CA
330
523
100
AcDbEntity
  8
寸法
 62
     0
100
AcDbMText
 10
860.2820135165421
 20
918.6556155025282
 30
0.0
 40
25.0
 41
0.0
 71
     5
 72
     1
  1
830
 73
     1
 44
1.0
1001
ACAD
1000
MTEXTBEGIN
1070
    73
1070
     1
1070
    44
1040
1.0
1070
    74
1070
     0
1000
MTEXTEND
  0
POINT
  5
20CB
330
523
100
AcDbEntity
  8
Defpoints
 62
     0
100
AcDbPoint
 10
1275.282013516542
 20
1091.249356137093
 30
0.0
  0
POINT
  5
20CC
330
523
100
AcDbEntity
  8
Defpoints
 62
     0
100
AcDbPoint
 10
445.2820135165421
 20
1091.249356137093
 30
0.0
  0
POINT
  5
20CD
330
523
100
AcDbEntity
  8
Defpoints
 62
     0
100
AcDbPoint
 10
445.2820135165421
 20
899.9056155025282
 30
0.0
  0
ENDBLK
  5
52E
330
523
100
AcDbEntity
  8
0
100
AcDbBlockEnd
  0
BLOCK
  5
13DC
330
13D2
100
AcDbEntity
  8
0
100
AcDbBlockBegin
  2
*D18
 70
     1
 10
0.0
 20
0.0
 30
0.0
  3
*D18
  1

  0
LINE
  5
1B56
330
13D2
100
AcDbEntity
  8
寸法
 62
     0
370
    15
100
AcDbLine
 10
904.2820135165436
 20
1616.249356137093
 30
0.0
 11
841.9819645974273
 21
1616.249356137093
 31
0.0
  0
LINE
  5
1B57
330
13D2
100
AcDbEntity
  8
寸法
 62
     0
370
    15
100
AcDbLine
 10
904.2820135165435
 20
1556.249356137093
 30
0.0
 11
841.9819645974273
 21
1556.249356137093
 31
0.0
  0
LINE
  5
1B58
330
13D2
100
AcDbEntity
  8
寸法
 62
     0
370
    15
100
AcDbLine
 10
841.9819645974273
 20
1616.249356137093
 30
0.0
 11
841.9819645974273
 21
1556.249356137093
 31
0.0
  0
INSERT
  5
1B59
330
13D2
100
AcDbEntity
  8
寸法
 62
     0
370
    15
100
AcDbBlockReference
  2
_DotSmall
 10
841.9819645974273
 20
1616.249356137093
 30
0.0
 41
35.0
 42
35.0
 43
35.0
 50
90.0
  0
INSERT
  5
1B5A
330
13D2
100
AcDbEntity
  8
寸法
 62
     0
370
    15
100
AcDbBlockReference
  2
_DotSmall
 10
841.9819645974273
 20
1556.249356137093
 30
0.0
 41
35.0
 42
35.0
 43
35.0
 50
270.0
  0
MTEXT
  5
1B5B
330
13D2
100
AcDbEntity
  8
寸法
 62
     0
100
AcDbMText
 10
823.2319645974271
 20
1586.249356137093
 30
0.0
 40
25.0
 41
0.0
 71
     5
 72
     1
  1
60
 11
0.0000000000000001
 21
1.0
 31
0.0
 73
     1
 44
1.0
1001
ACAD
1000
MTEXTBEGIN
1070
    73
1070
     1
1070
    44
1040
1.0
1070
    74
1070
     0
1000
MTEXTEND
  0
POINT
  5
1B5C
330
13D2
100
AcDbEntity
  8
Defpoints
 62
     0
100
AcDbPoint
 10
969.2820135165437
 20
1616.249356137093
 30
0.0
  0
POINT
  5
1B5D
330
13D2
100
AcDbEntity
  8
Defpoints
 62
     0
100
AcDbPoint
 10
969.2820135165433
 20
1556.249356137093
 30
0.0
  0
POINT
  5
1B5E
330
13D2
100
AcDbEntity
  8
Defpoints
 62
     0
100
AcDbPoint
 10
841.9819645974273
 20
1556.249356137093
 30
0.0
  0
ENDBLK
  5
13DD
330
13D2
100
AcDbEntity
  8
0
100
AcDbBlockEnd
  0
BLOCK
  5
169D
330
1693
100
AcDbEntity
  8
0
100
AcDbBlockBegin
  2
*D19
 70
     1
 10
0.0
 20
0.0
 30
0.0
  3
*D19
  1

  0
LINE
  5
1B4D
330
1693
100
AcDbEntity
  8
寸法
 62
     0
370
    15
100
AcDbLine
 10
930.2820135165417
 20
1681.338668592743
 30
0.0
 11
930.2820135165417
 21
1720.669867820408
 31
0.0
  0
LINE
  5
1B4E
330
1693
100
AcDbEntity
  8
寸法
 62
     0
370
    15
100
AcDbLine
 10
1220.282013516541
 20
1681.338668592743
 30
0.0
 11
1220.282013516541
 21
1720.669867820408
 31
0.0
  0
LINE
  5
1B4F
330
1693
100
AcDbEntity
  8
寸法
 62
     0
370
    15
100
AcDbLine
 10
930.2820135165417
 20
1720.669867820408
 30
0.0
 11
1220.282013516541
 21
1720.669867820408
 31
0.0
  0
INSERT
  5
1B50
330
1693
100
AcDbEntity
  8
寸法
 62
     0
370
    15
100
AcDbBlockReference
  2
_DotSmall
 10
930.2820135165417
 20
1720.669867820408
 30
0.0
 41
35.0
 42
35.0
 43
35.0
 50
180.0
  0
INSERT
  5
1B51
330
1693
100
AcDbEntity
  8
寸法
 62
     0
370
    15
100
AcDbBlockReference
  2
_DotSmall
 10
1220.282013516541
 20
1720.669867820408
 30
0.0
 41
35.0
 42
35.0
 43
35.0
  0
MTEXT
  5
1B52
330
1693
100
AcDbEntity
  8
寸法
 62
     0
100
AcDbMText
 10
1075.282013516541
 20
1739.419867820408
 30
0.0
 40
25.0
 41
0.0
 71
     5
 72
     1
  1
290
 73
     1
 44
1.0
1001
ACAD
1000
MTEXTBEGIN
1070
    73
1070
     1
1070
    44
1040
1.0
1070
    74
1070
     0
1000
MTEXTEND
  0
POINT
  5
1B53
330
1693
100
AcDbEntity
  8
Defpoints
 62
     0
100
AcDbPoint
 10
930.2820135165417
 20
1616.338668592743
 30
0.0
  0
POINT
  5
1B54
330
1693
100
AcDbEntity
  8
Defpoints
 62
     0
100
AcDbPoint
 10
1220.282013516541
 20
1616.338668592743
 30
0.0
  0
POINT
  5
1B55
330
1693
100
AcDbEntity
  8
Defpoints
 62
     0
100
AcDbPoint
 10
1220.282013516541
 20
1720.669867820408
 30
0.0
  0
ENDBLK
  5
169E
330
1693
100
AcDbEntity
  8
0
100
AcDbBlockEnd
  0
BLOCK
  5
16B3
330
16A9
100
AcDbEntity
  8
0
100
AcDbBlockBegin
  2
*D20
 70
     1
 10
0.0
 20
0.0
 30
0.0
  3
*D20
  1

  0
LINE
  5
1B34
330
16A9
100
AcDbEntity
  8
実形
 62
     0
370
    15
100
AcDbLine
 10
1220.282013516542
 20
1720.669867820408
 30
0.0
 11
1260.282013516542
 21
1720.669867820408
 31
0.0
  0
MTEXT
  5
1B35
330
16A9
100
AcDbEntity
  8
実形
 62
     0
100
AcDbMText
 10
1226.668346283964
 20
1741.244791239554
 30
0.0
 40
25.0
 41
0.0
 71
     5
 72
     1
  1
40
 73
     1
 44
1.0
1001
ACAD
1000
MTEXTBEGIN
1070
    73
1070
     1
1070
    44
1040
1.0
1070
    74
1070
     0
1000
MTEXTEND
  0
INSERT
  5
1B36
330
16A9
100
AcDbEntity
  8
実形
 62
     0
370
    15
100
AcDbBlockReference
  2
_DotSmall
 10
1220.282013516542
 20
1720.669867820408
 30
0.0
 41
35.0
 42
35.0
 43
35.0
 50
180.0
  0
INSERT
  5
1B37
330
16A9
100
AcDbEntity
  8
実形
 62
     0
370
    15
100
AcDbBlockReference
  2
_DotSmall
 10
1260.282013516542
 20
1720.669867820408
 30
0.0
 41
35.0
 42
35.0
 43
35.0
  0
POINT
  5
1B38
330
16A9
100
AcDbEntity
  8
Defpoints
 62
     0
100
AcDbPoint
 10
1220.282013516542
 20
1585.338668592743
 30
0.0
  0
POINT
  5
1B39
330
16A9
100
AcDbEntity
  8
Defpoints
 62
     0
100
AcDbPoint
 10
1260.282013516542
 20
1566.249356137093
 30
0.0
  0
POINT
  5
1B3A
330
16A9
100
AcDbEntity
  8
Defpoints
 62
     0
100
AcDbPoint
 10
1260.282013516542
 20
1720.669867820408
 30
0.0
  0
ENDBLK
  5
16B4
330
16A9
100
AcDbEntity
  8
0
100
AcDbBlockEnd
  0
BLOCK
  5
172B
330
172A
100
AcDbEntity
  8
0
100
AcDbBlockBegin
  2
_None
 70
     0
 10
0.0
 20
0.0
 30
0.0
  3
_None
  1

  0
ENDBLK
  5
172C
330
172A
100
AcDbEntity
  8
0
100
AcDbBlockEnd
  0
BLOCK
  5
1A8A
330
1A80
100
AcDbEntity
  8
0
100
AcDbBlockBegin
  2
*D22
 70
     1
 10
0.0
 20
0.0
 30
0.0
  3
*D22
  1

  0
LINE
  5
1B19
330
1A80
100
AcDbEntity
  8
実形
 62
     0
370
    15
100
AcDbLine
 10
426.2820135165423
 20
1735.439763190516
 30
0.0
 11
426.2820135165423
 21
1768.834591691782
 31
0.0
  0
LINE
  5
1B1A
330
1A80
100
AcDbEntity
  8
実形
 62
     0
370
    15
100
AcDbLine
 10
460.2820135165423
 20
1735.439763190516
 30
0.0
 11
460.2820135165423
 21
1768.834591691782
 31
0.0
  0
LINE
  5
1B1B
330
1A80
100
AcDbEntity
  8
実形
 62
     0
370
    15
100
AcDbLine
 10
426.2820135165423
 20
1768.834591691782
 30
0.0
 11
460.2820135165423
 21
1768.834591691782
 31
0.0
  0
MTEXT
  5
1B1C
330
1A80
100
AcDbEntity
  8
実形
 62
     0
100
AcDbMText
 10
470.1440764651915
 20
1803.834591691782
 30
0.0
 40
25.0
 41
0.0
 71
     5
 72
     1
  1
35
 73
     1
 44
1.0
1001
ACAD
1000
MTEXTBEGIN
1070
    73
1070
     1
1070
    44
1040
1.0
1070
    74
1070
     0
1000
MTEXTEND
  0
INSERT
  5
1B1D
330
1A80
100
AcDbEntity
  8
実形
 62
     0
370
    15
100
AcDbBlockReference
  2
_DotSmall
 10
426.2820135165423
 20
1768.834591691782
 30
0.0
 41
35.0
 42
35.0
 43
35.0
 50
180.0
  0
INSERT
  5
1B1E
330
1A80
100
AcDbEntity
  8
実形
 62
     0
370
    15
100
AcDbBlockReference
  2
_DotSmall
 10
460.2820135165423
 20
1768.834591691782
 30
0.0
 41
35.0
 42
35.0
 43
35.0
  0
POINT
  5
1B1F
330
1A80
100
AcDbEntity
  8
Defpoints
 62
     0
100
AcDbPoint
 10
426.2820135165423
 20
1670.439763190516
 30
0.0
  0
POINT
  5
1B20
330
1A80
100
AcDbEntity
  8
Defpoints
 62
     0
100
AcDbPoint
 10
460.2820135165423
 20
1670.439763190516
 30
0.0
  0
POINT
  5
1B21
330
1A80
100
AcDbEntity
  8
Defpoints
 62
     0
100
AcDbPoint
 10
460.2820135165423
 20
1768.834591691782
 30
0.0
  0
ENDBLK
  5
1A8B
330
1A80
100
AcDbEntity
  8
0
100
AcDbBlockEnd
  0
BLOCK
  5
1AA9
330
1A9F
100
AcDbEntity
  8
0
100
AcDbBlockBegin
  2
*D23
 70
     1
 10
0.0
 20
0.0
 30
0.0
  3
*D23
  1

  0
LINE
  5
1B44
330
1A9F
100
AcDbEntity
  8
実形
 62
     0
370
    15
100
AcDbLine
 10
1260.282013516542
 20
1711.865096534178
 30
0.0
 11
1260.282013516542
 21
1768.834591691782
 31
0.0
  0
LINE
  5
1B45
330
1A9F
100
AcDbEntity
  8
実形
 62
     0
370
    15
100
AcDbLine
 10
1294.282013516542
 20
1680.409029734328
 30
0.0
 11
1294.282013516542
 21
1768.834591691782
 31
0.0
  0
LINE
  5
1B46
330
1A9F
100
AcDbEntity
  8
実形
 62
     0
370
    15
100
AcDbLine
 10
1260.282013516542
 20
1768.834591691782
 30
0.0
 11
1294.282013516542
 21
1768.834591691782
 31
0.0
  0
MTEXT
  5
1B47
330
1A9F
100
AcDbEntity
  8
実形
 62
     0
100
AcDbMText
 10
1253.724675980634
 20
1803.834591691782
 30
0.0
 40
25.0
 41
0.0
 71
     5
 72
     1
  1
35
 73
     1
 44
1.0
1001
ACAD
1000
MTEXTBEGIN
1070
    73
1070
     1
1070
    44
1040
1.0
1070
    74
1070
     0
1000
MTEXTEND
  0
INSERT
  5
1B48
330
1A9F
100
AcDbEntity
  8
実形
 62
     0
370
    15
100
AcDbBlockReference
  2
_DotSmall
 10
1260.282013516542
 20
1768.834591691782
 30
0.0
 41
35.0
 42
35.0
 43
35.0
 50
180.0
  0
INSERT
  5
1B49
330
1A9F
100
AcDbEntity
  8
実形
 62
     0
370
    15
100
AcDbBlockReference
  2
_DotSmall
 10
1294.282013516542
 20
1768.834591691782
 30
0.0
 41
35.0
 42
35.0
 43
35.0
  0
POINT
  5
1B4A
330
1A9F
100
AcDbEntity
  8
Defpoints
 62
     0
100
AcDbPoint
 10
1260.282013516542
 20
1646.865096534179
 30
0.0
  0
POINT
  5
1B4B
330
1A9F
100
AcDbEntity
  8
Defpoints
 62
     0
100
AcDbPoint
 10
1294.282013516542
 20
1615.409029734328
 30
0.0
  0
POINT
  5
1B4C
330
1A9F
100
AcDbEntity
  8
Defpoints
 62
     0
100
AcDbPoint
 10
1294.282013516542
 20
1768.834591691782
 30
0.0
  0
ENDBLK
  5
1AAA
330
1A9F
100
AcDbEntity
  8
0
100
AcDbBlockEnd
  0
BLOCK
  5
1AC8
330
1ABE
100
AcDbEntity
  8
0
100
AcDbBlockBegin
  2
*D24
 70
     1
 10
0.0
 20
0.0
 30
0.0
  3
*D24
  1

  0
LINE
  5
1B2B
330
1ABE
100
AcDbEntity
  8
実形
 62
     0
370
    15
100
AcDbLine
 10
426.2820135165423
 20
1735.439763190516
 30
0.0
 11
426.2820135165423
 21
1834.019090993204
 31
0.0
  0
LINE
  5
1B2C
330
1ABE
100
AcDbEntity
  8
実形
 62
     0
370
    15
100
AcDbLine
 10
1294.282013516542
 20
1735.439763190516
 30
0.0
 11
1294.282013516542
 21
1834.019090993204
 31
0.0
  0
LINE
  5
1B2D
330
1ABE
100
AcDbEntity
  8
実形
 62
     0
370
    15
100
AcDbLine
 10
426.2820135165423
 20
1834.019090993204
 30
0.0
 11
1294.282013516542
 21
1834.019090993204
 31
0.0
  0
INSERT
  5
1B2E
330
1ABE
100
AcDbEntity
  8
実形
 62
     0
370
    15
100
AcDbBlockReference
  2
_DotSmall
 10
426.2820135165423
 20
1834.019090993204
 30
0.0
 41
35.0
 42
35.0
 43
35.0
 50
180.0
  0
INSERT
  5
1B2F
330
1ABE
100
AcDbEntity
  8
実形
 62
     0
370
    15
100
AcDbBlockReference
  2
_DotSmall
 10
1294.282013516542
 20
1834.019090993204
 30
0.0
 41
35.0
 42
35.0
 43
35.0
  0
MTEXT
  5
1B30
330
1ABE
100
AcDbEntity
  8
実形
 62
     0
100
AcDbMText
 10
860.2820135165421
 20
1852.769090993204
 30
0.0
 40
25.0
 41
0.0
 71
     5
 72
     1
  1
868
 73
     1
 44
1.0
1001
ACAD
1000
MTEXTBEGIN
1070
    73
1070
     1
1070
    44
1040
1.0
1070
    74
1070
     0
1000
MTEXTEND
  0
POINT
  5
1B31
330
1ABE
100
AcDbEntity
  8
Defpoints
 62
     0
100
AcDbPoint
 10
426.2820135165423
 20
1670.439763190516
 30
0.0
  0
POINT
  5
1B32
330
1ABE
100
AcDbEntity
  8
Defpoints
 62
     0
100
AcDbPoint
 10
1294.282013516542
 20
1670.439763190516
 30
0.0
  0
POINT
  5
1B33
330
1ABE
100
AcDbEntity
  8
Defpoints
 62
     0
100
AcDbPoint
 10
1294.282013516542
 20
1834.019090993204
 30
0.0
  0
ENDBLK
  5
1AC9
330
1ABE
100
AcDbEntity
  8
0
100
AcDbBlockEnd
  0
BLOCK
  5
1AD9
330
1ACF
100
AcDbEntity
  8
0
100
AcDbBlockBegin
  2
*D25
 70
     1
 10
0.0
 20
0.0
 30
0.0
  3
*D25
  1

  0
LINE
  5
1B67
330
1ACF
100
AcDbEntity
  8
実形
 62
     0
370
    15
100
AcDbLine
 10
1327.614924461982
 20
1660.249356137093
 30
0.0
 11
1380.701883733735
 21
1660.249356137093
 31
0.0
  0
LINE
  5
1B68
330
1ACF
100
AcDbEntity
  8
実形
 62
     0
370
    15
100
AcDbLine
 10
1327.614924461982
 20
1626.249356137093
 30
0.0
 11
1380.701883733735
 21
1626.249356137093
 31
0.0
  0
LINE
  5
1B69
330
1ACF
100
AcDbEntity
  8
実形
 62
     0
370
    15
100
AcDbLine
 10
1380.701883733735
 20
1660.249356137093
 30
0.0
 11
1380.701883733735
 21
1626.249356137093
 31
0.0
  0
MTEXT
  5
1B6A
330
1ACF
100
AcDbEntity
  8
実形
 62
     0
100
AcDbMText
 10
1354.295116714967
 20
1584.166592482465
 30
0.0
 40
25.0
 41
0.0
 71
     5
 72
     1
  1
35
 11
0.0000000000000001
 21
1.0
 31
0.0
 73
     1
 44
1.0
1001
ACAD
1000
MTEXTBEGIN
1070
    73
1070
     1
1070
    44
1040
1.0
1070
    74
1070
     0
1000
MTEXTEND
  0
INSERT
  5
1B6B
330
1ACF
100
AcDbEntity
  8
実形
 62
     0
370
    15
100
AcDbBlockReference
  2
_DotSmall
 10
1380.701883733735
 20
1660.249356137093
 30
0.0
 41
35.0
 42
35.0
 43
35.0
 50
90.0
  0
INSERT
  5
1B6C
330
1ACF
100
AcDbEntity
  8
実形
 62
     0
370
    15
100
AcDbBlockReference
  2
_DotSmall
 10
1380.701883733735
 20
1626.249356137093
 30
0.0
 41
35.0
 42
35.0
 43
35.0
 50
270.0
  0
POINT
  5
1B6D
330
1ACF
100
AcDbEntity
  8
Defpoints
 62
     0
100
AcDbPoint
 10
1262.614924461982
 20
1660.249356137093
 30
0.0
  0
POINT
  5
1B6E
330
1ACF
100
AcDbEntity
  8
Defpoints
 62
     0
100
AcDbPoint
 10
1262.614924461982
 20
1626.249356137093
 30
0.0
  0
POINT
  5
1B6F
330
1ACF
100
AcDbEntity
  8
Defpoints
 62
     0
100
AcDbPoint
 10
1380.701883733735
 20
1626.249356137093
 30
0.0
  0
ENDBLK
  5
1ADA
330
1ACF
100
AcDbEntity
  8
0
100
AcDbBlockEnd
  0
BLOCK
  5
1AF8
330
1AEE
100
AcDbEntity
  8
0
100
AcDbBlockBegin
  2
*D26
 70
     1
 10
0.0
 20
0.0
 30
0.0
  3
*D26
  1

  0
LINE
  5
1B70
330
1AEE
100
AcDbEntity
  8
実形
 62
     0
370
    15
100
AcDbLine
 10
1327.614924461982
 20
1106.249356137093
 30
0.0
 11
1380.701883733735
 21
1106.249356137093
 31
0.0
  0
LINE
  5
1B71
330
1AEE
100
AcDbEntity
  8
実形
 62
     0
370
    15
100
AcDbLine
 10
1327.614924461982
 20
1072.249356137093
 30
0.0
 11
1380.701883733735
 21
1072.249356137093
 31
0.0
  0
LINE
  5
1B72
330
1AEE
100
AcDbEntity
  8
実形
 62
     0
370
    15
100
AcDbLine
 10
1380.701883733735
 20
1106.249356137093
 30
0.0
 11
1380.701883733735
 21
1072.249356137093
 31
0.0
  0
MTEXT
  5
1B73
330
1AEE
100
AcDbEntity
  8
実形
 62
     0
100
AcDbMText
 10
1356.284910461772
 20
1155.08760105973
 30
0.0
 40
25.0
 41
0.0
 71
     5
 72
     1
  1
35
 11
0.0000000000000001
 21
1.0
 31
0.0
 73
     1
 44
1.0
1001
ACAD
1000
MTEXTBEGIN
1070
    73
1070
     1
1070
    44
1040
1.0
1070
    74
1070
     0
1000
MTEXTEND
  0
INSERT
  5
1B74
330
1AEE
100
AcDbEntity
  8
実形
 62
     0
370
    15
100
AcDbBlockReference
  2
_DotSmall
 10
1380.701883733735
 20
1106.249356137093
 30
0.0
 41
35.0
 42
35.0
 43
35.0
 50
90.0
  0
INSERT
  5
1B75
330
1AEE
100
AcDbEntity
  8
実形
 62
     0
370
    15
100
AcDbBlockReference
  2
_DotSmall
 10
1380.701883733735
 20
1072.249356137093
 30
0.0
 41
35.0
 42
35.0
 43
35.0
 50
270.0
  0
POINT
  5
1B76
330
1AEE
100
AcDbEntity
  8
Defpoints
 62
     0
100
AcDbPoint
 10
1262.614924461982
 20
1106.249356137093
 30
0.0
  0
POINT
  5
1B77
330
1AEE
100
AcDbEntity
  8
Defpoints
 62
     0
100
AcDbPoint
 10
1262.614924461982
 20
1072.249356137093
 30
0.0
  0
POINT
  5
1B78
330
1AEE
100
AcDbEntity
  8
Defpoints
 62
     0
100
AcDbPoint
 10
1380.701883733735
 20
1072.249356137093
 30
0.0
  0
ENDBLK
  5
1AF9
330
1AEE
100
AcDbEntity
  8
0
100
AcDbBlockEnd
  0
BLOCK
  5
1B17
330
1B0D
100
AcDbEntity
  8
0
100
AcDbBlockBegin
  2
*D27
 70
     1
 10
0.0
 20
0.0
 30
0.0
  3
*D27
  1

  0
LINE
  5
2588
330
1B0D
100
AcDbEntity
  8
実形
 62
     0
370
    15
100
AcDbLine
 10
1327.614924461982
 20
1660.249356137093
 30
0.0
 11
1447.981479970144
 21
1660.249356137093
 31
0.0
  0
LINE
  5
2589
330
1B0D
100
AcDbEntity
  8
実形
 62
     0
370
    15
100
AcDbLine
 10
1327.614924461982
 20
1072.249356137093
 30
0.0
 11
1447.981479970144
 21
1072.249356137093
 31
0.0
  0
LINE
  5
258A
330
1B0D
100
AcDbEntity
  8
実形
 62
     0
370
    15
100
AcDbLine
 10
1447.981479970144
 20
1660.249356137093
 30
0.0
 11
1447.981479970144
 21
1072.249356137093
 31
0.0
  0
INSERT
  5
258B
330
1B0D
100
AcDbEntity
  8
実形
 62
     0
370
    15
100
AcDbBlockReference
  2
_DotSmall
 10
1447.981479970144
 20
1660.249356137093
 30
0.0
 41
35.0
 42
35.0
 43
35.0
 50
90.0
  0
INSERT
  5
258C
330
1B0D
100
AcDbEntity
  8
実形
 62
     0
370
    15
100
AcDbBlockReference
  2
_DotSmall
 10
1447.981479970144
 20
1072.249356137093
 30
0.0
 41
35.0
 42
35.0
 43
35.0
 50
270.0
  0
MTEXT
  5
258D
330
1B0D
100
AcDbEntity
  8
実形
 62
     0
100
AcDbMText
 10
1429.231479970144
 20
1366.249356137093
 30
0.0
 40
25.0
 41
0.0
 71
     5
 72
     1
  1
588
 11
0.0000000000000001
 21
1.0
 31
0.0
 73
     1
 44
1.0
1001
ACAD
1000
MTEXTBEGIN
1070
    73
1070
     1
1070
    44
1040
1.0
1070
    74
1070
     0
1000
MTEXTEND
  0
POINT
  5
258E
330
1B0D
100
AcDbEntity
  8
Defpoints
 62
     0
100
AcDbPoint
 10
1262.614924461982
 20
1660.249356137093
 30
0.0
  0
POINT
  5
258F
330
1B0D
100
AcDbEntity
  8
Defpoints
 62
     0
100
AcDbPoint
 10
1262.614924461982
 20
1072.249356137093
 30
0.0
  0
POINT
  5
2590
330
1B0D
100
AcDbEntity
  8
Defpoints
 62
     0
100
AcDbPoint
 10
1447.981479970144
 20
1072.249356137093
 30
0.0
  0
ENDBLK
  5
1B18
330
1B0D
100
AcDbEntity
  8
0
100
AcDbBlockEnd
  0
BLOCK
  5
1D9F
330
1D98
100
AcDbEntity
  8
0
100
AcDbBlockBegin
  2
*D28
 70
     1
 10
0.0
 20
0.0
 30
0.0
  3
*D28
  1

  0
LINE
  5
1E85
330
1D98
100
AcDbEntity
  8
実形
 62
     0
370
    13
100
AcDbLine
 10
2090.833877365067
 20
553.2947101512847
 30
0.0
 11
2090.833877365067
 21
467.1003685502147
 31
0.0
  0
LINE
  5
1E86
330
1D98
100
AcDbEntity
  8
実形
 62
     0
370
    13
100
AcDbLine
 10
2075.233877365067
 20
527.502986728412
 30
0.0
 11
2075.233877365067
 21
467.1003685502147
 31
0.0
  0
MTEXT
  5
1E87
330
1D98
100
AcDbEntity
  8
実形
 62
     0
100
AcDbMText
 10
2054.88545157578
 20
491.5915116428197
 30
0.0
 40
25.0
 41
0.0
 71
     5
 72
     1
  1
1
 73
     1
 44
1.0
1001
ACAD
1000
MTEXTBEGIN
1070
    73
1070
     1
1070
    44
1040
1.0
1070
    74
1070
     0
1000
MTEXTEND
  0
POINT
  5
1E88
330
1D98
100
AcDbEntity
  8
Defpoints
 62
     0
100
AcDbPoint
 10
2090.833877365067
 20
559.2947101512846
 30
0.0
  0
POINT
  5
1E89
330
1D98
100
AcDbEntity
  8
Defpoints
 62
     0
100
AcDbPoint
 10
2075.233877365067
 20
533.5029867284119
 30
0.0
  0
POINT
  5
1E8A
330
1D98
100
AcDbEntity
  8
Defpoints
 62
     0
100
AcDbPoint
 10
2075.233877365067
 20
467.1003685502147
 30
0.0
  0
ENDBLK
  5
1DA0
330
1D98
100
AcDbEntity
  8
0
100
AcDbBlockEnd
  0
BLOCK
  5
1DAB
330
1DA1
100
AcDbEntity
  8
0
100
AcDbBlockBegin
  2
*D29
 70
     1
 10
0.0
 20
0.0
 30
0.0
  3
*D29
  1

  0
LINE
  5
1E8B
330
1DA1
100
AcDbEntity
  8
実形
 62
     0
370
    18
100
AcDbLine
 10
2090.833877365066
 20
591.9073852958003
 30
0.0
 11
2090.833877365066
 21
617.1548568615962
 31
0.0
  0
LINE
  5
1E8C
330
1DA1
100
AcDbEntity
  8
実形
 62
     0
370
    18
100
AcDbLine
 10
2324.833877365066
 20
591.9073852958003
 30
0.0
 11
2324.833877365066
 21
617.1548568615962
 31
0.0
  0
LINE
  5
1E8D
330
1DA1
100
AcDbEntity
  8
実形
 62
     0
370
    18
100
AcDbLine
 10
2090.833877365066
 20
617.1548568615962
 30
0.0
 11
2324.833877365066
 21
617.1548568615962
 31
0.0
  0
INSERT
  5
1E8E
330
1DA1
100
AcDbEntity
  8
実形
 62
     0
370
    18
100
AcDbBlockReference
  2
_DotSmall
 10
2090.833877365066
 20
617.1548568615962
 30
0.0
 41
35.0
 42
35.0
 43
35.0
 50
180.0
  0
INSERT
  5
1E8F
330
1DA1
100
AcDbEntity
  8
実形
 62
     0
370
    18
100
AcDbBlockReference
  2
_DotSmall
 10
2324.833877365066
 20
617.1548568615962
 30
0.0
 41
35.0
 42
35.0
 43
35.0
  0
MTEXT
  5
1E90
330
1DA1
100
AcDbEntity
  8
実形
 62
     0
100
AcDbMText
 10
2207.833877365066
 20
635.9048568615962
 30
0.0
 40
25.0
 41
0.0
 71
     5
 72
     1
  1
15
 73
     1
 44
1.0
1001
ACAD
1000
MTEXTBEGIN
1070
    73
1070
     1
1070
    44
1040
1.0
1070
    74
1070
     0
1000
MTEXTEND
  0
POINT
  5
1E91
330
1DA1
100
AcDbEntity
  8
Defpoints
 62
     0
100
AcDbPoint
 10
2090.833877365066
 20
526.9073852958004
 30
0.0
  0
POINT
  5
1E92
330
1DA1
100
AcDbEntity
  8
Defpoints
 62
     0
100
AcDbPoint
 10
2324.833877365066
 20
526.9073852958004
 30
0.0
  0
POINT
  5
1E93
330
1DA1
100
AcDbEntity
  8
Defpoints
 62
     0
100
AcDbPoint
 10
2324.833877365066
 20
617.1548568615962
 30
0.0
  0
ENDBLK
  5
1DAC
330
1DA1
100
AcDbEntity
  8
0
100
AcDbBlockEnd
  0
BLOCK
  5
1DB7
330
1DAD
100
AcDbEntity
  8
0
100
AcDbBlockBegin
  2
*D30
 70
     1
 10
0.0
 20
0.0
 30
0.0
  3
*D30
  1

  0
LINE
  5
1E94
330
1DAD
100
AcDbEntity
  8
実形
 62
     0
370
    18
100
AcDbLine
 10
2292.614562018892
 20
504.6947101512855
 30
0.0
 11
2228.767481940162
 21
504.6947101512855
 31
0.0
  0
LINE
  5
1E95
330
1DAD
100
AcDbEntity
  8
実形
 62
     0
370
    18
100
AcDbLine
 10
2216.267191428404
 20
543.6947101512855
 30
0.0
 11
2228.767481940162
 21
543.6947101512855
 31
0.0
  0
LINE
  5
1E96
330
1DAD
100
AcDbEntity
  8
実形
 62
     0
370
    18
100
AcDbLine
 10
2228.767481940162
 20
504.6947101512855
 30
0.0
 11
2228.767481940162
 21
543.6947101512855
 31
0.0
  0
MTEXT
  5
1E97
330
1DAD
100
AcDbEntity
  8
実形
 62
     0
100
AcDbMText
 10
2197.294896545438
 20
515.0052225685112
 30
0.0
 40
23.0
 41
0.0
 71
     5
 72
     1
  1
2.5
 11
0.0000000000000001
 21
1.0
 31
0.0
 73
     1
 44
1.0
1001
ACAD
1000
MTEXTBEGIN
1070
    73
1070
     1
1070
    44
1040
1.0
1070
    74
1070
     0
1000
MTEXTEND
  0
INSERT
  5
1E98
330
1DAD
100
AcDbEntity
  8
実形
 62
     0
370
    18
100
AcDbBlockReference
  2
_DotSmall
 10
2228.767481940162
 20
504.6947101512855
 30
0.0
 41
35.0
 42
35.0
 43
35.0
 50
270.0
  0
INSERT
  5
1E99
330
1DAD
100
AcDbEntity
  8
実形
 62
     0
370
    18
100
AcDbBlockReference
  2
_DotSmall
 10
2228.767481940162
 20
543.6947101512855
 30
0.0
 41
35.0
 42
35.0
 43
35.0
 50
90.0
  0
POINT
  5
1E9A
330
1DAD
100
AcDbEntity
  8
Defpoints
 62
     0
100
AcDbPoint
 10
2357.614562018891
 20
504.6947101512855
 30
0.0
  0
POINT
  5
1E9B
330
1DAD
100
AcDbEntity
  8
Defpoints
 62
     0
100
AcDbPoint
 10
2281.267191428404
 20
543.6947101512855
 30
0.0
  0
POINT
  5
1E9C
330
1DAD
100
AcDbEntity
  8
Defpoints
 62
     0
100
AcDbPoint
 10
2228.767481940162
 20
543.6947101512855
 30
0.0
  0
ENDBLK
  5
1DB8
330
1DAD
100
AcDbEntity
  8
0
100
AcDbBlockEnd
  0
BLOCK
  5
1DC3
330
1DB9
100
AcDbEntity
  8
0
100
AcDbBlockBegin
  2
*D31
 70
     1
 10
0.0
 20
0.0
 30
0.0
  3
*D31
  1

  0
LINE
  5
1E9D
330
1DB9
100
AcDbEntity
  8
実形
 62
     0
370
    18
100
AcDbLine
 10
2278.033877365066
 20
448.0145559292668
 30
0.0
 11
2278.033877365066
 21
452.0882219802177
 31
0.0
  0
LINE
  5
1E9E
330
1DB9
100
AcDbEntity
  8
実形
 62
     0
370
    18
100
AcDbLine
 10
2356.033877365066
 20
448.0145559292668
 30
0.0
 11
2356.033877365066
 21
452.0882219802177
 31
0.0
  0
LINE
  5
1E9F
330
1DB9
100
AcDbEntity
  8
実形
 62
     0
370
    18
100
AcDbLine
 10
2278.033877365066
 20
452.0882219802177
 30
0.0
 11
2356.033877365066
 21
452.0882219802177
 31
0.0
  0
INSERT
  5
1EA0
330
1DB9
100
AcDbEntity
  8
実形
 62
     0
370
    18
100
AcDbBlockReference
  2
_DotSmall
 10
2278.033877365066
 20
452.0882219802177
 30
0.0
 41
35.0
 42
35.0
 43
35.0
 50
180.0
  0
INSERT
  5
1EA1
330
1DB9
100
AcDbEntity
  8
実形
 62
     0
370
    18
100
AcDbBlockReference
  2
_DotSmall
 10
2356.033877365066
 20
452.0882219802177
 30
0.0
 41
35.0
 42
35.0
 43
35.0
  0
MTEXT
  5
1EA2
330
1DB9
100
AcDbEntity
  8
実形
 62
     0
100
AcDbMText
 10
2317.033877365066
 20
470.8382219802177
 30
0.0
 40
25.0
 41
0.0
 71
     5
 72
     1
  1
5
 73
     1
 44
1.0
1001
ACAD
1000
MTEXTBEGIN
1070
    73
1070
     1
1070
    44
1040
1.0
1070
    74
1070
     0
1000
MTEXTEND
  0
POINT
  5
1EA3
330
1DB9
100
AcDbEntity
  8
Defpoints
 62
     0
100
AcDbPoint
 10
2278.033877365066
 20
513.0145559292668
 30
0.0
  0
POINT
  5
1EA4
330
1DB9
100
AcDbEntity
  8
Defpoints
 62
     0
100
AcDbPoint
 10
2356.033877365066
 20
513.0145559292668
 30
0.0
  0
POINT
  5
1EA5
330
1DB9
100
AcDbEntity
  8
Defpoints
 62
     0
100
AcDbPoint
 10
2356.033877365066
 20
452.0882219802177
 30
0.0
  0
ENDBLK
  5
1DC4
330
1DB9
100
AcDbEntity
  8
0
100
AcDbBlockEnd
  0
BLOCK
  5
1DCF
330
1DC5
100
AcDbEntity
  8
0
100
AcDbBlockBegin
  2
*D32
 70
     1
 10
0.0
 20
0.0
 30
0.0
  3
*D32
  1

  0
LINE
  5
1EA6
330
1DC5
100
AcDbEntity
  8
実形
 62
     0
370
    18
100
AcDbLine
 10
2266.326187506493
 20
442.2947101512853
 30
0.0
 11
2230.705930897853
 21
442.2947101512853
 31
0.0
  0
LINE
  5
1EA7
330
1DC5
100
AcDbEntity
  8
実形
 62
     0
370
    18
100
AcDbLine
 10
2278.612691407768
 20
403.2947101512855
 30
0.0
 11
2230.705930897853
 21
403.2947101512855
 31
0.0
  0
LINE
  5
1EA8
330
1DC5
100
AcDbEntity
  8
実形
 62
     0
370
    18
100
AcDbLine
 10
2230.705930897853
 20
442.2947101512853
 30
0.0
 11
2230.705930897853
 21
403.2947101512855
 31
0.0
  0
MTEXT
  5
1EA9
330
1DC5
100
AcDbEntity
  8
実形
 62
     0
100
AcDbMText
 10
2198.086469593912
 20
431.6583152348946
 30
0.0
 40
23.0
 41
0.0
 71
     5
 72
     1
  1
2.5
 11
0.0000000000000001
 21
1.0
 31
0.0
 73
     1
 44
1.0
1001
ACAD
1000
MTEXTBEGIN
1070
    73
1070
     1
1070
    44
1040
1.0
1070
    74
1070
     0
1000
MTEXTEND
  0
INSERT
  5
1EAA
330
1DC5
100
AcDbEntity
  8
実形
 62
     0
370
    18
100
AcDbBlockReference
  2
_DotSmall
 10
2230.705930897853
 20
442.2947101512853
 30
0.0
 41
35.0
 42
35.0
 43
35.0
 50
90.0
  0
INSERT
  5
1EAB
330
1DC5
100
AcDbEntity
  8
実形
 62
     0
370
    18
100
AcDbBlockReference
  2
_DotSmall
 10
2230.705930897853
 20
403.2947101512855
 30
0.0
 41
35.0
 42
35.0
 43
35.0
 50
270.0
  0
POINT
  5
1EAC
330
1DC5
100
AcDbEntity
  8
Defpoints
 62
     0
100
AcDbPoint
 10
2331.326187506493
 20
442.2947101512853
 30
0.0
  0
POINT
  5
1EAD
330
1DC5
100
AcDbEntity
  8
Defpoints
 62
     0
100
AcDbPoint
 10
2343.612691407768
 20
403.2947101512855
 30
0.0
  0
POINT
  5
1EAE
330
1DC5
100
AcDbEntity
  8
Defpoints
 62
     0
100
AcDbPoint
 10
2230.705930897853
 20
403.2947101512855
 30
0.0
  0
ENDBLK
  5
1DD0
330
1DC5
100
AcDbEntity
  8
0
100
AcDbBlockEnd
  0
BLOCK
  5
1DDB
330
1DD1
100
AcDbEntity
  8
0
100
AcDbBlockBegin
  2
*D33
 70
     1
 10
0.0
 20
0.0
 30
0.0
  3
*D33
  1

  0
LINE
  5
1EAF
330
1DD1
100
AcDbEntity
  8
実形
 62
     0
370
    18
100
AcDbLine
 10
2075.233877365066
 20
696.1956311673393
 30
0.0
 11
2075.233877365066
 21
733.9587029177619
 31
0.0
  0
LINE
  5
1EB0
330
1DD1
100
AcDbEntity
  8
実形
 62
     0
370
    18
100
AcDbLine
 10
2356.033877365066
 20
696.1956311673393
 30
0.0
 11
2356.033877365066
 21
733.9587029177619
 31
0.0
  0
LINE
  5
1EB1
330
1DD1
100
AcDbEntity
  8
実形
 62
     0
370
    18
100
AcDbLine
 10
2075.233877365066
 20
733.9587029177619
 30
0.0
 11
2356.033877365066
 21
733.9587029177619
 31
0.0
  0
INSERT
  5
1EB2
330
1DD1
100
AcDbEntity
  8
実形
 62
     0
370
    18
100
AcDbBlockReference
  2
_DotSmall
 10
2075.233877365066
 20
733.9587029177619
 30
0.0
 41
35.0
 42
35.0
 43
35.0
 50
180.0
  0
INSERT
  5
1EB3
330
1DD1
100
AcDbEntity
  8
実形
 62
     0
370
    18
100
AcDbBlockReference
  2
_DotSmall
 10
2356.033877365066
 20
733.9587029177619
 30
0.0
 41
35.0
 42
35.0
 43
35.0
  0
MTEXT
  5
1EB4
330
1DD1
100
AcDbEntity
  8
実形
 62
     0
100
AcDbMText
 10
2215.633877365066
 20
752.7087029177619
 30
0.0
 40
25.0
 41
0.0
 71
     5
 72
     1
  1
18
 73
     1
 44
1.0
1001
ACAD
1000
MTEXTBEGIN
1070
    73
1070
     1
1070
    44
1040
1.0
1070
    74
1070
     0
1000
MTEXTEND
  0
POINT
  5
1EB5
330
1DD1
100
AcDbEntity
  8
Defpoints
 62
     0
100
AcDbPoint
 10
2075.233877365066
 20
631.1956311673393
 30
0.0
  0
POINT
  5
1EB6
330
1DD1
100
AcDbEntity
  8
Defpoints
 62
     0
100
AcDbPoint
 10
2356.033877365066
 20
631.1956311673393
 30
0.0
  0
POINT
  5
1EB7
330
1DD1
100
AcDbEntity
  8
Defpoints
 62
     0
100
AcDbPoint
 10
2356.033877365066
 20
733.9587029177619
 30
0.0
  0
ENDBLK
  5
1DDC
330
1DD1
100
AcDbEntity
  8
0
100
AcDbBlockEnd
  0
BLOCK
  5
1DE7
330
1DDD
100
AcDbEntity
  8
0
100
AcDbBlockBegin
  2
*D34
 70
     1
 10
0.0
 20
0.0
 30
0.0
  3
*D34
  1

  0
LINE
  5
1EB8
330
1DDD
100
AcDbEntity
  8
実形
 62
     0
370
    18
100
AcDbLine
 10
2356.033877365066
 20
696.1956311673382
 30
0.0
 11
2356.033877365066
 21
733.9587029177619
 31
0.0
  0
LINE
  5
1EB9
330
1DDD
100
AcDbEntity
  8
実形
 62
     0
370
    18
100
AcDbLine
 10
2621.233877365066
 20
696.1956311673382
 30
0.0
 11
2621.233877365066
 21
733.9587029177619
 31
0.0
  0
LINE
  5
1EBA
330
1DDD
100
AcDbEntity
  8
実形
 62
     0
370
    18
100
AcDbLine
 10
2356.033877365066
 20
733.9587029177619
 30
0.0
 11
2621.233877365066
 21
733.9587029177619
 31
0.0
  0
INSERT
  5
1EBB
330
1DDD
100
AcDbEntity
  8
実形
 62
     0
370
    18
100
AcDbBlockReference
  2
_DotSmall
 10
2356.033877365066
 20
733.9587029177619
 30
0.0
 41
35.0
 42
35.0
 43
35.0
 50
180.0
  0
INSERT
  5
1EBC
330
1DDD
100
AcDbEntity
  8
実形
 62
     0
370
    18
100
AcDbBlockReference
  2
_DotSmall
 10
2621.233877365066
 20
733.9587029177619
 30
0.0
 41
35.0
 42
35.0
 43
35.0
  0
MTEXT
  5
1EBD
330
1DDD
100
AcDbEntity
  8
実形
 62
     0
100
AcDbMText
 10
2488.633877365066
 20
752.7087029177619
 30
0.0
 40
25.0
 41
0.0
 71
     5
 72
     1
  1
17
 73
     1
 44
1.0
1001
ACAD
1000
MTEXTBEGIN
1070
    73
1070
     1
1070
    44
1040
1.0
1070
    74
1070
     0
1000
MTEXTEND
  0
POINT
  5
1EBE
330
1DDD
100
AcDbEntity
  8
Defpoints
 62
     0
100
AcDbPoint
 10
2356.033877365066
 20
631.1956311673382
 30
0.0
  0
POINT
  5
1EBF
330
1DDD
100
AcDbEntity
  8
Defpoints
 62
     0
100
AcDbPoint
 10
2621.233877365066
 20
631.1956311673382
 30
0.0
  0
POINT
  5
1EC0
330
1DDD
100
AcDbEntity
  8
Defpoints
 62
     0
100
AcDbPoint
 10
2621.233877365066
 20
733.9587029177619
 30
0.0
  0
ENDBLK
  5
1DE8
330
1DDD
100
AcDbEntity
  8
0
100
AcDbBlockEnd
  0
BLOCK
  5
1DF3
330
1DE9
100
AcDbEntity
  8
0
100
AcDbBlockBegin
  2
*D35
 70
     1
 10
0.0
 20
0.0
 30
0.0
  3
*D35
  1

  0
LINE
  5
1EC1
330
1DE9
100
AcDbEntity
  8
実形
 62
     0
370
    18
100
AcDbLine
 10
2075.233877365066
 20
696.1956311673382
 30
0.0
 11
2075.233877365066
 21
777.4666415156134
 31
0.0
  0
LINE
  5
1EC2
330
1DE9
100
AcDbEntity
  8
実形
 62
     0
370
    18
100
AcDbLine
 10
2621.233877365066
 20
696.1956311673382
 30
0.0
 11
2621.233877365066
 21
777.4666415156134
 31
0.0
  0
LINE
  5
1EC3
330
1DE9
100
AcDbEntity
  8
実形
 62
     0
370
    18
100
AcDbLine
 10
2075.233877365066
 20
777.4666415156134
 30
0.0
 11
2621.233877365066
 21
777.4666415156134
 31
0.0
  0
INSERT
  5
1EC4
330
1DE9
100
AcDbEntity
  8
実形
 62
     0
370
    18
100
AcDbBlockReference
  2
_DotSmall
 10
2075.233877365066
 20
777.4666415156134
 30
0.0
 41
35.0
 42
35.0
 43
35.0
 50
180.0
  0
INSERT
  5
1EC5
330
1DE9
100
AcDbEntity
  8
実形
 62
     0
370
    18
100
AcDbBlockReference
  2
_DotSmall
 10
2621.233877365066
 20
777.4666415156134
 30
0.0
 41
35.0
 42
35.0
 43
35.0
  0
MTEXT
  5
1EC6
330
1DE9
100
AcDbEntity
  8
実形
 62
     0
100
AcDbMText
 10
2348.233877365066
 20
796.2166415156134
 30
0.0
 40
25.0
 41
0.0
 71
     5
 72
     1
  1
35
 73
     1
 44
1.0
1001
ACAD
1000
MTEXTBEGIN
1070
    73
1070
     1
1070
    44
1040
1.0
1070
    74
1070
     0
1000
MTEXTEND
  0
POINT
  5
1EC7
330
1DE9
100
AcDbEntity
  8
Defpoints
 62
     0
100
AcDbPoint
 10
2075.233877365066
 20
631.1956311673382
 30
0.0
  0
POINT
  5
1EC8
330
1DE9
100
AcDbEntity
  8
Defpoints
 62
     0
100
AcDbPoint
 10
2621.233877365066
 20
631.1956311673382
 30
0.0
  0
POINT
  5
1EC9
330
1DE9
100
AcDbEntity
  8
Defpoints
 62
     0
100
AcDbPoint
 10
2621.233877365066
 20
777.4666415156134
 30
0.0
  0
ENDBLK
  5
1DF4
330
1DE9
100
AcDbEntity
  8
0
100
AcDbBlockEnd
  0
BLOCK
  5
1DFF
330
1DF5
100
AcDbEntity
  8
0
100
AcDbBlockBegin
  2
*D36
 70
     1
 10
0.0
 20
0.0
 30
0.0
  3
*D36
  1

  0
LINE
  5
1ECA
330
1DF5
100
AcDbEntity
  8
実形
 62
     0
370
    18
100
AcDbLine
 10
2106.433877365066
 20
346.5474686202858
 30
0.0
 11
2106.433877365066
 21
297.5085770831867
 31
0.0
  0
LINE
  5
1ECB
330
1DF5
100
AcDbEntity
  8
実形
 62
     0
370
    18
100
AcDbLine
 10
2153.233877365066
 20
346.5474686202858
 30
0.0
 11
2153.233877365066
 21
297.5085770831867
 31
0.0
  0
LINE
  5
1ECC
330
1DF5
100
AcDbEntity
  8
実形
 62
     0
370
    18
100
AcDbLine
 10
2106.433877365066
 20
297.5085770831867
 30
0.0
 11
2153.233877365066
 21
297.5085770831867
 31
0.0
  0
MTEXT
  5
1ECD
330
1DF5
100
AcDbEntity
  8
実形
 62
     0
100
AcDbMText
 10
2053.203290699754
 20
332.9138518235977
 30
0.0
 40
25.0
 41
0.0
 71
     5
 72
     1
  1
3.2
 73
     1
 44
1.0
1001
ACAD
1000
MTEXTBEGIN
1070
    73
1070
     1
1070
    44
1040
1.0
1070
    74
1070
     0
1000
MTEXTEND
  0
INSERT
  5
1ECE
330
1DF5
100
AcDbEntity
  8
実形
 62
     0
370
    18
100
AcDbBlockReference
  2
_DotSmall
 10
2106.433877365066
 20
297.5085770831867
 30
0.0
 41
35.0
 42
35.0
 43
35.0
 50
180.0
  0
INSERT
  5
1ECF
330
1DF5
100
AcDbEntity
  8
実形
 62
     0
370
    18
100
AcDbBlockReference
  2
_DotSmall
 10
2153.233877365066
 20
297.5085770831867
 30
0.0
 41
35.0
 42
35.0
 43
35.0
  0
POINT
  5
1ED0
330
1DF5
100
AcDbEntity
  8
Defpoints
 62
     0
100
AcDbPoint
 10
2106.433877365066
 20
411.5474686202857
 30
0.0
  0
POINT
  5
1ED1
330
1DF5
100
AcDbEntity
  8
Defpoints
 62
     0
100
AcDbPoint
 10
2153.233877365066
 20
411.5474686202857
 30
0.0
  0
POINT
  5
1ED2
330
1DF5
100
AcDbEntity
  8
Defpoints
 62
     0
100
AcDbPoint
 10
2153.233877365066
 20
297.5085770831867
 30
0.0
  0
ENDBLK
  5
1E00
330
1DF5
100
AcDbEntity
  8
0
100
AcDbBlockEnd
  0
BLOCK
  5
1E0B
330
1E01
100
AcDbEntity
  8
0
100
AcDbBlockBegin
  2
*D37
 70
     1
 10
0.0
 20
0.0
 30
0.0
  3
*D37
  1

  0
LINE
  5
1ED3
330
1E01
100
AcDbEntity
  8
実形
 62
     0
370
    18
100
AcDbLine
 10
2153.233877365066
 20
346.5474686202858
 30
0.0
 11
2153.233877365066
 21
297.5085770831867
 31
0.0
  0
LINE
  5
1ED4
330
1E01
100
AcDbEntity
  8
実形
 62
     0
370
    18
100
AcDbLine
 10
2278.033877365066
 20
346.5474686202858
 30
0.0
 11
2278.033877365066
 21
297.5085770831867
 31
0.0
  0
LINE
  5
1ED5
330
1E01
100
AcDbEntity
  8
実形
 62
     0
370
    18
100
AcDbLine
 10
2153.233877365066
 20
297.5085770831867
 30
0.0
 11
2278.033877365066
 21
297.5085770831867
 31
0.0
  0
INSERT
  5
1ED6
330
1E01
100
AcDbEntity
  8
実形
 62
     0
370
    18
100
AcDbBlockReference
  2
_DotSmall
 10
2153.233877365066
 20
297.5085770831867
 30
0.0
 41
35.0
 42
35.0
 43
35.0
 50
180.0
  0
INSERT
  5
1ED7
330
1E01
100
AcDbEntity
  8
実形
 62
     0
370
    18
100
AcDbBlockReference
  2
_DotSmall
 10
2278.033877365066
 20
297.5085770831867
 30
0.0
 41
35.0
 42
35.0
 43
35.0
  0
MTEXT
  5
1ED8
330
1E01
100
AcDbEntity
  8
実形
 62
     0
100
AcDbMText
 10
2215.633877365066
 20
316.2585770831867
 30
0.0
 40
25.0
 41
0.0
 71
     5
 72
     1
  1
8
 73
     1
 44
1.0
1001
ACAD
1000
MTEXTBEGIN
1070
    73
1070
     1
1070
    44
1040
1.0
1070
    74
1070
     0
1000
MTEXTEND
  0
POINT
  5
1ED9
330
1E01
100
AcDbEntity
  8
Defpoints
 62
     0
100
AcDbPoint
 10
2153.233877365066
 20
411.5474686202857
 30
0.0
  0
POINT
  5
1EDA
330
1E01
100
AcDbEntity
  8
Defpoints
 62
     0
100
AcDbPoint
 10
2278.033877365066
 20
411.5474686202857
 30
0.0
  0
POINT
  5
1EDB
330
1E01
100
AcDbEntity
  8
Defpoints
 62
     0
100
AcDbPoint
 10
2278.033877365066
 20
297.5085770831867
 30
0.0
  0
ENDBLK
  5
1E0C
330
1E01
100
AcDbEntity
  8
0
100
AcDbBlockEnd
  0
BLOCK
  5
1E17
330
1E0D
100
AcDbEntity
  8
0
100
AcDbBlockBegin
  2
*D38
 70
     1
 10
0.0
 20
0.0
 30
0.0
  3
*D38
  1

  0
LINE
  5
1EDC
330
1E0D
100
AcDbEntity
  8
実形
 62
     0
370
    18
100
AcDbLine
 10
2278.033877365066
 20
346.5474686202858
 30
0.0
 11
2278.033877365066
 21
297.5085770831867
 31
0.0
  0
LINE
  5
1EDD
330
1E0D
100
AcDbEntity
  8
実形
 62
     0
370
    18
100
AcDbLine
 10
2356.033877365066
 20
346.5474686202858
 30
0.0
 11
2356.033877365066
 21
297.5085770831867
 31
0.0
  0
LINE
  5
1EDE
330
1E0D
100
AcDbEntity
  8
実形
 62
     0
370
    18
100
AcDbLine
 10
2278.033877365066
 20
297.5085770831867
 30
0.0
 11
2356.033877365066
 21
297.5085770831867
 31
0.0
  0
INSERT
  5
1EDF
330
1E0D
100
AcDbEntity
  8
実形
 62
     0
370
    18
100
AcDbBlockReference
  2
_DotSmall
 10
2278.033877365066
 20
297.5085770831867
 30
0.0
 41
35.0
 42
35.0
 43
35.0
 50
180.0
  0
INSERT
  5
1EE0
330
1E0D
100
AcDbEntity
  8
実形
 62
     0
370
    18
100
AcDbBlockReference
  2
_DotSmall
 10
2356.033877365066
 20
297.5085770831867
 30
0.0
 41
35.0
 42
35.0
 43
35.0
  0
MTEXT
  5
1EE1
330
1E0D
100
AcDbEntity
  8
実形
 62
     0
100
AcDbMText
 10
2317.033877365066
 20
316.2585770831867
 30
0.0
 40
25.0
 41
0.0
 71
     5
 72
     1
  1
5
 73
     1
 44
1.0
1001
ACAD
1000
MTEXTBEGIN
1070
    73
1070
     1
1070
    44
1040
1.0
1070
    74
1070
     0
1000
MTEXTEND
  0
POINT
  5
1EE2
330
1E0D
100
AcDbEntity
  8
Defpoints
 62
     0
100
AcDbPoint
 10
2278.033877365066
 20
411.5474686202857
 30
0.0
  0
POINT
  5
1EE3
330
1E0D
100
AcDbEntity
  8
Defpoints
 62
     0
100
AcDbPoint
 10
2356.033877365066
 20
411.5474686202857
 30
0.0
  0
POINT
  5
1EE4
330
1E0D
100
AcDbEntity
  8
Defpoints
 62
     0
100
AcDbPoint
 10
2356.033877365066
 20
297.5085770831867
 30
0.0
  0
ENDBLK
  5
1E18
330
1E0D
100
AcDbEntity
  8
0
100
AcDbBlockEnd
  0
BLOCK
  5
1E23
330
1E19
100
AcDbEntity
  8
0
100
AcDbBlockBegin
  2
*D39
 70
     1
 10
0.0
 20
0.0
 30
0.0
  3
*D39
  1

  0
LINE
  5
1EE5
330
1E19
100
AcDbEntity
  8
実形
 62
     0
370
    18
100
AcDbLine
 10
2356.033877365066
 20
346.5474686202858
 30
0.0
 11
2356.033877365066
 21
297.5085770831867
 31
0.0
  0
LINE
  5
1EE6
330
1E19
100
AcDbEntity
  8
実形
 62
     0
370
    18
100
AcDbLine
 10
2621.233877365066
 20
346.5474686202858
 30
0.0
 11
2621.233877365066
 21
297.5085770831867
 31
0.0
  0
LINE
  5
1EE7
330
1E19
100
AcDbEntity
  8
実形
 62
     0
370
    18
100
AcDbLine
 10
2356.033877365066
 20
297.5085770831867
 30
0.0
 11
2621.233877365066
 21
297.5085770831867
 31
0.0
  0
INSERT
  5
1EE8
330
1E19
100
AcDbEntity
  8
実形
 62
     0
370
    18
100
AcDbBlockReference
  2
_DotSmall
 10
2356.033877365066
 20
297.5085770831867
 30
0.0
 41
35.0
 42
35.0
 43
35.0
 50
180.0
  0
INSERT
  5
1EE9
330
1E19
100
AcDbEntity
  8
実形
 62
     0
370
    18
100
AcDbBlockReference
  2
_DotSmall
 10
2621.233877365066
 20
297.5085770831867
 30
0.0
 41
35.0
 42
35.0
 43
35.0
  0
MTEXT
  5
1EEA
330
1E19
100
AcDbEntity
  8
実形
 62
     0
100
AcDbMText
 10
2488.633877365066
 20
316.2585770831867
 30
0.0
 40
25.0
 41
0.0
 71
     5
 72
     1
  1
17
 73
     1
 44
1.0
1001
ACAD
1000
MTEXTBEGIN
1070
    73
1070
     1
1070
    44
1040
1.0
1070
    74
1070
     0
1000
MTEXTEND
  0
POINT
  5
1EEB
330
1E19
100
AcDbEntity
  8
Defpoints
 62
     0
100
AcDbPoint
 10
2356.033877365066
 20
411.5474686202857
 30
0.0
  0
POINT
  5
1EEC
330
1E19
100
AcDbEntity
  8
Defpoints
 62
     0
100
AcDbPoint
 10
2621.233877365066
 20
411.5474686202857
 30
0.0
  0
POINT
  5
1EED
330
1E19
100
AcDbEntity
  8
Defpoints
 62
     0
100
AcDbPoint
 10
2621.233877365066
 20
297.5085770831867
 30
0.0
  0
ENDBLK
  5
1E24
330
1E19
100
AcDbEntity
  8
0
100
AcDbBlockEnd
  0
BLOCK
  5
1E2F
330
1E25
100
AcDbEntity
  8
0
100
AcDbBlockBegin
  2
*D40
 70
     1
 10
0.0
 20
0.0
 30
0.0
  3
*D40
  1

  0
LINE
  5
1EEE
330
1E25
100
AcDbEntity
  8
実形
 62
     0
370
    18
100
AcDbLine
 10
2077.023276234157
 20
297.8281686160613
 30
0.0
 11
2077.023276234157
 21
247.5388396829094
 31
0.0
  0
LINE
  5
1EEF
330
1E25
100
AcDbEntity
  8
実形
 62
     0
370
    18
100
AcDbLine
 10
2155.023276234156
 20
297.8281686160613
 30
0.0
 11
2155.023276234156
 21
247.5388396829094
 31
0.0
  0
LINE
  5
1EF0
330
1E25
100
AcDbEntity
  8
実形
 62
     0
370
    18
100
AcDbLine
 10
2077.023276234157
 20
247.5388396829094
 30
0.0
 11
2155.023276234156
 21
247.5388396829094
 31
0.0
  0
INSERT
  5
1EF1
330
1E25
100
AcDbEntity
  8
実形
 62
     0
370
    18
100
AcDbBlockReference
  2
_DotSmall
 10
2077.023276234157
 20
247.5388396829094
 30
0.0
 41
35.0
 42
35.0
 43
35.0
 50
180.0
  0
INSERT
  5
1EF2
330
1E25
100
AcDbEntity
  8
実形
 62
     0
370
    18
100
AcDbBlockReference
  2
_DotSmall
 10
2155.023276234156
 20
247.5388396829094
 30
0.0
 41
35.0
 42
35.0
 43
35.0
  0
MTEXT
  5
1EF3
330
1E25
100
AcDbEntity
  8
実形
 62
     0
100
AcDbMText
 10
2116.023276234157
 20
266.2888396829094
 30
0.0
 40
25.0
 41
0.0
 71
     5
 72
     1
  1
5
 73
     1
 44
1.0
1001
ACAD
1000
MTEXTBEGIN
1070
    73
1070
     1
1070
    44
1040
1.0
1070
    74
1070
     0
1000
MTEXTEND
  0
POINT
  5
1EF4
330
1E25
100
AcDbEntity
  8
Defpoints
 62
     0
100
AcDbPoint
 10
2077.023276234157
 20
362.8281686160613
 30
0.0
  0
POINT
  5
1EF5
330
1E25
100
AcDbEntity
  8
Defpoints
 62
     0
100
AcDbPoint
 10
2155.023276234156
 20
362.8281686160613
 30
0.0
  0
POINT
  5
1EF6
330
1E25
100
AcDbEntity
  8
Defpoints
 62
     0
100
AcDbPoint
 10
2155.023276234156
 20
247.5388396829094
 30
0.0
  0
ENDBLK
  5
1E30
330
1E25
100
AcDbEntity
  8
0
100
AcDbBlockEnd
  0
BLOCK
  5
1E3B
330
1E31
100
AcDbEntity
  8
0
100
AcDbBlockBegin
  2
*D41
 70
     1
 10
0.0
 20
0.0
 30
0.0
  3
*D41
  1

  0
LINE
  5
1EF7
330
1E31
100
AcDbEntity
  8
実形
 62
     0
370
    18
100
AcDbLine
 10
2155.023276234156
 20
297.8281686160613
 30
0.0
 11
2155.023276234156
 21
247.5388396829094
 31
0.0
  0
LINE
  5
1EF8
330
1E31
100
AcDbEntity
  8
実形
 62
     0
370
    18
100
AcDbLine
 10
2623.023276234156
 20
297.8281686160613
 30
0.0
 11
2623.023276234156
 21
247.5388396829094
 31
0.0
  0
LINE
  5
1EF9
330
1E31
100
AcDbEntity
  8
実形
 62
     0
370
    18
100
AcDbLine
 10
2155.023276234156
 20
247.5388396829094
 30
0.0
 11
2623.023276234156
 21
247.5388396829094
 31
0.0
  0
INSERT
  5
1EFA
330
1E31
100
AcDbEntity
  8
実形
 62
     0
370
    18
100
AcDbBlockReference
  2
_DotSmall
 10
2155.023276234156
 20
247.5388396829094
 30
0.0
 41
35.0
 42
35.0
 43
35.0
 50
180.0
  0
INSERT
  5
1EFB
330
1E31
100
AcDbEntity
  8
実形
 62
     0
370
    18
100
AcDbBlockReference
  2
_DotSmall
 10
2623.023276234156
 20
247.5388396829094
 30
0.0
 41
35.0
 42
35.0
 43
35.0
  0
MTEXT
  5
1EFC
330
1E31
100
AcDbEntity
  8
実形
 62
     0
100
AcDbMText
 10
2389.023276234156
 20
266.2888396829094
 30
0.0
 40
25.0
 41
0.0
 71
     5
 72
     1
  1
30
 73
     1
 44
1.0
1001
ACAD
1000
MTEXTBEGIN
1070
    73
1070
     1
1070
    44
1040
1.0
1070
    74
1070
     0
1000
MTEXTEND
  0
POINT
  5
1EFD
330
1E31
100
AcDbEntity
  8
Defpoints
 62
     0
100
AcDbPoint
 10
2155.023276234156
 20
362.8281686160613
 30
0.0
  0
POINT
  5
1EFE
330
1E31
100
AcDbEntity
  8
Defpoints
 62
     0
100
AcDbPoint
 10
2623.023276234156
 20
362.8281686160613
 30
0.0
  0
POINT
  5
1EFF
330
1E31
100
AcDbEntity
  8
Defpoints
 62
     0
100
AcDbPoint
 10
2623.023276234156
 20
247.5388396829094
 30
0.0
  0
ENDBLK
  5
1E3C
330
1E31
100
AcDbEntity
  8
0
100
AcDbBlockEnd
  0
BLOCK
  5
1E47
330
1E3D
100
AcDbEntity
  8
0
100
AcDbBlockBegin
  2
*D42
 70
     1
 10
0.0
 20
0.0
 30
0.0
  3
*D42
  1

  0
LINE
  5
1F00
330
1E3D
100
AcDbEntity
  8
実形
 62
     0
370
    18
100
AcDbLine
 10
2032.328912889143
 20
684.0947101512855
 30
0.0
 11
1970.032114275532
 21
684.0947101512855
 31
0.0
  0
LINE
  5
1F01
330
1E3D
100
AcDbEntity
  8
実形
 62
     0
370
    18
100
AcDbLine
 10
2032.328912889143
 20
585.2947101512854
 30
0.0
 11
1970.032114275532
 21
585.2947101512854
 31
0.0
  0
LINE
  5
1F02
330
1E3D
100
AcDbEntity
  8
実形
 62
     0
370
    18
100
AcDbLine
 10
1970.032114275532
 20
684.0947101512855
 30
0.0
 11
1970.032114275532
 21
585.2947101512854
 31
0.0
  0
INSERT
  5
1F03
330
1E3D
100
AcDbEntity
  8
実形
 62
     0
370
    18
100
AcDbBlockReference
  2
_DotSmall
 10
1970.032114275532
 20
684.0947101512855
 30
0.0
 41
35.0
 42
35.0
 43
35.0
 50
90.0
  0
INSERT
  5
1F04
330
1E3D
100
AcDbEntity
  8
実形
 62
     0
370
    18
100
AcDbBlockReference
  2
_DotSmall
 10
1970.032114275532
 20
585.2947101512854
 30
0.0
 41
35.0
 42
35.0
 43
35.0
 50
270.0
  0
MTEXT
  5
1F05
330
1E3D
100
AcDbEntity
  8
実形
 62
     0
100
AcDbMText
 10
1951.282114275532
 20
634.6947101512859
 30
0.0
 40
25.0
 41
0.0
 71
     5
 72
     1
  1
6.5
 11
0.0000000000000001
 21
1.0
 31
0.0
 73
     1
 44
1.0
1001
ACAD
1000
MTEXTBEGIN
1070
    73
1070
     1
1070
    44
1040
1.0
1070
    74
1070
     0
1000
MTEXTEND
  0
POINT
  5
1F06
330
1E3D
100
AcDbEntity
  8
Defpoints
 62
     0
100
AcDbPoint
 10
2097.328912889143
 20
684.0947101512855
 30
0.0
  0
POINT
  5
1F07
330
1E3D
100
AcDbEntity
  8
Defpoints
 62
     0
100
AcDbPoint
 10
2097.328912889143
 20
585.2947101512854
 30
0.0
  0
POINT
  5
1F08
330
1E3D
100
AcDbEntity
  8
Defpoints
 62
     0
100
AcDbPoint
 10
1970.032114275532
 20
585.2947101512854
 30
0.0
  0
ENDBLK
  5
1E48
330
1E3D
100
AcDbEntity
  8
0
100
AcDbBlockEnd
  0
BLOCK
  5
1E53
330
1E49
100
AcDbEntity
  8
0
100
AcDbBlockBegin
  2
*D43
 70
     1
 10
0.0
 20
0.0
 30
0.0
  3
*D43
  1

  0
LINE
  5
1F09
330
1E49
100
AcDbEntity
  8
実形
 62
     0
370
    18
100
AcDbLine
 10
2032.328912889143
 20
684.0947101512855
 30
0.0
 11
1916.035186721017
 21
684.0947101512855
 31
0.0
  0
LINE
  5
1F0A
330
1E49
100
AcDbEntity
  8
実形
 62
     0
370
    18
100
AcDbLine
 10
2032.328912889143
 20
559.2947101512846
 30
0.0
 11
1916.035186721017
 21
559.2947101512846
 31
0.0
  0
LINE
  5
1F0B
330
1E49
100
AcDbEntity
  8
実形
 62
     0
370
    18
100
AcDbLine
 10
1916.035186721017
 20
684.0947101512855
 30
0.0
 11
1916.035186721017
 21
559.2947101512846
 31
0.0
  0
INSERT
  5
1F0C
330
1E49
100
AcDbEntity
  8
実形
 62
     0
370
    18
100
AcDbBlockReference
  2
_DotSmall
 10
1916.035186721017
 20
684.0947101512855
 30
0.0
 41
35.0
 42
35.0
 43
35.0
 50
90.0
  0
INSERT
  5
1F0D
330
1E49
100
AcDbEntity
  8
実形
 62
     0
370
    18
100
AcDbBlockReference
  2
_DotSmall
 10
1916.035186721017
 20
559.2947101512846
 30
0.0
 41
35.0
 42
35.0
 43
35.0
 50
270.0
  0
MTEXT
  5
1F0E
330
1E49
100
AcDbEntity
  8
実形
 62
     0
100
AcDbMText
 10
1897.285186721017
 20
621.6947101512854
 30
0.0
 40
25.0
 41
0.0
 71
     5
 72
     1
  1
8.2
 11
0.0000000000000001
 21
1.0
 31
0.0
 73
     1
 44
1.0
1001
ACAD
1000
MTEXTBEGIN
1070
    73
1070
     1
1070
    44
1040
1.0
1070
    74
1070
     0
1000
MTEXTEND
  0
POINT
  5
1F0F
330
1E49
100
AcDbEntity
  8
Defpoints
 62
     0
100
AcDbPoint
 10
2097.328912889143
 20
684.0947101512855
 30
0.0
  0
POINT
  5
1F10
330
1E49
100
AcDbEntity
  8
Defpoints
 62
     0
100
AcDbPoint
 10
2097.328912889143
 20
559.2947101512846
 30
0.0
  0
POINT
  5
1F11
330
1E49
100
AcDbEntity
  8
Defpoints
 62
     0
100
AcDbPoint
 10
1916.035186721017
 20
559.2947101512846
 30
0.0
  0
ENDBLK
  5
1E54
330
1E49
100
AcDbEntity
  8
0
100
AcDbBlockEnd
  0
BLOCK
  5
1E5F
330
1E55
100
AcDbEntity
  8
0
100
AcDbBlockBegin
  2
*D44
 70
     1
 10
0.0
 20
0.0
 30
0.0
  3
*D44
  1

  0
LINE
  5
1F12
330
1E55
100
AcDbEntity
  8
実形
 62
     0
370
    18
100
AcDbLine
 10
2032.328912889143
 20
543.6947101512854
 30
0.0
 11
1864.389549972262
 21
543.6947101512854
 31
0.0
  0
LINE
  5
1F13
330
1E55
100
AcDbEntity
  8
実形
 62
     0
370
    18
100
AcDbLine
 10
2032.328912889143
 20
684.0947101512855
 30
0.0
 11
1864.389549972262
 21
684.0947101512855
 31
0.0
  0
LINE
  5
1F14
330
1E55
100
AcDbEntity
  8
実形
 62
     0
370
    18
100
AcDbLine
 10
1864.389549972262
 20
543.6947101512854
 30
0.0
 11
1864.389549972262
 21
684.0947101512855
 31
0.0
  0
INSERT
  5
1F15
330
1E55
100
AcDbEntity
  8
実形
 62
     0
370
    18
100
AcDbBlockReference
  2
_DotSmall
 10
1864.389549972262
 20
543.6947101512854
 30
0.0
 41
35.0
 42
35.0
 43
35.0
 50
270.0
  0
INSERT
  5
1F16
330
1E55
100
AcDbEntity
  8
実形
 62
     0
370
    18
100
AcDbBlockReference
  2
_DotSmall
 10
1864.389549972262
 20
684.0947101512855
 30
0.0
 41
35.0
 42
35.0
 43
35.0
 50
90.0
  0
MTEXT
  5
1F17
330
1E55
100
AcDbEntity
  8
実形
 62
     0
100
AcDbMText
 10
1845.639549972261
 20
613.8947101512858
 30
0.0
 40
25.0
 41
0.0
 71
     5
 72
     1
  1
9
 11
0.0000000000000001
 21
1.0
 31
0.0
 73
     1
 44
1.0
1001
ACAD
1000
MTEXTBEGIN
1070
    73
1070
     1
1070
    44
1040
1.0
1070
    74
1070
     0
1000
MTEXTEND
  0
POINT
  5
1F18
330
1E55
100
AcDbEntity
  8
Defpoints
 62
     0
100
AcDbPoint
 10
2097.328912889143
 20
543.6947101512854
 30
0.0
  0
POINT
  5
1F19
330
1E55
100
AcDbEntity
  8
Defpoints
 62
     0
100
AcDbPoint
 10
2097.328912889143
 20
684.0947101512855
 30
0.0
  0
POINT
  5
1F1A
330
1E55
100
AcDbEntity
  8
Defpoints
 62
     0
100
AcDbPoint
 10
1864.389549972262
 20
684.0947101512855
 30
0.0
  0
ENDBLK
  5
1E60
330
1E55
100
AcDbEntity
  8
0
100
AcDbBlockEnd
  0
BLOCK
  5
1E6B
330
1E61
100
AcDbEntity
  8
0
100
AcDbBlockBegin
  2
*D45
 70
     1
 10
0.0
 20
0.0
 30
0.0
  3
*D45
  1

  0
LINE
  5
1F1B
330
1E61
100
AcDbEntity
  8
実形
 62
     0
370
    18
100
AcDbLine
 10
2647.25404811461
 20
543.6947101512855
 30
0.0
 11
2673.699912636183
 21
543.6947101512855
 31
0.0
  0
LINE
  5
1F1C
330
1E61
100
AcDbEntity
  8
実形
 62
     0
370
    18
100
AcDbLine
 10
2647.25404811461
 20
403.2947101512855
 30
0.0
 11
2673.699912636183
 21
403.2947101512855
 31
0.0
  0
LINE
  5
1F1D
330
1E61
100
AcDbEntity
  8
実形
 62
     0
370
    18
100
AcDbLine
 10
2673.699912636183
 20
543.6947101512855
 30
0.0
 11
2673.699912636183
 21
403.2947101512855
 31
0.0
  0
INSERT
  5
1F1E
330
1E61
100
AcDbEntity
  8
実形
 62
     0
370
    18
100
AcDbBlockReference
  2
_DotSmall
 10
2673.699912636183
 20
543.6947101512855
 30
0.0
 41
35.0
 42
35.0
 43
35.0
 50
90.0
  0
INSERT
  5
1F1F
330
1E61
100
AcDbEntity
  8
実形
 62
     0
370
    18
100
AcDbBlockReference
  2
_DotSmall
 10
2673.699912636183
 20
403.2947101512855
 30
0.0
 41
35.0
 42
35.0
 43
35.0
 50
270.0
  0
MTEXT
  5
1F20
330
1E61
100
AcDbEntity
  8
実形
 62
     0
100
AcDbMText
 10
2654.949912636183
 20
473.4947101512859
 30
0.0
 40
25.0
 41
0.0
 71
     5
 72
     1
  1
9
 11
0.0000000000000001
 21
1.0
 31
0.0
 73
     1
 44
1.0
1001
ACAD
1000
MTEXTBEGIN
1070
    73
1070
     1
1070
    44
1040
1.0
1070
    74
1070
     0
1000
MTEXTEND
  0
POINT
  5
1F21
330
1E61
100
AcDbEntity
  8
Defpoints
 62
     0
100
AcDbPoint
 10
2582.25404811461
 20
543.6947101512855
 30
0.0
  0
POINT
  5
1F22
330
1E61
100
AcDbEntity
  8
Defpoints
 62
     0
100
AcDbPoint
 10
2582.25404811461
 20
403.2947101512855
 30
0.0
  0
POINT
  5
1F23
330
1E61
100
AcDbEntity
  8
Defpoints
 62
     0
100
AcDbPoint
 10
2673.699912636183
 20
403.2947101512855
 30
0.0
  0
ENDBLK
  5
1E6C
330
1E61
100
AcDbEntity
  8
0
100
AcDbBlockEnd
  0
BLOCK
  5
1E77
330
1E6D
100
AcDbEntity
  8
0
100
AcDbBlockBegin
  2
*D46
 70
     1
 10
0.0
 20
0.0
 30
0.0
  3
*D46
  1

  0
LINE
  5
1F24
330
1E6D
100
AcDbEntity
  8
実形
 62
     0
370
    18
100
AcDbLine
 10
2647.25404811461
 20
684.0947101512855
 30
0.0
 11
2673.699912636183
 21
684.0947101512855
 31
0.0
  0
LINE
  5
1F25
330
1E6D
100
AcDbEntity
  8
実形
 62
     0
370
    18
100
AcDbLine
 10
2647.25404811461
 20
543.6947101512855
 30
0.0
 11
2673.699912636183
 21
543.6947101512855
 31
0.0
  0
LINE
  5
1F26
330
1E6D
100
AcDbEntity
  8
実形
 62
     0
370
    18
100
AcDbLine
 10
2673.699912636183
 20
684.0947101512855
 30
0.0
 11
2673.699912636183
 21
543.6947101512855
 31
0.0
  0
INSERT
  5
1F27
330
1E6D
100
AcDbEntity
  8
実形
 62
     0
370
    18
100
AcDbBlockReference
  2
_DotSmall
 10
2673.699912636183
 20
684.0947101512855
 30
0.0
 41
35.0
 42
35.0
 43
35.0
 50
90.0
  0
INSERT
  5
1F28
330
1E6D
100
AcDbEntity
  8
実形
 62
     0
370
    18
100
AcDbBlockReference
  2
_DotSmall
 10
2673.699912636183
 20
543.6947101512855
 30
0.0
 41
35.0
 42
35.0
 43
35.0
 50
270.0
  0
MTEXT
  5
1F29
330
1E6D
100
AcDbEntity
  8
実形
 62
     0
100
AcDbMText
 10
2654.949912636183
 20
613.8947101512859
 30
0.0
 40
25.0
 41
0.0
 71
     5
 72
     1
  1
9
 11
0.0000000000000001
 21
1.0
 31
0.0
 73
     1
 44
1.0
1001
ACAD
1000
MTEXTBEGIN
1070
    73
1070
     1
1070
    44
1040
1.0
1070
    74
1070
     0
1000
MTEXTEND
  0
POINT
  5
1F2A
330
1E6D
100
AcDbEntity
  8
Defpoints
 62
     0
100
AcDbPoint
 10
2582.25404811461
 20
684.0947101512855
 30
0.0
  0
POINT
  5
1F2B
330
1E6D
100
AcDbEntity
  8
Defpoints
 62
     0
100
AcDbPoint
 10
2582.25404811461
 20
543.6947101512855
 30
0.0
  0
POINT
  5
1F2C
330
1E6D
100
AcDbEntity
  8
Defpoints
 62
     0
100
AcDbPoint
 10
2673.699912636183
 20
543.6947101512855
 30
0.0
  0
ENDBLK
  5
1E78
330
1E6D
100
AcDbEntity
  8
0
100
AcDbBlockEnd
  0
BLOCK
  5
1E83
330
1E79
100
AcDbEntity
  8
0
100
AcDbBlockBegin
  2
*D47
 70
     1
 10
0.0
 20
0.0
 30
0.0
  3
*D47
  1

  0
LINE
  5
1F2D
330
1E79
100
AcDbEntity
  8
実形
 62
     0
370
    18
100
AcDbLine
 10
2647.25404811461
 20
684.0947101512855
 30
0.0
 11
2715.480008308167
 21
684.0947101512855
 31
0.0
  0
LINE
  5
1F2E
330
1E79
100
AcDbEntity
  8
実形
 62
     0
370
    18
100
AcDbLine
 10
2647.25404811461
 20
403.2947101512855
 30
0.0
 11
2715.480008308167
 21
403.2947101512855
 31
0.0
  0
LINE
  5
1F2F
330
1E79
100
AcDbEntity
  8
実形
 62
     0
370
    18
100
AcDbLine
 10
2715.480008308167
 20
684.0947101512855
 30
0.0
 11
2715.480008308167
 21
403.2947101512855
 31
0.0
  0
INSERT
  5
1F30
330
1E79
100
AcDbEntity
  8
実形
 62
     0
370
    18
100
AcDbBlockReference
  2
_DotSmall
 10
2715.480008308167
 20
684.0947101512855
 30
0.0
 41
35.0
 42
35.0
 43
35.0
 50
90.0
  0
INSERT
  5
1F31
330
1E79
100
AcDbEntity
  8
実形
 62
     0
370
    18
100
AcDbBlockReference
  2
_DotSmall
 10
2715.480008308167
 20
403.2947101512855
 30
0.0
 41
35.0
 42
35.0
 43
35.0
 50
270.0
  0
MTEXT
  5
1F32
330
1E79
100
AcDbEntity
  8
実形
 62
     0
100
AcDbMText
 10
2696.730008308167
 20
543.694710151286
 30
0.0
 40
25.0
 41
0.0
 71
     5
 72
     1
  1
18
 11
0.0000000000000001
 21
1.0
 31
0.0
 73
     1
 44
1.0
1001
ACAD
1000
MTEXTBEGIN
1070
    73
1070
     1
1070
    44
1040
1.0
1070
    74
1070
     0
1000
MTEXTEND
  0
POINT
  5
1F33
330
1E79
100
AcDbEntity
  8
Defpoints
 62
     0
100
AcDbPoint
 10
2582.25404811461
 20
684.0947101512855
 30
0.0
  0
POINT
  5
1F34
330
1E79
100
AcDbEntity
  8
Defpoints
 62
     0
100
AcDbPoint
 10
2582.25404811461
 20
403.2947101512855
 30
0.0
  0
POINT
  5
1F35
330
1E79
100
AcDbEntity
  8
Defpoints
 62
     0
100
AcDbPoint
 10
2715.480008308167
 20
403.2947101512855
 30
0.0
  0
ENDBLK
  5
1E84
330
1E79
100
AcDbEntity
  8
0
100
AcDbBlockEnd
  0
BLOCK
  5
1F57
330
1F53
100
AcDbEntity
  8
0
100
AcDbBlockBegin
  2
A$C537F0D52
 70
     0
 10
0.0
 20
0.0
 30
0.0
  3
A$C537F0D52
  1

  0
TEXT
  5
1F54
330
1F53
100
AcDbEntity
  8
実形
100
AcDbText
 10
2.633147006093849
 20
7.787350580807229
 30
0.0
 40
30.0
  1
18ｍｍ
  7
明朝
 72
     4
 11
68.46171843466527
 21
22.44449343795009
 31
0.0
100
AcDbText
  0
ENDBLK
  5
1F58
330
1F53
100
AcDbEntity
  8
0
100
AcDbBlockEnd
  0
BLOCK
  5
1FE1
330
1FD7
100
AcDbEntity
  8
0
100
AcDbBlockBegin
  2
*D49
 70
     1
 10
0.0
 20
0.0
 30
0.0
  3
*D49
  1

  0
LINE
  5
20F6
330
1FD7
100
AcDbEntity
  8
実形
 62
     0
370
    18
100
AcDbLine
 10
388.5599635669618
 20
806.2206408833883
 30
0.0
 11
310.5601854582468
 21
806.2206408833883
 31
0.0
  0
LINE
  5
20F7
330
1FD7
100
AcDbEntity
  8
実形
 62
     0
370
    18
100
AcDbLine
 10
389.5387412081376
 20
788.2206408833883
 30
0.0
 11
310.5601854582468
 21
788.2206408833883
 31
0.0
  0
LINE
  5
20F8
330
1FD7
100
AcDbEntity
  8
実形
 62
     0
370
    18
100
AcDbLine
 10
310.5601854582468
 20
806.2206408833883
 30
0.0
 11
310.5601854582468
 21
788.2206408833883
 31
0.0
  0
MTEXT
  5
20F9
330
1FD7
100
AcDbEntity
  8
実形
 62
     0
100
AcDbMText
 10
230.3581047908932
 20
857.7671202284474
 30
0.0
 40
25.0
 41
0.0
 71
     5
 72
     1
  1
18
 11
0.0000000000000001
 21
1.0
 31
0.0
 73
     1
 44
1.0
1001
ACAD
1000
MTEXTBEGIN
1070
    73
1070
     1
1070
    44
1040
1.0
1070
    74
1070
     0
1000
MTEXTEND
  0
INSERT
  5
20FA
330
1FD7
100
AcDbEntity
  8
実形
 62
     0
370
    18
100
AcDbBlockReference
  2
_DotSmall
 10
310.5601854582468
 20
806.2206408833883
 30
0.0
 41
35.0
 42
35.0
 43
35.0
 50
90.0
  0
INSERT
  5
20FB
330
1FD7
100
AcDbEntity
  8
実形
 62
     0
370
    18
100
AcDbBlockReference
  2
_DotSmall
 10
310.5601854582468
 20
788.2206408833883
 30
0.0
 41
35.0
 42
35.0
 43
35.0
 50
270.0
  0
POINT
  5
20FC
330
1FD7
100
AcDbEntity
  8
Defpoints
 62
     0
100
AcDbPoint
 10
453.5599635669618
 20
806.2206408833883
 30
0.0
  0
POINT
  5
20FD
330
1FD7
100
AcDbEntity
  8
Defpoints
 62
     0
100
AcDbPoint
 10
454.5387412081376
 20
788.2206408833883
 30
0.0
  0
POINT
  5
20FE
330
1FD7
100
AcDbEntity
  8
Defpoints
 62
     0
100
AcDbPoint
 10
310.5601854582468
 20
788.2206408833883
 30
0.0
  0
ENDBLK
  5
1FE2
330
1FD7
100
AcDbEntity
  8
0
100
AcDbBlockEnd
  0
BLOCK
  5
1FEF
330
1FE3
100
AcDbEntity
  8
0
100
AcDbBlockBegin
  2
*D50
 70
     1
 10
0.0
 20
0.0
 30
0.0
  3
*D50
  1

  0
LINE
  5
20E0
330
1FE3
100
AcDbEntity
  8
実形
 62
     0
370
    18
100
AcDbLine
 10
389.5387412081376
 20
788.2206408833883
 30
0.0
 11
310.5601854582468
 21
788.2206408833883
 31
0.0
  0
LINE
  5
20E1
330
1FE3
100
AcDbEntity
  8
実形
 62
     0
370
    18
100
AcDbLine
 10
389.5387412081376
 20
783.0206408833884
 30
0.0
 11
310.5601854582468
 21
783.0206408833884
 31
0.0
  0
LINE
  5
20E2
330
1FE3
100
AcDbEntity
  8
実形
 62
     0
370
    18
100
AcDbLine
 10
310.5601854582468
 20
788.2206408833883
 30
0.0
 11
310.5601854582468
 21
823.2206408833883
 31
0.0
  0
LINE
  5
20E3
330
1FE3
100
AcDbEntity
  8
実形
 62
     0
370
    18
100
AcDbLine
 10
310.5601854582468
 20
783.0206408833884
 30
0.0
 11
310.5601854582468
 21
748.0206408833883
 31
0.0
  0
MTEXT
  5
20E4
330
1FE3
100
AcDbEntity
  8
実形
 62
     0
100
AcDbMText
 10
233.1329552122728
 20
759.9603584274464
 30
0.0
 40
25.0
 41
0.0
 71
     5
 72
     1
  1
5.2
 11
0.0000000000000001
 21
1.0
 31
0.0
 73
     1
 44
1.0
1001
ACAD
1000
MTEXTBEGIN
1070
    73
1070
     1
1070
    44
1040
1.0
1070
    74
1070
     0
1000
MTEXTEND
  0
LINE
  5
20E5
330
1FE3
100
AcDbEntity
  8
実形
 62
     0
370
    18
100
AcDbLine
 10
310.5601854582468
 20
788.2206408833883
 30
0.0
 11
310.5601854582468
 21
783.0206408833884
 31
0.0
  0
INSERT
  5
20E6
330
1FE3
100
AcDbEntity
  8
実形
 62
     0
370
    18
100
AcDbBlockReference
  2
_DotSmall
 10
310.5601854582468
 20
788.2206408833883
 30
0.0
 41
35.0
 42
35.0
 43
35.0
 50
270.0
  0
INSERT
  5
20E7
330
1FE3
100
AcDbEntity
  8
実形
 62
     0
370
    18
100
AcDbBlockReference
  2
_DotSmall
 10
310.5601854582468
 20
783.0206408833884
 30
0.0
 41
35.0
 42
35.0
 43
35.0
 50
90.0
  0
POINT
  5
20E8
330
1FE3
100
AcDbEntity
  8
Defpoints
 62
     0
100
AcDbPoint
 10
454.5387412081376
 20
788.2206408833883
 30
0.0
  0
POINT
  5
20E9
330
1FE3
100
AcDbEntity
  8
Defpoints
 62
     0
100
AcDbPoint
 10
454.5387412081376
 20
783.0206408833884
 30
0.0
  0
POINT
  5
20EA
330
1FE3
100
AcDbEntity
  8
Defpoints
 62
     0
100
AcDbPoint
 10
310.5601854582468
 20
783.0206408833884
 30
0.0
  0
ENDBLK
  5
1FF0
330
1FE3
100
AcDbEntity
  8
0
100
AcDbBlockEnd
  0
BLOCK
  5
1FFB
330
1FF1
100
AcDbEntity
  8
0
100
AcDbBlockBegin
  2
*D51
 70
     1
 10
0.0
 20
0.0
 30
0.0
  3
*D51
  1

  0
LINE
  5
20D7
330
1FF1
100
AcDbEntity
  8
実形
 62
     0
370
    18
100
AcDbLine
 10
389.5387412081376
 20
783.0206408833884
 30
0.0
 11
310.5601854582468
 21
783.0206408833884
 31
0.0
  0
LINE
  5
20D8
330
1FF1
100
AcDbEntity
  8
実形
 62
     0
370
    18
100
AcDbLine
 10
334.4722334333904
 20
598.0206408833883
 30
0.0
 11
310.5601854582467
 21
598.0206408833883
 31
0.0
  0
LINE
  5
20D9
330
1FF1
100
AcDbEntity
  8
実形
 62
     0
370
    18
100
AcDbLine
 10
310.5601854582468
 20
783.0206408833884
 30
0.0
 11
310.5601854582467
 21
598.0206408833883
 31
0.0
  0
MTEXT
  5
20DA
330
1FF1
100
AcDbEntity
  8
実形
 62
     0
100
AcDbMText
 10
284.6863591137165
 20
678.7833927676402
 30
0.0
 40
25.0
 41
0.0
 71
     5
 72
     1
  1
185
 11
0.0000000000000001
 21
1.0
 31
0.0
 73
     1
 44
1.0
1001
ACAD
1000
MTEXTBEGIN
1070
    73
1070
     1
1070
    44
1040
1.0
1070
    74
1070
     0
1000
MTEXTEND
  0
INSERT
  5
20DB
330
1FF1
100
AcDbEntity
  8
実形
 62
     0
370
    18
100
AcDbBlockReference
  2
_DotSmall
 10
310.5601854582468
 20
783.0206408833884
 30
0.0
 41
35.0
 42
35.0
 43
35.0
 50
90.0
  0
INSERT
  5
20DC
330
1FF1
100
AcDbEntity
  8
実形
 62
     0
370
    18
100
AcDbBlockReference
  2
_DotSmall
 10
310.5601854582467
 20
598.0206408833883
 30
0.0
 41
35.0
 42
35.0
 43
35.0
 50
270.0
  0
POINT
  5
20DD
330
1FF1
100
AcDbEntity
  8
Defpoints
 62
     0
100
AcDbPoint
 10
454.5387412081376
 20
783.0206408833884
 30
0.0
  0
POINT
  5
20DE
330
1FF1
100
AcDbEntity
  8
Defpoints
 62
     0
100
AcDbPoint
 10
399.4722334333904
 20
598.0206408833883
 30
0.0
  0
POINT
  5
20DF
330
1FF1
100
AcDbEntity
  8
Defpoints
 62
     0
100
AcDbPoint
 10
310.5601854582467
 20
598.0206408833883
 30
0.0
  0
ENDBLK
  5
1FFC
330
1FF1
100
AcDbEntity
  8
0
100
AcDbBlockEnd
  0
BLOCK
  5
2007
330
1FFD
100
AcDbEntity
  8
0
100
AcDbBlockBegin
  2
*D52
 70
     1
 10
0.0
 20
0.0
 30
0.0
  3
*D52
  1

  0
LINE
  5
20CE
330
1FFD
100
AcDbEntity
  8
実形
 62
     0
370
    18
100
AcDbLine
 10
388.5599635669618
 20
806.2206408833883
 30
0.0
 11
199.9382870076055
 21
806.2206408833883
 31
0.0
  0
LINE
  5
20CF
330
1FFD
100
AcDbEntity
  8
実形
 62
     0
370
    18
100
AcDbLine
 10
334.4722334333904
 20
598.0206408833883
 30
0.0
 11
199.9382870076054
 21
598.0206408833883
 31
0.0
  0
LINE
  5
20D0
330
1FFD
100
AcDbEntity
  8
実形
 62
     0
370
    18
100
AcDbLine
 10
199.9382870076055
 20
806.2206408833883
 30
0.0
 11
199.9382870076054
 21
598.0206408833883
 31
0.0
  0
INSERT
  5
20D1
330
1FFD
100
AcDbEntity
  8
実形
 62
     0
370
    18
100
AcDbBlockReference
  2
_DotSmall
 10
199.9382870076055
 20
806.2206408833883
 30
0.0
 41
35.0
 42
35.0
 43
35.0
 50
90.0
  0
INSERT
  5
20D2
330
1FFD
100
AcDbEntity
  8
実形
 62
     0
370
    18
100
AcDbBlockReference
  2
_DotSmall
 10
199.9382870076054
 20
598.0206408833883
 30
0.0
 41
35.0
 42
35.0
 43
35.0
 50
270.0
  0
MTEXT
  5
20D3
330
1FFD
100
AcDbEntity
  8
実形
 62
     0
100
AcDbMText
 10
181.1882870076054
 20
702.1206408833884
 30
0.0
 40
25.0
 41
0.0
 71
     5
 72
     1
  1
208.2
 11
0.0000000000000001
 21
1.0
 31
0.0
 73
     1
 44
1.0
1001
ACAD
1000
MTEXTBEGIN
1070
    73
1070
     1
1070
    44
1040
1.0
1070
    74
1070
     0
1000
MTEXTEND
  0
POINT
  5
20D4
330
1FFD
100
AcDbEntity
  8
Defpoints
 62
     0
100
AcDbPoint
 10
453.5599635669618
 20
806.2206408833883
 30
0.0
  0
POINT
  5
20D5
330
1FFD
100
AcDbEntity
  8
Defpoints
 62
     0
100
AcDbPoint
 10
399.4722334333904
 20
598.0206408833883
 30
0.0
  0
POINT
  5
20D6
330
1FFD
100
AcDbEntity
  8
Defpoints
 62
     0
100
AcDbPoint
 10
199.9382870076054
 20
598.0206408833883
 30
0.0
  0
ENDBLK
  5
2008
330
1FFD
100
AcDbEntity
  8
0
100
AcDbBlockEnd
  0
BLOCK
  5
2015
330
2009
100
AcDbEntity
  8
0
100
AcDbBlockBegin
  2
*D53
 70
     1
 10
0.0
 20
0.0
 30
0.0
  3
*D53
  1

  0
LINE
  5
20EB
330
2009
100
AcDbEntity
  8
実形
 62
     0
370
    18
100
AcDbLine
 10
390.6321390173701
 20
588.0206408833883
 30
0.0
 11
310.5601854582467
 21
588.0206408833883
 31
0.0
  0
LINE
  5
20EC
330
2009
100
AcDbEntity
  8
実形
 62
     0
370
    18
100
AcDbLine
 10
390.6321390173702
 20
598.0206408833883
 30
0.0
 11
310.5601854582467
 21
598.0206408833883
 31
0.0
  0
LINE
  5
20ED
330
2009
100
AcDbEntity
  8
実形
 62
     0
370
    18
100
AcDbLine
 10
310.5601854582467
 20
588.0206408833883
 30
0.0
 11
310.5601854582467
 21
553.0206408833882
 31
0.0
  0
LINE
  5
20EE
330
2009
100
AcDbEntity
  8
実形
 62
     0
370
    18
100
AcDbLine
 10
310.5601854582467
 20
598.0206408833883
 30
0.0
 11
310.5601854582467
 21
633.0206408833882
 31
0.0
  0
MTEXT
  5
20EF
330
2009
100
AcDbEntity
  8
実形
 62
     0
100
AcDbMText
 10
275.5601854582467
 20
571.6828572191515
 30
0.0
 40
25.0
 41
0.0
 71
     5
 72
     1
  1
7
 11
0.0000000000000001
 21
1.0
 31
0.0
 73
     1
 44
1.0
1001
ACAD
1000
MTEXTBEGIN
1070
    73
1070
     1
1070
    44
1040
1.0
1070
    74
1070
     0
1000
MTEXTEND
  0
LINE
  5
20F0
330
2009
100
AcDbEntity
  8
実形
 62
     0
370
    18
100
AcDbLine
 10
310.5601854582467
 20
588.0206408833883
 30
0.0
 11
310.5601854582467
 21
598.0206408833883
 31
0.0
  0
INSERT
  5
20F1
330
2009
100
AcDbEntity
  8
実形
 62
     0
370
    18
100
AcDbBlockReference
  2
_DotSmall
 10
310.5601854582467
 20
588.0206408833883
 30
0.0
 41
35.0
 42
35.0
 43
35.0
 50
90.0
  0
INSERT
  5
20F2
330
2009
100
AcDbEntity
  8
実形
 62
     0
370
    18
100
AcDbBlockReference
  2
_DotSmall
 10
310.5601854582467
 20
598.0206408833883
 30
0.0
 41
35.0
 42
35.0
 43
35.0
 50
270.0
  0
POINT
  5
20F3
330
2009
100
AcDbEntity
  8
Defpoints
 62
     0
100
AcDbPoint
 10
455.6321390173701
 20
588.0206408833883
 30
0.0
  0
POINT
  5
20F4
330
2009
100
AcDbEntity
  8
Defpoints
 62
     0
100
AcDbPoint
 10
455.6321390173701
 20
598.0206408833883
 30
0.0
  0
POINT
  5
20F5
330
2009
100
AcDbEntity
  8
Defpoints
 62
     0
100
AcDbPoint
 10
310.5601854582467
 20
598.0206408833883
 30
0.0
  0
ENDBLK
  5
2016
330
2009
100
AcDbEntity
  8
0
100
AcDbBlockEnd
  0
BLOCK
  5
2274
330
226A
100
AcDbEntity
  8
0
100
AcDbBlockBegin
  2
*D54
 70
     1
 10
0.0
 20
0.0
 30
0.0
  3
*D54
  1

  0
LINE
  5
25C7
330
226A
100
AcDbEntity
  8
寸法
 62
     0
370
    15
100
AcDbLine
 10
1868.734351095671
 20
1480.749356137093
 30
0.0
 11
1915.306195767058
 21
1480.749356137093
 31
0.0
  0
LINE
  5
25C8
330
226A
100
AcDbEntity
  8
寸法
 62
     0
370
    15
100
AcDbLine
 10
1868.734351095671
 20
1321.749356137093
 30
0.0
 11
1915.306195767058
 21
1321.749356137093
 31
0.0
  0
LINE
  5
25C9
330
226A
100
AcDbEntity
  8
寸法
 62
     0
370
    15
100
AcDbLine
 10
1915.306195767058
 20
1480.749356137093
 30
0.0
 11
1915.306195767058
 21
1321.749356137093
 31
0.0
  0
INSERT
  5
25CA
330
226A
100
AcDbEntity
  8
寸法
 62
     0
370
    15
100
AcDbBlockReference
  2
_DotSmall
 10
1915.306195767058
 20
1480.749356137093
 30
0.0
 41
35.0
 42
35.0
 43
35.0
 50
90.0
  0
INSERT
  5
25CB
330
226A
100
AcDbEntity
  8
寸法
 62
     0
370
    15
100
AcDbBlockReference
  2
_DotSmall
 10
1915.306195767058
 20
1321.749356137093
 30
0.0
 41
35.0
 42
35.0
 43
35.0
 50
270.0
  0
MTEXT
  5
25CC
330
226A
100
AcDbEntity
  8
寸法
 62
     0
100
AcDbMText
 10
1896.556195767058
 20
1400.457348094219
 30
0.0
 40
25.0
 41
0.0
 71
     5
 72
     1
  1
158%%C
 11
0.0000000000000001
 21
1.0
 31
0.0
 73
     1
 44
1.0
1001
ACAD
1000
MTEXTBEGIN
1070
    73
1070
     1
1070
    44
1040
1.0
1070
    74
1070
     0
1000
MTEXTEND
  0
POINT
  5
25CD
330
226A
100
AcDbEntity
  8
Defpoints
 62
     0
100
AcDbPoint
 10
1803.73435109567
 20
1480.749356137093
 30
0.0
  0
POINT
  5
25CE
330
226A
100
AcDbEntity
  8
Defpoints
 62
     0
100
AcDbPoint
 10
1803.73435109567
 20
1321.749356137093
 30
0.0
  0
POINT
  5
25CF
330
226A
100
AcDbEntity
  8
Defpoints
 62
     0
100
AcDbPoint
 10
1915.306195767058
 20
1321.749356137093
 30
0.0
  0
ENDBLK
  5
2275
330
226A
100
AcDbEntity
  8
0
100
AcDbBlockEnd
  0
BLOCK
  5
2280
330
2276
100
AcDbEntity
  8
0
100
AcDbBlockBegin
  2
*D55
 70
     1
 10
0.0
 20
0.0
 30
0.0
  3
*D55
  1

  0
LINE
  5
25BE
330
2276
100
AcDbEntity
  8
寸法
 62
     0
370
    15
100
AcDbLine
 10
1785.973736918801
 20
1491.749356137093
 30
0.0
 11
1743.270612329526
 21
1491.749356137093
 31
0.0
  0
LINE
  5
25BF
330
2276
100
AcDbEntity
  8
寸法
 62
     0
370
    15
100
AcDbLine
 10
1785.973736918801
 20
1310.749356137093
 30
0.0
 11
1743.270612329526
 21
1310.749356137093
 31
0.0
  0
LINE
  5
25C0
330
2276
100
AcDbEntity
  8
寸法
 62
     0
370
    15
100
AcDbLine
 10
1743.270612329526
 20
1491.749356137093
 30
0.0
 11
1743.270612329526
 21
1310.749356137093
 31
0.0
  0
INSERT
  5
25C1
330
2276
100
AcDbEntity
  8
寸法
 62
     0
370
    15
100
AcDbBlockReference
  2
_DotSmall
 10
1743.270612329526
 20
1491.749356137093
 30
0.0
 41
35.0
 42
35.0
 43
35.0
 50
90.0
  0
INSERT
  5
25C2
330
2276
100
AcDbEntity
  8
寸法
 62
     0
370
    15
100
AcDbBlockReference
  2
_DotSmall
 10
1743.270612329526
 20
1310.749356137093
 30
0.0
 41
35.0
 42
35.0
 43
35.0
 50
270.0
  0
MTEXT
  5
25C3
330
2276
100
AcDbEntity
  8
寸法
 62
     0
100
AcDbMText
 10
1724.520612329525
 20
1401.249356137093
 30
0.0
 40
25.0
 41
0.0
 71
     5
 72
     1
  1
181%%C
 11
0.0000000000000001
 21
1.0
 31
0.0
 73
     1
 44
1.0
1001
ACAD
1000
MTEXTBEGIN
1070
    73
1070
     1
1070
    44
1040
1.0
1070
    74
1070
     0
1000
MTEXTEND
  0
POINT
  5
25C4
330
2276
100
AcDbEntity
  8
Defpoints
 62
     0
100
AcDbPoint
 10
1850.973736918802
 20
1491.749356137093
 30
0.0
  0
POINT
  5
25C5
330
2276
100
AcDbEntity
  8
Defpoints
 62
     0
100
AcDbPoint
 10
1850.973736918802
 20
1310.749356137093
 30
0.0
  0
POINT
  5
25C6
330
2276
100
AcDbEntity
  8
Defpoints
 62
     0
100
AcDbPoint
 10
1743.270612329526
 20
1310.749356137093
 30
0.0
  0
ENDBLK
  5
2281
330
2276
100
AcDbEntity
  8
0
100
AcDbBlockEnd
  0
BLOCK
  5
2297
330
228D
100
AcDbEntity
  8
0
100
AcDbBlockBegin
  2
*D56
 70
     1
 10
0.0
 20
0.0
 30
0.0
  3
*D56
  1

  0
LINE
  5
2576
330
228D
100
AcDbEntity
  8
実形
 62
     0
370
    15
100
AcDbLine
 10
1588.53435109567
 20
1667.849356137093
 30
0.0
 11
1588.53435109567
 21
1702.158503141878
 31
0.0
  0
LINE
  5
2577
330
228D
100
AcDbEntity
  8
実形
 62
     0
370
    15
100
AcDbLine
 10
1702.734351095671
 20
1667.849356137093
 30
0.0
 11
1702.734351095671
 21
1702.158503141878
 31
0.0
  0
LINE
  5
2578
330
228D
100
AcDbEntity
  8
実形
 62
     0
370
    15
100
AcDbLine
 10
1588.53435109567
 20
1702.158503141878
 30
0.0
 11
1702.734351095671
 21
1702.158503141878
 31
0.0
  0
INSERT
  5
2579
330
228D
100
AcDbEntity
  8
実形
 62
     0
370
    15
100
AcDbBlockReference
  2
_DotSmall
 10
1588.53435109567
 20
1702.158503141878
 30
0.0
 41
35.0
 42
35.0
 43
35.0
 50
180.0
  0
INSERT
  5
257A
330
228D
100
AcDbEntity
  8
実形
 62
     0
370
    15
100
AcDbBlockReference
  2
_DotSmall
 10
1702.734351095671
 20
1702.158503141878
 30
0.0
 41
35.0
 42
35.0
 43
35.0
  0
MTEXT
  5
257B
330
228D
100
AcDbEntity
  8
実形
 62
     0
100
AcDbMText
 10
1645.634351095671
 20
1720.908503141878
 30
0.0
 40
25.0
 41
0.0
 71
     5
 72
     1
  1
114.2
 73
     1
 44
1.0
1001
ACAD
1000
MTEXTBEGIN
1070
    73
1070
     1
1070
    44
1040
1.0
1070
    74
1070
     0
1000
MTEXTEND
  0
POINT
  5
257C
330
228D
100
AcDbEntity
  8
Defpoints
 62
     0
100
AcDbPoint
 10
1588.53435109567
 20
1602.849356137093
 30
0.0
  0
POINT
  5
257D
330
228D
100
AcDbEntity
  8
Defpoints
 62
     0
100
AcDbPoint
 10
1702.734351095671
 20
1602.849356137093
 30
0.0
  0
POINT
  5
257E
330
228D
100
AcDbEntity
  8
Defpoints
 62
     0
100
AcDbPoint
 10
1702.734351095671
 20
1702.158503141878
 30
0.0
  0
ENDBLK
  5
2298
330
228D
100
AcDbEntity
  8
0
100
AcDbBlockEnd
  0
BLOCK
  5
22A1
330
2299
100
AcDbEntity
  8
0
100
AcDbBlockBegin
  2
*D57
 70
     1
 10
0.0
 20
0.0
 30
0.0
  3
*D57
  1

  0
LINE
  5
25B7
330
2299
100
AcDbEntity
  8
実形
 62
     0
370
    15
100
AcDbLine
 10
1764.520690694623
 20
1602.849356137093
 30
0.0
 11
1764.520690694623
 21
1569.649356137093
 31
0.0
  0
MTEXT
  5
25B8
330
2299
100
AcDbEntity
  8
実形
 62
     0
100
AcDbMText
 10
1793.169124385696
 20
1586.249356137093
 30
0.0
 40
25.0
 41
0.0
 71
     5
 72
     1
  1
33
 11
0.0000000000000001
 21
1.0
 31
0.0
 73
     1
 44
1.0
1001
ACAD
1000
MTEXTBEGIN
1070
    73
1070
     1
1070
    44
1040
1.0
1070
    74
1070
     0
1000
MTEXTEND
  0
INSERT
  5
25B9
330
2299
100
AcDbEntity
  8
実形
 62
     0
370
    15
100
AcDbBlockReference
  2
_DotSmall
 10
1764.520690694623
 20
1602.849356137093
 30
0.0
 41
35.0
 42
35.0
 43
35.0
 50
90.0
  0
INSERT
  5
25BA
330
2299
100
AcDbEntity
  8
実形
 62
     0
370
    15
100
AcDbBlockReference
  2
_DotSmall
 10
1764.520690694623
 20
1569.649356137093
 30
0.0
 41
35.0
 42
35.0
 43
35.0
 50
270.0
  0
POINT
  5
25BB
330
2299
100
AcDbEntity
  8
Defpoints
 62
     0
100
AcDbPoint
 10
1722.734351095671
 20
1602.849356137093
 30
0.0
  0
POINT
  5
25BC
330
2299
100
AcDbEntity
  8
Defpoints
 62
     0
100
AcDbPoint
 10
1722.73435109567
 20
1569.649356137093
 30
0.0
  0
POINT
  5
25BD
330
2299
100
AcDbEntity
  8
Defpoints
 62
     0
100
AcDbPoint
 10
1764.520690694623
 20
1569.649356137093
 30
0.0
  0
ENDBLK
  5
22A2
330
2299
100
AcDbEntity
  8
0
100
AcDbBlockEnd
  0
BLOCK
  5
22AD
330
22A3
100
AcDbEntity
  8
0
100
AcDbBlockBegin
  2
*D58
 70
     1
 10
0.0
 20
0.0
 30
0.0
  3
*D58
  1

  0
LINE
  5
257F
330
22A3
100
AcDbEntity
  8
実形
 62
     0
370
    15
100
AcDbLine
 10
1702.734351095671
 20
1667.849356137093
 30
0.0
 11
1702.734351095671
 21
1702.158503141878
 31
0.0
  0
LINE
  5
2580
330
22A3
100
AcDbEntity
  8
実形
 62
     0
370
    15
100
AcDbLine
 10
1722.734351095671
 20
1667.849356137093
 30
0.0
 11
1722.734351095671
 21
1702.158503141878
 31
0.0
  0
LINE
  5
2581
330
22A3
100
AcDbEntity
  8
実形
 62
     0
370
    15
100
AcDbLine
 10
1702.734351095671
 20
1702.158503141878
 30
0.0
 11
1722.734351095671
 21
1702.158503141878
 31
0.0
  0
MTEXT
  5
2582
330
22A3
100
AcDbEntity
  8
実形
 62
     0
100
AcDbMText
 10
1749.693393400484
 20
1705.820212669916
 30
0.0
 40
25.0
 41
0.0
 71
     5
 72
     1
  1
20
 73
     1
 44
1.0
1001
ACAD
1000
MTEXTBEGIN
1070
    73
1070
     1
1070
    44
1040
1.0
1070
    74
1070
     0
1000
MTEXTEND
  0
INSERT
  5
2583
330
22A3
100
AcDbEntity
  8
実形
 62
     0
370
    15
100
AcDbBlockReference
  2
_DotSmall
 10
1702.734351095671
 20
1702.158503141878
 30
0.0
 41
35.0
 42
35.0
 43
35.0
 50
180.0
  0
INSERT
  5
2584
330
22A3
100
AcDbEntity
  8
実形
 62
     0
370
    15
100
AcDbBlockReference
  2
_DotSmall
 10
1722.734351095671
 20
1702.158503141878
 30
0.0
 41
35.0
 42
35.0
 43
35.0
  0
POINT
  5
2585
330
22A3
100
AcDbEntity
  8
Defpoints
 62
     0
100
AcDbPoint
 10
1702.734351095671
 20
1602.849356137093
 30
0.0
  0
POINT
  5
2586
330
22A3
100
AcDbEntity
  8
Defpoints
 62
     0
100
AcDbPoint
 10
1722.734351095671
 20
1602.849356137093
 30
0.0
  0
POINT
  5
2587
330
22A3
100
AcDbEntity
  8
Defpoints
 62
     0
100
AcDbPoint
 10
1722.734351095671
 20
1702.158503141878
 30
0.0
  0
ENDBLK
  5
22AE
330
22A3
100
AcDbEntity
  8
0
100
AcDbBlockEnd
  0
BLOCK
  5
24FE
330
24F2
100
AcDbEntity
  8
0
100
AcDbBlockBegin
  2
*D59
 70
     1
 10
0.0
 20
0.0
 30
0.0
  3
*D59
  1

  0
LINE
  5
25AC
330
24F2
100
AcDbEntity
  8
実形
 62
     0
370
    15
100
AcDbLine
 10
1796.73435109567
 20
1023.862864476546
 30
0.0
 11
1796.73435109567
 21
972.3560098888356
 31
0.0
  0
LINE
  5
25AD
330
24F2
100
AcDbEntity
  8
実形
 62
     0
370
    15
100
AcDbLine
 10
1803.734351095671
 20
1023.862864476546
 30
0.0
 11
1803.734351095671
 21
972.3560098888356
 31
0.0
  0
LINE
  5
25AE
330
24F2
100
AcDbEntity
  8
実形
 62
     0
370
    15
100
AcDbLine
 10
1796.73435109567
 20
972.3560098888356
 30
0.0
 11
1761.73435109567
 21
972.3560098888356
 31
0.0
  0
LINE
  5
25AF
330
24F2
100
AcDbEntity
  8
実形
 62
     0
370
    15
100
AcDbLine
 10
1803.734351095671
 20
972.3560098888356
 30
0.0
 11
1838.734351095671
 21
972.3560098888356
 31
0.0
  0
MTEXT
  5
25B0
330
24F2
100
AcDbEntity
  8
実形
 62
     0
100
AcDbMText
 10
1855.136394631288
 20
983.2929043662861
 30
0.0
 40
25.0
 41
0.0
 71
     5
 72
     1
  1
7
 73
     1
 44
1.0
1001
ACAD
1000
MTEXTBEGIN
1070
    73
1070
     1
1070
    44
1040
1.0
1070
    74
1070
     0
1000
MTEXTEND
  0
LINE
  5
25B1
330
24F2
100
AcDbEntity
  8
実形
 62
     0
370
    15
100
AcDbLine
 10
1796.73435109567
 20
972.3560098888356
 30
0.0
 11
1803.734351095671
 21
972.3560098888356
 31
0.0
  0
INSERT
  5
25B2
330
24F2
100
AcDbEntity
  8
実形
 62
     0
370
    15
100
AcDbBlockReference
  2
_DotSmall
 10
1796.73435109567
 20
972.3560098888356
 30
0.0
 41
35.0
 42
35.0
 43
35.0
  0
INSERT
  5
25B3
330
24F2
100
AcDbEntity
  8
実形
 62
     0
370
    15
100
AcDbBlockReference
  2
_DotSmall
 10
1803.734351095671
 20
972.3560098888356
 30
0.0
 41
35.0
 42
35.0
 43
35.0
 50
180.0
  0
POINT
  5
25B4
330
24F2
100
AcDbEntity
  8
Defpoints
 62
     0
100
AcDbPoint
 10
1796.73435109567
 20
1088.862864476546
 30
0.0
  0
POINT
  5
25B5
330
24F2
100
AcDbEntity
  8
Defpoints
 62
     0
100
AcDbPoint
 10
1803.734351095671
 20
1088.862864476546
 30
0.0
  0
POINT
  5
25B6
330
24F2
100
AcDbEntity
  8
Defpoints
 62
     0
100
AcDbPoint
 10
1803.734351095671
 20
972.3560098888356
 30
0.0
  0
ENDBLK
  5
24FF
330
24F2
100
AcDbEntity
  8
0
100
AcDbBlockEnd
  0
BLOCK
  5
250B
330
2501
100
AcDbEntity
  8
0
100
AcDbBlockBegin
  2
*D60
 70
     1
 10
0.0
 20
0.0
 30
0.0
  3
*D60
  1

  0
LINE
  5
25A3
330
2501
100
AcDbEntity
  8
実形
 62
     0
370
    15
100
AcDbLine
 10
1606.53435109567
 20
1023.862864476547
 30
0.0
 11
1606.53435109567
 21
929.1891645095766
 31
0.0
  0
LINE
  5
25A4
330
2501
100
AcDbEntity
  8
実形
 62
     0
370
    15
100
AcDbLine
 10
1796.73435109567
 20
1023.862864476547
 30
0.0
 11
1796.73435109567
 21
929.1891645095766
 31
0.0
  0
LINE
  5
25A5
330
2501
100
AcDbEntity
  8
実形
 62
     0
370
    15
100
AcDbLine
 10
1606.53435109567
 20
929.1891645095766
 30
0.0
 11
1796.73435109567
 21
929.1891645095766
 31
0.0
  0
INSERT
  5
25A6
330
2501
100
AcDbEntity
  8
実形
 62
     0
370
    15
100
AcDbBlockReference
  2
_DotSmall
 10
1606.53435109567
 20
929.1891645095766
 30
0.0
 41
35.0
 42
35.0
 43
35.0
 50
180.0
  0
INSERT
  5
25A7
330
2501
100
AcDbEntity
  8
実形
 62
     0
370
    15
100
AcDbBlockReference
  2
_DotSmall
 10
1796.73435109567
 20
929.1891645095766
 30
0.0
 41
35.0
 42
35.0
 43
35.0
  0
MTEXT
  5
25A8
330
2501
100
AcDbEntity
  8
実形
 62
     0
100
AcDbMText
 10
1701.63435109567
 20
947.9391645095766
 30
0.0
 40
25.0
 41
0.0
 71
     5
 72
     1
  1
190.2
 73
     1
 44
1.0
1001
ACAD
1000
MTEXTBEGIN
1070
    73
1070
     1
1070
    44
1040
1.0
1070
    74
1070
     0
1000
MTEXTEND
  0
POINT
  5
25A9
330
2501
100
AcDbEntity
  8
Defpoints
 62
     0
100
AcDbPoint
 10
1606.53435109567
 20
1088.862864476547
 30
0.0
  0
POINT
  5
25AA
330
2501
100
AcDbEntity
  8
Defpoints
 62
     0
100
AcDbPoint
 10
1796.73435109567
 20
1088.862864476547
 30
0.0
  0
POINT
  5
25AB
330
2501
100
AcDbEntity
  8
Defpoints
 62
     0
100
AcDbPoint
 10
1796.73435109567
 20
929.1891645095766
 30
0.0
  0
ENDBLK
  5
250C
330
2501
100
AcDbEntity
  8
0
100
AcDbBlockEnd
  0
BLOCK
  5
2523
330
2519
100
AcDbEntity
  8
0
100
AcDbBlockBegin
  2
*D61
 70
     1
 10
0.0
 20
0.0
 30
0.0
  3
*D61
  1

  0
LINE
  5
259A
330
2519
100
AcDbEntity
  8
実形
 62
     0
370
    15
100
AcDbLine
 10
1588.53435109567
 20
1023.862864476547
 30
0.0
 11
1588.53435109567
 21
929.1891645095766
 31
0.0
  0
LINE
  5
259B
330
2519
100
AcDbEntity
  8
実形
 62
     0
370
    15
100
AcDbLine
 10
1796.73435109567
 20
1023.862864476546
 30
0.0
 11
1796.73435109567
 21
929.1891645095766
 31
0.0
  0
LINE
  5
259C
330
2519
100
AcDbEntity
  8
実形
 62
     0
370
    15
100
AcDbLine
 10
1588.53435109567
 20
929.1891645095766
 30
0.0
 11
1796.73435109567
 21
929.1891645095766
 31
0.0
  0
MTEXT
  5
259D
330
2519
100
AcDbEntity
  8
実形
 62
     0
100
AcDbMText
 10
1553.045310805835
 20
947.9391645095766
 30
0.0
 40
25.0
 41
0.0
 71
     5
 72
     1
  1
18
 73
     1
 44
1.0
1001
ACAD
1000
MTEXTBEGIN
1070
    73
1070
     1
1070
    44
1040
1.0
1070
    74
1070
     0
1000
MTEXTEND
  0
INSERT
  5
259E
330
2519
100
AcDbEntity
  8
実形
 62
     0
370
    15
100
AcDbBlockReference
  2
_DotSmall
 10
1588.53435109567
 20
929.1891645095766
 30
0.0
 41
35.0
 42
35.0
 43
35.0
 50
180.0
  0
INSERT
  5
259F
330
2519
100
AcDbEntity
  8
実形
 62
     0
370
    15
100
AcDbBlockReference
  2
_DotSmall
 10
1796.73435109567
 20
929.1891645095766
 30
0.0
 41
35.0
 42
35.0
 43
35.0
  0
POINT
  5
25A0
330
2519
100
AcDbEntity
  8
Defpoints
 62
     0
100
AcDbPoint
 10
1588.53435109567
 20
1088.862864476547
 30
0.0
  0
POINT
  5
25A1
330
2519
100
AcDbEntity
  8
Defpoints
 62
     0
100
AcDbPoint
 10
1796.73435109567
 20
1088.862864476546
 30
0.0
  0
POINT
  5
25A2
330
2519
100
AcDbEntity
  8
Defpoints
 62
     0
100
AcDbPoint
 10
1796.73435109567
 20
929.1891645095766
 30
0.0
  0
ENDBLK
  5
2524
330
2519
100
AcDbEntity
  8
0
100
AcDbBlockEnd
  0
BLOCK
  5
254B
330
2541
100
AcDbEntity
  8
0
100
AcDbBlockBegin
  2
*D62
 70
     1
 10
0.0
 20
0.0
 30
0.0
  3
*D62
  1

  0
LINE
  5
2591
330
2541
100
AcDbEntity
  8
実形
 62
     0
370
    15
100
AcDbLine
 10
1588.53435109567
 20
958.8628644765467
 30
0.0
 11
1588.53435109567
 21
881.1709791940412
 31
0.0
  0
LINE
  5
2592
330
2541
100
AcDbEntity
  8
実形
 62
     0
370
    15
100
AcDbLine
 10
1796.73435109567
 20
958.8628644765465
 30
0.0
 11
1796.73435109567
 21
881.1709791940412
 31
0.0
  0
LINE
  5
2593
330
2541
100
AcDbEntity
  8
実形
 62
     0
370
    15
100
AcDbLine
 10
1588.53435109567
 20
881.1709791940412
 30
0.0
 11
1796.73435109567
 21
881.1709791940412
 31
0.0
  0
INSERT
  5
2594
330
2541
100
AcDbEntity
  8
実形
 62
     0
370
    15
100
AcDbBlockReference
  2
_DotSmall
 10
1588.53435109567
 20
881.1709791940412
 30
0.0
 41
35.0
 42
35.0
 43
35.0
 50
180.0
  0
INSERT
  5
2595
330
2541
100
AcDbEntity
  8
実形
 62
     0
370
    15
100
AcDbBlockReference
  2
_DotSmall
 10
1796.73435109567
 20
881.1709791940412
 30
0.0
 41
35.0
 42
35.0
 43
35.0
  0
MTEXT
  5
2596
330
2541
100
AcDbEntity
  8
実形
 62
     0
100
AcDbMText
 10
1692.63435109567
 20
899.9209791940412
 30
0.0
 40
25.0
 41
0.0
 71
     5
 72
     1
  1
208.2
 73
     1
 44
1.0
1001
ACAD
1000
MTEXTBEGIN
1070
    73
1070
     1
1070
    44
1040
1.0
1070
    74
1070
     0
1000
MTEXTEND
  0
POINT
  5
2597
330
2541
100
AcDbEntity
  8
Defpoints
 62
     0
100
AcDbPoint
 10
1588.53435109567
 20
1023.862864476547
 30
0.0
  0
POINT
  5
2598
330
2541
100
AcDbEntity
  8
Defpoints
 62
     0
100
AcDbPoint
 10
1796.73435109567
 20
1023.862864476546
 30
0.0
  0
POINT
  5
2599
330
2541
100
AcDbEntity
  8
Defpoints
 62
     0
100
AcDbPoint
 10
1796.73435109567
 20
881.1709791940412
 30
0.0
  0
ENDBLK
  5
254C
330
2541
100
AcDbEntity
  8
0
100
AcDbBlockEnd
  0
ENDSEC
  0
SECTION
  2
ENTITIES
  0
LINE
  5
73
330
1F
100
AcDbEntity
  8
0
100
AcDbLine
 10
104.0
 20
4.0
 30
0.0
 11
278.0
 21
4.0
 31
0.0
  0
LINE
  5
9C
330
1F
100
AcDbEntity
  8
補助
100
AcDbLine
 10
104.0
 20
4.0
 30
0.0
 11
2784.0
 21
4.0
 31
0.0
  0
LINE
  5
A0
330
1F
100
AcDbEntity
  8
補助
100
AcDbLine
 10
2784.0
 20
2024.0
 30
0.0
 11
104.0
 21
2024.0
 31
0.0
  0
LINE
  5
A5
330
1F
100
AcDbEntity
  8
補助
100
AcDbLine
 10
2784.0
 20
4.0
 30
0.0
 11
2784.0
 21
2024.0
 31
0.0
  0
LINE
  5
2DD
330
1F
100
AcDbEntity
  8
実形
100
AcDbLine
 10
1200.282013516542
 20
1106.249356137093
 30
0.0
 11
520.2820135165421
 21
1106.249356137093
 31
0.0
  0
LINE
  5
2E0
330
1F
100
AcDbEntity
  8
実形
100
AcDbLine
 10
1200.282013516542
 20
1626.249356137093
 30
0.0
 11
520.2820135165422
 21
1626.249356137093
 31
0.0
  0
CIRCLE
  5
2E8
330
1F
100
AcDbEntity
  8
実形
100
AcDbCircle
 10
1110.282013516542
 20
1401.249356137093
 30
0.0
 40
90.5
  0
CIRCLE
  5
2E9
330
1F
100
AcDbEntity
  8
実形
100
AcDbCircle
 10
1110.282013516542
 20
1401.249356137093
 30
0.0
 40
79.5
  0
LINE
  5
2F1
330
1F
100
AcDbEntity
  8
実形
100
AcDbLine
 10
1260.282013516542
 20
1424.307823963268
 30
0.0
 11
1260.282013516542
 21
1228.190888310918
 31
0.0
  0
LINE
  5
2F2
330
1F
100
AcDbEntity
  8
実形
100
AcDbLine
 10
460.282013516542
 20
1424.307823963268
 30
0.0
 11
460.282013516542
 21
1228.190888310918
 31
0.0
  0
LINE
  5
2FD
330
1F
100
AcDbEntity
  8
実形
100
AcDbLine
 10
1260.282013516542
 20
1486.249356137093
 30
0.0
 11
1260.282013516542
 21
1166.249356137093
 31
0.0
  0
LINE
  5
2FE
330
1F
100
AcDbEntity
  8
実形
100
AcDbLine
 10
1200.282013516542
 20
1546.249356137093
 30
0.0
 11
520.2820135165418
 21
1546.249356137093
 31
0.0
  0
LINE
  5
2FF
330
1F
100
AcDbEntity
  8
実形
100
AcDbLine
 10
460.2820135165418
 20
1486.249356137093
 30
0.0
 11
460.282013516542
 21
1166.249356137093
 31
0.0
  0
ARC
  5
300
330
1F
100
AcDbEntity
  8
実形
100
AcDbCircle
 10
1200.282013516542
 20
1486.249356137093
 30
0.0
 40
60.0
100
AcDbArc
 50
0.000000000000007
 51
90.0
  0
ARC
  5
301
330
1F
100
AcDbEntity
  8
実形
100
AcDbCircle
 10
1200.282013516542
 20
1166.249356137093
 30
0.0
 40
60.0
100
AcDbArc
 50
270.0
 51
0.000000000000007
  0
ARC
  5
302
330
1F
100
AcDbEntity
  8
実形
100
AcDbCircle
 10
520.2820135165421
 20
1166.249356137093
 30
0.0
 40
60.0
100
AcDbArc
 50
180.0
 51
270.0
  0
ARC
  5
303
330
1F
100
AcDbEntity
  8
実形
100
AcDbCircle
 10
520.2820135165418
 20
1486.249356137093
 30
0.0
 40
60.0
100
AcDbArc
 50
90.0
 51
180.0
  0
LINE
  5
306
330
1F
100
AcDbEntity
  8
実形
100
AcDbLine
 10
1260.282013516542
 20
1566.249356137093
 30
0.0
 11
1260.282013516542
 21
1228.190888310918
 31
0.0
  0
LINE
  5
307
330
1F
100
AcDbEntity
  8
実形
100
AcDbLine
 10
460.2820135165423
 20
1566.249356137093
 30
0.0
 11
460.282013516542
 21
1228.190888310918
 31
0.0
  0
ARC
  5
308
330
1F
100
AcDbEntity
  8
実形
100
AcDbCircle
 10
1200.282013516542
 20
1566.249356137093
 30
0.0
 40
60.0
100
AcDbArc
 50
0.000000000000007
 51
90.0
  0
ARC
  5
309
330
1F
100
AcDbEntity
  8
実形
100
AcDbCircle
 10
520.2820135165422
 20
1566.249356137093
 30
0.0
 40
60.0
100
AcDbArc
 50
90.0
 51
180.0
  0
LINE
  5
315
330
1F
100
AcDbEntity
  8
センター
100
AcDbLine
 10
1110.282013516542
 20
1552.651857226245
 30
0.0
 11
1110.282013516542
 21
1246.529286686143
 31
0.0
  0
LINE
  5
316
330
1F
100
AcDbEntity
  8
センター
100
AcDbLine
 10
1246.850327546836
 20
1401.249356137093
 30
0.0
 11
973.6754556288296
 21
1401.249356137093
 31
0.0
  0
LINE
  5
319
330
1F
100
AcDbEntity
  8
実形
100
AcDbLine
 10
1260.282013516542
 20
788.2206408833885
 30
0.0
 11
1260.282013516542
 21
628.0206408833882
 31
0.0
  0
LINE
  5
31A
330
1F
100
AcDbEntity
  8
実形
100
AcDbLine
 10
1230.282013516542
 20
598.0206408833882
 30
0.0
 11
1019.782013516542
 21
598.0206408833882
 31
0.0
  0
LINE
  5
31B
330
1F
100
AcDbEntity
  8
実形
100
AcDbLine
 10
460.282013516542
 20
637.9684818936208
 30
0.0
 11
460.2820135165421
 21
788.2206408833882
 31
0.0
  0
LINE
  5
323
330
1F
100
AcDbEntity
  8
実形
100
AcDbLine
 10
1019.782013516542
 20
598.0206408833883
 30
0.0
 11
489.4967050673058
 21
607.9787621443541
 31
0.0
  0
ARC
  5
324
330
1F
100
AcDbEntity
  8
実形
100
AcDbCircle
 10
490.282013516542
 20
637.9684818936208
 30
0.0
 40
30.0
100
AcDbArc
 50
180.0
 51
268.5
  0
ARC
  5
325
330
1F
100
AcDbEntity
  8
実形
100
AcDbCircle
 10
1230.282013516542
 20
628.0206408833882
 30
0.0
 40
30.0
100
AcDbArc
 50
270.0
 51
0.000000000000007
  0
LINE
  5
327
330
1F
100
AcDbEntity
  8
実形
100
AcDbLine
 10
1260.282013516542
 20
783.0206408833882
 30
0.0
 11
460.282013516542
 21
783.0206408833882
 31
0.0
  0
LINE
  5
328
330
1F
100
AcDbEntity
  8
センター
100
AcDbLine
 10
1019.782013516546
 20
598.0206408833882
 30
0.0
 11
466.1534883987406
 21
598.0206408833882
 31
0.0
  0
LINE
  5
329
330
1F
100
AcDbEntity
  8
センター
 48
0.5
100
AcDbLine
 10
1110.282013516542
 20
670.2681917018026
 30
0.0
 11
1110.282013516542
 21
508.3225378441893
 31
0.0
  0
DIMENSION
  5
3E9
330
1F
100
AcDbEntity
  8
寸法
100
AcDbDimension
  2
*D4
 10
841.0822619048531
 20
1531.249356137093
 30
0.0
 11
822.3322619048529
 21
1466.249356137093
 31
0.0
 70
    32
 71
     5
 42
130.0
  3
ISO-25
100
AcDbAlignedDimension
 13
1045.148599535181
 23
1401.249356137093
 33
0.0
 14
841.0822619048531
 24
1531.249356137093
 34
0.0
 50
90.0
100
AcDbRotatedDimension
1001
ACAD
1000
DSTYLE
1002
{
1070
    76
1070
     1
1070
    75
1070
     0
1002
}
  0
DIMENSION
  5
3F6
330
1F
100
AcDbEntity
  8
寸法
100
AcDbDimension
  2
*D5
 10
1260.282013516542
 20
1248.656589866092
 30
0.0
 11
1185.282013516542
 21
1267.406589866092
 31
0.0
 70
    32
 71
     5
 42
150.0
  3
ISO-25
100
AcDbAlignedDimension
 13
1110.282013516542
 23
1321.749356137093
 33
0.0
 14
1260.282013516542
 24
1310.749356137093
 34
0.0
 50
180.0
100
AcDbRotatedDimension
  0
DIMENSION
  5
40C
330
1F
100
AcDbEntity
  8
寸法
100
AcDbDimension
  2
*D6
 10
341.3980976233444
 20
1121.249356137093
 30
0.0
 11
317.0834741536355
 21
1131.252548898827
 31
0.0
 70
   160
 71
     5
 42
15.0
  3
ISO-25
100
AcDbAlignedDimension
 13
445.2820135165421
 23
1106.249356137093
 33
0.0
 14
445.2820135165421
 24
1121.249356137093
 34
0.0
 50
90.0
100
AcDbRotatedDimension
1001
ACAD
1000
DSTYLE
1002
{
1070
   279
1070
     2
1002
}
  0
DIMENSION
  5
41A
330
1F
100
AcDbEntity
  8
寸法
100
AcDbDimension
  2
*D7
 10
341.4863526549826
 20
1531.249356137093
 30
0.0
 11
322.7363526549823
 21
1326.249356137093
 31
0.0
 70
    32
 71
     5
 42
410.0
  3
ISO-25
100
AcDbAlignedDimension
 13
445.2820135165421
 23
1121.249356137093
 33
0.0
 14
445.2820135165421
 24
1531.249356137093
 34
0.0
 50
90.0
100
AcDbRotatedDimension
1001
ACAD
1000
DSTYLE
1002
{
1070
   279
1070
     1
1002
}
  0
DIMENSION
  5
427
330
1F
100
AcDbEntity
  8
寸法
100
AcDbDimension
  2
*D8
 10
341.4863526549826
 20
1546.249356137093
 30
0.0
 11
314.0441420487123
 21
1523.016207680146
 31
0.0
 70
   160
 71
     5
 42
15.0
  3
ISO-25
100
AcDbAlignedDimension
 13
445.2820135165421
 23
1531.249356137093
 33
0.0
 14
445.2820135165421
 24
1546.249356137093
 34
0.0
 50
90.0
100
AcDbRotatedDimension
1001
ACAD
1000
DSTYLE
1002
{
1070
   279
1070
     2
1002
}
  0
DIMENSION
  5
459
330
1F
100
AcDbEntity
  8
寸法
100
AcDbDimension
  2
*D9
 10
264.9939104154255
 20
1106.249356137093
 30
0.0
 11
246.2439104154253
 21
1326.249356137093
 31
0.0
 70
    32
 71
     5
 42
440.0
  3
ISO-25
100
AcDbAlignedDimension
 13
445.2820135165421
 23
1546.249356137093
 33
0.0
 14
445.2820135165421
 24
1106.249356137093
 34
0.0
 50
90.0
100
AcDbRotatedDimension
  0
DIMENSION
  5
466
330
1F
100
AcDbEntity
  8
寸法
100
AcDbDimension
  2
*D10
 10
264.9939104154255
 20
1626.249356137093
 30
0.0
 11
246.2439104154253
 21
1586.249356137093
 31
0.0
 70
    32
 71
     5
 42
80.0
  3
ISO-25
100
AcDbAlignedDimension
 13
445.2820135165421
 23
1546.249356137093
 33
0.0
 14
445.2820135165421
 24
1626.249356137093
 34
0.0
 50
90.0
100
AcDbRotatedDimension
  0
DIMENSION
  5
47C
330
1F
100
AcDbEntity
  8
寸法
100
AcDbDimension
  2
*D11
 10
264.9939104154255
 20
1641.249356137093
 30
0.0
 11
275.5090007208273
 21
1668.176075417425
 31
0.0
 70
   160
 71
     5
 42
15.0
  3
ISO-25
100
AcDbAlignedDimension
 13
445.2820135165421
 23
1626.249356137093
 33
0.0
 14
445.2820135165421
 24
1641.249356137093
 34
0.0
 50
90.0
100
AcDbRotatedDimension
1001
ACAD
1000
DSTYLE
1002
{
1070
   279
1070
     1
1002
}
  0
DIMENSION
  5
492
330
1F
100
AcDbEntity
  8
寸法
100
AcDbDimension
  2
*D12
 10
187.4451267052473
 20
1091.249356137093
 30
0.0
 11
168.6951267052471
 21
1366.249356137093
 31
0.0
 70
    32
 71
     5
 42
550.0
  3
ISO-25
100
AcDbAlignedDimension
 13
445.2820135165421
 23
1641.249356137093
 33
0.0
 14
445.2820135165421
 24
1091.249356137093
 34
0.0
 50
90.0
100
AcDbRotatedDimension
  0
DIMENSION
  5
4C3
330
1F
100
AcDbEntity
  8
寸法
100
AcDbDimension
  2
*D13
 10
264.9939104154256
 20
1091.249356137093
 30
0.0
 11
264.9939104154254
 21
1164.16602280376
 31
0.0
 70
   160
 71
     5
 42
15.0
  3
ISO-25
100
AcDbAlignedDimension
 13
445.2820135165421
 23
1106.249356137093
 33
0.0
 14
445.2820135165421
 24
1091.249356137093
 34
0.0
 50
90.0
100
AcDbRotatedDimension
  0
DIMENSION
  5
4E5
330
1F
100
AcDbEntity
  8
寸法
100
AcDbDimension
  2
*D14
 10
1260.282013516542
 20
974.0260307361877
 30
0.0
 11
1228.881915445477
 21
993.0723416014116
 31
0.0
 70
   160
 71
     5
 42
15.0
  3
ISO-25
100
AcDbAlignedDimension
 13
1275.282013516542
 23
1091.249356137093
 33
0.0
 14
1260.282013516542
 24
1091.249356137093
 34
0.0
 50
180.0
100
AcDbRotatedDimension
1001
ACAD
1000
DSTYLE
1002
{
1070
   279
1070
     2
1002
}
  0
DIMENSION
  5
4FD
330
1F
100
AcDbEntity
  8
寸法
100
AcDbDimension
  2
*D15
 10
460.282013516542
 20
974.0260307361877
 30
0.0
 11
860.2820135165421
 21
992.7760307361877
 31
0.0
 70
    32
 71
     5
 42
800.0
  3
ISO-25
100
AcDbAlignedDimension
 13
1260.282013516542
 23
1091.249356137093
 33
0.0
 14
460.282013516542
 24
1091.249356137093
 34
0.0
 50
180.0
100
AcDbRotatedDimension
1001
ACAD
1000
DSTYLE
1002
{
1070
   279
1070
     1
1002
}
  0
DIMENSION
  5
50A
330
1F
100
AcDbEntity
  8
寸法
100
AcDbDimension
  2
*D16
 10
445.2820135165421
 20
974.0260307361877
 30
0.0
 11
491.8448365989852
 21
979.4061662759641
 31
0.0
 70
   160
 71
     5
 42
15.0
  3
ISO-25
100
AcDbAlignedDimension
 13
460.282013516542
 23
1091.249356137093
 33
0.0
 14
445.2820135165421
 24
1091.249356137093
 34
0.0
 50
180.0
100
AcDbRotatedDimension
1001
ACAD
1000
DSTYLE
1002
{
1070
   279
1070
     1
1002
}
  0
DIMENSION
  5
522
330
1F
100
AcDbEntity
  8
寸法
100
AcDbDimension
  2
*D17
 10
445.2820135165421
 20
899.9056155025282
 30
0.0
 11
860.2820135165421
 21
918.6556155025282
 31
0.0
 70
    33
 71
     5
 42
830.0
  3
ISO-25
100
AcDbAlignedDimension
 13
1275.282013516542
 23
1091.249356137093
 33
0.0
 14
445.2820135165421
 24
1091.249356137093
 34
0.0
  0
ARC
  5
570
330
1F
100
AcDbEntity
  8
寸法
100
AcDbCircle
 10
869.7820135165464
 20
598.0206408833882
 30
0.0
 40
346.6490970545442
100
AcDbArc
 50
178.4999999999999
 51
180.0
  0
TEXT
  5
571
330
1F
100
AcDbEntity
  8
寸法
100
AcDbText
 10
493.3149089559419
 20
561.994572694139
 30
0.0
 40
25.0
  1
1.5゜
 11
493.3149089559419
 21
558.6612393608056
 31
0.0
100
AcDbText
 73
     1
  0
LEADER
  5
8DB
330
1F
100
AcDbEntity
  8
寸法
100
AcDbLeader
  3
ISO-25
 40
66.66666666666666
 41
87.5
 76
     2
 10
1053.753702041196
 20
1129.85768112857
 30
0.0
 10
1025.609904182162
 20
1169.696567855432
 30
0.0
211
-1.0
221
0.0
231
0.0
210
0.0
220
0.0
230
-1.0
213
0.0
223
-12.5
233
0.0
1001
ACAD
1000
DSTYLE
1002
{
1070
   147
1040
6.25
1070
    77
1070
     0
1070
    41
1040
20.0
1070
   342
1005
DA
1002
}
  0
TEXT
  5
8DD
330
1F
100
AcDbEntity
  8
寸法
100
AcDbText
 10
902.9223745664877
 20
1174.636530275147
 30
0.0
 40
25.0
  1
4600R
 11
902.9223745664877
 21
1171.303196941814
 31
0.0
100
AcDbText
 73
     1
  0
LEADER
  5
C24
330
1F
100
AcDbEntity
  8
実形
100
AcDbLeader
  3
ISO-25
 40
25.0
 41
16.66666666666666
 76
     2
 10
487.9087430712854
 20
1528.672780394617
 30
0.0
 10
556.1789889968858
 20
1498.56497235393
 30
0.0
211
-1.0
221
0.0
231
0.0
210
0.0
220
0.0
230
-1.0
213
0.0
223
12.5
233
0.0
1001
ACAD
1000
DSTYLE
1002
{
1070
   147
1040
6.25
1070
    77
1070
     0
1070
    41
1040
20.0
1070
   342
1005
DA
1002
}
  0
LEADER
  5
C26
330
1F
100
AcDbEntity
  8
実形
100
AcDbLeader
  3
ISO-25
 40
25.0
 41
16.66666666666666
 76
     2
 10
491.1681822766781
 20
1487.411586662275
 30
0.0
 10
528.6900627529539
 20
1445.901827871881
 30
0.0
211
-1.0
221
0.0
231
0.0
210
0.0
220
0.0
230
-1.0
213
0.0
223
12.5
233
0.0
1001
ACAD
1000
DSTYLE
1002
{
1070
   147
1040
6.25
1070
    77
1070
     0
1070
    41
1040
20.0
1070
   342
1005
DA
1002
}
  0
LEADER
  5
C29
330
1F
100
AcDbEntity
  8
実形
100
AcDbLeader
  3
ISO-25
 40
74.99999999999999
 41
41.66666666666666
 76
     2
 10
467.1514308195858
 20
1326.343439229417
 30
0.0
 10
526.4383762452507
 20
1326.343439229417
 30
0.0
211
-1.0
221
0.0
231
0.0
210
0.0
220
0.0
230
-1.0
213
0.0
223
12.5
233
0.0
1001
ACAD
1000
DSTYLE
1002
{
1070
   147
1040
6.25
1070
    77
1070
     0
1070
    41
1040
20.0
1070
   342
1005
DA
1002
}
  0
TEXT
  5
C2B
330
1F
100
AcDbEntity
  8
実形
100
AcDbText
 10
565.4602321413968
 20
1480.800203478843
 30
0.0
 40
25.0
  1
60R
 72
     2
 11
627.9602321413968
 21
1477.46687014551
 31
0.0
100
AcDbText
 73
     1
  0
TEXT
  5
C2C
330
1F
100
AcDbEntity
  8
実形
100
AcDbText
 10
537.1616740844892
 20
1416.56421235193
 30
0.0
 40
25.0
  1
100R
 72
     2
 11
612.1616740844892
 21
1413.230879018597
 31
0.0
100
AcDbText
 73
     1
  0
TEXT
  5
C2E
330
1F
100
AcDbEntity
  8
実形
100
AcDbText
 10
541.5827422769938
 20
1313.843439229416
 30
0.0
 40
25.0
  1
2000R
 72
     2
 11
645.7494089436604
 21
1326.343439229417
 31
0.0
100
AcDbText
 73
     2
  0
LEADER
  5
CB8
330
1F
100
AcDbEntity
  8
実形
100
AcDbLeader
  3
ISO-25
 76
     2
 10
477.175029726583
 20
621.3229230330304
 30
0.0
 10
520.36686027629
 20
660.2943905571528
 30
0.0
211
-1.0
221
0.0
231
0.0
210
0.0
220
0.0
230
-1.0
1001
ACAD
1000
DSTYLE
1002
{
1070
   147
1040
6.25
1070
    77
1070
     0
1070
    41
1040
20.0
1070
   342
1005
DA
1002
}
  0
LEADER
  5
CB9
330
1F
100
AcDbEntity
  8
実形
100
AcDbLeader
  3
ISO-25
 76
     2
 10
1244.156281573779
 20
609.8223064455058
 30
0.0
 10
1203.506527932448
 20
650.4544031928653
 30
0.0
211
-1.0
221
0.0
231
0.0
210
0.0
220
0.0
230
-1.0
1001
ACAD
1000
DSTYLE
1002
{
1070
   147
1040
6.25
1070
    77
1070
     0
1070
    41
1040
20.0
1070
   342
1005
DA
1002
}
  0
TEXT
  5
CC2
330
1F
100
AcDbEntity
  8
寸法
100
AcDbText
 10
1134.50603134847
 20
653.7976415027473
 30
0.0
 40
25.0
  1
30R
 11
1134.50603134847
 21
650.4643081694139
 31
0.0
100
AcDbText
 73
     1
  0
TEXT
  5
CC3
330
1F
100
AcDbEntity
  8
寸法
100
AcDbText
 10
526.7025135511339
 20
659.3170851290193
 30
0.0
 40
25.0
  1
30R
 11
526.7025135511339
 21
655.9837517956859
 31
0.0
100
AcDbText
 73
     1
  0
TEXT
  5
DC3
330
1F
100
AcDbEntity
  8
0
100
AcDbText
 10
191.7098177320886
 20
90.06009540427749
 30
0.0
 40
30.0
  1
※実寸には製造上の誤差が多少生ずる場合があります。シンクの穴あけ加工は現物合わせにてお願いします。
100
AcDbText
  0
TEXT
  5
FFB
330
1F
100
AcDbEntity
  8
補助
100
AcDbText
 10
2086.666666666667
 20
84.0
 30
0.0
 40
35.0
  1
尺度
 72
     4
 11
2124.0
 21
101.5
 31
0.0
100
AcDbText
  0
TEXT
  5
FFC
330
1F
100
AcDbEntity
  8
補助
100
AcDbText
 10
2086.666666666667
 20
149.0
 30
0.0
 40
35.0
  1
品番
 72
     4
 11
2124.0
 21
166.5
 31
0.0
100
AcDbText
  0
LINE
  5
FFD
330
1F
100
AcDbEntity
  8
補助
100
AcDbLine
 10
2064.0
 20
69.0
 30
0.0
 11
2784.0
 21
69.0
 31
0.0
  0
LINE
  5
FFE
330
1F
100
AcDbEntity
  8
補助
100
AcDbLine
 10
2064.0
 20
199.0
 30
0.0
 11
2784.0
 21
199.0
 31
0.0
  0
LINE
  5
FFF
330
1F
100
AcDbEntity
  8
補助
100
AcDbLine
 10
2064.0
 20
134.0
 30
0.0
 11
2784.0
 21
134.0
 31
0.0
  0
LINE
  5
1000
330
1F
100
AcDbEntity
  8
補助
100
AcDbLine
 10
2064.0
 20
4.0
 30
0.0
 11
2064.0
 21
199.0
 31
0.0
  0
TEXT
  5
1001
330
1F
100
AcDbEntity
  8
補助
100
AcDbText
 10
2300.255774665348
 20
16.49999999999999
 30
0.0
 40
40.0
  1
中外交易株式会社
 72
     4
 11
2488.255774665347
 21
36.5
 31
0.0
100
AcDbText
  0
LINE
  5
1003
330
1F
100
AcDbEntity
  8
補助
100
AcDbLine
 10
2184.0
 20
69.0
 30
0.0
 11
2784.0
 21
69.0
 31
0.0
  0
LINE
  5
1004
102
{ACAD_REACTORS
330
1011
102
}
330
1F
100
AcDbEntity
  8
補助
370
     5
100
AcDbLine
 10
2207.843923164362
 20
40.53787547858519
 30
0.0
 11
2183.255774665347
 21
40.53787547858519
 31
0.0
  0
LINE
  5
1005
102
{ACAD_REACTORS
330
1011
102
}
330
1F
100
AcDbEntity
  8
補助
370
     5
100
AcDbLine
 10
2183.255774665347
 20
40.53787547858519
 30
0.0
 11
2183.255774665347
 21
30.53787547858519
 31
0.0
  0
LINE
  5
1006
102
{ACAD_REACTORS
330
1011
102
}
330
1F
100
AcDbEntity
  8
補助
370
     5
100
AcDbLine
 10
2183.255774665347
 20
30.53787547858519
 30
0.0
 11
2207.346428692676
 21
30.53787547858514
 31
0.0
  0
LINE
  5
1007
102
{ACAD_REACTORS
330
1011
102
}
330
1F
100
AcDbEntity
  8
補助
370
     5
100
AcDbLine
 10
2210.641894042939
 20
56.5
 30
0.0
 11
2210.641894042939
 21
16.5
 31
0.0
  0
LINE
  5
1008
102
{ACAD_REACTORS
330
1011
102
}
330
1F
100
AcDbEntity
  8
補助
370
     5
100
AcDbLine
 10
2210.641894042939
 20
16.5
 30
0.0
 11
2245.64189404294
 21
16.5
 31
0.0
  0
LINE
  5
1009
102
{ACAD_REACTORS
330
1011
102
}
330
1F
100
AcDbEntity
  8
補助
370
     5
100
AcDbLine
 10
2245.64189404294
 20
16.5
 30
0.0
 11
2210.641894042939
 21
36.5
 31
0.0
  0
LINE
  5
100A
102
{ACAD_REACTORS
330
1011
102
}
330
1F
100
AcDbEntity
  8
補助
370
     5
100
AcDbLine
 10
2210.641894042939
 20
36.5
 30
0.0
 11
2245.64189404294
 21
56.5
 31
0.0
  0
LINE
  5
100B
102
{ACAD_REACTORS
330
1011
102
}
330
1F
100
AcDbEntity
  8
補助
370
     5
100
AcDbLine
 10
2245.64189404294
 20
56.5
 30
0.0
 11
2210.641894042939
 21
56.5
 31
0.0
  0
LINE
  5
100C
102
{ACAD_REACTORS
330
1011
102
}
330
1F
100
AcDbEntity
  8
補助
370
     5
100
AcDbLine
 10
2276.75434681301
 20
40.53787547858519
 30
0.0
 11
2252.166198313995
 21
40.53787547858519
 31
0.0
  0
LINE
  5
100D
102
{ACAD_REACTORS
330
1011
102
}
330
1F
100
AcDbEntity
  8
補助
370
     5
100
AcDbLine
 10
2252.166198313995
 20
40.53787547858519
 30
0.0
 11
2252.166198313995
 21
30.53787547858519
 31
0.0
  0
LINE
  5
100E
102
{ACAD_REACTORS
330
1011
102
}
330
1F
100
AcDbEntity
  8
補助
370
     5
100
AcDbLine
 10
2252.166198313995
 20
30.53787547858519
 30
0.0
 11
2276.256852341323
 21
30.53787547858514
 31
0.0
  0
ARC
  5
100F
102
{ACAD_REACTORS
330
1011
102
}
330
1F
100
AcDbEntity
  8
補助
370
     5
100
AcDbCircle
 10
2188.255774665348
 20
36.5
 30
0.0
 40
20.0
100
AcDbArc
 50
11.6477236670766
 51
342.6561058784746
  0
ARC
  5
1010
102
{ACAD_REACTORS
330
1011
102
}
330
1F
100
AcDbEntity
  8
補助
370
     5
100
AcDbCircle
 10
2257.166198313996
 20
36.5
 30
0.0
 40
20.0
100
AcDbArc
 50
11.6477236670766
 51
342.6561058784746
  0
HATCH
  5
1011
330
1F
100
AcDbEntity
  8
補助
100
AcDbHatch
 10
0.0
 20
0.0
 30
0.0
210
0.0
220
0.0
230
1.0
  2
SOLID
 70
     1
 71
     1
 91
        3
 92
        1
 93
        4
 72
     2
 10
2257.166198313996
 20
36.5
 40
20.0
 50
11.6477236670766
 51
342.6561058784746
 73
     1
 72
     1
 10
2276.256852341323
 20
30.53787547858514
 11
2252.166198313995
 21
30.53787547858519
 72
     1
 10
2252.166198313995
 20
30.53787547858519
 11
2252.166198313995
 21
40.53787547858519
 72
     1
 10
2252.166198313995
 20
40.53787547858519
 11
2276.75434681301
 21
40.53787547858519
 97
        4
330
1010
330
100E
330
100D
330
100C
 92
        1
 93
        4
 72
     2
 10
2188.255774665348
 20
36.5
 40
20.0
 50
11.6477236670766
 51
342.6561058784746
 73
     1
 72
     1
 10
2207.346428692676
 20
30.53787547858514
 11
2183.255774665347
 21
30.53787547858519
 72
     1
 10
2183.255774665347
 20
30.53787547858519
 11
2183.255774665347
 21
40.53787547858519
 72
     1
 10
2183.255774665347
 20
40.53787547858519
 11
2207.843923164362
 21
40.53787547858519
 97
        4
330
100F
330
1006
330
1005
330
1004
 92
        1
 93
        5
 72
     1
 10
2245.64189404294
 20
56.5
 11
2210.641894042939
 21
56.5
 72
     1
 10
2210.641894042939
 20
56.5
 11
2210.641894042939
 21
16.5
 72
     1
 10
2210.641894042939
 20
16.5
 11
2245.64189404294
 21
16.5
 72
     1
 10
2245.64189404294
 20
16.5
 11
2210.641894042939
 21
36.5
 72
     1
 10
2210.641894042939
 20
36.5
 11
2245.64189404294
 21
56.5
 97
        5
330
100B
330
1007
330
1008
330
1009
330
100A
 75
     0
 76
     1
 98
        1
 10
-60.0
 20
0.0
  0
LINE
  5
1012
330
1F
100
AcDbEntity
  8
補助
100
AcDbLine
 10
2184.0
 20
69.0
 30
0.0
 11
2184.0
 21
199.0
 31
0.0
  0
TEXT
  5
1013
330
1F
100
AcDbEntity
  8
0
100
AcDbText
 10
2430.916666666667
 20
84.0
 30
0.0
 40
35.0
  1
1：10
 72
     4
 11
2484.0
 21
101.5
 31
0.0
100
AcDbText
  0
LINE
  5
1014
330
1F
100
AcDbEntity
  8
補助
100
AcDbLine
 10
2784.0
 20
69.0
 30
0.0
 11
2784.0
 21
134.0
 31
0.0
  0
LINE
  5
1015
330
1F
100
AcDbEntity
  8
補助
100
AcDbLine
 10
2784.0
 20
134.0
 30
0.0
 11
2784.0
 21
199.0
 31
0.0
  0
LINE
  5
1016
330
1F
100
AcDbEntity
  8
補助
100
AcDbLine
 10
2784.0
 20
4.0
 30
0.0
 11
2784.0
 21
69.0
 31
0.0
  0
ARC
  5
13AD
330
1F
100
AcDbEntity
  8
実形
100
AcDbCircle
 10
2460.282013516543
 20
1326.249356137093
 30
0.0
 40
2000.0
100
AcDbArc
 50
177.1295622366263
 51
182.8704377633737
  0
ARC
  5
13AE
330
1F
100
AcDbEntity
  8
実形
100
AcDbCircle
 10
562.6658901312223
 20
1231.101848192494
 30
0.0
 40
100.0
100
AcDbArc
 50
182.8704377633737
 51
266.2078658679404
  0
ARC
  5
13AF
330
1F
100
AcDbEntity
  8
実形
100
AcDbCircle
 10
860.282013516543
 20
5721.249356137093
 30
0.0
 40
4600.0
100
AcDbArc
 50
266.2078658679404
 51
273.7921341320596
  0
ARC
  5
13B0
330
1F
100
AcDbEntity
  8
実形
100
AcDbCircle
 10
1157.898136901863
 20
1231.101848192494
 30
0.0
 40
100.0
100
AcDbArc
 50
273.7921341320596
 51
357.1295622366263
  0
ARC
  5
13B1
330
1F
100
AcDbEntity
  8
実形
100
AcDbCircle
 10
-739.717986483457
 20
1326.249356137093
 30
0.0
 40
2000.0
100
AcDbArc
 50
357.1295622366263
 51
2.870437763373671
  0
ARC
  5
13B2
330
1F
100
AcDbEntity
  8
実形
100
AcDbCircle
 10
1157.898136901863
 20
1421.396864081692
 30
0.0
 40
100.0
100
AcDbArc
 50
2.870437763373671
 51
86.20786586794038
  0
ARC
  5
13B3
330
1F
100
AcDbEntity
  8
実形
100
AcDbCircle
 10
860.282013516543
 20
-3068.750643862907
 30
0.0
 40
4600.0
100
AcDbArc
 50
86.20786586794038
 51
93.79213413205961
  0
ARC
  5
13B4
330
1F
100
AcDbEntity
  8
実形
100
AcDbCircle
 10
562.6658901312223
 20
1421.396864081692
 30
0.0
 40
100.0
100
AcDbArc
 50
93.79213413205961
 51
177.1295622366263
  0
DIMENSION
  5
13C4
330
1F
100
AcDbEntity
  8
寸法
100
AcDbDimension
  2
*D18
 10
841.9819645974273
 20
1556.249356137093
 30
0.0
 11
823.2319645974271
 21
1586.249356137093
 31
0.0
 70
    33
 71
     5
 42
60.0
  3
ISO-25
100
AcDbAlignedDimension
 13
969.2820135165437
 23
1616.249356137093
 33
0.0
 14
969.2820135165433
 24
1556.249356137093
 34
0.0
  0
LINE
  5
164D
330
1F
100
AcDbEntity
  8
実形
100
AcDbLine
 10
1191.282013516542
 20
1556.338668592743
 30
0.0
 11
959.2820135165421
 21
1556.338668592743
 31
0.0
  0
LINE
  5
164E
330
1F
100
AcDbEntity
  8
実形
100
AcDbLine
 10
1191.282013516541
 20
1616.338668592743
 30
0.0
 11
959.2820135165421
 21
1616.338668592743
 31
0.0
  0
ARC
  5
164F
330
1F
100
AcDbEntity
  8
実形
100
AcDbCircle
 10
1191.282013516541
 20
1587.338668592743
 30
0.0
 40
29.0
100
AcDbArc
 50
0.0
 51
90.0
  0
ARC
  5
1650
330
1F
100
AcDbEntity
  8
実形
100
AcDbCircle
 10
1191.282013516542
 20
1585.338668592743
 30
0.0
 40
29.0
100
AcDbArc
 50
270.0
 51
0.0
  0
ARC
  5
1651
330
1F
100
AcDbEntity
  8
実形
100
AcDbCircle
 10
959.2820135165421
 20
1585.338668592743
 30
0.0
 40
29.0
100
AcDbArc
 50
180.0
 51
270.0
  0
ARC
  5
1652
330
1F
100
AcDbEntity
  8
実形
100
AcDbCircle
 10
959.2820135165421
 20
1587.338668592743
 30
0.0
 40
29.0
100
AcDbArc
 50
90.0
 51
180.0
  0
DIMENSION
  5
1653
330
1F
100
AcDbEntity
  8
寸法
100
AcDbDimension
  2
*D19
 10
1220.282013516541
 20
1720.669867820408
 30
0.0
 11
1075.282013516541
 21
1739.419867820408
 31
0.0
 70
    32
 71
     5
 42
290.0
  3
ISO-25
100
AcDbAlignedDimension
 13
930.2820135165417
 23
1616.338668592743
 33
0.0
 14
1220.282013516541
 24
1616.338668592743
 34
0.0
100
AcDbRotatedDimension
1001
ACAD
1000
DSTYLE
1002
{
1070
   279
1070
     1
1002
}
  0
TEXT
  5
1655
330
1F
100
AcDbEntity
  8
実形
100
AcDbText
 10
848.2087559231922
 20
1711.213201664965
 30
0.0
 40
25.0
  1
30R
 41
0.9
 72
     2
 11
904.4587559231922
 21
1723.713201664965
 31
0.0
100
AcDbText
 73
     2
  0
LINE
  5
1656
330
1F
100
AcDbEntity
  8
実形
370
    15
100
AcDbLine
 10
1000.24855222964
 20
1576.249356137093
 30
0.0
 11
1040.24855222964
 21
1576.249356137093
 31
0.0
  0
LINE
  5
1657
330
1F
100
AcDbEntity
  8
実形
370
    15
100
AcDbLine
 10
1050.24855222964
 20
1586.249356137093
 30
0.0
 11
1050.24855222964
 21
1586.249356137093
 31
0.0
  0
LINE
  5
1658
330
1F
100
AcDbEntity
  8
実形
370
    15
100
AcDbLine
 10
1040.24855222964
 20
1596.249356137093
 30
0.0
 11
949.5484947134196
 21
1596.249356137092
 31
0.0
  0
ARC
  5
1659
330
1F
100
AcDbEntity
  8
実形
370
    15
100
AcDbCircle
 10
1040.24855222964
 20
1586.249356137093
 30
0.0
 40
10.0
100
AcDbArc
 50
0.0
 51
90.0
  0
ARC
  5
165A
330
1F
100
AcDbEntity
  8
実形
370
    15
100
AcDbCircle
 10
1040.24855222964
 20
1586.249356137093
 30
0.0
 40
10.0
100
AcDbArc
 50
270.0
 51
0.0
  0
LINE
  5
165B
330
1F
100
AcDbEntity
  8
実形
370
    15
100
AcDbLine
 10
950.882013516542
 20
1581.249356137092
 30
0.0
 11
1040.24855222964
 21
1581.249356137093
 31
0.0
  0
LINE
  5
165C
330
1F
100
AcDbEntity
  8
実形
370
    15
100
AcDbLine
 10
1040.24855222964
 20
1591.249356137093
 30
0.0
 11
949.9411905566962
 21
1591.249356137092
 31
0.0
  0
LINE
  5
165E
330
1F
100
AcDbEntity
  8
実形
370
    15
100
AcDbLine
 10
1040.24855222964
 20
1581.249356137093
 30
0.0
 11
949.9411905566962
 21
1581.249356137092
 31
0.0
  0
LINE
  5
165F
330
1F
100
AcDbEntity
  8
実形
370
    15
100
AcDbLine
 10
1040.24855222964
 20
1581.249356137093
 30
0.0
 11
949.9411905566962
 21
1581.249356137092
 31
0.0
  0
LINE
  5
1660
330
1F
100
AcDbEntity
  8
実形
370
    15
100
AcDbLine
 10
1040.24855222964
 20
1581.249356137093
 30
0.0
 11
949.9411905566962
 21
1581.249356137092
 31
0.0
  0
LINE
  5
1661
330
1F
100
AcDbEntity
  8
実形
370
    15
100
AcDbLine
 10
1040.24855222964
 20
1581.249356137093
 30
0.0
 11
949.9411905566962
 21
1581.249356137092
 31
0.0
  0
LINE
  5
1662
330
1F
100
AcDbEntity
  8
実形
370
    15
100
AcDbLine
 10
1040.24855222964
 20
1581.249356137093
 30
0.0
 11
949.9411905566962
 21
1581.249356137092
 31
0.0
  0
LINE
  5
1663
330
1F
100
AcDbEntity
  8
実形
370
    15
100
AcDbLine
 10
1040.24855222964
 20
1581.249356137093
 30
0.0
 11
949.9411905566962
 21
1581.249356137092
 31
0.0
  0
ARC
  5
1664
330
1F
100
AcDbEntity
  8
実形
370
    15
100
AcDbCircle
 10
1040.24855222964
 20
1586.249356137093
 30
0.0
 40
5.0
100
AcDbArc
 50
0.0
 51
90.0
  0
ARC
  5
1665
330
1F
100
AcDbEntity
  8
実形
370
    15
100
AcDbCircle
 10
1040.24855222964
 20
1586.249356137093
 30
0.0
 40
5.0
100
AcDbArc
 50
270.0
 51
0.0
  0
LINE
  5
1666
330
1F
100
AcDbEntity
  8
実形
370
    15
100
AcDbLine
 10
1100.248552229641
 20
1586.249356137093
 30
0.0
 11
1100.248552229641
 21
1586.249356137093
 31
0.0
  0
ARC
  5
1667
330
1F
100
AcDbEntity
  8
実形
370
    15
100
AcDbCircle
 10
950.882013516542
 20
1586.338668592743
 30
0.0
 40
10.0
100
AcDbArc
 50
180.0
 51
270.0
  0
ARC
  5
1668
330
1F
100
AcDbEntity
  8
実形
370
    15
100
AcDbCircle
 10
950.882013516542
 20
1586.338668592743
 30
0.0
 40
10.0
100
AcDbArc
 50
97.66332789946368
 51
180.0
  0
ARC
  5
1669
330
1F
100
AcDbEntity
  8
実形
370
    15
100
AcDbCircle
 10
951.0378089289492
 20
1586.403201165518
 30
0.0
 40
5.156199257937148
100
AcDbArc
 50
180.7171058390016
 51
268.2685350296829
  0
ARC
  5
166A
330
1F
100
AcDbEntity
  8
実形
370
    15
100
AcDbCircle
 10
950.882013516542
 20
1586.338668592743
 30
0.0
 40
5.0
100
AcDbArc
 50
100.8456912240022
 51
180.0
  0
LINE
  5
166B
330
1F
100
AcDbEntity
  8
実形
100
AcDbLine
 10
1000.24855222964
 20
1576.249356137093
 30
0.0
 11
952.210532997492
 21
1576.249356137093
 31
0.0
  0
LWPOLYLINE
  5
166C
330
1F
100
AcDbEntity
  8
実形
100
AcDbPolyline
 90
        2
 70
     0
 43
0.0
 10
950.882013516542
 20
1576.338668592743
 10
952.210532997492
 20
1576.249356137093
  0
LINE
  5
166D
330
1F
100
AcDbEntity
  8
実形
370
    15
100
AcDbLine
 10
1110.315474803443
 20
1596.249356137093
 30
0.0
 11
1201.015532319664
 21
1596.249356137092
 31
0.0
  0
ARC
  5
166E
330
1F
100
AcDbEntity
  8
実形
370
    15
100
AcDbCircle
 10
1110.315474803443
 20
1586.249356137093
 30
0.0
 40
10.0
100
AcDbArc
 50
90.0
 51
180.0
  0
ARC
  5
166F
330
1F
100
AcDbEntity
  8
実形
370
    15
100
AcDbCircle
 10
1110.449277049933
 20
1586.304778842265
 30
0.0
 40
10.13395380131631
100
AcDbArc
 50
180.3133528125275
 51
277.1375613778998
  0
LINE
  5
1670
330
1F
100
AcDbEntity
  8
実形
370
    15
100
AcDbLine
 10
1199.682013516542
 20
1581.249356137092
 30
0.0
 11
1110.315474803443
 21
1581.249356137093
 31
0.0
  0
LINE
  5
1671
330
1F
100
AcDbEntity
  8
実形
370
    15
100
AcDbLine
 10
1110.315474803443
 20
1591.249356137093
 30
0.0
 11
1200.622836476387
 21
1591.249356137092
 31
0.0
  0
ARC
  5
1672
330
1F
100
AcDbEntity
  8
実形
370
    15
100
AcDbCircle
 10
1110.315474803443
 20
1586.249356137093
 30
0.0
 40
5.0
100
AcDbArc
 50
90.0
 51
180.0
  0
ARC
  5
1673
330
1F
100
AcDbEntity
  8
実形
370
    15
100
AcDbCircle
 10
1110.315474803443
 20
1586.249356137093
 30
0.0
 40
5.0
100
AcDbArc
 50
180.0
 51
270.0
  0
ARC
  5
1674
330
1F
100
AcDbEntity
  8
実形
370
    15
100
AcDbCircle
 10
1199.682013516542
 20
1586.338668592743
 30
0.0
 40
10.0
100
AcDbArc
 50
270.0
 51
0.0
  0
ARC
  5
1675
330
1F
100
AcDbEntity
  8
実形
370
    15
100
AcDbCircle
 10
1199.682013516542
 20
1586.338668592743
 30
0.0
 40
10.0
100
AcDbArc
 50
0.0
 51
82.33667210053631
  0
ARC
  5
1676
330
1F
100
AcDbEntity
  8
実形
370
    15
100
AcDbCircle
 10
1199.526218104134
 20
1586.403201165518
 30
0.0
 40
5.156199257937148
100
AcDbArc
 50
271.7314649703171
 51
359.2828941609984
  0
ARC
  5
1677
330
1F
100
AcDbEntity
  8
実形
370
    15
100
AcDbCircle
 10
1199.682013516542
 20
1586.338668592743
 30
0.0
 40
5.0
100
AcDbArc
 50
0.0
 51
79.15430877599776
  0
LINE
  5
1678
330
1F
100
AcDbEntity
  8
実形
100
AcDbLine
 10
1150.315474803443
 20
1576.249356137093
 30
0.0
 11
1198.353494035591
 21
1576.249356137093
 31
0.0
  0
LINE
  5
1679
330
1F
100
AcDbEntity
  8
実形
100
AcDbLine
 10
1150.315474803443
 20
1576.249356137093
 30
0.0
 11
1111.708441005708
 21
1576.249356137093
 31
0.0
  0
ARC
  5
167B
330
1F
100
AcDbEntity
  8
実形
370
    15
100
AcDbCircle
 10
1075.282013516542
 20
1586.249356137093
 30
0.0
 40
12.5
100
AcDbArc
 50
282.555857798594
 51
347.4441422014061
  0
LINE
  5
167C
330
1F
100
AcDbEntity
  8
実形
370
    15
100
AcDbLine
 10
1064.05704135622
 20
1587.749356137093
 30
0.0
 11
1072.782013516542
 21
1587.749356137093
 31
0.0
  0
LINE
  5
167D
330
1F
100
AcDbEntity
  8
実形
370
    15
100
AcDbLine
 10
1064.05704135622
 20
1584.749356137093
 30
0.0
 11
1072.782013516542
 21
1584.749356137092
 31
0.0
  0
LINE
  5
167E
330
1F
100
AcDbEntity
  8
実形
370
    15
100
AcDbLine
 10
1076.782013516542
 20
1597.474328297414
 30
0.0
 11
1076.782013516542
 21
1588.749356137092
 31
0.0
  0
LINE
  5
167F
330
1F
100
AcDbEntity
  8
実形
370
    15
100
AcDbLine
 10
1073.782013516542
 20
1597.474328297414
 30
0.0
 11
1073.782013516542
 21
1588.749356137093
 31
0.0
  0
LINE
  5
1680
330
1F
100
AcDbEntity
  8
実形
370
    15
100
AcDbLine
 10
1073.782013516542
 20
1583.749356137092
 30
0.0
 11
1073.782013516542
 21
1575.024383976771
 31
0.0
  0
LINE
  5
1681
330
1F
100
AcDbEntity
  8
実形
370
    15
100
AcDbLine
 10
1077.782013516542
 20
1587.749356137092
 30
0.0
 11
1086.506985676864
 21
1587.749356137093
 31
0.0
  0
LINE
  5
1682
330
1F
100
AcDbEntity
  8
実形
370
    15
100
AcDbLine
 10
1076.782013516542
 20
1583.749356137093
 30
0.0
 11
1076.782013516542
 21
1575.024383976771
 31
0.0
  0
LINE
  5
1683
330
1F
100
AcDbEntity
  8
実形
370
    15
100
AcDbLine
 10
1077.782013516542
 20
1584.749356137093
 30
0.0
 11
1086.506985676863
 21
1584.749356137093
 31
0.0
  0
ARC
  5
1684
330
1F
100
AcDbEntity
  8
実形
370
    15
100
AcDbCircle
 10
1075.282013516542
 20
1586.249356137093
 30
0.0
 40
12.5
100
AcDbArc
 50
192.5558577985939
 51
257.4441422014061
  0
ARC
  5
1685
330
1F
100
AcDbEntity
  8
実形
370
    15
100
AcDbCircle
 10
1075.282013516542
 20
1586.249356137093
 30
0.0
 40
12.5
100
AcDbArc
 50
102.5558577985939
 51
167.444142201406
  0
ARC
  5
1686
330
1F
100
AcDbEntity
  8
実形
370
    15
100
AcDbCircle
 10
1075.282013516542
 20
1586.249356137093
 30
0.0
 40
12.5
100
AcDbArc
 50
12.55585779859394
 51
77.44414220140606
  0
ARC
  5
1687
330
1F
100
AcDbEntity
  8
実形
370
    15
100
AcDbCircle
 10
1077.782013516542
 20
1597.474328297414
 30
0.0
 40
1.0
100
AcDbArc
 50
77.44414220140606
 51
180.0
  0
ARC
  5
1688
330
1F
100
AcDbEntity
  8
実形
370
    15
100
AcDbCircle
 10
1086.506985676864
 20
1588.749356137092
 30
0.0
 40
1.0
100
AcDbArc
 50
270.0
 51
12.55585779859394
  0
ARC
  5
1689
330
1F
100
AcDbEntity
  8
実形
370
    15
100
AcDbCircle
 10
1086.506985676863
 20
1583.749356137092
 30
0.0
 40
1.0
100
AcDbArc
 50
347.4441422014061
 51
90.0
  0
ARC
  5
168A
330
1F
100
AcDbEntity
  8
実形
370
    15
100
AcDbCircle
 10
1077.782013516542
 20
1575.024383976771
 30
0.0
 40
1.0
100
AcDbArc
 50
180.0
 51
282.555857798594
  0
ARC
  5
168B
330
1F
100
AcDbEntity
  8
実形
370
    15
100
AcDbCircle
 10
1072.782013516542
 20
1575.024383976771
 30
0.0
 40
1.0
100
AcDbArc
 50
257.4441422014061
 51
0.0
  0
ARC
  5
168C
330
1F
100
AcDbEntity
  8
実形
370
    15
100
AcDbCircle
 10
1064.05704135622
 20
1583.749356137093
 30
0.0
 40
1.0
100
AcDbArc
 50
90.0
 51
192.5558577985685
  0
ARC
  5
168D
330
1F
100
AcDbEntity
  8
実形
370
    15
100
AcDbCircle
 10
1064.05704135622
 20
1588.749356137093
 30
0.0
 40
1.0
100
AcDbArc
 50
167.4441422014315
 51
270.0
  0
ARC
  5
168E
330
1F
100
AcDbEntity
  8
実形
370
    15
100
AcDbCircle
 10
1072.782013516542
 20
1597.474328297414
 30
0.0
 40
1.0
100
AcDbArc
 50
0.0
 51
102.5558577985939
  0
ARC
  5
168F
330
1F
100
AcDbEntity
  8
実形
370
    15
100
AcDbCircle
 10
1072.782013516542
 20
1583.749356137092
 30
0.0
 40
1.0
100
AcDbArc
 50
0.0
 51
90.0
  0
ARC
  5
1690
330
1F
100
AcDbEntity
  8
実形
370
    15
100
AcDbCircle
 10
1077.782013516542
 20
1583.749356137093
 30
0.0
 40
1.0
100
AcDbArc
 50
90.0
 51
180.0
  0
ARC
  5
1691
330
1F
100
AcDbEntity
  8
実形
370
    15
100
AcDbCircle
 10
1077.782013516542
 20
1588.749356137092
 30
0.0
 40
1.0
100
AcDbArc
 50
180.0
 51
270.0
  0
ARC
  5
1692
330
1F
100
AcDbEntity
  8
実形
370
    15
100
AcDbCircle
 10
1072.782013516542
 20
1588.749356137093
 30
0.0
 40
1.0
100
AcDbArc
 50
270.0
 51
0.0
  0
DIMENSION
  5
16A8
330
1F
100
AcDbEntity
  8
実形
100
AcDbDimension
  2
*D20
 10
1260.282013516542
 20
1720.669867820408
 30
0.0
 11
1226.668346283964
 21
1741.244791239554
 31
0.0
 70
   160
 71
     5
 42
40.0
  3
ISO-25
100
AcDbAlignedDimension
 13
1220.282013516542
 23
1585.338668592743
 33
0.0
 14
1260.282013516542
 24
1566.249356137093
 34
0.0
100
AcDbRotatedDimension
1001
ACAD
1000
DSTYLE
1002
{
1070
    76
1070
     1
1070
    75
1070
     1
1070
   279
1070
     2
1070
   289
1070
     2
1002
}
  0
LINE
  5
16C4
330
1F
100
AcDbEntity
  8
実形
100
AcDbLine
 10
1260.282013516542
 20
1720.669867820408
 30
0.0
 11
1260.282013516542
 21
1682.229439149853
 31
0.0
  0
CIRCLE
  5
1851
330
1F
100
AcDbEntity
  8
実形
100
AcDbCircle
 10
1110.282013516542
 20
1401.249356137093
 30
0.0
 40
115.5
  0
LINE
  5
1968
330
1F
100
AcDbEntity
  8
実形
100
AcDbLine
 10
1200.782013516542
 20
591.0206408833882
 30
0.0
 11
1019.782013516542
 21
591.0206408833882
 31
0.0
  0
LINE
  5
1969
330
1F
100
AcDbEntity
  8
実形
100
AcDbLine
 10
1019.782013516542
 20
598.0206408833883
 30
0.0
 11
1019.782013516542
 21
591.0206408833882
 31
0.0
  0
LINE
  5
196A
330
1F
100
AcDbEntity
  8
実形
100
AcDbLine
 10
1200.782013516542
 20
598.0206408833883
 30
0.0
 11
1200.782013516542
 21
591.0206408833882
 31
0.0
  0
TEXT
  5
19A7
330
1F
100
AcDbEntity
  8
0
100
AcDbText
 10
2279.446829891798
 20
151.8
 30
0.0
 40
35.0
  1
Jstn         
  7
MS明朝
 72
     4
 11
2445.846829891798
 21
166.5
 31
0.0
100
AcDbText
  0
TEXT
  5
19A8
330
1F
100
AcDbEntity
  8
0
100
AcDbText
 10
2409.17420448973
 20
148.5415142773858
 30
0.0
 40
35.0
  1
868-588
  7
MS明朝
 72
     4
 11
2498.77420448973
 21
165.6415142773858
 31
0.0
100
AcDbText
  0
TEXT
  5
19A9
330
1F
100
AcDbEntity
  8
0
100
AcDbText
 10
2591.766661827541
 20
149.277932775477
 30
0.0
 40
35.0
  1
S-POR
  7
MS明朝
 72
     4
 11
2655.766661827541
 21
166.377932775477
 31
0.0
100
AcDbText
  0
LINE
  5
19C3
330
1F
100
AcDbEntity
  8
補助
100
AcDbLine
 10
104.0
 20
2024.0
 30
0.0
 11
104.0
 21
4.0
 31
0.0
  0
LINE
  5
1A6D
330
1F
100
AcDbEntity
  8
実形
100
AcDbLine
 10
1200.282013516542
 20
1660.249356137093
 30
0.0
 11
520.2820135165422
 21
1660.249356137093
 31
0.0
  0
ARC
  5
1A6E
330
1F
100
AcDbEntity
  8
実形
100
AcDbCircle
 10
1200.282013516542
 20
1566.249356137093
 30
0.0
 40
94.0
100
AcDbArc
 50
0.000000000000007
 51
90.0
  0
LINE
  5
1A6F
330
1F
100
AcDbEntity
  8
実形
100
AcDbLine
 10
1294.282013516542
 20
1566.249356137093
 30
0.0
 11
1294.282013516542
 21
1228.190888310918
 31
0.0
  0
ARC
  5
1A70
330
1F
100
AcDbEntity
  8
実形
100
AcDbCircle
 10
1200.282013516542
 20
1166.249356137093
 30
0.0
 40
94.0
100
AcDbArc
 50
270.0
 51
0.000000000000007
  0
LINE
  5
1A71
330
1F
100
AcDbEntity
  8
実形
100
AcDbLine
 10
1294.282013516542
 20
1486.249356137093
 30
0.0
 11
1294.282013516542
 21
1166.249356137093
 31
0.0
  0
LINE
  5
1A72
330
1F
100
AcDbEntity
  8
実形
100
AcDbLine
 10
1200.282013516542
 20
1072.249356137093
 30
0.0
 11
520.2820135165421
 21
1072.249356137093
 31
0.0
  0
ARC
  5
1A73
330
1F
100
AcDbEntity
  8
実形
100
AcDbCircle
 10
520.2820135165421
 20
1166.249356137093
 30
0.0
 40
94.0
100
AcDbArc
 50
180.0
 51
270.0
  0
LINE
  5
1A74
330
1F
100
AcDbEntity
  8
実形
100
AcDbLine
 10
426.2820135165418
 20
1486.249356137093
 30
0.0
 11
426.282013516542
 21
1166.249356137093
 31
0.0
  0
LINE
  5
1A75
330
1F
100
AcDbEntity
  8
実形
100
AcDbLine
 10
426.2820135165423
 20
1566.249356137093
 30
0.0
 11
426.282013516542
 21
1228.190888310918
 31
0.0
  0
ARC
  5
1A76
330
1F
100
AcDbEntity
  8
実形
100
AcDbCircle
 10
520.2820135165422
 20
1566.249356137093
 30
0.0
 40
94.0
100
AcDbArc
 50
90.0
 51
180.0
  0
LEADER
  5
1A7A
330
1F
100
AcDbEntity
  8
実形
100
AcDbLeader
  3
ISO-25
 76
     2
 10
930.1587107793903
 20
1605.085179613337
 30
0.0
 10
889.1837333512912
 20
1705.627515556658
 30
0.0
1001
ACAD
1000
DSTYLE
1002
{
1070
   147
1040
6.25
1070
    77
1070
     0
1070
   279
1070
     2
1070
   289
1070
     2
1002
}
  0
DIMENSION
  5
1A7F
330
1F
100
AcDbEntity
  8
実形
100
AcDbDimension
  2
*D22
 10
460.2820135165423
 20
1768.834591691782
 30
0.0
 11
470.1440764651915
 21
1803.834591691782
 31
0.0
 70
   160
  1
35
 71
     5
 42
34.0
  3
ISO-25
100
AcDbAlignedDimension
 13
426.2820135165423
 23
1670.439763190516
 33
0.0
 14
460.2820135165423
 24
1670.439763190516
 34
0.0
100
AcDbRotatedDimension
1001
ACAD
1000
DSTYLE
1002
{
1070
   279
1070
     2
1070
   289
1070
     2
1002
}
  0
DIMENSION
  5
1A9E
330
1F
100
AcDbEntity
  8
実形
100
AcDbDimension
  2
*D23
 10
1294.282013516542
 20
1768.834591691782
 30
0.0
 11
1253.724675980634
 21
1803.834591691782
 31
0.0
 70
   160
  1
35
 71
     5
 42
34.0
  3
ISO-25
100
AcDbAlignedDimension
 13
1260.282013516542
 23
1646.865096534179
 33
0.0
 14
1294.282013516542
 24
1615.409029734328
 34
0.0
100
AcDbRotatedDimension
1001
ACAD
1000
DSTYLE
1002
{
1070
   279
1070
     2
1070
   289
1070
     2
1002
}
  0
DIMENSION
  5
1ABD
330
1F
100
AcDbEntity
  8
実形
100
AcDbDimension
  2
*D24
 10
1294.282013516542
 20
1834.019090993204
 30
0.0
 11
860.2820135165421
 21
1852.769090993204
 31
0.0
 70
    32
 71
     5
 42
867.9999999999997
  3
ISO-25
100
AcDbAlignedDimension
 13
426.2820135165423
 23
1670.439763190516
 33
0.0
 14
1294.282013516542
 24
1670.439763190516
 34
0.0
100
AcDbRotatedDimension
1001
ACAD
1000
DSTYLE
1002
{
1070
   279
1070
     2
1070
   289
1070
     2
1002
}
  0
DIMENSION
  5
1ACE
330
1F
100
AcDbEntity
  8
実形
100
AcDbDimension
  2
*D25
 10
1380.701883733735
 20
1626.249356137093
 30
0.0
 11
1354.295116714967
 21
1584.166592482465
 31
0.0
 70
   160
  1
35
 71
     5
 42
34.00000000000023
  3
ISO-25
100
AcDbAlignedDimension
 13
1262.614924461982
 23
1660.249356137093
 33
0.0
 14
1262.614924461982
 24
1626.249356137093
 34
0.0
 50
90.0
100
AcDbRotatedDimension
1001
ACAD
1000
DSTYLE
1002
{
1070
   279
1070
     2
1070
   289
1070
     2
1002
}
  0
DIMENSION
  5
1AED
330
1F
100
AcDbEntity
  8
実形
100
AcDbDimension
  2
*D26
 10
1380.701883733735
 20
1072.249356137093
 30
0.0
 11
1356.284910461772
 21
1155.08760105973
 31
0.0
 70
   160
  1
35
 71
     5
 42
34.0
  3
ISO-25
100
AcDbAlignedDimension
 13
1262.614924461982
 23
1106.249356137093
 33
0.0
 14
1262.614924461982
 24
1072.249356137093
 34
0.0
 50
90.0
100
AcDbRotatedDimension
1001
ACAD
1000
DSTYLE
1002
{
1070
   279
1070
     2
1070
   289
1070
     2
1002
}
  0
DIMENSION
  5
1B0C
330
1F
100
AcDbEntity
  8
実形
100
AcDbDimension
  2
*D27
 10
1447.981479970144
 20
1072.249356137093
 30
0.0
 11
1429.231479970144
 21
1366.249356137093
 31
0.0
 70
    32
 71
     5
 42
588.0000000000002
  3
ISO-25
100
AcDbAlignedDimension
 13
1262.614924461982
 23
1660.249356137093
 33
0.0
 14
1262.614924461982
 24
1072.249356137093
 34
0.0
 50
90.0
100
AcDbRotatedDimension
1001
ACAD
1000
DSTYLE
1002
{
1070
   279
1070
     2
1070
   289
1070
     2
1002
}
  0
LEADER
  5
1B8C
330
1F
100
AcDbEntity
  8
実形
100
AcDbLeader
  3
ISO-25
 40
25.0
 41
16.66666666666666
 76
     2
 10
437.474348150371
 20
1622.951144924013
 30
0.0
 10
395.8529887323848
 20
1677.797899331508
 30
0.0
213
0.0
223
12.5
233
0.0
1001
ACAD
1000
DSTYLE
1002
{
1070
   147
1040
6.25
1070
    77
1070
     0
1070
    41
1040
20.0
1070
   342
1005
DA
1002
}
  0
TEXT
  5
1B8D
330
1F
100
AcDbEntity
  8
実形
100
AcDbText
 10
334.9299278607681
 20
1689.145493858719
 30
0.0
 40
25.0
  1
94R
 72
     2
 11
401.5965945274347
 21
1714.145493858719
 31
0.0
100
AcDbText
 73
     3
  0
LEADER
  5
1B8E
330
1F
100
AcDbEntity
  8
実形
100
AcDbLeader
  3
ISO-25
 40
25.0
 41
16.66666666666666
 76
     2
 10
448.8318093977786
 20
1094.052999640839
 30
0.0
 10
392.0626638191598
 20
1035.70365552469
 30
0.0
213
0.0
223
12.5
233
0.0
1001
ACAD
1000
DSTYLE
1002
{
1070
   147
1040
6.25
1070
    77
1070
     0
1070
    41
1040
20.0
1070
   342
1005
DA
1002
}
  0
TEXT
  5
1B8F
330
1F
100
AcDbEntity
  8
実形
100
AcDbText
 10
353.4409794972011
 20
1005.186335269552
 30
0.0
 40
25.0
  1
94R
 72
     2
 11
420.1076461638677
 21
1030.186335269553
 31
0.0
100
AcDbText
 73
     3
  0
LEADER
  5
1BB6
330
1F
100
AcDbEntity
  8
実形
100
AcDbLeader
  3
ISO-25
 40
25.0
 41
16.66666666666666
 76
     2
 10
1281.200021236797
 20
1634.629799726517
 30
0.0
 10
1336.422402787362
 20
1693.483918832364
 30
0.0
213
0.0
223
12.5
233
0.0
1001
ACAD
1000
DSTYLE
1002
{
1070
   147
1040
6.25
1070
    77
1070
     0
1070
    41
1040
20.0
1070
   342
1005
DA
1002
}
  0
TEXT
  5
1BB7
330
1F
100
AcDbEntity
  8
実形
100
AcDbText
 10
1313.948771770665
 20
1698.625698090825
 30
0.0
 40
25.0
  1
94R
 72
     2
 11
1380.615438437332
 21
1723.625698090825
 31
0.0
100
AcDbText
 73
     3
  0
LEADER
  5
1BB8
330
1F
100
AcDbEntity
  8
実形
100
AcDbLeader
  3
ISO-25
 40
25.0
 41
16.66666666666666
 76
     2
 10
1263.815443067547
 20
1086.201196242369
 30
0.0
 10
1323.364475815067
 20
1041.273084341739
 30
0.0
213
0.0
223
12.5
233
0.0
1001
ACAD
1000
DSTYLE
1002
{
1070
   147
1040
6.25
1070
    77
1070
     0
1070
    41
1040
20.0
1070
   342
1005
DA
1002
}
  0
TEXT
  5
1BB9
330
1F
100
AcDbEntity
  8
実形
100
AcDbText
 10
1317.274950694192
 20
1006.169834548207
 30
0.0
 40
25.0
  1
94R
 72
     2
 11
1383.941617360859
 21
1031.169834548207
 31
0.0
100
AcDbText
 73
     3
  0
TEXT
  5
1BD7
330
1F
100
AcDbEntity
  8
実形
100
AcDbText
 10
585.5388823924094
 20
1577.320828475249
 30
0.0
 40
25.0
  1
4角×
  7
MS明朝
 72
     2
 11
676.9674538209809
 21
1602.320828475249
 31
0.0
100
AcDbText
 73
     3
  0
LEADER
  5
1BD8
330
1F
100
AcDbEntity
  8
実形
100
AcDbLeader
  3
ISO-25
 40
25.0
 41
16.66666666666666
 76
     2
 10
503.0283067591827
 20
1608.810197349318
 30
0.0
 10
568.1118151853033
 20
1589.6208333967
 30
0.0
213
0.0
223
12.5
233
0.0
1001
ACAD
1000
DSTYLE
1002
{
1070
   147
1040
6.25
1070
    77
1070
     0
1070
    41
1040
20.0
1070
   342
1005
DA
1002
}
  0
TEXT
  5
1BD9
330
1F
100
AcDbEntity
  8
実形
100
AcDbText
 10
682.7877365381085
 20
1577.614888672723
 30
0.0
 40
25.0
  1
59R
 72
     2
 11
749.4544032047752
 21
1602.614888672723
 31
0.0
100
AcDbText
 73
     3
  0
LINE
  5
1D47
330
1F
100
AcDbEntity
  8
実形
100
AcDbLine
 10
2543.233877365066
 20
684.0947101512854
 30
0.0
 11
2153.233877365066
 21
684.0947101512854
 31
0.0
  0
LINE
  5
1D48
330
1F
100
AcDbEntity
  8
実形
100
AcDbLine
 10
2356.033877365065
 20
585.2947101512854
 30
0.0
 11
2075.233877365066
 21
585.2947101512854
 31
0.0
  0
ARC
  5
1D49
330
1F
100
AcDbEntity
  8
実形
100
AcDbCircle
 10
2153.233877365066
 20
606.0947101512854
 30
0.0
 40
78.0
100
AcDbArc
 50
90.0
 51
180.0
  0
ARC
  5
1D4A
330
1F
100
AcDbEntity
  8
実形
100
AcDbCircle
 10
2543.233877365066
 20
606.0947101512854
 30
0.0
 40
78.0
100
AcDbArc
 50
0.0
 51
90.0
  0
LINE
  5
1D4B
330
1F
100
AcDbEntity
  8
実形
100
AcDbLine
 10
2621.233877365066
 20
543.6947101512854
 30
0.0
 11
2356.033877365065
 21
543.6947101512854
 31
0.0
  0
LINE
  5
1D4C
330
1F
100
AcDbEntity
  8
実形
100
AcDbLine
 10
2278.033877365066
 20
543.6947101512854
 30
0.0
 11
2153.233877365066
 21
543.6947101512854
 31
0.0
  0
LINE
  5
1D4D
330
1F
100
AcDbEntity
  8
実形
100
AcDbLine
 10
2324.833877365066
 20
543.6947101512854
 30
0.0
 11
2106.433877365066
 21
543.6947101512854
 31
0.0
  0
LINE
  5
1D4E
330
1F
100
AcDbEntity
  8
実形
100
AcDbLine
 10
2621.233877365066
 20
403.2947101512855
 30
0.0
 11
2386.105494977745
 21
403.2947101512855
 31
0.0
  0
LINE
  5
1D4F
330
1F
100
AcDbEntity
  8
実形
100
AcDbLine
 10
2278.033877365066
 20
403.2947101512855
 30
0.0
 11
2153.233877365066
 21
403.2947101512855
 31
0.0
  0
LINE
  5
1D50
330
1F
100
AcDbEntity
  8
実形
100
AcDbLine
 10
2075.233877365066
 20
606.0947101512854
 30
0.0
 11
2075.233877365066
 21
585.2947101512854
 31
0.0
  0
LINE
  5
1D51
330
1F
100
AcDbEntity
  8
実形
100
AcDbLine
 10
2090.833877365066
 20
559.2947101512845
 30
0.0
 11
2324.833877365066
 21
559.2947101512845
 31
0.0
  0
LINE
  5
1D52
330
1F
100
AcDbEntity
  8
実形
100
AcDbLine
 10
2356.033877365065
 20
585.2947101512854
 30
0.0
 11
2356.033877365065
 21
543.6947101512854
 31
0.0
  0
LINE
  5
1D53
330
1F
100
AcDbEntity
  8
実形
100
AcDbLine
 10
2278.033877365066
 20
543.6947101512854
 30
0.0
 11
2153.233877365066
 21
543.6947101512854
 31
0.0
  0
LINE
  5
1D54
330
1F
100
AcDbEntity
  8
実形
100
AcDbLine
 10
2621.233877365066
 20
606.0947101512854
 30
0.0
 11
2621.233877365066
 21
403.2947101512855
 31
0.0
  0
LINE
  5
1D55
330
1F
100
AcDbEntity
  8
実形
100
AcDbLine
 10
2153.233877365066
 20
543.6947101512854
 30
0.0
 11
2153.233877365066
 21
403.2947101512863
 31
0.0
  0
LINE
  5
1D56
330
1F
100
AcDbEntity
  8
実形
100
AcDbLine
 10
2090.833877365066
 20
559.2947101512845
 30
0.0
 11
2090.833877365066
 21
356.5086976533553
 31
0.0
  0
LINE
  5
1D57
330
1F
100
AcDbEntity
  8
実形
100
AcDbLine
 10
2106.433877365066
 20
543.6947101512854
 30
0.0
 11
2106.433877365066
 21
356.5086976533554
 31
0.0
  0
ARC
  5
1D58
330
1F
100
AcDbEntity
  8
実形
100
AcDbCircle
 10
2317.033877365066
 20
543.6947101512854
 30
0.0
 40
39.0
100
AcDbArc
 50
180.0
 51
0.0
  0
TEXT
  5
1D59
330
1F
100
AcDbEntity
  8
実形
100
AcDbText
 10
1844.08269694555
 20
410.9876312842443
 30
0.0
 40
35.0
  1
シンク厚　
 11
1844.08269694555
 21
406.3209646175776
 31
0.0
100
AcDbText
 73
     1
  0
DIMENSION
  5
1D5A
330
1F
100
AcDbEntity
  8
実形
100
AcDbDimension
  2
*D28
 10
2075.233877365067
 20
467.1003685502147
 30
0.0
 11
2054.88545157578
 21
491.5915116428197
 31
0.0
 70
   160
  1
1
 71
     5
 42
15.59999999999991
  3
ISO-25
100
AcDbAlignedDimension
 13
2090.833877365067
 23
559.2947101512846
 33
0.0
 14
2075.233877365067
 24
533.5029867284119
 34
0.0
 50
180.0
100
AcDbRotatedDimension
1001
ACAD
1000
DSTYLE
1002
{
1070
   282
1070
     1
1070
   281
1070
     1
1070
    41
1040
5.0
1070
    42
1040
6.0
1070
   140
1040
25.0
1070
   147
1040
1.199999999999999
1070
   279
1070
     2
1070
   289
1070
     2
1070
   371
1070
    13
1070
   372
1070
    13
1002
}
  0
TEXT
  5
1D5B
330
1F
100
AcDbEntity
  8
実形
  6
HIDDEN2
100
AcDbText
 10
2095.797198899368
 20
462.9308652071995
 30
0.0
 40
10.14
  1
● 
 71
     2
100
AcDbText
  0
TEXT
  5
1D5C
330
1F
100
AcDbEntity
  8
実形
  6
HIDDEN2
100
AcDbText
 10
2079.566838424828
 20
462.4970760796131
 30
0.0
 40
10.14
  1
● 
 71
     2
100
AcDbText
  0
LINE
  5
1D5D
330
1F
100
AcDbEntity
  8
実形
100
AcDbLine
 10
2091.245173341136
 20
467.4229398449074
 30
0.0
 11
2075.560266305432
 21
467.4229398449074
 31
0.0
  0
LINE
  5
1D5E
330
1F
100
AcDbEntity
  8
実形
100
AcDbLine
 10
2386.105494977745
 20
403.2947101512855
 30
0.0
 11
2356.033877365065
 21
403.2947101512855
 31
0.0
  0
ARC
  5
1D5F
330
1F
100
AcDbEntity
  8
実形
100
AcDbCircle
 10
2317.033877365066
 20
403.2947101512855
 30
0.0
 40
39.0
100
AcDbArc
 50
0.0
 51
180.0
  0
LINE
  5
1D60
330
1F
100
AcDbEntity
  8
実形
100
AcDbLine
 10
2278.033877365066
 20
457.3521962228079
 30
0.0
 11
2278.033877365066
 21
439.4500692892673
 31
0.0
  0
LINE
  5
1D61
330
1F
100
AcDbEntity
  8
実形
100
AcDbLine
 10
2356.033877365065
 20
457.3521962228079
 30
0.0
 11
2356.033877365065
 21
439.4977027967055
 31
0.0
  0
TEXT
  5
1D62
330
1F
100
AcDbEntity
  8
実形
100
AcDbText
 10
1859.409434822997
 20
359.2737114633438
 30
0.0
 40
28.0
  1
0.8mm
 11
1859.409434822997
 21
355.5403781300104
 31
0.0
100
AcDbText
 73
     1
  0
TEXT
  5
1D63
330
1F
100
AcDbEntity
  8
実形
100
AcDbText
 10
1969.171950854548
 20
724.7069313792997
 30
0.0
 40
28.0
  1
5R
 11
1969.171950854548
 21
720.9735980459663
 31
0.0
100
AcDbText
 73
     1
  0
DIMENSION
  5
1D64
330
1F
100
AcDbEntity
  8
実形
100
AcDbDimension
  2
*D29
 10
2324.833877365066
 20
617.1548568615962
 30
0.0
 11
2207.833877365066
 21
635.9048568615962
 31
0.0
 70
    32
  1
15
 71
     5
 42
234.0
  3
ISO-25
100
AcDbAlignedDimension
 13
2090.833877365066
 23
526.9073852958004
 33
0.0
 14
2324.833877365066
 24
526.9073852958004
 34
0.0
100
AcDbRotatedDimension
1001
ACAD
1000
DSTYLE
1002
{
1070
   279
1070
     2
1070
   371
1070
    18
1070
   372
1070
    18
1002
}
  0
LEADER
  5
1D65
330
1F
100
AcDbEntity
  8
実形
100
AcDbLeader
  3
ISO-25
 76
     2
 10
2080.730586898456
 20
658.778126851076
 30
0.0
 10
2006.358162869183
 20
712.4806979619262
 30
0.0
1001
ACAD
1000
DSTYLE
1002
{
1070
   147
1040
6.25
1070
    77
1070
     0
1070
   279
1070
     2
1070
   371
1070
    18
1070
   372
1070
    18
1002
}
  0
LINE
  5
1D66
330
1F
100
AcDbEntity
  8
実形
100
AcDbLine
 10
2324.833877365066
 20
559.2947101512845
 30
0.0
 11
2324.833877365066
 21
543.6947101512854
 31
0.0
  0
DIMENSION
  5
1D67
330
1F
100
AcDbEntity
  8
実形
100
AcDbDimension
  2
*D30
 10
2228.767481940162
 20
543.6947101512855
 30
0.0
 11
2197.294896545438
 21
515.0052225685112
 31
0.0
 70
   160
  1
2.5
 71
     5
 42
38.99999999999995
  3
ISO-25
100
AcDbAlignedDimension
 13
2357.614562018891
 23
504.6947101512855
 33
0.0
 14
2281.267191428404
 24
543.6947101512855
 34
0.0
 50
90.0
100
AcDbRotatedDimension
1001
ACAD
1000
DSTYLE
1002
{
1070
   140
1040
23.0
1070
   279
1070
     2
1070
   371
1070
    18
1070
   372
1070
    18
1002
}
  0
DIMENSION
  5
1D68
330
1F
100
AcDbEntity
  8
実形
100
AcDbDimension
  2
*D31
 10
2356.033877365066
 20
452.0882219802177
 30
0.0
 11
2317.033877365066
 21
470.8382219802177
 31
0.0
 70
    32
  1
5
 71
     5
 42
78.0
  3
ISO-25
100
AcDbAlignedDimension
 13
2278.033877365066
 23
513.0145559292668
 33
0.0
 14
2356.033877365066
 24
513.0145559292668
 34
0.0
100
AcDbRotatedDimension
1001
ACAD
1000
DSTYLE
1002
{
1070
   279
1070
     2
1070
   371
1070
    18
1070
   372
1070
    18
1002
}
  0
LINE
  5
1D69
330
1F
100
AcDbEntity
  8
実形
100
AcDbLine
 10
2278.033877365066
 20
452.0882219802177
 30
0.0
 11
2278.033877365066
 21
494.7079487038194
 31
0.0
  0
LINE
  5
1D6A
330
1F
100
AcDbEntity
  8
実形
100
AcDbLine
 10
2356.033877365065
 20
452.0882219802177
 30
0.0
 11
2356.033877365065
 21
493.5103420910408
 31
0.0
  0
DIMENSION
  5
1D6B
330
1F
100
AcDbEntity
  8
実形
100
AcDbDimension
  2
*D32
 10
2230.705930897853
 20
403.2947101512855
 30
0.0
 11
2198.086469593912
 21
431.6583152348946
 31
0.0
 70
   160
  1
2.5
 71
     5
 42
38.99999999999995
  3
ISO-25
100
AcDbAlignedDimension
 13
2331.326187506493
 23
442.2947101512853
 33
0.0
 14
2343.612691407768
 24
403.2947101512855
 34
0.0
 50
90.0
100
AcDbRotatedDimension
1001
ACAD
1000
DSTYLE
1002
{
1070
   140
1040
23.0
1070
   279
1070
     2
1070
   371
1070
    18
1070
   372
1070
    18
1002
}
  0
DIMENSION
  5
1D6C
330
1F
100
AcDbEntity
  8
実形
100
AcDbDimension
  2
*D33
 10
2356.033877365066
 20
733.9587029177619
 30
0.0
 11
2215.633877365066
 21
752.7087029177619
 31
0.0
 70
    32
  1
18
 71
     5
 42
280.7999999999997
  3
ISO-25
100
AcDbAlignedDimension
 13
2075.233877365066
 23
631.1956311673393
 33
0.0
 14
2356.033877365066
 24
631.1956311673393
 34
0.0
100
AcDbRotatedDimension
1001
ACAD
1000
DSTYLE
1002
{
1070
   279
1070
     2
1070
   371
1070
    18
1070
   372
1070
    18
1002
}
  0
DIMENSION
  5
1D6D
330
1F
100
AcDbEntity
  8
実形
100
AcDbDimension
  2
*D34
 10
2621.233877365066
 20
733.9587029177619
 30
0.0
 11
2488.633877365066
 21
752.7087029177619
 31
0.0
 70
    32
  1
17
 71
     5
 42
265.1999999999998
  3
ISO-25
100
AcDbAlignedDimension
 13
2356.033877365066
 23
631.1956311673382
 33
0.0
 14
2621.233877365066
 24
631.1956311673382
 34
0.0
100
AcDbRotatedDimension
1001
ACAD
1000
DSTYLE
1002
{
1070
   279
1070
     2
1070
   371
1070
    18
1070
   372
1070
    18
1002
}
  0
DIMENSION
  5
1D6E
330
1F
100
AcDbEntity
  8
実形
100
AcDbDimension
  2
*D35
 10
2621.233877365066
 20
777.4666415156134
 30
0.0
 11
2348.233877365066
 21
796.2166415156134
 31
0.0
 70
    32
  1
35
 71
     5
 42
545.9999999999995
  3
ISO-25
100
AcDbAlignedDimension
 13
2075.233877365066
 23
631.1956311673382
 33
0.0
 14
2621.233877365066
 24
631.1956311673382
 34
0.0
100
AcDbRotatedDimension
1001
ACAD
1000
DSTYLE
1002
{
1070
   279
1070
     2
1070
   371
1070
    18
1070
   372
1070
    18
1002
}
  0
TEXT
  5
1D6F
330
1F
100
AcDbEntity
  8
実形
100
AcDbText
 10
2661.234589240095
 20
713.6502811430476
 30
0.0
 40
28.0
  1
5R
 11
2661.234589240095
 21
709.9169478097143
 31
0.0
100
AcDbText
 73
     1
  0
DIMENSION
  5
1D70
330
1F
100
AcDbEntity
  8
実形
100
AcDbDimension
  2
*D36
 10
2153.233877365066
 20
297.5085770831867
 30
0.0
 11
2053.203290699754
 21
332.9138518235977
 31
0.0
 70
   160
  1
3.2
 71
     5
 42
46.80000000000018
  3
ISO-25
100
AcDbAlignedDimension
 13
2106.433877365066
 23
411.5474686202857
 33
0.0
 14
2153.233877365066
 24
411.5474686202857
 34
0.0
100
AcDbRotatedDimension
1001
ACAD
1000
DSTYLE
1002
{
1070
   140
1040
25.0
1070
   279
1070
     2
1070
   371
1070
    18
1070
   372
1070
    18
1002
}
  0
DIMENSION
  5
1D71
330
1F
100
AcDbEntity
  8
実形
100
AcDbDimension
  2
*D37
 10
2278.033877365066
 20
297.5085770831867
 30
0.0
 11
2215.633877365066
 21
316.2585770831867
 31
0.0
 70
    32
  1
8
 71
     5
 42
124.8000000000001
  3
ISO-25
100
AcDbAlignedDimension
 13
2153.233877365066
 23
411.5474686202857
 33
0.0
 14
2278.033877365066
 24
411.5474686202857
 34
0.0
100
AcDbRotatedDimension
1001
ACAD
1000
DSTYLE
1002
{
1070
   279
1070
     2
1070
   371
1070
    18
1070
   372
1070
    18
1002
}
  0
DIMENSION
  5
1D72
330
1F
100
AcDbEntity
  8
実形
100
AcDbDimension
  2
*D38
 10
2356.033877365066
 20
297.5085770831867
 30
0.0
 11
2317.033877365066
 21
316.2585770831867
 31
0.0
 70
    32
  1
5
 71
     5
 42
78.0
  3
ISO-25
100
AcDbAlignedDimension
 13
2278.033877365066
 23
411.5474686202857
 33
0.0
 14
2356.033877365066
 24
411.5474686202857
 34
0.0
100
AcDbRotatedDimension
1001
ACAD
1000
DSTYLE
1002
{
1070
   279
1070
     2
1070
   371
1070
    18
1070
   372
1070
    18
1002
}
  0
DIMENSION
  5
1D73
330
1F
100
AcDbEntity
  8
実形
100
AcDbDimension
  2
*D39
 10
2621.233877365066
 20
297.5085770831867
 30
0.0
 11
2488.633877365066
 21
316.2585770831867
 31
0.0
 70
    32
  1
17
 71
     5
 42
265.1999999999998
  3
ISO-25
100
AcDbAlignedDimension
 13
2356.033877365066
 23
411.5474686202857
 33
0.0
 14
2621.233877365066
 24
411.5474686202857
 34
0.0
100
AcDbRotatedDimension
1001
ACAD
1000
DSTYLE
1002
{
1070
   279
1070
     2
1070
   371
1070
    18
1070
   372
1070
    18
1002
}
  0
DIMENSION
  5
1D74
330
1F
100
AcDbEntity
  8
実形
100
AcDbDimension
  2
*D40
 10
2155.023276234156
 20
247.5388396829094
 30
0.0
 11
2116.023276234157
 21
266.2888396829094
 31
0.0
 70
    32
  1
5
 71
     5
 42
77.99999999999954
  3
ISO-25
100
AcDbAlignedDimension
 13
2077.023276234157
 23
362.8281686160613
 33
0.0
 14
2155.023276234156
 24
362.8281686160613
 34
0.0
100
AcDbRotatedDimension
1001
ACAD
1000
DSTYLE
1002
{
1070
   279
1070
     2
1070
   371
1070
    18
1070
   372
1070
    18
1002
}
  0
DIMENSION
  5
1D75
330
1F
100
AcDbEntity
  8
実形
100
AcDbDimension
  2
*D41
 10
2623.023276234156
 20
247.5388396829094
 30
0.0
 11
2389.023276234156
 21
266.2888396829094
 31
0.0
 70
    32
  1
30
 71
     5
 42
468.0
  3
ISO-25
100
AcDbAlignedDimension
 13
2155.023276234156
 23
362.8281686160613
 33
0.0
 14
2623.023276234156
 24
362.8281686160613
 34
0.0
100
AcDbRotatedDimension
1001
ACAD
1000
DSTYLE
1002
{
1070
   279
1070
     2
1070
   371
1070
    18
1070
   372
1070
    18
1002
}
  0
LINE
  5
1D76
330
1F
100
AcDbEntity
  8
実形
100
AcDbLine
 10
2089.14414202772
 20
414.8786635805636
 30
0.0
 11
2005.196656620899
 21
408.9889439325022
 31
0.0
  0
LINE
  5
1D77
330
1F
100
AcDbEntity
  8
実形
100
AcDbLine
 10
2088.820600113063
 20
414.7274049971472
 30
0.0
 11
2056.485883910302
 21
400.9756935648645
 31
0.0
  0
LINE
  5
1D78
330
1F
100
AcDbEntity
  8
実形
100
AcDbLine
 10
2088.472360117057
 20
415.6242072570588
 30
0.0
 11
2056.198770657017
 21
421.9662971197472
 31
0.0
  0
TEXT
  5
1D79
330
1F
100
AcDbEntity
  8
実形
370
    -2
100
AcDbText
 10
1943.905583280765
 20
836.850626796042
 30
0.0
 40
38.0
  1
A-A　断面詳細図
100
AcDbText
  0
TEXT
  5
1D7A
330
1F
100
AcDbEntity
  8
実形
370
    -2
100
AcDbText
 10
2039.041635208127
 20
838.8009194430942
 30
0.0
 40
35.0
  1
´
100
AcDbText
  0
DIMENSION
  5
1D7B
330
1F
100
AcDbEntity
  8
実形
100
AcDbDimension
  2
*D42
 10
1970.032114275532
 20
585.2947101512854
 30
0.0
 11
1951.282114275532
 21
634.6947101512859
 31
0.0
 70
    32
  1
6.5
 71
     5
 42
98.80000000000007
  3
ISO-25
100
AcDbAlignedDimension
 13
2097.328912889143
 23
684.0947101512855
 33
0.0
 14
2097.328912889143
 24
585.2947101512854
 34
0.0
 50
90.0
100
AcDbRotatedDimension
1001
ACAD
1000
DSTYLE
1002
{
1070
   279
1070
     2
1070
   371
1070
    18
1070
   372
1070
    18
1002
}
  0
DIMENSION
  5
1D7C
330
1F
100
AcDbEntity
  8
実形
100
AcDbDimension
  2
*D43
 10
1916.035186721017
 20
559.2947101512846
 30
0.0
 11
1897.285186721017
 21
621.6947101512854
 31
0.0
 70
    32
  1
8.2
 71
     5
 42
124.8000000000008
  3
ISO-25
100
AcDbAlignedDimension
 13
2097.328912889143
 23
684.0947101512855
 33
0.0
 14
2097.328912889143
 24
559.2947101512846
 34
0.0
 50
90.0
100
AcDbRotatedDimension
1001
ACAD
1000
DSTYLE
1002
{
1070
   279
1070
     2
1070
   371
1070
    18
1070
   372
1070
    18
1002
}
  0
DIMENSION
  5
1D7D
330
1F
100
AcDbEntity
  8
実形
100
AcDbDimension
  2
*D44
 10
1864.389549972262
 20
684.0947101512855
 30
0.0
 11
1845.639549972261
 21
613.8947101512858
 31
0.0
 70
    32
  1
9
 71
     5
 42
140.4000000000001
  3
ISO-25
100
AcDbAlignedDimension
 13
2097.328912889143
 23
543.6947101512854
 33
0.0
 14
2097.328912889143
 24
684.0947101512855
 34
0.0
 50
90.0
100
AcDbRotatedDimension
1001
ACAD
1000
DSTYLE
1002
{
1070
   279
1070
     2
1070
   371
1070
    18
1070
   372
1070
    18
1002
}
  0
LINE
  5
1D7E
330
1F
100
AcDbEntity
  8
実形
100
AcDbLine
 10
1970.032114275532
 20
559.4808025581515
 30
0.0
 11
1970.032114275532
 21
543.6947101512854
 31
0.0
  0
TEXT
  5
1D7F
330
1F
100
AcDbEntity
  8
実形
  6
HIDDEN2
100
AcDbText
 10
1974.759963930668
 20
554.1584046865482
 30
0.0
 40
10.14
  1
● 
 71
     2
100
AcDbText
  0
TEXT
  5
1D80
330
1F
100
AcDbEntity
  8
実形
  6
HIDDEN2
100
AcDbText
 10
1974.759963930668
 20
539.0050600708654
 30
0.0
 40
10.14
  1
● 
 71
     2
100
AcDbText
  0
TEXT
  5
1D81
330
1F
100
AcDbEntity
  8
実形
100
AcDbText
 10
1965.904597556985
 20
483.7785695213888
 30
0.0
 40
29.25
  1
0.8
 50
90.0
 11
1969.804597556985
 21
483.7785695213888
 31
0.0
100
AcDbText
 73
     1
  0
ARC
  5
1D82
330
1F
100
AcDbEntity
  8
実形
100
AcDbCircle
 10
2095.749391898479
 20
294.0352561825519
 30
0.0
 40
37.21807911390647
100
AcDbArc
 50
10.88380498131979
 51
99.73672806232286
  0
ARC
  5
1D83
330
1F
100
AcDbEntity
  8
実形
100
AcDbCircle
 10
2101.132326064329
 20
286.3222816243725
 30
0.0
 40
34.71092069179851
100
AcDbArc
 50
27.82370983299799
 51
64.29661093933541
  0
ARC
  5
1D84
330
1F
100
AcDbEntity
  8
実形
100
AcDbCircle
 10
2095.736654257051
 20
304.1012932169378
 30
0.0
 40
36.96117099445193
100
AcDbArc
 50
355.5051092068189
 51
31.89192001425599
  0
DIMENSION
  5
1D85
330
1F
100
AcDbEntity
  8
実形
100
AcDbDimension
  2
*D45
 10
2673.699912636183
 20
403.2947101512855
 30
0.0
 11
2654.949912636183
 21
473.4947101512859
 31
0.0
 70
    32
  1
9
 71
     5
 42
140.4
  3
ISO-25
100
AcDbAlignedDimension
 13
2582.25404811461
 23
543.6947101512855
 33
0.0
 14
2582.25404811461
 24
403.2947101512855
 34
0.0
 50
90.0
100
AcDbRotatedDimension
1001
ACAD
1000
DSTYLE
1002
{
1070
   279
1070
     2
1070
   371
1070
    18
1070
   372
1070
    18
1002
}
  0
DIMENSION
  5
1D86
330
1F
100
AcDbEntity
  8
実形
100
AcDbDimension
  2
*D46
 10
2673.699912636183
 20
543.6947101512855
 30
0.0
 11
2654.949912636183
 21
613.8947101512859
 31
0.0
 70
    32
  1
9
 71
     5
 42
140.3999999999999
  3
ISO-25
100
AcDbAlignedDimension
 13
2582.25404811461
 23
684.0947101512855
 33
0.0
 14
2582.25404811461
 24
543.6947101512855
 34
0.0
 50
90.0
100
AcDbRotatedDimension
1001
ACAD
1000
DSTYLE
1002
{
1070
   279
1070
     2
1070
   371
1070
    18
1070
   372
1070
    18
1002
}
  0
DIMENSION
  5
1D87
330
1F
100
AcDbEntity
  8
実形
100
AcDbDimension
  2
*D47
 10
2715.480008308167
 20
403.2947101512855
 30
0.0
 11
2696.730008308167
 21
543.694710151286
 31
0.0
 70
    32
  1
18
 71
     5
 42
280.8
  3
ISO-25
100
AcDbAlignedDimension
 13
2582.25404811461
 23
684.0947101512855
 33
0.0
 14
2582.25404811461
 24
403.2947101512855
 34
0.0
 50
90.0
100
AcDbRotatedDimension
1001
ACAD
1000
DSTYLE
1002
{
1070
   279
1070
     2
1070
   371
1070
    18
1070
   372
1070
    18
1002
}
  0
LEADER
  5
1D88
330
1F
100
AcDbEntity
  8
実形
100
AcDbLeader
  3
ISO-25
 76
     2
 10
2598.968887029636
 20
666.6445109732322
 30
0.0
 10
2665.822583513264
 20
707.9203906258708
 30
0.0
1001
ACAD
1000
DSTYLE
1002
{
1070
   147
1040
6.25
1070
    77
1070
     0
1070
   279
1070
     2
1070
   371
1070
    18
1070
   372
1070
    18
1002
}
  0
LINE
  5
1D89
330
1F
100
AcDbEntity
  8
補助
100
AcDbLine
 10
2784.0
 20
1959.0
 30
0.0
 11
2019.387286519283
 21
1959.000000000001
 31
0.0
  0
LINE
  5
1D8A
330
1F
100
AcDbEntity
  8
補助
100
AcDbLine
 10
2784.0
 20
1894.0
 30
0.0
 11
2019.387286519283
 21
1894.0
 31
0.0
  0
LINE
  5
1D8B
330
1F
100
AcDbEntity
  8
補助
100
AcDbLine
 10
2784.0
 20
1829.0
 30
0.0
 11
2019.387286519283
 21
1829.0
 31
0.0
  0
LINE
  5
1D8C
330
1F
100
AcDbEntity
  8
補助
100
AcDbLine
 10
2202.547653420927
 20
1764.0
 30
0.0
 11
2202.547653420927
 21
2024.0
 31
0.0
  0
LINE
  5
1D8D
330
1F
100
AcDbEntity
  8
補助
100
AcDbLine
 10
2019.387286519283
 20
1764.0
 30
0.0
 11
2019.387286519283
 21
2024.0
 31
0.0
  0
TEXT
  5
1D8E
330
1F
100
AcDbEntity
  8
補助
100
AcDbText
 10
2050.295698850121
 20
1976.328571428572
 30
0.0
 40
30.0
  1
部品名
  7
明朝
 72
     4
 11
2116.124270278692
 21
1991.5
 31
0.0
100
AcDbText
  0
TEXT
  5
1D8F
330
1F
100
AcDbEntity
  8
補助
100
AcDbText
 10
2627.614285714286
 20
1976.071428571429
 30
0.0
 40
30.0
  1
厚さ
  7
明朝
 72
     4
 11
2671.5
 21
1991.5
 31
0.0
100
AcDbText
  0
LINE
  5
1D90
330
1F
100
AcDbEntity
  8
補助
100
AcDbLine
 10
2559.0
 20
1764.0
 30
0.0
 11
2559.0
 21
2024.0
 31
0.0
  0
TEXT
  5
1D91
330
1F
100
AcDbEntity
  8
補助
100
AcDbText
 10
2338.490869919937
 20
1975.947979478155
 30
0.0
 40
30.0
  1
材質
  7
明朝
 72
     4
 11
2382.376584205651
 21
1991.119408049583
 31
0.0
100
AcDbText
  0
TEXT
  5
1D92
330
1F
100
AcDbEntity
  8
実形
100
AcDbText
 10
2048.227810657788
 20
1910.557142857143
 30
0.0
 40
30.0
  1
ボウル
  7
明朝
 72
     4
 11
2114.056382086359
 21
1926.5
 31
0.0
100
AcDbText
  0
TEXT
  5
1D93
330
1F
100
AcDbEntity
  8
実形
100
AcDbText
 10
2594.700000000001
 20
1911.842857142857
 30
0.0
 40
30.0
  1
0.8ｍｍ
  7
明朝
 72
     4
 11
2671.500000000001
 21
1926.5
 31
0.0
100
AcDbText
  0
TEXT
  5
1D94
330
1F
100
AcDbEntity
  8
実形
100
AcDbText
 10
2239.074011965008
 20
1910.728571428572
 30
0.0
 40
30.0
  1
SUS304（No.4）
  7
明朝
 72
     4
 11
2392.674011965008
 21
1926.5
 31
0.0
100
AcDbText
  0
TEXT
  5
1D95
330
1F
100
AcDbEntity
  8
実形
100
AcDbText
 10
2070.170667800645
 20
1846.242857142857
 30
0.0
 40
30.0
  1
天板
  7
明朝
 72
     4
 11
2114.056382086359
 21
1861.5
 31
0.0
100
AcDbText
  0
TEXT
  5
1D96
330
1F
100
AcDbEntity
  8
実形
100
AcDbText
 10
2219.734774251222
 20
1848.285714285714
 30
0.0
 40
25.0
  1
アクリル人工大理石
  7
明朝
 72
     4
 11
2384.306202822651
 21
1861.5
 31
0.0
100
AcDbText
  0
TEXT
  5
1D97
330
1F
100
AcDbEntity
  8
実形
100
AcDbText
 10
2605.67142857143
 20
1846.842857142857
 30
0.0
 40
30.0
  1
18ｍｍ
  7
明朝
 72
     4
 11
2671.500000000001
 21
1861.5
 31
0.0
100
AcDbText
  0
LINE
  5
1F36
330
1F
100
AcDbEntity
  8
補助
100
AcDbLine
 10
2784.0
 20
1764.0
 30
0.0
 11
2019.387286519283
 21
1764.0
 31
0.0
  0
TEXT
  5
1F3F
330
1F
100
AcDbEntity
  8
実形
100
AcDbText
 10
2026.284953514931
 20
1780.557142857143
 30
0.0
 40
30.0
  1
ポケット
  7
明朝
 72
     4
 11
2114.056382086359
 21
1796.5
 31
0.0
100
AcDbText
  0
TEXT
  5
1F51
330
1F
100
AcDbEntity
  8
実形
100
AcDbText
 10
2292.877631394079
 20
1783.642857142857
 30
0.0
 40
25.0
  1
樹脂（PP）
  7
明朝
 72
     4
 11
2384.306202822651
 21
1796.5
 31
0.0
100
AcDbText
  0
TEXT
  5
1F61
330
1F
100
AcDbEntity
  8
実形
100
AcDbText
 10
2616.642857142859
 20
1781.842857142857
 30
0.0
 40
30.0
  1
3ｍｍ
  7
明朝
 72
     4
 11
2671.500000000001
 21
1796.5
 31
0.0
100
AcDbText
  0
LINE
  5
1F62
330
1F
100
AcDbEntity
  8
実形
100
AcDbLine
 10
1289.282013516542
 20
806.2206408833882
 30
0.0
 11
431.2820135165422
 21
806.2206408833883
 31
0.0
  0
LINE
  5
1F63
330
1F
100
AcDbEntity
  8
実形
100
AcDbLine
 10
1294.282013516542
 20
788.2206408833883
 30
0.0
 11
426.2820135165421
 21
788.2206408833883
 31
0.0
  0
LINE
  5
1F76
330
1F
100
AcDbEntity
  8
実形
100
AcDbLine
 10
426.2820135165421
 20
801.2206408833883
 30
0.0
 11
426.2820135165422
 21
788.2206408833882
 31
0.0
  0
DIMENSION
  5
1FCA
330
1F
100
AcDbEntity
  8
実形
100
AcDbDimension
  2
*D49
 10
310.5601854582468
 20
788.2206408833883
 30
0.0
 11
230.3581047908932
 21
857.7671202284474
 31
0.0
 70
   160
 71
     5
 42
18.0
  3
ISO-25
100
AcDbAlignedDimension
 13
453.5599635669618
 23
806.2206408833883
 33
0.0
 14
454.5387412081376
 24
788.2206408833883
 34
0.0
 50
90.0
100
AcDbRotatedDimension
1001
ACAD
1000
DSTYLE
1002
{
1070
   140
1040
25.0
1070
   279
1070
     2
1070
   371
1070
    18
1070
   372
1070
    18
1002
}
  0
DIMENSION
  5
1FCB
330
1F
100
AcDbEntity
  8
実形
100
AcDbDimension
  2
*D50
 10
310.5601854582468
 20
783.0206408833884
 30
0.0
 11
233.1329552122728
 21
759.9603584274464
 31
0.0
 70
   160
 71
     5
 42
5.199999999999931
  3
ISO-25
100
AcDbAlignedDimension
 13
454.5387412081376
 23
788.2206408833883
 33
0.0
 14
454.5387412081376
 24
783.0206408833884
 34
0.0
 50
90.0
100
AcDbRotatedDimension
1001
ACAD
1000
DSTYLE
1002
{
1070
   140
1040
25.0
1070
   279
1070
     2
1070
   371
1070
    18
1070
   372
1070
    18
1002
}
  0
DIMENSION
  5
1FCC
330
1F
100
AcDbEntity
  8
実形
100
AcDbDimension
  2
*D51
 10
310.5601854582467
 20
598.0206408833883
 30
0.0
 11
284.6863591137165
 21
678.7833927676402
 31
0.0
 70
   160
 71
     5
 42
185.0000000000001
  3
ISO-25
100
AcDbAlignedDimension
 13
454.5387412081376
 23
783.0206408833884
 33
0.0
 14
399.4722334333904
 24
598.0206408833883
 34
0.0
 50
90.0
100
AcDbRotatedDimension
1001
ACAD
1000
DSTYLE
1002
{
1070
   279
1070
     2
1070
   371
1070
    18
1070
   372
1070
    18
1002
}
  0
DIMENSION
  5
1FCD
330
1F
100
AcDbEntity
  8
実形
100
AcDbDimension
  2
*D52
 10
199.9382870076054
 20
598.0206408833883
 30
0.0
 11
181.1882870076054
 21
702.1206408833884
 31
0.0
 70
    32
 71
     5
 42
208.2
  3
ISO-25
100
AcDbAlignedDimension
 13
453.5599635669618
 23
806.2206408833883
 33
0.0
 14
399.4722334333904
 24
598.0206408833883
 34
0.0
 50
90.0
100
AcDbRotatedDimension
1001
ACAD
1000
DSTYLE
1002
{
1070
   279
1070
     2
1070
   371
1070
    18
1070
   372
1070
    18
1002
}
  0
DIMENSION
  5
1FCE
330
1F
100
AcDbEntity
  8
実形
100
AcDbDimension
  2
*D53
 10
310.5601854582467
 20
598.0206408833883
 30
0.0
 11
275.5601854582467
 21
571.6828572191515
 31
0.0
 70
   160
  1
7
 71
     5
 42
10.0
  3
ISO-25
100
AcDbAlignedDimension
 13
455.6321390173701
 23
588.0206408833883
 33
0.0
 14
455.6321390173701
 24
598.0206408833883
 34
0.0
 50
90.0
100
AcDbRotatedDimension
1001
ACAD
1000
DSTYLE
1002
{
1070
   279
1070
     2
1070
   371
1070
    18
1070
   372
1070
    18
1002
}
  0
LINE
  5
1FCF
330
1F
100
AcDbEntity
  8
実形
100
AcDbLine
 10
308.357200417567
 20
785.6387306404485
 30
0.0
 11
261.383333011437
 21
763.6769725323229
 31
0.0
  0
LINE
  5
1FD0
330
1F
100
AcDbEntity
  8
実形
100
AcDbLine
 10
305.9916152206036
 20
784.9629931236996
 30
0.0
 11
287.7427714290765
 21
780.232758303011
 31
0.0
  0
LINE
  5
1FD1
330
1F
100
AcDbEntity
  8
実形
100
AcDbLine
 10
306.3295694093917
 20
784.2872411662611
 30
0.0
 11
292.8118960117875
 21
774.1510484488226
 31
0.0
  0
ARC
  5
1FD2
330
1F
100
AcDbEntity
  8
実形
100
AcDbCircle
 10
353.4028810791352
 20
918.2239788331752
 30
0.0
 40
128.7156019851906
100
AcDbArc
 50
213.3909885014397
 51
249.3522921630743
  0
LINE
  5
1FD3
330
1F
100
AcDbEntity
  8
実形
100
AcDbLine
 10
308.0529911326024
 20
797.9314318644737
 30
0.0
 11
297.147637935824
 21
805.6081323072612
 31
0.0
  0
LINE
  5
1FD4
330
1F
100
AcDbEntity
  8
実形
100
AcDbLine
 10
307.8505970053969
 20
797.7904817458984
 30
0.0
 11
293.9659500339579
 21
801.3728844825855
 31
0.0
  0
LEADER
  5
1FD5
330
1F
100
AcDbEntity
  8
実形
100
AcDbLeader
  3
ISO-25
 40
25.0
 41
16.66666666666666
 76
     2
 10
420.822049752059
 20
811.8901847154694
 30
0.0
 10
379.9489577466141
 20
855.5978329971585
 30
0.0
213
0.0
223
12.5
233
0.0
1001
ACAD
1000
DSTYLE
1002
{
1070
   147
1040
6.25
1070
    77
1070
     0
1070
    41
1040
20.0
1070
   342
1005
DA
1002
}
  0
TEXT
  5
1FD6
330
1F
100
AcDbEntity
  8
実形
100
AcDbText
 10
355.0740197083575
 20
868.0246800228914
 30
0.0
 40
25.0
  1
5R
 72
     2
 11
396.7406863750242
 21
893.0246800228914
 31
0.0
100
AcDbText
 73
     3
  0
ARC
  5
20C4
330
1F
100
AcDbEntity
  8
実形
100
AcDbCircle
 10
431.2820135165422
 20
801.2206408833883
 30
0.0
 40
5.0
100
AcDbArc
 50
90.0
 51
180.0
  0
LINE
  5
20FF
330
1F
100
AcDbEntity
  8
実形
100
AcDbLine
 10
1294.282013516542
 20
801.2206408833883
 30
0.0
 11
1294.282013516542
 21
788.2206408833883
 31
0.0
  0
ARC
  5
2100
330
1F
100
AcDbEntity
  8
実形
100
AcDbCircle
 10
1289.282013516542
 20
801.2206408833883
 30
0.0
 40
5.0
100
AcDbArc
 50
0.0
 51
90.0
  0
LEADER
  5
2109
330
1F
100
AcDbEntity
  8
実形
100
AcDbLeader
  3
ISO-25
 40
25.0
 41
16.66666666666666
 76
     2
 10
1306.935910835509
 20
811.6287451341994
 30
0.0
 10
1344.323386159055
 20
845.368156594738
 30
0.0
213
0.0
223
12.5
233
0.0
1001
ACAD
1000
DSTYLE
1002
{
1070
   147
1040
6.25
1070
    77
1070
     0
1070
    41
1040
20.0
1070
   342
1005
DA
1002
}
  0
TEXT
  5
210A
330
1F
100
AcDbEntity
  8
実形
100
AcDbText
 10
1334.690328251225
 20
852.1676668862582
 30
0.0
 40
25.0
  1
5R
 72
     2
 11
1376.356994917892
 21
877.1676668862582
 31
0.0
100
AcDbText
 73
     3
  0
LINE
  5
21ED
330
1F
100
AcDbEntity
  8
実形
100
AcDbLine
 10
1606.53435109567
 20
1106.249356137092
 30
0.0
 11
1608.734351095671
 21
1106.249356137093
 31
0.0
  0
LINE
  5
21EE
330
1F
100
AcDbEntity
  8
実形
100
AcDbLine
 10
1611.734351095671
 20
1109.249356137093
 30
0.0
 11
1611.734351095671
 21
1116.249356137093
 31
0.0
  0
LINE
  5
21EF
330
1F
100
AcDbEntity
  8
実形
100
AcDbLine
 10
1616.734351095671
 20
1121.249356137093
 30
0.0
 11
1762.547412830659
 21
1121.249356137093
 31
0.0
  0
LINE
  5
21F0
330
1F
100
AcDbEntity
  8
実形
100
AcDbLine
 10
1796.73435109567
 20
1310.749356137092
 30
0.0
 11
1796.73435109567
 21
1501.249356137093
 31
0.0
  0
LINE
  5
21F1
330
1F
100
AcDbEntity
  8
実形
100
AcDbLine
 10
1766.734351095671
 20
1531.249356137093
 30
0.0
 11
1616.734351095671
 21
1531.249356137093
 31
0.0
  0
LINE
  5
21F2
330
1F
100
AcDbEntity
  8
実形
100
AcDbLine
 10
1611.734351095671
 20
1536.249356137093
 30
0.0
 11
1611.734351095671
 21
1543.249356137093
 31
0.0
  0
LINE
  5
21F3
330
1F
100
AcDbEntity
  8
実形
100
AcDbLine
 10
1608.734351095671
 20
1546.249356137092
 30
0.0
 11
1606.53435109567
 21
1546.249356137092
 31
0.0
  0
ARC
  5
21F8
330
1F
100
AcDbEntity
  8
実形
100
AcDbCircle
 10
1608.734351095671
 20
1543.249356137093
 30
0.0
 40
3.0
100
AcDbArc
 50
0.0
 51
90.0
  0
ARC
  5
21F9
330
1F
100
AcDbEntity
  8
実形
100
AcDbCircle
 10
1616.734351095671
 20
1116.249356137093
 30
0.0
 40
5.0
100
AcDbArc
 50
90.0
 51
180.0
  0
ARC
  5
21FA
330
1F
100
AcDbEntity
  8
実形
100
AcDbCircle
 10
1616.734351095671
 20
1536.249356137093
 30
0.0
 40
5.0
100
AcDbArc
 50
180.0
 51
270.0
  0
ARC
  5
21FB
330
1F
100
AcDbEntity
  8
実形
100
AcDbCircle
 10
1766.734351095671
 20
1501.249356137093
 30
0.0
 40
30.0
100
AcDbArc
 50
0.0
 51
90.0
  0
LINE
  5
21FC
330
1F
100
AcDbEntity
  8
実形
100
AcDbLine
 10
1796.73435109567
 20
1310.749356137093
 30
0.0
 11
1792.537132579926
 21
1150.464047687856
 31
0.0
  0
ARC
  5
21FD
330
1F
100
AcDbEntity
  8
実形
100
AcDbCircle
 10
1762.547412830659
 20
1151.249356137093
 30
0.0
 40
30.0
100
AcDbArc
 50
270.0
 51
358.4999999999972
  0
ARC
  5
21FF
330
1F
100
AcDbEntity
  8
実形
100
AcDbCircle
 10
1608.734351095671
 20
1109.249356137093
 30
0.0
 40
3.0
100
AcDbArc
 50
270.0
 51
0.0
  0
DIMENSION
  5
2203
330
1F
100
AcDbEntity
  8
寸法
100
AcDbDimension
  2
*D54
 10
1915.306195767058
 20
1321.749356137093
 30
0.0
 11
1915.306195767058
 21
1400.457348094219
 31
0.0
 70
   160
  1
158%%C
 71
     5
 42
159.0
  3
ISO-25
100
AcDbAlignedDimension
 13
1803.73435109567
 23
1480.749356137093
 33
0.0
 14
1803.73435109567
 24
1321.749356137093
 34
0.0
 50
90.0
100
AcDbRotatedDimension
  0
DIMENSION
  5
2204
330
1F
100
AcDbEntity
  8
寸法
100
AcDbDimension
  2
*D55
 10
1743.270612329526
 20
1310.749356137093
 30
0.0
 11
1743.270612329526
 21
1401.249356137093
 31
0.0
 70
   160
  1
181%%C
 71
     5
 42
181.0
  3
ISO-25
100
AcDbAlignedDimension
 13
1850.973736918802
 23
1491.749356137093
 33
0.0
 14
1850.973736918802
 24
1310.749356137093
 34
0.0
 50
90.0
100
AcDbRotatedDimension
  0
LEADER
  5
2205
330
1F
100
AcDbEntity
  8
寸法
100
AcDbLeader
  3
ISO-25
 40
25.0
 41
62.5
 76
     2
 10
1792.062604397287
 20
1520.232189579552
 30
0.0
 10
1838.641628273545
 20
1552.687085238818
 30
0.0
213
0.0
223
-12.5
233
0.0
1001
ACAD
1000
DSTYLE
1002
{
1070
   147
1040
6.25
1070
    77
1070
     0
1070
    41
1040
25.0
1070
   342
1005
DA
1002
}
  0
TEXT
  5
2206
330
1F
100
AcDbEntity
  8
寸法
100
AcDbText
 10
1849.119224361678
 20
1551.640151585384
 30
0.0
 40
25.0
  1
30R
 11
1849.119224361678
 21
1548.306818252051
 31
0.0
100
AcDbText
 73
     1
  0
LEADER
  5
2207
330
1F
100
AcDbEntity
  8
実形
100
AcDbLeader
  3
ISO-25
 76
     2
 10
1616.869862166813
 20
1117.066975778532
 30
0.0
 10
1651.484149539153
 20
1079.344994590458
 30
0.0
1001
ACAD
1000
DSTYLE
1002
{
1070
   147
1040
6.25
1070
    77
1070
     0
1070
    41
1040
20.0
1070
   342
1005
DA
1002
}
  0
LEADER
  5
2208
330
1F
100
AcDbEntity
  8
実形
100
AcDbLeader
  3
ISO-25
 76
     2
 10
1607.980445228326
 20
1109.569820660828
 30
0.0
 10
1557.578011427577
 20
1145.531909123957
 30
0.0
1001
ACAD
1000
DSTYLE
1002
{
1070
   147
1040
6.25
1070
    77
1070
     0
1070
    41
1040
20.0
1070
   342
1005
DA
1002
}
  0
LEADER
  5
2209
330
1F
100
AcDbEntity
  8
実形
100
AcDbLeader
  3
ISO-25
 76
     2
 10
1781.842121063568
 20
1134.520222393134
 30
0.0
 10
1744.187350553056
 20
1170.759575082092
 30
0.0
1001
ACAD
1000
DSTYLE
1002
{
1070
   147
1040
6.25
1070
    77
1070
     0
1070
    41
1040
20.0
1070
   342
1005
DA
1002
}
  0
TEXT
  5
220A
330
1F
100
AcDbEntity
  8
寸法
100
AcDbText
 10
1662.188566445565
 20
1168.809670255533
 30
0.0
 40
25.0
  1
30R
 11
1662.188566445565
 21
1165.4763369222
 31
0.0
100
AcDbText
 73
     1
  0
TEXT
  5
220B
330
1F
100
AcDbEntity
  8
寸法
100
AcDbText
 10
1508.147740523046
 20
1138.998960688182
 30
0.0
 40
25.0
  1
3R
 11
1508.147740523046
 21
1135.665627354849
 31
0.0
100
AcDbText
 73
     1
  0
TEXT
  5
220C
330
1F
100
AcDbEntity
  8
寸法
100
AcDbText
 10
1661.452786004515
 20
1057.857432366071
 30
0.0
 40
25.0
  1
5R
 11
1661.452786004515
 21
1054.524099032738
 31
0.0
100
AcDbText
 73
     1
  0
LINE
  5
2210
330
1F
100
AcDbEntity
  8
実形
100
AcDbLine
 10
1720.73435109567
 20
1602.849356137093
 30
0.0
 11
1708.73435109567
 21
1602.849356137093
 31
0.0
  0
LINE
  5
2211
330
1F
100
AcDbEntity
  8
実形
100
AcDbLine
 10
1722.734351095671
 20
1601.399356137093
 30
0.0
 11
1702.734351095671
 21
1601.399356137093
 31
0.0
  0
LINE
  5
2213
330
1F
100
AcDbEntity
  8
実形
100
AcDbLine
 10
1608.734351095671
 20
1626.249356137092
 30
0.0
 11
1606.53435109567
 21
1626.249356137092
 31
0.0
  0
ARC
  5
2214
330
1F
100
AcDbEntity
  8
実形
100
AcDbCircle
 10
1608.734351095671
 20
1623.249356137092
 30
0.0
 40
3.0
100
AcDbArc
 50
0.0
 51
90.0
  0
LINE
  5
2215
330
1F
100
AcDbEntity
  8
実形
100
AcDbLine
 10
1614.734351095671
 20
1616.249356137092
 30
0.0
 11
1696.73435109567
 21
1616.249356137092
 31
0.0
  0
ARC
  5
2216
330
1F
100
AcDbEntity
  8
実形
100
AcDbCircle
 10
1702.734351095671
 20
1612.549356137092
 30
0.0
 40
3.0
100
AcDbArc
 50
180.0
 51
240.0000000000027
  0
ARC
  5
2217
330
1F
100
AcDbEntity
  8
実形
100
AcDbCircle
 10
1699.734351095671
 20
1607.353203714385
 30
0.0
 40
3.0
100
AcDbArc
 50
0.0
 51
60.00000000000272
  0
LINE
  5
2218
330
1F
100
AcDbEntity
  8
実形
100
AcDbLine
 10
1699.734351095671
 20
1613.249356137092
 30
0.0
 11
1699.734351095671
 21
1611.745508559798
 31
0.0
  0
LINE
  5
2219
330
1F
100
AcDbEntity
  8
実形
100
AcDbLine
 10
1702.734351095671
 20
1607.353203714385
 30
0.0
 11
1702.734351095671
 21
1565.1455085598
 31
0.0
  0
LINE
  5
221A
330
1F
100
AcDbEntity
  8
実形
100
AcDbLine
 10
1722.734351095671
 20
1601.399356137093
 30
0.0
 11
1722.73435109567
 21
1586.249356137093
 31
0.0
  0
LINE
  5
221B
330
1F
100
AcDbEntity
  8
実形
100
AcDbLine
 10
1707.734351095671
 20
1601.399356137093
 30
0.0
 11
1707.734351095671
 21
1586.249356137093
 31
0.0
  0
LINE
  5
221C
330
1F
100
AcDbEntity
  8
実形
100
AcDbLine
 10
1690.234351095671
 20
1556.249356137092
 30
0.0
 11
1606.534351095671
 21
1556.249356137093
 31
0.0
  0
ARC
  5
221D
330
1F
100
AcDbEntity
  8
実形
100
AcDbCircle
 10
1696.73435109567
 20
1613.249356137092
 30
0.0
 40
3.0
100
AcDbArc
 50
0.0
 51
90.0
  0
LINE
  5
2221
330
1F
100
AcDbEntity
  8
実形
100
AcDbLine
 10
1611.734351095671
 20
1623.249356137092
 30
0.0
 11
1611.734351095671
 21
1619.249356137092
 31
0.0
  0
ARC
  5
2222
330
1F
100
AcDbEntity
  8
実形
100
AcDbCircle
 10
1614.734351095671
 20
1619.249356137092
 30
0.0
 40
3.0
100
AcDbArc
 50
180.0
 51
270.0
  0
DIMENSION
  5
2224
330
1F
100
AcDbEntity
  8
実形
100
AcDbDimension
  2
*D56
 10
1702.734351095671
 20
1702.158503141878
 30
0.0
 11
1645.634351095671
 21
1720.908503141878
 31
0.0
 70
    32
 71
     5
 42
114.2000000000007
  3
ISO-25
100
AcDbAlignedDimension
 13
1588.53435109567
 23
1602.849356137093
 33
0.0
 14
1702.734351095671
 24
1602.849356137093
 34
0.0
100
AcDbRotatedDimension
1001
ACAD
1000
DSTYLE
1002
{
1070
   341
1005
172A
1002
}
  0
LINE
  5
2225
330
1F
100
AcDbEntity
  8
実形
100
AcDbLine
 10
1614.734351095671
 20
1556.249356137092
 30
0.0
 11
1696.73435109567
 21
1556.249356137093
 31
0.0
  0
LINE
  5
2226
330
1F
100
AcDbEntity
  8
実形
100
AcDbLine
 10
1702.734351095671
 20
1565.145508559799
 30
0.0
 11
1702.734351095671
 21
1607.353203714385
 31
0.0
  0
LINE
  5
2227
330
1F
100
AcDbEntity
  8
実形
100
AcDbLine
 10
1699.734351095671
 20
1559.249356137093
 30
0.0
 11
1699.734351095671
 21
1559.949356137093
 31
0.0
  0
DIMENSION
  5
2228
330
1F
100
AcDbEntity
  8
実形
100
AcDbDimension
  2
*D57
 10
1764.520690694623
 20
1569.649356137093
 30
0.0
 11
1793.169124385696
 21
1586.249356137093
 31
0.0
 70
   160
  1
33
 71
     5
 42
33.19999999999982
  3
ISO-25
100
AcDbAlignedDimension
 13
1722.734351095671
 23
1602.849356137093
 33
0.0
 14
1722.73435109567
 24
1569.649356137093
 34
0.0
 50
90.0
100
AcDbRotatedDimension
1001
ACAD
1000
DSTYLE
1002
{
1070
    76
1070
     1
1070
    75
1070
     1
1070
   279
1070
     2
1070
   341
1005
172A
1002
}
  0
LINE
  5
2229
330
1F
100
AcDbEntity
  8
実形
100
AcDbLine
 10
1764.520690694623
 20
1569.649356137093
 30
0.0
 11
1735.573622556167
 21
1569.649356137093
 31
0.0
  0
LINE
  5
222A
330
1F
100
AcDbEntity
  8
実形
100
AcDbLine
 10
1764.520690694623
 20
1600.661856137093
 30
0.0
 11
1764.520690694623
 21
1602.849356137093
 31
0.0
  0
LINE
  5
222B
330
1F
100
AcDbEntity
  8
実形
100
AcDbLine
 10
1764.520690694623
 20
1602.849356137093
 30
0.0
 11
1735.746489089645
 21
1602.849356137093
 31
0.0
  0
DIMENSION
  5
222C
330
1F
100
AcDbEntity
  8
実形
100
AcDbDimension
  2
*D58
 10
1722.734351095671
 20
1702.158503141878
 30
0.0
 11
1749.693393400484
 21
1705.820212669916
 31
0.0
 70
   160
 71
     5
 42
20.0
  3
ISO-25
100
AcDbAlignedDimension
 13
1702.734351095671
 23
1602.849356137093
 33
0.0
 14
1722.734351095671
 24
1602.849356137093
 34
0.0
100
AcDbRotatedDimension
1001
ACAD
1000
DSTYLE
1002
{
1070
   279
1070
     2
1070
   341
1005
172A
1002
}
  0
ARC
  5
222D
330
1F
100
AcDbEntity
  8
実形
100
AcDbCircle
 10
1702.734351095671
 20
1559.949356137093
 30
0.0
 40
3.0
100
AcDbArc
 50
119.9999999999973
 51
180.0
  0
ARC
  5
222E
330
1F
100
AcDbEntity
  8
実形
100
AcDbCircle
 10
1699.734351095671
 20
1565.1455085598
 30
0.0
 40
3.0
100
AcDbArc
 50
299.9999999999973
 51
0.0
  0
ARC
  5
222F
330
1F
100
AcDbEntity
  8
実形
100
AcDbCircle
 10
1696.734351095671
 20
1559.249356137093
 30
0.0
 40
3.0
100
AcDbArc
 50
270.0
 51
0.0
  0
LINE
  5
2230
330
1F
100
AcDbEntity
  8
実形
100
AcDbLine
 10
1702.734351095671
 20
1607.353203714385
 30
0.0
 11
1702.734351095671
 21
1565.1455085598
 31
0.0
  0
LINE
  5
2231
330
1F
100
AcDbEntity
  8
実形
100
AcDbLine
 10
1721.734351095671
 20
1601.399356137093
 30
0.0
 11
1720.734351095671
 21
1602.849356137093
 31
0.0
  0
LINE
  5
2232
330
1F
100
AcDbEntity
  8
実形
100
AcDbLine
 10
1708.734351095671
 20
1602.849356137093
 30
0.0
 11
1707.734351095671
 21
1601.399356137093
 31
0.0
  0
LINE
  5
2233
330
1F
100
AcDbEntity
  8
実形
100
AcDbLine
 10
1720.73435109567
 20
1569.649356137093
 30
0.0
 11
1708.73435109567
 21
1569.649356137093
 31
0.0
  0
LINE
  5
2234
330
1F
100
AcDbEntity
  8
実形
100
AcDbLine
 10
1722.734351095671
 20
1571.099356137093
 30
0.0
 11
1702.734351095671
 21
1571.099356137093
 31
0.0
  0
LINE
  5
2235
330
1F
100
AcDbEntity
  8
実形
100
AcDbLine
 10
1722.734351095671
 20
1571.099356137093
 30
0.0
 11
1722.73435109567
 21
1586.249356137093
 31
0.0
  0
LINE
  5
2236
330
1F
100
AcDbEntity
  8
実形
100
AcDbLine
 10
1707.734351095671
 20
1571.099356137093
 30
0.0
 11
1707.734351095671
 21
1586.249356137092
 31
0.0
  0
LINE
  5
2237
330
1F
100
AcDbEntity
  8
実形
100
AcDbLine
 10
1721.734351095671
 20
1571.099356137093
 30
0.0
 11
1720.734351095671
 21
1569.649356137093
 31
0.0
  0
LINE
  5
2238
330
1F
100
AcDbEntity
  8
実形
100
AcDbLine
 10
1708.734351095671
 20
1569.649356137093
 30
0.0
 11
1707.734351095671
 21
1571.099356137093
 31
0.0
  0
LINE
  5
2239
330
1F
100
AcDbEntity
  8
実形
100
AcDbLine
 10
1785.219546810995
 20
1516.749356137093
 30
0.0
 11
1743.04870176636
 21
1516.749356137093
 31
0.0
  0
LINE
  5
223A
330
1F
100
AcDbEntity
  8
実形
100
AcDbLine
 10
1743.270612329526
 20
1491.749356137093
 30
0.0
 11
1743.270612329526
 21
1516.697399530067
 31
0.0
  0
HATCH
  5
223B
330
1F
100
AcDbEntity
  8
実形
100
AcDbHatch
 10
0.0
 20
0.0
 30
0.0
210
0.0
220
0.0
230
1.0
  2
SOLID
 70
     1
 71
     0
 91
        1
 92
        7
 72
     1
 73
     1
 93
        2
 10
1746.840296431265
 20
1516.98699297756
 42
1.0
 10
1739.854037658174
 20
1516.98699297756
 42
1.0
 97
        0
 75
     0
 76
     1
 47
0.3373960739521582
 98
        1
 10
1743.567063255849
 20
1515.180843604146
  0
TEXT
  5
223C
330
1F
100
AcDbEntity
  8
寸法
100
AcDbText
 10
1735.124440614994
 20
1486.373144798886
 30
0.0
 40
20.0
  1
25
 50
90.0
 11
1737.79110728166
 21
1486.373144798886
 31
0.0
100
AcDbText
 73
     1
  0
LINE
  5
223D
330
1F
100
AcDbEntity
  8
実形
100
AcDbLine
 10
1785.219546810995
 20
1285.749356137093
 30
0.0
 11
1743.04870176636
 21
1285.749356137093
 31
0.0
  0
LINE
  5
223E
330
1F
100
AcDbEntity
  8
実形
100
AcDbLine
 10
1743.270612329526
 20
1310.749356137093
 30
0.0
 11
1743.270612329526
 21
1285.801312744119
 31
0.0
  0
HATCH
  5
223F
330
1F
100
AcDbEntity
  8
実形
100
AcDbHatch
 10
0.0
 20
0.0
 30
0.0
210
0.0
220
0.0
230
1.0
  2
SOLID
 70
     1
 71
     0
 91
        1
 92
        7
 72
     1
 73
     1
 93
        2
 10
1746.840296431265
 20
1285.511719296625
 42
-1.0
 10
1739.854037658174
 20
1285.511719296625
 42
-1.0
 97
        0
 75
     0
 76
     1
 47
0.3373960739521582
 98
        1
 10
1743.567063255849
 20
1287.317868670039
  0
TEXT
  5
2240
330
1F
100
AcDbEntity
  8
寸法
100
AcDbText
 10
1735.124440614994
 20
1280.373144798885
 30
0.0
 40
20.0
  1
25
 50
90.0
 11
1737.79110728166
 21
1280.373144798885
 31
0.0
100
AcDbText
 73
     1
  0
LINE
  5
2249
330
1F
100
AcDbEntity
  8
実形
100
AcDbLine
 10
1803.73435109567
 20
1491.749356137093
 30
0.0
 11
1803.73435109567
 21
1310.749356137078
 31
0.0
  0
LINE
  5
224A
330
1F
100
AcDbEntity
  8
実形
100
AcDbLine
 10
1796.73435109567
 20
1491.749356137093
 30
0.0
 11
1803.73435109567
 21
1491.749356137092
 31
0.0
  0
LINE
  5
224B
330
1F
100
AcDbEntity
  8
実形
100
AcDbLine
 10
1796.73435109567
 20
1310.749356137075
 30
0.0
 11
1803.734351095671
 21
1310.749356137078
 31
0.0
  0
LINE
  5
23A0
330
1F
100
AcDbEntity
  8
実形
100
AcDbLine
 10
1593.53435109567
 20
1660.249356137093
 30
0.0
 11
1606.534351095671
 21
1660.249356137093
 31
0.0
  0
LINE
  5
23A1
330
1F
100
AcDbEntity
  8
実形
100
AcDbLine
 10
1588.53435109567
 20
1655.249356137093
 30
0.0
 11
1588.53435109567
 21
1072.249356137093
 31
0.0
  0
LINE
  5
23A2
330
1F
100
AcDbEntity
  8
実形
100
AcDbLine
 10
1606.534351095671
 20
1660.249356137093
 30
0.0
 11
1606.53435109567
 21
1072.249356137093
 31
0.0
  0
LEADER
  5
23EE
330
1F
100
AcDbEntity
  8
実形
100
AcDbLeader
  3
ISO-25
 40
25.0
 41
16.66666666666666
 76
     2
 10
1580.119828792968
 20
1069.227831967756
 30
0.0
 10
1520.643127610539
 20
1029.592172168908
 30
0.0
213
0.0
223
12.5
233
0.0
1001
ACAD
1000
DSTYLE
1002
{
1070
   147
1040
6.25
1070
    77
1070
     0
1070
    41
1040
20.0
1070
   342
1005
DA
1002
}
  0
TEXT
  5
23EF
330
1F
100
AcDbEntity
  8
実形
100
AcDbText
 10
1489.252650508039
 20
996.9042042446876
 30
0.0
 40
25.0
  1
5R
 72
     2
 11
1530.919317174706
 21
1021.904204244687
 31
0.0
100
AcDbText
 73
     3
  0
LINE
  5
24ED
330
1F
100
AcDbEntity
  8
実形
100
AcDbLine
 10
1588.53435109567
 20
1072.249356137093
 30
0.0
 11
1588.53435109567
 21
1057.774238839503
 31
0.0
  0
LINE
  5
24EE
330
1F
100
AcDbEntity
  8
実形
100
AcDbLine
 10
1606.53435109567
 20
1072.249356137093
 30
0.0
 11
1606.53435109567
 21
1052.774238839504
 31
0.0
  0
DIMENSION
  5
24F1
330
1F
100
AcDbEntity
  8
実形
100
AcDbDimension
  2
*D59
 10
1803.734351095671
 20
972.3560098888356
 30
0.0
 11
1855.136394631288
 21
983.2929043662861
 31
0.0
 70
   160
 71
     5
 42
7.000000000000682
  3
ISO-25
100
AcDbAlignedDimension
 13
1796.73435109567
 23
1088.862864476546
 33
0.0
 14
1803.734351095671
 24
1088.862864476546
 34
0.0
100
AcDbRotatedDimension
1001
ACAD
1000
DSTYLE
1002
{
1070
   279
1070
     2
1070
   289
1070
     2
1002
}
  0
DIMENSION
  5
2500
330
1F
100
AcDbEntity
  8
実形
100
AcDbDimension
  2
*D60
 10
1796.73435109567
 20
929.1891645095766
 30
0.0
 11
1701.63435109567
 21
947.9391645095766
 31
0.0
 70
    32
 71
     5
 42
190.2
  3
ISO-25
100
AcDbAlignedDimension
 13
1606.53435109567
 23
1088.862864476547
 33
0.0
 14
1796.73435109567
 24
1088.862864476547
 34
0.0
100
AcDbRotatedDimension
1001
ACAD
1000
DSTYLE
1002
{
1070
   279
1070
     2
1070
   289
1070
     2
1002
}
  0
DIMENSION
  5
2518
330
1F
100
AcDbEntity
  8
実形
100
AcDbDimension
  2
*D61
 10
1796.73435109567
 20
929.1891645095766
 30
0.0
 11
1553.045310805835
 21
947.9391645095766
 31
0.0
 70
   160
  1
18
 71
     5
 42
208.2
  3
ISO-25
100
AcDbAlignedDimension
 13
1588.53435109567
 23
1088.862864476547
 33
0.0
 14
1796.73435109567
 24
1088.862864476546
 34
0.0
100
AcDbRotatedDimension
1001
ACAD
1000
DSTYLE
1002
{
1070
   279
1070
     2
1070
   289
1070
     2
1002
}
  0
DIMENSION
  5
2540
330
1F
100
AcDbEntity
  8
実形
100
AcDbDimension
  2
*D62
 10
1796.73435109567
 20
881.1709791940412
 30
0.0
 11
1692.63435109567
 21
899.9209791940412
 31
0.0
 70
    32
 71
     5
 42
208.2
  3
ISO-25
100
AcDbAlignedDimension
 13
1588.53435109567
 23
1023.862864476547
 33
0.0
 14
1796.73435109567
 24
1023.862864476546
 34
0.0
100
AcDbRotatedDimension
1001
ACAD
1000
DSTYLE
1002
{
1070
   279
1070
     2
1070
   289
1070
     2
1002
}
  0
LINE
  5
2573
330
1F
100
AcDbEntity
  8
実形
100
AcDbLine
 10
1593.53435109567
 20
1052.774238839504
 30
0.0
 11
1606.53435109567
 21
1052.774238839504
 31
0.0
  0
ARC
  5
2574
330
1F
100
AcDbEntity
  8
実形
100
AcDbCircle
 10
1593.53435109567
 20
1057.774238839503
 30
0.0
 40
5.0
100
AcDbArc
 50
180.0
 51
270.0
  0
ARC
  5
2575
330
1F
100
AcDbEntity
  8
実形
100
AcDbCircle
 10
1593.53435109567
 20
1655.249356137093
 30
0.0
 40
5.0
100
AcDbArc
 50
90.0
 51
180.0
  0
LEADER
  5
25D8
330
1F
100
AcDbEntity
  8
実形
100
AcDbLeader
  3
ISO-25
 40
25.0
 41
16.66666666666666
 76
     2
 10
1582.137713029602
 20
1664.5106233716
 30
0.0
 10
1535.63304515232
 20
1706.865013193184
 30
0.0
213
0.0
223
12.5
233
0.0
1001
ACAD
1000
DSTYLE
1002
{
1070
   147
1040
6.25
1070
    77
1070
     0
1070
    41
1040
20.0
1070
   342
1005
DA
1002
}
  0
TEXT
  5
25D9
330
1F
100
AcDbEntity
  8
実形
100
AcDbText
 10
1509.212042540389
 20
1714.396959385237
 30
0.0
 40
25.0
  1
5R
 72
     2
 11
1550.878709207055
 21
1739.396959385237
 31
0.0
100
AcDbText
 73
     3
  0
LINE
  5
25F8
330
1F
100
AcDbEntity
  8
センター
 48
0.5
370
    15
100
AcDbLine
 10
1253.24937685983
 20
1298.580238173452
 30
0.0
 11
1340.654150515503
 21
1298.580238173452
 31
0.0
  0
TEXT
  5
25F9
330
1F
100
AcDbEntity
  8
実形
370
    -2
100
AcDbText
 10
1226.841628503727
 20
1288.209918357363
 30
0.0
 40
25.0
  1
A
100
AcDbText
  0
TEXT
  5
25FA
330
1F
100
AcDbEntity
  8
実形
370
    -2
100
AcDbText
 10
1347.70154814043
 20
1288.209918357363
 30
0.0
 40
25.0
  1
A
100
AcDbText
  0
TEXT
  5
25FB
330
1F
100
AcDbEntity
  8
実形
370
    -2
100
AcDbText
 10
1357.306322900196
 20
1286.609456995192
 30
0.0
 40
25.0
  1
´
100
AcDbText
  0
VIEWPORT
  5
2E
102
{ACAD_XDICTIONARY
360
267F
102
}
330
1B
100
AcDbEntity
 67
     1
  8
0
100
AcDbViewport
 10
144.7270812988281
 20
101.2295806407928
 30
0.0
 40
411.6736216682419
 41
222.1517806396485
 68
     1
 69
     1
 12
144.7270812988281
 22
101.2295806407928
 13
0.0
 23
0.0
 14
10.0
 24
10.0
 15
10.0
 25
10.0
 16
0.0
 26
0.0
 36
1.0
 17
0.0
 27
0.0
 37
0.0
 42
50.0
 43
0.0
 44
0.0
 45
222.1517806396485
 50
0.0
 51
0.0
 72
   100
 90
    32800
  1

281
     0
 71
     1
 74
     0
110
0.0
120
0.0
130
0.0
111
1.0
121
0.0
131
0.0
112
0.0
122
1.0
132
0.0
 79
     0
146
0.0
  0
VIEWPORT
  5
30
102
{ACAD_XDICTIONARY
360
2681
102
}
330
1B
100
AcDbEntity
 67
     1
  8
0
100
AcDbViewport
 10
139.2237563133239
 20
101.2295821905136
 30
0.0
 40
222.7580101013184
 41
161.9673315048218
 68
     2
 69
     2
 12
210.0
 22
148.5
 13
0.0
 23
0.0
 14
10.0
 24
10.0
 15
10.0
 25
10.0
 16
0.0
 26
0.0
 36
1.0
 17
0.0
 27
0.0
 37
0.0
 42
50.0
 43
0.0
 44
0.0
 45
309.0686705647124
 50
0.0
 51
0.0
 72
   100
 90
    32864
  1

281
     0
 71
     1
 74
     0
110
0.0
120
0.0
130
0.0
111
1.0
121
0.0
131
0.0
112
0.0
122
1.0
132
0.0
 79
     0
146
0.0
  0
ENDSEC
  0
SECTION
  2
OBJECTS
  0
DICTIONARY
  5
C
330
0
100
AcDbDictionary
281
     1
  3
ACAD_COLOR
350
15C3
  3
ACAD_GROUP
350
D
  3
ACAD_LAYOUT
350
1A
  3
ACAD_MATERIAL
350
15C2
  3
ACAD_MLINESTYLE
350
17
  3
ACAD_PLOTSETTINGS
350
19
  3
ACAD_PLOTSTYLENAME
350
E
  3
ACAD_TABLESTYLE
350
15C4
  3
AcadDim
350
CBC
  3
ACDBHEADERROUNDTRIPXREC
350
2678
  3
AcDbVariableDictionary
350
EFD
  0
DICTIONARY
  5
15FF
330
2
100
AcDbDictionary
280
     1
281
     1
  3
ACAD_LAYERFILTERS
360
19C2
  3
ACAD_LAYERSTATES
360
1600
  3
ACLYDICTIONARY
360
19C1
  0
DICTIONARY
  5
15EE
330
1F
100
AcDbDictionary
280
     1
281
     1
  3
ACAD_SORTENTS
360
15EF
  0
DICTIONARY
  5
1F55
330
1F53
100
AcDbDictionary
280
     1
281
     1
  3
ACAD_SORTENTS
360
1F56
  0
DICTIONARY
  5
267F
330
2E
100
AcDbDictionary
280
     1
281
     1
  3
ACAD_XREC_ROUNDTRIP
360
2680
  0
DICTIONARY
  5
2681
330
30
100
AcDbDictionary
280
     1
281
     1
  3
ACAD_XREC_ROUNDTRIP
360
2682
  0
DICTIONARY
  5
15C3
102
{ACAD_REACTORS
330
C
102
}
330
C
100
AcDbDictionary
281
     1
  0
DICTIONARY
  5
D
102
{ACAD_REACTORS
330
C
102
}
330
C
100
AcDbDictionary
281
     1
  0
DICTIONARY
  5
1A
102
{ACAD_REACTORS
330
C
102
}
330
C
100
AcDbDictionary
281
     1
  3
Model
350
22
  3
ﾚｲｱｳﾄ1
350
1E
  3
ﾚｲｱｳﾄ2
350
26
  0
DICTIONARY
  5
15C2
102
{ACAD_REACTORS
330
C
102
}
330
C
100
AcDbDictionary
281
     1
  0
DICTIONARY
  5
17
102
{ACAD_REACTORS
330
C
102
}
330
C
100
AcDbDictionary
281
     1
  3
Standard
350
18
  0
DICTIONARY
  5
19
102
{ACAD_REACTORS
330
C
102
}
330
C
100
AcDbDictionary
281
     1
  0
ACDBDICTIONARYWDFLT
  5
E
102
{ACAD_REACTORS
330
C
102
}
330
C
100
AcDbDictionary
281
     1
  3
Normal
350
F
100
AcDbDictionaryWithDefault
340
F
  0
DICTIONARY
  5
15C4
102
{ACAD_REACTORS
330
C
102
}
330
C
100
AcDbDictionary
281
     1
  3
Standard
350
15C5
  0
XRECORD
  5
CBC
102
{ACAD_REACTORS
330
C
102
}
330
C
100
AcDbXrecord
280
     1
 90
   990106
  3

 60
     0
 61
     0
 62
     1
 63
     3
 64
     0
 65
     0
 66
     0
 67
     3
 68
     1
 69
     0
 70
     0
 71
     0
 72
     0
 40
30.0
170
     0
  0
DICTIONARY
  5
2678
102
{ACAD_REACTORS
330
C
102
}
330
C
100
AcDbDictionary
281
     1
  0
DICTIONARY
  5
EFD
102
{ACAD_REACTORS
330
C
102
}
330
C
100
AcDbDictionary
281
     1
  3
CTABLESTYLE
350
15CB
  3
DIMASSOC
350
2675
  3
PROJECTNAME
350
2676
  3
SORTENTS
350
EFE
  0
DICTIONARY
  5
19C2
102
{ACAD_REACTORS
330
15FF
102
}
330
15FF
100
AcDbDictionary
281
     1
  0
DICTIONARY
  5
1600
102
{ACAD_REACTORS
330
15FF
102
}
330
15FF
100
AcDbDictionary
281
     1
  0
DICTIONARY
  5
19C1
102
{ACAD_REACTORS
330
15FF
102
}
330
15FF
100
AcDbDictionary
281
     1
1001
ACAD
1000
<All
  0
SORTENTSTABLE
  5
15EF
102
{ACAD_REACTORS
330
15EE
102
}
330
15EE
100
AcDbSortentsTable
330
1F
331
16C4
  5
17A3
331
167D
  5
168D
331
571
  5
FFC
331
1D5C
  5
1D60
331
2218
  5
221A
331
1D64
  5
1D68
331
2109
  5
2109
331
1A71
  5
301
331
1685
  5
16E0
331
1D6C
  5
1D70
331
164E
  5
165F
331
1D74
  5
1D78
331
21F1
  5
21F1
331
2228
  5
222A
331
2230
  5
2232
331
23EE
  5
23EF
331
24EE
  5
2500
331
325
  5
50A
331
168D
  5
171B
331
50A
  5
CB9
331
1000
  5
1011
331
1656
  5
1667
331
1D7C
  5
1D80
331
1008
  5
101A
331
2FE
  5
302
331
C29
  5
1002
331
165E
  5
166E
331
2238
  5
223A
331
1D84
  5
1D88
331
21F9
  5
21F9
331
1010
  5
1023
331
306
  5
30D
331
4C3
  5
C2B
331
CB9
  5
1008
331
1666
  5
1676
331
1D8C
  5
1D91
331
1B8E
  5
1BB8
331
1D4D
  5
1D51
331
1FCC
  5
1FCE
331
2240
  5
2242
331
166E
  5
167F
331
2209
  5
220B
331
1D94
  5
1F3F
331
1BB6
  5
1BD7
331
1D55
  5
1D59
331
1FD4
  5
1FD6
331
2575
  5
23EE
331
2211
  5
2213
331
522
  5
CBA
331
13B0
  5
164F
331
316
  5
329
331
47C
  5
C26
331
1676
  5
1687
331
1D5D
  5
1D61
331
167E
  5
168E
331
2219
  5
221B
331
1D65
  5
1D69
331
210A
  5
210A
331
1A72
  5
2E8
331
1686
  5
1714
331
1D6D
  5
1D71
331
2221
  5
2223
331
164F
  5
1660
331
1D75
  5
1D79
331
21F2
  5
21F2
331
2229
  5
222B
331
2231
  5
2233
331
23EF
  5
24ED
331
A0
  5
A5
331
1A7A
  5
1ACE
331
168E
  5
171C
331
1001
  5
1012
331
1657
  5
1668
331
1D7D
  5
1D81
331
2FF
  5
303
331
1009
  5
101B
331
165F
  5
166F
331
2239
  5
223B
331
1D85
  5
1D89
331
21FA
  5
21FA
331
307
  5
316
331
3F6
  5
8A7
331
1011
  5
1024
331
1667
  5
1677
331
1D8D
  5
1D92
331
1B8F
  5
1BB9
331
1D4E
  5
1D52
331
1FCD
  5
1FCF
331
166F
  5
1680
331
2249
  5
224B
331
220A
  5
220C
331
1D95
  5
1F51
331
1D56
  5
1D5A
331
1BB7
  5
1BD8
331
1FD5
  5
20C4
331
20C4
  5
427
331
1F36
  5
1D90
331
CC2
  5
1009
331
13B1
  5
1650
331
1677
  5
1688
331
1D5E
  5
1D62
331
2E0
  5
2E9
331
167F
  5
168F
331
1D66
  5
1D6A
331
1BD7
  5
1D48
331
221A
  5
221C
331
1687
  5
1715
331
1A73
  5
30B
331
1D6E
  5
1D72
331
2222
  5
2224
331
23A0
  5
23A2
331
1D76
  5
1D7A
331
21F3
  5
21F3
331
222A
  5
222C
331
2232
  5
2234
331
2E8
  5
2F2
331
327
  5
522
331
8DB
  5
FFD
331
1650
  5
1662
331
168F
  5
171D
331
1658
  5
1669
331
1D7E
  5
1D82
331
100A
  5
101D
331
300
  5
307
331
C2B
  5
1004
331
1660
  5
1670
331
1D86
  5
1D8A
331
1D47
  5
1D4B
331
1F76
  5
1FCB
331
21FB
  5
21FB
331
223A
  5
223C
331
466
  5
C24
331
1012
  5
13AD
331
1668
  5
1678
331
2203
  5
2205
331
1D8E
  5
1D93
331
1D4F
  5
1D53
331
1FCE
  5
1FD0
331
224A
  5
239F
331
220B
  5
220D
331
1D96
  5
1F61
331
1D57
  5
1D5B
331
1FD6
  5
20FF
331
2500
  5
2540
331
2213
  5
2215
331
2518
  5
2573
331
308
  5
319
331
CC3
  5
100A
331
1670
  5
1681
331
1BB8
  5
1BD9
331
13B2
  5
1659
331
DC3
  5
100B
331
1678
  5
1689
331
1D5F
  5
1D63
331
4E5
  5
C2C
331
1680
  5
1690
331
1D67
  5
1D6B
331
1BD8
  5
1D49
331
1F3F
  5
1F63
331
221B
  5
221D
331
427
  5
914
331
1A74
  5
306
331
1D6F
  5
1D73
331
23A1
  5
21FF
331
1D77
  5
1D7B
331
222B
  5
222D
331
2540
  5
2574
331
2233
  5
2235
331
24F1
  5
2518
331
2E9
  5
2FD
331
1688
  5
1716
331
328
  5
52F
331
2F1
  5
2FE
331
4FD
  5
C2D
331
FFB
  5
100C
331
1651
  5
1663
331
1690
  5
171E
331
1003
  5
1013
331
C24
  5
FFF
331
1659
  5
166A
331
1D7F
  5
1D83
331
100B
  5
101E
331
301
  5
308
331
C2C
  5
1005
331
1661
  5
1671
331
1D87
  5
1D8B
331
1D48
  5
1D4C
331
21FC
  5
21FC
331
223B
  5
223D
331
19A7
  5
1A7F
331
16A8
  5
17A2
331
1013
  5
15E8
331
1669
  5
1679
331
1D8F
  5
1D94
331
1D50
  5
1D54
331
1FCF
  5
1FD1
331
2204
  5
2206
331
224B
  5
23A0
331
1D97
  5
1F62
331
220C
  5
220E
331
2214
  5
2216
331
309
  5
31B
331
73
  5
73
331
1671
  5
1682
331
1D58
  5
1D5C
331
1BB9
  5
1D47
331
319
  5
466
331
13B3
  5
165A
331
1679
  5
168A
331
1D60
  5
1D64
331
1A6D
  5
2F1
331
1681
  5
1691
331
1D68
  5
1D6C
331
1BD9
  5
1D4A
331
221C
  5
221E
331
1A75
  5
317
331
2224
  5
2226
331
1D70
  5
1D74
331
21ED
  5
21ED
331
23A2
  5
2200
331
222C
  5
222E
331
2234
  5
2236
331
1968
  5
1A72
331
1689
  5
1717
331
8DD
  5
FFE
331
329
  5
571
331
2F2
  5
2FF
331
FFC
  5
100D
331
1652
  5
1664
331
1D78
  5
1D7C
331
1691
  5
17A0
331
3E9
  5
5C9
331
1004
  5
1014
331
165A
  5
166B
331
1D80
  5
1D84
331
100C
  5
101F
331
302
  5
30A
331
1662
  5
1672
331
223C
  5
223E
331
1D88
  5
1D8C
331
1D49
  5
1D4D
331
21FD
  5
21FD
331
19A8
  5
1A9E
331
1014
  5
15E9
331
166A
  5
167B
331
1B0C
  5
1B8F
331
1D90
  5
1D95
331
1D51
  5
1D55
331
1FD0
  5
1FD2
331
2205
  5
2207
331
2215
  5
2217
331
1672
  5
1683
331
9C
  5
9C
331
31A
  5
47C
331
13B4
  5
165B
331
1D59
  5
1D5D
331
1D61
  5
1D65
331
1A6E
  5
31A
331
13C4
  5
165C
331
1682
  5
1692
331
1ABD
  5
1B8C
331
1D69
  5
1D6D
331
1F51
  5
1F76
331
221D
  5
221F
331
1A76
  5
323
331
1851
  5
19BE
331
2225
  5
2227
331
1D71
  5
1D75
331
21EE
  5
21EE
331
1F61
  5
1FCA
331
222D
  5
222F
331
2235
  5
2237
331
1969
  5
1A73
331
168A
  5
1718
331
FFD
  5
100E
331
1653
  5
1665
331
1D79
  5
1D7D
331
1AED
  5
1B8E
331
1692
  5
17A1
331
1005
  5
1015
331
459
  5
BD7
331
C26
  5
1001
331
165B
  5
166C
331
1D81
  5
1D85
331
100D
  5
1020
331
303
  5
30C
331
C2E
  5
1006
331
1663
  5
1673
331
1D89
  5
1D8D
331
1D4A
  5
1D4E
331
223D
  5
223F
331
19A9
  5
1ABD
331
1015
  5
15EA
331
166B
  5
167C
331
2206
  5
2208
331
1D91
  5
1D96
331
1D52
  5
1D56
331
1FD1
  5
1FD3
331
1A9E
  5
1B0C
331
20FF
  5
2100
331
2216
  5
2218
331
13AD
  5
15EC
331
1673
  5
1684
331
1D5A
  5
1D5E
331
41A
  5
8DD
331
31B
  5
492
331
167B
  5
168B
331
1D62
  5
1D66
331
1A6F
  5
315
331
1683
  5
16A8
331
1D6A
  5
1D6E
331
1ACE
  5
1B8D
331
2226
  5
2228
331
1D72
  5
1D76
331
21EF
  5
21EF
331
222E
  5
2230
331
1F62
  5
40C
331
2236
  5
2238
331
323
  5
4E5
331
A5
  5
2D8
331
196A
  5
1A7A
331
168B
  5
1719
331
FFE
  5
100F
331
1D7A
  5
1D7E
331
1A7F
  5
1AED
331
165C
  5
166D
331
1006
  5
1016
331
1D82
  5
1D86
331
1664
  5
1674
331
100E
  5
1021
331
223E
  5
2240
331
21FF
  5
2201
331
1D8A
  5
1D8E
331
1B8C
  5
1BB6
331
1D4B
  5
1D4F
331
1FCA
  5
1FCC
331
166C
  5
167D
331
1016
  5
15EB
331
2207
  5
2209
331
1D92
  5
1D97
331
1D53
  5
1D57
331
1FD2
  5
1FD4
331
2573
  5
2575
331
2100
  5
41A
331
2217
  5
2219
331
1674
  5
1685
331
13AE
  5
164D
331
1D5B
  5
1D5F
331
167C
  5
168C
331
570
  5
EB5
331
2DD
  5
2E0
331
1D63
  5
1D67
331
1A70
  5
309
331
1684
  5
16C4
331
1D6B
  5
1D6F
331
164D
  5
165E
331
2227
  5
2229
331
1D73
  5
1D77
331
21F0
  5
21F0
331
222F
  5
2231
331
1F63
  5
459
331
2237
  5
2239
331
24ED
  5
24EE
331
324
  5
4FD
331
168C
  5
171A
331
1655
  5
1666
331
492
  5
C29
331
FFF
  5
1010
331
1D7B
  5
1D7F
331
2FD
  5
300
331
1007
  5
1019
331
1D83
  5
1D87
331
21F8
  5
21F8
331
1665
  5
1675
331
100F
  5
1022
331
CB8
  5
1007
331
223F
  5
2241
331
1D8B
  5
1D8F
331
1B8D
  5
1BB7
331
1D4C
  5
1D50
331
1FCB
  5
1FCD
331
166D
  5
167E
331
2208
  5
220A
331
1D93
  5
1F36
331
1D54
  5
1D58
331
1FD3
  5
1FD5
331
2574
  5
24F1
331
2210
  5
2212
331
19C3
  5
A0
331
1675
  5
1686
331
13AF
  5
164E
331
315
  5
328
331
40C
  5
8DB
  0
SORTENTSTABLE
  5
1F56
102
{ACAD_REACTORS
330
1F55
102
}
330
1F55
100
AcDbSortentsTable
330
1F53
  0
XRECORD
  5
2680
102
{ACAD_REACTORS
330
267F
102
}
330
267F
100
AcDbXrecord
280
     1
102
SHADEPLOT
 70
     0
  0
XRECORD
  5
2682
102
{ACAD_REACTORS
330
2681
102
}
330
2681
100
AcDbXrecord
280
     1
102
SHADEPLOT
 70
     0
  0
LAYOUT
  5
22
102
{ACAD_XDICTIONARY
360
267B
102
}
102
{ACAD_REACTORS
330
1A
102
}
330
1A
100
AcDbPlotSettings
  1

  2
EPSON PM-800C
  4
A4
  6

 40
3.757083177566528
 41
14.7637300491333
 42
3.757080078125
 43
3.757080078125
 44
209.9733276367187
 45
296.9683227539062
 46
0.0
 47
0.0
 48
0.0
 49
0.0
140
0.0
141
0.0
142
1.0
143
10.0
 70
 11952
 72
     1
 73
     1
 74
     2
  7

 75
    20
147
0.1
148
0.0
149
0.0
100
AcDbLayout
  1
Model
 70
     1
 71
     0
 10
0.0
 20
0.0
 11
12.0
 21
9.0
 12
0.0
 22
0.0
 32
0.0
 14
0.0
 24
0.0
 34
0.0
 15
0.0
 25
0.0
 35
0.0
146
0.0
 13
0.0
 23
0.0
 33
0.0
 16
1.0
 26
0.0
 36
0.0
 17
0.0
 27
1.0
 37
0.0
 76
     0
330
1F
  0
LAYOUT
  5
1E
102
{ACAD_XDICTIONARY
360
2679
102
}
102
{ACAD_REACTORS
330
1A
102
}
330
1A
100
AcDbPlotSettings
  1

  2
EPSON PM-800C
  4
A4
  6

 40
3.757083177566528
 41
14.7637300491333
 42
3.757080078125
 43
3.757080078125
 44
209.9733276367187
 45
296.9683227539062
 46
0.0
 47
0.0
 48
0.0
 49
0.0
140
0.0
141
0.0
142
1.0
143
1.0
 70
   688
 72
     1
 73
     1
 74
     5
  7

 75
    16
147
1.0
148
0.0
149
0.0
100
AcDbLayout
  1
ﾚｲｱｳﾄ1
 70
     1
 71
     1
 10
-3.757080078125
 20
-3.757083177566528
 11
293.2112426757813
 21
206.2162444591522
 12
0.0
 22
0.0
 32
0.0
 14
27.8447512626648
 24
20.24591643810271
 34
0.0
 15
250.6027613639831
 25
182.2132479429245
 35
0.0
146
0.0
 13
0.0
 23
0.0
 33
0.0
 16
1.0
 26
0.0
 36
0.0
 17
0.0
 27
1.0
 37
0.0
 76
     0
330
1B
331
2E
  0
LAYOUT
  5
26
102
{ACAD_XDICTIONARY
360
267D
102
}
102
{ACAD_REACTORS
330
1A
102
}
330
1A
100
AcDbPlotSettings
  1

  2
EPSON PM-800C
  4

  6

 40
0.0
 41
0.0
 42
0.0
 43
0.0
 44
0.0
 45
0.0
 46
0.0
 47
0.0
 48
0.0
 49
0.0
140
0.0
141
0.0
142
1.0
143
1.0
 70
   688
 72
     0
 73
     0
 74
     5
  7

 75
    16
147
1.0
148
0.0
149
0.0
100
AcDbLayout
  1
ﾚｲｱｳﾄ2
 70
     1
 71
     2
 10
0.0
 20
0.0
 11
12.0
 21
9.0
 12
0.0
 22
0.0
 32
0.0
 14
0.0
 24
0.0
 34
0.0
 15
0.0
 25
0.0
 35
0.0
146
0.0
 13
0.0
 23
0.0
 33
0.0
 16
1.0
 26
0.0
 36
0.0
 17
0.0
 27
1.0
 37
0.0
 76
     0
330
23
  0
MLINESTYLE
  5
18
102
{ACAD_REACTORS
330
17
102
}
330
17
100
AcDbMlineStyle
  2
STANDARD
 70
     0
  3

 62
   256
 51
90.0
 52
90.0
 71
     2
 49
0.5
 62
   256
  6
BYLAYER
 49
-0.5
 62
   256
  6
BYLAYER
  0
ACDBPLACEHOLDER
  5
F
102
{ACAD_REACTORS
330
E
102
}
330
E
  0
TABLESTYLE
  5
15C5
102
{ACAD_REACTORS
330
15C4
102
}
330
15C4
100
AcDbTableStyle
  3
Standard
 70
     0
 71
     0
 40
1.5
 41
1.5
280
     0
281
     0
  7
Standard
140
4.5
170
     2
 62
     0
 63
     7
283
     0
274
    -2
284
     1
 64
     0
275
    -2
285
     1
 65
     0
276
    -2
286
     1
 66
     0
277
    -2
287
     1
 67
     0
278
    -2
288
     1
 68
     0
279
    -2
289
     1
 69
     0
  7
Standard
140
6.0
170
     5
 62
     0
 63
     7
283
     0
274
    -2
284
     1
 64
     0
275
    -2
285
     1
 65
     0
276
    -2
286
     1
 66
     0
277
    -2
287
     1
 67
     0
278
    -2
288
     1
 68
     0
279
    -2
289
     1
 69
     0
  7
Standard
140
4.5
170
     5
 62
     0
 63
     7
283
     0
274
    -2
284
     1
 64
     0
275
    -2
285
     1
 65
     0
276
    -2
286
     1
 66
     0
277
    -2
287
     1
 67
     0
278
    -2
288
     1
 68
     0
279
    -2
289
     1
 69
     0
  0
DICTIONARYVAR
  5
15CB
102
{ACAD_REACTORS
330
EFD
102
}
330
EFD
100
DictionaryVariables
280
     0
  1
STANDARD
  0
DICTIONARYVAR
  5
2675
102
{ACAD_REACTORS
330
EFD
102
}
330
EFD
100
DictionaryVariables
280
     0
  1
1
  0
DICTIONARYVAR
  5
2676
102
{ACAD_REACTORS
330
EFD
102
}
330
EFD
100
DictionaryVariables
280
     0
  1

  0
DICTIONARYVAR
  5
EFE
102
{ACAD_REACTORS
330
EFD
102
}
330
EFD
100
DictionaryVariables
280
     0
  1
96
  0
DICTIONARY
  5
267B
330
22
100
AcDbDictionary
280
     1
281
     1
  3
ACAD_XREC_ROUNDTRIP
360
267C
  0
DICTIONARY
  5
2679
330
1E
100
AcDbDictionary
280
     1
281
     1
  3
ACAD_XREC_ROUNDTRIP
360
267A
  0
DICTIONARY
  5
267D
330
26
100
AcDbDictionary
280
     1
281
     1
  3
ACAD_XREC_ROUNDTRIP
360
267E
  0
XRECORD
  5
267C
102
{ACAD_REACTORS
330
267B
102
}
330
267B
100
AcDbXrecord
280
     1
102
SHADEPLOT
 70
     0
102
SHADEPLOTRESLEVEL
 70
     2
102
SHADEPLOTCUSTOMDPI
 70
   300
  0
XRECORD
  5
267A
102
{ACAD_REACTORS
330
2679
102
}
330
2679
100
AcDbXrecord
280
     1
102
SHADEPLOT
 70
     0
102
SHADEPLOTRESLEVEL
 70
     2
102
SHADEPLOTCUSTOMDPI
 70
   300
  0
XRECORD
  5
267E
102
{ACAD_REACTORS
330
267D
102
}
330
267D
100
AcDbXrecord
280
     1
102
SHADEPLOT
 70
     0
102
SHADEPLOTRESLEVEL
 70
     2
102
SHADEPLOTCUSTOMDPI
 70
   300
  0
ENDSEC
  0
EOF
