  0
SECTION
  2
HEADER
  9
$ACADVER
  1
AC1015
  9
$ACADMAINTVER
 70
    20
  9
$DWGCODEPAGE
  3
ANSI_932
  9
$INSBASE
 10
0.0
 20
0.0
 30
0.0
  9
$EXTMIN
 10
109.0
 20
4.0
 30
0.0
  9
$EXTMAX
 10
2784.0
 20
2024.000000000002
 30
0.0
  9
$LIMMIN
 10
0.0
 20
0.0
  9
$LIMMAX
 10
29700.0
 20
21000.0
  9
$ORTHOMODE
 70
     1
  9
$REGENMODE
 70
     1
  9
$FILLMODE
 70
     1
  9
$QTEXTMODE
 70
     0
  9
$MIRRTEXT
 70
     1
  9
$LTSCALE
 40
4.0
  9
$ATTMODE
 70
     1
  9
$TEXTSIZE
 40
25.0
  9
$TRACEWID
 40
1.0
  9
$TEXTSTYLE
  7
Standard
  9
$CLAYER
  8
実形
  9
$CELTYPE
  6
ByLayer
  9
$CECOLOR
 62
   256
  9
$CELTSCALE
 40
1.0
  9
$DISPSILH
 70
     0
  9
$DIMSCALE
 40
1.0
  9
$DIMASZ
 40
35.0
  9
$DIMEXO
 40
65.0
  9
$DIMDLI
 40
3.75
  9
$DIMRND
 40
0.0
  9
$DIMDLE
 40
0.0
  9
$DIMEXE
 40
0.0
  9
$DIMTP
 40
0.0
  9
$DIMTM
 40
0.0
  9
$DIMTXT
 40
25.0
  9
$DIMCEN
 40
2.5
  9
$DIMTSZ
 40
0.0
  9
$DIMTOL
 70
     0
  9
$DIMLIM
 70
     0
  9
$DIMTIH
 70
     0
  9
$DIMTOH
 70
     0
  9
$DIMSE1
 70
     0
  9
$DIMSE2
 70
     0
  9
$DIMTAD
 70
     1
  9
$DIMZIN
 70
     8
  9
$DIMBLK
  1
DotSmall
  9
$DIMASO
 70
     1
  9
$DIMSHO
 70
     1
  9
$DIMPOST
  1

  9
$DIMAPOST
  1

  9
$DIMALT
 70
     0
  9
$DIMALTD
 70
     3
  9
$DIMALTF
 40
0.03937007874016
  9
$DIMLFAC
 40
1.0
  9
$DIMTOFL
 70
     1
  9
$DIMTVP
 40
0.0
  9
$DIMTIX
 70
     0
  9
$DIMSOXD
 70
     0
  9
$DIMSAH
 70
     0
  9
$DIMBLK1
  1

  9
$DIMBLK2
  1

  9
$DIMSTYLE
  2
ISO-25
  9
$DIMCLRD
 70
     0
  9
$DIMCLRE
 70
     0
  9
$DIMCLRT
 70
     0
  9
$DIMTFAC
 40
1.0
  9
$DIMGAP
 40
6.25
  9
$DIMJUST
 70
     0
  9
$DIMSD1
 70
     0
  9
$DIMSD2
 70
     0
  9
$DIMTOLJ
 70
     0
  9
$DIMTZIN
 70
     8
  9
$DIMALTZ
 70
     0
  9
$DIMALTTZ
 70
     0
  9
$DIMUPT
 70
     0
  9
$DIMDEC
 70
     2
  9
$DIMTDEC
 70
     2
  9
$DIMALTU
 70
     2
  9
$DIMALTTD
 70
     3
  9
$DIMTXSTY
  7
Standard
  9
$DIMAUNIT
 70
     0
  9
$DIMADEC
 70
     0
  9
$DIMALTRND
 40
0.0
  9
$DIMAZIN
 70
     0
  9
$DIMDSEP
 70
    46
  9
$DIMATFIT
 70
     3
  9
$DIMFRAC
 70
     0
  9
$DIMLDRBLK
  1
Open30
  9
$DIMLUNIT
 70
     2
  9
$DIMLWD
 70
    18
  9
$DIMLWE
 70
    18
  9
$DIMTMOVE
 70
     0
  9
$LUNITS
 70
     2
  9
$LUPREC
 70
     2
  9
$SKETCHINC
 40
1.0
  9
$FILLETRAD
 40
20.0
  9
$AUNITS
 70
     0
  9
$AUPREC
 70
     0
  9
$MENU
  1
.
  9
$ELEVATION
 40
0.0
  9
$PELEVATION
 40
0.0
  9
$THICKNESS
 40
0.0
  9
$LIMCHECK
 70
     1
  9
$CHAMFERA
 40
10.0
  9
$CHAMFERB
 40
10.0
  9
$CHAMFERC
 40
20.0
  9
$CHAMFERD
 40
0.0
  9
$SKPOLY
 70
     0
  9
$TDCREATE
 40
2451673.575802199
  9
$TDUCREATE
 40
2451673.200802199
  9
$TDUPDATE
 40
2458809.772417627
  9
$TDUUPDATE
 40
2458809.397417628
  9
$TDINDWG
 40
1.0724344444
  9
$TDUSRTIMER
 40
1.0724337500
  9
$USRTIMER
 70
     1
  9
$ANGBASE
 50
0.0
  9
$ANGDIR
 70
     0
  9
$PDMODE
 70
     3
  9
$PDSIZE
 40
0.0
  9
$PLINEWID
 40
0.0
  9
$SPLFRAME
 70
     0
  9
$SPLINETYPE
 70
     6
  9
$SPLINESEGS
 70
     8
  9
$HANDSEED
  5
1DAA
  9
$SURFTAB1
 70
     6
  9
$SURFTAB2
 70
     6
  9
$SURFTYPE
 70
     6
  9
$SURFU
 70
     6
  9
$SURFV
 70
     6
  9
$UCSBASE
  2

  9
$UCSNAME
  2

  9
$UCSORG
 10
0.0
 20
0.0
 30
0.0
  9
$UCSXDIR
 10
1.0
 20
0.0
 30
0.0
  9
$UCSYDIR
 10
0.0
 20
1.0
 30
0.0
  9
$UCSORTHOREF
  2

  9
$UCSORTHOVIEW
 70
     0
  9
$UCSORGTOP
 10
0.0
 20
0.0
 30
0.0
  9
$UCSORGBOTTOM
 10
0.0
 20
0.0
 30
0.0
  9
$UCSORGLEFT
 10
0.0
 20
0.0
 30
0.0
  9
$UCSORGRIGHT
 10
0.0
 20
0.0
 30
0.0
  9
$UCSORGFRONT
 10
0.0
 20
0.0
 30
0.0
  9
$UCSORGBACK
 10
0.0
 20
0.0
 30
0.0
  9
$PUCSBASE
  2

  9
$PUCSNAME
  2

  9
$PUCSORG
 10
0.0
 20
0.0
 30
0.0
  9
$PUCSXDIR
 10
1.0
 20
0.0
 30
0.0
  9
$PUCSYDIR
 10
0.0
 20
1.0
 30
0.0
  9
$PUCSORTHOREF
  2

  9
$PUCSORTHOVIEW
 70
     0
  9
$PUCSORGTOP
 10
0.0
 20
0.0
 30
0.0
  9
$PUCSORGBOTTOM
 10
0.0
 20
0.0
 30
0.0
  9
$PUCSORGLEFT
 10
0.0
 20
0.0
 30
0.0
  9
$PUCSORGRIGHT
 10
0.0
 20
0.0
 30
0.0
  9
$PUCSORGFRONT
 10
0.0
 20
0.0
 30
0.0
  9
$PUCSORGBACK
 10
0.0
 20
0.0
 30
0.0
  9
$USERI1
 70
     0
  9
$USERI2
 70
     0
  9
$USERI3
 70
     0
  9
$USERI4
 70
     0
  9
$USERI5
 70
     0
  9
$USERR1
 40
0.0
  9
$USERR2
 40
0.0
  9
$USERR3
 40
0.0
  9
$USERR4
 40
0.0
  9
$USERR5
 40
0.0
  9
$WORLDVIEW
 70
     1
  9
$SHADEDGE
 70
     3
  9
$SHADEDIF
 70
    70
  9
$TILEMODE
 70
     1
  9
$MAXACTVP
 70
    64
  9
$PINSBASE
 10
0.0
 20
0.0
 30
0.0
  9
$PLIMCHECK
 70
     0
  9
$PEXTMIN
 10
27.8447512626648
 20
20.24591643810271
 30
0.0
  9
$PEXTMAX
 10
250.6027613639831
 20
182.2132479429245
 30
0.0
  9
$PLIMMIN
 10
-3.757080078125
 20
-3.757083177566528
  9
$PLIMMAX
 10
293.2112426757813
 20
206.2162444591522
  9
$UNITMODE
 70
     0
  9
$VISRETAIN
 70
     1
  9
$PLINEGEN
 70
     0
  9
$PSLTSCALE
 70
     1
  9
$TREEDEPTH
 70
  3020
  9
$CMLSTYLE
  2
Standard
  9
$CMLJUST
 70
     0
  9
$CMLSCALE
 40
20.0
  9
$PROXYGRAPHICS
 70
     1
  9
$MEASUREMENT
 70
     1
  9
$CELWEIGHT
370
    -1
  9
$ENDCAPS
280
     0
  9
$JOINSTYLE
280
     0
  9
$LWDISPLAY
290
     0
  9
$INSUNITS
 70
     4
  9
$HYPERLINKBASE
  1

  9
$STYLESHEET
  1

  9
$XEDIT
290
     1
  9
$CEPSNTYPE
380
     0
  9
$PSTYLEMODE
290
     1
  9
$FINGERPRINTGUID
  2
{C8EA1F16-24C9-11D4-9416-CE0A3B32152F}
  9
$VERSIONGUID
  2
{8BA2CD3D-3D5F-44DE-9164-7BB53B38C46B}
  9
$EXTNAMES
290
     1
  9
$PSVPSCALE
 40
0.0
  9
$OLESTARTUP
290
     0
  0
ENDSEC
  0
SECTION
  2
CLASSES
  0
CLASS
  1
ACDBDICTIONARYWDFLT
  2
AcDbDictionaryWithDefault
  3
ObjectDBX Classes
 90
        0
280
     0
281
     0
  0
CLASS
  1
ACDBPLACEHOLDER
  2
AcDbPlaceHolder
  3
ObjectDBX Classes
 90
        0
280
     0
281
     0
  0
CLASS
  1
LAYOUT
  2
AcDbLayout
  3
ObjectDBX Classes
 90
        0
280
     0
281
     0
  0
CLASS
  1
DICTIONARYVAR
  2
AcDbDictionaryVar
  3
ObjectDBX Classes
 90
        0
280
     0
281
     0
  0
CLASS
  1
TABLESTYLE
  2
AcDbTableStyle
  3
ObjectDBX Classes
 90
     2047
280
     0
281
     0
  0
CLASS
  1
SORTENTSTABLE
  2
AcDbSortentsTable
  3
ObjectDBX Classes
 90
        0
280
     0
281
     0
  0
ENDSEC
  0
SECTION
  2
TABLES
  0
TABLE
  2
VPORT
  5
8
330
0
100
AcDbSymbolTable
 70
     2
  0
VPORT
  5
1D9D
330
8
100
AcDbSymbolTableRecord
100
AcDbViewportTableRecord
  2
*Active
 70
     0
 10
0.0
 20
0.0
 11
1.0
 21
1.0
 12
1388.925074195407
 22
1104.492702983036
 13
0.0
 23
0.0
 14
10.0
 24
10.0
 15
10.0
 25
10.0
 16
0.0
 26
0.0
 36
1.0
 17
0.0
 27
0.0
 37
0.0
 40
2472.653587167622
 41
1.29038112522686
 42
50.0
 43
0.0
 44
0.0
 50
0.0
 51
0.0
 71
     0
 72
   100
 73
     1
 74
     3
 75
     0
 76
     0
 77
     0
 78
     0
281
     0
 65
     1
110
0.0
120
0.0
130
0.0
111
1.0
121
0.0
131
0.0
112
0.0
122
1.0
132
0.0
 79
     0
146
0.0
  0
ENDTAB
  0
TABLE
  2
LTYPE
  5
5
330
0
100
AcDbSymbolTable
 70
    46
  0
LTYPE
  5
14
330
5
100
AcDbSymbolTableRecord
100
AcDbLinetypeTableRecord
  2
ByBlock
 70
     0
  3

 72
    65
 73
     0
 40
0.0
  0
LTYPE
  5
15
330
5
100
AcDbSymbolTableRecord
100
AcDbLinetypeTableRecord
  2
ByLayer
 70
     0
  3

 72
    65
 73
     0
 40
0.0
  0
LTYPE
  5
16
330
5
100
AcDbSymbolTableRecord
100
AcDbLinetypeTableRecord
  2
Continuous
 70
     0
  3
Solid line
 72
    65
 73
     0
 40
0.0
  0
LTYPE
  5
34
330
5
100
AcDbSymbolTableRecord
100
AcDbLinetypeTableRecord
  2
ACAD_ISO02W100
 70
     0
  3
ISO dash __ __ __ __ __ __ __ __ __ __ __ __ __
 72
    65
 73
     2
 40
15.0
 49
12.0
 74
     0
 49
-3.0
 74
     0
  0
LTYPE
  5
35
330
5
100
AcDbSymbolTableRecord
100
AcDbLinetypeTableRecord
  2
ACAD_ISO03W100
 70
     0
  3
ISO dash space __    __    __    __    __    __
 72
    65
 73
     2
 40
30.0
 49
12.0
 74
     0
 49
-18.0
 74
     0
  0
LTYPE
  5
36
330
5
100
AcDbSymbolTableRecord
100
AcDbLinetypeTableRecord
  2
ACAD_ISO04W100
 70
     0
  3
ISO long-dash dot ____ . ____ . ____ . ____ . _
 72
    65
 73
     4
 40
30.0
 49
24.0
 74
     0
 49
-3.0
 74
     0
 49
0.0
 74
     0
 49
-3.0
 74
     0
  0
LTYPE
  5
37
330
5
100
AcDbSymbolTableRecord
100
AcDbLinetypeTableRecord
  2
ACAD_ISO05W100
 70
     0
  3
ISO long-dash double-dot ____ .. ____ .. ____ .
 72
    65
 73
     6
 40
34.0
 49
24.0
 74
     0
 49
-3.0
 74
     0
 49
0.5
 74
     0
 49
-3.0
 74
     0
 49
0.5
 74
     0
 49
-3.0
 74
     0
  0
LTYPE
  5
38
330
5
100
AcDbSymbolTableRecord
100
AcDbLinetypeTableRecord
  2
ACAD_ISO06W100
 70
     0
  3
ISO long-dash triple-dot ____ ... ____ ... ____
 72
    65
 73
     8
 40
37.5
 49
24.0
 74
     0
 49
-3.0
 74
     0
 49
0.5
 74
     0
 49
-3.0
 74
     0
 49
0.5
 74
     0
 49
-3.0
 74
     0
 49
0.5
 74
     0
 49
-3.0
 74
     0
  0
LTYPE
  5
39
330
5
100
AcDbSymbolTableRecord
100
AcDbLinetypeTableRecord
  2
ACAD_ISO07W100
 70
     0
  3
ISO dot . . . . . . . . . . . . . . . . . . . .
 72
    65
 73
     2
 40
3.0
 49
0.0
 74
     0
 49
-3.0
 74
     0
  0
LTYPE
  5
3A
330
5
100
AcDbSymbolTableRecord
100
AcDbLinetypeTableRecord
  2
ACAD_ISO08W100
 70
     0
  3
ISO long-dash short-dash ____ __ ____ __ ____ _
 72
    65
 73
     4
 40
36.0
 49
24.0
 74
     0
 49
-3.0
 74
     0
 49
6.0
 74
     0
 49
-3.0
 74
     0
  0
LTYPE
  5
3B
330
5
100
AcDbSymbolTableRecord
100
AcDbLinetypeTableRecord
  2
ACAD_ISO09W100
 70
     0
  3
ISO long-dash double-short-dash ____ __ __ ____
 72
    65
 73
     6
 40
45.0
 49
24.0
 74
     0
 49
-3.0
 74
     0
 49
6.0
 74
     0
 49
-3.0
 74
     0
 49
6.0
 74
     0
 49
-3.0
 74
     0
  0
LTYPE
  5
3C
330
5
100
AcDbSymbolTableRecord
100
AcDbLinetypeTableRecord
  2
ACAD_ISO10W100
 70
     0
  3
ISO dash dot __ . __ . __ . __ . __ . __ . __ .
 72
    65
 73
     4
 40
18.0
 49
12.0
 74
     0
 49
-3.0
 74
     0
 49
0.0
 74
     0
 49
-3.0
 74
     0
  0
LTYPE
  5
3D
330
5
100
AcDbSymbolTableRecord
100
AcDbLinetypeTableRecord
  2
ACAD_ISO11W100
 70
     0
  3
ISO double-dash dot __ __ . __ __ . __ __ . __ 
 72
    65
 73
     6
 40
33.0
 49
12.0
 74
     0
 49
-3.0
 74
     0
 49
12.0
 74
     0
 49
-3.0
 74
     0
 49
0.0
 74
     0
 49
-3.0
 74
     0
  0
LTYPE
  5
3E
330
5
100
AcDbSymbolTableRecord
100
AcDbLinetypeTableRecord
  2
ACAD_ISO12W100
 70
     0
  3
ISO dash double-dot __ . . __ . . __ . . __ . .
 72
    65
 73
     6
 40
21.0
 49
12.0
 74
     0
 49
-3.0
 74
     0
 49
0.0
 74
     0
 49
-3.0
 74
     0
 49
0.0
 74
     0
 49
-3.0
 74
     0
  0
LTYPE
  5
3F
330
5
100
AcDbSymbolTableRecord
100
AcDbLinetypeTableRecord
  2
ACAD_ISO13W100
 70
     0
  3
ISO double-dash double-dot __ __ . . __ __ . . 
 72
    65
 73
     8
 40
36.0
 49
12.0
 74
     0
 49
-3.0
 74
     0
 49
12.0
 74
     0
 49
-3.0
 74
     0
 49
0.0
 74
     0
 49
-3.0
 74
     0
 49
0.0
 74
     0
 49
-3.0
 74
     0
  0
LTYPE
  5
40
330
5
100
AcDbSymbolTableRecord
100
AcDbLinetypeTableRecord
  2
ACAD_ISO14W100
 70
     0
  3
ISO dash triple-dot __ . . . __ . . . __ . . . 
 72
    65
 73
     8
 40
24.0
 49
12.0
 74
     0
 49
-3.0
 74
     0
 49
0.0
 74
     0
 49
-3.0
 74
     0
 49
0.0
 74
     0
 49
-3.0
 74
     0
 49
0.0
 74
     0
 49
-3.0
 74
     0
  0
LTYPE
  5
41
330
5
100
AcDbSymbolTableRecord
100
AcDbLinetypeTableRecord
  2
ACAD_ISO15W100
 70
     0
  3
ISO double-dash triple-dot __ __ . . . __ __ . 
 72
    65
 73
    10
 40
39.0
 49
12.0
 74
     0
 49
-3.0
 74
     0
 49
12.0
 74
     0
 49
-3.0
 74
     0
 49
0.0
 74
     0
 49
-3.0
 74
     0
 49
0.0
 74
     0
 49
-3.0
 74
     0
 49
0.0
 74
     0
 49
-3.0
 74
     0
  0
LTYPE
  5
42
330
5
100
AcDbSymbolTableRecord
100
AcDbLinetypeTableRecord
  2
BATTING
 70
     0
  3
Batting SSSSSSSSSSSSSSSSSSSSSSSSSSSSSSSSSSSSSSS
 72
    65
 73
     4
 40
10.16254
 49
0.00254
 74
     0
 49
-2.54
 74
     4
 75
   134
340
33
 46
2.54
 50
0.0
 44
-2.54
 45
0.0
 49
-5.08
 74
     4
 75
   134
340
33
 46
2.54
 50
180.0
 44
2.54
 45
0.0
 49
-2.54
 74
     0
  0
LTYPE
  5
43
330
5
100
AcDbSymbolTableRecord
100
AcDbLinetypeTableRecord
  2
BORDER
 70
     0
  3
Border __ __ . __ __ . __ __ . __ __ . __ __ .
 72
    65
 73
     6
 40
44.45
 49
12.7
 74
     0
 49
-6.349999999999999
 74
     0
 49
12.7
 74
     0
 49
-6.349999999999999
 74
     0
 49
0.0
 74
     0
 49
-6.349999999999999
 74
     0
  0
LTYPE
  5
44
330
5
100
AcDbSymbolTableRecord
100
AcDbLinetypeTableRecord
  2
BORDER2
 70
     0
  3
Border (.5x) __.__.__.__.__.__.__.__.__.__.__.
 72
    65
 73
     6
 40
22.225
 49
6.349999999999999
 74
     0
 49
-3.174999999999999
 74
     0
 49
6.349999999999999
 74
     0
 49
-3.174999999999999
 74
     0
 49
0.0
 74
     0
 49
-3.174999999999999
 74
     0
  0
LTYPE
  5
45
330
5
100
AcDbSymbolTableRecord
100
AcDbLinetypeTableRecord
  2
BORDERX2
 70
     0
  3
Border (2x) ____  ____  .  ____  ____  .  ___
 72
    65
 73
     6
 40
88.9
 49
25.4
 74
     0
 49
-12.7
 74
     0
 49
25.4
 74
     0
 49
-12.7
 74
     0
 49
0.0
 74
     0
 49
-12.7
 74
     0
  0
LTYPE
  5
46
330
5
100
AcDbSymbolTableRecord
100
AcDbLinetypeTableRecord
  2
CENTER
 70
     0
  3
Center ____ _ ____ _ ____ _ ____ _ ____ _ ____
 72
    65
 73
     4
 40
50.8
 49
31.75
 74
     0
 49
-6.349999999999999
 74
     0
 49
6.349999999999999
 74
     0
 49
-6.349999999999999
 74
     0
  0
LTYPE
  5
47
330
5
100
AcDbSymbolTableRecord
100
AcDbLinetypeTableRecord
  2
CENTER2
 70
     0
  3
Center (.5x) ___ _ ___ _ ___ _ ___ _ ___ _ ___
 72
    65
 73
     4
 40
28.575
 49
19.05
 74
     0
 49
-3.174999999999999
 74
     0
 49
3.174999999999999
 74
     0
 49
-3.174999999999999
 74
     0
  0
LTYPE
  5
48
330
5
100
AcDbSymbolTableRecord
100
AcDbLinetypeTableRecord
  2
CENTERX2
 70
     0
  3
Center (2x) ________  __  ________  __  _____
 72
    65
 73
     4
 40
101.6
 49
63.5
 74
     0
 49
-12.7
 74
     0
 49
12.7
 74
     0
 49
-12.7
 74
     0
  0
LTYPE
  5
49
330
5
100
AcDbSymbolTableRecord
100
AcDbLinetypeTableRecord
  2
DASHDOT
 70
     0
  3
Dash dot __ . __ . __ . __ . __ . __ . __ . __
 72
    65
 73
     4
 40
25.4
 49
12.7
 74
     0
 49
-6.349999999999999
 74
     0
 49
0.0
 74
     0
 49
-6.349999999999999
 74
     0
  0
LTYPE
  5
4A
330
5
100
AcDbSymbolTableRecord
100
AcDbLinetypeTableRecord
  2
DASHDOT2
 70
     0
  3
Dash dot (.5x) _._._._._._._._._._._._._._._.
 72
    65
 73
     4
 40
12.7
 49
6.349999999999999
 74
     0
 49
-3.174999999999999
 74
     0
 49
0.0
 74
     0
 49
-3.174999999999999
 74
     0
  0
LTYPE
  5
4B
330
5
100
AcDbSymbolTableRecord
100
AcDbLinetypeTableRecord
  2
DASHDOTX2
 70
     0
  3
Dash dot (2x) ____  .  ____  .  ____  .  ___
 72
    65
 73
     4
 40
50.8
 49
25.4
 74
     0
 49
-12.7
 74
     0
 49
0.0
 74
     0
 49
-12.7
 74
     0
  0
LTYPE
  5
4C
330
5
100
AcDbSymbolTableRecord
100
AcDbLinetypeTableRecord
  2
DASHED
 70
     0
  3
Dashed __ __ __ __ __ __ __ __ __ __ __ __ __ _
 72
    65
 73
     2
 40
19.05
 49
12.7
 74
     0
 49
-6.349999999999999
 74
     0
  0
LTYPE
  5
4D
330
5
100
AcDbSymbolTableRecord
100
AcDbLinetypeTableRecord
  2
DASHED2
 70
     0
  3
Dashed (.5x) _ _ _ _ _ _ _ _ _ _ _ _ _ _ _ _ _
 72
    65
 73
     2
 40
9.524999999999998
 49
6.349999999999999
 74
     0
 49
-3.174999999999999
 74
     0
  0
LTYPE
  5
4E
330
5
100
AcDbSymbolTableRecord
100
AcDbLinetypeTableRecord
  2
DASHEDX2
 70
     0
  3
Dashed (2x) ____  ____  ____  ____  ____  ___
 72
    65
 73
     2
 40
38.1
 49
25.4
 74
     0
 49
-12.7
 74
     0
  0
LTYPE
  5
4F
330
5
100
AcDbSymbolTableRecord
100
AcDbLinetypeTableRecord
  2
DIVIDE
 70
     0
  3
Divide ____ . . ____ . . ____ . . ____ . . ____
 72
    65
 73
     6
 40
31.75
 49
12.7
 74
     0
 49
-6.349999999999999
 74
     0
 49
0.0
 74
     0
 49
-6.349999999999999
 74
     0
 49
0.0
 74
     0
 49
-6.349999999999999
 74
     0
  0
LTYPE
  5
50
330
5
100
AcDbSymbolTableRecord
100
AcDbLinetypeTableRecord
  2
DIVIDE2
 70
     0
  3
Divide (.5x) __..__..__..__..__..__..__..__.._
 72
    65
 73
     6
 40
15.875
 49
6.349999999999999
 74
     0
 49
-3.174999999999999
 74
     0
 49
0.0
 74
     0
 49
-3.174999999999999
 74
     0
 49
0.0
 74
     0
 49
-3.174999999999999
 74
     0
  0
LTYPE
  5
51
330
5
100
AcDbSymbolTableRecord
100
AcDbLinetypeTableRecord
  2
DIVIDEX2
 70
     0
  3
Divide (2x) ________  .  .  ________  .  .  _
 72
    65
 73
     6
 40
63.49999999999999
 49
25.4
 74
     0
 49
-12.7
 74
     0
 49
0.0
 74
     0
 49
-12.7
 74
     0
 49
0.0
 74
     0
 49
-12.7
 74
     0
  0
LTYPE
  5
52
330
5
100
AcDbSymbolTableRecord
100
AcDbLinetypeTableRecord
  2
DOT
 70
     0
  3
Dot . . . . . . . . . . . . . . . . . . . . . .
 72
    65
 73
     2
 40
6.349999999999999
 49
0.0
 74
     0
 49
-6.349999999999999
 74
     0
  0
LTYPE
  5
53
330
5
100
AcDbSymbolTableRecord
100
AcDbLinetypeTableRecord
  2
DOT2
 70
     0
  3
Dot (.5x) .....................................
 72
    65
 73
     2
 40
3.174999999999999
 49
0.0
 74
     0
 49
-3.174999999999999
 74
     0
  0
LTYPE
  5
54
330
5
100
AcDbSymbolTableRecord
100
AcDbLinetypeTableRecord
  2
DOTX2
 70
     0
  3
Dot (2x) .  .  .  .  .  .  .  .  .  .  .  .  . 
 72
    65
 73
     2
 40
12.7
 49
0.0
 74
     0
 49
-12.7
 74
     0
  0
LTYPE
  5
55
330
5
100
AcDbSymbolTableRecord
100
AcDbLinetypeTableRecord
  2
FENCELINE1
 70
     0
  3
Fenceline circle ----0-----0----0-----0----0---
 72
    65
 73
     4
 40
36.83
 49
6.349999999999999
 74
     0
 49
-2.54
 74
     4
 75
   133
340
33
 46
2.54
 50
0.0
 44
-2.54
 45
0.0
 49
-2.54
 74
     0
 49
25.4
 74
     0
  0
LTYPE
  5
56
330
5
100
AcDbSymbolTableRecord
100
AcDbLinetypeTableRecord
  2
FENCELINE2
 70
     0
  3
Fenceline square ----[]-----[]----[]-----[]----
 72
    65
 73
     4
 40
36.83
 49
6.349999999999999
 74
     0
 49
-2.54
 74
     4
 75
   132
340
33
 46
2.54
 50
0.0
 44
-2.54
 45
0.0
 49
-2.54
 74
     0
 49
25.4
 74
     0
  0
LTYPE
  5
57
330
5
100
AcDbSymbolTableRecord
100
AcDbLinetypeTableRecord
  2
GAS_LINE
 70
     0
  3
Gas line ----GAS----GAS----GAS----GAS----GAS---
 72
    65
 73
     3
 40
24.13
 49
12.7
 74
     0
 49
-5.08
 74
     2
 75
     0
340
11
 46
2.54
 50
0.0
 44
-2.54
 45
-1.27
  9
GAS
 49
-6.349999999999999
 74
     0
  0
LTYPE
  5
58
330
5
100
AcDbSymbolTableRecord
100
AcDbLinetypeTableRecord
  2
HIDDEN
 70
     0
  3
Hidden __ __ __ __ __ __ __ __ __ __ __ __ __ _
 72
    65
 73
     2
 40
9.524999999999998
 49
6.349999999999999
 74
     0
 49
-3.174999999999999
 74
     0
  0
LTYPE
  5
59
330
5
100
AcDbSymbolTableRecord
100
AcDbLinetypeTableRecord
  2
HIDDEN2
 70
     0
  3
Hidden (.5x) _ _ _ _ _ _ _ _ _ _ _ _ _ _ _ _ _
 72
    65
 73
     2
 40
4.762499999999999
 49
3.174999999999999
 74
     0
 49
-1.587499999999999
 74
     0
  0
LTYPE
  5
5A
330
5
100
AcDbSymbolTableRecord
100
AcDbLinetypeTableRecord
  2
HIDDENX2
 70
     0
  3
Hidden (2x) ____ ____ ____ ____ ____ ____ ____
 72
    65
 73
     2
 40
19.05
 49
12.7
 74
     0
 49
-6.349999999999999
 74
     0
  0
LTYPE
  5
5B
330
5
100
AcDbSymbolTableRecord
100
AcDbLinetypeTableRecord
  2
HOT_WATER_SUPPLY
 70
     0
  3
Hot water supply ---- HW ---- HW ---- HW ----
 72
    65
 73
     3
 40
22.86
 49
12.7
 74
     0
 49
-5.08
 74
     2
 75
     0
340
11
 46
2.54
 50
0.0
 44
-2.54
 45
-1.27
  9
HW
 49
-5.08
 74
     0
  0
LTYPE
  5
5C
330
5
100
AcDbSymbolTableRecord
100
AcDbLinetypeTableRecord
  2
PHANTOM
 70
     0
  3
Phantom ______  __  __  ______  __  __  ______
 72
    65
 73
     6
 40
63.5
 49
31.75
 74
     0
 49
-6.349999999999999
 74
     0
 49
6.349999999999999
 74
     0
 49
-6.349999999999999
 74
     0
 49
6.349999999999999
 74
     0
 49
-6.349999999999999
 74
     0
  0
LTYPE
  5
5D
330
5
100
AcDbSymbolTableRecord
100
AcDbLinetypeTableRecord
  2
PHANTOM2
 70
     0
  3
Phantom (.5x) ___ _ _ ___ _ _ ___ _ _ ___ _ _
 72
    65
 73
     6
 40
31.75
 49
15.875
 74
     0
 49
-3.174999999999999
 74
     0
 49
3.174999999999999
 74
     0
 49
-3.174999999999999
 74
     0
 49
3.174999999999999
 74
     0
 49
-3.174999999999999
 74
     0
  0
LTYPE
  5
5E
330
5
100
AcDbSymbolTableRecord
100
AcDbLinetypeTableRecord
  2
PHANTOMX2
 70
     0
  3
Phantom (2x) ____________    ____    ____   _
 72
    65
 73
     6
 40
127.0
 49
63.5
 74
     0
 49
-12.7
 74
     0
 49
12.7
 74
     0
 49
-12.7
 74
     0
 49
12.7
 74
     0
 49
-12.7
 74
     0
  0
LTYPE
  5
5F
330
5
100
AcDbSymbolTableRecord
100
AcDbLinetypeTableRecord
  2
TRACKS
 70
     0
  3
Tracks -|-|-|-|-|-|-|-|-|-|-|-|-|-|-|-|-|-|-|-|
 72
    65
 73
     2
 40
7.62
 49
3.81
 74
     4
 75
   130
340
33
 46
6.349999999999999
 50
0.0
 44
0.0
 45
0.0
 49
3.81
 74
     0
  0
LTYPE
  5
60
330
5
100
AcDbSymbolTableRecord
100
AcDbLinetypeTableRecord
  2
ZIGZAG
 70
     0
  3
Zig zag /\/\/\/\/\/\/\/\/\/\/\/\/\/\/\/\/\/\/\/
 72
    65
 73
     4
 40
20.32254
 49
0.00254
 74
     0
 49
-5.08
 74
     4
 75
   131
340
33
 46
5.08
 50
0.0
 44
-5.08
 45
0.0
 49
-10.16
 74
     4
 75
   131
340
33
 46
5.08
 50
180.0
 44
5.08
 45
0.0
 49
-5.08
 74
     0
  0
ENDTAB
  0
TABLE
  2
LAYER
  5
2
102
{ACAD_XDICTIONARY
360
1832
102
}
330
0
100
AcDbSymbolTable
 70
     9
  0
LAYER
  5
10
330
2
100
AcDbSymbolTableRecord
100
AcDbLayerTableRecord
  2
0
 70
     0
 62
     7
  6
Continuous
370
    -3
390
F
  0
LAYER
  5
C3
330
2
100
AcDbSymbolTableRecord
100
AcDbLayerTableRecord
  2
Defpoints
 70
     0
 62
     7
  6
Continuous
290
     0
370
    -3
390
F
  0
LAYER
  5
256
330
2
100
AcDbSymbolTableRecord
100
AcDbLayerTableRecord
  2
センター
 70
     0
 62
     7
  6
CENTER2
370
    18
390
F
  0
LAYER
  5
268
330
2
100
AcDbSymbolTableRecord
100
AcDbLayerTableRecord
  2
実形
 70
     0
 62
     7
  6
Continuous
370
    -3
390
F
  0
LAYER
  5
269
330
2
100
AcDbSymbolTableRecord
100
AcDbLayerTableRecord
  2
補助
 70
     0
 62
     7
  6
Continuous
370
    -3
390
F
  0
LAYER
  5
26A
330
2
100
AcDbSymbolTableRecord
100
AcDbLayerTableRecord
  2
寸法
 70
     0
 62
     7
  6
Continuous
370
    18
390
F
  0
LAYER
  5
26B
330
2
100
AcDbSymbolTableRecord
100
AcDbLayerTableRecord
  2
ハッチング
 70
     0
 62
     7
  6
Continuous
370
    18
390
F
  0
LAYER
  5
26D
330
2
100
AcDbSymbolTableRecord
100
AcDbLayerTableRecord
  2
文字
 70
     0
 62
     7
  6
Continuous
370
    -3
390
F
  0
LAYER
  5
1C6F
330
2
100
AcDbSymbolTableRecord
100
AcDbLayerTableRecord
  2
枠
 70
     0
 62
     7
  6
Continuous
370
    -3
390
F
  0
ENDTAB
  0
TABLE
  2
STYLE
  5
3
330
0
100
AcDbSymbolTable
 70
     3
  0
STYLE
  5
11
330
3
100
AcDbSymbolTableRecord
100
AcDbTextStyleTableRecord
  2
Standard
 70
     0
 40
0.0
 41
1.0
 50
0.0
 71
     0
 42
25.0
  3
txt.shx
  4
bigfont.shx
  0
STYLE
  5
33
330
3
100
AcDbSymbolTableRecord
100
AcDbTextStyleTableRecord
  2

 70
     1
 40
0.0
 41
1.0
 50
0.0
 71
     0
 42
2.5
  3
ltypeshp.shx
  4

  0
STYLE
  5
1D00
330
3
100
AcDbSymbolTableRecord
100
AcDbTextStyleTableRecord
  2
明朝
 70
     0
 40
0.0
 41
1.0
 50
0.0
 71
     0
 42
25.0
  3
MS Mincho.ttf
  4

1001
ACAD
1000
MS Mincho
1071
    32785
  0
ENDTAB
  0
TABLE
  2
VIEW
  5
6
330
0
100
AcDbSymbolTable
 70
     0
  0
ENDTAB
  0
TABLE
  2
UCS
  5
7
330
0
100
AcDbSymbolTable
 70
     0
  0
ENDTAB
  0
TABLE
  2
APPID
  5
9
330
0
100
AcDbSymbolTable
 70
     1
  0
APPID
  5
12
330
9
100
AcDbSymbolTableRecord
100
AcDbRegAppTableRecord
  2
ACAD
 70
     0
  0
ENDTAB
  0
TABLE
  2
DIMSTYLE
  5
A
330
0
100
AcDbSymbolTable
 70
     1
100
AcDbDimStyleTable
 71
     1
340
27
  0
DIMSTYLE
105
27
102
{ACAD_REACTORS
330
11C6
330
11C7
330
11C8
330
11D7
330
11D8
330
11D9
330
11DF
330
11E0
330
11E1
330
11EC
330
11F3
330
11F4
330
11F7
330
11FB
330
11FC
330
120B
330
143D
330
1453
330
152F
330
1530
330
1533
330
153A
330
1543
330
1549
330
154C
330
1854
330
1ABD
330
1ABE
330
1AC2
330
1AC3
330
1AC6
330
1AC7
330
1ACB
102
}
330
A
100
AcDbSymbolTableRecord
100
AcDbDimStyleTableRecord
  2
ISO-25
 70
     0
 41
35.0
 42
65.0
 43
3.75
 44
0.0
 73
     0
 74
     0
 77
     1
 78
     8
140
25.0
141
2.5
143
0.03937007874016
147
6.25
171
     3
172
     1
271
     2
272
     2
274
     3
283
     0
284
     8
340
11
341
DA
342
D0
371
    15
372
    15
  0
ENDTAB
  0
TABLE
  2
BLOCK_RECORD
  5
1
330
0
100
AcDbSymbolTable
 70
    38
  0
BLOCK_RECORD
  5
1F
102
{ACAD_XDICTIONARY
360
1839
102
}
330
1
100
AcDbSymbolTableRecord
100
AcDbBlockTableRecord
  2
*Model_Space
340
22
  0
BLOCK_RECORD
  5
1B
330
1
100
AcDbSymbolTableRecord
100
AcDbBlockTableRecord
  2
*Paper_Space
340
1E
  0
BLOCK_RECORD
  5
23
330
1
100
AcDbSymbolTableRecord
100
AcDbBlockTableRecord
  2
*Paper_Space0
340
26
  0
BLOCK_RECORD
  5
D0
330
1
100
AcDbSymbolTableRecord
100
AcDbBlockTableRecord
  2
_DotSmall
340
0
102
{BLKREFS
331
1679
331
167A
331
1682
331
1683
331
168B
331
168C
331
16A6
331
16A7
331
16E5
331
16E6
331
16EE
331
16EF
331
1728
331
1729
331
1885
331
1886
331
188E
331
188F
331
1897
331
1898
331
18A0
331
18A1
331
18A9
331
18AA
331
18B2
331
18B3
331
18BC
331
18BD
331
18C5
331
18C6
331
18CE
331
18CF
331
18D7
331
18D8
331
18E0
331
18E1
331
18E9
331
18EA
331
18F1
331
18F2
331
18FB
331
18FC
331
1904
331
1905
331
190C
331
190D
331
1A23
331
1A24
331
1A2C
331
1A2D
331
1B32
331
1B33
331
1B3F
331
1B40
331
1BCD
331
1BCE
331
1BD7
331
1BD8
331
1BFA
331
1BFB
102
}
  0
BLOCK_RECORD
  5
D4
330
1
100
AcDbSymbolTableRecord
100
AcDbBlockTableRecord
  2
_Origin2
340
0
  0
BLOCK_RECORD
  5
DA
330
1
100
AcDbSymbolTableRecord
100
AcDbBlockTableRecord
  2
_Open30
340
0
  0
BLOCK_RECORD
  5
121A
330
1
100
AcDbSymbolTableRecord
100
AcDbBlockTableRecord
  2
*D4
340
0
  0
BLOCK_RECORD
  5
1226
330
1
100
AcDbSymbolTableRecord
100
AcDbBlockTableRecord
  2
*D5
340
0
  0
BLOCK_RECORD
  5
1232
330
1
100
AcDbSymbolTableRecord
100
AcDbBlockTableRecord
  2
*D6
340
0
  0
BLOCK_RECORD
  5
1256
330
1
100
AcDbSymbolTableRecord
100
AcDbBlockTableRecord
  2
*D7
340
0
  0
BLOCK_RECORD
  5
1262
330
1
100
AcDbSymbolTableRecord
100
AcDbBlockTableRecord
  2
*D8
340
0
  0
BLOCK_RECORD
  5
126E
330
1
100
AcDbSymbolTableRecord
100
AcDbBlockTableRecord
  2
*D9
340
0
  0
BLOCK_RECORD
  5
127A
330
1
100
AcDbSymbolTableRecord
100
AcDbBlockTableRecord
  2
*D10
340
0
  0
BLOCK_RECORD
  5
1286
330
1
100
AcDbSymbolTableRecord
100
AcDbBlockTableRecord
  2
*D11
340
0
  0
BLOCK_RECORD
  5
1293
330
1
100
AcDbSymbolTableRecord
100
AcDbBlockTableRecord
  2
*D12
340
0
  0
BLOCK_RECORD
  5
12AC
330
1
100
AcDbSymbolTableRecord
100
AcDbBlockTableRecord
  2
*D13
340
0
  0
BLOCK_RECORD
  5
12B8
330
1
100
AcDbSymbolTableRecord
100
AcDbBlockTableRecord
  2
*D14
340
0
  0
BLOCK_RECORD
  5
12C4
330
1
100
AcDbSymbolTableRecord
100
AcDbBlockTableRecord
  2
*D15
340
0
  0
BLOCK_RECORD
  5
12D1
330
1
100
AcDbSymbolTableRecord
100
AcDbBlockTableRecord
  2
*D16
340
0
  0
BLOCK_RECORD
  5
12DD
330
1
100
AcDbSymbolTableRecord
100
AcDbBlockTableRecord
  2
*D17
340
0
  0
BLOCK_RECORD
  5
12E9
330
1
100
AcDbSymbolTableRecord
100
AcDbBlockTableRecord
  2
*D18
340
0
  0
BLOCK_RECORD
  5
12F5
330
1
100
AcDbSymbolTableRecord
100
AcDbBlockTableRecord
  2
*D19
340
0
  0
BLOCK_RECORD
  5
143E
330
1
100
AcDbSymbolTableRecord
100
AcDbBlockTableRecord
  2
*D20
340
0
  0
BLOCK_RECORD
  5
1454
330
1
100
AcDbSymbolTableRecord
100
AcDbBlockTableRecord
  2
*D21
340
0
  0
BLOCK_RECORD
  5
154F
330
1
100
AcDbSymbolTableRecord
100
AcDbBlockTableRecord
  2
*D22
340
0
  0
BLOCK_RECORD
  5
155B
330
1
100
AcDbSymbolTableRecord
100
AcDbBlockTableRecord
  2
*D23
340
0
  0
BLOCK_RECORD
  5
1567
330
1
100
AcDbSymbolTableRecord
100
AcDbBlockTableRecord
  2
*D24
340
0
  0
BLOCK_RECORD
  5
1573
330
1
100
AcDbSymbolTableRecord
100
AcDbBlockTableRecord
  2
*D25
340
0
  0
BLOCK_RECORD
  5
158B
330
1
100
AcDbSymbolTableRecord
100
AcDbBlockTableRecord
  2
*D26
340
0
  0
BLOCK_RECORD
  5
1597
330
1
100
AcDbSymbolTableRecord
100
AcDbBlockTableRecord
  2
*D27
340
0
  0
BLOCK_RECORD
  5
15A3
330
1
100
AcDbSymbolTableRecord
100
AcDbBlockTableRecord
  2
*D28
340
0
  0
BLOCK_RECORD
  5
1855
330
1
100
AcDbSymbolTableRecord
100
AcDbBlockTableRecord
  2
*D29
340
0
  0
BLOCK_RECORD
  5
1ACC
330
1
100
AcDbSymbolTableRecord
100
AcDbBlockTableRecord
  2
*D30
340
0
  0
BLOCK_RECORD
  5
1AD3
330
1
100
AcDbSymbolTableRecord
100
AcDbBlockTableRecord
  2
*D31
340
0
  0
BLOCK_RECORD
  5
1ADF
330
1
100
AcDbSymbolTableRecord
100
AcDbBlockTableRecord
  2
*D32
340
0
  0
BLOCK_RECORD
  5
1AEB
330
1
100
AcDbSymbolTableRecord
100
AcDbBlockTableRecord
  2
*D33
340
0
  0
BLOCK_RECORD
  5
1AF4
330
1
100
AcDbSymbolTableRecord
100
AcDbBlockTableRecord
  2
*D34
340
0
  0
BLOCK_RECORD
  5
1B00
330
1
100
AcDbSymbolTableRecord
100
AcDbBlockTableRecord
  2
*D35
340
0
  0
BLOCK_RECORD
  5
1B07
330
1
100
AcDbSymbolTableRecord
100
AcDbBlockTableRecord
  2
*D36
340
0
  0
BLOCK_RECORD
  5
1CFB
330
1
100
AcDbSymbolTableRecord
100
AcDbBlockTableRecord
  2
_Dot
340
0
  0
ENDTAB
  0
ENDSEC
  0
SECTION
  2
BLOCKS
  0
BLOCK
  5
20
330
1F
100
AcDbEntity
  8
0
100
AcDbBlockBegin
  2
*Model_Space
 70
     0
 10
0.0
 20
0.0
 30
0.0
  3
*Model_Space
  1

  0
ENDBLK
  5
21
330
1F
100
AcDbEntity
  8
0
100
AcDbBlockEnd
  0
BLOCK
  5
1C
330
1B
100
AcDbEntity
 67
     1
  8
0
100
AcDbBlockBegin
  2
*Paper_Space
 70
     0
 10
0.0
 20
0.0
 30
0.0
  3
*Paper_Space
  1

  0
ENDBLK
  5
1D
330
1B
100
AcDbEntity
 67
     1
  8
0
100
AcDbBlockEnd
  0
BLOCK
  5
24
330
23
100
AcDbEntity
  8
0
100
AcDbBlockBegin
  2
*Paper_Space0
 70
     0
 10
0.0
 20
0.0
 30
0.0
  3
*Paper_Space0
  1

  0
ENDBLK
  5
25
330
23
100
AcDbEntity
  8
0
100
AcDbBlockEnd
  0
BLOCK
  5
D2
330
D0
100
AcDbEntity
  8
0
100
AcDbBlockBegin
  2
_DotSmall
 70
     0
 10
0.0
 20
0.0
 30
0.0
  3
_DotSmall
  1

  0
LWPOLYLINE
  5
D1
330
D0
100
AcDbEntity
  8
0
 62
     0
100
AcDbPolyline
 90
        2
 70
     1
 43
0.5
 10
-0.0625
 20
0.0
 42
1.0
 10
0.0625
 20
0.0
 42
1.0
  0
ENDBLK
  5
D3
330
D0
100
AcDbEntity
  8
0
100
AcDbBlockEnd
  0
BLOCK
  5
D8
330
D4
100
AcDbEntity
  8
0
100
AcDbBlockBegin
  2
_Origin2
 70
     0
 10
0.0
 20
0.0
 30
0.0
  3
_Origin2
  1

  0
CIRCLE
  5
D5
330
D4
100
AcDbEntity
  8
0
 62
     0
370
    -2
100
AcDbCircle
 10
0.0
 20
0.0
 30
0.0
 40
0.5
  0
CIRCLE
  5
D6
330
D4
100
AcDbEntity
  8
0
 62
     0
370
    -2
100
AcDbCircle
 10
0.0
 20
0.0
 30
0.0
 40
0.25
  0
LINE
  5
D7
330
D4
100
AcDbEntity
  8
0
 62
     0
370
    -2
100
AcDbLine
 10
-0.5
 20
0.0
 30
0.0
 11
-1.0
 21
0.0
 31
0.0
  0
ENDBLK
  5
D9
330
D4
100
AcDbEntity
  8
0
100
AcDbBlockEnd
  0
BLOCK
  5
DE
330
DA
100
AcDbEntity
  8
0
100
AcDbBlockBegin
  2
_Open30
 70
     0
 10
0.0
 20
0.0
 30
0.0
  3
_Open30
  1

  0
LINE
  5
DB
330
DA
100
AcDbEntity
  8
0
 62
     0
370
    -2
100
AcDbLine
 10
-1.0
 20
0.26794919
 30
0.0
 11
0.0
 21
0.0
 31
0.0
  0
LINE
  5
DC
330
DA
100
AcDbEntity
  8
0
 62
     0
370
    -2
100
AcDbLine
 10
0.0
 20
0.0
 30
0.0
 11
-1.0
 21
-0.26794919
 31
0.0
  0
LINE
  5
DD
330
DA
100
AcDbEntity
  8
0
 62
     0
370
    -2
100
AcDbLine
 10
0.0
 20
0.0
 30
0.0
 11
-1.0
 21
0.0
 31
0.0
  0
ENDBLK
  5
DF
330
DA
100
AcDbEntity
  8
0
100
AcDbBlockEnd
  0
BLOCK
  5
1224
330
121A
100
AcDbEntity
  8
0
100
AcDbBlockBegin
  2
*D4
 70
     1
 10
0.0
 20
0.0
 30
0.0
  3
*D4
  1

  0
LINE
  5
189D
330
121A
100
AcDbEntity
  8
実形
 62
     0
370
    15
100
AcDbLine
 10
1106.090534611265
 20
1394.319532236984
 30
0.0
 11
1175.255420841727
 21
1394.319532236984
 31
0.0
  0
LINE
  5
189E
330
121A
100
AcDbEntity
  8
実形
 62
     0
370
    15
100
AcDbLine
 10
825.5905346112649
 20
1649.319532236984
 30
0.0
 11
1175.255420841728
 21
1649.319532236984
 31
0.0
  0
LINE
  5
189F
330
121A
100
AcDbEntity
  8
実形
 62
     0
370
    15
100
AcDbLine
 10
1175.255420841727
 20
1394.319532236984
 30
0.0
 11
1175.255420841728
 21
1649.319532236984
 31
0.0
  0
INSERT
  5
18A0
330
121A
100
AcDbEntity
  8
実形
 62
     0
370
    15
100
AcDbBlockReference
  2
_DotSmall
 10
1175.255420841727
 20
1394.319532236984
 30
0.0
 41
35.0
 42
35.0
 43
35.0
 50
270.0
  0
INSERT
  5
18A1
330
121A
100
AcDbEntity
  8
実形
 62
     0
370
    15
100
AcDbBlockReference
  2
_DotSmall
 10
1175.255420841728
 20
1649.319532236984
 30
0.0
 41
35.0
 42
35.0
 43
35.0
 50
90.0
  0
MTEXT
  5
18A2
330
121A
100
AcDbEntity
  8
実形
 62
     0
100
AcDbMText
 10
1156.505420841727
 20
1521.819532236984
 30
0.0
 40
25.0
 41
0.0
 71
     5
 72
     1
  1
255
 11
0.0000000000000001
 21
1.0
 31
0.0
 73
     1
 44
1.0
1001
ACAD
1000
MTEXTBEGIN
1070
    73
1070
     1
1070
    44
1040
1.0
1070
    74
1070
     0
1000
MTEXTEND
  0
POINT
  5
18A3
330
121A
100
AcDbEntity
  8
Defpoints
 62
     0
100
AcDbPoint
 10
1041.090534611265
 20
1394.319532236984
 30
0.0
  0
POINT
  5
18A4
330
121A
100
AcDbEntity
  8
Defpoints
 62
     0
100
AcDbPoint
 10
760.5905346112649
 20
1649.319532236984
 30
0.0
  0
POINT
  5
18A5
330
121A
100
AcDbEntity
  8
Defpoints
 62
     0
100
AcDbPoint
 10
1175.255420841728
 20
1649.319532236984
 30
0.0
  0
ENDBLK
  5
1225
330
121A
100
AcDbEntity
  8
0
100
AcDbBlockEnd
  0
BLOCK
  5
1230
330
1226
100
AcDbEntity
  8
0
100
AcDbBlockBegin
  2
*D5
 70
     1
 10
0.0
 20
0.0
 30
0.0
  3
*D5
  1

  0
LINE
  5
1894
330
1226
100
AcDbEntity
  8
実形
 62
     0
370
    15
100
AcDbLine
 10
760.5905346112649
 20
1074.319532236984
 30
0.0
 11
760.5905346112649
 21
961.3478069413304
 31
0.0
  0
LINE
  5
1895
330
1226
100
AcDbEntity
  8
実形
 62
     0
370
    15
100
AcDbLine
 10
1620.590534611265
 20
1074.319532236984
 30
0.0
 11
1620.590534611265
 21
961.3478069413304
 31
0.0
  0
LINE
  5
1896
330
1226
100
AcDbEntity
  8
実形
 62
     0
370
    15
100
AcDbLine
 10
760.5905346112649
 20
961.3478069413304
 30
0.0
 11
1620.590534611265
 21
961.3478069413304
 31
0.0
  0
INSERT
  5
1897
330
1226
100
AcDbEntity
  8
実形
 62
     0
370
    15
100
AcDbBlockReference
  2
_DotSmall
 10
760.5905346112649
 20
961.3478069413304
 30
0.0
 41
35.0
 42
35.0
 43
35.0
 50
180.0
  0
INSERT
  5
1898
330
1226
100
AcDbEntity
  8
実形
 62
     0
370
    15
100
AcDbBlockReference
  2
_DotSmall
 10
1620.590534611265
 20
961.3478069413304
 30
0.0
 41
35.0
 42
35.0
 43
35.0
  0
MTEXT
  5
1899
330
1226
100
AcDbEntity
  8
実形
 62
     0
100
AcDbMText
 10
1190.590534611265
 20
980.0978069413304
 30
0.0
 40
25.0
 41
0.0
 71
     5
 72
     1
  1
860
 73
     1
 44
1.0
1001
ACAD
1000
MTEXTBEGIN
1070
    73
1070
     1
1070
    44
1040
1.0
1070
    74
1070
     0
1000
MTEXTEND
  0
POINT
  5
189A
330
1226
100
AcDbEntity
  8
Defpoints
 62
     0
100
AcDbPoint
 10
760.5905346112649
 20
1139.319532236984
 30
0.0
  0
POINT
  5
189B
330
1226
100
AcDbEntity
  8
Defpoints
 62
     0
100
AcDbPoint
 10
1620.590534611265
 20
1139.319532236984
 30
0.0
  0
POINT
  5
189C
330
1226
100
AcDbEntity
  8
Defpoints
 62
     0
100
AcDbPoint
 10
1620.590534611265
 20
961.3478069413304
 30
0.0
  0
ENDBLK
  5
1231
330
1226
100
AcDbEntity
  8
0
100
AcDbBlockEnd
  0
BLOCK
  5
123C
330
1232
100
AcDbEntity
  8
0
100
AcDbBlockBegin
  2
*D6
 70
     1
 10
0.0
 20
0.0
 30
0.0
  3
*D6
  1

  0
LINE
  5
188B
330
1232
100
AcDbEntity
  8
実形
 62
     0
370
    15
100
AcDbLine
 10
800.5905346112649
 20
1074.319532236984
 30
0.0
 11
800.5905346112649
 21
1026.739047517019
 31
0.0
  0
LINE
  5
188C
330
1232
100
AcDbEntity
  8
実形
 62
     0
370
    15
100
AcDbLine
 10
1580.590534611265
 20
1074.319532236984
 30
0.0
 11
1580.590534611265
 21
1026.739047517019
 31
0.0
  0
LINE
  5
188D
330
1232
100
AcDbEntity
  8
実形
 62
     0
370
    15
100
AcDbLine
 10
800.5905346112649
 20
1026.739047517019
 30
0.0
 11
1580.590534611265
 21
1026.739047517019
 31
0.0
  0
INSERT
  5
188E
330
1232
100
AcDbEntity
  8
実形
 62
     0
370
    15
100
AcDbBlockReference
  2
_DotSmall
 10
800.5905346112649
 20
1026.739047517019
 30
0.0
 41
35.0
 42
35.0
 43
35.0
 50
180.0
  0
INSERT
  5
188F
330
1232
100
AcDbEntity
  8
実形
 62
     0
370
    15
100
AcDbBlockReference
  2
_DotSmall
 10
1580.590534611265
 20
1026.739047517019
 30
0.0
 41
35.0
 42
35.0
 43
35.0
  0
MTEXT
  5
1890
330
1232
100
AcDbEntity
  8
実形
 62
     0
100
AcDbMText
 10
1190.590534611265
 20
1045.489047517019
 30
0.0
 40
25.0
 41
0.0
 71
     5
 72
     1
  1
780
 73
     1
 44
1.0
1001
ACAD
1000
MTEXTBEGIN
1070
    73
1070
     1
1070
    44
1040
1.0
1070
    74
1070
     0
1000
MTEXTEND
  0
POINT
  5
1891
330
1232
100
AcDbEntity
  8
Defpoints
 62
     0
100
AcDbPoint
 10
800.5905346112649
 20
1139.319532236984
 30
0.0
  0
POINT
  5
1892
330
1232
100
AcDbEntity
  8
Defpoints
 62
     0
100
AcDbPoint
 10
1580.590534611265
 20
1139.319532236984
 30
0.0
  0
POINT
  5
1893
330
1232
100
AcDbEntity
  8
Defpoints
 62
     0
100
AcDbPoint
 10
1580.590534611265
 20
1026.739047517019
 30
0.0
  0
ENDBLK
  5
123D
330
1232
100
AcDbEntity
  8
0
100
AcDbBlockEnd
  0
BLOCK
  5
1260
330
1256
100
AcDbEntity
  8
0
100
AcDbBlockBegin
  2
*D7
 70
     1
 10
0.0
 20
0.0
 30
0.0
  3
*D7
  1

  0
LINE
  5
18AF
330
1256
100
AcDbEntity
  8
実形
 62
     0
370
    15
100
AcDbLine
 10
695.590534611265
 20
1649.319532236984
 30
0.0
 11
590.0739417849491
 21
1649.319532236984
 31
0.0
  0
LINE
  5
18B0
330
1256
100
AcDbEntity
  8
実形
 62
     0
370
    15
100
AcDbLine
 10
695.590534611265
 20
1139.319532236984
 30
0.0
 11
590.073941784949
 21
1139.319532236984
 31
0.0
  0
LINE
  5
18B1
330
1256
100
AcDbEntity
  8
実形
 62
     0
370
    15
100
AcDbLine
 10
590.0739417849491
 20
1649.319532236984
 30
0.0
 11
590.073941784949
 21
1139.319532236984
 31
0.0
  0
INSERT
  5
18B2
330
1256
100
AcDbEntity
  8
実形
 62
     0
370
    15
100
AcDbBlockReference
  2
_DotSmall
 10
590.0739417849491
 20
1649.319532236984
 30
0.0
 41
35.0
 42
35.0
 43
35.0
 50
90.0
  0
INSERT
  5
18B3
330
1256
100
AcDbEntity
  8
実形
 62
     0
370
    15
100
AcDbBlockReference
  2
_DotSmall
 10
590.073941784949
 20
1139.319532236984
 30
0.0
 41
35.0
 42
35.0
 43
35.0
 50
270.0
  0
MTEXT
  5
18B4
330
1256
100
AcDbEntity
  8
実形
 62
     0
100
AcDbMText
 10
571.3239417849489
 20
1394.319532236984
 30
0.0
 40
25.0
 41
0.0
 71
     5
 72
     1
  1
510
 11
0.0000000000000001
 21
1.0
 31
0.0
 73
     1
 44
1.0
1001
ACAD
1000
MTEXTBEGIN
1070
    73
1070
     1
1070
    44
1040
1.0
1070
    74
1070
     0
1000
MTEXTEND
  0
POINT
  5
18B5
330
1256
100
AcDbEntity
  8
Defpoints
 62
     0
100
AcDbPoint
 10
760.5905346112649
 20
1649.319532236984
 30
0.0
  0
POINT
  5
18B6
330
1256
100
AcDbEntity
  8
Defpoints
 62
     0
100
AcDbPoint
 10
760.5905346112649
 20
1139.319532236984
 30
0.0
  0
POINT
  5
18B7
330
1256
100
AcDbEntity
  8
Defpoints
 62
     0
100
AcDbPoint
 10
590.073941784949
 20
1139.319532236984
 30
0.0
  0
ENDBLK
  5
1261
330
1256
100
AcDbEntity
  8
0
100
AcDbBlockEnd
  0
BLOCK
  5
126C
330
1262
100
AcDbEntity
  8
0
100
AcDbBlockBegin
  2
*D8
 70
     1
 10
0.0
 20
0.0
 30
0.0
  3
*D8
  1

  0
LINE
  5
18A6
330
1262
100
AcDbEntity
  8
実形
 62
     0
370
    15
100
AcDbLine
 10
695.590534611265
 20
1609.319532236983
 30
0.0
 11
663.1265138045412
 21
1609.319532236983
 31
0.0
  0
LINE
  5
18A7
330
1262
100
AcDbEntity
  8
実形
 62
     0
370
    15
100
AcDbLine
 10
695.590534611265
 20
1179.319532236984
 30
0.0
 11
663.1265138045411
 21
1179.319532236984
 31
0.0
  0
LINE
  5
18A8
330
1262
100
AcDbEntity
  8
実形
 62
     0
370
    15
100
AcDbLine
 10
663.1265138045412
 20
1609.319532236983
 30
0.0
 11
663.1265138045411
 21
1179.319532236984
 31
0.0
  0
INSERT
  5
18A9
330
1262
100
AcDbEntity
  8
実形
 62
     0
370
    15
100
AcDbBlockReference
  2
_DotSmall
 10
663.1265138045412
 20
1609.319532236983
 30
0.0
 41
35.0
 42
35.0
 43
35.0
 50
90.0
  0
INSERT
  5
18AA
330
1262
100
AcDbEntity
  8
実形
 62
     0
370
    15
100
AcDbBlockReference
  2
_DotSmall
 10
663.1265138045411
 20
1179.319532236984
 30
0.0
 41
35.0
 42
35.0
 43
35.0
 50
270.0
  0
MTEXT
  5
18AB
330
1262
100
AcDbEntity
  8
実形
 62
     0
100
AcDbMText
 10
644.3765138045409
 20
1394.319532236984
 30
0.0
 40
25.0
 41
0.0
 71
     5
 72
     1
  1
430
 11
0.0000000000000001
 21
1.0
 31
0.0
 73
     1
 44
1.0
1001
ACAD
1000
MTEXTBEGIN
1070
    73
1070
     1
1070
    44
1040
1.0
1070
    74
1070
     0
1000
MTEXTEND
  0
POINT
  5
18AC
330
1262
100
AcDbEntity
  8
Defpoints
 62
     0
100
AcDbPoint
 10
760.5905346112649
 20
1609.319532236983
 30
0.0
  0
POINT
  5
18AD
330
1262
100
AcDbEntity
  8
Defpoints
 62
     0
100
AcDbPoint
 10
760.5905346112649
 20
1179.319532236984
 30
0.0
  0
POINT
  5
18AE
330
1262
100
AcDbEntity
  8
Defpoints
 62
     0
100
AcDbPoint
 10
663.1265138045411
 20
1179.319532236984
 30
0.0
  0
ENDBLK
  5
126D
330
1262
100
AcDbEntity
  8
0
100
AcDbBlockEnd
  0
BLOCK
  5
1278
330
126E
100
AcDbEntity
  8
0
100
AcDbBlockBegin
  2
*D9
 70
     1
 10
0.0
 20
0.0
 30
0.0
  3
*D9
  1

  0
LINE
  5
1882
330
126E
100
AcDbEntity
  8
実形
 62
     0
370
    15
100
AcDbLine
 10
950.5905346112649
 20
1549.819532236984
 30
0.0
 11
950.5905346112649
 21
1763.667845641737
 31
0.0
  0
LINE
  5
1883
330
126E
100
AcDbEntity
  8
実形
 62
     0
370
    15
100
AcDbLine
 10
760.5905346112649
 20
1714.319532236984
 30
0.0
 11
760.5905346112649
 21
1763.667845641737
 31
0.0
  0
LINE
  5
1884
330
126E
100
AcDbEntity
  8
実形
 62
     0
370
    15
100
AcDbLine
 10
950.5905346112649
 20
1763.667845641737
 30
0.0
 11
760.5905346112649
 21
1763.667845641737
 31
0.0
  0
INSERT
  5
1885
330
126E
100
AcDbEntity
  8
実形
 62
     0
370
    15
100
AcDbBlockReference
  2
_DotSmall
 10
950.5905346112649
 20
1763.667845641737
 30
0.0
 41
35.0
 42
35.0
 43
35.0
  0
INSERT
  5
1886
330
126E
100
AcDbEntity
  8
実形
 62
     0
370
    15
100
AcDbBlockReference
  2
_DotSmall
 10
760.5905346112649
 20
1763.667845641737
 30
0.0
 41
35.0
 42
35.0
 43
35.0
 50
180.0
  0
MTEXT
  5
1887
330
126E
100
AcDbEntity
  8
実形
 62
     0
100
AcDbMText
 10
855.590534611265
 20
1782.417845641737
 30
0.0
 40
25.0
 41
0.0
 71
     5
 72
     1
  1
190
 73
     1
 44
1.0
1001
ACAD
1000
MTEXTBEGIN
1070
    73
1070
     1
1070
    44
1040
1.0
1070
    74
1070
     0
1000
MTEXTEND
  0
POINT
  5
1888
330
126E
100
AcDbEntity
  8
Defpoints
 62
     0
100
AcDbPoint
 10
950.5905346112649
 20
1484.819532236984
 30
0.0
  0
POINT
  5
1889
330
126E
100
AcDbEntity
  8
Defpoints
 62
     0
100
AcDbPoint
 10
760.5905346112649
 20
1649.319532236984
 30
0.0
  0
POINT
  5
188A
330
126E
100
AcDbEntity
  8
Defpoints
 62
     0
100
AcDbPoint
 10
760.5905346112649
 20
1763.667845641737
 30
0.0
  0
ENDBLK
  5
1279
330
126E
100
AcDbEntity
  8
0
100
AcDbBlockEnd
  0
BLOCK
  5
1284
330
127A
100
AcDbEntity
  8
0
100
AcDbBlockBegin
  2
*D10
 70
     1
 10
0.0
 20
0.0
 30
0.0
  3
*D10
  1

  0
LINE
  5
18D3
330
127A
100
AcDbEntity
  8
実形
 62
     0
370
    15
100
AcDbLine
 10
695.590534611265
 20
1159.319532236984
 30
0.0
 11
663.1265138045411
 21
1159.319532236984
 31
0.0
  0
LINE
  5
18D4
330
127A
100
AcDbEntity
  8
実形
 62
     0
370
    15
100
AcDbLine
 10
695.590534611265
 20
1139.319532236984
 30
0.0
 11
663.1265138045411
 21
1139.319532236984
 31
0.0
  0
LINE
  5
18D5
330
127A
100
AcDbEntity
  8
実形
 62
     0
370
    15
100
AcDbLine
 10
663.1265138045411
 20
1159.319532236984
 30
0.0
 11
663.1265138045411
 21
1139.319532236984
 31
0.0
  0
MTEXT
  5
18D6
330
127A
100
AcDbEntity
  8
実形
 62
     0
100
AcDbMText
 10
644.3765138045409
 20
1102.151843936035
 30
0.0
 40
25.0
 41
0.0
 71
     5
 72
     1
  1
20
 11
0.0000000000000001
 21
1.0
 31
0.0
 73
     1
 44
1.0
1001
ACAD
1000
MTEXTBEGIN
1070
    73
1070
     1
1070
    44
1040
1.0
1070
    74
1070
     0
1000
MTEXTEND
  0
INSERT
  5
18D7
330
127A
100
AcDbEntity
  8
実形
 62
     0
370
    15
100
AcDbBlockReference
  2
_DotSmall
 10
663.1265138045411
 20
1159.319532236984
 30
0.0
 41
35.0
 42
35.0
 43
35.0
 50
90.0
  0
INSERT
  5
18D8
330
127A
100
AcDbEntity
  8
実形
 62
     0
370
    15
100
AcDbBlockReference
  2
_DotSmall
 10
663.1265138045411
 20
1139.319532236984
 30
0.0
 41
35.0
 42
35.0
 43
35.0
 50
270.0
  0
POINT
  5
18D9
330
127A
100
AcDbEntity
  8
Defpoints
 62
     0
100
AcDbPoint
 10
760.5905346112649
 20
1159.319532236984
 30
0.0
  0
POINT
  5
18DA
330
127A
100
AcDbEntity
  8
Defpoints
 62
     0
100
AcDbPoint
 10
760.5905346112649
 20
1139.319532236984
 30
0.0
  0
POINT
  5
18DB
330
127A
100
AcDbEntity
  8
Defpoints
 62
     0
100
AcDbPoint
 10
663.1265138045411
 20
1139.319532236984
 30
0.0
  0
ENDBLK
  5
1285
330
127A
100
AcDbEntity
  8
0
100
AcDbBlockEnd
  0
BLOCK
  5
1291
330
1286
100
AcDbEntity
  8
0
100
AcDbBlockBegin
  2
*D11
 70
     1
 10
0.0
 20
0.0
 30
0.0
  3
*D11
  1

  0
LINE
  5
18C1
330
1286
100
AcDbEntity
  8
実形
 62
     0
370
    15
100
AcDbLine
 10
760.5905346112649
 20
1074.319532236984
 30
0.0
 11
760.5905346112649
 21
1026.739047517019
 31
0.0
  0
LINE
  5
18C2
330
1286
100
AcDbEntity
  8
実形
 62
     0
370
    15
100
AcDbLine
 10
780.5905346112649
 20
1074.319532236984
 30
0.0
 11
780.5905346112649
 21
1026.739047517019
 31
0.0
  0
LINE
  5
18C3
330
1286
100
AcDbEntity
  8
実形
 62
     0
370
    15
100
AcDbLine
 10
760.5905346112649
 20
1026.739047517019
 30
0.0
 11
780.5905346112649
 21
1026.739047517019
 31
0.0
  0
MTEXT
  5
18C4
330
1286
100
AcDbEntity
  8
実形
 62
     0
100
AcDbMText
 10
727.2006507189999
 20
1041.344815736094
 30
0.0
 40
25.0
 41
0.0
 71
     5
 72
     1
  1
20
 73
     1
 44
1.0
1001
ACAD
1000
MTEXTBEGIN
1070
    73
1070
     1
1070
    44
1040
1.0
1070
    74
1070
     0
1000
MTEXTEND
  0
INSERT
  5
18C5
330
1286
100
AcDbEntity
  8
実形
 62
     0
370
    15
100
AcDbBlockReference
  2
_DotSmall
 10
760.5905346112649
 20
1026.739047517019
 30
0.0
 41
35.0
 42
35.0
 43
35.0
 50
180.0
  0
INSERT
  5
18C6
330
1286
100
AcDbEntity
  8
実形
 62
     0
370
    15
100
AcDbBlockReference
  2
_DotSmall
 10
780.5905346112649
 20
1026.739047517019
 30
0.0
 41
35.0
 42
35.0
 43
35.0
  0
POINT
  5
18C7
330
1286
100
AcDbEntity
  8
Defpoints
 62
     0
100
AcDbPoint
 10
760.5905346112649
 20
1139.319532236984
 30
0.0
  0
POINT
  5
18C8
330
1286
100
AcDbEntity
  8
Defpoints
 62
     0
100
AcDbPoint
 10
780.5905346112649
 20
1139.319532236984
 30
0.0
  0
POINT
  5
18C9
330
1286
100
AcDbEntity
  8
Defpoints
 62
     0
100
AcDbPoint
 10
780.5905346112649
 20
1026.739047517019
 30
0.0
  0
ENDBLK
  5
1292
330
1286
100
AcDbEntity
  8
0
100
AcDbBlockEnd
  0
BLOCK
  5
129D
330
1293
100
AcDbEntity
  8
0
100
AcDbBlockBegin
  2
*D12
 70
     1
 10
0.0
 20
0.0
 30
0.0
  3
*D12
  1

  0
LINE
  5
18B8
330
1293
100
AcDbEntity
  8
実形
 62
     0
370
    15
100
AcDbLine
 10
780.5905346112649
 20
1074.319532236984
 30
0.0
 11
780.5905346112649
 21
1026.739047517019
 31
0.0
  0
LINE
  5
18B9
330
1293
100
AcDbEntity
  8
実形
 62
     0
370
    15
100
AcDbLine
 10
800.5905346112649
 20
1074.319532236984
 30
0.0
 11
800.5905346112649
 21
1026.739047517019
 31
0.0
  0
LINE
  5
18BA
330
1293
100
AcDbEntity
  8
実形
 62
     0
370
    15
100
AcDbLine
 10
780.5905346112649
 20
1026.739047517019
 30
0.0
 11
800.5905346112649
 21
1026.739047517019
 31
0.0
  0
MTEXT
  5
18BB
330
1293
100
AcDbEntity
  8
実形
 62
     0
100
AcDbMText
 10
838.9092201487674
 20
1045.489047517019
 30
0.0
 40
25.0
 41
0.0
 71
     5
 72
     1
  1
20
 73
     1
 44
1.0
1001
ACAD
1000
MTEXTBEGIN
1070
    73
1070
     1
1070
    44
1040
1.0
1070
    74
1070
     0
1000
MTEXTEND
  0
INSERT
  5
18BC
330
1293
100
AcDbEntity
  8
実形
 62
     0
370
    15
100
AcDbBlockReference
  2
_DotSmall
 10
780.5905346112649
 20
1026.739047517019
 30
0.0
 41
35.0
 42
35.0
 43
35.0
 50
180.0
  0
INSERT
  5
18BD
330
1293
100
AcDbEntity
  8
実形
 62
     0
370
    15
100
AcDbBlockReference
  2
_DotSmall
 10
800.5905346112649
 20
1026.739047517019
 30
0.0
 41
35.0
 42
35.0
 43
35.0
  0
POINT
  5
18BE
330
1293
100
AcDbEntity
  8
Defpoints
 62
     0
100
AcDbPoint
 10
780.5905346112649
 20
1139.319532236984
 30
0.0
  0
POINT
  5
18BF
330
1293
100
AcDbEntity
  8
Defpoints
 62
     0
100
AcDbPoint
 10
800.5905346112649
 20
1139.319532236984
 30
0.0
  0
POINT
  5
18C0
330
1293
100
AcDbEntity
  8
Defpoints
 62
     0
100
AcDbPoint
 10
800.5905346112649
 20
1026.739047517019
 30
0.0
  0
ENDBLK
  5
129E
330
1293
100
AcDbEntity
  8
0
100
AcDbBlockEnd
  0
BLOCK
  5
12B6
330
12AC
100
AcDbEntity
  8
0
100
AcDbBlockBegin
  2
*D13
 70
     1
 10
0.0
 20
0.0
 30
0.0
  3
*D13
  1

  0
LINE
  5
18CA
330
12AC
100
AcDbEntity
  8
実形
 62
     0
370
    15
100
AcDbLine
 10
695.590534611265
 20
1179.319532236984
 30
0.0
 11
663.1265138045411
 21
1179.319532236984
 31
0.0
  0
LINE
  5
18CB
330
12AC
100
AcDbEntity
  8
実形
 62
     0
370
    15
100
AcDbLine
 10
695.590534611265
 20
1159.319532236984
 30
0.0
 11
663.1265138045411
 21
1159.319532236984
 31
0.0
  0
LINE
  5
18CC
330
12AC
100
AcDbEntity
  8
実形
 62
     0
370
    15
100
AcDbLine
 10
663.1265138045411
 20
1179.319532236984
 30
0.0
 11
663.1265138045411
 21
1159.319532236984
 31
0.0
  0
MTEXT
  5
18CD
330
12AC
100
AcDbEntity
  8
実形
 62
     0
100
AcDbMText
 10
644.3765138045409
 20
1208.602695651012
 30
0.0
 40
25.0
 41
0.0
 71
     5
 72
     1
  1
20
 11
0.0000000000000001
 21
1.0
 31
0.0
 73
     1
 44
1.0
1001
ACAD
1000
MTEXTBEGIN
1070
    73
1070
     1
1070
    44
1040
1.0
1070
    74
1070
     0
1000
MTEXTEND
  0
INSERT
  5
18CE
330
12AC
100
AcDbEntity
  8
実形
 62
     0
370
    15
100
AcDbBlockReference
  2
_DotSmall
 10
663.1265138045411
 20
1179.319532236984
 30
0.0
 41
35.0
 42
35.0
 43
35.0
 50
90.0
  0
INSERT
  5
18CF
330
12AC
100
AcDbEntity
  8
実形
 62
     0
370
    15
100
AcDbBlockReference
  2
_DotSmall
 10
663.1265138045411
 20
1159.319532236984
 30
0.0
 41
35.0
 42
35.0
 43
35.0
 50
270.0
  0
POINT
  5
18D0
330
12AC
100
AcDbEntity
  8
Defpoints
 62
     0
100
AcDbPoint
 10
760.5905346112649
 20
1179.319532236984
 30
0.0
  0
POINT
  5
18D1
330
12AC
100
AcDbEntity
  8
Defpoints
 62
     0
100
AcDbPoint
 10
760.5905346112649
 20
1159.319532236984
 30
0.0
  0
POINT
  5
18D2
330
12AC
100
AcDbEntity
  8
Defpoints
 62
     0
100
AcDbPoint
 10
663.1265138045411
 20
1159.319532236984
 30
0.0
  0
ENDBLK
  5
12B7
330
12AC
100
AcDbEntity
  8
0
100
AcDbBlockEnd
  0
BLOCK
  5
12C2
330
12B8
100
AcDbEntity
  8
0
100
AcDbBlockBegin
  2
*D14
 70
     1
 10
0.0
 20
0.0
 30
0.0
  3
*D14
  1

  0
LINE
  5
18E5
330
12B8
100
AcDbEntity
  8
実形
 62
     0
370
    15
100
AcDbLine
 10
695.590534611265
 20
1629.319532236984
 30
0.0
 11
663.1265138045412
 21
1629.319532236984
 31
0.0
  0
LINE
  5
18E6
330
12B8
100
AcDbEntity
  8
実形
 62
     0
370
    15
100
AcDbLine
 10
695.590534611265
 20
1609.319532236983
 30
0.0
 11
663.1265138045412
 21
1609.319532236983
 31
0.0
  0
LINE
  5
18E7
330
12B8
100
AcDbEntity
  8
実形
 62
     0
370
    15
100
AcDbLine
 10
663.1265138045412
 20
1629.319532236984
 30
0.0
 11
663.1265138045412
 21
1609.319532236983
 31
0.0
  0
MTEXT
  5
18E8
330
12B8
100
AcDbEntity
  8
実形
 62
     0
100
AcDbMText
 10
644.3765138045409
 20
1579.659948048271
 30
0.0
 40
25.0
 41
0.0
 71
     5
 72
     1
  1
20
 11
0.0000000000000001
 21
1.0
 31
0.0
 73
     1
 44
1.0
1001
ACAD
1000
MTEXTBEGIN
1070
    73
1070
     1
1070
    44
1040
1.0
1070
    74
1070
     0
1000
MTEXTEND
  0
INSERT
  5
18E9
330
12B8
100
AcDbEntity
  8
実形
 62
     0
370
    15
100
AcDbBlockReference
  2
_DotSmall
 10
663.1265138045412
 20
1629.319532236984
 30
0.0
 41
35.0
 42
35.0
 43
35.0
 50
90.0
  0
INSERT
  5
18EA
330
12B8
100
AcDbEntity
  8
実形
 62
     0
370
    15
100
AcDbBlockReference
  2
_DotSmall
 10
663.1265138045412
 20
1609.319532236983
 30
0.0
 41
35.0
 42
35.0
 43
35.0
 50
270.0
  0
POINT
  5
18EB
330
12B8
100
AcDbEntity
  8
Defpoints
 62
     0
100
AcDbPoint
 10
760.5905346112649
 20
1629.319532236984
 30
0.0
  0
POINT
  5
18EC
330
12B8
100
AcDbEntity
  8
Defpoints
 62
     0
100
AcDbPoint
 10
760.5905346112649
 20
1609.319532236983
 30
0.0
  0
POINT
  5
18ED
330
12B8
100
AcDbEntity
  8
Defpoints
 62
     0
100
AcDbPoint
 10
663.1265138045412
 20
1609.319532236983
 30
0.0
  0
ENDBLK
  5
12C3
330
12B8
100
AcDbEntity
  8
0
100
AcDbBlockEnd
  0
BLOCK
  5
12CF
330
12C4
100
AcDbEntity
  8
0
100
AcDbBlockBegin
  2
*D15
 70
     1
 10
0.0
 20
0.0
 30
0.0
  3
*D15
  1

  0
LINE
  5
18DC
330
12C4
100
AcDbEntity
  8
実形
 62
     0
370
    15
100
AcDbLine
 10
695.590534611265
 20
1649.319532236984
 30
0.0
 11
663.1265138045412
 21
1649.319532236984
 31
0.0
  0
LINE
  5
18DD
330
12C4
100
AcDbEntity
  8
実形
 62
     0
370
    15
100
AcDbLine
 10
695.590534611265
 20
1629.319532236984
 30
0.0
 11
663.1265138045412
 21
1629.319532236984
 31
0.0
  0
LINE
  5
18DE
330
12C4
100
AcDbEntity
  8
実形
 62
     0
370
    15
100
AcDbLine
 10
663.1265138045412
 20
1649.319532236984
 30
0.0
 11
663.1265138045412
 21
1629.319532236984
 31
0.0
  0
MTEXT
  5
18DF
330
12C4
100
AcDbEntity
  8
実形
 62
     0
100
AcDbMText
 10
649.2687955899964
 20
1683.369865066869
 30
0.0
 40
25.0
 41
0.0
 71
     5
 72
     1
  1
20
 11
0.0000000000000001
 21
1.0
 31
0.0
 73
     1
 44
1.0
1001
ACAD
1000
MTEXTBEGIN
1070
    73
1070
     1
1070
    44
1040
1.0
1070
    74
1070
     0
1000
MTEXTEND
  0
INSERT
  5
18E0
330
12C4
100
AcDbEntity
  8
実形
 62
     0
370
    15
100
AcDbBlockReference
  2
_DotSmall
 10
663.1265138045412
 20
1649.319532236984
 30
0.0
 41
35.0
 42
35.0
 43
35.0
 50
90.0
  0
INSERT
  5
18E1
330
12C4
100
AcDbEntity
  8
実形
 62
     0
370
    15
100
AcDbBlockReference
  2
_DotSmall
 10
663.1265138045412
 20
1629.319532236984
 30
0.0
 41
35.0
 42
35.0
 43
35.0
 50
270.0
  0
POINT
  5
18E2
330
12C4
100
AcDbEntity
  8
Defpoints
 62
     0
100
AcDbPoint
 10
760.5905346112649
 20
1649.319532236984
 30
0.0
  0
POINT
  5
18E3
330
12C4
100
AcDbEntity
  8
Defpoints
 62
     0
100
AcDbPoint
 10
760.5905346112649
 20
1629.319532236984
 30
0.0
  0
POINT
  5
18E4
330
12C4
100
AcDbEntity
  8
Defpoints
 62
     0
100
AcDbPoint
 10
663.1265138045412
 20
1629.319532236984
 30
0.0
  0
ENDBLK
  5
12D0
330
12C4
100
AcDbEntity
  8
0
100
AcDbBlockEnd
  0
BLOCK
  5
12DB
330
12D1
100
AcDbEntity
  8
0
100
AcDbBlockBegin
  2
*D16
 70
     1
 10
0.0
 20
0.0
 30
0.0
  3
*D16
  1

  0
LINE
  5
18EE
330
12D1
100
AcDbEntity
  8
実形
 62
     0
370
    15
100
AcDbLine
 10
1685.590534611265
 20
1649.319532236984
 30
0.0
 11
1765.763673553846
 21
1649.319532236984
 31
0.0
  0
LINE
  5
18EF
330
12D1
100
AcDbEntity
  8
実形
 62
     0
370
    15
100
AcDbLine
 10
1685.590534611265
 20
1429.319532236984
 30
0.0
 11
1765.763673553845
 21
1429.319532236984
 31
0.0
  0
LINE
  5
18F0
330
12D1
100
AcDbEntity
  8
実形
 62
     0
370
    15
100
AcDbLine
 10
1765.763673553846
 20
1649.319532236984
 30
0.0
 11
1765.763673553845
 21
1429.319532236984
 31
0.0
  0
INSERT
  5
18F1
330
12D1
100
AcDbEntity
  8
実形
 62
     0
370
    15
100
AcDbBlockReference
  2
_DotSmall
 10
1765.763673553846
 20
1649.319532236984
 30
0.0
 41
35.0
 42
35.0
 43
35.0
 50
90.0
  0
INSERT
  5
18F2
330
12D1
100
AcDbEntity
  8
実形
 62
     0
370
    15
100
AcDbBlockReference
  2
_DotSmall
 10
1765.763673553845
 20
1429.319532236984
 30
0.0
 41
35.0
 42
35.0
 43
35.0
 50
270.0
  0
MTEXT
  5
18F3
330
12D1
100
AcDbEntity
  8
実形
 62
     0
100
AcDbMText
 10
1747.013673553845
 20
1539.319532236984
 30
0.0
 40
25.0
 41
0.0
 71
     5
 72
     1
  1
220
 11
0.0000000000000001
 21
1.0
 31
0.0
 73
     1
 44
1.0
1001
ACAD
1000
MTEXTBEGIN
1070
    73
1070
     1
1070
    44
1040
1.0
1070
    74
1070
     0
1000
MTEXTEND
  0
POINT
  5
18F4
330
12D1
100
AcDbEntity
  8
Defpoints
 62
     0
100
AcDbPoint
 10
1620.590534611265
 20
1649.319532236984
 30
0.0
  0
POINT
  5
18F5
330
12D1
100
AcDbEntity
  8
Defpoints
 62
     0
100
AcDbPoint
 10
1620.590534611265
 20
1429.319532236984
 30
0.0
  0
POINT
  5
18F6
330
12D1
100
AcDbEntity
  8
Defpoints
 62
     0
100
AcDbPoint
 10
1765.763673553845
 20
1429.319532236984
 30
0.0
  0
ENDBLK
  5
12DC
330
12D1
100
AcDbEntity
  8
0
100
AcDbBlockEnd
  0
BLOCK
  5
12E7
330
12DD
100
AcDbEntity
  8
0
100
AcDbBlockBegin
  2
*D17
 70
     1
 10
0.0
 20
0.0
 30
0.0
  3
*D17
  1

  0
LINE
  5
1900
330
12DD
100
AcDbEntity
  8
実形
 62
     0
370
    15
100
AcDbLine
 10
1600.590534611265
 20
1074.319532236984
 30
0.0
 11
1600.590534611265
 21
1026.739047517019
 31
0.0
  0
LINE
  5
1901
330
12DD
100
AcDbEntity
  8
実形
 62
     0
370
    15
100
AcDbLine
 10
1620.590534611265
 20
1074.319532236984
 30
0.0
 11
1620.590534611265
 21
1026.739047517019
 31
0.0
  0
LINE
  5
1902
330
12DD
100
AcDbEntity
  8
実形
 62
     0
370
    15
100
AcDbLine
 10
1600.590534611265
 20
1026.739047517019
 30
0.0
 11
1620.590534611265
 21
1026.739047517019
 31
0.0
  0
MTEXT
  5
1903
330
12DD
100
AcDbEntity
  8
実形
 62
     0
100
AcDbMText
 10
1656.184819645867
 20
1043.968318911857
 30
0.0
 40
25.0
 41
0.0
 71
     5
 72
     1
  1
20
 73
     1
 44
1.0
1001
ACAD
1000
MTEXTBEGIN
1070
    73
1070
     1
1070
    44
1040
1.0
1070
    74
1070
     0
1000
MTEXTEND
  0
INSERT
  5
1904
330
12DD
100
AcDbEntity
  8
実形
 62
     0
370
    15
100
AcDbBlockReference
  2
_DotSmall
 10
1600.590534611265
 20
1026.739047517019
 30
0.0
 41
35.0
 42
35.0
 43
35.0
 50
180.0
  0
INSERT
  5
1905
330
12DD
100
AcDbEntity
  8
実形
 62
     0
370
    15
100
AcDbBlockReference
  2
_DotSmall
 10
1620.590534611265
 20
1026.739047517019
 30
0.0
 41
35.0
 42
35.0
 43
35.0
  0
POINT
  5
1906
330
12DD
100
AcDbEntity
  8
Defpoints
 62
     0
100
AcDbPoint
 10
1600.590534611265
 20
1139.319532236984
 30
0.0
  0
POINT
  5
1907
330
12DD
100
AcDbEntity
  8
Defpoints
 62
     0
100
AcDbPoint
 10
1620.590534611265
 20
1139.319532236984
 30
0.0
  0
POINT
  5
1908
330
12DD
100
AcDbEntity
  8
Defpoints
 62
     0
100
AcDbPoint
 10
1620.590534611265
 20
1026.739047517019
 30
0.0
  0
ENDBLK
  5
12E8
330
12DD
100
AcDbEntity
  8
0
100
AcDbBlockEnd
  0
BLOCK
  5
12F3
330
12E9
100
AcDbEntity
  8
0
100
AcDbBlockBegin
  2
*D18
 70
     1
 10
0.0
 20
0.0
 30
0.0
  3
*D18
  1

  0
LINE
  5
18F7
330
12E9
100
AcDbEntity
  8
実形
 62
     0
370
    15
100
AcDbLine
 10
1580.590534611265
 20
1074.319532236984
 30
0.0
 11
1580.590534611265
 21
1026.739047517019
 31
0.0
  0
LINE
  5
18F8
330
12E9
100
AcDbEntity
  8
実形
 62
     0
370
    15
100
AcDbLine
 10
1600.590534611265
 20
1074.319532236984
 30
0.0
 11
1600.590534611265
 21
1026.739047517019
 31
0.0
  0
LINE
  5
18F9
330
12E9
100
AcDbEntity
  8
実形
 62
     0
370
    15
100
AcDbLine
 10
1580.590534611265
 20
1026.739047517019
 30
0.0
 11
1600.590534611265
 21
1026.739047517019
 31
0.0
  0
MTEXT
  5
18FA
330
12E9
100
AcDbEntity
  8
実形
 62
     0
100
AcDbMText
 10
1546.605973980708
 20
1045.489047517019
 30
0.0
 40
25.0
 41
0.0
 71
     5
 72
     1
  1
20
 73
     1
 44
1.0
1001
ACAD
1000
MTEXTBEGIN
1070
    73
1070
     1
1070
    44
1040
1.0
1070
    74
1070
     0
1000
MTEXTEND
  0
INSERT
  5
18FB
330
12E9
100
AcDbEntity
  8
実形
 62
     0
370
    15
100
AcDbBlockReference
  2
_DotSmall
 10
1580.590534611265
 20
1026.739047517019
 30
0.0
 41
35.0
 42
35.0
 43
35.0
 50
180.0
  0
INSERT
  5
18FC
330
12E9
100
AcDbEntity
  8
実形
 62
     0
370
    15
100
AcDbBlockReference
  2
_DotSmall
 10
1600.590534611265
 20
1026.739047517019
 30
0.0
 41
35.0
 42
35.0
 43
35.0
  0
POINT
  5
18FD
330
12E9
100
AcDbEntity
  8
Defpoints
 62
     0
100
AcDbPoint
 10
1580.590534611265
 20
1139.319532236984
 30
0.0
  0
POINT
  5
18FE
330
12E9
100
AcDbEntity
  8
Defpoints
 62
     0
100
AcDbPoint
 10
1600.590534611265
 20
1139.319532236984
 30
0.0
  0
POINT
  5
18FF
330
12E9
100
AcDbEntity
  8
Defpoints
 62
     0
100
AcDbPoint
 10
1600.590534611265
 20
1026.739047517019
 30
0.0
  0
ENDBLK
  5
12F4
330
12E9
100
AcDbEntity
  8
0
100
AcDbBlockEnd
  0
BLOCK
  5
12FF
330
12F5
100
AcDbEntity
  8
0
100
AcDbBlockBegin
  2
*D19
 70
     1
 10
0.0
 20
0.0
 30
0.0
  3
*D19
  1

  0
LINE
  5
1909
330
12F5
100
AcDbEntity
  8
実形
 62
     0
370
    15
100
AcDbLine
 10
1400.590534611265
 20
1714.319532236984
 30
0.0
 11
1400.590534611265
 21
1762.147117036574
 31
0.0
  0
LINE
  5
190A
330
12F5
100
AcDbEntity
  8
実形
 62
     0
370
    15
100
AcDbLine
 10
1620.590534611265
 20
1714.319532236984
 30
0.0
 11
1620.590534611265
 21
1762.147117036574
 31
0.0
  0
LINE
  5
190B
330
12F5
100
AcDbEntity
  8
実形
 62
     0
370
    15
100
AcDbLine
 10
1400.590534611265
 20
1762.147117036574
 30
0.0
 11
1620.590534611265
 21
1762.147117036574
 31
0.0
  0
INSERT
  5
190C
330
12F5
100
AcDbEntity
  8
実形
 62
     0
370
    15
100
AcDbBlockReference
  2
_DotSmall
 10
1400.590534611265
 20
1762.147117036574
 30
0.0
 41
35.0
 42
35.0
 43
35.0
 50
180.0
  0
INSERT
  5
190D
330
12F5
100
AcDbEntity
  8
実形
 62
     0
370
    15
100
AcDbBlockReference
  2
_DotSmall
 10
1620.590534611265
 20
1762.147117036574
 30
0.0
 41
35.0
 42
35.0
 43
35.0
  0
MTEXT
  5
190E
330
12F5
100
AcDbEntity
  8
実形
 62
     0
100
AcDbMText
 10
1510.590534611265
 20
1780.897117036575
 30
0.0
 40
25.0
 41
0.0
 71
     5
 72
     1
  1
220
 73
     1
 44
1.0
1001
ACAD
1000
MTEXTBEGIN
1070
    73
1070
     1
1070
    44
1040
1.0
1070
    74
1070
     0
1000
MTEXTEND
  0
POINT
  5
190F
330
12F5
100
AcDbEntity
  8
Defpoints
 62
     0
100
AcDbPoint
 10
1400.590534611265
 20
1649.319532236984
 30
0.0
  0
POINT
  5
1910
330
12F5
100
AcDbEntity
  8
Defpoints
 62
     0
100
AcDbPoint
 10
1620.590534611265
 20
1649.319532236984
 30
0.0
  0
POINT
  5
1911
330
12F5
100
AcDbEntity
  8
Defpoints
 62
     0
100
AcDbPoint
 10
1620.590534611265
 20
1762.147117036574
 30
0.0
  0
ENDBLK
  5
1300
330
12F5
100
AcDbEntity
  8
0
100
AcDbBlockEnd
  0
BLOCK
  5
1448
330
143E
100
AcDbEntity
  8
0
100
AcDbBlockBegin
  2
*D20
 70
     1
 10
0.0
 20
0.0
 30
0.0
  3
*D20
  1

  0
LINE
  5
1A29
330
143E
100
AcDbEntity
  8
実形
 62
     0
370
    18
100
AcDbLine
 10
871.0905346112649
 20
553.2294781858409
 30
0.0
 11
871.0905346112649
 21
484.6668009116374
 31
0.0
  0
LINE
  5
1A2A
330
143E
100
AcDbEntity
  8
実形
 62
     0
370
    18
100
AcDbLine
 10
1030.090534611265
 20
553.2294781858409
 30
0.0
 11
1030.090534611265
 21
484.6668009116374
 31
0.0
  0
LINE
  5
1A2B
330
143E
100
AcDbEntity
  8
実形
 62
     0
370
    18
100
AcDbLine
 10
871.0905346112649
 20
484.6668009116374
 30
0.0
 11
1030.090534611265
 21
484.6668009116374
 31
0.0
  0
INSERT
  5
1A2C
330
143E
100
AcDbEntity
  8
実形
 62
     0
370
    18
100
AcDbBlockReference
  2
_DotSmall
 10
871.0905346112649
 20
484.6668009116374
 30
0.0
 41
35.0
 42
35.0
 43
35.0
 50
180.0
  0
INSERT
  5
1A2D
330
143E
100
AcDbEntity
  8
実形
 62
     0
370
    18
100
AcDbBlockReference
  2
_DotSmall
 10
1030.090534611265
 20
484.6668009116374
 30
0.0
 41
35.0
 42
35.0
 43
35.0
  0
MTEXT
  5
1A2E
330
143E
100
AcDbEntity
  8
実形
 62
     0
100
AcDbMText
 10
950.5905346112649
 20
503.4168009116374
 30
0.0
 40
25.0
 41
0.0
 71
     5
 72
     1
  1
160
 73
     1
 44
1.0
1001
ACAD
1000
MTEXTBEGIN
1070
    73
1070
     1
1070
    44
1040
1.0
1070
    74
1070
     0
1000
MTEXTEND
  0
POINT
  5
1A2F
330
143E
100
AcDbEntity
  8
Defpoints
 62
     0
100
AcDbPoint
 10
871.0905346112649
 20
618.2294781858408
 30
0.0
  0
POINT
  5
1A30
330
143E
100
AcDbEntity
  8
Defpoints
 62
     0
100
AcDbPoint
 10
1030.090534611265
 20
618.2294781858408
 30
0.0
  0
POINT
  5
1A31
330
143E
100
AcDbEntity
  8
Defpoints
 62
     0
100
AcDbPoint
 10
1030.090534611265
 20
484.6668009116374
 30
0.0
  0
ENDBLK
  5
1449
330
143E
100
AcDbEntity
  8
0
100
AcDbBlockEnd
  0
BLOCK
  5
145E
330
1454
100
AcDbEntity
  8
0
100
AcDbBlockBegin
  2
*D21
 70
     1
 10
0.0
 20
0.0
 30
0.0
  3
*D21
  1

  0
LINE
  5
1A20
330
1454
100
AcDbEntity
  8
実形
 62
     0
370
    18
100
AcDbLine
 10
860.090534611265
 20
553.2294781858409
 30
0.0
 11
860.090534611265
 21
428.0432017857747
 31
0.0
  0
LINE
  5
1A21
330
1454
100
AcDbEntity
  8
実形
 62
     0
370
    18
100
AcDbLine
 10
1041.090534611265
 20
553.2294781858409
 30
0.0
 11
1041.090534611265
 21
428.0432017857747
 31
0.0
  0
LINE
  5
1A22
330
1454
100
AcDbEntity
  8
実形
 62
     0
370
    18
100
AcDbLine
 10
860.090534611265
 20
428.0432017857747
 30
0.0
 11
1041.090534611265
 21
428.0432017857747
 31
0.0
  0
INSERT
  5
1A23
330
1454
100
AcDbEntity
  8
実形
 62
     0
370
    18
100
AcDbBlockReference
  2
_DotSmall
 10
860.090534611265
 20
428.0432017857747
 30
0.0
 41
35.0
 42
35.0
 43
35.0
 50
180.0
  0
INSERT
  5
1A24
330
1454
100
AcDbEntity
  8
実形
 62
     0
370
    18
100
AcDbBlockReference
  2
_DotSmall
 10
1041.090534611265
 20
428.0432017857747
 30
0.0
 41
35.0
 42
35.0
 43
35.0
  0
MTEXT
  5
1A25
330
1454
100
AcDbEntity
  8
実形
 62
     0
100
AcDbMText
 10
950.5905346112649
 20
446.7932017857747
 30
0.0
 40
25.0
 41
0.0
 71
     5
 72
     1
  1
181
 73
     1
 44
1.0
1001
ACAD
1000
MTEXTBEGIN
1070
    73
1070
     1
1070
    44
1040
1.0
1070
    74
1070
     0
1000
MTEXTEND
  0
POINT
  5
1A26
330
1454
100
AcDbEntity
  8
Defpoints
 62
     0
100
AcDbPoint
 10
860.090534611265
 20
618.2294781858408
 30
0.0
  0
POINT
  5
1A27
330
1454
100
AcDbEntity
  8
Defpoints
 62
     0
100
AcDbPoint
 10
1041.090534611265
 20
618.2294781858408
 30
0.0
  0
POINT
  5
1A28
330
1454
100
AcDbEntity
  8
Defpoints
 62
     0
100
AcDbPoint
 10
1041.090534611265
 20
428.0432017857747
 30
0.0
  0
ENDBLK
  5
145F
330
1454
100
AcDbEntity
  8
0
100
AcDbBlockEnd
  0
BLOCK
  5
1559
330
154F
100
AcDbEntity
  8
0
100
AcDbBlockBegin
  2
*D22
 70
     1
 10
0.0
 20
0.0
 30
0.0
  3
*D22
  1

  0
LINE
  5
1688
330
154F
100
AcDbEntity
  8
寸法
 62
     0
370
    15
100
AcDbLine
 10
1964.886404013435
 20
774.4715837531739
 30
0.0
 11
1877.905958859336
 21
774.4715837531739
 31
0.0
  0
LINE
  5
1689
330
154F
100
AcDbEntity
  8
寸法
 62
     0
370
    15
100
AcDbLine
 10
1964.886404013435
 20
625.0340451137899
 30
0.0
 11
1877.905958859336
 21
625.0340451137899
 31
0.0
  0
LINE
  5
168A
330
154F
100
AcDbEntity
  8
寸法
 62
     0
370
    15
100
AcDbLine
 10
1877.905958859336
 20
774.4715837531739
 30
0.0
 11
1877.905958859336
 21
625.0340451137899
 31
0.0
  0
INSERT
  5
168B
330
154F
100
AcDbEntity
  8
寸法
 62
     0
370
    15
100
AcDbBlockReference
  2
_DotSmall
 10
1877.905958859336
 20
774.4715837531739
 30
0.0
 41
40.0
 42
40.0
 43
40.0
 50
90.0
  0
INSERT
  5
168C
330
154F
100
AcDbEntity
  8
寸法
 62
     0
370
    15
100
AcDbBlockReference
  2
_DotSmall
 10
1877.905958859336
 20
625.0340451137899
 30
0.0
 41
40.0
 42
40.0
 43
40.0
 50
270.0
  0
MTEXT
  5
168D
330
154F
100
AcDbEntity
  8
寸法
 62
     0
100
AcDbMText
 10
1859.155958859336
 20
699.7528144334823
 30
0.0
 40
25.0
 41
0.0
 71
     5
 72
     1
  1
16
 11
0.0000000000000001
 21
1.0
 31
0.0
 73
     1
 44
1.0
1001
ACAD
1000
MTEXTBEGIN
1070
    73
1070
     1
1070
    44
1040
1.0
1070
    74
1070
     0
1000
MTEXTEND
  0
POINT
  5
168E
330
154F
100
AcDbEntity
  8
Defpoints
 62
     0
100
AcDbPoint
 10
2009.886404013435
 20
774.4715837531739
 30
0.0
  0
POINT
  5
168F
330
154F
100
AcDbEntity
  8
Defpoints
 62
     0
100
AcDbPoint
 10
2009.886404013435
 20
625.0340451137899
 30
0.0
  0
POINT
  5
1690
330
154F
100
AcDbEntity
  8
Defpoints
 62
     0
100
AcDbPoint
 10
1877.905958859336
 20
625.0340451137899
 30
0.0
  0
ENDBLK
  5
155A
330
154F
100
AcDbEntity
  8
0
100
AcDbBlockEnd
  0
BLOCK
  5
1565
330
155B
100
AcDbEntity
  8
0
100
AcDbBlockBegin
  2
*D23
 70
     1
 10
0.0
 20
0.0
 30
0.0
  3
*D23
  1

  0
LINE
  5
167F
330
155B
100
AcDbEntity
  8
寸法
 62
     0
370
    15
100
AcDbLine
 10
2216.683327312664
 20
774.4715837531739
 30
0.0
 11
2246.839174281514
 21
774.4715837531739
 31
0.0
  0
LINE
  5
1680
330
155B
100
AcDbEntity
  8
寸法
 62
     0
370
    15
100
AcDbLine
 10
2216.683327312664
 20
634.3738912787515
 30
0.0
 11
2246.839174281514
 21
634.3738912787515
 31
0.0
  0
LINE
  5
1681
330
155B
100
AcDbEntity
  8
寸法
 62
     0
370
    15
100
AcDbLine
 10
2246.839174281514
 20
774.4715837531739
 30
0.0
 11
2246.839174281514
 21
634.3738912787515
 31
0.0
  0
INSERT
  5
1682
330
155B
100
AcDbEntity
  8
寸法
 62
     0
370
    15
100
AcDbBlockReference
  2
_DotSmall
 10
2246.839174281514
 20
774.4715837531739
 30
0.0
 41
40.0
 42
40.0
 43
40.0
 50
90.0
  0
INSERT
  5
1683
330
155B
100
AcDbEntity
  8
寸法
 62
     0
370
    15
100
AcDbBlockReference
  2
_DotSmall
 10
2246.839174281514
 20
634.3738912787515
 30
0.0
 41
40.0
 42
40.0
 43
40.0
 50
270.0
  0
MTEXT
  5
1684
330
155B
100
AcDbEntity
  8
寸法
 62
     0
100
AcDbMText
 10
2228.089174281514
 20
720.792991391303
 30
0.0
 40
25.0
 41
0.0
 71
     5
 72
     1
  1
15
 11
0.0000000000000001
 21
1.0
 31
0.0
 73
     1
 44
1.0
1001
ACAD
1000
MTEXTBEGIN
1070
    73
1070
     1
1070
    44
1040
1.0
1070
    74
1070
     0
1000
MTEXTEND
  0
POINT
  5
1685
330
155B
100
AcDbEntity
  8
Defpoints
 62
     0
100
AcDbPoint
 10
2196.683327312664
 20
774.4715837531739
 30
0.0
  0
POINT
  5
1686
330
155B
100
AcDbEntity
  8
Defpoints
 62
     0
100
AcDbPoint
 10
2196.683327312664
 20
634.3738912787515
 30
0.0
  0
POINT
  5
1687
330
155B
100
AcDbEntity
  8
Defpoints
 62
     0
100
AcDbPoint
 10
2246.839174281514
 20
634.3738912787515
 30
0.0
  0
ENDBLK
  5
1566
330
155B
100
AcDbEntity
  8
0
100
AcDbBlockEnd
  0
BLOCK
  5
1571
330
1567
100
AcDbEntity
  8
0
100
AcDbBlockBegin
  2
*D24
 70
     1
 10
0.0
 20
0.0
 30
0.0
  3
*D24
  1

  0
LINE
  5
16A3
330
1567
100
AcDbEntity
  8
寸法
 62
     0
370
    15
100
AcDbLine
 10
2119.522113338374
 20
580.0340451137899
 30
0.0
 11
2119.522113338374
 21
558.0230603015579
 31
0.0
  0
LINE
  5
16A4
330
1567
100
AcDbEntity
  8
寸法
 62
     0
370
    15
100
AcDbLine
 10
2009.886404013435
 20
580.0340451137899
 30
0.0
 11
2009.886404013435
 21
558.0230603015579
 31
0.0
  0
LINE
  5
16A5
330
1567
100
AcDbEntity
  8
寸法
 62
     0
370
    15
100
AcDbLine
 10
2119.522113338374
 20
558.0230603015579
 30
0.0
 11
2009.886404013435
 21
558.0230603015579
 31
0.0
  0
INSERT
  5
16A6
330
1567
100
AcDbEntity
  8
寸法
 62
     0
370
    15
100
AcDbBlockReference
  2
_DotSmall
 10
2119.522113338374
 20
558.0230603015579
 30
0.0
 41
40.0
 42
40.0
 43
40.0
  0
INSERT
  5
16A7
330
1567
100
AcDbEntity
  8
寸法
 62
     0
370
    15
100
AcDbBlockReference
  2
_DotSmall
 10
2009.886404013435
 20
558.0230603015579
 30
0.0
 41
40.0
 42
40.0
 43
40.0
 50
180.0
  0
MTEXT
  5
16A8
330
1567
100
AcDbEntity
  8
寸法
 62
     0
100
AcDbMText
 10
2064.704258675905
 20
576.7730603015579
 30
0.0
 40
25.0
 41
0.0
 71
     5
 72
     1
  1
12
 73
     1
 44
1.0
1001
ACAD
1000
MTEXTBEGIN
1070
    73
1070
     1
1070
    44
1040
1.0
1070
    74
1070
     0
1000
MTEXTEND
  0
POINT
  5
16A9
330
1567
100
AcDbEntity
  8
Defpoints
 62
     0
100
AcDbPoint
 10
2119.522113338374
 20
625.0340451137899
 30
0.0
  0
POINT
  5
16AA
330
1567
100
AcDbEntity
  8
Defpoints
 62
     0
100
AcDbPoint
 10
2009.886404013435
 20
625.0340451137899
 30
0.0
  0
POINT
  5
16AB
330
1567
100
AcDbEntity
  8
Defpoints
 62
     0
100
AcDbPoint
 10
2009.886404013435
 20
558.0230603015579
 30
0.0
  0
ENDBLK
  5
1572
330
1567
100
AcDbEntity
  8
0
100
AcDbBlockEnd
  0
BLOCK
  5
157D
330
1573
100
AcDbEntity
  8
0
100
AcDbBlockBegin
  2
*D25
 70
     1
 10
0.0
 20
0.0
 30
0.0
  3
*D25
  1

  0
LINE
  5
1676
330
1573
100
AcDbEntity
  8
寸法
 62
     0
370
    15
100
AcDbLine
 10
2196.683327312664
 20
654.3738912787514
 30
0.0
 11
2196.683327312664
 21
674.4412907880732
 31
0.0
  0
LINE
  5
1677
330
1573
100
AcDbEntity
  8
寸法
 62
     0
370
    15
100
AcDbLine
 10
2383.480250611893
 20
654.3738912787514
 30
0.0
 11
2383.480250611893
 21
674.4412907880732
 31
0.0
  0
LINE
  5
1678
330
1573
100
AcDbEntity
  8
寸法
 62
     0
370
    15
100
AcDbLine
 10
2196.683327312664
 20
674.4412907880732
 30
0.0
 11
2383.480250611893
 21
674.4412907880732
 31
0.0
  0
INSERT
  5
1679
330
1573
100
AcDbEntity
  8
寸法
 62
     0
370
    15
100
AcDbBlockReference
  2
_DotSmall
 10
2196.683327312664
 20
674.4412907880732
 30
0.0
 41
40.0
 42
40.0
 43
40.0
 50
180.0
  0
INSERT
  5
167A
330
1573
100
AcDbEntity
  8
寸法
 62
     0
370
    15
100
AcDbBlockReference
  2
_DotSmall
 10
2383.480250611893
 20
674.4412907880732
 30
0.0
 41
40.0
 42
40.0
 43
40.0
  0
MTEXT
  5
167B
330
1573
100
AcDbEntity
  8
寸法
 62
     0
100
AcDbMText
 10
2319.115562196582
 20
693.1912907880732
 30
0.0
 40
25.0
 41
0.0
 71
     5
 72
     1
  1
20
 73
     1
 44
1.0
1001
ACAD
1000
MTEXTBEGIN
1070
    73
1070
     1
1070
    44
1040
1.0
1070
    74
1070
     0
1000
MTEXTEND
  0
POINT
  5
167C
330
1573
100
AcDbEntity
  8
Defpoints
 62
     0
100
AcDbPoint
 10
2196.683327312664
 20
634.3738912787515
 30
0.0
  0
POINT
  5
167D
330
1573
100
AcDbEntity
  8
Defpoints
 62
     0
100
AcDbPoint
 10
2383.480250611893
 20
634.3738912787515
 30
0.0
  0
POINT
  5
167E
330
1573
100
AcDbEntity
  8
Defpoints
 62
     0
100
AcDbPoint
 10
2383.480250611893
 20
674.4412907880732
 30
0.0
  0
ENDBLK
  5
157E
330
1573
100
AcDbEntity
  8
0
100
AcDbBlockEnd
  0
BLOCK
  5
1595
330
158B
100
AcDbEntity
  8
0
100
AcDbBlockBegin
  2
*D26
 70
     1
 10
0.0
 20
0.0
 30
0.0
  3
*D26
  1

  0
LINE
  5
16EB
330
158B
100
AcDbEntity
  8
寸法
 62
     0
370
    15
100
AcDbLine
 10
2009.886404013435
 20
819.471583753174
 30
0.0
 11
2009.886404013435
 21
893.2644428930197
 31
0.0
  0
LINE
  5
16EC
330
158B
100
AcDbEntity
  8
寸法
 62
     0
370
    15
100
AcDbLine
 10
2196.683327312664
 20
819.471583753174
 30
0.0
 11
2196.683327312664
 21
893.2644428930197
 31
0.0
  0
LINE
  5
16ED
330
158B
100
AcDbEntity
  8
寸法
 62
     0
370
    15
100
AcDbLine
 10
2009.886404013435
 20
893.2644428930197
 30
0.0
 11
2196.683327312664
 21
893.2644428930197
 31
0.0
  0
INSERT
  5
16EE
330
158B
100
AcDbEntity
  8
寸法
 62
     0
370
    15
100
AcDbBlockReference
  2
_DotSmall
 10
2009.886404013435
 20
893.2644428930197
 30
0.0
 41
40.0
 42
40.0
 43
40.0
 50
180.0
  0
INSERT
  5
16EF
330
158B
100
AcDbEntity
  8
寸法
 62
     0
370
    15
100
AcDbBlockReference
  2
_DotSmall
 10
2196.683327312664
 20
893.2644428930197
 30
0.0
 41
40.0
 42
40.0
 43
40.0
  0
MTEXT
  5
16F0
330
158B
100
AcDbEntity
  8
寸法
 62
     0
100
AcDbMText
 10
2103.28486566305
 20
912.0144428930197
 30
0.0
 40
25.0
 41
0.0
 71
     5
 72
     1
  1
20
 73
     1
 44
1.0
1001
ACAD
1000
MTEXTBEGIN
1070
    73
1070
     1
1070
    44
1040
1.0
1070
    74
1070
     0
1000
MTEXTEND
  0
POINT
  5
16F1
330
158B
100
AcDbEntity
  8
Defpoints
 62
     0
100
AcDbPoint
 10
2009.886404013435
 20
774.4715837531739
 30
0.0
  0
POINT
  5
16F2
330
158B
100
AcDbEntity
  8
Defpoints
 62
     0
100
AcDbPoint
 10
2196.683327312664
 20
774.4715837531739
 30
0.0
  0
POINT
  5
16F3
330
158B
100
AcDbEntity
  8
Defpoints
 62
     0
100
AcDbPoint
 10
2196.683327312664
 20
893.2644428930197
 30
0.0
  0
ENDBLK
  5
1596
330
158B
100
AcDbEntity
  8
0
100
AcDbBlockEnd
  0
BLOCK
  5
15A1
330
1597
100
AcDbEntity
  8
0
100
AcDbBlockBegin
  2
*D27
 70
     1
 10
0.0
 20
0.0
 30
0.0
  3
*D27
  1

  0
LINE
  5
1724
330
1597
100
AcDbEntity
  8
寸法
 62
     0
370
    15
100
AcDbLine
 10
1964.886404013435
 20
774.4715837531739
 30
0.0
 11
1930.764807385841
 21
774.4715837531739
 31
0.0
  0
LINE
  5
1725
330
1597
100
AcDbEntity
  8
寸法
 62
     0
370
    15
100
AcDbLine
 10
1964.886404013435
 20
727.7715837531738
 30
0.0
 11
1930.764807385841
 21
727.7715837531738
 31
0.0
  0
LINE
  5
1726
330
1597
100
AcDbEntity
  8
寸法
 62
     0
370
    15
100
AcDbLine
 10
1930.764807385841
 20
774.4715837531739
 30
0.0
 11
1930.764807385841
 21
727.7715837531738
 31
0.0
  0
MTEXT
  5
1727
330
1597
100
AcDbEntity
  8
寸法
 62
     0
100
AcDbMText
 10
1904.874757614466
 20
751.7156383900855
 30
0.0
 40
25.0
 41
0.0
 71
     5
 72
     1
  1
5
 11
0.0000000000000001
 21
1.0
 31
0.0
 73
     1
 44
1.0
1001
ACAD
1000
MTEXTBEGIN
1070
    73
1070
     1
1070
    44
1040
1.0
1070
    74
1070
     0
1000
MTEXTEND
  0
INSERT
  5
1728
330
1597
100
AcDbEntity
  8
寸法
 62
     0
370
    15
100
AcDbBlockReference
  2
_DotSmall
 10
1930.764807385841
 20
774.4715837531739
 30
0.0
 41
40.0
 42
40.0
 43
40.0
 50
90.0
  0
INSERT
  5
1729
330
1597
100
AcDbEntity
  8
寸法
 62
     0
370
    15
100
AcDbBlockReference
  2
_DotSmall
 10
1930.764807385841
 20
727.7715837531738
 30
0.0
 41
40.0
 42
40.0
 43
40.0
 50
270.0
  0
POINT
  5
172A
330
1597
100
AcDbEntity
  8
Defpoints
 62
     0
100
AcDbPoint
 10
2009.886404013435
 20
774.4715837531739
 30
0.0
  0
POINT
  5
172B
330
1597
100
AcDbEntity
  8
Defpoints
 62
     0
100
AcDbPoint
 10
2009.886404013435
 20
727.7715837531738
 30
0.0
  0
POINT
  5
172C
330
1597
100
AcDbEntity
  8
Defpoints
 62
     0
100
AcDbPoint
 10
1930.764807385841
 20
727.7715837531738
 30
0.0
  0
ENDBLK
  5
15A2
330
1597
100
AcDbEntity
  8
0
100
AcDbBlockEnd
  0
BLOCK
  5
15AD
330
15A3
100
AcDbEntity
  8
0
100
AcDbBlockBegin
  2
*D28
 70
     1
 10
0.0
 20
0.0
 30
0.0
  3
*D28
  1

  0
LINE
  5
16E2
330
15A3
100
AcDbEntity
  8
寸法
 62
     0
370
    15
100
AcDbLine
 10
2009.886404013435
 20
819.471583753174
 30
0.0
 11
2009.886404013435
 21
846.91274228979
 31
0.0
  0
LINE
  5
16E3
330
15A3
100
AcDbEntity
  8
寸法
 62
     0
370
    15
100
AcDbLine
 10
2056.585634838242
 20
819.471583753174
 30
0.0
 11
2056.585634838242
 21
846.91274228979
 31
0.0
  0
LINE
  5
16E4
330
15A3
100
AcDbEntity
  8
寸法
 62
     0
370
    15
100
AcDbLine
 10
2009.886404013435
 20
846.91274228979
 30
0.0
 11
2056.585634838242
 21
846.91274228979
 31
0.0
  0
INSERT
  5
16E5
330
15A3
100
AcDbEntity
  8
寸法
 62
     0
370
    15
100
AcDbBlockReference
  2
_DotSmall
 10
2009.886404013435
 20
846.91274228979
 30
0.0
 41
40.0
 42
40.0
 43
40.0
 50
180.0
  0
INSERT
  5
16E6
330
15A3
100
AcDbEntity
  8
寸法
 62
     0
370
    15
100
AcDbBlockReference
  2
_DotSmall
 10
2056.585634838242
 20
846.91274228979
 30
0.0
 41
40.0
 42
40.0
 43
40.0
  0
MTEXT
  5
16E7
330
15A3
100
AcDbEntity
  8
寸法
 62
     0
100
AcDbMText
 10
2033.236019425838
 20
865.66274228979
 30
0.0
 40
25.0
 41
0.0
 71
     5
 72
     1
  1
5
 73
     1
 44
1.0
1001
ACAD
1000
MTEXTBEGIN
1070
    73
1070
     1
1070
    44
1040
1.0
1070
    74
1070
     0
1000
MTEXTEND
  0
POINT
  5
16E8
330
15A3
100
AcDbEntity
  8
Defpoints
 62
     0
100
AcDbPoint
 10
2009.886404013435
 20
774.4715837531739
 30
0.0
  0
POINT
  5
16E9
330
15A3
100
AcDbEntity
  8
Defpoints
 62
     0
100
AcDbPoint
 10
2056.585634838242
 20
774.4715837531739
 30
0.0
  0
POINT
  5
16EA
330
15A3
100
AcDbEntity
  8
Defpoints
 62
     0
100
AcDbPoint
 10
2056.585634838242
 20
846.91274228979
 30
0.0
  0
ENDBLK
  5
15AE
330
15A3
100
AcDbEntity
  8
0
100
AcDbBlockEnd
  0
BLOCK
  5
185F
330
1855
100
AcDbEntity
  8
0
100
AcDbBlockBegin
  2
*D29
 70
     1
 10
0.0
 20
0.0
 30
0.0
  3
*D29
  1

  0
LINE
  5
1BF7
330
1855
100
AcDbEntity
  8
実形
 62
     0
370
    18
100
AcDbLine
 10
800.5905346112649
 20
1304.184164290476
 30
0.0
 11
800.5905346112649
 21
1274.827676345139
 31
0.0
  0
LINE
  5
1BF8
330
1855
100
AcDbEntity
  8
実形
 62
     0
370
    18
100
AcDbLine
 10
950.5905346112648
 20
1304.184164290476
 30
0.0
 11
950.5905346112648
 21
1274.827676345139
 31
0.0
  0
LINE
  5
1BF9
330
1855
100
AcDbEntity
  8
実形
 62
     0
370
    18
100
AcDbLine
 10
800.5905346112649
 20
1274.827676345139
 30
0.0
 11
950.5905346112648
 21
1274.827676345139
 31
0.0
  0
INSERT
  5
1BFA
330
1855
100
AcDbEntity
  8
実形
 62
     0
370
    18
100
AcDbBlockReference
  2
_DotSmall
 10
800.5905346112649
 20
1274.827676345139
 30
0.0
 41
35.0
 42
35.0
 43
35.0
 50
180.0
  0
INSERT
  5
1BFB
330
1855
100
AcDbEntity
  8
実形
 62
     0
370
    18
100
AcDbBlockReference
  2
_DotSmall
 10
950.5905346112648
 20
1274.827676345139
 30
0.0
 41
35.0
 42
35.0
 43
35.0
  0
MTEXT
  5
1BFC
330
1855
100
AcDbEntity
  8
実形
 62
     0
100
AcDbMText
 10
875.5905346112649
 20
1293.577676345139
 30
0.0
 40
25.0
 41
0.0
 71
     5
 72
     1
  1
150
 73
     1
 44
1.0
1001
ACAD
1000
MTEXTBEGIN
1070
    73
1070
     1
1070
    44
1040
1.0
1070
    74
1070
     0
1000
MTEXTEND
  0
POINT
  5
1BFD
330
1855
100
AcDbEntity
  8
Defpoints
 62
     0
100
AcDbPoint
 10
800.5905346112649
 20
1369.184164290476
 30
0.0
  0
POINT
  5
1BFE
330
1855
100
AcDbEntity
  8
Defpoints
 62
     0
100
AcDbPoint
 10
950.5905346112648
 20
1369.184164290476
 30
0.0
  0
POINT
  5
1BFF
330
1855
100
AcDbEntity
  8
Defpoints
 62
     0
100
AcDbPoint
 10
950.5905346112648
 20
1274.827676345139
 30
0.0
  0
ENDBLK
  5
1860
330
1855
100
AcDbEntity
  8
0
100
AcDbBlockEnd
  0
BLOCK
  5
1AD1
330
1ACC
100
AcDbEntity
  8
0
100
AcDbBlockBegin
  2
*D30
 70
     1
 10
0.0
 20
0.0
 30
0.0
  3
*D30
  1

  0
MTEXT
  5
1B13
330
1ACC
100
AcDbEntity
  8
実形
 62
     0
100
AcDbMText
 10
630.472235767731
 20
801.485070803409
 30
0.0
 40
25.0
 41
0.0
 71
     5
 72
     1
  1
15
 11
0.0000000000000001
 21
1.0
 31
0.0
 73
     1
 44
1.0
1001
ACAD
1000
MTEXTBEGIN
1070
    73
1070
     1
1070
    44
1040
1.0
1070
    74
1070
     0
1000
MTEXTEND
  0
POINT
  5
1B14
330
1ACC
100
AcDbEntity
  8
Defpoints
 62
     0
100
AcDbPoint
 10
760.709207944672
 20
828.2294781858409
 30
0.0
  0
POINT
  5
1B15
330
1ACC
100
AcDbEntity
  8
Defpoints
 62
     0
100
AcDbPoint
 10
760.709207944672
 20
628.2294781858403
 30
0.0
  0
POINT
  5
1B16
330
1ACC
100
AcDbEntity
  8
Defpoints
 62
     0
100
AcDbPoint
 10
652.3574685811927
 20
628.2294781858403
 30
0.0
  0
ENDBLK
  5
1AD2
330
1ACC
100
AcDbEntity
  8
0
100
AcDbBlockEnd
  0
BLOCK
  5
1ADD
330
1AD3
100
AcDbEntity
  8
0
100
AcDbBlockBegin
  2
*D31
 70
     1
 10
0.0
 20
0.0
 30
0.0
  3
*D31
  1

  0
LINE
  5
1BCA
330
1AD3
100
AcDbEntity
  8
実形
 62
     0
370
    18
100
AcDbLine
 10
695.709207944672
 20
813.2294781858414
 30
0.0
 11
652.3574685811929
 21
813.2294781858414
 31
0.0
  0
LINE
  5
1BCB
330
1AD3
100
AcDbEntity
  8
実形
 62
     0
370
    18
100
AcDbLine
 10
695.7092079446717
 20
633.2294781858409
 30
0.0
 11
652.3574685811927
 21
633.2294781858409
 31
0.0
  0
LINE
  5
1BCC
330
1AD3
100
AcDbEntity
  8
実形
 62
     0
370
    18
100
AcDbLine
 10
652.3574685811929
 20
813.2294781858414
 30
0.0
 11
652.3574685811927
 21
633.2294781858409
 31
0.0
  0
INSERT
  5
1BCD
330
1AD3
100
AcDbEntity
  8
実形
 62
     0
370
    18
100
AcDbBlockReference
  2
_DotSmall
 10
652.3574685811929
 20
813.2294781858414
 30
0.0
 41
35.0
 42
35.0
 43
35.0
 50
90.0
  0
INSERT
  5
1BCE
330
1AD3
100
AcDbEntity
  8
実形
 62
     0
370
    18
100
AcDbBlockReference
  2
_DotSmall
 10
652.3574685811927
 20
633.2294781858409
 30
0.0
 41
35.0
 42
35.0
 43
35.0
 50
270.0
  0
MTEXT
  5
1BCF
330
1AD3
100
AcDbEntity
  8
実形
 62
     0
100
AcDbMText
 10
633.6074685811926
 20
723.2294781858412
 30
0.0
 40
25.0
 41
0.0
 71
     5
 72
     1
  1
180
 11
0.0000000000000001
 21
1.0
 31
0.0
 73
     1
 44
1.0
1001
ACAD
1000
MTEXTBEGIN
1070
    73
1070
     1
1070
    44
1040
1.0
1070
    74
1070
     0
1000
MTEXTEND
  0
POINT
  5
1BD0
330
1AD3
100
AcDbEntity
  8
Defpoints
 62
     0
100
AcDbPoint
 10
760.709207944672
 20
813.2294781858414
 30
0.0
  0
POINT
  5
1BD1
330
1AD3
100
AcDbEntity
  8
Defpoints
 62
     0
100
AcDbPoint
 10
760.7092079446718
 20
633.2294781858409
 30
0.0
  0
POINT
  5
1BD2
330
1AD3
100
AcDbEntity
  8
Defpoints
 62
     0
100
AcDbPoint
 10
652.3574685811927
 20
633.2294781858409
 30
0.0
  0
ENDBLK
  5
1ADE
330
1AD3
100
AcDbEntity
  8
0
100
AcDbBlockEnd
  0
BLOCK
  5
1AE9
330
1ADF
100
AcDbEntity
  8
0
100
AcDbBlockBegin
  2
*D32
 70
     1
 10
0.0
 20
0.0
 30
0.0
  3
*D32
  1

  0
LINE
  5
1BD3
330
1ADF
100
AcDbEntity
  8
実形
 62
     0
370
    18
100
AcDbLine
 10
695.7092079446717
 20
828.2294781858409
 30
0.0
 11
604.1349034143315
 21
828.2294781858409
 31
0.0
  0
LINE
  5
1BD4
330
1ADF
100
AcDbEntity
  8
実形
 62
     0
370
    18
100
AcDbLine
 10
695.7092079446717
 20
633.2294781858409
 30
0.0
 11
604.1349034143313
 21
633.2294781858409
 31
0.0
  0
LINE
  5
1BD5
330
1ADF
100
AcDbEntity
  8
実形
 62
     0
370
    18
100
AcDbLine
 10
604.1349034143315
 20
828.2294781858409
 30
0.0
 11
604.1349034143313
 21
633.2294781858409
 31
0.0
  0
MTEXT
  5
1BD6
330
1ADF
100
AcDbEntity
  8
実形
 62
     0
100
AcDbMText
 10
582.2100352548168
 20
716.0852004440721
 30
0.0
 40
25.0
 41
0.0
 71
     5
 72
     1
  1
195
 11
0.0000000000000001
 21
1.0
 31
0.0
 73
     1
 44
1.0
1001
ACAD
1000
MTEXTBEGIN
1070
    73
1070
     1
1070
    44
1040
1.0
1070
    74
1070
     0
1000
MTEXTEND
  0
INSERT
  5
1BD7
330
1ADF
100
AcDbEntity
  8
実形
 62
     0
370
    18
100
AcDbBlockReference
  2
_DotSmall
 10
604.1349034143315
 20
828.2294781858409
 30
0.0
 41
35.0
 42
35.0
 43
35.0
 50
90.0
  0
INSERT
  5
1BD8
330
1ADF
100
AcDbEntity
  8
実形
 62
     0
370
    18
100
AcDbBlockReference
  2
_DotSmall
 10
604.1349034143313
 20
633.2294781858409
 30
0.0
 41
35.0
 42
35.0
 43
35.0
 50
270.0
  0
POINT
  5
1BD9
330
1ADF
100
AcDbEntity
  8
Defpoints
 62
     0
100
AcDbPoint
 10
760.7092079446718
 20
828.2294781858409
 30
0.0
  0
POINT
  5
1BDA
330
1ADF
100
AcDbEntity
  8
Defpoints
 62
     0
100
AcDbPoint
 10
760.7092079446718
 20
633.2294781858409
 30
0.0
  0
POINT
  5
1BDB
330
1ADF
100
AcDbEntity
  8
Defpoints
 62
     0
100
AcDbPoint
 10
604.1349034143313
 20
633.2294781858409
 30
0.0
  0
ENDBLK
  5
1AEA
330
1ADF
100
AcDbEntity
  8
0
100
AcDbBlockEnd
  0
BLOCK
  5
1AF2
330
1AEB
100
AcDbEntity
  8
0
100
AcDbBlockBegin
  2
*D33
 70
     1
 10
0.0
 20
0.0
 30
0.0
  3
*D33
  1

  0
LINE
  5
1BDC
330
1AEB
100
AcDbEntity
  8
実形
 62
     0
370
    18
100
AcDbLine
 10
650.822777476698
 20
828.2294781858409
 30
0.0
 11
604.1349034143315
 21
828.2294781858409
 31
0.0
  0
LINE
  5
1BDD
330
1AEB
100
AcDbEntity
  8
実形
 62
     0
370
    18
100
AcDbLine
 10
642.9748287269449
 20
618.2294781858407
 30
0.0
 11
604.1349034143313
 21
618.2294781858407
 31
0.0
  0
MTEXT
  5
1BDE
330
1AEB
100
AcDbEntity
  8
実形
 62
     0
100
AcDbMText
 10
580.2316810486863
 20
642.0227043425074
 30
0.0
 40
25.0
 41
0.0
 71
     5
 72
     1
  1
15
 11
0.0000000000000001
 21
1.0
 31
0.0
 73
     1
 44
1.0
1001
ACAD
1000
MTEXTBEGIN
1070
    73
1070
     1
1070
    44
1040
1.0
1070
    74
1070
     0
1000
MTEXTEND
  0
POINT
  5
1BDF
330
1AEB
100
AcDbEntity
  8
Defpoints
 62
     0
100
AcDbPoint
 10
715.8227774766981
 20
828.2294781858409
 30
0.0
  0
POINT
  5
1BE0
330
1AEB
100
AcDbEntity
  8
Defpoints
 62
     0
100
AcDbPoint
 10
707.9748287269449
 20
618.2294781858407
 30
0.0
  0
POINT
  5
1BE1
330
1AEB
100
AcDbEntity
  8
Defpoints
 62
     0
100
AcDbPoint
 10
604.1349034143313
 20
618.2294781858407
 30
0.0
  0
ENDBLK
  5
1AF3
330
1AEB
100
AcDbEntity
  8
0
100
AcDbBlockEnd
  0
BLOCK
  5
1AFE
330
1AF4
100
AcDbEntity
  8
0
100
AcDbBlockBegin
  2
*D34
 70
     1
 10
0.0
 20
0.0
 30
0.0
  3
*D34
  1

  0
LINE
  5
1B2F
330
1AF4
100
AcDbEntity
  8
実形
 62
     0
370
    18
100
AcDbLine
 10
650.8227774766983
 20
828.2294781858409
 30
0.0
 11
551.5871404308382
 21
828.2294781858409
 31
0.0
  0
LINE
  5
1B30
330
1AF4
100
AcDbEntity
  8
実形
 62
     0
370
    18
100
AcDbLine
 10
620.1934316750976
 20
618.2294781858407
 30
0.0
 11
551.5871404308382
 21
618.2294781858407
 31
0.0
  0
LINE
  5
1B31
330
1AF4
100
AcDbEntity
  8
実形
 62
     0
370
    18
100
AcDbLine
 10
551.5871404308382
 20
828.2294781858409
 30
0.0
 11
551.5871404308382
 21
618.2294781858407
 31
0.0
  0
INSERT
  5
1B32
330
1AF4
100
AcDbEntity
  8
実形
 62
     0
370
    18
100
AcDbBlockReference
  2
_DotSmall
 10
551.5871404308382
 20
828.2294781858409
 30
0.0
 41
35.0
 42
35.0
 43
35.0
 50
90.0
  0
INSERT
  5
1B33
330
1AF4
100
AcDbEntity
  8
実形
 62
     0
370
    18
100
AcDbBlockReference
  2
_DotSmall
 10
551.5871404308382
 20
618.2294781858407
 30
0.0
 41
35.0
 42
35.0
 43
35.0
 50
270.0
  0
MTEXT
  5
1B34
330
1AF4
100
AcDbEntity
  8
実形
 62
     0
100
AcDbMText
 10
532.8371404308381
 20
723.2294781858408
 30
0.0
 40
25.0
 41
0.0
 71
     5
 72
     1
  1
210
 11
0.0000000000000001
 21
1.0
 31
0.0
 73
     1
 44
1.0
1001
ACAD
1000
MTEXTBEGIN
1070
    73
1070
     1
1070
    44
1040
1.0
1070
    74
1070
     0
1000
MTEXTEND
  0
POINT
  5
1B35
330
1AF4
100
AcDbEntity
  8
Defpoints
 62
     0
100
AcDbPoint
 10
715.8227774766983
 20
828.2294781858409
 30
0.0
  0
POINT
  5
1B36
330
1AF4
100
AcDbEntity
  8
Defpoints
 62
     0
100
AcDbPoint
 10
685.1934316750976
 20
618.2294781858407
 30
0.0
  0
POINT
  5
1B37
330
1AF4
100
AcDbEntity
  8
Defpoints
 62
     0
100
AcDbPoint
 10
551.5871404308382
 20
618.2294781858407
 30
0.0
  0
ENDBLK
  5
1AFF
330
1AF4
100
AcDbEntity
  8
0
100
AcDbBlockEnd
  0
BLOCK
  5
1B05
330
1B00
100
AcDbEntity
  8
0
100
AcDbBlockBegin
  2
*D35
 70
     1
 10
0.0
 20
0.0
 30
0.0
  3
*D35
  1

  0
MTEXT
  5
1B38
330
1B00
100
AcDbEntity
  8
実形
 62
     0
100
AcDbMText
 10
529.5360875745554
 20
619.8282915417021
 30
0.0
 40
25.0
 41
0.0
 71
     5
 72
     1
  1
8
 11
0.0000000000000001
 21
1.0
 31
0.0
 73
     1
 44
1.0
1001
ACAD
1000
MTEXTBEGIN
1070
    73
1070
     1
1070
    44
1040
1.0
1070
    74
1070
     0
1000
MTEXTEND
  0
POINT
  5
1B39
330
1B00
100
AcDbEntity
  8
Defpoints
 62
     0
100
AcDbPoint
 10
715.8227774766983
 20
828.2294781858409
 30
0.0
  0
POINT
  5
1B3A
330
1B00
100
AcDbEntity
  8
Defpoints
 62
     0
100
AcDbPoint
 10
704.1199431009808
 20
608.2294781858412
 30
0.0
  0
POINT
  5
1B3B
330
1B00
100
AcDbEntity
  8
Defpoints
 62
     0
100
AcDbPoint
 10
551.5871404308382
 20
608.2294781858412
 30
0.0
  0
ENDBLK
  5
1B06
330
1B00
100
AcDbEntity
  8
0
100
AcDbBlockEnd
  0
BLOCK
  5
1B11
330
1B07
100
AcDbEntity
  8
0
100
AcDbBlockBegin
  2
*D36
 70
     1
 10
0.0
 20
0.0
 30
0.0
  3
*D36
  1

  0
LINE
  5
1B3C
330
1B07
100
AcDbEntity
  8
実形
 62
     0
370
    18
100
AcDbLine
 10
650.822777476698
 20
828.2294781858409
 30
0.0
 11
500.473779822325
 21
828.2294781858409
 31
0.0
  0
LINE
  5
1B3D
330
1B07
100
AcDbEntity
  8
実形
 62
     0
370
    18
100
AcDbLine
 10
559.7634795770118
 20
608.2294781858413
 30
0.0
 11
500.473779822325
 21
608.2294781858413
 31
0.0
  0
LINE
  5
1B3E
330
1B07
100
AcDbEntity
  8
実形
 62
     0
370
    18
100
AcDbLine
 10
500.473779822325
 20
828.2294781858409
 30
0.0
 11
500.473779822325
 21
608.2294781858413
 31
0.0
  0
INSERT
  5
1B3F
330
1B07
100
AcDbEntity
  8
実形
 62
     0
370
    18
100
AcDbBlockReference
  2
_DotSmall
 10
500.473779822325
 20
828.2294781858409
 30
0.0
 41
35.0
 42
35.0
 43
35.0
 50
90.0
  0
INSERT
  5
1B40
330
1B07
100
AcDbEntity
  8
実形
 62
     0
370
    18
100
AcDbBlockReference
  2
_DotSmall
 10
500.473779822325
 20
608.2294781858413
 30
0.0
 41
35.0
 42
35.0
 43
35.0
 50
270.0
  0
MTEXT
  5
1B41
330
1B07
100
AcDbEntity
  8
実形
 62
     0
100
AcDbMText
 10
481.7237798223249
 20
718.2294781858412
 30
0.0
 40
25.0
 41
0.0
 71
     5
 72
     1
  1
218
 11
0.0000000000000001
 21
1.0
 31
0.0
 73
     1
 44
1.0
1001
ACAD
1000
MTEXTBEGIN
1070
    73
1070
     1
1070
    44
1040
1.0
1070
    74
1070
     0
1000
MTEXTEND
  0
POINT
  5
1B42
330
1B07
100
AcDbEntity
  8
Defpoints
 62
     0
100
AcDbPoint
 10
715.8227774766981
 20
828.2294781858409
 30
0.0
  0
POINT
  5
1B43
330
1B07
100
AcDbEntity
  8
Defpoints
 62
     0
100
AcDbPoint
 10
624.7634795770117
 20
608.2294781858413
 30
0.0
  0
POINT
  5
1B44
330
1B07
100
AcDbEntity
  8
Defpoints
 62
     0
100
AcDbPoint
 10
500.473779822325
 20
608.2294781858413
 30
0.0
  0
ENDBLK
  5
1B12
330
1B07
100
AcDbEntity
  8
0
100
AcDbBlockEnd
  0
BLOCK
  5
1CFC
330
1CFB
100
AcDbEntity
  8
0
100
AcDbBlockBegin
  2
_Dot
 70
     0
 10
0.0
 20
0.0
 30
0.0
  3
_Dot
  1

  0
LWPOLYLINE
  5
1CFD
330
1CFB
100
AcDbEntity
  8
0
 62
     0
100
AcDbPolyline
 90
        2
 70
     1
 43
0.5
 10
-0.25
 20
0.0
 42
1.0
 10
0.25
 20
0.0
 42
1.0
  0
LINE
  5
1CFE
330
1CFB
100
AcDbEntity
  8
0
 62
     0
370
    -2
100
AcDbLine
 10
-0.5
 20
0.0
 30
0.0
 11
-1.0
 21
0.0
 31
0.0
  0
ENDBLK
  5
1CFF
330
1CFB
100
AcDbEntity
  8
0
100
AcDbBlockEnd
  0
ENDSEC
  0
SECTION
  2
ENTITIES
  0
LINE
  5
9C
330
1F
100
AcDbEntity
  8
補助
100
AcDbLine
 10
109.0
 20
4.0
 30
0.0
 11
2784.0
 21
4.0
 31
0.0
  0
LINE
  5
A0
330
1F
100
AcDbEntity
  8
補助
100
AcDbLine
 10
2784.0
 20
2024.0
 30
0.0
 11
109.0
 21
2024.0
 31
0.0
  0
LINE
  5
A5
330
1F
100
AcDbEntity
  8
補助
100
AcDbLine
 10
2784.0
 20
4.0
 30
0.0
 11
2784.0
 21
2024.0
 31
0.0
  0
LINE
  5
A8
330
1F
100
AcDbEntity
  8
補助
100
AcDbLine
 10
2184.0
 20
4.0
 30
0.0
 11
2184.0
 21
199.0
 31
0.0
  0
LINE
  5
A9
330
1F
100
AcDbEntity
  8
補助
100
AcDbLine
 10
2184.0
 20
69.0
 30
0.0
 11
2784.0
 21
69.0
 31
0.0
  0
LINE
  5
AA
330
1F
100
AcDbEntity
  8
補助
100
AcDbLine
 10
2184.0
 20
134.0
 30
0.0
 11
2784.0
 21
134.0
 31
0.0
  0
LINE
  5
AB
330
1F
100
AcDbEntity
  8
補助
100
AcDbLine
 10
2184.0
 20
199.0
 30
0.0
 11
2784.0
 21
199.0
 31
0.0
  0
LINE
  5
AD
330
1F
100
AcDbEntity
  8
補助
100
AcDbLine
 10
2784.0
 20
4.0
 30
0.0
 11
2784.0
 21
69.0
 31
0.0
  0
LINE
  5
272
330
1F
100
AcDbEntity
  8
補助
100
AcDbLine
 10
2184.0
 20
134.0
 30
0.0
 11
2184.0
 21
199.0
 31
0.0
  0
TEXT
  5
2C9
330
1F
100
AcDbEntity
  8
0
100
AcDbText
 10
2274.0
 20
149.0
 30
0.0
 40
35.0
  1
TBK860-510S-L
 72
     4
 11
2484.0
 21
166.5
 31
0.0
100
AcDbText
  0
TEXT
  5
8C9
330
1F
100
AcDbEntity
  8
0
100
AcDbText
 10
249.2632881086038
 20
83.52862940911927
 30
0.0
 40
30.0
  1
※実寸には製造上の誤差が多少生ずる場合があります。シンクの穴あけ加工は現物合わせにてお願いします。
100
AcDbText
  0
TEXT
  5
DB9
330
1F
100
AcDbEntity
  8
補助
100
AcDbText
 10
2360.255774665347
 20
16.49999999999999
 30
0.0
 40
40.0
  1
中外交易株式会社
 72
     4
 11
2548.255774665348
 21
36.5
 31
0.0
100
AcDbText
  0
LINE
  5
DBA
330
1F
100
AcDbEntity
  8
補助
100
AcDbLine
 10
2184.0
 20
69.0
 30
0.0
 11
2784.0
 21
69.0
 31
0.0
  0
HATCH
  5
DBB
330
1F
100
AcDbEntity
  8
補助
100
AcDbHatch
 10
0.0
 20
0.0
 30
0.0
210
0.0
220
0.0
230
1.0
  2
SOLID
 70
     1
 71
     1
 91
        3
 92
        1
 93
        4
 72
     2
 10
2317.166198313995
 20
36.5
 40
20.0
 50
11.647723667075
 51
342.6561058784676
 73
     1
 72
     1
 10
2336.256852341323
 20
30.53787547858514
 11
2312.166198313995
 21
30.53787547858519
 72
     1
 10
2312.166198313995
 20
30.53787547858519
 11
2312.166198313995
 21
40.53787547858519
 72
     1
 10
2312.166198313995
 20
40.53787547858519
 11
2336.75434681301
 21
40.53787547858519
 97
        4
330
DBC
330
DBE
330
DBF
330
DC0
 92
        1
 93
        4
 72
     2
 10
2248.255774665347
 20
36.5
 40
20.0
 50
11.647723667075
 51
342.6561058784676
 73
     1
 72
     1
 10
2267.346428692675
 20
30.53787547858514
 11
2243.255774665348
 21
30.53787547858519
 72
     1
 10
2243.255774665348
 20
30.53787547858519
 11
2243.255774665348
 21
40.53787547858519
 72
     1
 10
2243.255774665348
 20
40.53787547858519
 11
2267.843923164362
 21
40.53787547858519
 97
        4
330
DBD
330
DC6
330
DC7
330
DC8
 92
        1
 93
        5
 72
     1
 10
2305.64189404294
 20
56.5
 11
2270.64189404294
 21
56.5
 72
     1
 10
2270.64189404294
 20
56.5
 11
2270.64189404294
 21
16.5
 72
     1
 10
2270.64189404294
 20
16.5
 11
2305.64189404294
 21
16.5
 72
     1
 10
2305.64189404294
 20
16.5
 11
2270.64189404294
 21
36.5
 72
     1
 10
2270.64189404294
 20
36.5
 11
2305.64189404294
 21
56.5
 97
        5
330
DC1
330
DC5
330
DC4
330
DC3
330
DC2
 75
     0
 76
     1
 98
        1
 10
0.0
 20
0.0
  0
ARC
  5
DBC
102
{ACAD_REACTORS
330
DBB
102
}
330
1F
100
AcDbEntity
  8
補助
370
     5
100
AcDbCircle
 10
2317.166198313995
 20
36.5
 30
0.0
 40
20.0
100
AcDbArc
 50
11.647723667075
 51
342.6561058784676
  0
ARC
  5
DBD
102
{ACAD_REACTORS
330
DBB
102
}
330
1F
100
AcDbEntity
  8
補助
370
     5
100
AcDbCircle
 10
2248.255774665347
 20
36.5
 30
0.0
 40
20.0
100
AcDbArc
 50
11.647723667075
 51
342.6561058784676
  0
LINE
  5
DBE
102
{ACAD_REACTORS
330
DBB
102
}
330
1F
100
AcDbEntity
  8
補助
370
     5
100
AcDbLine
 10
2312.166198313995
 20
30.53787547858519
 30
0.0
 11
2336.256852341323
 21
30.53787547858514
 31
0.0
  0
LINE
  5
DBF
102
{ACAD_REACTORS
330
DBB
102
}
330
1F
100
AcDbEntity
  8
補助
370
     5
100
AcDbLine
 10
2312.166198313995
 20
40.53787547858519
 30
0.0
 11
2312.166198313995
 21
30.53787547858519
 31
0.0
  0
LINE
  5
DC0
102
{ACAD_REACTORS
330
DBB
102
}
330
1F
100
AcDbEntity
  8
補助
370
     5
100
AcDbLine
 10
2336.75434681301
 20
40.53787547858519
 30
0.0
 11
2312.166198313995
 21
40.53787547858519
 31
0.0
  0
LINE
  5
DC1
102
{ACAD_REACTORS
330
DBB
102
}
330
1F
100
AcDbEntity
  8
補助
370
     5
100
AcDbLine
 10
2305.64189404294
 20
56.5
 30
0.0
 11
2270.64189404294
 21
56.5
 31
0.0
  0
LINE
  5
DC2
102
{ACAD_REACTORS
330
DBB
102
}
330
1F
100
AcDbEntity
  8
補助
370
     5
100
AcDbLine
 10
2270.64189404294
 20
36.5
 30
0.0
 11
2305.64189404294
 21
56.5
 31
0.0
  0
LINE
  5
DC3
102
{ACAD_REACTORS
330
DBB
102
}
330
1F
100
AcDbEntity
  8
補助
370
     5
100
AcDbLine
 10
2305.64189404294
 20
16.5
 30
0.0
 11
2270.64189404294
 21
36.5
 31
0.0
  0
LINE
  5
DC4
102
{ACAD_REACTORS
330
DBB
102
}
330
1F
100
AcDbEntity
  8
補助
370
     5
100
AcDbLine
 10
2270.64189404294
 20
16.5
 30
0.0
 11
2305.64189404294
 21
16.5
 31
0.0
  0
LINE
  5
DC5
102
{ACAD_REACTORS
330
DBB
102
}
330
1F
100
AcDbEntity
  8
補助
370
     5
100
AcDbLine
 10
2270.64189404294
 20
56.5
 30
0.0
 11
2270.64189404294
 21
16.5
 31
0.0
  0
LINE
  5
DC6
102
{ACAD_REACTORS
330
DBB
102
}
330
1F
100
AcDbEntity
  8
補助
370
     5
100
AcDbLine
 10
2243.255774665348
 20
30.53787547858519
 30
0.0
 11
2267.346428692675
 21
30.53787547858514
 31
0.0
  0
LINE
  5
DC7
102
{ACAD_REACTORS
330
DBB
102
}
330
1F
100
AcDbEntity
  8
補助
370
     5
100
AcDbLine
 10
2243.255774665348
 20
40.53787547858519
 30
0.0
 11
2243.255774665348
 21
30.53787547858519
 31
0.0
  0
LINE
  5
DC8
102
{ACAD_REACTORS
330
DBB
102
}
330
1F
100
AcDbEntity
  8
補助
370
     5
100
AcDbLine
 10
2267.843923164362
 20
40.53787547858519
 30
0.0
 11
2243.255774665348
 21
40.53787547858519
 31
0.0
  0
LINE
  5
11C2
330
1F
100
AcDbEntity
  8
実形
100
AcDbLine
 10
800.5905346112649
 20
813.2294781858409
 30
0.0
 11
1580.590534611265
 21
813.2294781858409
 31
0.0
  0
LINE
  5
11C3
330
1F
100
AcDbEntity
  8
実形
100
AcDbLine
 10
1041.090534611267
 20
618.2294781858408
 30
0.0
 11
860.090534611265
 21
618.2294781858408
 31
0.0
  0
LINE
  5
11C4
330
1F
100
AcDbEntity
  8
実形
100
AcDbLine
 10
760.5905346112649
 20
828.2294781858409
 30
0.0
 11
1620.590534611265
 21
828.2294781858409
 31
0.0
  0
DIMENSION
  5
11C6
330
1F
100
AcDbEntity
  8
実形
100
AcDbDimension
  2
*D4
 10
1175.255420841728
 20
1649.319532236984
 30
0.0
 11
1156.505420841727
 21
1521.819532236984
 31
0.0
 70
    32
 71
     5
 42
255.0
  3
ISO-25
100
AcDbAlignedDimension
 13
1041.090534611265
 23
1394.319532236984
 33
0.0
 14
760.5905346112649
 24
1649.319532236984
 34
0.0
 50
90.0
100
AcDbRotatedDimension
  0
DIMENSION
  5
11C7
330
1F
100
AcDbEntity
  8
実形
100
AcDbDimension
  2
*D5
 10
1620.590534611265
 20
961.3478069413304
 30
0.0
 11
1190.590534611265
 21
980.0978069413304
 31
0.0
 70
    32
 71
     5
 42
860.0
  3
ISO-25
100
AcDbAlignedDimension
 13
760.5905346112649
 23
1139.319532236984
 33
0.0
 14
1620.590534611265
 24
1139.319532236984
 34
0.0
100
AcDbRotatedDimension
  0
DIMENSION
  5
11C8
330
1F
100
AcDbEntity
  8
実形
100
AcDbDimension
  2
*D6
 10
1580.590534611265
 20
1026.739047517019
 30
0.0
 11
1190.590534611265
 21
1045.489047517019
 31
0.0
 70
    32
 71
     5
 42
780.0
  3
ISO-25
100
AcDbAlignedDimension
 13
800.5905346112649
 23
1139.319532236984
 33
0.0
 14
1580.590534611265
 24
1139.319532236984
 34
0.0
100
AcDbRotatedDimension
1001
ACAD
1000
DSTYLE
1002
{
1070
   279
1070
     1
1002
}
  0
LINE
  5
11C9
330
1F
100
AcDbEntity
  8
実形
100
AcDbLine
 10
1392.306263363802
 20
1609.319532236983
 30
0.0
 11
820.590534611265
 21
1609.319532236983
 31
0.0
  0
LINE
  5
11CA
330
1F
100
AcDbEntity
  8
実形
100
AcDbLine
 10
820.5905346112649
 20
1179.319532236984
 30
0.0
 11
1560.590534611265
 21
1179.319532236983
 31
0.0
  0
LINE
  5
11CB
330
1F
100
AcDbEntity
  8
実形
100
AcDbLine
 10
1570.590534611265
 20
1629.319532236984
 30
0.0
 11
810.5905346112651
 21
1629.319532236985
 31
0.0
  0
LINE
  5
11CC
330
1F
100
AcDbEntity
  8
実形
100
AcDbLine
 10
810.5905346112649
 20
1159.319532236984
 30
0.0
 11
1570.590534611265
 21
1159.319532236984
 31
0.0
  0
LINE
  5
11CD
330
1F
100
AcDbEntity
  8
実形
100
AcDbLine
 10
760.5905346112649
 20
1649.319532236984
 30
0.0
 11
1620.590534611265
 21
1649.319532236984
 31
0.0
  0
LINE
  5
11CE
330
1F
100
AcDbEntity
  8
実形
100
AcDbLine
 10
760.5905346112649
 20
1139.319532236984
 30
0.0
 11
1620.590534611265
 21
1139.319532236984
 31
0.0
  0
LINE
  5
11D1
330
1F
100
AcDbEntity
  8
センター
 48
0.5
100
AcDbLine
 10
950.5905346112649
 20
691.0189387347513
 30
0.0
 11
950.5905346112649
 21
545.4400176369303
 31
0.0
  0
LINE
  5
11D2
330
1F
100
AcDbEntity
  8
実形
100
AcDbLine
 10
800.5905346112649
 20
638.2294781858409
 30
0.0
 11
800.5905346112649
 21
810.2294781858409
 31
0.0
  0
LINE
  5
11D5
330
1F
100
AcDbEntity
  8
実形
100
AcDbLine
 10
860.090534611265
 20
608.2294781858409
 30
0.0
 11
1041.090534611265
 21
608.2294781858408
 31
0.0
  0
DIMENSION
  5
11D7
330
1F
100
AcDbEntity
  8
実形
100
AcDbDimension
  2
*D7
 10
590.073941784949
 20
1139.319532236984
 30
0.0
 11
571.3239417849489
 21
1394.319532236984
 31
0.0
 70
    32
 71
     5
 42
510.0
  3
ISO-25
100
AcDbAlignedDimension
 13
760.5905346112649
 23
1649.319532236984
 33
0.0
 14
760.5905346112649
 24
1139.319532236984
 34
0.0
 50
90.0
100
AcDbRotatedDimension
  0
DIMENSION
  5
11D8
330
1F
100
AcDbEntity
  8
実形
100
AcDbDimension
  2
*D8
 10
663.1265138045411
 20
1179.319532236984
 30
0.0
 11
644.3765138045409
 21
1394.319532236984
 31
0.0
 70
    32
 71
     5
 42
430.0
  3
ISO-25
100
AcDbAlignedDimension
 13
760.5905346112649
 23
1609.319532236983
 33
0.0
 14
760.5905346112649
 24
1179.319532236984
 34
0.0
 50
90.0
100
AcDbRotatedDimension
1001
ACAD
1000
DSTYLE
1002
{
1070
   279
1070
     1
1002
}
  0
DIMENSION
  5
11D9
330
1F
100
AcDbEntity
  8
実形
100
AcDbDimension
  2
*D9
 10
760.5905346112649
 20
1763.667845641737
 30
0.0
 11
855.590534611265
 21
1782.417845641737
 31
0.0
 70
    32
 71
     5
 42
190.0
  3
ISO-25
100
AcDbAlignedDimension
 13
950.5905346112649
 23
1484.819532236984
 33
0.0
 14
760.5905346112649
 24
1649.319532236984
 34
0.0
100
AcDbRotatedDimension
  0
LINE
  5
11DA
330
1F
100
AcDbEntity
  8
実形
100
AcDbLine
 10
800.5905346112651
 20
1589.319532236984
 30
0.0
 11
800.5905346112649
 21
1199.319532236984
 31
0.0
  0
LINE
  5
11DB
330
1F
100
AcDbEntity
  8
センター
100
AcDbLine
 10
950.5905346112649
 20
1566.855669322596
 30
0.0
 11
951.2045272689674
 21
1275.170274518589
 31
0.0
  0
LINE
  5
11DC
330
1F
100
AcDbEntity
  8
センター
100
AcDbLine
 10
950.5905346112649
 20
1566.855669322596
 30
0.0
 11
950.5905346112649
 21
1279.403728224713
 31
0.0
  0
LINE
  5
11DD
330
1F
100
AcDbEntity
  8
実形
100
AcDbLine
 10
780.590534611265
 20
1599.319532236984
 30
0.0
 11
780.5905346112649
 21
1189.319532236984
 31
0.0
  0
LINE
  5
11DE
330
1F
100
AcDbEntity
  8
実形
100
AcDbLine
 10
760.5905346112649
 20
1649.319532236984
 30
0.0
 11
760.5905346112649
 21
1139.319532236984
 31
0.0
  0
DIMENSION
  5
11DF
330
1F
100
AcDbEntity
  8
実形
100
AcDbDimension
  2
*D10
 10
663.1265138045411
 20
1139.319532236984
 30
0.0
 11
663.1265138045409
 21
1102.151843936035
 31
0.0
 70
   160
 71
     5
 42
20.0
  3
ISO-25
100
AcDbAlignedDimension
 13
760.5905346112649
 23
1159.319532236984
 33
0.0
 14
760.5905346112649
 24
1139.319532236984
 34
0.0
 50
90.0
100
AcDbRotatedDimension
1001
ACAD
1000
DSTYLE
1002
{
1070
   279
1070
     1
1002
}
  0
DIMENSION
  5
11E0
330
1F
100
AcDbEntity
  8
実形
100
AcDbDimension
  2
*D11
 10
780.5905346112649
 20
1026.739047517019
 30
0.0
 11
727.2006507189999
 21
1041.344815736094
 31
0.0
 70
   160
 71
     5
 42
20.0
  3
ISO-25
100
AcDbAlignedDimension
 13
760.5905346112649
 23
1139.319532236984
 33
0.0
 14
780.5905346112649
 24
1139.319532236984
 34
0.0
100
AcDbRotatedDimension
1001
ACAD
1000
DSTYLE
1002
{
1070
   279
1070
     2
1002
}
  0
DIMENSION
  5
11E1
330
1F
100
AcDbEntity
  8
実形
100
AcDbDimension
  2
*D12
 10
800.5905346112649
 20
1026.739047517019
 30
0.0
 11
838.9092201487674
 21
1026.739047517019
 31
0.0
 70
   160
 71
     5
 42
20.0
  3
ISO-25
100
AcDbAlignedDimension
 13
780.5905346112649
 23
1139.319532236984
 33
0.0
 14
800.5905346112649
 24
1139.319532236984
 34
0.0
100
AcDbRotatedDimension
1001
ACAD
1000
DSTYLE
1002
{
1070
   279
1070
     1
1002
}
  0
ARC
  5
11E2
330
1F
100
AcDbEntity
  8
実形
100
AcDbCircle
 10
797.5905346112649
 20
810.2294781858409
 30
0.0
 40
3.0
100
AcDbArc
 50
0.0
 51
90.0
  0
ARC
  5
11E3
330
1F
100
AcDbEntity
  8
実形
100
AcDbCircle
 10
783.5905346112649
 20
816.2294781858408
 30
0.0
 40
3.0
100
AcDbArc
 50
180.0
 51
270.0
  0
LINE
  5
11E5
330
1F
100
AcDbEntity
  8
実形
100
AcDbLine
 10
770.590534611265
 20
828.2294781858409
 30
0.0
 11
770.590534611265
 21
812.2294781858409
 31
0.0
  0
LINE
  5
11E6
330
1F
100
AcDbEntity
  8
実形
100
AcDbLine
 10
760.5905346112649
 20
828.2294781858409
 30
0.0
 11
780.5905346112649
 21
828.2294781858409
 31
0.0
  0
LINE
  5
11E7
330
1F
100
AcDbEntity
  8
実形
100
AcDbLine
 10
780.5905346112649
 20
816.2294781858408
 30
0.0
 11
780.5905346112649
 21
828.2294781858409
 31
0.0
  0
LINE
  5
11E8
330
1F
100
AcDbEntity
  8
実形
100
AcDbLine
 10
797.5905346112649
 20
813.2294781858409
 30
0.0
 11
783.5905346112649
 21
813.2294781858409
 31
0.0
  0
ARC
  5
11EA
330
1F
100
AcDbEntity
  8
実形
100
AcDbCircle
 10
810.5905346112649
 20
1189.319532236984
 30
0.0
 40
30.0
100
AcDbArc
 50
180.0
 51
270.0
  0
DIMENSION
  5
11EC
330
1F
100
AcDbEntity
  8
実形
100
AcDbDimension
  2
*D13
 10
663.1265138045411
 20
1159.319532236984
 30
0.0
 11
663.1265138045409
 21
1208.602695651012
 31
0.0
 70
   160
 71
     5
 42
20.0
  3
ISO-25
100
AcDbAlignedDimension
 13
760.5905346112649
 23
1179.319532236984
 33
0.0
 14
760.5905346112649
 24
1159.319532236984
 34
0.0
 50
90.0
100
AcDbRotatedDimension
1001
ACAD
1000
DSTYLE
1002
{
1070
   279
1070
     1
1002
}
  0
TEXT
  5
11ED
330
1F
100
AcDbEntity
  8
寸法
100
AcDbText
 10
848.6492332747848
 20
1509.587390790214
 30
0.0
 40
25.0
  1
20R
100
AcDbText
  0
CIRCLE
  5
11EE
330
1F
100
AcDbEntity
  8
実形
100
AcDbCircle
 10
950.5905346112649
 20
1394.319532236984
 30
0.0
 40
79.5
  0
CIRCLE
  5
11EF
330
1F
100
AcDbEntity
  8
実形
100
AcDbCircle
 10
950.5905346112649
 20
1394.319532236984
 30
0.0
 40
90.5
  0
DIMENSION
  5
11F3
330
1F
100
AcDbEntity
  8
実形
100
AcDbDimension
  2
*D14
 10
663.1265138045412
 20
1609.319532236983
 30
0.0
 11
663.1265138045409
 21
1579.659948048271
 31
0.0
 70
   160
 71
     5
 42
20.0
  3
ISO-25
100
AcDbAlignedDimension
 13
760.5905346112649
 23
1629.319532236984
 33
0.0
 14
760.5905346112649
 24
1609.319532236983
 34
0.0
 50
90.0
100
AcDbRotatedDimension
1001
ACAD
1000
DSTYLE
1002
{
1070
   279
1070
     1
1002
}
  0
DIMENSION
  5
11F4
330
1F
100
AcDbEntity
  8
実形
100
AcDbDimension
  2
*D15
 10
663.1265138045412
 20
1629.319532236984
 30
0.0
 11
649.2687955899964
 21
1683.369865066869
 31
0.0
 70
   160
 71
     5
 42
20.0
  3
ISO-25
100
AcDbAlignedDimension
 13
760.5905346112649
 23
1649.319532236984
 33
0.0
 14
760.5905346112649
 24
1629.319532236984
 34
0.0
 50
90.0
100
AcDbRotatedDimension
1001
ACAD
1000
DSTYLE
1002
{
1070
   279
1070
     2
1002
}
  0
LINE
  5
11F5
330
1F
100
AcDbEntity
  8
実形
100
AcDbLine
 10
1580.590534611265
 20
810.2294781858409
 30
0.0
 11
1580.590534611264
 21
652.681136615102
 31
0.0
  0
DIMENSION
  5
11F7
330
1F
100
AcDbEntity
  8
実形
100
AcDbDimension
  2
*D16
 10
1765.763673553845
 20
1429.319532236984
 30
0.0
 11
1747.013673553845
 21
1539.319532236984
 31
0.0
 70
    32
 71
     5
 42
220.0
  3
ISO-25
100
AcDbAlignedDimension
 13
1620.590534611265
 23
1649.319532236984
 33
0.0
 14
1620.590534611265
 24
1429.319532236984
 34
0.0
 50
90.0
100
AcDbRotatedDimension
  0
LINE
  5
11F8
330
1F
100
AcDbEntity
  8
実形
100
AcDbLine
 10
1574.732670234995
 20
1435.177396613253
 30
0.0
 11
1406.448398987533
 21
1603.461667860715
 31
0.0
  0
LINE
  5
11F9
330
1F
100
AcDbEntity
  8
実形
100
AcDbLine
 10
1600.590534611265
 20
1189.319532236984
 30
0.0
 11
1600.590534611265
 21
1599.319532236984
 31
0.0
  0
LINE
  5
11FA
330
1F
100
AcDbEntity
  8
実形
100
AcDbLine
 10
1620.590534611265
 20
1139.319532236984
 30
0.0
 11
1620.590534611265
 21
1649.319532236984
 31
0.0
  0
DIMENSION
  5
11FB
330
1F
100
AcDbEntity
  8
実形
100
AcDbDimension
  2
*D17
 10
1620.590534611265
 20
1026.739047517019
 30
0.0
 11
1656.184819645867
 21
1025.218318911857
 31
0.0
 70
   160
 71
     5
 42
20.0
  3
ISO-25
100
AcDbAlignedDimension
 13
1600.590534611265
 23
1139.319532236984
 33
0.0
 14
1620.590534611265
 24
1139.319532236984
 34
0.0
100
AcDbRotatedDimension
1001
ACAD
1000
DSTYLE
1002
{
1070
   279
1070
     1
1002
}
  0
DIMENSION
  5
11FC
330
1F
100
AcDbEntity
  8
実形
100
AcDbDimension
  2
*D18
 10
1600.590534611265
 20
1026.739047517019
 30
0.0
 11
1546.605973980708
 21
1026.739047517019
 31
0.0
 70
   160
 71
     5
 42
20.0
  3
ISO-25
100
AcDbAlignedDimension
 13
1580.590534611265
 23
1139.319532236984
 33
0.0
 14
1600.590534611265
 24
1139.319532236984
 34
0.0
100
AcDbRotatedDimension
1001
ACAD
1000
DSTYLE
1002
{
1070
   279
1070
     1
1002
}
  0
ARC
  5
11FD
330
1F
100
AcDbEntity
  8
実形
100
AcDbCircle
 10
1583.590534611265
 20
810.2294781858409
 30
0.0
 40
3.0
100
AcDbArc
 50
90.0
 51
180.0
  0
ARC
  5
11FE
330
1F
100
AcDbEntity
  8
実形
100
AcDbCircle
 10
1597.590534611265
 20
816.2294781858408
 30
0.0
 40
3.0
100
AcDbArc
 50
270.0
 51
0.0
  0
LINE
  5
11FF
330
1F
100
AcDbEntity
  8
実形
100
AcDbLine
 10
1610.590534611265
 20
828.2294781858409
 30
0.0
 11
1610.590534611265
 21
812.2294781858409
 31
0.0
  0
LINE
  5
1200
330
1F
100
AcDbEntity
  8
実形
100
AcDbLine
 10
1620.590534611265
 20
828.2294781858409
 30
0.0
 11
1600.590534611265
 21
828.2294781858409
 31
0.0
  0
LINE
  5
1201
330
1F
100
AcDbEntity
  8
実形
100
AcDbLine
 10
1597.590534611265
 20
813.2294781858409
 30
0.0
 11
1583.590534611265
 21
813.2294781858409
 31
0.0
  0
LINE
  5
1202
330
1F
100
AcDbEntity
  8
実形
100
AcDbLine
 10
1600.590534611265
 20
828.2294781858409
 30
0.0
 11
1600.590534611265
 21
816.2294781858408
 31
0.0
  0
LINE
  5
1203
330
1F
100
AcDbEntity
  8
実形
100
AcDbLine
 10
1620.590534611265
 20
828.2294781858409
 30
0.0
 11
1600.590534611265
 21
828.2294781858409
 31
0.0
  0
TEXT
  5
1204
330
1F
100
AcDbEntity
  8
寸法
100
AcDbText
 10
1300.077142361696
 20
1509.587390790214
 30
0.0
 40
25.0
  1
20R
100
AcDbText
  0
TEXT
  5
1205
330
1F
100
AcDbEntity
  8
寸法
100
AcDbText
 10
1452.895154711766
 20
1356.890082418694
 30
0.0
 40
25.0
  1
20R
100
AcDbText
  0
ARC
  5
1207
330
1F
100
AcDbEntity
  8
実形
100
AcDbCircle
 10
1570.590534611265
 20
1189.319532236984
 30
0.0
 40
30.0
100
AcDbArc
 50
270.0
 51
0.0
  0
LINE
  5
120A
330
1F
100
AcDbEntity
  8
実形
100
AcDbLine
 10
1580.590534611265
 20
1199.319532236983
 30
0.0
 11
1580.590534611264
 21
1421.035260989522
 31
0.0
  0
DIMENSION
  5
120B
330
1F
100
AcDbEntity
  8
実形
100
AcDbDimension
  2
*D19
 10
1620.590534611265
 20
1762.147117036574
 30
0.0
 11
1510.590534611265
 21
1780.897117036575
 31
0.0
 70
    32
 71
     5
 42
220.0
  3
ISO-25
100
AcDbAlignedDimension
 13
1400.590534611265
 23
1649.319532236984
 33
0.0
 14
1620.590534611265
 24
1649.319532236984
 34
0.0
100
AcDbRotatedDimension
  0
ARC
  5
120E
330
1F
100
AcDbEntity
  8
実形
100
AcDbCircle
 10
1570.590534611265
 20
1599.319532236984
 30
0.0
 40
30.0
100
AcDbArc
 50
0.0
 51
90.0
  0
DIMENSION
  5
143D
330
1F
100
AcDbEntity
  8
実形
100
AcDbDimension
  2
*D20
 10
1030.090534611265
 20
484.6668009116374
 30
0.0
 11
950.5905346112649
 21
503.4168009116374
 31
0.0
 70
    32
  1
160
 71
     5
 42
159.0
  3
ISO-25
100
AcDbAlignedDimension
 13
871.0905346112649
 23
618.2294781858408
 33
0.0
 14
1030.090534611265
 24
618.2294781858408
 34
0.0
100
AcDbRotatedDimension
1001
ACAD
1000
DSTYLE
1002
{
1070
   371
1070
    18
1070
   372
1070
    18
1002
}
  0
DIMENSION
  5
1453
330
1F
100
AcDbEntity
  8
実形
100
AcDbDimension
  2
*D21
 10
1041.090534611265
 20
428.0432017857747
 30
0.0
 11
950.5905346112649
 21
446.7932017857747
 31
0.0
 70
    32
 71
     5
 42
181.0
  3
ISO-25
100
AcDbAlignedDimension
 13
860.090534611265
 23
618.2294781858408
 33
0.0
 14
1041.090534611265
 24
618.2294781858408
 34
0.0
100
AcDbRotatedDimension
1001
ACAD
1000
DSTYLE
1002
{
1070
   371
1070
    18
1070
   372
1070
    18
1002
}
  0
LEADER
  5
147A
330
1F
100
AcDbEntity
  8
0
100
AcDbLeader
  3
ISO-25
 40
25.0
 41
16.66666666666666
 76
     2
 10
1398.080426721895
 20
1595.900521889323
 30
0.0
 10
1346.647909930589
 20
1549.823043292276
 30
0.0
213
0.0
223
-12.5
233
0.0
1001
ACAD
1000
DSTYLE
1002
{
1070
    41
1040
25.0
1070
   147
1040
6.25
1070
    77
1070
     0
1070
    73
1070
     1
1070
    74
1070
     1
1070
   279
1070
     1
1070
   342
1005
DA
1002
}
  0
LEADER
  5
147B
330
1F
100
AcDbEntity
  8
0
100
AcDbLeader
  3
ISO-25
 40
25.0
 41
16.66666666666666
 76
     2
 10
1572.524217771309
 20
1421.456730839909
 30
0.0
 10
1521.091700980002
 20
1389.805233505324
 30
0.0
213
0.0
223
-12.5
233
0.0
1001
ACAD
1000
DSTYLE
1002
{
1070
    41
1040
25.0
1070
   147
1040
6.25
1070
    77
1070
     0
1070
    73
1070
     1
1070
    74
1070
     1
1070
   279
1070
     1
1070
   342
1005
DA
1002
}
  0
LEADER
  5
147C
330
1F
100
AcDbEntity
  8
0
100
AcDbLeader
  3
ISO-25
 40
25.0
 41
16.66666666666666
 76
     2
 10
824.5969709520105
 20
1595.900521889323
 30
0.0
 10
855.2861944357337
 20
1549.823043292276
 30
0.0
213
0.0
223
-12.5
233
0.0
1001
ACAD
1000
DSTYLE
1002
{
1070
    41
1040
25.0
1070
   147
1040
6.25
1070
    77
1070
     0
1070
    73
1070
     1
1070
    74
1070
     1
1070
   279
1070
     1
1070
   342
1005
DA
1002
}
  0
LEADER
  5
1499
330
1F
100
AcDbEntity
  8
0
100
AcDbLeader
  3
ISO-25
 40
25.0
 41
16.66666666666666
 76
     2
 10
1556.19441228466
 20
653.6441433823865
 30
0.0
 10
1510.049816840283
 20
698.1074856553141
 30
0.0
213
0.0
223
-12.5
233
0.0
1001
ACAD
1000
DSTYLE
1002
{
1070
    41
1040
25.0
1070
   147
1040
6.25
1070
    77
1070
     0
1070
    73
1070
     1
1070
    74
1070
     1
1070
   279
1070
     1
1070
   342
1005
DA
1002
}
  0
TEXT
  5
149A
330
1F
100
AcDbEntity
  8
寸法
100
AcDbText
 10
1454.017090733874
 20
711.2818124536988
 30
0.0
 40
25.0
  1
20R
100
AcDbText
  0
LINE
  5
152A
330
1F
100
AcDbEntity
  8
実形
100
AcDbLine
 10
2196.683327312663
 20
765.1317375882124
 30
0.0
 11
2196.683327312663
 21
634.3738912787513
 31
0.0
  0
LINE
  5
152B
330
1F
100
AcDbEntity
  8
実形
100
AcDbLine
 10
2187.343481147702
 20
765.1317375882124
 30
0.0
 11
2187.343481147702
 21
634.3738912787513
 31
0.0
  0
LINE
  5
152C
330
1F
100
AcDbEntity
  8
実形
100
AcDbLine
 10
2119.522113338374
 20
757.6598606562436
 30
0.0
 11
2119.522113338374
 21
634.3738912787513
 31
0.0
  0
LINE
  5
152D
330
1F
100
AcDbEntity
  8
実形
100
AcDbLine
 10
2126.993990270344
 20
634.3738912787513
 30
0.0
 11
2126.993990270344
 21
757.6598606562436
 31
0.0
  0
LINE
  5
152E
330
1F
100
AcDbEntity
  8
実形
100
AcDbLine
 10
2126.993990270344
 20
757.6598606562436
 30
0.0
 11
2126.993990270344
 21
634.3738912787513
 31
0.0
  0
DIMENSION
  5
152F
330
1F
100
AcDbEntity
  8
寸法
100
AcDbDimension
  2
*D22
 10
1877.905958859336
 20
625.0340451137899
 30
0.0
 11
1859.155958859336
 21
699.7528144334823
 31
0.0
 70
    32
  1
16
 71
     5
 42
149.437538639384
  3
ISO-25
100
AcDbAlignedDimension
 13
2009.886404013435
 23
774.4715837531739
 33
0.0
 14
2009.886404013435
 24
625.0340451137899
 34
0.0
 50
90.0
100
AcDbRotatedDimension
1001
ACAD
1000
DSTYLE
1002
{
1070
    41
1040
40.0
1070
    42
1040
45.0
1002
}
  0
DIMENSION
  5
1530
330
1F
100
AcDbEntity
  8
寸法
100
AcDbDimension
  2
*D23
 10
2246.839174281514
 20
634.3738912787515
 30
0.0
 11
2246.839174281514
 21
720.792991391303
 31
0.0
 70
   160
  1
15
 71
     5
 42
140.0976924744225
  3
ISO-25
100
AcDbAlignedDimension
 13
2196.683327312664
 23
774.4715837531739
 33
0.0
 14
2196.683327312664
 24
634.3738912787515
 34
0.0
 50
90.0
100
AcDbRotatedDimension
1001
ACAD
1000
DSTYLE
1002
{
1070
    41
1040
40.0
1070
    42
1040
20.0
1002
}
  0
LINE
  5
1531
330
1F
100
AcDbEntity
  8
実形
100
AcDbLine
 10
2119.522113338374
 20
634.3738912787513
 30
0.0
 11
2126.993990270344
 21
634.3738912787513
 31
0.0
  0
LINE
  5
1532
330
1F
100
AcDbEntity
  8
実形
100
AcDbLine
 10
2126.993990270344
 20
634.3738912787513
 30
0.0
 11
2119.522113338374
 21
634.3738912787513
 31
0.0
  0
DIMENSION
  5
1533
330
1F
100
AcDbEntity
  8
寸法
100
AcDbDimension
  2
*D24
 10
2009.886404013435
 20
558.0230603015579
 30
0.0
 11
2064.704258675905
 21
576.7730603015579
 31
0.0
 70
    32
  1
12
 71
     5
 42
109.6357093249389
  3
ISO-25
100
AcDbAlignedDimension
 13
2119.522113338374
 23
625.0340451137899
 33
0.0
 14
2009.886404013435
 24
625.0340451137899
 34
0.0
100
AcDbRotatedDimension
1001
ACAD
1000
DSTYLE
1002
{
1070
    41
1040
40.0
1070
    42
1040
45.0
1002
}
  0
ARC
  5
1534
330
1F
100
AcDbEntity
  8
実形
100
AcDbCircle
 10
2374.140404446931
 20
625.0340451137899
 30
0.0
 40
9.3398461649615
100
AcDbArc
 50
0.0
 51
90.0
  0
LINE
  5
1535
330
1F
100
AcDbEntity
  8
実形
100
AcDbLine
 10
2383.480250611893
 20
625.0340451137899
 30
0.0
 11
2383.480250611893
 21
559.6551219590594
 31
0.0
  0
LINE
  5
1536
330
1F
100
AcDbEntity
  8
実形
100
AcDbLine
 10
2374.140404446931
 20
625.0340451137899
 30
0.0
 11
2374.140404446931
 21
559.6551219590594
 31
0.0
  0
ARC
  5
1537
330
1F
100
AcDbEntity
  8
実形
100
AcDbCircle
 10
2196.683327312663
 20
634.3738912787513
 30
0.0
 40
9.3398461649615
100
AcDbArc
 50
180.0
 51
270.0
  0
LINE
  5
1538
330
1F
100
AcDbEntity
  8
実形
100
AcDbLine
 10
2196.683327312663
 20
634.3738912787513
 30
0.0
 11
2374.140404446931
 21
634.3738912787513
 31
0.0
  0
LINE
  5
1539
330
1F
100
AcDbEntity
  8
実形
100
AcDbLine
 10
2196.683327312663
 20
625.0340451137899
 30
0.0
 11
2374.140404446931
 21
625.0340451137899
 31
0.0
  0
DIMENSION
  5
153A
330
1F
100
AcDbEntity
  8
寸法
100
AcDbDimension
  2
*D25
 10
2383.480250611893
 20
674.4412907880732
 30
0.0
 11
2319.115562196582
 21
674.4412907880732
 31
0.0
 70
   160
  1
20
 71
     5
 42
186.7969232992291
  3
ISO-25
100
AcDbAlignedDimension
 13
2196.683327312664
 23
634.3738912787515
 33
0.0
 14
2383.480250611893
 24
634.3738912787515
 34
0.0
100
AcDbRotatedDimension
1001
ACAD
1000
DSTYLE
1002
{
1070
    41
1040
40.0
1070
    42
1040
20.0
1002
}
  0
LINE
  5
153B
330
1F
100
AcDbEntity
  8
実形
100
AcDbLine
 10
1926.259505541745
 20
959.2457481953733
 30
0.0
 11
2238.44098563848
 21
959.2457481953733
 31
0.0
  0
LINE
  5
153C
330
1F
100
AcDbEntity
  8
実形
100
AcDbLine
 10
1926.259505541745
 20
964.2457481953734
 30
0.0
 11
2238.44098563848
 21
964.2457481953734
 31
0.0
  0
TEXT
  5
153D
330
1F
100
AcDbEntity
  8
実形
100
AcDbText
 10
1941.161030911207
 20
971.5130662457031
 30
0.0
 40
30.0
  1
ツバ折込み詳細図
 11
1941.161030911207
 21
967.5130662457032
 31
0.0
100
AcDbText
 73
     1
  0
LINE
  5
153E
330
1F
100
AcDbEntity
  8
実形
100
AcDbLine
 10
2056.854605421914
 20
774.4715837531738
 30
0.0
 11
2187.343481147702
 21
774.4715837531739
 31
0.0
  0
LINE
  5
153F
330
1F
100
AcDbEntity
  8
実形
100
AcDbLine
 10
2058.554814981896
 20
765.1317375882124
 30
0.0
 11
2187.343481147702
 21
765.1317375882124
 31
0.0
  0
LINE
  5
1540
330
1F
100
AcDbEntity
  8
実形
100
AcDbLine
 10
2076.558820979552
 20
757.6598606562436
 30
0.0
 11
2169.957282629166
 21
757.6598606562436
 31
0.0
  0
LINE
  5
1541
330
1F
100
AcDbEntity
  8
実形
100
AcDbLine
 10
2076.558820979552
 20
757.6598606562436
 30
0.0
 11
2169.957282629166
 21
757.6598606562436
 31
0.0
  0
DIMENSION
  5
1543
330
1F
100
AcDbEntity
  8
寸法
100
AcDbDimension
  2
*D26
 10
2196.683327312664
 20
893.2644428930197
 30
0.0
 11
2103.28486566305
 21
912.0144428930197
 31
0.0
 70
    32
  1
20
 71
     5
 42
186.7969232992291
  3
ISO-25
100
AcDbAlignedDimension
 13
2009.886404013435
 23
774.4715837531739
 33
0.0
 14
2196.683327312664
 24
774.4715837531739
 34
0.0
100
AcDbRotatedDimension
1001
ACAD
1000
DSTYLE
1002
{
1070
    41
1040
40.0
1070
    42
1040
45.0
1002
}
  0
LINE
  5
1546
330
1F
100
AcDbEntity
  8
実形
100
AcDbLine
 10
2076.558820979552
 20
765.1317375882124
 30
0.0
 11
2076.558820979552
 21
757.6598606562436
 31
0.0
  0
DIMENSION
  5
1549
330
1F
100
AcDbEntity
  8
寸法
100
AcDbDimension
  2
*D27
 10
1930.764807385841
 20
727.7715837531738
 30
0.0
 11
1904.874757614466
 21
751.7156383900855
 31
0.0
 70
   160
  1
5
 71
     5
 42
46.70000000000004
  3
ISO-25
100
AcDbAlignedDimension
 13
2009.886404013435
 23
774.4715837531739
 33
0.0
 14
2009.886404013435
 24
727.7715837531738
 34
0.0
 50
90.0
100
AcDbRotatedDimension
1001
ACAD
1000
DSTYLE
1002
{
1070
   279
1070
     2
1070
    41
1040
40.0
1070
    42
1040
45.0
1002
}
  0
DIMENSION
  5
154C
330
1F
100
AcDbEntity
  8
寸法
100
AcDbDimension
  2
*D28
 10
2056.585634838242
 20
846.91274228979
 30
0.0
 11
2033.236019425838
 21
865.66274228979
 31
0.0
 70
    32
  1
5
 71
     5
 42
46.69923082480636
  3
ISO-25
100
AcDbAlignedDimension
 13
2009.886404013435
 23
774.4715837531739
 33
0.0
 14
2056.585634838242
 24
774.4715837531739
 34
0.0
100
AcDbRotatedDimension
1001
ACAD
1000
DSTYLE
1002
{
1070
    41
1040
40.0
1070
    42
1040
45.0
1002
}
  0
LINE
  5
154D
330
1F
100
AcDbEntity
  8
実形
100
AcDbLine
 10
2169.957282629166
 20
757.6598606562436
 30
0.0
 11
2169.957282629166
 21
765.1317375882124
 31
0.0
  0
ARC
  5
154E
330
1F
100
AcDbEntity
  8
実形
100
AcDbCircle
 10
2187.343481147702
 20
765.1317375882124
 30
0.0
 40
9.3398461649615
100
AcDbArc
 50
0.0
 51
90.0
  0
LINE
  5
1738
330
1F
100
AcDbEntity
  8
実形
100
AcDbLine
 10
2016.490781349717
 20
727.7715837531738
 30
0.0
 11
2009.886404013435
 21
734.3759610894563
 31
0.0
  0
LINE
  5
1753
330
1F
100
AcDbEntity
  8
実形
100
AcDbLine
 10
2016.490781349717
 20
727.7715837531738
 30
0.0
 11
2055.146268849732
 21
763.7898536696009
 31
0.0
  0
LINE
  5
1770
330
1F
100
AcDbEntity
  8
実形
100
AcDbLine
 10
2009.886404013435
 20
734.3759610894563
 30
0.0
 11
2050.037513157587
 21
771.7878159159507
 31
0.0
  0
ARC
  5
1773
330
1F
100
AcDbEntity
  8
実形
100
AcDbCircle
 10
2058.554814981896
 20
760.1317375882124
 30
0.0
 40
5.0
100
AcDbArc
 50
90.0
 51
132.977352839564
  0
ARC
  5
1774
330
1F
100
AcDbEntity
  8
実形
100
AcDbCircle
 10
2056.854605421914
 20
764.4715837531738
 30
0.0
 40
10.0
100
AcDbArc
 50
90.0
 51
132.977352839564
  0
DIMENSION
  5
1854
330
1F
100
AcDbEntity
  8
実形
100
AcDbDimension
  2
*D29
 10
950.5905346112648
 20
1274.827676345139
 30
0.0
 11
875.5905346112649
 21
1293.577676345139
 31
0.0
 70
    32
 71
     5
 42
149.9999999999999
  3
ISO-25
100
AcDbAlignedDimension
 13
800.5905346112649
 23
1369.184164290476
 33
0.0
 14
950.5905346112648
 24
1369.184164290476
 34
0.0
100
AcDbRotatedDimension
1001
ACAD
1000
DSTYLE
1002
{
1070
   371
1070
    18
1070
   372
1070
    18
1002
}
  0
ARC
  5
1874
330
1F
100
AcDbEntity
  8
実形
100
AcDbCircle
 10
810.5905346112651
 20
1599.319532236984
 30
0.0
 40
30.0
100
AcDbArc
 50
89.99999999999998
 51
180.0
  0
TEXT
  5
191B
330
1F
100
AcDbEntity
  8
寸法
100
AcDbText
 10
1501.538129469667
 20
1530.729518524008
 30
0.0
 40
25.0
  1
30R
100
AcDbText
  0
LEADER
  5
191C
330
1F
100
AcDbEntity
  8
0
100
AcDbLeader
  3
ISO-25
 40
25.0
 41
16.66666666666666
 76
     2
 10
1583.415474453121
 20
1611.841162191728
 30
0.0
 10
1540.326887928087
 20
1561.752638254648
 30
0.0
213
0.0
223
-12.5
233
0.0
1001
ACAD
1000
DSTYLE
1002
{
1070
    41
1040
25.0
1070
   147
1040
6.25
1070
    77
1070
     0
1070
    73
1070
     1
1070
    74
1070
     1
1070
   279
1070
     1
1070
   342
1005
DA
1002
}
  0
LINE
  5
1930
330
1F
100
AcDbEntity
  8
実形
100
AcDbLine
 10
860.090534611265
 20
618.2294781858408
 30
0.0
 11
860.090534611265
 21
608.2294781858409
 31
0.0
  0
LINE
  5
1931
330
1F
100
AcDbEntity
  8
実形
100
AcDbLine
 10
1041.090534611265
 20
618.2294781858408
 30
0.0
 11
1041.090534611265
 21
608.2294781858409
 31
0.0
  0
LINE
  5
1A1F
330
1F
100
AcDbEntity
  8
実形
100
AcDbLine
 10
860.090534611265
 20
618.2294781858408
 30
0.0
 11
820.5905346112649
 21
618.2294781858408
 31
0.0
  0
ARC
  5
1A5F
330
1F
100
AcDbEntity
  8
実形
100
AcDbCircle
 10
820.5905346112649
 20
638.2294781858409
 30
0.0
 40
20.0
100
AcDbArc
 50
179.9999999999999
 51
270.0
  0
DIMENSION
  5
1ABD
330
1F
100
AcDbEntity
  8
実形
100
AcDbDimension
  2
*D30
 10
652.3574685811927
 20
628.2294781858403
 30
0.0
 11
630.472235767731
 21
801.485070803409
 31
0.0
 70
   160
  1
15
 71
     5
 42
200.0000000000006
  3
ISO-25
100
AcDbAlignedDimension
 13
760.709207944672
 23
828.2294781858409
 33
0.0
 14
760.709207944672
 24
628.2294781858403
 34
0.0
 50
270.0
100
AcDbRotatedDimension
1001
ACAD
1000
DSTYLE
1002
{
1070
   282
1070
     1
1070
   281
1070
     1
1070
    76
1070
     1
1070
    75
1070
     1
1070
   279
1070
     2
1070
   289
1070
     0
1070
   371
1070
    18
1070
   372
1070
    18
1002
}
  0
DIMENSION
  5
1ABE
330
1F
100
AcDbEntity
  8
実形
100
AcDbDimension
  2
*D31
 10
652.3574685811927
 20
633.2294781858409
 30
0.0
 11
633.6074685811926
 21
723.2294781858412
 31
0.0
 70
    32
 71
     5
 42
180.0000000000004
  3
ISO-25
100
AcDbAlignedDimension
 13
760.709207944672
 23
813.2294781858414
 33
0.0
 14
760.7092079446718
 24
633.2294781858409
 34
0.0
 50
270.0
100
AcDbRotatedDimension
1001
ACAD
1000
DSTYLE
1002
{
1070
   279
1070
     2
1070
   289
1070
     0
1070
   371
1070
    18
1070
   372
1070
    18
1002
}
  0
LINE
  5
1ABF
330
1F
100
AcDbEntity
  8
実形
100
AcDbLine
 10
695.709207944672
 20
828.2294781858409
 30
0.0
 11
652.3574685811927
 21
828.2294781858409
 31
0.0
  0
LINE
  5
1AC0
330
1F
100
AcDbEntity
  8
実形
100
AcDbLine
 10
652.3574685811927
 20
828.2294781858409
 30
0.0
 11
652.3574685811927
 21
813.2294781858414
 31
0.0
  0
TEXT
  5
1AC1
330
1F
100
AcDbEntity
  8
実形
370
    18
100
AcDbText
 10
647.6016740628347
 20
832.9607287138033
 30
0.0
 40
10.0
  1
●
 50
270.0
100
AcDbText
  0
DIMENSION
  5
1AC2
330
1F
100
AcDbEntity
  8
実形
100
AcDbDimension
  2
*D32
 10
604.1349034143313
 20
633.2294781858409
 30
0.0
 11
582.2100352548168
 21
716.0852004440721
 31
0.0
 70
   160
 71
     5
 42
195.0
  3
ISO-25
100
AcDbAlignedDimension
 13
760.7092079446718
 23
828.2294781858409
 33
0.0
 14
760.7092079446718
 24
633.2294781858409
 34
0.0
 50
270.0
100
AcDbRotatedDimension
1001
ACAD
1000
DSTYLE
1002
{
1070
   279
1070
     2
1070
   289
1070
     0
1070
   371
1070
    18
1070
   372
1070
    18
1002
}
  0
DIMENSION
  5
1AC3
330
1F
100
AcDbEntity
  8
実形
100
AcDbDimension
  2
*D33
 10
604.1349034143313
 20
618.2294781858407
 30
0.0
 11
580.2316810486863
 21
642.0227043425074
 31
0.0
 70
   160
  1
15
 71
     5
 42
210.0000000000001
  3
ISO-25
100
AcDbAlignedDimension
 13
715.8227774766981
 23
828.2294781858409
 33
0.0
 14
707.9748287269449
 24
618.2294781858407
 34
0.0
 50
270.0
100
AcDbRotatedDimension
1001
ACAD
1000
DSTYLE
1002
{
1070
   282
1070
     1
1070
   281
1070
     1
1070
   279
1070
     2
1070
   289
1070
     0
1070
   371
1070
    18
1070
   372
1070
    18
1002
}
  0
LINE
  5
1AC4
330
1F
100
AcDbEntity
  8
実形
100
AcDbLine
 10
604.1349034143313
 20
628.2294781858404
 30
0.0
 11
604.1349034143313
 21
618.2294781858408
 31
0.0
  0
TEXT
  5
1AC5
330
1F
100
AcDbEntity
  8
実形
370
    18
100
AcDbText
 10
599.097114967275
 20
622.4942488028219
 30
0.0
 40
10.0
  1
●
 50
270.0
100
AcDbText
  0
DIMENSION
  5
1AC6
330
1F
100
AcDbEntity
  8
実形
100
AcDbDimension
  2
*D34
 10
551.5871404308382
 20
618.2294781858407
 30
0.0
 11
532.8371404308381
 21
723.2294781858408
 31
0.0
 70
    32
 71
     5
 42
210.0000000000001
  3
ISO-25
100
AcDbAlignedDimension
 13
715.8227774766983
 23
828.2294781858409
 33
0.0
 14
685.1934316750976
 24
618.2294781858407
 34
0.0
 50
270.0
100
AcDbRotatedDimension
1001
ACAD
1000
DSTYLE
1002
{
1070
   279
1070
     2
1070
   289
1070
     0
1070
   371
1070
    18
1070
   372
1070
    18
1002
}
  0
DIMENSION
  5
1AC7
330
1F
100
AcDbEntity
  8
実形
100
AcDbDimension
  2
*D35
 10
551.5871404308382
 20
608.2294781858412
 30
0.0
 11
529.5360875745554
 21
619.8282915417021
 31
0.0
 70
   160
  1
8
 71
     5
 42
219.9999999999997
  3
ISO-25
100
AcDbAlignedDimension
 13
715.8227774766983
 23
828.2294781858409
 33
0.0
 14
704.1199431009808
 24
608.2294781858412
 34
0.0
 50
270.0
100
AcDbRotatedDimension
1001
ACAD
1000
DSTYLE
1002
{
1070
   282
1070
     1
1070
   281
1070
     1
1070
    76
1070
     1
1070
    75
1070
     1
1070
   279
1070
     2
1070
   289
1070
     0
1070
   371
1070
    18
1070
   372
1070
    18
1002
}
  0
LINE
  5
1AC8
330
1F
100
AcDbEntity
  8
実形
100
AcDbLine
 10
551.5871404308382
 20
618.2294781858408
 30
0.0
 11
551.5871404308382
 21
608.1609512569967
 31
0.0
  0
LINE
  5
1AC9
330
1F
100
AcDbEntity
  8
実形
100
AcDbLine
 10
551.5871404308382
 20
608.1609512569967
 30
0.0
 11
592.3175124176141
 21
608.1609512569967
 31
0.0
  0
TEXT
  5
1ACA
330
1F
100
AcDbEntity
  8
実形
370
    18
100
AcDbText
 10
546.4461696356592
 20
613.0850825711323
 30
0.0
 40
10.0
  1
●
 50
270.0
100
AcDbText
  0
DIMENSION
  5
1ACB
330
1F
100
AcDbEntity
  8
実形
100
AcDbDimension
  2
*D36
 10
500.473779822325
 20
608.2294781858413
 30
0.0
 11
481.7237798223249
 21
718.2294781858412
 31
0.0
 70
    32
  1
218
 71
     5
 42
219.9999999999995
  3
ISO-25
100
AcDbAlignedDimension
 13
715.8227774766981
 23
828.2294781858409
 33
0.0
 14
624.7634795770117
 24
608.2294781858413
 34
0.0
 50
270.0
100
AcDbRotatedDimension
1001
ACAD
1000
DSTYLE
1002
{
1070
   279
1070
     2
1070
   289
1070
     0
1070
   371
1070
    18
1070
   372
1070
    18
1002
}
  0
ARC
  5
1B64
330
1F
100
AcDbEntity
  8
実形
100
AcDbCircle
 10
820.590534611265
 20
1589.319532236984
 30
0.0
 40
20.0
100
AcDbArc
 50
90.0
 51
180.0
  0
ARC
  5
1B65
330
1F
100
AcDbEntity
  8
実形
100
AcDbCircle
 10
1392.306263363802
 20
1589.319532236984
 30
0.0
 40
20.0
100
AcDbArc
 50
45.00000000000005
 51
90.0
  0
ARC
  5
1B66
330
1F
100
AcDbEntity
  8
実形
100
AcDbCircle
 10
1560.590534611265
 20
1421.035260989522
 30
0.0
 40
20.0
100
AcDbArc
 50
0.0000000000000509
 51
45.00000000000013
  0
ARC
  5
1B67
330
1F
100
AcDbEntity
  8
実形
100
AcDbCircle
 10
1560.590534611265
 20
1199.319532236983
 30
0.0
 40
20.0
100
AcDbArc
 50
270.0
 51
0.0000000000000636
  0
TEXT
  5
1B70
330
1F
100
AcDbEntity
  8
寸法
100
AcDbText
 10
1435.11873192145
 20
1252.668502332307
 30
0.0
 40
25.0
  1
20R
100
AcDbText
  0
LEADER
  5
1B79
330
1F
100
AcDbEntity
  8
0
100
AcDbLeader
  3
ISO-25
 40
25.0
 41
16.66666666666666
 76
     2
 10
1557.903169751404
 20
1198.029862599383
 30
0.0
 10
1506.470652960098
 20
1240.526586710087
 30
0.0
213
0.0
223
-12.5
233
0.0
1001
ACAD
1000
DSTYLE
1002
{
1070
    41
1040
25.0
1070
   147
1040
6.25
1070
    77
1070
     0
1070
    73
1070
     1
1070
    74
1070
     1
1070
   279
1070
     1
1070
   342
1005
DA
1002
}
  0
LEADER
  5
1BA0
330
1F
100
AcDbEntity
  8
0
100
AcDbLeader
  3
ISO-25
 40
25.0
 41
16.66666666666666
 76
     2
 10
824.7879514419674
 20
630.8445049061528
 30
0.0
 10
880.1394912871037
 20
690.13465582761
 30
0.0
213
0.0
223
-12.5
233
0.0
1001
ACAD
1000
DSTYLE
1002
{
1070
    41
1040
25.0
1070
   147
1040
6.25
1070
    77
1070
     0
1070
    73
1070
     1
1070
    74
1070
     1
1070
   279
1070
     1
1070
   342
1005
DA
1002
}
  0
TEXT
  5
1BA1
330
1F
100
AcDbEntity
  8
寸法
100
AcDbText
 10
851.8992795526045
 20
700.1721518849508
 30
0.0
 40
25.0
  1
20R
100
AcDbText
  0
LINE
  5
1BE2
330
1F
100
AcDbEntity
  8
実形
100
AcDbLine
 10
1041.090534611265
 20
618.2294781858408
 30
0.0
 11
1561.146390240202
 21
632.6888624943379
 31
0.0
  0
ARC
  5
1BE3
330
1F
100
AcDbEntity
  8
実形
100
AcDbCircle
 10
1560.590534611265
 20
652.681136615102
 30
0.0
 40
20.0
100
AcDbArc
 50
271.592614155526
 51
360.0
  0
TEXT
  5
1C0B
330
1F
100
AcDbEntity
  8
寸法
100
AcDbText
 10
927.5042931189846
 20
1221.491905570301
 30
0.0
 40
25.0
  1
20R
100
AcDbText
  0
LEADER
  5
1C0C
330
1F
100
AcDbEntity
  8
0
100
AcDbLeader
  3
ISO-25
 40
25.0
 41
16.66666666666666
 76
     2
 10
827.4625868689073
 20
1198.006467466585
 30
0.0
 10
916.3123211906732
 20
1224.65461461609
 30
0.0
213
0.0
223
-12.5
233
0.0
1001
ACAD
1000
DSTYLE
1002
{
1070
    41
1040
25.0
1070
   147
1040
6.25
1070
    77
1070
     0
1070
    73
1070
     1
1070
    74
1070
     1
1070
   279
1070
     1
1070
   342
1005
DA
1002
}
  0
TEXT
  5
1C16
330
1F
100
AcDbEntity
  8
寸法
100
AcDbText
 10
677.8399443636044
 20
1096.839883723235
 30
0.0
 40
25.0
  1
30R
100
AcDbText
  0
LEADER
  5
1C17
330
1F
100
AcDbEntity
  8
0
100
AcDbLeader
  3
ISO-25
 40
25.0
 41
16.66666666666666
 76
     2
 10
773.156770276455
 20
1167.608659385153
 30
0.0
 10
716.6287028220249
 20
1127.863003453875
 30
0.0
213
0.0
223
-12.5
233
0.0
1001
ACAD
1000
DSTYLE
1002
{
1070
    41
1040
25.0
1070
   147
1040
6.25
1070
    77
1070
     0
1070
    73
1070
     1
1070
    74
1070
     1
1070
   279
1070
     1
1070
   342
1005
DA
1002
}
  0
TEXT
  5
1C21
330
1F
100
AcDbEntity
  8
寸法
100
AcDbText
 10
673.7010745700772
 20
1711.167794111375
 30
0.0
 40
25.0
  1
30R
100
AcDbText
  0
LEADER
  5
1C22
330
1F
100
AcDbEntity
  8
0
100
AcDbLeader
  3
ISO-25
 40
25.0
 41
16.66666666666666
 76
     2
 10
776.0299884383348
 20
1635.12862185513
 30
0.0
 10
711.686753584745
 20
1701.434797892269
 30
0.0
213
0.0
223
-12.5
233
0.0
1001
ACAD
1000
DSTYLE
1002
{
1070
    41
1040
25.0
1070
   147
1040
6.25
1070
    77
1070
     0
1070
    73
1070
     1
1070
    74
1070
     1
1070
   279
1070
     1
1070
   342
1005
DA
1002
}
  0
TEXT
  5
1C2C
330
1F
100
AcDbEntity
  8
寸法
100
AcDbText
 10
1663.094714062428
 20
1091.441977491974
 30
0.0
 40
25.0
  1
30R
100
AcDbText
  0
LEADER
  5
1C2D
330
1F
100
AcDbEntity
  8
0
100
AcDbLeader
  3
ISO-25
 40
25.0
 41
16.66666666666666
 76
     2
 10
1602.353799742066
 20
1157.099153762248
 30
0.0
 10
1659.383678838954
 20
1124.748277103252
 30
0.0
213
0.0
223
-12.5
233
0.0
1001
ACAD
1000
DSTYLE
1002
{
1070
    41
1040
25.0
1070
   147
1040
6.25
1070
    77
1070
     0
1070
    73
1070
     1
1070
    74
1070
     1
1070
   279
1070
     1
1070
   342
1005
DA
1002
}
  0
LINE
  5
1C48
330
1F
100
AcDbEntity
  8
実形
  6
ACAD_ISO08W100
 48
0.5
100
AcDbLine
 10
1106.090534611265
 20
1394.319532236984
 30
0.0
 11
838.6218134975615
 21
1394.319532236984
 31
0.0
  0
LINE
  5
1D13
330
1F
100
AcDbEntity
  8
補助
 62
     0
100
AcDbLine
 10
2784.0
 20
1959.000000000001
 30
0.0
 11
2019.387286519283
 21
1959.000000000002
 31
0.0
  0
LINE
  5
1D14
330
1F
100
AcDbEntity
  8
補助
 62
     0
100
AcDbLine
 10
2784.0
 20
1894.000000000001
 30
0.0
 11
2019.387286519283
 21
1894.000000000001
 31
0.0
  0
LINE
  5
1D15
330
1F
100
AcDbEntity
  8
補助
 62
     0
100
AcDbLine
 10
2202.547653420927
 20
1829.000000000001
 30
0.0
 11
2202.547653420927
 21
2024.000000000002
 31
0.0
  0
LINE
  5
1D16
330
1F
100
AcDbEntity
  8
補助
 62
     0
100
AcDbLine
 10
2019.387286519283
 20
1829.000000000001
 30
0.0
 11
2019.387286519283
 21
2024.000000000002
 31
0.0
  0
TEXT
  5
1D17
330
1F
100
AcDbEntity
  8
補助
 62
     0
100
AcDbText
 10
2050.295698850121
 20
1976.328571428573
 30
0.0
 40
30.0
  1
部品名
  7
明朝
 72
     4
 11
2116.124270278692
 21
1991.500000000002
 31
0.0
100
AcDbText
  0
TEXT
  5
1D18
330
1F
100
AcDbEntity
  8
補助
 62
     0
100
AcDbText
 10
2627.614285714286
 20
1976.07142857143
 30
0.0
 40
30.0
  1
厚さ
  7
明朝
 72
     4
 11
2671.5
 21
1991.500000000002
 31
0.0
100
AcDbText
  0
LINE
  5
1D19
330
1F
100
AcDbEntity
  8
補助
 62
     0
100
AcDbLine
 10
2559.0
 20
1829.000000000001
 30
0.0
 11
2559.0
 21
2024.000000000002
 31
0.0
  0
TEXT
  5
1D1A
330
1F
100
AcDbEntity
  8
補助
 62
     0
100
AcDbText
 10
2338.490869919937
 20
1975.947979478156
 30
0.0
 40
30.0
  1
材質
  7
明朝
 72
     4
 11
2382.376584205651
 21
1991.119408049584
 31
0.0
100
AcDbText
  0
TEXT
  5
1D1B
330
1F
100
AcDbEntity
  8
実形
 62
     0
100
AcDbText
 10
2048.227810657788
 20
1910.557142857144
 30
0.0
 40
30.0
  1
ボウル
  7
明朝
 72
     4
 11
2114.056382086359
 21
1926.500000000001
 31
0.0
100
AcDbText
  0
TEXT
  5
1D1C
330
1F
100
AcDbEntity
  8
実形
 62
     0
100
AcDbText
 10
2594.700000000001
 20
1911.842857142858
 30
0.0
 40
30.0
  1
1.0ｍｍ
  7
明朝
 72
     4
 11
2671.500000000001
 21
1926.500000000001
 31
0.0
100
AcDbText
  0
TEXT
  5
1D1D
330
1F
100
AcDbEntity
  8
実形
 62
     0
100
AcDbText
 10
2261.016869107866
 20
1910.728571428572
 30
0.0
 40
30.0
  1
SUS304（HL）
  7
明朝
 72
     4
 11
2392.674011965008
 21
1926.500000000001
 31
0.0
100
AcDbText
  0
LINE
  5
1D2B
330
1F
100
AcDbEntity
  8
補助
 62
     0
100
AcDbLine
 10
2784.0
 20
1829.000000000001
 30
0.0
 11
2019.387286519283
 21
1829.000000000001
 31
0.0
  0
TEXT
  5
1D34
330
1F
100
AcDbEntity
  8
実形
 62
     0
100
AcDbText
 10
2070.170667800645
 20
1846.242857142858
 30
0.0
 40
30.0
  1
天板
  7
明朝
 72
     4
 11
2114.056382086359
 21
1861.500000000001
 31
0.0
100
AcDbText
  0
TEXT
  5
1D3E
330
1F
100
AcDbEntity
  8
実形
 62
     0
100
AcDbText
 10
2594.700000000001
 20
1846.842857142858
 30
0.0
 40
30.0
  1
1.0ｍｍ
  7
明朝
 72
     4
 11
2671.500000000001
 21
1861.500000000001
 31
0.0
100
AcDbText
  0
TEXT
  5
1D3F
330
1F
100
AcDbEntity
  8
実形
 62
     0
100
AcDbText
 10
2261.016869107866
 20
1845.728571428573
 30
0.0
 40
30.0
  1
SUS304（HL）
  7
明朝
 72
     4
 11
2392.674011965008
 21
1861.500000000001
 31
0.0
100
AcDbText
  0
LINE
  5
1D40
330
1F
100
AcDbEntity
  8
補助
100
AcDbLine
 10
109.0
 20
4.0
 30
0.0
 11
109.0
 21
2024.0
 31
0.0
  0
ARC
  5
1D41
330
1F
100
AcDbEntity
  8
実形
100
AcDbCircle
 10
820.5905346112649
 20
1199.319532236984
 30
0.0
 40
20.0
100
AcDbArc
 50
180.0
 51
269.9999999999999
  0
LINE
  5
1D42
330
1F
100
AcDbEntity
  8
補助
100
AcDbLine
 10
109.0
 20
4.0
 30
0.0
 11
109.0
 21
2024.0
 31
0.0
  0
TEXT
  5
1D5F
330
1F
100
AcDbEntity
  8
0
100
AcDbText
 10
2430.916666666667
 20
84.0
 30
0.0
 40
35.0
  1
1：10
 72
     4
 11
2484.0
 21
101.5
 31
0.0
100
AcDbText
  0
LINE
  5
1D60
330
1F
100
AcDbEntity
  8
補助
100
AcDbLine
 10
109.0
 20
4.0
 30
0.0
 11
109.0
 21
2024.0
 31
0.0
  0
VIEWPORT
  5
2E
102
{ACAD_XDICTIONARY
360
1DA6
102
}
330
1B
100
AcDbEntity
 67
     1
  8
0
100
AcDbViewport
 10
144.7270812988281
 20
101.2295806407928
 30
0.0
 40
411.6736216682419
 41
222.1517806396485
 68
     1
 69
     1
 12
144.7270812988281
 22
101.2295806407928
 13
0.0
 23
0.0
 14
10.0
 24
10.0
 15
10.0
 25
10.0
 16
0.0
 26
0.0
 36
1.0
 17
0.0
 27
0.0
 37
0.0
 42
50.0
 43
0.0
 44
0.0
 45
222.1517806396485
 50
0.0
 51
0.0
 72
   100
 90
    32800
  1

281
     0
 71
     1
 74
     0
110
0.0
120
0.0
130
0.0
111
1.0
121
0.0
131
0.0
112
0.0
122
1.0
132
0.0
 79
     0
146
0.0
  0
VIEWPORT
  5
30
102
{ACAD_XDICTIONARY
360
1DA8
102
}
330
1B
100
AcDbEntity
 67
     1
  8
0
100
AcDbViewport
 10
139.2237563133239
 20
101.2295821905136
 30
0.0
 40
222.7580101013184
 41
161.9673315048218
 68
     2
 69
     2
 12
210.0
 22
148.5
 13
0.0
 23
0.0
 14
10.0
 24
10.0
 15
10.0
 25
10.0
 16
0.0
 26
0.0
 36
1.0
 17
0.0
 27
0.0
 37
0.0
 42
50.0
 43
0.0
 44
0.0
 45
309.0686705647124
 50
0.0
 51
0.0
 72
   100
 90
    32864
  1

281
     0
 71
     1
 74
     0
110
0.0
120
0.0
130
0.0
111
1.0
121
0.0
131
0.0
112
0.0
122
1.0
132
0.0
 79
     0
146
0.0
  0
ENDSEC
  0
SECTION
  2
OBJECTS
  0
DICTIONARY
  5
C
330
0
100
AcDbDictionary
281
     1
  3
ACAD_COLOR
350
17FF
  3
ACAD_GROUP
350
D
  3
ACAD_LAYOUT
350
1A
  3
ACAD_MATERIAL
350
17FE
  3
ACAD_MLINESTYLE
350
17
  3
ACAD_PLOTSETTINGS
350
19
  3
ACAD_PLOTSTYLENAME
350
E
  3
ACAD_TABLESTYLE
350
1800
  3
AcadDim
350
124
  3
ACDBHEADERROUNDTRIPXREC
350
1D9F
  3
AcDbVariableDictionary
350
1055
  3
DWGPROPS
350
1D9E
  0
DICTIONARY
  5
1832
330
2
100
AcDbDictionary
280
     1
281
     1
  3
ACAD_LAYERFILTERS
360
1834
  3
ACAD_LAYERSTATES
360
1AA7
  3
ACLYDICTIONARY
360
1833
  0
DICTIONARY
  5
1839
330
1F
100
AcDbDictionary
280
     1
281
     1
  3
ACAD_SORTENTS
360
183A
  0
DICTIONARY
  5
1DA6
330
2E
100
AcDbDictionary
280
     1
281
     1
  3
ACAD_XREC_ROUNDTRIP
360
1DA7
  0
DICTIONARY
  5
1DA8
330
30
100
AcDbDictionary
280
     1
281
     1
  3
ACAD_XREC_ROUNDTRIP
360
1DA9
  0
DICTIONARY
  5
17FF
102
{ACAD_REACTORS
330
C
102
}
330
C
100
AcDbDictionary
281
     1
  0
DICTIONARY
  5
D
102
{ACAD_REACTORS
330
C
102
}
330
C
100
AcDbDictionary
281
     1
  0
DICTIONARY
  5
1A
102
{ACAD_REACTORS
330
C
102
}
330
C
100
AcDbDictionary
281
     1
  3
Model
350
22
  3
ﾚｲｱｳﾄ1
350
1E
  3
ﾚｲｱｳﾄ2
350
26
  0
DICTIONARY
  5
17FE
102
{ACAD_REACTORS
330
C
102
}
330
C
100
AcDbDictionary
281
     1
  0
DICTIONARY
  5
17
102
{ACAD_REACTORS
330
C
102
}
330
C
100
AcDbDictionary
281
     1
  3
Standard
350
18
  0
DICTIONARY
  5
19
102
{ACAD_REACTORS
330
C
102
}
330
C
100
AcDbDictionary
281
     1
  0
ACDBDICTIONARYWDFLT
  5
E
102
{ACAD_REACTORS
330
C
102
}
330
C
100
AcDbDictionary
281
     1
  3
Normal
350
F
100
AcDbDictionaryWithDefault
340
F
  0
DICTIONARY
  5
1800
102
{ACAD_REACTORS
330
C
102
}
330
C
100
AcDbDictionary
281
     1
  3
Standard
350
1801
  0
XRECORD
  5
124
102
{ACAD_REACTORS
330
C
102
}
330
C
100
AcDbXrecord
280
     1
 90
   990106
  3

 60
     0
 61
     0
 62
     1
 63
     3
 64
     0
 65
     0
 66
     0
 67
     3
 68
     1
 69
     0
 70
     0
 71
     0
 72
     0
 40
30.0
170
     0
  0
DICTIONARY
  5
1D9F
102
{ACAD_REACTORS
330
C
102
}
330
C
100
AcDbDictionary
281
     1
  0
DICTIONARY
  5
1055
102
{ACAD_REACTORS
330
C
102
}
330
C
100
AcDbDictionary
281
     1
  3
CTABLESTYLE
350
1809
  3
DIMASSOC
350
1D9B
  3
PROJECTNAME
350
1D9C
  3
SORTENTS
350
1056
  0
XRECORD
  5
1D9E
102
{ACAD_REACTORS
330
C
102
}
330
C
100
AcDbXrecord
280
     1
  1
DWGPROPS COOKIE
  2

  3

  4

  6

  7

  8

  9

300
=
301
=
302
=
303
=
304
=
305
=
306
=
307
=
308
=
309
=
 40
1.072434097222222
 41
2451673.575802199
 42
2458809.772417627
  1

 90
        0
  0
DICTIONARY
  5
1834
102
{ACAD_REACTORS
330
1832
102
}
330
1832
100
AcDbDictionary
281
     1
  0
DICTIONARY
  5
1AA7
102
{ACAD_REACTORS
330
1832
102
}
330
1832
100
AcDbDictionary
281
     1
  0
DICTIONARY
  5
1833
102
{ACAD_REACTORS
330
1832
102
}
330
1832
100
AcDbDictionary
281
     1
1001
ACAD
1000
<All
  0
SORTENTSTABLE
  5
183A
102
{ACAD_REACTORS
330
1839
102
}
330
1839
100
AcDbSortentsTable
330
1F
331
1D42
  5
A9
331
1ABF
  5
1AC8
331
1930
  5
1AC3
331
11FC
  5
143D
331
1774
  5
1ABF
331
1204
  5
152E
331
1AC7
  5
1B70
331
1D13
  5
1D17
331
1C0C
  5
1C22
331
11CD
  5
11DC
331
1530
  5
1546
331
11D5
  5
11E2
331
1D1B
  5
1D3E
331
1538
  5
1773
331
11DD
  5
11EA
331
DBE
  5
DC1
331
1C2C
  5
1D14
331
1D2B
  5
1D19
331
1540
  5
1854
331
11E5
  5
11F4
331
DC6
  5
11C2
331
1854
  5
1AC0
331
1B66
  5
1533
331
A0
  5
A0
331
11ED
  5
11FF
331
11F5
  5
1205
331
1AC0
  5
1AC9
331
11FD
  5
1453
331
11C6
  5
11CB
331
1931
  5
1AC4
331
1AC8
  5
1B79
331
1499
  5
153B
331
1205
  5
152F
331
1874
  5
11D7
331
1D14
  5
1D18
331
A8
  5
AB
331
11CE
  5
11DD
331
1531
  5
1549
331
1D1C
  5
1D3F
331
1539
  5
1774
331
11DE
  5
11EB
331
DBF
  5
DC2
331
1C2D
  5
1D15
331
1541
  5
1873
331
11E6
  5
11F5
331
DC7
  5
11C3
331
1D34
  5
1D41
331
1B67
  5
1532
331
1549
  5
1877
331
11EE
  5
1200
331
147A
  5
1538
331
11FE
  5
147A
331
11C7
  5
11CD
331
1AC1
  5
1ACA
331
149A
  5
153C
331
1AC9
  5
1BA0
331
1D15
  5
1D1A
331
1C16
  5
1C2C
331
A9
  5
AD
331
152A
  5
153D
331
120E
  5
1535
331
1532
  5
154C
331
11D7
  5
11E3
331
1D1D
  5
1D40
331
153A
  5
177F
331
11DF
  5
11ED
331
DC0
  5
DC3
331
11E7
  5
11F8
331
DC8
  5
11C6
331
1453
  5
1537
331
11EF
  5
1202
331
1B70
  5
1BE3
331
11F7
  5
1208
331
191B
  5
1AC1
331
147B
  5
1539
331
11FF
  5
147B
331
1AC2
  5
1ACB
331
1BA0
  5
1C0C
331
1207
  5
1530
331
1ACA
  5
1BA1
331
1D16
  5
1D1B
331
1C17
  5
1C2D
331
11C8
  5
11CE
331
2C9
  5
DBA
331
AA
  5
272
331
152B
  5
153E
331
8C9
  5
DBB
331
1533
  5
154D
331
11D8
  5
11E4
331
DB9
  5
DBC
331
153B
  5
1780
331
11E0
  5
11EE
331
DC1
  5
DC4
331
1543
  5
1874
331
1738
  5
1932
331
1D3E
  5
1D42
331
11E8
  5
11FB
331
191C
  5
1AC2
331
11F8
  5
1209
331
1770
  5
1ABD
331
1B79
  5
1C0B
331
147C
  5
153A
331
1200
  5
147C
331
272
  5
DB9
331
1AC3
  5
1B64
331
1BA1
  5
1C16
331
1ACB
  5
1BB5
331
1D17
  5
1D1C
331
11C9
  5
11CF
331
AB
  5
2C8
331
152C
  5
153F
331
11D1
  5
11DE
331
1534
  5
154E
331
11D9
  5
11E5
331
DBA
  5
DBD
331
153C
  5
1781
331
143D
  5
1536
331
11E1
  5
11EF
331
DC2
  5
DC5
331
1C48
  5
1D16
331
1D3F
  5
1D5F
331
9C
  5
9C
331
154C
  5
191B
331
11F9
  5
120B
331
11C2
  5
11C7
331
1201
  5
1499
331
1AC4
  5
1B65
331
1D5F
  5
1D60
331
11CA
  5
11D1
331
152D
  5
1540
331
11D2
  5
11E0
331
1D18
  5
1D1D
331
1C21
  5
1C48
331
1535
  5
1738
331
11DA
  5
11E6
331
DBB
  5
DBE
331
153D
  5
17C0
331
11E2
  5
11F1
331
DC3
  5
DC6
331
1BE2
  5
1C17
331
11EA
  5
11FD
331
154D
  5
191C
331
A5
  5
A5
331
1D40
  5
AA
331
11FA
  5
120D
331
11C3
  5
11C8
331
1ABD
  5
1AC6
331
1202
  5
152B
331
1AC5
  5
1B66
331
1D60
  5
A8
331
120A
  5
1531
331
11CB
  5
11D6
331
AD
  5
2C9
331
152E
  5
1541
331
1D19
  5
1D1E
331
1536
  5
1753
331
11DB
  5
11E7
331
DBC
  5
DBF
331
1C22
  5
1D13
331
153E
  5
1838
331
11E3
  5
11F2
331
DC4
  5
DC7
331
1546
  5
1875
331
1BE3
  5
1207
331
1B64
  5
11D0
331
154E
  5
1930
331
11F3
  5
1203
331
1753
  5
1960
331
1ABE
  5
1AC7
331
11FB
  5
120E
331
11C4
  5
11C9
331
1773
  5
1ABE
331
1D41
  5
11D2
331
1203
  5
152D
331
1AC6
  5
1B67
331
1A1F
  5
1AC5
331
1C0B
  5
1C21
331
120B
  5
1534
331
11CC
  5
11DB
331
152F
  5
1543
331
1537
  5
1770
331
11DC
  5
11E8
331
DBD
  5
DC0
331
1D1A
  5
1D34
331
153F
  5
183B
331
DC5
  5
DC8
331
1A5F
  5
11E1
331
1B65
  5
120A
331
11EC
  5
11FE
331
11F4
  5
1204
  0
XRECORD
  5
1DA7
102
{ACAD_REACTORS
330
1DA6
102
}
330
1DA6
100
AcDbXrecord
280
     1
102
SHADEPLOT
 70
     0
  0
XRECORD
  5
1DA9
102
{ACAD_REACTORS
330
1DA8
102
}
330
1DA8
100
AcDbXrecord
280
     1
102
SHADEPLOT
 70
     0
  0
LAYOUT
  5
22
102
{ACAD_XDICTIONARY
360
1DA2
102
}
102
{ACAD_REACTORS
330
1A
102
}
330
1A
100
AcDbPlotSettings
  1

  2
EPSON PM-800C
  4
A4
  6

 40
3.757083177566528
 41
14.7637300491333
 42
3.757080078125
 43
3.757080078125
 44
209.9733276367187
 45
296.9683227539062
 46
0.0
 47
0.0
 48
0.0
 49
0.0
140
0.0
141
0.0
142
1.0
143
10.0
 70
 11952
 72
     1
 73
     1
 74
     2
  7

 75
    20
147
0.1
148
0.0
149
0.0
100
AcDbLayout
  1
Model
 70
     1
 71
     0
 10
0.0
 20
0.0
 11
12.0
 21
9.0
 12
0.0
 22
0.0
 32
0.0
 14
0.0
 24
0.0
 34
0.0
 15
0.0
 25
0.0
 35
0.0
146
0.0
 13
0.0
 23
0.0
 33
0.0
 16
1.0
 26
0.0
 36
0.0
 17
0.0
 27
1.0
 37
0.0
 76
     0
330
1F
  0
LAYOUT
  5
1E
102
{ACAD_XDICTIONARY
360
1DA0
102
}
102
{ACAD_REACTORS
330
1A
102
}
330
1A
100
AcDbPlotSettings
  1

  2
EPSON PM-800C
  4
A4
  6

 40
3.757083177566528
 41
14.7637300491333
 42
3.757080078125
 43
3.757080078125
 44
209.9733276367187
 45
296.9683227539062
 46
0.0
 47
0.0
 48
0.0
 49
0.0
140
0.0
141
0.0
142
1.0
143
1.0
 70
   688
 72
     1
 73
     1
 74
     5
  7

 75
    16
147
1.0
148
0.0
149
0.0
100
AcDbLayout
  1
ﾚｲｱｳﾄ1
 70
     1
 71
     1
 10
-3.757080078125
 20
-3.757083177566528
 11
293.2112426757813
 21
206.2162444591522
 12
0.0
 22
0.0
 32
0.0
 14
27.8447512626648
 24
20.24591643810271
 34
0.0
 15
250.6027613639831
 25
182.2132479429245
 35
0.0
146
0.0
 13
0.0
 23
0.0
 33
0.0
 16
1.0
 26
0.0
 36
0.0
 17
0.0
 27
1.0
 37
0.0
 76
     0
330
1B
331
2E
  0
LAYOUT
  5
26
102
{ACAD_XDICTIONARY
360
1DA4
102
}
102
{ACAD_REACTORS
330
1A
102
}
330
1A
100
AcDbPlotSettings
  1

  2
EPSON PM-800C
  4

  6

 40
0.0
 41
0.0
 42
0.0
 43
0.0
 44
0.0
 45
0.0
 46
0.0
 47
0.0
 48
0.0
 49
0.0
140
0.0
141
0.0
142
1.0
143
1.0
 70
   688
 72
     0
 73
     0
 74
     5
  7

 75
    16
147
1.0
148
0.0
149
0.0
100
AcDbLayout
  1
ﾚｲｱｳﾄ2
 70
     1
 71
     2
 10
0.0
 20
0.0
 11
12.0
 21
9.0
 12
0.0
 22
0.0
 32
0.0
 14
0.0
 24
0.0
 34
0.0
 15
0.0
 25
0.0
 35
0.0
146
0.0
 13
0.0
 23
0.0
 33
0.0
 16
1.0
 26
0.0
 36
0.0
 17
0.0
 27
1.0
 37
0.0
 76
     0
330
23
  0
MLINESTYLE
  5
18
102
{ACAD_REACTORS
330
17
102
}
330
17
100
AcDbMlineStyle
  2
STANDARD
 70
     0
  3

 62
   256
 51
90.0
 52
90.0
 71
     2
 49
0.5
 62
   256
  6
BYLAYER
 49
-0.5
 62
   256
  6
BYLAYER
  0
ACDBPLACEHOLDER
  5
F
102
{ACAD_REACTORS
330
E
102
}
330
E
  0
TABLESTYLE
  5
1801
102
{ACAD_REACTORS
330
1800
102
}
330
1800
100
AcDbTableStyle
  3
Standard
 70
     0
 71
     0
 40
1.5
 41
1.5
280
     0
281
     0
  7
Standard
140
4.5
170
     2
 62
     0
 63
     7
283
     0
274
    -2
284
     1
 64
     0
275
    -2
285
     1
 65
     0
276
    -2
286
     1
 66
     0
277
    -2
287
     1
 67
     0
278
    -2
288
     1
 68
     0
279
    -2
289
     1
 69
     0
  7
Standard
140
6.0
170
     5
 62
     0
 63
     7
283
     0
274
    -2
284
     1
 64
     0
275
    -2
285
     1
 65
     0
276
    -2
286
     1
 66
     0
277
    -2
287
     1
 67
     0
278
    -2
288
     1
 68
     0
279
    -2
289
     1
 69
     0
  7
Standard
140
4.5
170
     5
 62
     0
 63
     7
283
     0
274
    -2
284
     1
 64
     0
275
    -2
285
     1
 65
     0
276
    -2
286
     1
 66
     0
277
    -2
287
     1
 67
     0
278
    -2
288
     1
 68
     0
279
    -2
289
     1
 69
     0
  0
DICTIONARYVAR
  5
1809
102
{ACAD_REACTORS
330
1055
102
}
330
1055
100
DictionaryVariables
280
     0
  1
STANDARD
  0
DICTIONARYVAR
  5
1D9B
102
{ACAD_REACTORS
330
1055
102
}
330
1055
100
DictionaryVariables
280
     0
  1
1
  0
DICTIONARYVAR
  5
1D9C
102
{ACAD_REACTORS
330
1055
102
}
330
1055
100
DictionaryVariables
280
     0
  1

  0
DICTIONARYVAR
  5
1056
102
{ACAD_REACTORS
330
1055
102
}
330
1055
100
DictionaryVariables
280
     0
  1
96
  0
DICTIONARY
  5
1DA2
330
22
100
AcDbDictionary
280
     1
281
     1
  3
ACAD_XREC_ROUNDTRIP
360
1DA3
  0
DICTIONARY
  5
1DA0
330
1E
100
AcDbDictionary
280
     1
281
     1
  3
ACAD_XREC_ROUNDTRIP
360
1DA1
  0
DICTIONARY
  5
1DA4
330
26
100
AcDbDictionary
280
     1
281
     1
  3
ACAD_XREC_ROUNDTRIP
360
1DA5
  0
XRECORD
  5
1DA3
102
{ACAD_REACTORS
330
1DA2
102
}
330
1DA2
100
AcDbXrecord
280
     1
102
SHADEPLOT
 70
     0
102
SHADEPLOTRESLEVEL
 70
     2
102
SHADEPLOTCUSTOMDPI
 70
   300
  0
XRECORD
  5
1DA1
102
{ACAD_REACTORS
330
1DA0
102
}
330
1DA0
100
AcDbXrecord
280
     1
102
SHADEPLOT
 70
     0
102
SHADEPLOTRESLEVEL
 70
     2
102
SHADEPLOTCUSTOMDPI
 70
   300
  0
XRECORD
  5
1DA5
102
{ACAD_REACTORS
330
1DA4
102
}
330
1DA4
100
AcDbXrecord
280
     1
102
SHADEPLOT
 70
     0
102
SHADEPLOTRESLEVEL
 70
     2
102
SHADEPLOTCUSTOMDPI
 70
   300
  0
ENDSEC
  0
EOF
