  0
SECTION
  2
HEADER
  9
$ACADVER
  1
AC1015
  9
$ACADMAINTVER
 70
    20
  9
$DWGCODEPAGE
  3
ANSI_932
  9
$INSBASE
 10
0.0
 20
0.0
 30
0.0
  9
$EXTMIN
 10
109.0
 20
4.0
 30
0.0
  9
$EXTMAX
 10
2784.0
 20
2024.000000000002
 30
0.0
  9
$LIMMIN
 10
0.0
 20
0.0
  9
$LIMMAX
 10
29700.0
 20
21000.0
  9
$ORTHOMODE
 70
     1
  9
$REGENMODE
 70
     1
  9
$FILLMODE
 70
     1
  9
$QTEXTMODE
 70
     0
  9
$MIRRTEXT
 70
     1
  9
$LTSCALE
 40
4.0
  9
$ATTMODE
 70
     1
  9
$TEXTSIZE
 40
25.0
  9
$TRACEWID
 40
1.0
  9
$TEXTSTYLE
  7
Standard
  9
$CLAYER
  8
実形
  9
$CELTYPE
  6
ByLayer
  9
$CECOLOR
 62
     3
  9
$CELTSCALE
 40
1.0
  9
$DISPSILH
 70
     0
  9
$DIMSCALE
 40
1.0
  9
$DIMASZ
 40
35.0
  9
$DIMEXO
 40
65.0
  9
$DIMDLI
 40
3.75
  9
$DIMRND
 40
0.0
  9
$DIMDLE
 40
0.0
  9
$DIMEXE
 40
0.0
  9
$DIMTP
 40
0.0
  9
$DIMTM
 40
0.0
  9
$DIMTXT
 40
25.0
  9
$DIMCEN
 40
2.5
  9
$DIMTSZ
 40
0.0
  9
$DIMTOL
 70
     0
  9
$DIMLIM
 70
     0
  9
$DIMTIH
 70
     0
  9
$DIMTOH
 70
     0
  9
$DIMSE1
 70
     0
  9
$DIMSE2
 70
     0
  9
$DIMTAD
 70
     1
  9
$DIMZIN
 70
     8
  9
$DIMBLK
  1
DotSmall
  9
$DIMASO
 70
     1
  9
$DIMSHO
 70
     1
  9
$DIMPOST
  1

  9
$DIMAPOST
  1

  9
$DIMALT
 70
     0
  9
$DIMALTD
 70
     3
  9
$DIMALTF
 40
0.03937007874016
  9
$DIMLFAC
 40
1.0
  9
$DIMTOFL
 70
     1
  9
$DIMTVP
 40
0.0
  9
$DIMTIX
 70
     0
  9
$DIMSOXD
 70
     0
  9
$DIMSAH
 70
     0
  9
$DIMBLK1
  1

  9
$DIMBLK2
  1

  9
$DIMSTYLE
  2
ISO-25
  9
$DIMCLRD
 70
     0
  9
$DIMCLRE
 70
     0
  9
$DIMCLRT
 70
     0
  9
$DIMTFAC
 40
1.0
  9
$DIMGAP
 40
6.25
  9
$DIMJUST
 70
     0
  9
$DIMSD1
 70
     0
  9
$DIMSD2
 70
     0
  9
$DIMTOLJ
 70
     0
  9
$DIMTZIN
 70
     8
  9
$DIMALTZ
 70
     0
  9
$DIMALTTZ
 70
     0
  9
$DIMUPT
 70
     0
  9
$DIMDEC
 70
     2
  9
$DIMTDEC
 70
     2
  9
$DIMALTU
 70
     2
  9
$DIMALTTD
 70
     3
  9
$DIMTXSTY
  7
Standard
  9
$DIMAUNIT
 70
     0
  9
$DIMADEC
 70
     0
  9
$DIMALTRND
 40
0.0
  9
$DIMAZIN
 70
     0
  9
$DIMDSEP
 70
    46
  9
$DIMATFIT
 70
     0
  9
$DIMFRAC
 70
     0
  9
$DIMLDRBLK
  1
Open30
  9
$DIMLUNIT
 70
     2
  9
$DIMLWD
 70
    18
  9
$DIMLWE
 70
    18
  9
$DIMTMOVE
 70
     2
  9
$LUNITS
 70
     2
  9
$LUPREC
 70
     2
  9
$SKETCHINC
 40
1.0
  9
$FILLETRAD
 40
20.0
  9
$AUNITS
 70
     0
  9
$AUPREC
 70
     0
  9
$MENU
  1
.
  9
$ELEVATION
 40
0.0
  9
$PELEVATION
 40
0.0
  9
$THICKNESS
 40
0.0
  9
$LIMCHECK
 70
     1
  9
$CHAMFERA
 40
10.0
  9
$CHAMFERB
 40
10.0
  9
$CHAMFERC
 40
20.0
  9
$CHAMFERD
 40
0.0
  9
$SKPOLY
 70
     0
  9
$TDCREATE
 40
2451673.575802199
  9
$TDUCREATE
 40
2451673.200802199
  9
$TDUPDATE
 40
2458809.785978553
  9
$TDUUPDATE
 40
2458809.410978553
  9
$TDINDWG
 40
1.4870644907
  9
$TDUSRTIMER
 40
1.4870637963
  9
$USRTIMER
 70
     1
  9
$ANGBASE
 50
0.0
  9
$ANGDIR
 70
     0
  9
$PDMODE
 70
     3
  9
$PDSIZE
 40
0.0
  9
$PLINEWID
 40
0.0
  9
$SPLFRAME
 70
     0
  9
$SPLINETYPE
 70
     6
  9
$SPLINESEGS
 70
     8
  9
$HANDSEED
  5
4815
  9
$SURFTAB1
 70
     6
  9
$SURFTAB2
 70
     6
  9
$SURFTYPE
 70
     6
  9
$SURFU
 70
     6
  9
$SURFV
 70
     6
  9
$UCSBASE
  2

  9
$UCSNAME
  2

  9
$UCSORG
 10
0.0
 20
0.0
 30
0.0
  9
$UCSXDIR
 10
1.0
 20
0.0
 30
0.0
  9
$UCSYDIR
 10
0.0
 20
1.0
 30
0.0
  9
$UCSORTHOREF
  2

  9
$UCSORTHOVIEW
 70
     0
  9
$UCSORGTOP
 10
0.0
 20
0.0
 30
0.0
  9
$UCSORGBOTTOM
 10
0.0
 20
0.0
 30
0.0
  9
$UCSORGLEFT
 10
0.0
 20
0.0
 30
0.0
  9
$UCSORGRIGHT
 10
0.0
 20
0.0
 30
0.0
  9
$UCSORGFRONT
 10
0.0
 20
0.0
 30
0.0
  9
$UCSORGBACK
 10
0.0
 20
0.0
 30
0.0
  9
$PUCSBASE
  2

  9
$PUCSNAME
  2

  9
$PUCSORG
 10
0.0
 20
0.0
 30
0.0
  9
$PUCSXDIR
 10
1.0
 20
0.0
 30
0.0
  9
$PUCSYDIR
 10
0.0
 20
1.0
 30
0.0
  9
$PUCSORTHOREF
  2

  9
$PUCSORTHOVIEW
 70
     0
  9
$PUCSORGTOP
 10
0.0
 20
0.0
 30
0.0
  9
$PUCSORGBOTTOM
 10
0.0
 20
0.0
 30
0.0
  9
$PUCSORGLEFT
 10
0.0
 20
0.0
 30
0.0
  9
$PUCSORGRIGHT
 10
0.0
 20
0.0
 30
0.0
  9
$PUCSORGFRONT
 10
0.0
 20
0.0
 30
0.0
  9
$PUCSORGBACK
 10
0.0
 20
0.0
 30
0.0
  9
$USERI1
 70
     0
  9
$USERI2
 70
     0
  9
$USERI3
 70
     0
  9
$USERI4
 70
     0
  9
$USERI5
 70
     0
  9
$USERR1
 40
0.0
  9
$USERR2
 40
0.0
  9
$USERR3
 40
0.0
  9
$USERR4
 40
0.0
  9
$USERR5
 40
0.0
  9
$WORLDVIEW
 70
     1
  9
$SHADEDGE
 70
     3
  9
$SHADEDIF
 70
    70
  9
$TILEMODE
 70
     1
  9
$MAXACTVP
 70
    64
  9
$PINSBASE
 10
0.0
 20
0.0
 30
0.0
  9
$PLIMCHECK
 70
     0
  9
$PEXTMIN
 10
27.8447512626648
 20
20.24591643810271
 30
0.0
  9
$PEXTMAX
 10
250.6027613639831
 20
182.2132479429245
 30
0.0
  9
$PLIMMIN
 10
-3.757080078125
 20
-3.757083177566528
  9
$PLIMMAX
 10
293.2112426757813
 20
206.2162444591522
  9
$UNITMODE
 70
     0
  9
$VISRETAIN
 70
     1
  9
$PLINEGEN
 70
     0
  9
$PSLTSCALE
 70
     1
  9
$TREEDEPTH
 70
  3020
  9
$CMLSTYLE
  2
Standard
  9
$CMLJUST
 70
     0
  9
$CMLSCALE
 40
20.0
  9
$PROXYGRAPHICS
 70
     1
  9
$MEASUREMENT
 70
     1
  9
$CELWEIGHT
370
    -1
  9
$ENDCAPS
280
     0
  9
$JOINSTYLE
280
     0
  9
$LWDISPLAY
290
     0
  9
$INSUNITS
 70
     4
  9
$HYPERLINKBASE
  1

  9
$STYLESHEET
  1

  9
$XEDIT
290
     1
  9
$CEPSNTYPE
380
     0
  9
$PSTYLEMODE
290
     1
  9
$FINGERPRINTGUID
  2
{C8EA1F16-24C9-11D4-9416-CE0A3B32152F}
  9
$VERSIONGUID
  2
{29D0966D-32A4-46B4-9DAF-6BFB161CA706}
  9
$EXTNAMES
290
     1
  9
$PSVPSCALE
 40
0.0
  9
$OLESTARTUP
290
     0
  0
ENDSEC
  0
SECTION
  2
CLASSES
  0
CLASS
  1
ACDBDICTIONARYWDFLT
  2
AcDbDictionaryWithDefault
  3
ObjectDBX Classes
 90
        0
280
     0
281
     0
  0
CLASS
  1
ACDBPLACEHOLDER
  2
AcDbPlaceHolder
  3
ObjectDBX Classes
 90
        0
280
     0
281
     0
  0
CLASS
  1
LAYOUT
  2
AcDbLayout
  3
ObjectDBX Classes
 90
        0
280
     0
281
     0
  0
CLASS
  1
DICTIONARYVAR
  2
AcDbDictionaryVar
  3
ObjectDBX Classes
 90
        0
280
     0
281
     0
  0
CLASS
  1
TABLESTYLE
  2
AcDbTableStyle
  3
ObjectDBX Classes
 90
     2047
280
     0
281
     0
  0
CLASS
  1
SORTENTSTABLE
  2
AcDbSortentsTable
  3
ObjectDBX Classes
 90
        0
280
     0
281
     0
  0
ENDSEC
  0
SECTION
  2
TABLES
  0
TABLE
  2
VPORT
  5
8
330
0
100
AcDbSymbolTable
 70
     2
  0
VPORT
  5
4809
330
8
100
AcDbSymbolTableRecord
100
AcDbViewportTableRecord
  2
*Active
 70
     0
 10
0.0
 20
0.0
 11
1.0
 21
1.0
 12
1366.109680060355
 22
1050.226187249034
 13
0.0
 23
0.0
 14
10.0
 24
10.0
 15
10.0
 25
10.0
 16
0.0
 26
0.0
 36
1.0
 17
0.0
 27
0.0
 37
0.0
 40
2646.941290160339
 41
1.29038112522686
 42
50.0
 43
0.0
 44
0.0
 50
0.0
 51
0.0
 71
     0
 72
   100
 73
     1
 74
     3
 75
     0
 76
     0
 77
     0
 78
     0
281
     0
 65
     1
110
0.0
120
0.0
130
0.0
111
1.0
121
0.0
131
0.0
112
0.0
122
1.0
132
0.0
 79
     0
146
0.0
  0
ENDTAB
  0
TABLE
  2
LTYPE
  5
5
330
0
100
AcDbSymbolTable
 70
    46
  0
LTYPE
  5
14
330
5
100
AcDbSymbolTableRecord
100
AcDbLinetypeTableRecord
  2
ByBlock
 70
     0
  3

 72
    65
 73
     0
 40
0.0
  0
LTYPE
  5
15
330
5
100
AcDbSymbolTableRecord
100
AcDbLinetypeTableRecord
  2
ByLayer
 70
     0
  3

 72
    65
 73
     0
 40
0.0
  0
LTYPE
  5
16
330
5
100
AcDbSymbolTableRecord
100
AcDbLinetypeTableRecord
  2
Continuous
 70
     0
  3
Solid line
 72
    65
 73
     0
 40
0.0
  0
LTYPE
  5
34
330
5
100
AcDbSymbolTableRecord
100
AcDbLinetypeTableRecord
  2
ACAD_ISO02W100
 70
     0
  3
ISO dash __ __ __ __ __ __ __ __ __ __ __ __ __
 72
    65
 73
     2
 40
15.0
 49
12.0
 74
     0
 49
-3.0
 74
     0
  0
LTYPE
  5
35
330
5
100
AcDbSymbolTableRecord
100
AcDbLinetypeTableRecord
  2
ACAD_ISO03W100
 70
     0
  3
ISO dash space __    __    __    __    __    __
 72
    65
 73
     2
 40
30.0
 49
12.0
 74
     0
 49
-18.0
 74
     0
  0
LTYPE
  5
36
330
5
100
AcDbSymbolTableRecord
100
AcDbLinetypeTableRecord
  2
ACAD_ISO04W100
 70
     0
  3
ISO long-dash dot ____ . ____ . ____ . ____ . _
 72
    65
 73
     4
 40
30.0
 49
24.0
 74
     0
 49
-3.0
 74
     0
 49
0.0
 74
     0
 49
-3.0
 74
     0
  0
LTYPE
  5
37
330
5
100
AcDbSymbolTableRecord
100
AcDbLinetypeTableRecord
  2
ACAD_ISO05W100
 70
     0
  3
ISO long-dash double-dot ____ .. ____ .. ____ .
 72
    65
 73
     6
 40
34.0
 49
24.0
 74
     0
 49
-3.0
 74
     0
 49
0.5
 74
     0
 49
-3.0
 74
     0
 49
0.5
 74
     0
 49
-3.0
 74
     0
  0
LTYPE
  5
38
330
5
100
AcDbSymbolTableRecord
100
AcDbLinetypeTableRecord
  2
ACAD_ISO06W100
 70
     0
  3
ISO long-dash triple-dot ____ ... ____ ... ____
 72
    65
 73
     8
 40
37.5
 49
24.0
 74
     0
 49
-3.0
 74
     0
 49
0.5
 74
     0
 49
-3.0
 74
     0
 49
0.5
 74
     0
 49
-3.0
 74
     0
 49
0.5
 74
     0
 49
-3.0
 74
     0
  0
LTYPE
  5
39
330
5
100
AcDbSymbolTableRecord
100
AcDbLinetypeTableRecord
  2
ACAD_ISO07W100
 70
     0
  3
ISO dot . . . . . . . . . . . . . . . . . . . .
 72
    65
 73
     2
 40
3.0
 49
0.0
 74
     0
 49
-3.0
 74
     0
  0
LTYPE
  5
3A
330
5
100
AcDbSymbolTableRecord
100
AcDbLinetypeTableRecord
  2
ACAD_ISO08W100
 70
     0
  3
ISO long-dash short-dash ____ __ ____ __ ____ _
 72
    65
 73
     4
 40
36.0
 49
24.0
 74
     0
 49
-3.0
 74
     0
 49
6.0
 74
     0
 49
-3.0
 74
     0
  0
LTYPE
  5
3B
330
5
100
AcDbSymbolTableRecord
100
AcDbLinetypeTableRecord
  2
ACAD_ISO09W100
 70
     0
  3
ISO long-dash double-short-dash ____ __ __ ____
 72
    65
 73
     6
 40
45.0
 49
24.0
 74
     0
 49
-3.0
 74
     0
 49
6.0
 74
     0
 49
-3.0
 74
     0
 49
6.0
 74
     0
 49
-3.0
 74
     0
  0
LTYPE
  5
3C
330
5
100
AcDbSymbolTableRecord
100
AcDbLinetypeTableRecord
  2
ACAD_ISO10W100
 70
     0
  3
ISO dash dot __ . __ . __ . __ . __ . __ . __ .
 72
    65
 73
     4
 40
18.0
 49
12.0
 74
     0
 49
-3.0
 74
     0
 49
0.0
 74
     0
 49
-3.0
 74
     0
  0
LTYPE
  5
3D
330
5
100
AcDbSymbolTableRecord
100
AcDbLinetypeTableRecord
  2
ACAD_ISO11W100
 70
     0
  3
ISO double-dash dot __ __ . __ __ . __ __ . __ 
 72
    65
 73
     6
 40
33.0
 49
12.0
 74
     0
 49
-3.0
 74
     0
 49
12.0
 74
     0
 49
-3.0
 74
     0
 49
0.0
 74
     0
 49
-3.0
 74
     0
  0
LTYPE
  5
3E
330
5
100
AcDbSymbolTableRecord
100
AcDbLinetypeTableRecord
  2
ACAD_ISO12W100
 70
     0
  3
ISO dash double-dot __ . . __ . . __ . . __ . .
 72
    65
 73
     6
 40
21.0
 49
12.0
 74
     0
 49
-3.0
 74
     0
 49
0.0
 74
     0
 49
-3.0
 74
     0
 49
0.0
 74
     0
 49
-3.0
 74
     0
  0
LTYPE
  5
3F
330
5
100
AcDbSymbolTableRecord
100
AcDbLinetypeTableRecord
  2
ACAD_ISO13W100
 70
     0
  3
ISO double-dash double-dot __ __ . . __ __ . . 
 72
    65
 73
     8
 40
36.0
 49
12.0
 74
     0
 49
-3.0
 74
     0
 49
12.0
 74
     0
 49
-3.0
 74
     0
 49
0.0
 74
     0
 49
-3.0
 74
     0
 49
0.0
 74
     0
 49
-3.0
 74
     0
  0
LTYPE
  5
40
330
5
100
AcDbSymbolTableRecord
100
AcDbLinetypeTableRecord
  2
ACAD_ISO14W100
 70
     0
  3
ISO dash triple-dot __ . . . __ . . . __ . . . 
 72
    65
 73
     8
 40
24.0
 49
12.0
 74
     0
 49
-3.0
 74
     0
 49
0.0
 74
     0
 49
-3.0
 74
     0
 49
0.0
 74
     0
 49
-3.0
 74
     0
 49
0.0
 74
     0
 49
-3.0
 74
     0
  0
LTYPE
  5
41
330
5
100
AcDbSymbolTableRecord
100
AcDbLinetypeTableRecord
  2
ACAD_ISO15W100
 70
     0
  3
ISO double-dash triple-dot __ __ . . . __ __ . 
 72
    65
 73
    10
 40
39.0
 49
12.0
 74
     0
 49
-3.0
 74
     0
 49
12.0
 74
     0
 49
-3.0
 74
     0
 49
0.0
 74
     0
 49
-3.0
 74
     0
 49
0.0
 74
     0
 49
-3.0
 74
     0
 49
0.0
 74
     0
 49
-3.0
 74
     0
  0
LTYPE
  5
42
330
5
100
AcDbSymbolTableRecord
100
AcDbLinetypeTableRecord
  2
BATTING
 70
     0
  3
Batting SSSSSSSSSSSSSSSSSSSSSSSSSSSSSSSSSSSSSSS
 72
    65
 73
     4
 40
10.16254
 49
0.00254
 74
     0
 49
-2.54
 74
     4
 75
   134
340
33
 46
2.54
 50
0.0
 44
-2.54
 45
0.0
 49
-5.08
 74
     4
 75
   134
340
33
 46
2.54
 50
180.0
 44
2.54
 45
0.0
 49
-2.54
 74
     0
  0
LTYPE
  5
43
330
5
100
AcDbSymbolTableRecord
100
AcDbLinetypeTableRecord
  2
BORDER
 70
     0
  3
Border __ __ . __ __ . __ __ . __ __ . __ __ .
 72
    65
 73
     6
 40
44.45
 49
12.7
 74
     0
 49
-6.349999999999999
 74
     0
 49
12.7
 74
     0
 49
-6.349999999999999
 74
     0
 49
0.0
 74
     0
 49
-6.349999999999999
 74
     0
  0
LTYPE
  5
44
330
5
100
AcDbSymbolTableRecord
100
AcDbLinetypeTableRecord
  2
BORDER2
 70
     0
  3
Border (.5x) __.__.__.__.__.__.__.__.__.__.__.
 72
    65
 73
     6
 40
22.225
 49
6.349999999999999
 74
     0
 49
-3.174999999999999
 74
     0
 49
6.349999999999999
 74
     0
 49
-3.174999999999999
 74
     0
 49
0.0
 74
     0
 49
-3.174999999999999
 74
     0
  0
LTYPE
  5
45
330
5
100
AcDbSymbolTableRecord
100
AcDbLinetypeTableRecord
  2
BORDERX2
 70
     0
  3
Border (2x) ____  ____  .  ____  ____  .  ___
 72
    65
 73
     6
 40
88.9
 49
25.4
 74
     0
 49
-12.7
 74
     0
 49
25.4
 74
     0
 49
-12.7
 74
     0
 49
0.0
 74
     0
 49
-12.7
 74
     0
  0
LTYPE
  5
46
330
5
100
AcDbSymbolTableRecord
100
AcDbLinetypeTableRecord
  2
CENTER
 70
     0
  3
Center ____ _ ____ _ ____ _ ____ _ ____ _ ____
 72
    65
 73
     4
 40
50.8
 49
31.75
 74
     0
 49
-6.349999999999999
 74
     0
 49
6.349999999999999
 74
     0
 49
-6.349999999999999
 74
     0
  0
LTYPE
  5
47
330
5
100
AcDbSymbolTableRecord
100
AcDbLinetypeTableRecord
  2
CENTER2
 70
     0
  3
Center (.5x) ___ _ ___ _ ___ _ ___ _ ___ _ ___
 72
    65
 73
     4
 40
28.575
 49
19.05
 74
     0
 49
-3.174999999999999
 74
     0
 49
3.174999999999999
 74
     0
 49
-3.174999999999999
 74
     0
  0
LTYPE
  5
48
330
5
100
AcDbSymbolTableRecord
100
AcDbLinetypeTableRecord
  2
CENTERX2
 70
     0
  3
Center (2x) ________  __  ________  __  _____
 72
    65
 73
     4
 40
101.6
 49
63.5
 74
     0
 49
-12.7
 74
     0
 49
12.7
 74
     0
 49
-12.7
 74
     0
  0
LTYPE
  5
49
330
5
100
AcDbSymbolTableRecord
100
AcDbLinetypeTableRecord
  2
DASHDOT
 70
     0
  3
Dash dot __ . __ . __ . __ . __ . __ . __ . __
 72
    65
 73
     4
 40
25.4
 49
12.7
 74
     0
 49
-6.349999999999999
 74
     0
 49
0.0
 74
     0
 49
-6.349999999999999
 74
     0
  0
LTYPE
  5
4A
330
5
100
AcDbSymbolTableRecord
100
AcDbLinetypeTableRecord
  2
DASHDOT2
 70
     0
  3
Dash dot (.5x) _._._._._._._._._._._._._._._.
 72
    65
 73
     4
 40
12.7
 49
6.349999999999999
 74
     0
 49
-3.174999999999999
 74
     0
 49
0.0
 74
     0
 49
-3.174999999999999
 74
     0
  0
LTYPE
  5
4B
330
5
100
AcDbSymbolTableRecord
100
AcDbLinetypeTableRecord
  2
DASHDOTX2
 70
     0
  3
Dash dot (2x) ____  .  ____  .  ____  .  ___
 72
    65
 73
     4
 40
50.8
 49
25.4
 74
     0
 49
-12.7
 74
     0
 49
0.0
 74
     0
 49
-12.7
 74
     0
  0
LTYPE
  5
4C
330
5
100
AcDbSymbolTableRecord
100
AcDbLinetypeTableRecord
  2
DASHED
 70
     0
  3
Dashed __ __ __ __ __ __ __ __ __ __ __ __ __ _
 72
    65
 73
     2
 40
19.05
 49
12.7
 74
     0
 49
-6.349999999999999
 74
     0
  0
LTYPE
  5
4D
330
5
100
AcDbSymbolTableRecord
100
AcDbLinetypeTableRecord
  2
DASHED2
 70
     0
  3
Dashed (.5x) _ _ _ _ _ _ _ _ _ _ _ _ _ _ _ _ _
 72
    65
 73
     2
 40
9.524999999999998
 49
6.349999999999999
 74
     0
 49
-3.174999999999999
 74
     0
  0
LTYPE
  5
4E
330
5
100
AcDbSymbolTableRecord
100
AcDbLinetypeTableRecord
  2
DASHEDX2
 70
     0
  3
Dashed (2x) ____  ____  ____  ____  ____  ___
 72
    65
 73
     2
 40
38.1
 49
25.4
 74
     0
 49
-12.7
 74
     0
  0
LTYPE
  5
4F
330
5
100
AcDbSymbolTableRecord
100
AcDbLinetypeTableRecord
  2
DIVIDE
 70
     0
  3
Divide ____ . . ____ . . ____ . . ____ . . ____
 72
    65
 73
     6
 40
31.75
 49
12.7
 74
     0
 49
-6.349999999999999
 74
     0
 49
0.0
 74
     0
 49
-6.349999999999999
 74
     0
 49
0.0
 74
     0
 49
-6.349999999999999
 74
     0
  0
LTYPE
  5
50
330
5
100
AcDbSymbolTableRecord
100
AcDbLinetypeTableRecord
  2
DIVIDE2
 70
     0
  3
Divide (.5x) __..__..__..__..__..__..__..__.._
 72
    65
 73
     6
 40
15.875
 49
6.349999999999999
 74
     0
 49
-3.174999999999999
 74
     0
 49
0.0
 74
     0
 49
-3.174999999999999
 74
     0
 49
0.0
 74
     0
 49
-3.174999999999999
 74
     0
  0
LTYPE
  5
51
330
5
100
AcDbSymbolTableRecord
100
AcDbLinetypeTableRecord
  2
DIVIDEX2
 70
     0
  3
Divide (2x) ________  .  .  ________  .  .  _
 72
    65
 73
     6
 40
63.49999999999999
 49
25.4
 74
     0
 49
-12.7
 74
     0
 49
0.0
 74
     0
 49
-12.7
 74
     0
 49
0.0
 74
     0
 49
-12.7
 74
     0
  0
LTYPE
  5
52
330
5
100
AcDbSymbolTableRecord
100
AcDbLinetypeTableRecord
  2
DOT
 70
     0
  3
Dot . . . . . . . . . . . . . . . . . . . . . .
 72
    65
 73
     2
 40
6.349999999999999
 49
0.0
 74
     0
 49
-6.349999999999999
 74
     0
  0
LTYPE
  5
53
330
5
100
AcDbSymbolTableRecord
100
AcDbLinetypeTableRecord
  2
DOT2
 70
     0
  3
Dot (.5x) .....................................
 72
    65
 73
     2
 40
3.174999999999999
 49
0.0
 74
     0
 49
-3.174999999999999
 74
     0
  0
LTYPE
  5
54
330
5
100
AcDbSymbolTableRecord
100
AcDbLinetypeTableRecord
  2
DOTX2
 70
     0
  3
Dot (2x) .  .  .  .  .  .  .  .  .  .  .  .  . 
 72
    65
 73
     2
 40
12.7
 49
0.0
 74
     0
 49
-12.7
 74
     0
  0
LTYPE
  5
55
330
5
100
AcDbSymbolTableRecord
100
AcDbLinetypeTableRecord
  2
FENCELINE1
 70
     0
  3
Fenceline circle ----0-----0----0-----0----0---
 72
    65
 73
     4
 40
36.83
 49
6.349999999999999
 74
     0
 49
-2.54
 74
     4
 75
   133
340
33
 46
2.54
 50
0.0
 44
-2.54
 45
0.0
 49
-2.54
 74
     0
 49
25.4
 74
     0
  0
LTYPE
  5
56
330
5
100
AcDbSymbolTableRecord
100
AcDbLinetypeTableRecord
  2
FENCELINE2
 70
     0
  3
Fenceline square ----[]-----[]----[]-----[]----
 72
    65
 73
     4
 40
36.83
 49
6.349999999999999
 74
     0
 49
-2.54
 74
     4
 75
   132
340
33
 46
2.54
 50
0.0
 44
-2.54
 45
0.0
 49
-2.54
 74
     0
 49
25.4
 74
     0
  0
LTYPE
  5
57
330
5
100
AcDbSymbolTableRecord
100
AcDbLinetypeTableRecord
  2
GAS_LINE
 70
     0
  3
Gas line ----GAS----GAS----GAS----GAS----GAS---
 72
    65
 73
     3
 40
24.13
 49
12.7
 74
     0
 49
-5.08
 74
     2
 75
     0
340
11
 46
2.54
 50
0.0
 44
-2.54
 45
-1.27
  9
GAS
 49
-6.349999999999999
 74
     0
  0
LTYPE
  5
58
330
5
100
AcDbSymbolTableRecord
100
AcDbLinetypeTableRecord
  2
HIDDEN
 70
     0
  3
Hidden __ __ __ __ __ __ __ __ __ __ __ __ __ _
 72
    65
 73
     2
 40
9.524999999999998
 49
6.349999999999999
 74
     0
 49
-3.174999999999999
 74
     0
  0
LTYPE
  5
59
330
5
100
AcDbSymbolTableRecord
100
AcDbLinetypeTableRecord
  2
HIDDEN2
 70
     0
  3
Hidden (.5x) _ _ _ _ _ _ _ _ _ _ _ _ _ _ _ _ _
 72
    65
 73
     2
 40
4.762499999999999
 49
3.174999999999999
 74
     0
 49
-1.587499999999999
 74
     0
  0
LTYPE
  5
5A
330
5
100
AcDbSymbolTableRecord
100
AcDbLinetypeTableRecord
  2
HIDDENX2
 70
     0
  3
Hidden (2x) ____ ____ ____ ____ ____ ____ ____
 72
    65
 73
     2
 40
19.05
 49
12.7
 74
     0
 49
-6.349999999999999
 74
     0
  0
LTYPE
  5
5B
330
5
100
AcDbSymbolTableRecord
100
AcDbLinetypeTableRecord
  2
HOT_WATER_SUPPLY
 70
     0
  3
Hot water supply ---- HW ---- HW ---- HW ----
 72
    65
 73
     3
 40
22.86
 49
12.7
 74
     0
 49
-5.08
 74
     2
 75
     0
340
11
 46
2.54
 50
0.0
 44
-2.54
 45
-1.27
  9
HW
 49
-5.08
 74
     0
  0
LTYPE
  5
5C
330
5
100
AcDbSymbolTableRecord
100
AcDbLinetypeTableRecord
  2
PHANTOM
 70
     0
  3
Phantom ______  __  __  ______  __  __  ______
 72
    65
 73
     6
 40
63.5
 49
31.75
 74
     0
 49
-6.349999999999999
 74
     0
 49
6.349999999999999
 74
     0
 49
-6.349999999999999
 74
     0
 49
6.349999999999999
 74
     0
 49
-6.349999999999999
 74
     0
  0
LTYPE
  5
5D
330
5
100
AcDbSymbolTableRecord
100
AcDbLinetypeTableRecord
  2
PHANTOM2
 70
     0
  3
Phantom (.5x) ___ _ _ ___ _ _ ___ _ _ ___ _ _
 72
    65
 73
     6
 40
31.75
 49
15.875
 74
     0
 49
-3.174999999999999
 74
     0
 49
3.174999999999999
 74
     0
 49
-3.174999999999999
 74
     0
 49
3.174999999999999
 74
     0
 49
-3.174999999999999
 74
     0
  0
LTYPE
  5
5E
330
5
100
AcDbSymbolTableRecord
100
AcDbLinetypeTableRecord
  2
PHANTOMX2
 70
     0
  3
Phantom (2x) ____________    ____    ____   _
 72
    65
 73
     6
 40
127.0
 49
63.5
 74
     0
 49
-12.7
 74
     0
 49
12.7
 74
     0
 49
-12.7
 74
     0
 49
12.7
 74
     0
 49
-12.7
 74
     0
  0
LTYPE
  5
5F
330
5
100
AcDbSymbolTableRecord
100
AcDbLinetypeTableRecord
  2
TRACKS
 70
     0
  3
Tracks -|-|-|-|-|-|-|-|-|-|-|-|-|-|-|-|-|-|-|-|
 72
    65
 73
     2
 40
7.62
 49
3.81
 74
     4
 75
   130
340
33
 46
6.349999999999999
 50
0.0
 44
0.0
 45
0.0
 49
3.81
 74
     0
  0
LTYPE
  5
60
330
5
100
AcDbSymbolTableRecord
100
AcDbLinetypeTableRecord
  2
ZIGZAG
 70
     0
  3
Zig zag /\/\/\/\/\/\/\/\/\/\/\/\/\/\/\/\/\/\/\/
 72
    65
 73
     4
 40
20.32254
 49
0.00254
 74
     0
 49
-5.08
 74
     4
 75
   131
340
33
 46
5.08
 50
0.0
 44
-5.08
 45
0.0
 49
-10.16
 74
     4
 75
   131
340
33
 46
5.08
 50
180.0
 44
5.08
 45
0.0
 49
-5.08
 74
     0
  0
ENDTAB
  0
TABLE
  2
LAYER
  5
2
102
{ACAD_XDICTIONARY
360
2635
102
}
330
0
100
AcDbSymbolTable
 70
     9
  0
LAYER
  5
10
330
2
100
AcDbSymbolTableRecord
100
AcDbLayerTableRecord
  2
0
 70
     0
 62
     7
  6
Continuous
370
    -3
390
F
  0
LAYER
  5
C3
330
2
100
AcDbSymbolTableRecord
100
AcDbLayerTableRecord
  2
Defpoints
 70
     0
 62
     7
  6
Continuous
290
     0
370
    -3
390
F
  0
LAYER
  5
256
330
2
100
AcDbSymbolTableRecord
100
AcDbLayerTableRecord
  2
センター
 70
     0
 62
     7
  6
CENTER2
370
    18
390
F
  0
LAYER
  5
268
330
2
100
AcDbSymbolTableRecord
100
AcDbLayerTableRecord
  2
実形
 70
     0
 62
     7
  6
Continuous
370
    -3
390
F
  0
LAYER
  5
269
330
2
100
AcDbSymbolTableRecord
100
AcDbLayerTableRecord
  2
補助
 70
     0
 62
     7
  6
Continuous
370
    -3
390
F
  0
LAYER
  5
26A
330
2
100
AcDbSymbolTableRecord
100
AcDbLayerTableRecord
  2
寸法
 70
     0
 62
     7
  6
Continuous
370
    18
390
F
  0
LAYER
  5
26B
330
2
100
AcDbSymbolTableRecord
100
AcDbLayerTableRecord
  2
ハッチング
 70
     0
 62
     7
  6
Continuous
370
    18
390
F
  0
LAYER
  5
26D
330
2
100
AcDbSymbolTableRecord
100
AcDbLayerTableRecord
  2
文字
 70
     0
 62
     7
  6
Continuous
370
    -3
390
F
  0
LAYER
  5
46C8
330
2
100
AcDbSymbolTableRecord
100
AcDbLayerTableRecord
  2
枠
 70
     0
 62
     7
  6
Continuous
370
    -3
390
F
  0
ENDTAB
  0
TABLE
  2
STYLE
  5
3
330
0
100
AcDbSymbolTable
 70
     4
  0
STYLE
  5
11
330
3
100
AcDbSymbolTableRecord
100
AcDbTextStyleTableRecord
  2
Standard
 70
     0
 40
0.0
 41
1.0
 50
0.0
 71
     0
 42
25.0
  3
txt.shx
  4
bigfont.shx
  0
STYLE
  5
33
330
3
100
AcDbSymbolTableRecord
100
AcDbTextStyleTableRecord
  2

 70
     1
 40
0.0
 41
1.0
 50
0.0
 71
     0
 42
2.5
  3
ltypeshp.shx
  4

  0
STYLE
  5
272B
330
3
100
AcDbSymbolTableRecord
100
AcDbTextStyleTableRecord
  2
MS明朝
 70
     0
 40
0.0
 41
1.0
 50
0.0
 71
     0
 42
25.0
  3
MS PMincho.ttf
  4

1001
ACAD
1000
MS PMincho
1071
    32786
  0
STYLE
  5
4727
330
3
100
AcDbSymbolTableRecord
100
AcDbTextStyleTableRecord
  2
明朝
 70
     0
 40
0.0
 41
1.0
 50
0.0
 71
     0
 42
25.0
  3
MS Mincho.ttf
  4

1001
ACAD
1000
MS Mincho
1071
    32785
  0
ENDTAB
  0
TABLE
  2
VIEW
  5
6
330
0
100
AcDbSymbolTable
 70
     0
  0
ENDTAB
  0
TABLE
  2
UCS
  5
7
330
0
100
AcDbSymbolTable
 70
     0
  0
ENDTAB
  0
TABLE
  2
APPID
  5
9
330
0
100
AcDbSymbolTable
 70
     1
  0
APPID
  5
12
330
9
100
AcDbSymbolTableRecord
100
AcDbRegAppTableRecord
  2
ACAD
 70
     0
  0
ENDTAB
  0
TABLE
  2
DIMSTYLE
  5
A
330
0
100
AcDbSymbolTable
 70
     1
100
AcDbDimStyleTable
 71
     1
340
27
  0
DIMSTYLE
105
27
102
{ACAD_REACTORS
330
1677
330
1678
330
1679
330
167B
330
1681
330
168D
330
1697
330
1698
330
169A
330
169D
330
169E
330
169F
330
16A0
330
16AF
330
16BD
330
16BF
330
16C9
330
16CA
330
16CF
330
16D0
330
16D1
330
16DF
330
16E0
330
16E1
330
2376
330
2377
330
2378
330
2389
330
2394
330
2395
330
2583
330
2593
330
25B9
330
25C6
330
2CD2
330
2DCE
330
2DE4
330
2E43
330
3224
330
3231
330
3286
330
32CD
330
3344
330
3351
330
33B1
330
3443
330
3444
330
3448
330
3449
330
344C
330
344D
330
3451
330
3430
330
3435
330
3436
330
343F
330
37CD
330
37CE
330
3819
330
381A
330
391A
330
391B
330
391C
330
395E
330
397D
330
3A81
330
3E25
330
3E26
330
3E2A
330
3E2B
330
3E2E
330
3E2F
330
3E33
330
42D7
330
42D8
330
42D9
330
42DA
330
42DD
330
42DE
330
42E2
330
444D
102
}
330
A
100
AcDbSymbolTableRecord
100
AcDbDimStyleTableRecord
  2
ISO-25
 70
     0
 41
35.0
 42
65.0
 43
3.75
 44
0.0
 73
     0
 74
     0
 77
     1
 78
     8
140
25.0
141
2.5
143
0.03937007874016
147
6.25
171
     3
172
     1
271
     2
272
     2
274
     3
283
     0
284
     8
340
11
341
DA
342
D0
371
    15
372
    15
  0
ENDTAB
  0
TABLE
  2
BLOCK_RECORD
  5
1
330
0
100
AcDbSymbolTable
 70
    87
  0
BLOCK_RECORD
  5
1F
102
{ACAD_XDICTIONARY
360
264B
102
}
330
1
100
AcDbSymbolTableRecord
100
AcDbBlockTableRecord
  2
*Model_Space
340
22
  0
BLOCK_RECORD
  5
1B
330
1
100
AcDbSymbolTableRecord
100
AcDbBlockTableRecord
  2
*Paper_Space
340
1E
  0
BLOCK_RECORD
  5
23
330
1
100
AcDbSymbolTableRecord
100
AcDbBlockTableRecord
  2
*Paper_Space0
340
26
  0
BLOCK_RECORD
  5
D0
330
1
100
AcDbSymbolTableRecord
100
AcDbBlockTableRecord
  2
_DotSmall
340
0
102
{BLKREFS
331
2C81
331
2C82
331
2C8A
331
2C8B
331
2C93
331
2C94
331
2CA5
331
2CA6
331
2CAF
331
2CB0
331
2CB7
331
2CB8
331
3632
331
3633
331
363A
331
363B
331
3644
331
3645
331
3656
331
3657
331
365F
331
3660
331
3667
331
3668
331
3685
331
3686
331
36D1
331
36D2
331
36EC
331
36ED
331
36F6
331
36F7
331
36FE
331
36FF
331
3708
331
3709
331
371A
331
371B
331
3723
331
3724
331
3735
331
3736
331
3750
331
3751
331
376D
331
376E
331
39EC
331
39ED
331
39F5
331
39F6
331
3A12
331
3A13
331
3A19
331
3A1A
331
3A22
331
3A29
331
3A2A
331
3A32
331
3A33
331
3B3D
331
3B3E
331
3B46
331
3B47
331
3B4F
331
3B50
331
3B58
331
3B59
331
3B73
331
3B74
331
3C8F
331
3C90
331
3C99
331
3C9A
331
3CA1
331
3CA2
331
3CAA
331
3CAB
331
3F43
331
3F44
331
3F64
331
3F65
331
3F74
331
3F75
331
3F86
331
3F87
331
3FE1
331
3FE2
331
3FF1
331
3FF2
331
3FF9
331
3FFA
331
4002
331
4003
331
43C9
331
43CA
331
43D3
331
43D4
331
43E1
331
43E2
331
43EE
331
43EF
331
43F9
331
43FA
331
4402
331
4403
331
4462
331
4463
331
450A
331
450B
331
478E
331
478F
331
47A2
331
47A3
102
}
  0
BLOCK_RECORD
  5
D4
330
1
100
AcDbSymbolTableRecord
100
AcDbBlockTableRecord
  2
_Origin2
340
0
  0
BLOCK_RECORD
  5
DA
330
1
100
AcDbSymbolTableRecord
100
AcDbBlockTableRecord
  2
_Open30
340
0
  0
BLOCK_RECORD
  5
16E5
330
1
100
AcDbSymbolTableRecord
100
AcDbBlockTableRecord
  2
*D4
340
0
  0
BLOCK_RECORD
  5
16F1
330
1
100
AcDbSymbolTableRecord
100
AcDbBlockTableRecord
  2
*D5
340
0
  0
BLOCK_RECORD
  5
16FD
330
1
100
AcDbSymbolTableRecord
100
AcDbBlockTableRecord
  2
*D6
340
0
  0
BLOCK_RECORD
  5
1709
330
1
100
AcDbSymbolTableRecord
100
AcDbBlockTableRecord
  2
*D7
340
0
  0
BLOCK_RECORD
  5
1715
330
1
100
AcDbSymbolTableRecord
100
AcDbBlockTableRecord
  2
*D8
340
0
  0
BLOCK_RECORD
  5
1739
330
1
100
AcDbSymbolTableRecord
100
AcDbBlockTableRecord
  2
*D9
340
0
  0
BLOCK_RECORD
  5
1745
330
1
100
AcDbSymbolTableRecord
100
AcDbBlockTableRecord
  2
*D10
340
0
  0
BLOCK_RECORD
  5
1751
330
1
100
AcDbSymbolTableRecord
100
AcDbBlockTableRecord
  2
*D11
340
0
  0
BLOCK_RECORD
  5
175D
330
1
100
AcDbSymbolTableRecord
100
AcDbBlockTableRecord
  2
*D12
340
0
  0
BLOCK_RECORD
  5
1769
330
1
100
AcDbSymbolTableRecord
100
AcDbBlockTableRecord
  2
*D13
340
0
  0
BLOCK_RECORD
  5
1775
330
1
100
AcDbSymbolTableRecord
100
AcDbBlockTableRecord
  2
*D14
340
0
  0
BLOCK_RECORD
  5
1781
330
1
100
AcDbSymbolTableRecord
100
AcDbBlockTableRecord
  2
*D15
340
0
  0
BLOCK_RECORD
  5
178E
330
1
100
AcDbSymbolTableRecord
100
AcDbBlockTableRecord
  2
*D16
340
0
  0
BLOCK_RECORD
  5
17B3
330
1
100
AcDbSymbolTableRecord
100
AcDbBlockTableRecord
  2
*D17
340
0
  0
BLOCK_RECORD
  5
17CA
330
1
100
AcDbSymbolTableRecord
100
AcDbBlockTableRecord
  2
*D18
340
0
  0
BLOCK_RECORD
  5
17D6
330
1
100
AcDbSymbolTableRecord
100
AcDbBlockTableRecord
  2
*D19
340
0
  0
BLOCK_RECORD
  5
17E3
330
1
100
AcDbSymbolTableRecord
100
AcDbBlockTableRecord
  2
*D20
340
0
  0
BLOCK_RECORD
  5
17EF
330
1
100
AcDbSymbolTableRecord
100
AcDbBlockTableRecord
  2
*D21
340
0
  0
BLOCK_RECORD
  5
17FB
330
1
100
AcDbSymbolTableRecord
100
AcDbBlockTableRecord
  2
*D22
340
0
  0
BLOCK_RECORD
  5
1807
330
1
100
AcDbSymbolTableRecord
100
AcDbBlockTableRecord
  2
*D23
340
0
  0
BLOCK_RECORD
  5
1813
330
1
100
AcDbSymbolTableRecord
100
AcDbBlockTableRecord
  2
*D24
340
0
  0
BLOCK_RECORD
  5
182A
330
1
100
AcDbSymbolTableRecord
100
AcDbBlockTableRecord
  2
*D25
340
0
  0
BLOCK_RECORD
  5
1836
330
1
100
AcDbSymbolTableRecord
100
AcDbBlockTableRecord
  2
*D26
340
0
  0
BLOCK_RECORD
  5
1842
330
1
100
AcDbSymbolTableRecord
100
AcDbBlockTableRecord
  2
*D27
340
0
  0
BLOCK_RECORD
  5
2399
330
1
100
AcDbSymbolTableRecord
100
AcDbBlockTableRecord
  2
*D28
340
0
  0
BLOCK_RECORD
  5
23A5
330
1
100
AcDbSymbolTableRecord
100
AcDbBlockTableRecord
  2
*D29
340
0
  0
BLOCK_RECORD
  5
23B1
330
1
100
AcDbSymbolTableRecord
100
AcDbBlockTableRecord
  2
*D30
340
0
  0
BLOCK_RECORD
  5
23C9
330
1
100
AcDbSymbolTableRecord
100
AcDbBlockTableRecord
  2
*D31
340
0
  0
BLOCK_RECORD
  5
23D5
330
1
100
AcDbSymbolTableRecord
100
AcDbBlockTableRecord
  2
*D32
340
0
  0
BLOCK_RECORD
  5
23E1
330
1
100
AcDbSymbolTableRecord
100
AcDbBlockTableRecord
  2
*D33
340
0
  0
BLOCK_RECORD
  5
2584
330
1
100
AcDbSymbolTableRecord
100
AcDbBlockTableRecord
  2
*D34
340
0
  0
BLOCK_RECORD
  5
2594
330
1
100
AcDbSymbolTableRecord
100
AcDbBlockTableRecord
  2
*D35
340
0
  0
BLOCK_RECORD
  5
25BA
330
1
100
AcDbSymbolTableRecord
100
AcDbBlockTableRecord
  2
*D36
340
0
  0
BLOCK_RECORD
  5
25C7
330
1
100
AcDbSymbolTableRecord
100
AcDbBlockTableRecord
  2
*D37
340
0
  0
BLOCK_RECORD
  5
2CD3
330
1
100
AcDbSymbolTableRecord
100
AcDbBlockTableRecord
  2
*D38
340
0
  0
BLOCK_RECORD
  5
2DCF
330
1
100
AcDbSymbolTableRecord
100
AcDbBlockTableRecord
  2
*D39
340
0
  0
BLOCK_RECORD
  5
2DE5
330
1
100
AcDbSymbolTableRecord
100
AcDbBlockTableRecord
  2
*D40
340
0
  0
BLOCK_RECORD
  5
2E44
330
1
100
AcDbSymbolTableRecord
100
AcDbBlockTableRecord
  2
*D41
340
0
  0
BLOCK_RECORD
  5
2ED7
330
1
100
AcDbSymbolTableRecord
100
AcDbBlockTableRecord
  2
_Dot
340
0
102
{BLKREFS
331
3FC2
331
3FC3
331
3FCB
331
3FCC
331
47CA
331
47CB
331
47E1
331
47E2
102
}
  0
BLOCK_RECORD
  5
3225
330
1
100
AcDbSymbolTableRecord
100
AcDbBlockTableRecord
  2
*D43
340
0
  0
BLOCK_RECORD
  5
3232
330
1
100
AcDbSymbolTableRecord
100
AcDbBlockTableRecord
  2
*D44
340
0
  0
BLOCK_RECORD
  5
3287
330
1
100
AcDbSymbolTableRecord
100
AcDbBlockTableRecord
  2
*D45
340
0
  0
BLOCK_RECORD
  5
32CE
330
1
100
AcDbSymbolTableRecord
100
AcDbBlockTableRecord
  2
*D46
340
0
  0
BLOCK_RECORD
  5
3345
330
1
100
AcDbSymbolTableRecord
100
AcDbBlockTableRecord
  2
*D47
340
0
  0
BLOCK_RECORD
  5
3352
330
1
100
AcDbSymbolTableRecord
100
AcDbBlockTableRecord
  2
*D48
340
0
  0
BLOCK_RECORD
  5
33B2
330
1
100
AcDbSymbolTableRecord
100
AcDbBlockTableRecord
  2
*D49
340
0
  0
BLOCK_RECORD
  5
3452
330
1
100
AcDbSymbolTableRecord
100
AcDbBlockTableRecord
  2
*D50
340
0
  0
BLOCK_RECORD
  5
3459
330
1
100
AcDbSymbolTableRecord
100
AcDbBlockTableRecord
  2
*D51
340
0
  0
BLOCK_RECORD
  5
3465
330
1
100
AcDbSymbolTableRecord
100
AcDbBlockTableRecord
  2
*D52
340
0
  0
BLOCK_RECORD
  5
3471
330
1
100
AcDbSymbolTableRecord
100
AcDbBlockTableRecord
  2
*D53
340
0
  0
BLOCK_RECORD
  5
347A
330
1
100
AcDbSymbolTableRecord
100
AcDbBlockTableRecord
  2
*D54
340
0
  0
BLOCK_RECORD
  5
3486
330
1
100
AcDbSymbolTableRecord
100
AcDbBlockTableRecord
  2
*D55
340
0
  0
BLOCK_RECORD
  5
348D
330
1
100
AcDbSymbolTableRecord
100
AcDbBlockTableRecord
  2
*D56
340
0
  0
BLOCK_RECORD
  5
3499
330
1
100
AcDbSymbolTableRecord
100
AcDbBlockTableRecord
  2
*D57
340
0
  0
BLOCK_RECORD
  5
34A0
330
1
100
AcDbSymbolTableRecord
100
AcDbBlockTableRecord
  2
*D58
340
0
  0
BLOCK_RECORD
  5
34AC
330
1
100
AcDbSymbolTableRecord
100
AcDbBlockTableRecord
  2
*D59
340
0
  0
BLOCK_RECORD
  5
34B5
330
1
100
AcDbSymbolTableRecord
100
AcDbBlockTableRecord
  2
*D60
340
0
  0
BLOCK_RECORD
  5
37CF
330
1
100
AcDbSymbolTableRecord
100
AcDbBlockTableRecord
  2
*D61
340
0
  0
BLOCK_RECORD
  5
37DB
330
1
100
AcDbSymbolTableRecord
100
AcDbBlockTableRecord
  2
*D62
340
0
  0
BLOCK_RECORD
  5
381B
330
1
100
AcDbSymbolTableRecord
100
AcDbBlockTableRecord
  2
*D63
340
0
  0
BLOCK_RECORD
  5
3827
330
1
100
AcDbSymbolTableRecord
100
AcDbBlockTableRecord
  2
*D64
340
0
  0
BLOCK_RECORD
  5
388E
102
{ACAD_XDICTIONARY
360
3890
102
}
330
1
100
AcDbSymbolTableRecord
100
AcDbBlockTableRecord
  2
A$C4E395AB2
340
0
  0
BLOCK_RECORD
  5
391E
330
1
100
AcDbSymbolTableRecord
100
AcDbBlockTableRecord
  2
*D66
340
0
  0
BLOCK_RECORD
  5
3928
330
1
100
AcDbSymbolTableRecord
100
AcDbBlockTableRecord
  2
*D67
340
0
  0
BLOCK_RECORD
  5
3932
330
1
100
AcDbSymbolTableRecord
100
AcDbBlockTableRecord
  2
*D68
340
0
  0
BLOCK_RECORD
  5
395F
330
1
100
AcDbSymbolTableRecord
100
AcDbBlockTableRecord
  2
*D69
340
0
  0
BLOCK_RECORD
  5
397E
330
1
100
AcDbSymbolTableRecord
100
AcDbBlockTableRecord
  2
*D70
340
0
  0
BLOCK_RECORD
  5
3A82
330
1
100
AcDbSymbolTableRecord
100
AcDbBlockTableRecord
  2
*D71
340
0
  0
BLOCK_RECORD
  5
3E34
330
1
100
AcDbSymbolTableRecord
100
AcDbBlockTableRecord
  2
*D72
340
0
  0
BLOCK_RECORD
  5
3E3B
330
1
100
AcDbSymbolTableRecord
100
AcDbBlockTableRecord
  2
*D73
340
0
  0
BLOCK_RECORD
  5
3E47
330
1
100
AcDbSymbolTableRecord
100
AcDbBlockTableRecord
  2
*D74
340
0
  0
BLOCK_RECORD
  5
3E53
330
1
100
AcDbSymbolTableRecord
100
AcDbBlockTableRecord
  2
*D75
340
0
  0
BLOCK_RECORD
  5
3E5C
330
1
100
AcDbSymbolTableRecord
100
AcDbBlockTableRecord
  2
*D76
340
0
  0
BLOCK_RECORD
  5
3E68
330
1
100
AcDbSymbolTableRecord
100
AcDbBlockTableRecord
  2
*D77
340
0
  0
BLOCK_RECORD
  5
3E6F
330
1
100
AcDbSymbolTableRecord
100
AcDbBlockTableRecord
  2
*D78
340
0
  0
BLOCK_RECORD
  5
42E3
330
1
100
AcDbSymbolTableRecord
100
AcDbBlockTableRecord
  2
*D79
340
0
  0
BLOCK_RECORD
  5
42EA
330
1
100
AcDbSymbolTableRecord
100
AcDbBlockTableRecord
  2
*D80
340
0
  0
BLOCK_RECORD
  5
42F6
330
1
100
AcDbSymbolTableRecord
100
AcDbBlockTableRecord
  2
*D81
340
0
  0
BLOCK_RECORD
  5
4302
330
1
100
AcDbSymbolTableRecord
100
AcDbBlockTableRecord
  2
*D82
340
0
  0
BLOCK_RECORD
  5
430B
330
1
100
AcDbSymbolTableRecord
100
AcDbBlockTableRecord
  2
*D83
340
0
  0
BLOCK_RECORD
  5
4317
330
1
100
AcDbSymbolTableRecord
100
AcDbBlockTableRecord
  2
*D84
340
0
  0
BLOCK_RECORD
  5
431E
330
1
100
AcDbSymbolTableRecord
100
AcDbBlockTableRecord
  2
*D85
340
0
  0
BLOCK_RECORD
  5
4453
330
1
100
AcDbSymbolTableRecord
100
AcDbBlockTableRecord
  2
*D86
340
0
  0
ENDTAB
  0
ENDSEC
  0
SECTION
  2
BLOCKS
  0
BLOCK
  5
20
330
1F
100
AcDbEntity
  8
0
100
AcDbBlockBegin
  2
*Model_Space
 70
     0
 10
0.0
 20
0.0
 30
0.0
  3
*Model_Space
  1

  0
ENDBLK
  5
21
330
1F
100
AcDbEntity
  8
0
100
AcDbBlockEnd
  0
BLOCK
  5
1C
330
1B
100
AcDbEntity
 67
     1
  8
0
100
AcDbBlockBegin
  2
*Paper_Space
 70
     0
 10
0.0
 20
0.0
 30
0.0
  3
*Paper_Space
  1

  0
ENDBLK
  5
1D
330
1B
100
AcDbEntity
 67
     1
  8
0
100
AcDbBlockEnd
  0
BLOCK
  5
24
330
23
100
AcDbEntity
  8
0
100
AcDbBlockBegin
  2
*Paper_Space0
 70
     0
 10
0.0
 20
0.0
 30
0.0
  3
*Paper_Space0
  1

  0
ENDBLK
  5
25
330
23
100
AcDbEntity
  8
0
100
AcDbBlockEnd
  0
BLOCK
  5
D2
330
D0
100
AcDbEntity
  8
0
100
AcDbBlockBegin
  2
_DotSmall
 70
     0
 10
0.0
 20
0.0
 30
0.0
  3
_DotSmall
  1

  0
LWPOLYLINE
  5
D1
330
D0
100
AcDbEntity
  8
0
 62
     0
100
AcDbPolyline
 90
        2
 70
     1
 43
0.5
 10
-0.0625
 20
0.0
 42
1.0
 10
0.0625
 20
0.0
 42
1.0
  0
ENDBLK
  5
D3
330
D0
100
AcDbEntity
  8
0
100
AcDbBlockEnd
  0
BLOCK
  5
D8
330
D4
100
AcDbEntity
  8
0
100
AcDbBlockBegin
  2
_Origin2
 70
     0
 10
0.0
 20
0.0
 30
0.0
  3
_Origin2
  1

  0
CIRCLE
  5
D5
330
D4
100
AcDbEntity
  8
0
 62
     0
370
    -2
100
AcDbCircle
 10
0.0
 20
0.0
 30
0.0
 40
0.5
  0
CIRCLE
  5
D6
330
D4
100
AcDbEntity
  8
0
 62
     0
370
    -2
100
AcDbCircle
 10
0.0
 20
0.0
 30
0.0
 40
0.25
  0
LINE
  5
D7
330
D4
100
AcDbEntity
  8
0
 62
     0
370
    -2
100
AcDbLine
 10
-0.5
 20
0.0
 30
0.0
 11
-1.0
 21
0.0
 31
0.0
  0
ENDBLK
  5
D9
330
D4
100
AcDbEntity
  8
0
100
AcDbBlockEnd
  0
BLOCK
  5
DE
330
DA
100
AcDbEntity
  8
0
100
AcDbBlockBegin
  2
_Open30
 70
     0
 10
0.0
 20
0.0
 30
0.0
  3
_Open30
  1

  0
LINE
  5
DB
330
DA
100
AcDbEntity
  8
0
 62
     0
370
    -2
100
AcDbLine
 10
-1.0
 20
0.26794919
 30
0.0
 11
0.0
 21
0.0
 31
0.0
  0
LINE
  5
DC
330
DA
100
AcDbEntity
  8
0
 62
     0
370
    -2
100
AcDbLine
 10
0.0
 20
0.0
 30
0.0
 11
-1.0
 21
-0.26794919
 31
0.0
  0
LINE
  5
DD
330
DA
100
AcDbEntity
  8
0
 62
     0
370
    -2
100
AcDbLine
 10
0.0
 20
0.0
 30
0.0
 11
-1.0
 21
0.0
 31
0.0
  0
ENDBLK
  5
DF
330
DA
100
AcDbEntity
  8
0
100
AcDbBlockEnd
  0
BLOCK
  5
16EF
330
16E5
100
AcDbEntity
  8
0
100
AcDbBlockBegin
  2
*D4
 70
     1
 10
0.0
 20
0.0
 30
0.0
  3
*D4
  1

  0
LINE
  5
36E9
330
16E5
100
AcDbEntity
  8
寸法
 62
     0
370
    15
100
AcDbLine
 10
1251.80071929418
 20
1107.517091367211
 30
0.0
 11
1251.80071929418
 21
1059.147751339128
 31
0.0
  0
LINE
  5
36EA
330
16E5
100
AcDbEntity
  8
寸法
 62
     0
370
    15
100
AcDbLine
 10
1751.80071929418
 20
1107.517091367211
 30
0.0
 11
1751.80071929418
 21
1059.147751339128
 31
0.0
  0
LINE
  5
36EB
330
16E5
100
AcDbEntity
  8
寸法
 62
     0
370
    15
100
AcDbLine
 10
1251.80071929418
 20
1059.147751339128
 30
0.0
 11
1751.80071929418
 21
1059.147751339128
 31
0.0
  0
INSERT
  5
36EC
330
16E5
100
AcDbEntity
  8
寸法
 62
     0
370
    15
100
AcDbBlockReference
  2
_DotSmall
 10
1251.80071929418
 20
1059.147751339128
 30
0.0
 41
35.0
 42
35.0
 43
35.0
 50
180.0
  0
INSERT
  5
36ED
330
16E5
100
AcDbEntity
  8
寸法
 62
     0
370
    15
100
AcDbBlockReference
  2
_DotSmall
 10
1751.80071929418
 20
1059.147751339128
 30
0.0
 41
35.0
 42
35.0
 43
35.0
  0
MTEXT
  5
36EE
330
16E5
100
AcDbEntity
  8
寸法
 62
     0
100
AcDbMText
 10
1501.80071929418
 20
1077.897751339129
 30
0.0
 40
25.0
 41
0.0
 71
     5
 72
     1
  1
500
 73
     1
 44
1.0
1001
ACAD
1000
MTEXTBEGIN
1070
    73
1070
     1
1070
    44
1040
1.0
1070
    74
1070
     0
1000
MTEXTEND
  0
POINT
  5
36EF
330
16E5
100
AcDbEntity
  8
Defpoints
 62
     0
100
AcDbPoint
 10
1251.80071929418
 20
1172.517091367211
 30
0.0
  0
POINT
  5
36F0
330
16E5
100
AcDbEntity
  8
Defpoints
 62
     0
100
AcDbPoint
 10
1751.80071929418
 20
1172.517091367211
 30
0.0
  0
POINT
  5
36F1
330
16E5
100
AcDbEntity
  8
Defpoints
 62
     0
100
AcDbPoint
 10
1751.80071929418
 20
1059.147751339128
 30
0.0
  0
ENDBLK
  5
16F0
330
16E5
100
AcDbEntity
  8
0
100
AcDbBlockEnd
  0
BLOCK
  5
16FB
330
16F1
100
AcDbEntity
  8
0
100
AcDbBlockBegin
  2
*D5
 70
     1
 10
0.0
 20
0.0
 30
0.0
  3
*D5
  1

  0
LINE
  5
3704
330
16F1
100
AcDbEntity
  8
寸法
 62
     0
370
    15
100
AcDbLine
 10
1231.80071929418
 20
1107.517091367211
 30
0.0
 11
1231.80071929418
 21
1059.147751339128
 31
0.0
  0
LINE
  5
3705
330
16F1
100
AcDbEntity
  8
寸法
 62
     0
370
    15
100
AcDbLine
 10
1251.80071929418
 20
1107.517091367211
 30
0.0
 11
1251.80071929418
 21
1059.147751339128
 31
0.0
  0
LINE
  5
3706
330
16F1
100
AcDbEntity
  8
寸法
 62
     0
370
    15
100
AcDbLine
 10
1231.80071929418
 20
1059.147751339128
 30
0.0
 11
1251.80071929418
 21
1059.147751339128
 31
0.0
  0
MTEXT
  5
3707
330
16F1
100
AcDbEntity
  8
寸法
 62
     0
100
AcDbMText
 10
1284.049674793173
 20
1077.897751339129
 30
0.0
 40
25.0
 41
0.0
 71
     5
 72
     1
  1
20
 73
     1
 44
1.0
1001
ACAD
1000
MTEXTBEGIN
1070
    73
1070
     1
1070
    44
1040
1.0
1070
    74
1070
     0
1000
MTEXTEND
  0
INSERT
  5
3708
330
16F1
100
AcDbEntity
  8
寸法
 62
     0
370
    15
100
AcDbBlockReference
  2
_DotSmall
 10
1231.80071929418
 20
1059.147751339128
 30
0.0
 41
35.0
 42
35.0
 43
35.0
 50
180.0
  0
INSERT
  5
3709
330
16F1
100
AcDbEntity
  8
寸法
 62
     0
370
    15
100
AcDbBlockReference
  2
_DotSmall
 10
1251.80071929418
 20
1059.147751339128
 30
0.0
 41
35.0
 42
35.0
 43
35.0
  0
POINT
  5
370A
330
16F1
100
AcDbEntity
  8
Defpoints
 62
     0
100
AcDbPoint
 10
1231.80071929418
 20
1172.517091367211
 30
0.0
  0
POINT
  5
370B
330
16F1
100
AcDbEntity
  8
Defpoints
 62
     0
100
AcDbPoint
 10
1251.80071929418
 20
1172.517091367211
 30
0.0
  0
POINT
  5
370C
330
16F1
100
AcDbEntity
  8
Defpoints
 62
     0
100
AcDbPoint
 10
1251.80071929418
 20
1059.147751339128
 30
0.0
  0
ENDBLK
  5
16FC
330
16F1
100
AcDbEntity
  8
0
100
AcDbBlockEnd
  0
BLOCK
  5
1707
330
16FD
100
AcDbEntity
  8
0
100
AcDbBlockBegin
  2
*D6
 70
     1
 10
0.0
 20
0.0
 30
0.0
  3
*D6
  1

  0
LINE
  5
3B70
330
16FD
100
AcDbEntity
  8
寸法
 62
     0
370
    15
100
AcDbLine
 10
1501.271167751862
 20
1427.517091367211
 30
0.0
 11
1554.540473240951
 21
1427.517091367211
 31
0.0
  0
LINE
  5
3B71
330
16FD
100
AcDbEntity
  8
寸法
 62
     0
370
    15
100
AcDbLine
 10
1336.80071929418
 20
1642.517091367211
 30
0.0
 11
1554.540473240951
 21
1642.517091367211
 31
0.0
  0
LINE
  5
3B72
330
16FD
100
AcDbEntity
  8
寸法
 62
     0
370
    15
100
AcDbLine
 10
1554.540473240951
 20
1427.517091367211
 30
0.0
 11
1554.540473240951
 21
1642.517091367211
 31
0.0
  0
INSERT
  5
3B73
330
16FD
100
AcDbEntity
  8
寸法
 62
     0
370
    15
100
AcDbBlockReference
  2
_DotSmall
 10
1554.540473240951
 20
1427.517091367211
 30
0.0
 41
35.0
 42
35.0
 43
35.0
 50
270.0
  0
INSERT
  5
3B74
330
16FD
100
AcDbEntity
  8
寸法
 62
     0
370
    15
100
AcDbBlockReference
  2
_DotSmall
 10
1554.540473240951
 20
1642.517091367211
 30
0.0
 41
35.0
 42
35.0
 43
35.0
 50
90.0
  0
MTEXT
  5
3B75
330
16FD
100
AcDbEntity
  8
寸法
 62
     0
100
AcDbMText
 10
1535.790473240951
 20
1535.017091367211
 30
0.0
 40
25.0
 41
0.0
 71
     5
 72
     1
  1
215
 11
0.0000000000000001
 21
1.0
 31
0.0
 73
     1
 44
1.0
1001
ACAD
1000
MTEXTBEGIN
1070
    73
1070
     1
1070
    44
1040
1.0
1070
    74
1070
     0
1000
MTEXTEND
  0
POINT
  5
3B76
330
16FD
100
AcDbEntity
  8
Defpoints
 62
     0
100
AcDbPoint
 10
1436.271167751861
 20
1427.517091367211
 30
0.0
  0
POINT
  5
3B77
330
16FD
100
AcDbEntity
  8
Defpoints
 62
     0
100
AcDbPoint
 10
1271.80071929418
 20
1642.517091367211
 30
0.0
  0
POINT
  5
3B78
330
16FD
100
AcDbEntity
  8
Defpoints
 62
     0
100
AcDbPoint
 10
1554.540473240951
 20
1642.517091367211
 30
0.0
  0
ENDBLK
  5
1708
330
16FD
100
AcDbEntity
  8
0
100
AcDbBlockEnd
  0
BLOCK
  5
1713
330
1709
100
AcDbEntity
  8
0
100
AcDbBlockBegin
  2
*D7
 70
     1
 10
0.0
 20
0.0
 30
0.0
  3
*D7
  1

  0
LINE
  5
4507
330
1709
100
AcDbEntity
  8
寸法
 62
     0
370
    15
100
AcDbLine
 10
1251.80071929418
 20
1247.517091367211
 30
0.0
 11
1251.80071929418
 21
1304.196731626641
 31
0.0
  0
LINE
  5
4508
330
1709
100
AcDbEntity
  8
寸法
 62
     0
370
    15
100
AcDbLine
 10
1401.80071929418
 20
1362.517091367211
 30
0.0
 11
1401.80071929418
 21
1304.196731626641
 31
0.0
  0
LINE
  5
4509
330
1709
100
AcDbEntity
  8
寸法
 62
     0
370
    15
100
AcDbLine
 10
1251.80071929418
 20
1304.196731626641
 30
0.0
 11
1401.80071929418
 21
1304.196731626641
 31
0.0
  0
INSERT
  5
450A
330
1709
100
AcDbEntity
  8
寸法
 62
     0
370
    15
100
AcDbBlockReference
  2
_DotSmall
 10
1251.80071929418
 20
1304.196731626641
 30
0.0
 41
35.0
 42
35.0
 43
35.0
 50
180.0
  0
INSERT
  5
450B
330
1709
100
AcDbEntity
  8
寸法
 62
     0
370
    15
100
AcDbBlockReference
  2
_DotSmall
 10
1401.80071929418
 20
1304.196731626641
 30
0.0
 41
35.0
 42
35.0
 43
35.0
  0
MTEXT
  5
450C
330
1709
100
AcDbEntity
  8
寸法
 62
     0
100
AcDbMText
 10
1326.80071929418
 20
1322.946731626641
 30
0.0
 40
25.0
 41
0.0
 71
     5
 72
     1
  1
150
 73
     1
 44
1.0
1001
ACAD
1000
MTEXTBEGIN
1070
    73
1070
     1
1070
    44
1040
1.0
1070
    74
1070
     0
1000
MTEXTEND
  0
POINT
  5
450D
330
1709
100
AcDbEntity
  8
Defpoints
 62
     0
100
AcDbPoint
 10
1251.80071929418
 20
1312.517091367211
 30
0.0
  0
POINT
  5
450E
330
1709
100
AcDbEntity
  8
Defpoints
 62
     0
100
AcDbPoint
 10
1401.80071929418
 20
1427.517091367211
 30
0.0
  0
POINT
  5
450F
330
1709
100
AcDbEntity
  8
Defpoints
 62
     0
100
AcDbPoint
 10
1401.80071929418
 20
1304.196731626641
 30
0.0
  0
ENDBLK
  5
1714
330
1709
100
AcDbEntity
  8
0
100
AcDbBlockEnd
  0
BLOCK
  5
171F
330
1715
100
AcDbEntity
  8
0
100
AcDbBlockBegin
  2
*D8
 70
     1
 10
0.0
 20
0.0
 30
0.0
  3
*D8
  1

  0
LINE
  5
3637
330
1715
100
AcDbEntity
  8
実形
 62
     0
370
    15
100
AcDbLine
 10
931.8007192941804
 20
1107.517091367211
 30
0.0
 11
931.8007192941804
 21
994.5453660715575
 31
0.0
  0
LINE
  5
3638
330
1715
100
AcDbEntity
  8
実形
 62
     0
370
    15
100
AcDbLine
 10
1791.80071929418
 20
1107.517091367211
 30
0.0
 11
1791.80071929418
 21
994.5453660715575
 31
0.0
  0
LINE
  5
3639
330
1715
100
AcDbEntity
  8
実形
 62
     0
370
    15
100
AcDbLine
 10
931.8007192941804
 20
994.5453660715575
 30
0.0
 11
1791.80071929418
 21
994.5453660715575
 31
0.0
  0
INSERT
  5
363A
330
1715
100
AcDbEntity
  8
実形
 62
     0
370
    15
100
AcDbBlockReference
  2
_DotSmall
 10
931.8007192941804
 20
994.5453660715575
 30
0.0
 41
35.0
 42
35.0
 43
35.0
 50
180.0
  0
INSERT
  5
363B
330
1715
100
AcDbEntity
  8
実形
 62
     0
370
    15
100
AcDbBlockReference
  2
_DotSmall
 10
1791.80071929418
 20
994.5453660715575
 30
0.0
 41
35.0
 42
35.0
 43
35.0
  0
MTEXT
  5
363C
330
1715
100
AcDbEntity
  8
実形
 62
     0
100
AcDbMText
 10
1361.80071929418
 20
1013.295366071557
 30
0.0
 40
25.0
 41
0.0
 71
     5
 72
     1
  1
860
 73
     1
 44
1.0
1001
ACAD
1000
MTEXTBEGIN
1070
    73
1070
     1
1070
    44
1040
1.0
1070
    74
1070
     0
1000
MTEXTEND
  0
POINT
  5
363D
330
1715
100
AcDbEntity
  8
Defpoints
 62
     0
100
AcDbPoint
 10
931.8007192941804
 20
1172.517091367211
 30
0.0
  0
POINT
  5
363E
330
1715
100
AcDbEntity
  8
Defpoints
 62
     0
100
AcDbPoint
 10
1791.80071929418
 20
1172.517091367211
 30
0.0
  0
POINT
  5
363F
330
1715
100
AcDbEntity
  8
Defpoints
 62
     0
100
AcDbPoint
 10
1791.80071929418
 20
994.5453660715575
 30
0.0
  0
ENDBLK
  5
1720
330
1715
100
AcDbEntity
  8
0
100
AcDbBlockEnd
  0
BLOCK
  5
1743
330
1739
100
AcDbEntity
  8
0
100
AcDbBlockBegin
  2
*D9
 70
     1
 10
0.0
 20
0.0
 30
0.0
  3
*D9
  1

  0
LINE
  5
3B4C
330
1739
100
AcDbEntity
  8
寸法
 62
     0
370
    15
100
AcDbLine
 10
1101.80071929418
 20
1422.51709136721
 30
0.0
 11
1101.80071929418
 21
1365.303474596731
 31
0.0
  0
LINE
  5
3B4D
330
1739
100
AcDbEntity
  8
寸法
 62
     0
370
    15
100
AcDbLine
 10
971.8007192941804
 20
1402.517091367211
 30
0.0
 11
971.8007192941804
 21
1365.303474596731
 31
0.0
  0
LINE
  5
3B4E
330
1739
100
AcDbEntity
  8
寸法
 62
     0
370
    15
100
AcDbLine
 10
1101.80071929418
 20
1365.303474596731
 30
0.0
 11
971.8007192941804
 21
1365.303474596731
 31
0.0
  0
INSERT
  5
3B4F
330
1739
100
AcDbEntity
  8
寸法
 62
     0
370
    15
100
AcDbBlockReference
  2
_DotSmall
 10
1101.80071929418
 20
1365.303474596731
 30
0.0
 41
35.0
 42
35.0
 43
35.0
  0
INSERT
  5
3B50
330
1739
100
AcDbEntity
  8
寸法
 62
     0
370
    15
100
AcDbBlockReference
  2
_DotSmall
 10
971.8007192941804
 20
1365.303474596731
 30
0.0
 41
35.0
 42
35.0
 43
35.0
 50
180.0
  0
MTEXT
  5
3B51
330
1739
100
AcDbEntity
  8
寸法
 62
     0
100
AcDbMText
 10
1036.80071929418
 20
1384.053474596731
 30
0.0
 40
25.0
 41
0.0
 71
     5
 72
     1
  1
130
 73
     1
 44
1.0
1001
ACAD
1000
MTEXTBEGIN
1070
    73
1070
     1
1070
    44
1040
1.0
1070
    74
1070
     0
1000
MTEXTEND
  0
POINT
  5
3B52
330
1739
100
AcDbEntity
  8
Defpoints
 62
     0
100
AcDbPoint
 10
1101.80071929418
 20
1487.517091367211
 30
0.0
  0
POINT
  5
3B53
330
1739
100
AcDbEntity
  8
Defpoints
 62
     0
100
AcDbPoint
 10
971.8007192941804
 20
1337.517091367211
 30
0.0
  0
POINT
  5
3B54
330
1739
100
AcDbEntity
  8
Defpoints
 62
     0
100
AcDbPoint
 10
971.8007192941804
 20
1365.303474596731
 30
0.0
  0
ENDBLK
  5
1744
330
1739
100
AcDbEntity
  8
0
100
AcDbBlockEnd
  0
BLOCK
  5
174F
330
1745
100
AcDbEntity
  8
0
100
AcDbBlockBegin
  2
*D10
 70
     1
 10
0.0
 20
0.0
 30
0.0
  3
*D10
  1

  0
LINE
  5
3B43
330
1745
100
AcDbEntity
  8
寸法
 62
     0
370
    15
100
AcDbLine
 10
866.8007192941804
 20
1597.517091367211
 30
0.0
 11
834.3366984874567
 21
1597.517091367211
 31
0.0
  0
LINE
  5
3B44
330
1745
100
AcDbEntity
  8
寸法
 62
     0
370
    15
100
AcDbLine
 10
866.8007192941804
 20
1212.517091367211
 30
0.0
 11
834.3366984874565
 21
1212.517091367211
 31
0.0
  0
LINE
  5
3B45
330
1745
100
AcDbEntity
  8
寸法
 62
     0
370
    15
100
AcDbLine
 10
834.3366984874567
 20
1597.517091367211
 30
0.0
 11
834.3366984874565
 21
1212.517091367211
 31
0.0
  0
INSERT
  5
3B46
330
1745
100
AcDbEntity
  8
寸法
 62
     0
370
    15
100
AcDbBlockReference
  2
_DotSmall
 10
834.3366984874567
 20
1597.517091367211
 30
0.0
 41
35.0
 42
35.0
 43
35.0
 50
90.0
  0
INSERT
  5
3B47
330
1745
100
AcDbEntity
  8
寸法
 62
     0
370
    15
100
AcDbBlockReference
  2
_DotSmall
 10
834.3366984874565
 20
1212.517091367211
 30
0.0
 41
35.0
 42
35.0
 43
35.0
 50
270.0
  0
MTEXT
  5
3B48
330
1745
100
AcDbEntity
  8
寸法
 62
     0
100
AcDbMText
 10
815.5866984874565
 20
1405.017091367211
 30
0.0
 40
25.0
 41
0.0
 71
     5
 72
     1
  1
385
 11
0.0000000000000001
 21
1.0
 31
0.0
 73
     1
 44
1.0
1001
ACAD
1000
MTEXTBEGIN
1070
    73
1070
     1
1070
    44
1040
1.0
1070
    74
1070
     0
1000
MTEXTEND
  0
POINT
  5
3B49
330
1745
100
AcDbEntity
  8
Defpoints
 62
     0
100
AcDbPoint
 10
931.8007192941804
 20
1597.517091367211
 30
0.0
  0
POINT
  5
3B4A
330
1745
100
AcDbEntity
  8
Defpoints
 62
     0
100
AcDbPoint
 10
931.8007192941804
 20
1212.517091367211
 30
0.0
  0
POINT
  5
3B4B
330
1745
100
AcDbEntity
  8
Defpoints
 62
     0
100
AcDbPoint
 10
834.3366984874565
 20
1212.517091367211
 30
0.0
  0
ENDBLK
  5
1750
330
1745
100
AcDbEntity
  8
0
100
AcDbBlockEnd
  0
BLOCK
  5
175B
330
1751
100
AcDbEntity
  8
0
100
AcDbBlockBegin
  2
*D11
 70
     1
 10
0.0
 20
0.0
 30
0.0
  3
*D11
  1

  0
LINE
  5
3B55
330
1751
100
AcDbEntity
  8
寸法
 62
     0
370
    15
100
AcDbLine
 10
1166.80071929418
 20
1487.517091367211
 30
0.0
 11
1194.543485780644
 21
1487.517091367211
 31
0.0
  0
LINE
  5
3B56
330
1751
100
AcDbEntity
  8
寸法
 62
     0
370
    15
100
AcDbLine
 10
1066.80071929418
 20
1597.517091367211
 30
0.0
 11
1194.543485780645
 21
1597.517091367211
 31
0.0
  0
LINE
  5
3B57
330
1751
100
AcDbEntity
  8
寸法
 62
     0
370
    15
100
AcDbLine
 10
1194.543485780644
 20
1487.517091367211
 30
0.0
 11
1194.543485780645
 21
1597.517091367211
 31
0.0
  0
INSERT
  5
3B58
330
1751
100
AcDbEntity
  8
寸法
 62
     0
370
    15
100
AcDbBlockReference
  2
_DotSmall
 10
1194.543485780644
 20
1487.517091367211
 30
0.0
 41
35.0
 42
35.0
 43
35.0
 50
270.0
  0
INSERT
  5
3B59
330
1751
100
AcDbEntity
  8
寸法
 62
     0
370
    15
100
AcDbBlockReference
  2
_DotSmall
 10
1194.543485780645
 20
1597.517091367211
 30
0.0
 41
35.0
 42
35.0
 43
35.0
 50
90.0
  0
MTEXT
  5
3B5A
330
1751
100
AcDbEntity
  8
寸法
 62
     0
100
AcDbMText
 10
1175.793485780644
 20
1542.517091367211
 30
0.0
 40
25.0
 41
0.0
 71
     5
 72
     1
  1
110
 11
0.0000000000000001
 21
1.0
 31
0.0
 73
     1
 44
1.0
1001
ACAD
1000
MTEXTBEGIN
1070
    73
1070
     1
1070
    44
1040
1.0
1070
    74
1070
     0
1000
MTEXTEND
  0
POINT
  5
3B5B
330
1751
100
AcDbEntity
  8
Defpoints
 62
     0
100
AcDbPoint
 10
1101.80071929418
 20
1487.517091367211
 30
0.0
  0
POINT
  5
3B5C
330
1751
100
AcDbEntity
  8
Defpoints
 62
     0
100
AcDbPoint
 10
1001.80071929418
 20
1597.517091367211
 30
0.0
  0
POINT
  5
3B5D
330
1751
100
AcDbEntity
  8
Defpoints
 62
     0
100
AcDbPoint
 10
1194.543485780645
 20
1597.517091367211
 30
0.0
  0
ENDBLK
  5
175C
330
1751
100
AcDbEntity
  8
0
100
AcDbBlockEnd
  0
BLOCK
  5
1767
330
175D
100
AcDbEntity
  8
0
100
AcDbBlockBegin
  2
*D12
 70
     1
 10
0.0
 20
0.0
 30
0.0
  3
*D12
  1

  0
LINE
  5
3664
330
175D
100
AcDbEntity
  8
実形
 62
     0
370
    15
100
AcDbLine
 10
866.8007192941804
 20
1682.517091367211
 30
0.0
 11
761.2841264678646
 21
1682.517091367211
 31
0.0
  0
LINE
  5
3665
330
175D
100
AcDbEntity
  8
実形
 62
     0
370
    15
100
AcDbLine
 10
866.8007192941804
 20
1172.517091367211
 30
0.0
 11
761.2841264678645
 21
1172.517091367211
 31
0.0
  0
LINE
  5
3666
330
175D
100
AcDbEntity
  8
実形
 62
     0
370
    15
100
AcDbLine
 10
761.2841264678646
 20
1682.517091367211
 30
0.0
 11
761.2841264678645
 21
1172.517091367211
 31
0.0
  0
INSERT
  5
3667
330
175D
100
AcDbEntity
  8
実形
 62
     0
370
    15
100
AcDbBlockReference
  2
_DotSmall
 10
761.2841264678646
 20
1682.517091367211
 30
0.0
 41
35.0
 42
35.0
 43
35.0
 50
90.0
  0
INSERT
  5
3668
330
175D
100
AcDbEntity
  8
実形
 62
     0
370
    15
100
AcDbBlockReference
  2
_DotSmall
 10
761.2841264678645
 20
1172.517091367211
 30
0.0
 41
35.0
 42
35.0
 43
35.0
 50
270.0
  0
MTEXT
  5
3669
330
175D
100
AcDbEntity
  8
実形
 62
     0
100
AcDbMText
 10
742.5341264678644
 20
1427.517091367211
 30
0.0
 40
25.0
 41
0.0
 71
     5
 72
     1
  1
510
 11
0.0000000000000001
 21
1.0
 31
0.0
 73
     1
 44
1.0
1001
ACAD
1000
MTEXTBEGIN
1070
    73
1070
     1
1070
    44
1040
1.0
1070
    74
1070
     0
1000
MTEXTEND
  0
POINT
  5
366A
330
175D
100
AcDbEntity
  8
Defpoints
 62
     0
100
AcDbPoint
 10
931.8007192941804
 20
1682.517091367211
 30
0.0
  0
POINT
  5
366B
330
175D
100
AcDbEntity
  8
Defpoints
 62
     0
100
AcDbPoint
 10
931.8007192941804
 20
1172.517091367211
 30
0.0
  0
POINT
  5
366C
330
175D
100
AcDbEntity
  8
Defpoints
 62
     0
100
AcDbPoint
 10
761.2841264678645
 20
1172.517091367211
 30
0.0
  0
ENDBLK
  5
1768
330
175D
100
AcDbEntity
  8
0
100
AcDbBlockEnd
  0
BLOCK
  5
1773
330
1769
100
AcDbEntity
  8
0
100
AcDbBlockBegin
  2
*D13
 70
     1
 10
0.0
 20
0.0
 30
0.0
  3
*D13
  1

  0
LINE
  5
36FB
330
1769
100
AcDbEntity
  8
寸法
 62
     0
370
    15
100
AcDbLine
 10
971.8007192941804
 20
1107.517091367211
 30
0.0
 11
971.8007192941804
 21
1059.147751339128
 31
0.0
  0
LINE
  5
36FC
330
1769
100
AcDbEntity
  8
寸法
 62
     0
370
    15
100
AcDbLine
 10
1231.80071929418
 20
1107.517091367211
 30
0.0
 11
1231.80071929418
 21
1059.147751339128
 31
0.0
  0
LINE
  5
36FD
330
1769
100
AcDbEntity
  8
寸法
 62
     0
370
    15
100
AcDbLine
 10
971.8007192941804
 20
1059.147751339128
 30
0.0
 11
1231.80071929418
 21
1059.147751339128
 31
0.0
  0
INSERT
  5
36FE
330
1769
100
AcDbEntity
  8
寸法
 62
     0
370
    15
100
AcDbBlockReference
  2
_DotSmall
 10
971.8007192941804
 20
1059.147751339128
 30
0.0
 41
35.0
 42
35.0
 43
35.0
 50
180.0
  0
INSERT
  5
36FF
330
1769
100
AcDbEntity
  8
寸法
 62
     0
370
    15
100
AcDbBlockReference
  2
_DotSmall
 10
1231.80071929418
 20
1059.147751339128
 30
0.0
 41
35.0
 42
35.0
 43
35.0
  0
MTEXT
  5
3700
330
1769
100
AcDbEntity
  8
寸法
 62
     0
100
AcDbMText
 10
1101.80071929418
 20
1077.897751339129
 30
0.0
 40
25.0
 41
0.0
 71
     5
 72
     1
  1
260
 73
     1
 44
1.0
1001
ACAD
1000
MTEXTBEGIN
1070
    73
1070
     1
1070
    44
1040
1.0
1070
    74
1070
     0
1000
MTEXTEND
  0
POINT
  5
3701
330
1769
100
AcDbEntity
  8
Defpoints
 62
     0
100
AcDbPoint
 10
971.8007192941804
 20
1172.517091367211
 30
0.0
  0
POINT
  5
3702
330
1769
100
AcDbEntity
  8
Defpoints
 62
     0
100
AcDbPoint
 10
1231.80071929418
 20
1172.517091367211
 30
0.0
  0
POINT
  5
3703
330
1769
100
AcDbEntity
  8
Defpoints
 62
     0
100
AcDbPoint
 10
1231.80071929418
 20
1059.147751339128
 30
0.0
  0
ENDBLK
  5
1774
330
1769
100
AcDbEntity
  8
0
100
AcDbBlockEnd
  0
BLOCK
  5
177F
330
1775
100
AcDbEntity
  8
0
100
AcDbBlockBegin
  2
*D14
 70
     1
 10
0.0
 20
0.0
 30
0.0
  3
*D14
  1

  0
LINE
  5
365B
330
1775
100
AcDbEntity
  8
実形
 62
     0
370
    15
100
AcDbLine
 10
866.8007192941804
 20
1192.517091367211
 30
0.0
 11
834.3366984874565
 21
1192.517091367211
 31
0.0
  0
LINE
  5
365C
330
1775
100
AcDbEntity
  8
実形
 62
     0
370
    15
100
AcDbLine
 10
866.8007192941804
 20
1172.517091367211
 30
0.0
 11
834.3366984874565
 21
1172.517091367211
 31
0.0
  0
LINE
  5
365D
330
1775
100
AcDbEntity
  8
実形
 62
     0
370
    15
100
AcDbLine
 10
834.3366984874565
 20
1192.517091367211
 30
0.0
 11
834.3366984874565
 21
1172.517091367211
 31
0.0
  0
MTEXT
  5
365E
330
1775
100
AcDbEntity
  8
実形
 62
     0
100
AcDbMText
 10
815.5866984874565
 20
1135.349403066262
 30
0.0
 40
25.0
 41
0.0
 71
     5
 72
     1
  1
20
 11
0.0000000000000001
 21
1.0
 31
0.0
 73
     1
 44
1.0
1001
ACAD
1000
MTEXTBEGIN
1070
    73
1070
     1
1070
    44
1040
1.0
1070
    74
1070
     0
1000
MTEXTEND
  0
INSERT
  5
365F
330
1775
100
AcDbEntity
  8
実形
 62
     0
370
    15
100
AcDbBlockReference
  2
_DotSmall
 10
834.3366984874565
 20
1192.517091367211
 30
0.0
 41
35.0
 42
35.0
 43
35.0
 50
90.0
  0
INSERT
  5
3660
330
1775
100
AcDbEntity
  8
実形
 62
     0
370
    15
100
AcDbBlockReference
  2
_DotSmall
 10
834.3366984874565
 20
1172.517091367211
 30
0.0
 41
35.0
 42
35.0
 43
35.0
 50
270.0
  0
POINT
  5
3661
330
1775
100
AcDbEntity
  8
Defpoints
 62
     0
100
AcDbPoint
 10
931.8007192941804
 20
1192.517091367211
 30
0.0
  0
POINT
  5
3662
330
1775
100
AcDbEntity
  8
Defpoints
 62
     0
100
AcDbPoint
 10
931.8007192941804
 20
1172.517091367211
 30
0.0
  0
POINT
  5
3663
330
1775
100
AcDbEntity
  8
Defpoints
 62
     0
100
AcDbPoint
 10
834.3366984874565
 20
1172.517091367211
 30
0.0
  0
ENDBLK
  5
1780
330
1775
100
AcDbEntity
  8
0
100
AcDbBlockEnd
  0
BLOCK
  5
178C
330
1781
100
AcDbEntity
  8
0
100
AcDbBlockBegin
  2
*D15
 70
     1
 10
0.0
 20
0.0
 30
0.0
  3
*D15
  1

  0
LINE
  5
362E
330
1781
100
AcDbEntity
  8
実形
 62
     0
370
    15
100
AcDbLine
 10
931.8007192941804
 20
1107.517091367211
 30
0.0
 11
931.8007192941804
 21
1059.936606647246
 31
0.0
  0
LINE
  5
362F
330
1781
100
AcDbEntity
  8
実形
 62
     0
370
    15
100
AcDbLine
 10
951.8007192941805
 20
1107.517091367211
 30
0.0
 11
951.8007192941805
 21
1059.936606647246
 31
0.0
  0
LINE
  5
3630
330
1781
100
AcDbEntity
  8
実形
 62
     0
370
    15
100
AcDbLine
 10
931.8007192941804
 20
1059.936606647246
 30
0.0
 11
951.8007192941805
 21
1059.936606647246
 31
0.0
  0
MTEXT
  5
3631
330
1781
100
AcDbEntity
  8
実形
 62
     0
100
AcDbMText
 10
893.1770046204492
 20
1063.615093022798
 30
0.0
 40
25.0
 41
0.0
 71
     5
 72
     1
  1
20
 73
     1
 44
1.0
1001
ACAD
1000
MTEXTBEGIN
1070
    73
1070
     1
1070
    44
1040
1.0
1070
    74
1070
     0
1000
MTEXTEND
  0
INSERT
  5
3632
330
1781
100
AcDbEntity
  8
実形
 62
     0
370
    15
100
AcDbBlockReference
  2
_DotSmall
 10
931.8007192941804
 20
1059.936606647246
 30
0.0
 41
35.0
 42
35.0
 43
35.0
 50
180.0
  0
INSERT
  5
3633
330
1781
100
AcDbEntity
  8
実形
 62
     0
370
    15
100
AcDbBlockReference
  2
_DotSmall
 10
951.8007192941805
 20
1059.936606647246
 30
0.0
 41
35.0
 42
35.0
 43
35.0
  0
POINT
  5
3634
330
1781
100
AcDbEntity
  8
Defpoints
 62
     0
100
AcDbPoint
 10
931.8007192941804
 20
1172.517091367211
 30
0.0
  0
POINT
  5
3635
330
1781
100
AcDbEntity
  8
Defpoints
 62
     0
100
AcDbPoint
 10
951.8007192941805
 20
1172.517091367211
 30
0.0
  0
POINT
  5
3636
330
1781
100
AcDbEntity
  8
Defpoints
 62
     0
100
AcDbPoint
 10
951.8007192941805
 20
1059.936606647246
 30
0.0
  0
ENDBLK
  5
178D
330
1781
100
AcDbEntity
  8
0
100
AcDbBlockEnd
  0
BLOCK
  5
1798
330
178E
100
AcDbEntity
  8
0
100
AcDbBlockBegin
  2
*D16
 70
     1
 10
0.0
 20
0.0
 30
0.0
  3
*D16
  1

  0
LINE
  5
36F2
330
178E
100
AcDbEntity
  8
実形
 62
     0
370
    15
100
AcDbLine
 10
951.8007192941805
 20
1107.517091367211
 30
0.0
 11
951.8007192941805
 21
1059.936606647246
 31
0.0
  0
LINE
  5
36F3
330
178E
100
AcDbEntity
  8
実形
 62
     0
370
    15
100
AcDbLine
 10
971.8007192941804
 20
1107.517091367211
 30
0.0
 11
971.8007192941804
 21
1059.936606647246
 31
0.0
  0
LINE
  5
36F4
330
178E
100
AcDbEntity
  8
実形
 62
     0
370
    15
100
AcDbLine
 10
951.8007192941805
 20
1059.936606647246
 30
0.0
 11
971.8007192941804
 21
1059.936606647246
 31
0.0
  0
MTEXT
  5
36F5
330
178E
100
AcDbEntity
  8
実形
 62
     0
100
AcDbMText
 10
1010.119404831683
 20
1078.686606647246
 30
0.0
 40
25.0
 41
0.0
 71
     5
 72
     1
  1
20
 73
     1
 44
1.0
1001
ACAD
1000
MTEXTBEGIN
1070
    73
1070
     1
1070
    44
1040
1.0
1070
    74
1070
     0
1000
MTEXTEND
  0
INSERT
  5
36F6
330
178E
100
AcDbEntity
  8
実形
 62
     0
370
    15
100
AcDbBlockReference
  2
_DotSmall
 10
951.8007192941805
 20
1059.936606647246
 30
0.0
 41
35.0
 42
35.0
 43
35.0
 50
180.0
  0
INSERT
  5
36F7
330
178E
100
AcDbEntity
  8
実形
 62
     0
370
    15
100
AcDbBlockReference
  2
_DotSmall
 10
971.8007192941804
 20
1059.936606647246
 30
0.0
 41
35.0
 42
35.0
 43
35.0
  0
POINT
  5
36F8
330
178E
100
AcDbEntity
  8
Defpoints
 62
     0
100
AcDbPoint
 10
951.8007192941805
 20
1172.517091367211
 30
0.0
  0
POINT
  5
36F9
330
178E
100
AcDbEntity
  8
Defpoints
 62
     0
100
AcDbPoint
 10
971.8007192941804
 20
1172.517091367211
 30
0.0
  0
POINT
  5
36FA
330
178E
100
AcDbEntity
  8
Defpoints
 62
     0
100
AcDbPoint
 10
971.8007192941804
 20
1059.936606647246
 30
0.0
  0
ENDBLK
  5
1799
330
178E
100
AcDbEntity
  8
0
100
AcDbBlockEnd
  0
BLOCK
  5
17BD
330
17B3
100
AcDbEntity
  8
0
100
AcDbBlockBegin
  2
*D17
 70
     1
 10
0.0
 20
0.0
 30
0.0
  3
*D17
  1

  0
LINE
  5
3652
330
17B3
100
AcDbEntity
  8
実形
 62
     0
370
    15
100
AcDbLine
 10
866.8007192941804
 20
1212.517091367211
 30
0.0
 11
834.3366984874565
 21
1212.517091367211
 31
0.0
  0
LINE
  5
3653
330
17B3
100
AcDbEntity
  8
実形
 62
     0
370
    15
100
AcDbLine
 10
866.8007192941804
 20
1192.517091367211
 30
0.0
 11
834.3366984874565
 21
1192.517091367211
 31
0.0
  0
LINE
  5
3654
330
17B3
100
AcDbEntity
  8
実形
 62
     0
370
    15
100
AcDbLine
 10
834.3366984874565
 20
1212.517091367211
 30
0.0
 11
834.3366984874565
 21
1192.517091367211
 31
0.0
  0
MTEXT
  5
3655
330
17B3
100
AcDbEntity
  8
実形
 62
     0
100
AcDbMText
 10
815.5866984874565
 20
1241.800254781239
 30
0.0
 40
25.0
 41
0.0
 71
     5
 72
     1
  1
20
 11
0.0000000000000001
 21
1.0
 31
0.0
 73
     1
 44
1.0
1001
ACAD
1000
MTEXTBEGIN
1070
    73
1070
     1
1070
    44
1040
1.0
1070
    74
1070
     0
1000
MTEXTEND
  0
INSERT
  5
3656
330
17B3
100
AcDbEntity
  8
実形
 62
     0
370
    15
100
AcDbBlockReference
  2
_DotSmall
 10
834.3366984874565
 20
1212.517091367211
 30
0.0
 41
35.0
 42
35.0
 43
35.0
 50
90.0
  0
INSERT
  5
3657
330
17B3
100
AcDbEntity
  8
実形
 62
     0
370
    15
100
AcDbBlockReference
  2
_DotSmall
 10
834.3366984874565
 20
1192.517091367211
 30
0.0
 41
35.0
 42
35.0
 43
35.0
 50
270.0
  0
POINT
  5
3658
330
17B3
100
AcDbEntity
  8
Defpoints
 62
     0
100
AcDbPoint
 10
931.8007192941804
 20
1212.517091367211
 30
0.0
  0
POINT
  5
3659
330
17B3
100
AcDbEntity
  8
Defpoints
 62
     0
100
AcDbPoint
 10
931.8007192941804
 20
1192.517091367211
 30
0.0
  0
POINT
  5
365A
330
17B3
100
AcDbEntity
  8
Defpoints
 62
     0
100
AcDbPoint
 10
834.3366984874565
 20
1192.517091367211
 30
0.0
  0
ENDBLK
  5
17BE
330
17B3
100
AcDbEntity
  8
0
100
AcDbBlockEnd
  0
BLOCK
  5
17D4
330
17CA
100
AcDbEntity
  8
0
100
AcDbBlockBegin
  2
*D18
 70
     1
 10
0.0
 20
0.0
 30
0.0
  3
*D18
  1

  0
LINE
  5
3B3A
330
17CA
100
AcDbEntity
  8
寸法
 62
     0
370
    15
100
AcDbLine
 10
866.8007192941804
 20
1662.517091367211
 30
0.0
 11
834.2650106872843
 21
1662.517091367211
 31
0.0
  0
LINE
  5
3B3B
330
17CA
100
AcDbEntity
  8
寸法
 62
     0
370
    15
100
AcDbLine
 10
866.8007192941804
 20
1597.517091367211
 30
0.0
 11
834.2650106872843
 21
1597.517091367211
 31
0.0
  0
LINE
  5
3B3C
330
17CA
100
AcDbEntity
  8
寸法
 62
     0
370
    15
100
AcDbLine
 10
834.2650106872843
 20
1662.517091367211
 30
0.0
 11
834.2650106872843
 21
1597.517091367211
 31
0.0
  0
INSERT
  5
3B3D
330
17CA
100
AcDbEntity
  8
寸法
 62
     0
370
    15
100
AcDbBlockReference
  2
_DotSmall
 10
834.2650106872843
 20
1662.517091367211
 30
0.0
 41
35.0
 42
35.0
 43
35.0
 50
90.0
  0
INSERT
  5
3B3E
330
17CA
100
AcDbEntity
  8
寸法
 62
     0
370
    15
100
AcDbBlockReference
  2
_DotSmall
 10
834.2650106872843
 20
1597.517091367211
 30
0.0
 41
35.0
 42
35.0
 43
35.0
 50
270.0
  0
MTEXT
  5
3B3F
330
17CA
100
AcDbEntity
  8
寸法
 62
     0
100
AcDbMText
 10
815.515010687284
 20
1630.017091367211
 30
0.0
 40
25.0
 41
0.0
 71
     5
 72
     1
  1
65
 11
0.0000000000000001
 21
1.0
 31
0.0
 73
     1
 44
1.0
1001
ACAD
1000
MTEXTBEGIN
1070
    73
1070
     1
1070
    44
1040
1.0
1070
    74
1070
     0
1000
MTEXTEND
  0
POINT
  5
3B40
330
17CA
100
AcDbEntity
  8
Defpoints
 62
     0
100
AcDbPoint
 10
931.8007192941804
 20
1662.517091367211
 30
0.0
  0
POINT
  5
3B41
330
17CA
100
AcDbEntity
  8
Defpoints
 62
     0
100
AcDbPoint
 10
931.8007192941804
 20
1597.517091367211
 30
0.0
  0
POINT
  5
3B42
330
17CA
100
AcDbEntity
  8
Defpoints
 62
     0
100
AcDbPoint
 10
834.2650106872843
 20
1597.517091367211
 30
0.0
  0
ENDBLK
  5
17D5
330
17CA
100
AcDbEntity
  8
0
100
AcDbBlockEnd
  0
BLOCK
  5
17E1
330
17D6
100
AcDbEntity
  8
0
100
AcDbBlockBegin
  2
*D19
 70
     1
 10
0.0
 20
0.0
 30
0.0
  3
*D19
  1

  0
LINE
  5
3640
330
17D6
100
AcDbEntity
  8
実形
 62
     0
370
    15
100
AcDbLine
 10
866.8007192941804
 20
1682.517091367211
 30
0.0
 11
834.3366984874567
 21
1682.517091367211
 31
0.0
  0
LINE
  5
3641
330
17D6
100
AcDbEntity
  8
実形
 62
     0
370
    15
100
AcDbLine
 10
866.8007192941804
 20
1662.517091367211
 30
0.0
 11
834.3366984874567
 21
1662.517091367211
 31
0.0
  0
LINE
  5
3642
330
17D6
100
AcDbEntity
  8
実形
 62
     0
370
    15
100
AcDbLine
 10
834.3366984874567
 20
1682.517091367211
 30
0.0
 11
834.3366984874567
 21
1662.517091367211
 31
0.0
  0
MTEXT
  5
3643
330
17D6
100
AcDbEntity
  8
実形
 62
     0
100
AcDbMText
 10
819.6585043381237
 20
1724.78756751963
 30
0.0
 40
25.0
 41
0.0
 71
     5
 72
     1
  1
20
 11
0.0000000000000001
 21
1.0
 31
0.0
 73
     1
 44
1.0
1001
ACAD
1000
MTEXTBEGIN
1070
    73
1070
     1
1070
    44
1040
1.0
1070
    74
1070
     0
1000
MTEXTEND
  0
INSERT
  5
3644
330
17D6
100
AcDbEntity
  8
実形
 62
     0
370
    15
100
AcDbBlockReference
  2
_DotSmall
 10
834.3366984874567
 20
1682.517091367211
 30
0.0
 41
35.0
 42
35.0
 43
35.0
 50
90.0
  0
INSERT
  5
3645
330
17D6
100
AcDbEntity
  8
実形
 62
     0
370
    15
100
AcDbBlockReference
  2
_DotSmall
 10
834.3366984874567
 20
1662.517091367211
 30
0.0
 41
35.0
 42
35.0
 43
35.0
 50
270.0
  0
POINT
  5
3646
330
17D6
100
AcDbEntity
  8
Defpoints
 62
     0
100
AcDbPoint
 10
931.8007192941804
 20
1682.517091367211
 30
0.0
  0
POINT
  5
3647
330
17D6
100
AcDbEntity
  8
Defpoints
 62
     0
100
AcDbPoint
 10
931.8007192941804
 20
1662.517091367211
 30
0.0
  0
POINT
  5
3648
330
17D6
100
AcDbEntity
  8
Defpoints
 62
     0
100
AcDbPoint
 10
834.3366984874567
 20
1662.517091367211
 30
0.0
  0
ENDBLK
  5
17E2
330
17D6
100
AcDbEntity
  8
0
100
AcDbBlockEnd
  0
BLOCK
  5
17ED
330
17E3
100
AcDbEntity
  8
0
100
AcDbBlockBegin
  2
*D20
 70
     1
 10
0.0
 20
0.0
 30
0.0
  3
*D20
  1

  0
LINE
  5
3A26
330
17E3
100
AcDbEntity
  8
寸法
 62
     0
370
    15
100
AcDbLine
 10
1960.760270125927
 20
1682.517091367211
 30
0.0
 11
2000.748026144723
 21
1682.517091367211
 31
0.0
  0
LINE
  5
3A27
330
17E3
100
AcDbEntity
  8
寸法
 62
     0
370
    15
100
AcDbLine
 10
1958.572770125927
 20
1517.517091367211
 30
0.0
 11
2000.748026144723
 21
1517.517091367211
 31
0.0
  0
LINE
  5
3A28
330
17E3
100
AcDbEntity
  8
寸法
 62
     0
370
    15
100
AcDbLine
 10
2000.748026144723
 20
1682.517091367211
 30
0.0
 11
2000.748026144723
 21
1517.517091367211
 31
0.0
  0
INSERT
  5
3A29
330
17E3
100
AcDbEntity
  8
寸法
 62
     0
370
    15
100
AcDbBlockReference
  2
_DotSmall
 10
2000.748026144723
 20
1682.517091367211
 30
0.0
 41
35.0
 42
35.0
 43
35.0
 50
90.0
  0
INSERT
  5
3A2A
330
17E3
100
AcDbEntity
  8
寸法
 62
     0
370
    15
100
AcDbBlockReference
  2
_DotSmall
 10
2000.748026144723
 20
1517.517091367211
 30
0.0
 41
35.0
 42
35.0
 43
35.0
 50
270.0
  0
MTEXT
  5
3A2B
330
17E3
100
AcDbEntity
  8
寸法
 62
     0
100
AcDbMText
 10
1981.998026144722
 20
1600.017091367211
 30
0.0
 40
25.0
 41
0.0
 71
     5
 72
     1
  1
165
 11
0.0000000000000001
 21
1.0
 31
0.0
 73
     1
 44
1.0
1001
ACAD
1000
MTEXTBEGIN
1070
    73
1070
     1
1070
    44
1040
1.0
1070
    74
1070
     0
1000
MTEXTEND
  0
POINT
  5
3A2C
330
17E3
100
AcDbEntity
  8
Defpoints
 62
     0
100
AcDbPoint
 10
1895.760270125927
 20
1682.517091367211
 30
0.0
  0
POINT
  5
3A2D
330
17E3
100
AcDbEntity
  8
Defpoints
 62
     0
100
AcDbPoint
 10
1893.572770125927
 20
1517.517091367211
 30
0.0
  0
POINT
  5
3A2E
330
17E3
100
AcDbEntity
  8
Defpoints
 62
     0
100
AcDbPoint
 10
2000.748026144723
 20
1517.517091367211
 30
0.0
  0
ENDBLK
  5
17EE
330
17E3
100
AcDbEntity
  8
0
100
AcDbBlockEnd
  0
BLOCK
  5
17F9
330
17EF
100
AcDbEntity
  8
0
100
AcDbBlockBegin
  2
*D21
 70
     1
 10
0.0
 20
0.0
 30
0.0
  3
*D21
  1

  0
LINE
  5
36CE
330
17EF
100
AcDbEntity
  8
寸法
 62
     0
370
    15
100
AcDbLine
 10
1856.80071929418
 20
1642.517091367211
 30
0.0
 11
1913.04541516659
 21
1642.517091367211
 31
0.0
  0
LINE
  5
36CF
330
17EF
100
AcDbEntity
  8
寸法
 62
     0
370
    15
100
AcDbLine
 10
1856.80071929418
 20
1212.517091367211
 30
0.0
 11
1913.04541516659
 21
1212.517091367211
 31
0.0
  0
LINE
  5
36D0
330
17EF
100
AcDbEntity
  8
寸法
 62
     0
370
    15
100
AcDbLine
 10
1913.04541516659
 20
1642.517091367211
 30
0.0
 11
1913.04541516659
 21
1212.517091367211
 31
0.0
  0
INSERT
  5
36D1
330
17EF
100
AcDbEntity
  8
寸法
 62
     0
370
    15
100
AcDbBlockReference
  2
_DotSmall
 10
1913.04541516659
 20
1642.517091367211
 30
0.0
 41
35.0
 42
35.0
 43
35.0
 50
90.0
  0
INSERT
  5
36D2
330
17EF
100
AcDbEntity
  8
寸法
 62
     0
370
    15
100
AcDbBlockReference
  2
_DotSmall
 10
1913.04541516659
 20
1212.517091367211
 30
0.0
 41
35.0
 42
35.0
 43
35.0
 50
270.0
  0
MTEXT
  5
36D3
330
17EF
100
AcDbEntity
  8
寸法
 62
     0
100
AcDbMText
 10
1894.29541516659
 20
1427.517091367211
 30
0.0
 40
25.0
 41
0.0
 71
     5
 72
     1
  1
430
 11
0.0000000000000001
 21
1.0
 31
0.0
 73
     1
 44
1.0
1001
ACAD
1000
MTEXTBEGIN
1070
    73
1070
     1
1070
    44
1040
1.0
1070
    74
1070
     0
1000
MTEXTEND
  0
POINT
  5
36D4
330
17EF
100
AcDbEntity
  8
Defpoints
 62
     0
100
AcDbPoint
 10
1791.80071929418
 20
1642.517091367211
 30
0.0
  0
POINT
  5
36D5
330
17EF
100
AcDbEntity
  8
Defpoints
 62
     0
100
AcDbPoint
 10
1791.80071929418
 20
1212.517091367211
 30
0.0
  0
POINT
  5
36D6
330
17EF
100
AcDbEntity
  8
Defpoints
 62
     0
100
AcDbPoint
 10
1913.04541516659
 20
1212.517091367211
 30
0.0
  0
ENDBLK
  5
17FA
330
17EF
100
AcDbEntity
  8
0
100
AcDbBlockEnd
  0
BLOCK
  5
1805
330
17FB
100
AcDbEntity
  8
0
100
AcDbBlockBegin
  2
*D22
 70
     1
 10
0.0
 20
0.0
 30
0.0
  3
*D22
  1

  0
LINE
  5
3731
330
17FB
100
AcDbEntity
  8
寸法
 62
     0
370
    15
100
AcDbLine
 10
1856.80071929418
 20
1212.517091367211
 30
0.0
 11
1913.04541516659
 21
1212.517091367211
 31
0.0
  0
LINE
  5
3732
330
17FB
100
AcDbEntity
  8
寸法
 62
     0
370
    15
100
AcDbLine
 10
1856.80071929418
 20
1172.517091367211
 30
0.0
 11
1913.04541516659
 21
1172.517091367211
 31
0.0
  0
LINE
  5
3733
330
17FB
100
AcDbEntity
  8
寸法
 62
     0
370
    15
100
AcDbLine
 10
1913.04541516659
 20
1212.517091367211
 30
0.0
 11
1913.04541516659
 21
1172.517091367211
 31
0.0
  0
MTEXT
  5
3734
330
17FB
100
AcDbEntity
  8
寸法
 62
     0
100
AcDbMText
 10
1895.809105216855
 20
1137.07870241621
 30
0.0
 40
25.0
 41
0.0
 71
     5
 72
     1
  1
40
 11
0.0000000000000001
 21
1.0
 31
0.0
 73
     1
 44
1.0
1001
ACAD
1000
MTEXTBEGIN
1070
    73
1070
     1
1070
    44
1040
1.0
1070
    74
1070
     0
1000
MTEXTEND
  0
INSERT
  5
3735
330
17FB
100
AcDbEntity
  8
寸法
 62
     0
370
    15
100
AcDbBlockReference
  2
_DotSmall
 10
1913.04541516659
 20
1212.517091367211
 30
0.0
 41
35.0
 42
35.0
 43
35.0
 50
90.0
  0
INSERT
  5
3736
330
17FB
100
AcDbEntity
  8
寸法
 62
     0
370
    15
100
AcDbBlockReference
  2
_DotSmall
 10
1913.04541516659
 20
1172.517091367211
 30
0.0
 41
35.0
 42
35.0
 43
35.0
 50
270.0
  0
POINT
  5
3737
330
17FB
100
AcDbEntity
  8
Defpoints
 62
     0
100
AcDbPoint
 10
1791.80071929418
 20
1212.517091367211
 30
0.0
  0
POINT
  5
3738
330
17FB
100
AcDbEntity
  8
Defpoints
 62
     0
100
AcDbPoint
 10
1791.80071929418
 20
1172.517091367211
 30
0.0
  0
POINT
  5
3739
330
17FB
100
AcDbEntity
  8
Defpoints
 62
     0
100
AcDbPoint
 10
1913.04541516659
 20
1172.517091367211
 30
0.0
  0
ENDBLK
  5
1806
330
17FB
100
AcDbEntity
  8
0
100
AcDbBlockEnd
  0
BLOCK
  5
1811
330
1807
100
AcDbEntity
  8
0
100
AcDbBlockBegin
  2
*D23
 70
     1
 10
0.0
 20
0.0
 30
0.0
  3
*D23
  1

  0
LINE
  5
371F
330
1807
100
AcDbEntity
  8
実形
 62
     0
370
    15
100
AcDbLine
 10
1771.80071929418
 20
1107.517091367211
 30
0.0
 11
1771.80071929418
 21
1059.936606647246
 31
0.0
  0
LINE
  5
3720
330
1807
100
AcDbEntity
  8
実形
 62
     0
370
    15
100
AcDbLine
 10
1791.80071929418
 20
1107.517091367211
 30
0.0
 11
1791.80071929418
 21
1059.936606647246
 31
0.0
  0
LINE
  5
3721
330
1807
100
AcDbEntity
  8
実形
 62
     0
370
    15
100
AcDbLine
 10
1771.80071929418
 20
1059.936606647246
 30
0.0
 11
1791.80071929418
 21
1059.936606647246
 31
0.0
  0
MTEXT
  5
3722
330
1807
100
AcDbEntity
  8
実形
 62
     0
100
AcDbMText
 10
1827.395004328782
 20
1077.165878042084
 30
0.0
 40
25.0
 41
0.0
 71
     5
 72
     1
  1
20
 73
     1
 44
1.0
1001
ACAD
1000
MTEXTBEGIN
1070
    73
1070
     1
1070
    44
1040
1.0
1070
    74
1070
     0
1000
MTEXTEND
  0
INSERT
  5
3723
330
1807
100
AcDbEntity
  8
実形
 62
     0
370
    15
100
AcDbBlockReference
  2
_DotSmall
 10
1771.80071929418
 20
1059.936606647246
 30
0.0
 41
35.0
 42
35.0
 43
35.0
 50
180.0
  0
INSERT
  5
3724
330
1807
100
AcDbEntity
  8
実形
 62
     0
370
    15
100
AcDbBlockReference
  2
_DotSmall
 10
1791.80071929418
 20
1059.936606647246
 30
0.0
 41
35.0
 42
35.0
 43
35.0
  0
POINT
  5
3725
330
1807
100
AcDbEntity
  8
Defpoints
 62
     0
100
AcDbPoint
 10
1771.80071929418
 20
1172.517091367211
 30
0.0
  0
POINT
  5
3726
330
1807
100
AcDbEntity
  8
Defpoints
 62
     0
100
AcDbPoint
 10
1791.80071929418
 20
1172.517091367211
 30
0.0
  0
POINT
  5
3727
330
1807
100
AcDbEntity
  8
Defpoints
 62
     0
100
AcDbPoint
 10
1791.80071929418
 20
1059.936606647246
 30
0.0
  0
ENDBLK
  5
1812
330
1807
100
AcDbEntity
  8
0
100
AcDbBlockEnd
  0
BLOCK
  5
181D
330
1813
100
AcDbEntity
  8
0
100
AcDbBlockBegin
  2
*D24
 70
     1
 10
0.0
 20
0.0
 30
0.0
  3
*D24
  1

  0
LINE
  5
3716
330
1813
100
AcDbEntity
  8
実形
 62
     0
370
    15
100
AcDbLine
 10
1751.80071929418
 20
1107.517091367211
 30
0.0
 11
1751.80071929418
 21
1059.936606647246
 31
0.0
  0
LINE
  5
3717
330
1813
100
AcDbEntity
  8
実形
 62
     0
370
    15
100
AcDbLine
 10
1771.80071929418
 20
1107.517091367211
 30
0.0
 11
1771.80071929418
 21
1059.936606647246
 31
0.0
  0
LINE
  5
3718
330
1813
100
AcDbEntity
  8
実形
 62
     0
370
    15
100
AcDbLine
 10
1751.80071929418
 20
1059.936606647246
 30
0.0
 11
1771.80071929418
 21
1059.936606647246
 31
0.0
  0
MTEXT
  5
3719
330
1813
100
AcDbEntity
  8
実形
 62
     0
100
AcDbMText
 10
1717.816158663623
 20
1078.686606647246
 30
0.0
 40
25.0
 41
0.0
 71
     5
 72
     1
  1
20
 73
     1
 44
1.0
1001
ACAD
1000
MTEXTBEGIN
1070
    73
1070
     1
1070
    44
1040
1.0
1070
    74
1070
     0
1000
MTEXTEND
  0
INSERT
  5
371A
330
1813
100
AcDbEntity
  8
実形
 62
     0
370
    15
100
AcDbBlockReference
  2
_DotSmall
 10
1751.80071929418
 20
1059.936606647246
 30
0.0
 41
35.0
 42
35.0
 43
35.0
 50
180.0
  0
INSERT
  5
371B
330
1813
100
AcDbEntity
  8
実形
 62
     0
370
    15
100
AcDbBlockReference
  2
_DotSmall
 10
1771.80071929418
 20
1059.936606647246
 30
0.0
 41
35.0
 42
35.0
 43
35.0
  0
POINT
  5
371C
330
1813
100
AcDbEntity
  8
Defpoints
 62
     0
100
AcDbPoint
 10
1751.80071929418
 20
1172.517091367211
 30
0.0
  0
POINT
  5
371D
330
1813
100
AcDbEntity
  8
Defpoints
 62
     0
100
AcDbPoint
 10
1771.80071929418
 20
1172.517091367211
 30
0.0
  0
POINT
  5
371E
330
1813
100
AcDbEntity
  8
Defpoints
 62
     0
100
AcDbPoint
 10
1771.80071929418
 20
1059.936606647246
 30
0.0
  0
ENDBLK
  5
181E
330
1813
100
AcDbEntity
  8
0
100
AcDbBlockEnd
  0
BLOCK
  5
1834
330
182A
100
AcDbEntity
  8
0
100
AcDbBlockBegin
  2
*D25
 70
     1
 10
0.0
 20
0.0
 30
0.0
  3
*D25
  1

  0
LINE
  5
3A0F
330
182A
100
AcDbEntity
  8
寸法
 62
     0
370
    15
100
AcDbLine
 10
1958.572770125927
 20
1297.517091367211
 30
0.0
 11
2000.748026144723
 21
1297.517091367211
 31
0.0
  0
LINE
  5
3A10
330
182A
100
AcDbEntity
  8
寸法
 62
     0
370
    15
100
AcDbLine
 10
1956.385270125927
 20
1172.51709136721
 30
0.0
 11
2000.748026144723
 21
1172.51709136721
 31
0.0
  0
LINE
  5
3A11
330
182A
100
AcDbEntity
  8
寸法
 62
     0
370
    15
100
AcDbLine
 10
2000.748026144723
 20
1297.517091367211
 30
0.0
 11
2000.748026144723
 21
1172.51709136721
 31
0.0
  0
INSERT
  5
3A12
330
182A
100
AcDbEntity
  8
寸法
 62
     0
370
    15
100
AcDbBlockReference
  2
_DotSmall
 10
2000.748026144723
 20
1297.517091367211
 30
0.0
 41
35.0
 42
35.0
 43
35.0
 50
90.0
  0
INSERT
  5
3A13
330
182A
100
AcDbEntity
  8
寸法
 62
     0
370
    15
100
AcDbBlockReference
  2
_DotSmall
 10
2000.748026144723
 20
1172.51709136721
 30
0.0
 41
35.0
 42
35.0
 43
35.0
 50
270.0
  0
MTEXT
  5
3A14
330
182A
100
AcDbEntity
  8
寸法
 62
     0
100
AcDbMText
 10
1981.998026144722
 20
1235.017091367211
 30
0.0
 40
25.0
 41
0.0
 71
     5
 72
     1
  1
125
 11
0.0000000000000001
 21
1.0
 31
0.0
 73
     1
 44
1.0
1001
ACAD
1000
MTEXTBEGIN
1070
    73
1070
     1
1070
    44
1040
1.0
1070
    74
1070
     0
1000
MTEXTEND
  0
POINT
  5
3A15
330
182A
100
AcDbEntity
  8
Defpoints
 62
     0
100
AcDbPoint
 10
1893.572770125927
 20
1297.517091367211
 30
0.0
  0
POINT
  5
3A16
330
182A
100
AcDbEntity
  8
Defpoints
 62
     0
100
AcDbPoint
 10
1891.385270125927
 20
1172.51709136721
 30
0.0
  0
POINT
  5
3A17
330
182A
100
AcDbEntity
  8
Defpoints
 62
     0
100
AcDbPoint
 10
2000.748026144723
 20
1172.51709136721
 30
0.0
  0
ENDBLK
  5
1835
330
182A
100
AcDbEntity
  8
0
100
AcDbBlockEnd
  0
BLOCK
  5
1840
330
1836
100
AcDbEntity
  8
0
100
AcDbBlockBegin
  2
*D26
 70
     1
 10
0.0
 20
0.0
 30
0.0
  3
*D26
  1

  0
LINE
  5
39F2
330
1836
100
AcDbEntity
  8
寸法
 62
     0
370
    15
100
AcDbLine
 10
1958.572770125927
 20
1517.517091367211
 30
0.0
 11
2000.748026144723
 21
1517.517091367211
 31
0.0
  0
LINE
  5
39F3
330
1836
100
AcDbEntity
  8
寸法
 62
     0
370
    15
100
AcDbLine
 10
1958.572770125927
 20
1297.517091367211
 30
0.0
 11
2000.748026144723
 21
1297.517091367211
 31
0.0
  0
LINE
  5
39F4
330
1836
100
AcDbEntity
  8
寸法
 62
     0
370
    15
100
AcDbLine
 10
2000.748026144723
 20
1517.517091367211
 30
0.0
 11
2000.748026144723
 21
1297.517091367211
 31
0.0
  0
INSERT
  5
39F5
330
1836
100
AcDbEntity
  8
寸法
 62
     0
370
    15
100
AcDbBlockReference
  2
_DotSmall
 10
2000.748026144723
 20
1517.517091367211
 30
0.0
 41
35.0
 42
35.0
 43
35.0
 50
90.0
  0
INSERT
  5
39F6
330
1836
100
AcDbEntity
  8
寸法
 62
     0
370
    15
100
AcDbBlockReference
  2
_DotSmall
 10
2000.748026144723
 20
1297.517091367211
 30
0.0
 41
35.0
 42
35.0
 43
35.0
 50
270.0
  0
MTEXT
  5
39F7
330
1836
100
AcDbEntity
  8
寸法
 62
     0
100
AcDbMText
 10
1981.998026144722
 20
1407.517091367211
 30
0.0
 40
25.0
 41
0.0
 71
     5
 72
     1
  1
220
 11
0.0000000000000001
 21
1.0
 31
0.0
 73
     1
 44
1.0
1001
ACAD
1000
MTEXTBEGIN
1070
    73
1070
     1
1070
    44
1040
1.0
1070
    74
1070
     0
1000
MTEXTEND
  0
POINT
  5
39F8
330
1836
100
AcDbEntity
  8
Defpoints
 62
     0
100
AcDbPoint
 10
1893.572770125927
 20
1517.517091367211
 30
0.0
  0
POINT
  5
39F9
330
1836
100
AcDbEntity
  8
Defpoints
 62
     0
100
AcDbPoint
 10
1893.572770125927
 20
1297.517091367211
 30
0.0
  0
POINT
  5
39FA
330
1836
100
AcDbEntity
  8
Defpoints
 62
     0
100
AcDbPoint
 10
2000.748026144723
 20
1297.517091367211
 30
0.0
  0
ENDBLK
  5
1841
330
1836
100
AcDbEntity
  8
0
100
AcDbBlockEnd
  0
BLOCK
  5
184C
330
1842
100
AcDbEntity
  8
0
100
AcDbBlockBegin
  2
*D27
 70
     1
 10
0.0
 20
0.0
 30
0.0
  3
*D27
  1

  0
LINE
  5
374C
330
1842
100
AcDbEntity
  8
寸法
 62
     0
370
    15
100
AcDbLine
 10
1856.80071929418
 20
1682.517091367211
 30
0.0
 11
1913.045415166591
 21
1682.517091367211
 31
0.0
  0
LINE
  5
374D
330
1842
100
AcDbEntity
  8
寸法
 62
     0
370
    15
100
AcDbLine
 10
1870.688632563393
 20
1642.517091367211
 30
0.0
 11
1913.045415166591
 21
1642.517091367211
 31
0.0
  0
LINE
  5
374E
330
1842
100
AcDbEntity
  8
寸法
 62
     0
370
    15
100
AcDbLine
 10
1913.045415166591
 20
1682.517091367211
 30
0.0
 11
1913.045415166591
 21
1642.517091367211
 31
0.0
  0
MTEXT
  5
374F
330
1842
100
AcDbEntity
  8
寸法
 62
     0
100
AcDbMText
 10
1893.553820648629
 20
1716.916467768677
 30
0.0
 40
25.0
 41
0.0
 71
     5
 72
     1
  1
40
 11
0.0000000000000001
 21
1.0
 31
0.0
 73
     1
 44
1.0
1001
ACAD
1000
MTEXTBEGIN
1070
    73
1070
     1
1070
    44
1040
1.0
1070
    74
1070
     0
1000
MTEXTEND
  0
INSERT
  5
3750
330
1842
100
AcDbEntity
  8
寸法
 62
     0
370
    15
100
AcDbBlockReference
  2
_DotSmall
 10
1913.045415166591
 20
1682.517091367211
 30
0.0
 41
35.0
 42
35.0
 43
35.0
 50
90.0
  0
INSERT
  5
3751
330
1842
100
AcDbEntity
  8
寸法
 62
     0
370
    15
100
AcDbBlockReference
  2
_DotSmall
 10
1913.045415166591
 20
1642.517091367211
 30
0.0
 41
35.0
 42
35.0
 43
35.0
 50
270.0
  0
POINT
  5
3752
330
1842
100
AcDbEntity
  8
Defpoints
 62
     0
100
AcDbPoint
 10
1791.80071929418
 20
1682.517091367211
 30
0.0
  0
POINT
  5
3753
330
1842
100
AcDbEntity
  8
Defpoints
 62
     0
100
AcDbPoint
 10
1805.688632563393
 20
1642.517091367211
 30
0.0
  0
POINT
  5
3754
330
1842
100
AcDbEntity
  8
Defpoints
 62
     0
100
AcDbPoint
 10
1913.045415166591
 20
1642.517091367211
 30
0.0
  0
ENDBLK
  5
184D
330
1842
100
AcDbEntity
  8
0
100
AcDbBlockEnd
  0
BLOCK
  5
23A3
330
2399
100
AcDbEntity
  8
0
100
AcDbBlockBegin
  2
*D28
 70
     1
 10
0.0
 20
0.0
 30
0.0
  3
*D28
  1

  0
LINE
  5
2C7E
330
2399
100
AcDbEntity
  8
寸法
 62
     0
370
    15
100
AcDbLine
 10
2541.884158905858
 20
392.1758909109342
 30
0.0
 11
2541.884158905858
 21
412.2432904202559
 31
0.0
  0
LINE
  5
2C7F
330
2399
100
AcDbEntity
  8
寸法
 62
     0
370
    15
100
AcDbLine
 10
2728.681082205087
 20
392.1758909109342
 30
0.0
 11
2728.681082205087
 21
412.2432904202559
 31
0.0
  0
LINE
  5
2C80
330
2399
100
AcDbEntity
  8
寸法
 62
     0
370
    15
100
AcDbLine
 10
2541.884158905858
 20
412.2432904202559
 30
0.0
 11
2728.681082205087
 21
412.2432904202559
 31
0.0
  0
INSERT
  5
2C81
330
2399
100
AcDbEntity
  8
寸法
 62
     0
370
    15
100
AcDbBlockReference
  2
_DotSmall
 10
2541.884158905858
 20
412.2432904202559
 30
0.0
 41
40.0
 42
40.0
 43
40.0
 50
180.0
  0
INSERT
  5
2C82
330
2399
100
AcDbEntity
  8
寸法
 62
     0
370
    15
100
AcDbBlockReference
  2
_DotSmall
 10
2728.681082205087
 20
412.2432904202559
 30
0.0
 41
40.0
 42
40.0
 43
40.0
  0
MTEXT
  5
2C83
330
2399
100
AcDbEntity
  8
寸法
 62
     0
100
AcDbMText
 10
2664.316393789775
 20
430.993290420256
 30
0.0
 40
25.0
 41
0.0
 71
     5
 72
     1
  1
20
 73
     1
 44
1.0
1001
ACAD
1000
MTEXTBEGIN
1070
    73
1070
     1
1070
    44
1040
1.0
1070
    74
1070
     0
1000
MTEXTEND
  0
POINT
  5
2C84
330
2399
100
AcDbEntity
  8
Defpoints
 62
     0
100
AcDbPoint
 10
2541.884158905858
 20
372.1758909109342
 30
0.0
  0
POINT
  5
2C85
330
2399
100
AcDbEntity
  8
Defpoints
 62
     0
100
AcDbPoint
 10
2728.681082205087
 20
372.1758909109342
 30
0.0
  0
POINT
  5
2C86
330
2399
100
AcDbEntity
  8
Defpoints
 62
     0
100
AcDbPoint
 10
2728.681082205087
 20
412.2432904202559
 30
0.0
  0
ENDBLK
  5
23A4
330
2399
100
AcDbEntity
  8
0
100
AcDbBlockEnd
  0
BLOCK
  5
23AF
330
23A5
100
AcDbEntity
  8
0
100
AcDbBlockBegin
  2
*D29
 70
     1
 10
0.0
 20
0.0
 30
0.0
  3
*D29
  1

  0
LINE
  5
2C87
330
23A5
100
AcDbEntity
  8
寸法
 62
     0
370
    15
100
AcDbLine
 10
2561.884158905858
 20
512.2735833853567
 30
0.0
 11
2592.040005874708
 21
512.2735833853567
 31
0.0
  0
LINE
  5
2C88
330
23A5
100
AcDbEntity
  8
寸法
 62
     0
370
    15
100
AcDbLine
 10
2561.884158905858
 20
372.1758909109342
 30
0.0
 11
2592.040005874708
 21
372.1758909109342
 31
0.0
  0
LINE
  5
2C89
330
23A5
100
AcDbEntity
  8
寸法
 62
     0
370
    15
100
AcDbLine
 10
2592.040005874708
 20
512.2735833853567
 30
0.0
 11
2592.040005874708
 21
372.1758909109342
 31
0.0
  0
INSERT
  5
2C8A
330
23A5
100
AcDbEntity
  8
寸法
 62
     0
370
    15
100
AcDbBlockReference
  2
_DotSmall
 10
2592.040005874708
 20
512.2735833853567
 30
0.0
 41
40.0
 42
40.0
 43
40.0
 50
90.0
  0
INSERT
  5
2C8B
330
23A5
100
AcDbEntity
  8
寸法
 62
     0
370
    15
100
AcDbBlockReference
  2
_DotSmall
 10
2592.040005874708
 20
372.1758909109342
 30
0.0
 41
40.0
 42
40.0
 43
40.0
 50
270.0
  0
MTEXT
  5
2C8C
330
23A5
100
AcDbEntity
  8
寸法
 62
     0
100
AcDbMText
 10
2573.290005874707
 20
458.5949910234858
 30
0.0
 40
25.0
 41
0.0
 71
     5
 72
     1
  1
15
 11
0.0000000000000001
 21
1.0
 31
0.0
 73
     1
 44
1.0
1001
ACAD
1000
MTEXTBEGIN
1070
    73
1070
     1
1070
    44
1040
1.0
1070
    74
1070
     0
1000
MTEXTEND
  0
POINT
  5
2C8D
330
23A5
100
AcDbEntity
  8
Defpoints
 62
     0
100
AcDbPoint
 10
2541.884158905858
 20
512.2735833853567
 30
0.0
  0
POINT
  5
2C8E
330
23A5
100
AcDbEntity
  8
Defpoints
 62
     0
100
AcDbPoint
 10
2541.884158905858
 20
372.1758909109342
 30
0.0
  0
POINT
  5
2C8F
330
23A5
100
AcDbEntity
  8
Defpoints
 62
     0
100
AcDbPoint
 10
2592.040005874708
 20
372.1758909109342
 30
0.0
  0
ENDBLK
  5
23B0
330
23A5
100
AcDbEntity
  8
0
100
AcDbBlockEnd
  0
BLOCK
  5
23BB
330
23B1
100
AcDbEntity
  8
0
100
AcDbBlockBegin
  2
*D30
 70
     1
 10
0.0
 20
0.0
 30
0.0
  3
*D30
  1

  0
LINE
  5
2C90
330
23B1
100
AcDbEntity
  8
寸法
 62
     0
370
    15
100
AcDbLine
 10
2310.087235606628
 20
512.2735833853567
 30
0.0
 11
2223.10679045253
 21
512.2735833853568
 31
0.0
  0
LINE
  5
2C91
330
23B1
100
AcDbEntity
  8
寸法
 62
     0
370
    15
100
AcDbLine
 10
2310.087235606628
 20
362.8360447459727
 30
0.0
 11
2223.10679045253
 21
362.8360447459727
 31
0.0
  0
LINE
  5
2C92
330
23B1
100
AcDbEntity
  8
寸法
 62
     0
370
    15
100
AcDbLine
 10
2223.10679045253
 20
512.2735833853568
 30
0.0
 11
2223.10679045253
 21
362.8360447459727
 31
0.0
  0
INSERT
  5
2C93
330
23B1
100
AcDbEntity
  8
寸法
 62
     0
370
    15
100
AcDbBlockReference
  2
_DotSmall
 10
2223.10679045253
 20
512.2735833853568
 30
0.0
 41
40.0
 42
40.0
 43
40.0
 50
90.0
  0
INSERT
  5
2C94
330
23B1
100
AcDbEntity
  8
寸法
 62
     0
370
    15
100
AcDbBlockReference
  2
_DotSmall
 10
2223.10679045253
 20
362.8360447459727
 30
0.0
 41
40.0
 42
40.0
 43
40.0
 50
270.0
  0
MTEXT
  5
2C95
330
23B1
100
AcDbEntity
  8
寸法
 62
     0
100
AcDbMText
 10
2204.35679045253
 20
437.5548140656651
 30
0.0
 40
25.0
 41
0.0
 71
     5
 72
     1
  1
16
 11
0.0000000000000001
 21
1.0
 31
0.0
 73
     1
 44
1.0
1001
ACAD
1000
MTEXTBEGIN
1070
    73
1070
     1
1070
    44
1040
1.0
1070
    74
1070
     0
1000
MTEXTEND
  0
POINT
  5
2C96
330
23B1
100
AcDbEntity
  8
Defpoints
 62
     0
100
AcDbPoint
 10
2355.087235606629
 20
512.2735833853567
 30
0.0
  0
POINT
  5
2C97
330
23B1
100
AcDbEntity
  8
Defpoints
 62
     0
100
AcDbPoint
 10
2355.087235606629
 20
362.8360447459727
 30
0.0
  0
POINT
  5
2C98
330
23B1
100
AcDbEntity
  8
Defpoints
 62
     0
100
AcDbPoint
 10
2223.10679045253
 20
362.8360447459727
 30
0.0
  0
ENDBLK
  5
23BC
330
23B1
100
AcDbEntity
  8
0
100
AcDbBlockEnd
  0
BLOCK
  5
23D3
330
23C9
100
AcDbEntity
  8
0
100
AcDbBlockBegin
  2
*D31
 70
     1
 10
0.0
 20
0.0
 30
0.0
  3
*D31
  1

  0
LINE
  5
2CA2
330
23C9
100
AcDbEntity
  8
寸法
 62
     0
370
    15
100
AcDbLine
 10
2355.087235606629
 20
557.2735833853567
 30
0.0
 11
2355.087235606629
 21
631.0664425252025
 31
0.0
  0
LINE
  5
2CA3
330
23C9
100
AcDbEntity
  8
寸法
 62
     0
370
    15
100
AcDbLine
 10
2541.884158905858
 20
557.2735833853567
 30
0.0
 11
2541.884158905858
 21
631.0664425252025
 31
0.0
  0
LINE
  5
2CA4
330
23C9
100
AcDbEntity
  8
寸法
 62
     0
370
    15
100
AcDbLine
 10
2355.087235606629
 20
631.0664425252025
 30
0.0
 11
2541.884158905858
 21
631.0664425252025
 31
0.0
  0
INSERT
  5
2CA5
330
23C9
100
AcDbEntity
  8
寸法
 62
     0
370
    15
100
AcDbBlockReference
  2
_DotSmall
 10
2355.087235606629
 20
631.0664425252025
 30
0.0
 41
40.0
 42
40.0
 43
40.0
 50
180.0
  0
INSERT
  5
2CA6
330
23C9
100
AcDbEntity
  8
寸法
 62
     0
370
    15
100
AcDbBlockReference
  2
_DotSmall
 10
2541.884158905858
 20
631.0664425252025
 30
0.0
 41
40.0
 42
40.0
 43
40.0
  0
MTEXT
  5
2CA7
330
23C9
100
AcDbEntity
  8
寸法
 62
     0
100
AcDbMText
 10
2448.485697256243
 20
649.8164425252025
 30
0.0
 40
25.0
 41
0.0
 71
     5
 72
     1
  1
20
 73
     1
 44
1.0
1001
ACAD
1000
MTEXTBEGIN
1070
    73
1070
     1
1070
    44
1040
1.0
1070
    74
1070
     0
1000
MTEXTEND
  0
POINT
  5
2CA8
330
23C9
100
AcDbEntity
  8
Defpoints
 62
     0
100
AcDbPoint
 10
2355.087235606629
 20
512.2735833853567
 30
0.0
  0
POINT
  5
2CA9
330
23C9
100
AcDbEntity
  8
Defpoints
 62
     0
100
AcDbPoint
 10
2541.884158905858
 20
512.2735833853567
 30
0.0
  0
POINT
  5
2CAA
330
23C9
100
AcDbEntity
  8
Defpoints
 62
     0
100
AcDbPoint
 10
2541.884158905858
 20
631.0664425252025
 30
0.0
  0
ENDBLK
  5
23D4
330
23C9
100
AcDbEntity
  8
0
100
AcDbBlockEnd
  0
BLOCK
  5
23DF
330
23D5
100
AcDbEntity
  8
0
100
AcDbBlockBegin
  2
*D32
 70
     1
 10
0.0
 20
0.0
 30
0.0
  3
*D32
  1

  0
LINE
  5
2CAB
330
23D5
100
AcDbEntity
  8
寸法
 62
     0
370
    15
100
AcDbLine
 10
2310.087235606628
 20
512.2735833853567
 30
0.0
 11
2275.965638979034
 21
512.2735833853568
 31
0.0
  0
LINE
  5
2CAC
330
23D5
100
AcDbEntity
  8
寸法
 62
     0
370
    15
100
AcDbLine
 10
2310.087235606628
 20
465.5735833853566
 30
0.0
 11
2275.965638979034
 21
465.5735833853566
 31
0.0
  0
LINE
  5
2CAD
330
23D5
100
AcDbEntity
  8
寸法
 62
     0
370
    15
100
AcDbLine
 10
2275.965638979034
 20
512.2735833853568
 30
0.0
 11
2275.965638979034
 21
465.5735833853566
 31
0.0
  0
MTEXT
  5
2CAE
330
23D5
100
AcDbEntity
  8
寸法
 62
     0
100
AcDbMText
 10
2250.075589207659
 20
489.5176380222683
 30
0.0
 40
25.0
 41
0.0
 71
     5
 72
     1
  1
5
 11
0.0000000000000001
 21
1.0
 31
0.0
 73
     1
 44
1.0
1001
ACAD
1000
MTEXTBEGIN
1070
    73
1070
     1
1070
    44
1040
1.0
1070
    74
1070
     0
1000
MTEXTEND
  0
INSERT
  5
2CAF
330
23D5
100
AcDbEntity
  8
寸法
 62
     0
370
    15
100
AcDbBlockReference
  2
_DotSmall
 10
2275.965638979034
 20
512.2735833853568
 30
0.0
 41
40.0
 42
40.0
 43
40.0
 50
90.0
  0
INSERT
  5
2CB0
330
23D5
100
AcDbEntity
  8
寸法
 62
     0
370
    15
100
AcDbBlockReference
  2
_DotSmall
 10
2275.965638979034
 20
465.5735833853566
 30
0.0
 41
40.0
 42
40.0
 43
40.0
 50
270.0
  0
POINT
  5
2CB1
330
23D5
100
AcDbEntity
  8
Defpoints
 62
     0
100
AcDbPoint
 10
2355.087235606629
 20
512.2735833853567
 30
0.0
  0
POINT
  5
2CB2
330
23D5
100
AcDbEntity
  8
Defpoints
 62
     0
100
AcDbPoint
 10
2355.087235606629
 20
465.5735833853566
 30
0.0
  0
POINT
  5
2CB3
330
23D5
100
AcDbEntity
  8
Defpoints
 62
     0
100
AcDbPoint
 10
2275.965638979034
 20
465.5735833853566
 30
0.0
  0
ENDBLK
  5
23E0
330
23D5
100
AcDbEntity
  8
0
100
AcDbBlockEnd
  0
BLOCK
  5
23EB
330
23E1
100
AcDbEntity
  8
0
100
AcDbBlockBegin
  2
*D33
 70
     1
 10
0.0
 20
0.0
 30
0.0
  3
*D33
  1

  0
LINE
  5
2CB4
330
23E1
100
AcDbEntity
  8
寸法
 62
     0
370
    15
100
AcDbLine
 10
2355.087235606629
 20
557.2735833853567
 30
0.0
 11
2355.087235606629
 21
584.7147419219727
 31
0.0
  0
LINE
  5
2CB5
330
23E1
100
AcDbEntity
  8
寸法
 62
     0
370
    15
100
AcDbLine
 10
2401.786466431435
 20
557.2735833853567
 30
0.0
 11
2401.786466431435
 21
584.7147419219727
 31
0.0
  0
LINE
  5
2CB6
330
23E1
100
AcDbEntity
  8
寸法
 62
     0
370
    15
100
AcDbLine
 10
2355.087235606629
 20
584.7147419219727
 30
0.0
 11
2401.786466431435
 21
584.7147419219727
 31
0.0
  0
INSERT
  5
2CB7
330
23E1
100
AcDbEntity
  8
寸法
 62
     0
370
    15
100
AcDbBlockReference
  2
_DotSmall
 10
2355.087235606629
 20
584.7147419219727
 30
0.0
 41
40.0
 42
40.0
 43
40.0
 50
180.0
  0
INSERT
  5
2CB8
330
23E1
100
AcDbEntity
  8
寸法
 62
     0
370
    15
100
AcDbBlockReference
  2
_DotSmall
 10
2401.786466431435
 20
584.7147419219727
 30
0.0
 41
40.0
 42
40.0
 43
40.0
  0
MTEXT
  5
2CB9
330
23E1
100
AcDbEntity
  8
寸法
 62
     0
100
AcDbMText
 10
2378.436851019031
 20
603.4647419219727
 30
0.0
 40
25.0
 41
0.0
 71
     5
 72
     1
  1
5
 73
     1
 44
1.0
1001
ACAD
1000
MTEXTBEGIN
1070
    73
1070
     1
1070
    44
1040
1.0
1070
    74
1070
     0
1000
MTEXTEND
  0
POINT
  5
2CBA
330
23E1
100
AcDbEntity
  8
Defpoints
 62
     0
100
AcDbPoint
 10
2355.087235606629
 20
512.2735833853567
 30
0.0
  0
POINT
  5
2CBB
330
23E1
100
AcDbEntity
  8
Defpoints
 62
     0
100
AcDbPoint
 10
2401.786466431435
 20
512.2735833853567
 30
0.0
  0
POINT
  5
2CBC
330
23E1
100
AcDbEntity
  8
Defpoints
 62
     0
100
AcDbPoint
 10
2401.786466431435
 20
584.7147419219727
 30
0.0
  0
ENDBLK
  5
23EC
330
23E1
100
AcDbEntity
  8
0
100
AcDbBlockEnd
  0
BLOCK
  5
258E
330
2584
100
AcDbEntity
  8
0
100
AcDbBlockBegin
  2
*D34
 70
     1
 10
0.0
 20
0.0
 30
0.0
  3
*D34
  1

  0
LINE
  5
479F
330
2584
100
AcDbEntity
  8
実形
 62
     0
370
    18
100
AcDbLine
 10
1044.30071929418
 20
586.4270373160679
 30
0.0
 11
1044.30071929418
 21
481.6961869903116
 31
0.0
  0
LINE
  5
47A0
330
2584
100
AcDbEntity
  8
実形
 62
     0
370
    18
100
AcDbLine
 10
1159.30071929418
 20
586.4270373160679
 30
0.0
 11
1159.30071929418
 21
481.6961869903116
 31
0.0
  0
LINE
  5
47A1
330
2584
100
AcDbEntity
  8
実形
 62
     0
370
    18
100
AcDbLine
 10
1044.30071929418
 20
481.6961869903116
 30
0.0
 11
1159.30071929418
 21
481.6961869903116
 31
0.0
  0
INSERT
  5
47A2
330
2584
100
AcDbEntity
  8
実形
 62
     0
370
    18
100
AcDbBlockReference
  2
_DotSmall
 10
1044.30071929418
 20
481.6961869903116
 30
0.0
 41
35.0
 42
35.0
 43
35.0
 50
180.0
  0
INSERT
  5
47A3
330
2584
100
AcDbEntity
  8
実形
 62
     0
370
    18
100
AcDbBlockReference
  2
_DotSmall
 10
1159.30071929418
 20
481.6961869903116
 30
0.0
 41
35.0
 42
35.0
 43
35.0
  0
MTEXT
  5
47A4
330
2584
100
AcDbEntity
  8
実形
 62
     0
100
AcDbMText
 10
1101.80071929418
 20
500.4461869903116
 30
0.0
 40
25.0
 41
0.0
 71
     5
 72
     1
  1
115
 73
     1
 44
1.0
1001
ACAD
1000
MTEXTBEGIN
1070
    73
1070
     1
1070
    44
1040
1.0
1070
    74
1070
     0
1000
MTEXTEND
  0
POINT
  5
47A5
330
2584
100
AcDbEntity
  8
Defpoints
 62
     0
100
AcDbPoint
 10
1044.30071929418
 20
651.4270373160679
 30
0.0
  0
POINT
  5
47A6
330
2584
100
AcDbEntity
  8
Defpoints
 62
     0
100
AcDbPoint
 10
1159.30071929418
 20
651.4270373160679
 30
0.0
  0
POINT
  5
47A7
330
2584
100
AcDbEntity
  8
Defpoints
 62
     0
100
AcDbPoint
 10
1159.30071929418
 20
481.6961869903116
 30
0.0
  0
ENDBLK
  5
258F
330
2584
100
AcDbEntity
  8
0
100
AcDbBlockEnd
  0
BLOCK
  5
259E
330
2594
100
AcDbEntity
  8
0
100
AcDbBlockBegin
  2
*D35
 70
     1
 10
0.0
 20
0.0
 30
0.0
  3
*D35
  1

  0
LINE
  5
478B
330
2594
100
AcDbEntity
  8
実形
 62
     0
370
    18
100
AcDbLine
 10
1054.80071929418
 20
586.4270373160679
 30
0.0
 11
1054.80071929418
 21
522.1167654009923
 31
0.0
  0
LINE
  5
478C
330
2594
100
AcDbEntity
  8
実形
 62
     0
370
    18
100
AcDbLine
 10
1148.80071929418
 20
586.4270373160679
 30
0.0
 11
1148.80071929418
 21
522.1167654009923
 31
0.0
  0
LINE
  5
478D
330
2594
100
AcDbEntity
  8
実形
 62
     0
370
    18
100
AcDbLine
 10
1054.80071929418
 20
522.1167654009923
 30
0.0
 11
1148.80071929418
 21
522.1167654009923
 31
0.0
  0
INSERT
  5
478E
330
2594
100
AcDbEntity
  8
実形
 62
     0
370
    18
100
AcDbBlockReference
  2
_DotSmall
 10
1054.80071929418
 20
522.1167654009923
 30
0.0
 41
35.0
 42
35.0
 43
35.0
 50
180.0
  0
INSERT
  5
478F
330
2594
100
AcDbEntity
  8
実形
 62
     0
370
    18
100
AcDbBlockReference
  2
_DotSmall
 10
1148.80071929418
 20
522.1167654009923
 30
0.0
 41
35.0
 42
35.0
 43
35.0
  0
MTEXT
  5
4790
330
2594
100
AcDbEntity
  8
実形
 62
     0
100
AcDbMText
 10
1101.80071929418
 20
540.8667654009923
 30
0.0
 40
25.0
 41
0.0
 71
     5
 72
     1
  1
94
 73
     1
 44
1.0
1001
ACAD
1000
MTEXTBEGIN
1070
    73
1070
     1
1070
    44
1040
1.0
1070
    74
1070
     0
1000
MTEXTEND
  0
POINT
  5
4791
330
2594
100
AcDbEntity
  8
Defpoints
 62
     0
100
AcDbPoint
 10
1054.80071929418
 20
651.4270373160679
 30
0.0
  0
POINT
  5
4792
330
2594
100
AcDbEntity
  8
Defpoints
 62
     0
100
AcDbPoint
 10
1148.80071929418
 20
651.4270373160679
 30
0.0
  0
POINT
  5
4793
330
2594
100
AcDbEntity
  8
Defpoints
 62
     0
100
AcDbPoint
 10
1148.80071929418
 20
522.1167654009923
 30
0.0
  0
ENDBLK
  5
259F
330
2594
100
AcDbEntity
  8
0
100
AcDbBlockEnd
  0
BLOCK
  5
25C4
330
25BA
100
AcDbEntity
  8
0
100
AcDbBlockBegin
  2
*D36
 70
     1
 10
0.0
 20
0.0
 30
0.0
  3
*D36
  1

  0
LINE
  5
43FF
330
25BA
100
AcDbEntity
  8
実形
 62
     0
370
    18
100
AcDbLine
 10
1321.80071929418
 20
586.4270373160679
 30
0.0
 11
1321.80071929418
 21
527.1167654009923
 31
0.0
  0
LINE
  5
4400
330
25BA
100
AcDbEntity
  8
実形
 62
     0
370
    18
100
AcDbLine
 10
1481.80071929418
 20
586.4270373160681
 30
0.0
 11
1481.80071929418
 21
527.1167654009923
 31
0.0
  0
LINE
  5
4401
330
25BA
100
AcDbEntity
  8
実形
 62
     0
370
    18
100
AcDbLine
 10
1321.80071929418
 20
527.1167654009923
 30
0.0
 11
1481.80071929418
 21
527.1167654009923
 31
0.0
  0
INSERT
  5
4402
330
25BA
100
AcDbEntity
  8
実形
 62
     0
370
    18
100
AcDbBlockReference
  2
_DotSmall
 10
1321.80071929418
 20
527.1167654009923
 30
0.0
 41
35.0
 42
35.0
 43
35.0
 50
180.0
  0
INSERT
  5
4403
330
25BA
100
AcDbEntity
  8
実形
 62
     0
370
    18
100
AcDbBlockReference
  2
_DotSmall
 10
1481.80071929418
 20
527.1167654009923
 30
0.0
 41
35.0
 42
35.0
 43
35.0
  0
MTEXT
  5
4404
330
25BA
100
AcDbEntity
  8
実形
 62
     0
100
AcDbMText
 10
1401.80071929418
 20
545.8667654009923
 30
0.0
 40
25.0
 41
0.0
 71
     5
 72
     1
  1
160
 73
     1
 44
1.0
1001
ACAD
1000
MTEXTBEGIN
1070
    73
1070
     1
1070
    44
1040
1.0
1070
    74
1070
     0
1000
MTEXTEND
  0
POINT
  5
4405
330
25BA
100
AcDbEntity
  8
Defpoints
 62
     0
100
AcDbPoint
 10
1321.80071929418
 20
651.4270373160679
 30
0.0
  0
POINT
  5
4406
330
25BA
100
AcDbEntity
  8
Defpoints
 62
     0
100
AcDbPoint
 10
1481.80071929418
 20
651.427037316068
 30
0.0
  0
POINT
  5
4407
330
25BA
100
AcDbEntity
  8
Defpoints
 62
     0
100
AcDbPoint
 10
1481.80071929418
 20
527.1167654009923
 30
0.0
  0
ENDBLK
  5
25C5
330
25BA
100
AcDbEntity
  8
0
100
AcDbBlockEnd
  0
BLOCK
  5
25D1
330
25C7
100
AcDbEntity
  8
0
100
AcDbBlockBegin
  2
*D37
 70
     1
 10
0.0
 20
0.0
 30
0.0
  3
*D37
  1

  0
LINE
  5
43F6
330
25C7
100
AcDbEntity
  8
実形
 62
     0
370
    18
100
AcDbLine
 10
1311.30071929418
 20
586.4270373160679
 30
0.0
 11
1311.30071929418
 21
486.6961869903116
 31
0.0
  0
LINE
  5
43F7
330
25C7
100
AcDbEntity
  8
実形
 62
     0
370
    18
100
AcDbLine
 10
1492.30071929418
 20
586.4270373160679
 30
0.0
 11
1492.30071929418
 21
486.6961869903116
 31
0.0
  0
LINE
  5
43F8
330
25C7
100
AcDbEntity
  8
実形
 62
     0
370
    18
100
AcDbLine
 10
1311.30071929418
 20
486.6961869903116
 30
0.0
 11
1492.30071929418
 21
486.6961869903116
 31
0.0
  0
INSERT
  5
43F9
330
25C7
100
AcDbEntity
  8
実形
 62
     0
370
    18
100
AcDbBlockReference
  2
_DotSmall
 10
1311.30071929418
 20
486.6961869903116
 30
0.0
 41
35.0
 42
35.0
 43
35.0
 50
180.0
  0
INSERT
  5
43FA
330
25C7
100
AcDbEntity
  8
実形
 62
     0
370
    18
100
AcDbBlockReference
  2
_DotSmall
 10
1492.30071929418
 20
486.6961869903116
 30
0.0
 41
35.0
 42
35.0
 43
35.0
  0
MTEXT
  5
43FB
330
25C7
100
AcDbEntity
  8
実形
 62
     0
100
AcDbMText
 10
1401.80071929418
 20
505.4461869903116
 30
0.0
 40
25.0
 41
0.0
 71
     5
 72
     1
  1
181
 73
     1
 44
1.0
1001
ACAD
1000
MTEXTBEGIN
1070
    73
1070
     1
1070
    44
1040
1.0
1070
    74
1070
     0
1000
MTEXTEND
  0
POINT
  5
43FC
330
25C7
100
AcDbEntity
  8
Defpoints
 62
     0
100
AcDbPoint
 10
1311.30071929418
 20
651.4270373160679
 30
0.0
  0
POINT
  5
43FD
330
25C7
100
AcDbEntity
  8
Defpoints
 62
     0
100
AcDbPoint
 10
1492.30071929418
 20
651.4270373160679
 30
0.0
  0
POINT
  5
43FE
330
25C7
100
AcDbEntity
  8
Defpoints
 62
     0
100
AcDbPoint
 10
1492.30071929418
 20
486.6961869903116
 30
0.0
  0
ENDBLK
  5
25D2
330
25C7
100
AcDbEntity
  8
0
100
AcDbBlockEnd
  0
BLOCK
  5
2CDF
330
2CD3
100
AcDbEntity
  8
0
100
AcDbBlockBegin
  2
*D38
 70
     1
 10
0.0
 20
0.0
 30
0.0
  3
*D38
  1

  0
MTEXT
  5
3773
330
2CD3
100
AcDbEntity
  8
実形
 62
     0
100
AcDbMText
 10
2163.743057511845
 20
1572.50817979203
 30
0.0
 40
25.0
 41
0.0
 71
     5
 72
     1
  1
40
 73
     1
 44
1.0
1001
ACAD
1000
MTEXTBEGIN
1070
    73
1070
     1
1070
    44
1040
1.0
1070
    74
1070
     0
1000
MTEXTEND
  0
POINT
  5
3774
330
2CD3
100
AcDbEntity
  8
Defpoints
 62
     0
100
AcDbPoint
 10
2137.756977120949
 20
1470.358071531854
 30
0.0
  0
POINT
  5
3775
330
2CD3
100
AcDbEntity
  8
Defpoints
 62
     0
100
AcDbPoint
 10
2177.756977120949
 20
1470.358071531854
 30
0.0
  0
POINT
  5
3776
330
2CD3
100
AcDbEntity
  8
Defpoints
 62
     0
100
AcDbPoint
 10
2177.756977120949
 20
1550.569449279112
 30
0.0
  0
ENDBLK
  5
2CE0
330
2CD3
100
AcDbEntity
  8
0
100
AcDbBlockEnd
  0
BLOCK
  5
2DD9
330
2DCF
100
AcDbEntity
  8
0
100
AcDbBlockBegin
  2
*D39
 70
     1
 10
0.0
 20
0.0
 30
0.0
  3
*D39
  1

  0
LINE
  5
376A
330
2DCF
100
AcDbEntity
  8
実形
 62
     0
370
    18
100
AcDbLine
 10
2201.147657562644
 20
1497.517091367211
 30
0.0
 11
2229.921369724463
 21
1497.517091367211
 31
0.0
  0
LINE
  5
376B
330
2DCF
100
AcDbEntity
  8
実形
 62
     0
370
    18
100
AcDbLine
 10
2201.147657562644
 20
1317.517091367211
 30
0.0
 11
2229.921369724463
 21
1317.517091367211
 31
0.0
  0
LINE
  5
376C
330
2DCF
100
AcDbEntity
  8
実形
 62
     0
370
    18
100
AcDbLine
 10
2229.921369724463
 20
1497.517091367211
 30
0.0
 11
2229.921369724463
 21
1317.517091367211
 31
0.0
  0
INSERT
  5
376D
330
2DCF
100
AcDbEntity
  8
実形
 62
     0
370
    18
100
AcDbBlockReference
  2
_DotSmall
 10
2229.921369724463
 20
1497.517091367211
 30
0.0
 41
35.0
 42
35.0
 43
35.0
 50
90.0
  0
INSERT
  5
376E
330
2DCF
100
AcDbEntity
  8
実形
 62
     0
370
    18
100
AcDbBlockReference
  2
_DotSmall
 10
2229.921369724463
 20
1317.517091367211
 30
0.0
 41
35.0
 42
35.0
 43
35.0
 50
270.0
  0
MTEXT
  5
376F
330
2DCF
100
AcDbEntity
  8
実形
 62
     0
100
AcDbMText
 10
2211.171369724463
 20
1407.517091367211
 30
0.0
 40
25.0
 41
0.0
 71
     5
 72
     1
  1
180
 11
0.0000000000000001
 21
1.0
 31
0.0
 73
     1
 44
1.0
1001
ACAD
1000
MTEXTBEGIN
1070
    73
1070
     1
1070
    44
1040
1.0
1070
    74
1070
     0
1000
MTEXTEND
  0
POINT
  5
3770
330
2DCF
100
AcDbEntity
  8
Defpoints
 62
     0
100
AcDbPoint
 10
2136.147657562644
 20
1497.517091367211
 30
0.0
  0
POINT
  5
3771
330
2DCF
100
AcDbEntity
  8
Defpoints
 62
     0
100
AcDbPoint
 10
2136.147657562644
 20
1317.517091367211
 30
0.0
  0
POINT
  5
3772
330
2DCF
100
AcDbEntity
  8
Defpoints
 62
     0
100
AcDbPoint
 10
2229.921369724463
 20
1317.517091367211
 30
0.0
  0
ENDBLK
  5
2DDA
330
2DCF
100
AcDbEntity
  8
0
100
AcDbBlockEnd
  0
BLOCK
  5
2DEF
330
2DE5
100
AcDbEntity
  8
0
100
AcDbBlockBegin
  2
*D40
 70
     1
 10
0.0
 20
0.0
 30
0.0
  3
*D40
  1

  0
LINE
  5
3764
330
2DE5
100
AcDbEntity
  8
実形
 62
     0
370
    18
100
AcDbLine
 10
2199.971728925037
 20
1517.51709136721
 30
0.0
 11
2229.921369724463
 21
1517.51709136721
 31
0.0
  0
LINE
  5
3765
330
2DE5
100
AcDbEntity
  8
実形
 62
     0
370
    18
100
AcDbLine
 10
2230.158701045664
 20
1317.517091367211
 30
0.0
 11
2229.921369724463
 21
1317.517091367211
 31
0.0
  0
MTEXT
  5
3766
330
2DE5
100
AcDbEntity
  8
実形
 62
     0
100
AcDbMText
 10
2211.171369724463
 20
1552.35624539669
 30
0.0
 40
25.0
 41
0.0
 71
     5
 72
     1
  1
20
 11
0.0000000000000001
 21
1.0
 31
0.0
 73
     1
 44
1.0
1001
ACAD
1000
MTEXTBEGIN
1070
    73
1070
     1
1070
    44
1040
1.0
1070
    74
1070
     0
1000
MTEXTEND
  0
POINT
  5
3767
330
2DE5
100
AcDbEntity
  8
Defpoints
 62
     0
100
AcDbPoint
 10
2134.971728925037
 20
1517.51709136721
 30
0.0
  0
POINT
  5
3768
330
2DE5
100
AcDbEntity
  8
Defpoints
 62
     0
100
AcDbPoint
 10
2165.158701045664
 20
1317.517091367211
 30
0.0
  0
POINT
  5
3769
330
2DE5
100
AcDbEntity
  8
Defpoints
 62
     0
100
AcDbPoint
 10
2229.921369724463
 20
1317.517091367211
 30
0.0
  0
ENDBLK
  5
2DF0
330
2DE5
100
AcDbEntity
  8
0
100
AcDbBlockEnd
  0
BLOCK
  5
2E4E
330
2E44
100
AcDbEntity
  8
0
100
AcDbBlockBegin
  2
*D41
 70
     1
 10
0.0
 20
0.0
 30
0.0
  3
*D41
  1

  0
LINE
  5
375E
330
2E44
100
AcDbEntity
  8
実形
 62
     0
370
    18
100
AcDbLine
 10
2222.880237646332
 20
1517.517091367211
 30
0.0
 11
2230.158701045664
 21
1517.517091367211
 31
0.0
  0
LINE
  5
375F
330
2E44
100
AcDbEntity
  8
実形
 62
     0
370
    18
100
AcDbLine
 10
2202.756977120949
 20
1297.517091367211
 30
0.0
 11
2230.158701045664
 21
1297.517091367211
 31
0.0
  0
MTEXT
  5
3760
330
2E44
100
AcDbEntity
  8
実形
 62
     0
100
AcDbMText
 10
2211.408701045664
 20
1266.774010556846
 30
0.0
 40
25.0
 41
0.0
 71
     5
 72
     1
  1
20
 11
0.0000000000000001
 21
1.0
 31
0.0
 73
     1
 44
1.0
1001
ACAD
1000
MTEXTBEGIN
1070
    73
1070
     1
1070
    44
1040
1.0
1070
    74
1070
     0
1000
MTEXTEND
  0
POINT
  5
3761
330
2E44
100
AcDbEntity
  8
Defpoints
 62
     0
100
AcDbPoint
 10
2157.880237646332
 20
1517.517091367211
 30
0.0
  0
POINT
  5
3762
330
2E44
100
AcDbEntity
  8
Defpoints
 62
     0
100
AcDbPoint
 10
2137.756977120949
 20
1297.517091367211
 30
0.0
  0
POINT
  5
3763
330
2E44
100
AcDbEntity
  8
Defpoints
 62
     0
100
AcDbPoint
 10
2230.158701045664
 20
1297.517091367211
 30
0.0
  0
ENDBLK
  5
2E4F
330
2E44
100
AcDbEntity
  8
0
100
AcDbBlockEnd
  0
BLOCK
  5
2ED8
330
2ED7
100
AcDbEntity
  8
0
100
AcDbBlockBegin
  2
_Dot
 70
     0
 10
0.0
 20
0.0
 30
0.0
  3
_Dot
  1

  0
LWPOLYLINE
  5
2ED9
330
2ED7
100
AcDbEntity
  8
0
 62
     0
100
AcDbPolyline
 90
        2
 70
     1
 43
0.5
 10
-0.25
 20
0.0
 42
1.0
 10
0.25
 20
0.0
 42
1.0
  0
LINE
  5
2EDA
330
2ED7
100
AcDbEntity
  8
0
 62
     0
370
    -2
100
AcDbLine
 10
-0.5
 20
0.0
 30
0.0
 11
-1.0
 21
0.0
 31
0.0
  0
ENDBLK
  5
2EDB
330
2ED7
100
AcDbEntity
  8
0
100
AcDbBlockEnd
  0
BLOCK
  5
322F
330
3225
100
AcDbEntity
  8
0
 62
     3
100
AcDbBlockBegin
  2
*D43
 70
     1
 10
0.0
 20
0.0
 30
0.0
  3
*D43
  1

  0
MTEXT
  5
3FBB
330
3225
100
AcDbEntity
  8
実形
 62
     0
100
AcDbMText
 10
2087.585491058002
 20
1109.390767961284
 30
0.0
 40
25.0
 41
0.0
 71
     5
 72
     1
  1
15
 73
     1
 44
1.0
1001
ACAD
1000
MTEXTBEGIN
1070
    73
1070
     1
1070
    44
1040
1.0
1070
    74
1070
     0
1000
MTEXTEND
  0
POINT
  5
3FBC
330
3225
100
AcDbEntity
  8
Defpoints
 62
     0
100
AcDbPoint
 10
2122.756977120949
 20
1198.992507324763
 30
0.0
  0
POINT
  5
3FBD
330
3225
100
AcDbEntity
  8
Defpoints
 62
     0
100
AcDbPoint
 10
2322.756977120949
 20
1198.992507324763
 30
0.0
  0
POINT
  5
3FBE
330
3225
100
AcDbEntity
  8
Defpoints
 62
     0
100
AcDbPoint
 10
2322.756977120949
 20
1090.640767961284
 30
0.0
  0
ENDBLK
  5
3230
330
3225
100
AcDbEntity
  8
0
 62
     3
100
AcDbBlockEnd
  0
BLOCK
  5
323C
330
3232
100
AcDbEntity
  8
0
 62
     3
100
AcDbBlockBegin
  2
*D44
 70
     1
 10
0.0
 20
0.0
 30
0.0
  3
*D44
  1

  0
LINE
  5
3FF6
330
3232
100
AcDbEntity
  8
実形
 62
     0
370
    18
100
AcDbLine
 10
2137.756977120949
 20
1133.992507324763
 30
0.0
 11
2137.756977120949
 21
1090.640767961284
 31
0.0
  0
LINE
  5
3FF7
330
3232
100
AcDbEntity
  8
実形
 62
     0
370
    18
100
AcDbLine
 10
2322.756977120949
 20
1133.992507324763
 30
0.0
 11
2322.756977120949
 21
1090.640767961284
 31
0.0
  0
LINE
  5
3FF8
330
3232
100
AcDbEntity
  8
実形
 62
     0
370
    18
100
AcDbLine
 10
2137.756977120949
 20
1090.640767961284
 30
0.0
 11
2322.756977120949
 21
1090.640767961284
 31
0.0
  0
INSERT
  5
3FF9
330
3232
100
AcDbEntity
  8
実形
 62
     0
370
    18
100
AcDbBlockReference
  2
_DotSmall
 10
2137.756977120949
 20
1090.640767961284
 30
0.0
 41
35.0
 42
35.0
 43
35.0
 50
180.0
  0
INSERT
  5
3FFA
330
3232
100
AcDbEntity
  8
実形
 62
     0
370
    18
100
AcDbBlockReference
  2
_DotSmall
 10
2322.756977120949
 20
1090.640767961284
 30
0.0
 41
35.0
 42
35.0
 43
35.0
  0
MTEXT
  5
3FFB
330
3232
100
AcDbEntity
  8
実形
 62
     0
100
AcDbMText
 10
2230.256977120949
 20
1109.390767961284
 30
0.0
 40
25.0
 41
0.0
 71
     5
 72
     1
  1
185
 73
     1
 44
1.0
1001
ACAD
1000
MTEXTBEGIN
1070
    73
1070
     1
1070
    44
1040
1.0
1070
    74
1070
     0
1000
MTEXTEND
  0
POINT
  5
3FFC
330
3232
100
AcDbEntity
  8
Defpoints
 62
     0
100
AcDbPoint
 10
2137.756977120949
 20
1198.992507324763
 30
0.0
  0
POINT
  5
3FFD
330
3232
100
AcDbEntity
  8
Defpoints
 62
     0
100
AcDbPoint
 10
2322.756977120949
 20
1198.992507324763
 30
0.0
  0
POINT
  5
3FFE
330
3232
100
AcDbEntity
  8
Defpoints
 62
     0
100
AcDbPoint
 10
2322.756977120949
 20
1090.640767961284
 30
0.0
  0
ENDBLK
  5
323D
330
3232
100
AcDbEntity
  8
0
 62
     3
100
AcDbBlockEnd
  0
BLOCK
  5
3291
330
3287
100
AcDbEntity
  8
0
 62
     3
100
AcDbBlockBegin
  2
*D45
 70
     1
 10
0.0
 20
0.0
 30
0.0
  3
*D45
  1

  0
LINE
  5
3FED
330
3287
100
AcDbEntity
  8
実形
 62
     0
370
    18
100
AcDbLine
 10
2122.756977120949
 20
1133.992507324763
 30
0.0
 11
2122.756977120949
 21
1042.418202794422
 31
0.0
  0
LINE
  5
3FEE
330
3287
100
AcDbEntity
  8
実形
 62
     0
370
    18
100
AcDbLine
 10
2322.756977120949
 20
1133.992507324763
 30
0.0
 11
2322.756977120949
 21
1042.418202794422
 31
0.0
  0
LINE
  5
3FEF
330
3287
100
AcDbEntity
  8
実形
 62
     0
370
    18
100
AcDbLine
 10
2122.756977120949
 20
1042.418202794422
 30
0.0
 11
2322.756977120949
 21
1042.418202794422
 31
0.0
  0
MTEXT
  5
3FF0
330
3287
100
AcDbEntity
  8
実形
 62
     0
100
AcDbMText
 10
2234.901254862718
 20
1061.168202794422
 30
0.0
 40
25.0
 41
0.0
 71
     5
 72
     1
  1
200
 73
     1
 44
1.0
1001
ACAD
1000
MTEXTBEGIN
1070
    73
1070
     1
1070
    44
1040
1.0
1070
    74
1070
     0
1000
MTEXTEND
  0
INSERT
  5
3FF1
330
3287
100
AcDbEntity
  8
実形
 62
     0
370
    18
100
AcDbBlockReference
  2
_DotSmall
 10
2122.756977120949
 20
1042.418202794422
 30
0.0
 41
35.0
 42
35.0
 43
35.0
 50
180.0
  0
INSERT
  5
3FF2
330
3287
100
AcDbEntity
  8
実形
 62
     0
370
    18
100
AcDbBlockReference
  2
_DotSmall
 10
2322.756977120949
 20
1042.418202794422
 30
0.0
 41
35.0
 42
35.0
 43
35.0
  0
POINT
  5
3FF3
330
3287
100
AcDbEntity
  8
Defpoints
 62
     0
100
AcDbPoint
 10
2122.756977120949
 20
1198.992507324763
 30
0.0
  0
POINT
  5
3FF4
330
3287
100
AcDbEntity
  8
Defpoints
 62
     0
100
AcDbPoint
 10
2322.756977120949
 20
1198.992507324763
 30
0.0
  0
POINT
  5
3FF5
330
3287
100
AcDbEntity
  8
Defpoints
 62
     0
100
AcDbPoint
 10
2322.756977120949
 20
1042.418202794422
 30
0.0
  0
ENDBLK
  5
3292
330
3287
100
AcDbEntity
  8
0
 62
     3
100
AcDbBlockEnd
  0
BLOCK
  5
32D8
330
32CE
100
AcDbEntity
  8
0
 62
     3
100
AcDbBlockBegin
  2
*D46
 70
     1
 10
0.0
 20
0.0
 30
0.0
  3
*D46
  1

  0
LINE
  5
3FE7
330
32CE
100
AcDbEntity
  8
実形
 62
     0
370
    18
100
AcDbLine
 10
2122.756977120949
 20
1089.106076856789
 30
0.0
 11
2122.756977120949
 21
1042.418202794422
 31
0.0
  0
LINE
  5
3FE8
330
32CE
100
AcDbEntity
  8
実形
 62
     0
370
    18
100
AcDbLine
 10
2332.756977120949
 20
1089.106076856789
 30
0.0
 11
2332.756977120949
 21
1042.418202794422
 31
0.0
  0
MTEXT
  5
3FE9
330
32CE
100
AcDbEntity
  8
実形
 62
     0
100
AcDbMText
 10
2365.375048854876
 20
1061.168202794422
 30
0.0
 40
25.0
 41
0.0
 71
     5
 72
     1
  1
10
 73
     1
 44
1.0
1001
ACAD
1000
MTEXTBEGIN
1070
    73
1070
     1
1070
    44
1040
1.0
1070
    74
1070
     0
1000
MTEXTEND
  0
POINT
  5
3FEA
330
32CE
100
AcDbEntity
  8
Defpoints
 62
     0
100
AcDbPoint
 10
2122.756977120949
 20
1154.106076856789
 30
0.0
  0
POINT
  5
3FEB
330
32CE
100
AcDbEntity
  8
Defpoints
 62
     0
100
AcDbPoint
 10
2332.756977120949
 20
1154.106076856789
 30
0.0
  0
POINT
  5
3FEC
330
32CE
100
AcDbEntity
  8
Defpoints
 62
     0
100
AcDbPoint
 10
2332.756977120949
 20
1042.418202794422
 30
0.0
  0
ENDBLK
  5
32D9
330
32CE
100
AcDbEntity
  8
0
 62
     3
100
AcDbBlockEnd
  0
BLOCK
  5
334F
330
3345
100
AcDbEntity
  8
0
 62
     3
100
AcDbBlockBegin
  2
*D47
 70
     1
 10
0.0
 20
0.0
 30
0.0
  3
*D47
  1

  0
LINE
  5
3FDE
330
3345
100
AcDbEntity
  8
実形
 62
     0
370
    18
100
AcDbLine
 10
2122.756977120949
 20
1089.106076856789
 30
0.0
 11
2122.756977120949
 21
989.8704398109293
 31
0.0
  0
LINE
  5
3FDF
330
3345
100
AcDbEntity
  8
実形
 62
     0
370
    18
100
AcDbLine
 10
2332.756977120949
 20
1058.476731055189
 30
0.0
 11
2332.756977120949
 21
989.8704398109293
 31
0.0
  0
LINE
  5
3FE0
330
3345
100
AcDbEntity
  8
実形
 62
     0
370
    18
100
AcDbLine
 10
2122.756977120949
 20
989.8704398109293
 30
0.0
 11
2332.756977120949
 21
989.8704398109293
 31
0.0
  0
INSERT
  5
3FE1
330
3345
100
AcDbEntity
  8
実形
 62
     0
370
    18
100
AcDbBlockReference
  2
_DotSmall
 10
2122.756977120949
 20
989.8704398109293
 30
0.0
 41
35.0
 42
35.0
 43
35.0
 50
180.0
  0
INSERT
  5
3FE2
330
3345
100
AcDbEntity
  8
実形
 62
     0
370
    18
100
AcDbBlockReference
  2
_DotSmall
 10
2332.756977120949
 20
989.8704398109293
 30
0.0
 41
35.0
 42
35.0
 43
35.0
  0
MTEXT
  5
3FE3
330
3345
100
AcDbEntity
  8
実形
 62
     0
100
AcDbMText
 10
2227.756977120949
 20
1008.620439810929
 30
0.0
 40
25.0
 41
0.0
 71
     5
 72
     1
  1
210
 73
     1
 44
1.0
1001
ACAD
1000
MTEXTBEGIN
1070
    73
1070
     1
1070
    44
1040
1.0
1070
    74
1070
     0
1000
MTEXTEND
  0
POINT
  5
3FE4
330
3345
100
AcDbEntity
  8
Defpoints
 62
     0
100
AcDbPoint
 10
2122.756977120949
 20
1154.106076856789
 30
0.0
  0
POINT
  5
3FE5
330
3345
100
AcDbEntity
  8
Defpoints
 62
     0
100
AcDbPoint
 10
2332.756977120949
 20
1123.476731055188
 30
0.0
  0
POINT
  5
3FE6
330
3345
100
AcDbEntity
  8
Defpoints
 62
     0
100
AcDbPoint
 10
2332.756977120949
 20
989.8704398109293
 30
0.0
  0
ENDBLK
  5
3350
330
3345
100
AcDbEntity
  8
0
 62
     3
100
AcDbBlockEnd
  0
BLOCK
  5
335C
330
3352
100
AcDbEntity
  8
0
 62
     3
100
AcDbBlockBegin
  2
*D48
 70
     1
 10
0.0
 20
0.0
 30
0.0
  3
*D48
  1

  0
MTEXT
  5
3FDA
330
3352
100
AcDbEntity
  8
実形
 62
     0
100
AcDbMText
 10
2371.837458497568
 20
1008.620439810929
 30
0.0
 40
25.0
 41
0.0
 71
     5
 72
     1
  1
8
 73
     1
 44
1.0
1001
ACAD
1000
MTEXTBEGIN
1070
    73
1070
     1
1070
    44
1040
1.0
1070
    74
1070
     0
1000
MTEXTEND
  0
POINT
  5
3FDB
330
3352
100
AcDbEntity
  8
Defpoints
 62
     0
100
AcDbPoint
 10
2122.756977120949
 20
1154.106076856789
 30
0.0
  0
POINT
  5
3FDC
330
3352
100
AcDbEntity
  8
Defpoints
 62
     0
100
AcDbPoint
 10
2342.756977120949
 20
1142.403242481072
 30
0.0
  0
POINT
  5
3FDD
330
3352
100
AcDbEntity
  8
Defpoints
 62
     0
100
AcDbPoint
 10
2342.756977120949
 20
989.8704398109293
 30
0.0
  0
ENDBLK
  5
335D
330
3352
100
AcDbEntity
  8
0
 62
     3
100
AcDbBlockEnd
  0
BLOCK
  5
33BC
330
33B2
100
AcDbEntity
  8
0
 62
     3
100
AcDbBlockBegin
  2
*D49
 70
     1
 10
0.0
 20
0.0
 30
0.0
  3
*D49
  1

  0
LINE
  5
3FFF
330
33B2
100
AcDbEntity
  8
実形
 62
     0
370
    18
100
AcDbLine
 10
2122.756977120949
 20
1089.106076856789
 30
0.0
 11
2122.756977120949
 21
938.7570792024162
 31
0.0
  0
LINE
  5
4000
330
33B2
100
AcDbEntity
  8
実形
 62
     0
370
    18
100
AcDbLine
 10
2342.756977120949
 20
998.0467789571029
 30
0.0
 11
2342.756977120949
 21
938.7570792024162
 31
0.0
  0
LINE
  5
4001
330
33B2
100
AcDbEntity
  8
実形
 62
     0
370
    18
100
AcDbLine
 10
2122.756977120949
 20
938.7570792024162
 30
0.0
 11
2342.756977120949
 21
938.7570792024162
 31
0.0
  0
INSERT
  5
4002
330
33B2
100
AcDbEntity
  8
実形
 62
     0
370
    18
100
AcDbBlockReference
  2
_DotSmall
 10
2122.756977120949
 20
938.7570792024162
 30
0.0
 41
35.0
 42
35.0
 43
35.0
 50
180.0
  0
INSERT
  5
4003
330
33B2
100
AcDbEntity
  8
実形
 62
     0
370
    18
100
AcDbBlockReference
  2
_DotSmall
 10
2342.756977120949
 20
938.7570792024162
 30
0.0
 41
35.0
 42
35.0
 43
35.0
  0
MTEXT
  5
4004
330
33B2
100
AcDbEntity
  8
実形
 62
     0
100
AcDbMText
 10
2232.756977120949
 20
957.5070792024162
 30
0.0
 40
25.0
 41
0.0
 71
     5
 72
     1
  1
218
 73
     1
 44
1.0
1001
ACAD
1000
MTEXTBEGIN
1070
    73
1070
     1
1070
    44
1040
1.0
1070
    74
1070
     0
1000
MTEXTEND
  0
POINT
  5
4005
330
33B2
100
AcDbEntity
  8
Defpoints
 62
     0
100
AcDbPoint
 10
2122.756977120949
 20
1154.106076856789
 30
0.0
  0
POINT
  5
4006
330
33B2
100
AcDbEntity
  8
Defpoints
 62
     0
100
AcDbPoint
 10
2342.756977120949
 20
1063.046778957103
 30
0.0
  0
POINT
  5
4007
330
33B2
100
AcDbEntity
  8
Defpoints
 62
     0
100
AcDbPoint
 10
2342.756977120949
 20
938.7570792024162
 30
0.0
  0
ENDBLK
  5
33BD
330
33B2
100
AcDbEntity
  8
0
 62
     3
100
AcDbBlockEnd
  0
BLOCK
  5
3457
330
3452
100
AcDbEntity
  8
0
 62
     3
100
AcDbBlockBegin
  2
*D50
 70
     1
 10
0.0
 20
0.0
 30
0.0
  3
*D50
  1

  0
MTEXT
  5
3C7E
330
3452
100
AcDbEntity
  8
実形
 62
     0
100
AcDbMText
 10
636.0159475303589
 20
1109.390767961284
 30
0.0
 40
25.0
 41
0.0
 71
     5
 72
     1
  1
15
 73
     1
 44
1.0
1001
ACAD
1000
MTEXTBEGIN
1070
    73
1070
     1
1070
    44
1040
1.0
1070
    74
1070
     0
1000
MTEXTEND
  0
POINT
  5
3C7F
330
3452
100
AcDbEntity
  8
Defpoints
 62
     0
100
AcDbPoint
 10
600.8444614674117
 20
1198.992507324763
 30
0.0
  0
POINT
  5
3C80
330
3452
100
AcDbEntity
  8
Defpoints
 62
     0
100
AcDbPoint
 10
400.8444614674113
 20
1198.992507324763
 30
0.0
  0
POINT
  5
3C81
330
3452
100
AcDbEntity
  8
Defpoints
 62
     0
100
AcDbPoint
 10
400.8444614674113
 20
1090.640767961284
 30
0.0
  0
ENDBLK
  5
3458
330
3452
100
AcDbEntity
  8
0
 62
     3
100
AcDbBlockEnd
  0
BLOCK
  5
3463
330
3459
100
AcDbEntity
  8
0
 62
     3
100
AcDbBlockBegin
  2
*D51
 70
     1
 10
0.0
 20
0.0
 30
0.0
  3
*D51
  1

  0
LINE
  5
3C8C
330
3459
100
AcDbEntity
  8
実形
 62
     0
370
    18
100
AcDbLine
 10
585.8444614674121
 20
1133.992507324763
 30
0.0
 11
585.8444614674121
 21
1090.640767961284
 31
0.0
  0
LINE
  5
3C8D
330
3459
100
AcDbEntity
  8
実形
 62
     0
370
    18
100
AcDbLine
 10
400.8444614674113
 20
1133.992507324763
 30
0.0
 11
400.8444614674113
 21
1090.640767961284
 31
0.0
  0
LINE
  5
3C8E
330
3459
100
AcDbEntity
  8
実形
 62
     0
370
    18
100
AcDbLine
 10
585.8444614674121
 20
1090.640767961284
 30
0.0
 11
400.8444614674113
 21
1090.640767961284
 31
0.0
  0
INSERT
  5
3C8F
330
3459
100
AcDbEntity
  8
実形
 62
     0
370
    18
100
AcDbBlockReference
  2
_DotSmall
 10
585.8444614674121
 20
1090.640767961284
 30
0.0
 41
35.0
 42
35.0
 43
35.0
  0
INSERT
  5
3C90
330
3459
100
AcDbEntity
  8
実形
 62
     0
370
    18
100
AcDbBlockReference
  2
_DotSmall
 10
400.8444614674113
 20
1090.640767961284
 30
0.0
 41
35.0
 42
35.0
 43
35.0
 50
180.0
  0
MTEXT
  5
3C91
330
3459
100
AcDbEntity
  8
実形
 62
     0
100
AcDbMText
 10
493.3444614674117
 20
1109.390767961284
 30
0.0
 40
25.0
 41
0.0
 71
     5
 72
     1
  1
187
 73
     1
 44
1.0
1001
ACAD
1000
MTEXTBEGIN
1070
    73
1070
     1
1070
    44
1040
1.0
1070
    74
1070
     0
1000
MTEXTEND
  0
POINT
  5
3C92
330
3459
100
AcDbEntity
  8
Defpoints
 62
     0
100
AcDbPoint
 10
585.8444614674121
 20
1198.992507324763
 30
0.0
  0
POINT
  5
3C93
330
3459
100
AcDbEntity
  8
Defpoints
 62
     0
100
AcDbPoint
 10
400.8444614674113
 20
1198.992507324763
 30
0.0
  0
POINT
  5
3C94
330
3459
100
AcDbEntity
  8
Defpoints
 62
     0
100
AcDbPoint
 10
400.8444614674113
 20
1090.640767961284
 30
0.0
  0
ENDBLK
  5
3464
330
3459
100
AcDbEntity
  8
0
 62
     3
100
AcDbBlockEnd
  0
BLOCK
  5
346F
330
3465
100
AcDbEntity
  8
0
 62
     3
100
AcDbBlockBegin
  2
*D52
 70
     1
 10
0.0
 20
0.0
 30
0.0
  3
*D52
  1

  0
LINE
  5
3C95
330
3465
100
AcDbEntity
  8
実形
 62
     0
370
    18
100
AcDbLine
 10
600.8444614674117
 20
1133.992507324763
 30
0.0
 11
600.8444614674117
 21
1042.418202794422
 31
0.0
  0
LINE
  5
3C96
330
3465
100
AcDbEntity
  8
実形
 62
     0
370
    18
100
AcDbLine
 10
400.8444614674113
 20
1133.992507324763
 30
0.0
 11
400.8444614674113
 21
1042.418202794422
 31
0.0
  0
LINE
  5
3C97
330
3465
100
AcDbEntity
  8
実形
 62
     0
370
    18
100
AcDbLine
 10
600.8444614674117
 20
1042.418202794422
 30
0.0
 11
400.8444614674113
 21
1042.418202794422
 31
0.0
  0
MTEXT
  5
3C98
330
3465
100
AcDbEntity
  8
実形
 62
     0
100
AcDbMText
 10
488.700183725643
 20
1061.168202794422
 30
0.0
 40
25.0
 41
0.0
 71
     5
 72
     1
  1
202
 73
     1
 44
1.0
1001
ACAD
1000
MTEXTBEGIN
1070
    73
1070
     1
1070
    44
1040
1.0
1070
    74
1070
     0
1000
MTEXTEND
  0
INSERT
  5
3C99
330
3465
100
AcDbEntity
  8
実形
 62
     0
370
    18
100
AcDbBlockReference
  2
_DotSmall
 10
600.8444614674117
 20
1042.418202794422
 30
0.0
 41
35.0
 42
35.0
 43
35.0
  0
INSERT
  5
3C9A
330
3465
100
AcDbEntity
  8
実形
 62
     0
370
    18
100
AcDbBlockReference
  2
_DotSmall
 10
400.8444614674113
 20
1042.418202794422
 30
0.0
 41
35.0
 42
35.0
 43
35.0
 50
180.0
  0
POINT
  5
3C9B
330
3465
100
AcDbEntity
  8
Defpoints
 62
     0
100
AcDbPoint
 10
600.8444614674117
 20
1198.992507324763
 30
0.0
  0
POINT
  5
3C9C
330
3465
100
AcDbEntity
  8
Defpoints
 62
     0
100
AcDbPoint
 10
400.8444614674113
 20
1198.992507324763
 30
0.0
  0
POINT
  5
3C9D
330
3465
100
AcDbEntity
  8
Defpoints
 62
     0
100
AcDbPoint
 10
400.8444614674113
 20
1042.418202794422
 30
0.0
  0
ENDBLK
  5
3470
330
3465
100
AcDbEntity
  8
0
 62
     3
100
AcDbBlockEnd
  0
BLOCK
  5
3478
330
3471
100
AcDbEntity
  8
0
 62
     3
100
AcDbBlockBegin
  2
*D53
 70
     1
 10
0.0
 20
0.0
 30
0.0
  3
*D53
  1

  0
LINE
  5
3C59
330
3471
100
AcDbEntity
  8
実形
 62
     0
370
    18
100
AcDbLine
 10
600.8444614674117
 20
1089.106076856789
 30
0.0
 11
600.8444614674117
 21
1042.418202794422
 31
0.0
  0
LINE
  5
3C5A
330
3471
100
AcDbEntity
  8
実形
 62
     0
370
    18
100
AcDbLine
 10
390.8444614674118
 20
1089.106076856789
 30
0.0
 11
390.8444614674118
 21
1042.418202794422
 31
0.0
  0
MTEXT
  5
3C5B
330
3471
100
AcDbEntity
  8
実形
 62
     0
100
AcDbMText
 10
358.2263897334851
 20
1061.168202794422
 30
0.0
 40
25.0
 41
0.0
 71
     5
 72
     1
  1
8
 73
     1
 44
1.0
1001
ACAD
1000
MTEXTBEGIN
1070
    73
1070
     1
1070
    44
1040
1.0
1070
    74
1070
     0
1000
MTEXTEND
  0
POINT
  5
3C5C
330
3471
100
AcDbEntity
  8
Defpoints
 62
     0
100
AcDbPoint
 10
600.8444614674117
 20
1154.106076856789
 30
0.0
  0
POINT
  5
3C5D
330
3471
100
AcDbEntity
  8
Defpoints
 62
     0
100
AcDbPoint
 10
390.8444614674118
 20
1154.106076856789
 30
0.0
  0
POINT
  5
3C5E
330
3471
100
AcDbEntity
  8
Defpoints
 62
     0
100
AcDbPoint
 10
390.8444614674118
 20
1042.418202794422
 30
0.0
  0
ENDBLK
  5
3479
330
3471
100
AcDbEntity
  8
0
 62
     3
100
AcDbBlockEnd
  0
BLOCK
  5
3484
330
347A
100
AcDbEntity
  8
0
 62
     3
100
AcDbBlockBegin
  2
*D54
 70
     1
 10
0.0
 20
0.0
 30
0.0
  3
*D54
  1

  0
LINE
  5
3C9E
330
347A
100
AcDbEntity
  8
実形
 62
     0
370
    18
100
AcDbLine
 10
600.8444614674117
 20
1089.106076856789
 30
0.0
 11
600.8444614674117
 21
989.8704398109293
 31
0.0
  0
LINE
  5
3C9F
330
347A
100
AcDbEntity
  8
実形
 62
     0
370
    18
100
AcDbLine
 10
390.8444614674118
 20
1058.476731055189
 30
0.0
 11
390.8444614674118
 21
989.8704398109293
 31
0.0
  0
LINE
  5
3CA0
330
347A
100
AcDbEntity
  8
実形
 62
     0
370
    18
100
AcDbLine
 10
600.8444614674117
 20
989.8704398109293
 30
0.0
 11
390.8444614674118
 21
989.8704398109293
 31
0.0
  0
INSERT
  5
3CA1
330
347A
100
AcDbEntity
  8
実形
 62
     0
370
    18
100
AcDbBlockReference
  2
_DotSmall
 10
600.8444614674117
 20
989.8704398109293
 30
0.0
 41
35.0
 42
35.0
 43
35.0
  0
INSERT
  5
3CA2
330
347A
100
AcDbEntity
  8
実形
 62
     0
370
    18
100
AcDbBlockReference
  2
_DotSmall
 10
390.8444614674118
 20
989.8704398109293
 30
0.0
 41
35.0
 42
35.0
 43
35.0
 50
180.0
  0
MTEXT
  5
3CA3
330
347A
100
AcDbEntity
  8
実形
 62
     0
100
AcDbMText
 10
495.8444614674117
 20
1008.620439810929
 30
0.0
 40
25.0
 41
0.0
 71
     5
 72
     1
  1
210
 73
     1
 44
1.0
1001
ACAD
1000
MTEXTBEGIN
1070
    73
1070
     1
1070
    44
1040
1.0
1070
    74
1070
     0
1000
MTEXTEND
  0
POINT
  5
3CA4
330
347A
100
AcDbEntity
  8
Defpoints
 62
     0
100
AcDbPoint
 10
600.8444614674117
 20
1154.106076856789
 30
0.0
  0
POINT
  5
3CA5
330
347A
100
AcDbEntity
  8
Defpoints
 62
     0
100
AcDbPoint
 10
390.8444614674118
 20
1123.476731055188
 30
0.0
  0
POINT
  5
3CA6
330
347A
100
AcDbEntity
  8
Defpoints
 62
     0
100
AcDbPoint
 10
390.8444614674118
 20
989.8704398109293
 30
0.0
  0
ENDBLK
  5
3485
330
347A
100
AcDbEntity
  8
0
 62
     3
100
AcDbBlockEnd
  0
BLOCK
  5
348B
330
3486
100
AcDbEntity
  8
0
 62
     3
100
AcDbBlockBegin
  2
*D55
 70
     1
 10
0.0
 20
0.0
 30
0.0
  3
*D55
  1

  0
MTEXT
  5
3C5F
330
3486
100
AcDbEntity
  8
実形
 62
     0
100
AcDbMText
 10
351.7639800907927
 20
1008.620439810929
 30
0.0
 40
25.0
 41
0.0
 71
     5
 72
     1
  1
8
 73
     1
 44
1.0
1001
ACAD
1000
MTEXTBEGIN
1070
    73
1070
     1
1070
    44
1040
1.0
1070
    74
1070
     0
1000
MTEXTEND
  0
POINT
  5
3C60
330
3486
100
AcDbEntity
  8
Defpoints
 62
     0
100
AcDbPoint
 10
600.8444614674117
 20
1154.106076856789
 30
0.0
  0
POINT
  5
3C61
330
3486
100
AcDbEntity
  8
Defpoints
 62
     0
100
AcDbPoint
 10
380.8444614674122
 20
1142.403242481072
 30
0.0
  0
POINT
  5
3C62
330
3486
100
AcDbEntity
  8
Defpoints
 62
     0
100
AcDbPoint
 10
380.8444614674122
 20
989.8704398109293
 30
0.0
  0
ENDBLK
  5
348C
330
3486
100
AcDbEntity
  8
0
 62
     3
100
AcDbBlockEnd
  0
BLOCK
  5
3497
330
348D
100
AcDbEntity
  8
0
 62
     3
100
AcDbBlockBegin
  2
*D56
 70
     1
 10
0.0
 20
0.0
 30
0.0
  3
*D56
  1

  0
LINE
  5
3CA7
330
348D
100
AcDbEntity
  8
実形
 62
     0
370
    18
100
AcDbLine
 10
600.8444614674117
 20
1089.106076856789
 30
0.0
 11
600.8444614674117
 21
938.7570792024162
 31
0.0
  0
LINE
  5
3CA8
330
348D
100
AcDbEntity
  8
実形
 62
     0
370
    18
100
AcDbLine
 10
380.8444614674122
 20
998.0467789571029
 30
0.0
 11
380.8444614674122
 21
938.7570792024162
 31
0.0
  0
LINE
  5
3CA9
330
348D
100
AcDbEntity
  8
実形
 62
     0
370
    18
100
AcDbLine
 10
600.8444614674117
 20
938.7570792024162
 30
0.0
 11
380.8444614674122
 21
938.7570792024162
 31
0.0
  0
INSERT
  5
3CAA
330
348D
100
AcDbEntity
  8
実形
 62
     0
370
    18
100
AcDbBlockReference
  2
_DotSmall
 10
600.8444614674117
 20
938.7570792024162
 30
0.0
 41
35.0
 42
35.0
 43
35.0
  0
INSERT
  5
3CAB
330
348D
100
AcDbEntity
  8
実形
 62
     0
370
    18
100
AcDbBlockReference
  2
_DotSmall
 10
380.8444614674122
 20
938.7570792024162
 30
0.0
 41
35.0
 42
35.0
 43
35.0
 50
180.0
  0
MTEXT
  5
3CAC
330
348D
100
AcDbEntity
  8
実形
 62
     0
100
AcDbMText
 10
490.8444614674119
 20
957.5070792024162
 30
0.0
 40
25.0
 41
0.0
 71
     5
 72
     1
  1
218
 73
     1
 44
1.0
1001
ACAD
1000
MTEXTBEGIN
1070
    73
1070
     1
1070
    44
1040
1.0
1070
    74
1070
     0
1000
MTEXTEND
  0
POINT
  5
3CAD
330
348D
100
AcDbEntity
  8
Defpoints
 62
     0
100
AcDbPoint
 10
600.8444614674117
 20
1154.106076856789
 30
0.0
  0
POINT
  5
3CAE
330
348D
100
AcDbEntity
  8
Defpoints
 62
     0
100
AcDbPoint
 10
380.8444614674122
 20
1063.046778957103
 30
0.0
  0
POINT
  5
3CAF
330
348D
100
AcDbEntity
  8
Defpoints
 62
     0
100
AcDbPoint
 10
380.8444614674122
 20
938.7570792024162
 30
0.0
  0
ENDBLK
  5
3498
330
348D
100
AcDbEntity
  8
0
 62
     3
100
AcDbBlockEnd
  0
BLOCK
  5
349E
330
3499
100
AcDbEntity
  8
0
 62
     3
100
AcDbBlockBegin
  2
*D57
 70
     1
 10
0.0
 20
0.0
 30
0.0
  3
*D57
  1

  0
MTEXT
  5
368B
330
3499
100
AcDbEntity
  8
実形
 62
     0
100
AcDbMText
 10
559.8583810765157
 20
1572.50817979203
 30
0.0
 40
25.0
 41
0.0
 71
     5
 72
     1
  1
40
 73
     1
 44
1.0
1001
ACAD
1000
MTEXTBEGIN
1070
    73
1070
     1
1070
    44
1040
1.0
1070
    74
1070
     0
1000
MTEXTEND
  0
POINT
  5
368C
330
3499
100
AcDbEntity
  8
Defpoints
 62
     0
100
AcDbPoint
 10
585.8444614674117
 20
1470.358071531854
 30
0.0
  0
POINT
  5
368D
330
3499
100
AcDbEntity
  8
Defpoints
 62
     0
100
AcDbPoint
 10
545.8444614674122
 20
1470.358071531854
 30
0.0
  0
POINT
  5
368E
330
3499
100
AcDbEntity
  8
Defpoints
 62
     0
100
AcDbPoint
 10
545.8444614674122
 20
1550.569449279112
 30
0.0
  0
ENDBLK
  5
349F
330
3499
100
AcDbEntity
  8
0
 62
     3
100
AcDbBlockEnd
  0
BLOCK
  5
34AA
330
34A0
100
AcDbEntity
  8
0
 62
     3
100
AcDbBlockBegin
  2
*D58
 70
     1
 10
0.0
 20
0.0
 30
0.0
  3
*D58
  1

  0
LINE
  5
3682
330
34A0
100
AcDbEntity
  8
実形
 62
     0
370
    18
100
AcDbLine
 10
522.453781025717
 20
1497.517091367211
 30
0.0
 11
493.6800688638978
 21
1497.517091367211
 31
0.0
  0
LINE
  5
3683
330
34A0
100
AcDbEntity
  8
実形
 62
     0
370
    18
100
AcDbLine
 10
522.453781025717
 20
1317.517091367211
 30
0.0
 11
493.6800688638977
 21
1317.517091367211
 31
0.0
  0
LINE
  5
3684
330
34A0
100
AcDbEntity
  8
実形
 62
     0
370
    18
100
AcDbLine
 10
493.6800688638978
 20
1497.517091367211
 30
0.0
 11
493.6800688638977
 21
1317.517091367211
 31
0.0
  0
INSERT
  5
3685
330
34A0
100
AcDbEntity
  8
実形
 62
     0
370
    18
100
AcDbBlockReference
  2
_DotSmall
 10
493.6800688638978
 20
1497.517091367211
 30
0.0
 41
35.0
 42
35.0
 43
35.0
 50
90.0
  0
INSERT
  5
3686
330
34A0
100
AcDbEntity
  8
実形
 62
     0
370
    18
100
AcDbBlockReference
  2
_DotSmall
 10
493.6800688638977
 20
1317.517091367211
 30
0.0
 41
35.0
 42
35.0
 43
35.0
 50
270.0
  0
MTEXT
  5
3687
330
34A0
100
AcDbEntity
  8
実形
 62
     0
100
AcDbMText
 10
474.9300688638975
 20
1407.517091367211
 30
0.0
 40
25.0
 41
0.0
 71
     5
 72
     1
  1
180
 11
0.0000000000000001
 21
1.0
 31
0.0
 73
     1
 44
1.0
1001
ACAD
1000
MTEXTBEGIN
1070
    73
1070
     1
1070
    44
1040
1.0
1070
    74
1070
     0
1000
MTEXTEND
  0
POINT
  5
3688
330
34A0
100
AcDbEntity
  8
Defpoints
 62
     0
100
AcDbPoint
 10
587.453781025717
 20
1497.517091367211
 30
0.0
  0
POINT
  5
3689
330
34A0
100
AcDbEntity
  8
Defpoints
 62
     0
100
AcDbPoint
 10
587.453781025717
 20
1317.517091367211
 30
0.0
  0
POINT
  5
368A
330
34A0
100
AcDbEntity
  8
Defpoints
 62
     0
100
AcDbPoint
 10
493.6800688638977
 20
1317.517091367211
 30
0.0
  0
ENDBLK
  5
34AB
330
34A0
100
AcDbEntity
  8
0
 62
     3
100
AcDbBlockEnd
  0
BLOCK
  5
34B3
330
34AC
100
AcDbEntity
  8
0
 62
     3
100
AcDbBlockBegin
  2
*D59
 70
     1
 10
0.0
 20
0.0
 30
0.0
  3
*D59
  1

  0
LINE
  5
367C
330
34AC
100
AcDbEntity
  8
実形
 62
     0
370
    18
100
AcDbLine
 10
523.6297096633243
 20
1517.51709136721
 30
0.0
 11
493.6800688638978
 21
1517.517091367211
 31
0.0
  0
LINE
  5
367D
330
34AC
100
AcDbEntity
  8
実形
 62
     0
370
    18
100
AcDbLine
 10
493.4427375426966
 20
1317.517091367211
 30
0.0
 11
493.6800688638977
 21
1317.517091367211
 31
0.0
  0
MTEXT
  5
367E
330
34AC
100
AcDbEntity
  8
実形
 62
     0
100
AcDbMText
 10
512.4300688638982
 20
1552.35624539669
 30
0.0
 40
25.0
 41
0.0
 71
     5
 72
     1
  1
20
 11
0.0000000000000001
 21
1.0
 31
0.0
 73
     1
 44
1.0
1001
ACAD
1000
MTEXTBEGIN
1070
    73
1070
     1
1070
    44
1040
1.0
1070
    74
1070
     0
1000
MTEXTEND
  0
POINT
  5
367F
330
34AC
100
AcDbEntity
  8
Defpoints
 62
     0
100
AcDbPoint
 10
588.6297096633243
 20
1517.51709136721
 30
0.0
  0
POINT
  5
3680
330
34AC
100
AcDbEntity
  8
Defpoints
 62
     0
100
AcDbPoint
 10
558.4427375426967
 20
1317.517091367211
 30
0.0
  0
POINT
  5
3681
330
34AC
100
AcDbEntity
  8
Defpoints
 62
     0
100
AcDbPoint
 10
493.6800688638977
 20
1317.517091367211
 30
0.0
  0
ENDBLK
  5
34B4
330
34AC
100
AcDbEntity
  8
0
 62
     3
100
AcDbBlockEnd
  0
BLOCK
  5
34BC
330
34B5
100
AcDbEntity
  8
0
 62
     3
100
AcDbBlockBegin
  2
*D60
 70
     1
 10
0.0
 20
0.0
 30
0.0
  3
*D60
  1

  0
LINE
  5
3676
330
34B5
100
AcDbEntity
  8
実形
 62
     0
370
    18
100
AcDbLine
 10
500.7212009420291
 20
1517.517091367211
 30
0.0
 11
493.4427375426968
 21
1517.517091367211
 31
0.0
  0
LINE
  5
3677
330
34B5
100
AcDbEntity
  8
実形
 62
     0
370
    18
100
AcDbLine
 10
520.8444614674117
 20
1297.517091367211
 30
0.0
 11
493.4427375426967
 21
1297.517091367211
 31
0.0
  0
MTEXT
  5
3678
330
34B5
100
AcDbEntity
  8
実形
 62
     0
100
AcDbMText
 10
512.1927375426971
 20
1266.774010556846
 30
0.0
 40
25.0
 41
0.0
 71
     5
 72
     1
  1
20
 11
0.0000000000000001
 21
1.0
 31
0.0
 73
     1
 44
1.0
1001
ACAD
1000
MTEXTBEGIN
1070
    73
1070
     1
1070
    44
1040
1.0
1070
    74
1070
     0
1000
MTEXTEND
  0
POINT
  5
3679
330
34B5
100
AcDbEntity
  8
Defpoints
 62
     0
100
AcDbPoint
 10
565.721200942029
 20
1517.517091367211
 30
0.0
  0
POINT
  5
367A
330
34B5
100
AcDbEntity
  8
Defpoints
 62
     0
100
AcDbPoint
 10
585.8444614674117
 20
1297.517091367211
 30
0.0
  0
POINT
  5
367B
330
34B5
100
AcDbEntity
  8
Defpoints
 62
     0
100
AcDbPoint
 10
493.4427375426967
 20
1297.517091367211
 30
0.0
  0
ENDBLK
  5
34BD
330
34B5
100
AcDbEntity
  8
0
 62
     3
100
AcDbBlockEnd
  0
BLOCK
  5
37D9
330
37CF
100
AcDbEntity
  8
0
 62
     3
100
AcDbBlockBegin
  2
*D61
 70
     1
 10
0.0
 20
0.0
 30
0.0
  3
*D61
  1

  0
LINE
  5
3FC8
330
37CF
100
AcDbEntity
  8
実形
 62
     0
370
    18
100
AcDbLine
 10
2407.756977120949
 20
1352.517091367211
 30
0.0
 11
2459.673575656807
 21
1352.517091367211
 31
0.0
  0
LINE
  5
3FC9
330
37CF
100
AcDbEntity
  8
実形
 62
     0
370
    18
100
AcDbLine
 10
2407.756977120949
 20
1512.517091367211
 30
0.0
 11
2459.673575656807
 21
1512.517091367211
 31
0.0
  0
LINE
  5
3FCA
330
37CF
100
AcDbEntity
  8
実形
 62
     0
370
    18
100
AcDbLine
 10
2459.673575656807
 20
1362.517091367211
 30
0.0
 11
2459.673575656807
 21
1502.517091367211
 31
0.0
  0
INSERT
  5
3FCB
330
37CF
100
AcDbEntity
  8
実形
 62
     0
370
    18
100
AcDbBlockReference
  2
_Dot
 10
2459.673575656807
 20
1352.517091367211
 30
0.0
 41
10.0
 42
10.0
 43
10.0
 50
270.0
  0
INSERT
  5
3FCC
330
37CF
100
AcDbEntity
  8
実形
 62
     0
370
    18
100
AcDbBlockReference
  2
_Dot
 10
2459.673575656807
 20
1512.517091367211
 30
0.0
 41
10.0
 42
10.0
 43
10.0
 50
90.0
  0
MTEXT
  5
3FCD
330
37CF
100
AcDbEntity
  8
実形
 62
     0
100
AcDbMText
 10
2440.573575656807
 20
1432.517091367211
 30
0.0
 40
25.0
 41
0.0
 71
     5
 72
     1
  1
160
 11
0.0000000000000001
 21
1.0
 31
0.0
 73
     1
 44
1.0
1001
ACAD
1000
MTEXTBEGIN
1070
    73
1070
     1
1070
    44
1040
1.0
1070
    74
1070
     0
1000
MTEXTEND
  0
POINT
  5
3FCE
330
37CF
100
AcDbEntity
  8
Defpoints
 62
     0
100
AcDbPoint
 10
2342.756977120949
 20
1352.517091367211
 30
0.0
  0
POINT
  5
3FCF
330
37CF
100
AcDbEntity
  8
Defpoints
 62
     0
100
AcDbPoint
 10
2342.756977120949
 20
1512.517091367211
 30
0.0
  0
POINT
  5
3FD0
330
37CF
100
AcDbEntity
  8
Defpoints
 62
     0
100
AcDbPoint
 10
2459.673575656807
 20
1512.517091367211
 30
0.0
  0
ENDBLK
  5
37DA
330
37CF
100
AcDbEntity
  8
0
 62
     3
100
AcDbBlockEnd
  0
BLOCK
  5
37E5
330
37DB
100
AcDbEntity
  8
0
 62
     3
100
AcDbBlockBegin
  2
*D62
 70
     1
 10
0.0
 20
0.0
 30
0.0
  3
*D62
  1

  0
LINE
  5
3FBF
330
37DB
100
AcDbEntity
  8
実形
 62
     0
370
    18
100
AcDbLine
 10
2407.756977120949
 20
1342.017091367211
 30
0.0
 11
2530.915872472084
 21
1342.017091367211
 31
0.0
  0
LINE
  5
3FC0
330
37DB
100
AcDbEntity
  8
実形
 62
     0
370
    18
100
AcDbLine
 10
2407.756977120954
 20
1523.017091367211
 30
0.0
 11
2530.915872472084
 21
1523.017091367211
 31
0.0
  0
LINE
  5
3FC1
330
37DB
100
AcDbEntity
  8
実形
 62
     0
370
    18
100
AcDbLine
 10
2530.915872472084
 20
1352.017091367211
 30
0.0
 11
2530.915872472084
 21
1513.017091367211
 31
0.0
  0
INSERT
  5
3FC2
330
37DB
100
AcDbEntity
  8
実形
 62
     0
370
    18
100
AcDbBlockReference
  2
_Dot
 10
2530.915872472084
 20
1342.017091367211
 30
0.0
 41
10.0
 42
10.0
 43
10.0
 50
270.0
  0
INSERT
  5
3FC3
330
37DB
100
AcDbEntity
  8
実形
 62
     0
370
    18
100
AcDbBlockReference
  2
_Dot
 10
2530.915872472084
 20
1523.017091367211
 30
0.0
 41
10.0
 42
10.0
 43
10.0
 50
90.0
  0
MTEXT
  5
3FC4
330
37DB
100
AcDbEntity
  8
実形
 62
     0
100
AcDbMText
 10
2511.815872472084
 20
1432.517091367211
 30
0.0
 40
25.0
 41
0.0
 71
     5
 72
     1
  1
181
 11
0.0000000000000001
 21
1.0
 31
0.0
 73
     1
 44
1.0
1001
ACAD
1000
MTEXTBEGIN
1070
    73
1070
     1
1070
    44
1040
1.0
1070
    74
1070
     0
1000
MTEXTEND
  0
POINT
  5
3FC5
330
37DB
100
AcDbEntity
  8
Defpoints
 62
     0
100
AcDbPoint
 10
2342.756977120949
 20
1342.017091367211
 30
0.0
  0
POINT
  5
3FC6
330
37DB
100
AcDbEntity
  8
Defpoints
 62
     0
100
AcDbPoint
 10
2342.756977120954
 20
1523.017091367211
 30
0.0
  0
POINT
  5
3FC7
330
37DB
100
AcDbEntity
  8
Defpoints
 62
     0
100
AcDbPoint
 10
2530.915872472084
 20
1523.017091367211
 30
0.0
  0
ENDBLK
  5
37E6
330
37DB
100
AcDbEntity
  8
0
 62
     3
100
AcDbBlockEnd
  0
BLOCK
  5
3825
330
381B
100
AcDbEntity
  8
0
 62
     3
100
AcDbBlockBegin
  2
*D63
 70
     1
 10
0.0
 20
0.0
 30
0.0
  3
*D63
  1

  0
LINE
  5
47DE
330
381B
100
AcDbEntity
  8
実形
 62
     0
370
    18
100
AcDbLine
 10
347.6383949384252
 20
1534.517091367211
 30
0.0
 11
304.6383949384252
 21
1534.517091367211
 31
0.0
  0
LINE
  5
47DF
330
381B
100
AcDbEntity
  8
実形
 62
     0
370
    18
100
AcDbLine
 10
347.6383949384247
 20
1440.517091367211
 30
0.0
 11
304.6383949384252
 21
1440.517091367211
 31
0.0
  0
LINE
  5
47E0
330
381B
100
AcDbEntity
  8
実形
 62
     0
370
    18
100
AcDbLine
 10
304.6383949384252
 20
1524.517091367211
 30
0.0
 11
304.6383949384252
 21
1450.517091367211
 31
0.0
  0
INSERT
  5
47E1
330
381B
100
AcDbEntity
  8
実形
 62
     0
370
    18
100
AcDbBlockReference
  2
_Dot
 10
304.6383949384252
 20
1534.517091367211
 30
0.0
 41
10.0
 42
10.0
 43
10.0
 50
90.0
  0
INSERT
  5
47E2
330
381B
100
AcDbEntity
  8
実形
 62
     0
370
    18
100
AcDbBlockReference
  2
_Dot
 10
304.6383949384252
 20
1440.517091367211
 30
0.0
 41
10.0
 42
10.0
 43
10.0
 50
270.0
  0
MTEXT
  5
47E3
330
381B
100
AcDbEntity
  8
実形
 62
     0
100
AcDbMText
 10
283.0383949384249
 20
1487.517091367211
 30
0.0
 40
30.0
 41
0.0
 71
     5
 72
     1
  1
94
 11
0.0000000000000001
 21
1.0
 31
0.0
 73
     1
 44
1.0
1001
ACAD
1000
MTEXTBEGIN
1070
    73
1070
     1
1070
    44
1040
1.0
1070
    74
1070
     0
1000
MTEXTEND
  0
POINT
  5
47E4
330
381B
100
AcDbEntity
  8
Defpoints
 62
     0
100
AcDbPoint
 10
412.6383949384251
 20
1534.517091367211
 30
0.0
  0
POINT
  5
47E5
330
381B
100
AcDbEntity
  8
Defpoints
 62
     0
100
AcDbPoint
 10
412.6383949384247
 20
1440.517091367211
 30
0.0
  0
POINT
  5
47E6
330
381B
100
AcDbEntity
  8
Defpoints
 62
     0
100
AcDbPoint
 10
304.6383949384252
 20
1440.517091367211
 30
0.0
  0
ENDBLK
  5
3826
330
381B
100
AcDbEntity
  8
0
 62
     3
100
AcDbBlockEnd
  0
BLOCK
  5
3831
330
3827
100
AcDbEntity
  8
0
 62
     3
100
AcDbBlockBegin
  2
*D64
 70
     1
 10
0.0
 20
0.0
 30
0.0
  3
*D64
  1

  0
LINE
  5
47C7
330
3827
100
AcDbEntity
  8
実形
 62
     0
370
    18
100
AcDbLine
 10
348.2482878322444
 20
1545.017091367211
 30
0.0
 11
253.9313240202447
 21
1545.017091367211
 31
0.0
  0
LINE
  5
47C8
330
3827
100
AcDbEntity
  8
実形
 62
     0
370
    18
100
AcDbLine
 10
346.8411087884106
 20
1430.017091367211
 30
0.0
 11
253.9313240202446
 21
1430.017091367211
 31
0.0
  0
LINE
  5
47C9
330
3827
100
AcDbEntity
  8
実形
 62
     0
370
    18
100
AcDbLine
 10
253.9313240202447
 20
1535.017091367211
 30
0.0
 11
253.9313240202446
 21
1440.017091367211
 31
0.0
  0
INSERT
  5
47CA
330
3827
100
AcDbEntity
  8
実形
 62
     0
370
    18
100
AcDbBlockReference
  2
_Dot
 10
253.9313240202447
 20
1545.017091367211
 30
0.0
 41
10.0
 42
10.0
 43
10.0
 50
90.0
  0
INSERT
  5
47CB
330
3827
100
AcDbEntity
  8
実形
 62
     0
370
    18
100
AcDbBlockReference
  2
_Dot
 10
253.9313240202446
 20
1430.017091367211
 30
0.0
 41
10.0
 42
10.0
 43
10.0
 50
270.0
  0
MTEXT
  5
47CC
330
3827
100
AcDbEntity
  8
実形
 62
     0
100
AcDbMText
 10
232.3313240202444
 20
1487.517091367211
 30
0.0
 40
30.0
 41
0.0
 71
     5
 72
     1
  1
115
 11
0.0000000000000001
 21
1.0
 31
0.0
 73
     1
 44
1.0
1001
ACAD
1000
MTEXTBEGIN
1070
    73
1070
     1
1070
    44
1040
1.0
1070
    74
1070
     0
1000
MTEXTEND
  0
POINT
  5
47CD
330
3827
100
AcDbEntity
  8
Defpoints
 62
     0
100
AcDbPoint
 10
413.2482878322443
 20
1545.017091367211
 30
0.0
  0
POINT
  5
47CE
330
3827
100
AcDbEntity
  8
Defpoints
 62
     0
100
AcDbPoint
 10
411.8411087884105
 20
1430.017091367211
 30
0.0
  0
POINT
  5
47CF
330
3827
100
AcDbEntity
  8
Defpoints
 62
     0
100
AcDbPoint
 10
253.9313240202446
 20
1430.017091367211
 30
0.0
  0
ENDBLK
  5
3832
330
3827
100
AcDbEntity
  8
0
 62
     3
100
AcDbBlockEnd
  0
BLOCK
  5
3892
330
388E
100
AcDbEntity
  8
0
 62
     3
100
AcDbBlockBegin
  2
A$C4E395AB2
 70
     0
 10
0.0
 20
0.0
 30
0.0
  3
A$C4E395AB2
  1

  0
TEXT
  5
388F
330
388E
100
AcDbEntity
  8
寸法
 62
     0
100
AcDbText
 10
0.0000147323662536
 20
0.0000153190912897
 30
0.0
 40
60.0
  1
36φ
 11
0.0000147323662532
 21
-7.99998468090871
 31
0.0
100
AcDbText
 73
     1
  0
ENDBLK
  5
3893
330
388E
100
AcDbEntity
  8
0
 62
     3
100
AcDbBlockEnd
  0
BLOCK
  5
3926
330
391E
100
AcDbEntity
  8
0
 62
     3
100
AcDbBlockBegin
  2
*D66
 70
     1
 10
0.0
 20
0.0
 30
0.0
  3
*D66
  1

  0
LINE
  5
3A1F
330
391E
100
AcDbEntity
  8
実形
 62
     0
370
    18
100
AcDbLine
 10
2056.369244851114
 20
1482.517091367211
 30
0.0
 11
2056.369244851114
 21
1517.517091367211
 31
0.0
  0
LINE
  5
3A20
330
391E
100
AcDbEntity
  8
実形
 62
     0
370
    18
100
AcDbLine
 10
2056.369244851114
 20
1517.517091367211
 30
0.0
 11
2056.369244851114
 21
1482.517091367211
 31
0.0
  0
MTEXT
  5
3A21
330
391E
100
AcDbEntity
  8
実形
 62
     0
100
AcDbMText
 10
2037.619244851113
 20
1731.166000608622
 30
0.0
 40
25.0
 41
0.0
 71
     5
 72
     1
  1
20
 11
0.0000000000000001
 21
1.0
 31
0.0
 73
     1
 44
1.0
1001
ACAD
1000
MTEXTBEGIN
1070
    73
1070
     1
1070
    44
1040
1.0
1070
    74
1070
     0
1000
MTEXTEND
  0
INSERT
  5
3A22
330
391E
100
AcDbEntity
  8
実形
 62
     0
370
    18
100
AcDbBlockReference
  2
_DotSmall
 10
2056.369244851114
 20
1517.517091367211
 30
0.0
 41
35.0
 42
35.0
 43
35.0
 50
90.0
  0
POINT
  5
3A23
330
391E
100
AcDbEntity
  8
Defpoints
 62
     0
100
AcDbPoint
 10
2007.687599150988
 20
1682.517091367211
 30
0.0
  0
POINT
  5
3A24
330
391E
100
AcDbEntity
  8
Defpoints
 62
     0
100
AcDbPoint
 10
2007.687599150988
 20
1517.517091367211
 30
0.0
  0
POINT
  5
3A25
330
391E
100
AcDbEntity
  8
Defpoints
 62
     0
100
AcDbPoint
 10
2056.369244851114
 20
1517.517091367211
 30
0.0
  0
ENDBLK
  5
3927
330
391E
100
AcDbEntity
  8
0
 62
     3
100
AcDbBlockEnd
  0
BLOCK
  5
3930
330
3928
100
AcDbEntity
  8
0
 62
     3
100
AcDbBlockBegin
  2
*D67
 70
     1
 10
0.0
 20
0.0
 30
0.0
  3
*D67
  1

  0
LINE
  5
3A18
330
3928
100
AcDbEntity
  8
実形
 62
     0
370
    18
100
AcDbLine
 10
2056.369244851114
 20
1517.517091367211
 30
0.0
 11
2056.369244851114
 21
1682.517091367211
 31
0.0
  0
INSERT
  5
3A19
330
3928
100
AcDbEntity
  8
実形
 62
     0
370
    18
100
AcDbBlockReference
  2
_DotSmall
 10
2056.369244851114
 20
1517.517091367211
 30
0.0
 41
35.0
 42
35.0
 43
35.0
 50
270.0
  0
INSERT
  5
3A1A
330
3928
100
AcDbEntity
  8
実形
 62
     0
370
    18
100
AcDbBlockReference
  2
_DotSmall
 10
2056.369244851114
 20
1682.517091367211
 30
0.0
 41
35.0
 42
35.0
 43
35.0
 50
90.0
  0
MTEXT
  5
3A1B
330
3928
100
AcDbEntity
  8
実形
 62
     0
100
AcDbMText
 10
2037.619244851113
 20
1600.017091367211
 30
0.0
 40
25.0
 41
0.0
 71
     5
 72
     1
  1
145
 11
0.0000000000000001
 21
1.0
 31
0.0
 73
     1
 44
1.0
1001
ACAD
1000
MTEXTBEGIN
1070
    73
1070
     1
1070
    44
1040
1.0
1070
    74
1070
     0
1000
MTEXTEND
  0
POINT
  5
3A1C
330
3928
100
AcDbEntity
  8
Defpoints
 62
     0
100
AcDbPoint
 10
1977.73201359999
 20
1517.517091367211
 30
0.0
  0
POINT
  5
3A1D
330
3928
100
AcDbEntity
  8
Defpoints
 62
     0
100
AcDbPoint
 10
1977.73201359999
 20
1682.517091367211
 30
0.0
  0
POINT
  5
3A1E
330
3928
100
AcDbEntity
  8
Defpoints
 62
     0
100
AcDbPoint
 10
2056.369244851114
 20
1682.517091367211
 30
0.0
  0
ENDBLK
  5
3931
330
3928
100
AcDbEntity
  8
0
 62
     3
100
AcDbBlockEnd
  0
BLOCK
  5
393C
330
3932
100
AcDbEntity
  8
0
 62
     3
100
AcDbBlockBegin
  2
*D68
 70
     1
 10
0.0
 20
0.0
 30
0.0
  3
*D68
  1

  0
LINE
  5
39E9
330
3932
100
AcDbEntity
  8
実形
 62
     0
370
    18
100
AcDbLine
 10
2042.73201359999
 20
1517.517091367211
 30
0.0
 11
2056.369244851114
 21
1517.517091367211
 31
0.0
  0
LINE
  5
39EA
330
3932
100
AcDbEntity
  8
実形
 62
     0
370
    18
100
AcDbLine
 10
2042.73201359999
 20
1297.517091367211
 30
0.0
 11
2056.369244851114
 21
1297.517091367211
 31
0.0
  0
LINE
  5
39EB
330
3932
100
AcDbEntity
  8
実形
 62
     0
370
    18
100
AcDbLine
 10
2056.369244851114
 20
1517.517091367211
 30
0.0
 11
2056.369244851114
 21
1297.517091367211
 31
0.0
  0
INSERT
  5
39EC
330
3932
100
AcDbEntity
  8
実形
 62
     0
370
    18
100
AcDbBlockReference
  2
_DotSmall
 10
2056.369244851114
 20
1517.517091367211
 30
0.0
 41
35.0
 42
35.0
 43
35.0
 50
90.0
  0
INSERT
  5
39ED
330
3932
100
AcDbEntity
  8
実形
 62
     0
370
    18
100
AcDbBlockReference
  2
_DotSmall
 10
2056.369244851114
 20
1297.517091367211
 30
0.0
 41
35.0
 42
35.0
 43
35.0
 50
270.0
  0
MTEXT
  5
39EE
330
3932
100
AcDbEntity
  8
実形
 62
     0
100
AcDbMText
 10
2037.619244851113
 20
1407.517091367211
 30
0.0
 40
25.0
 41
0.0
 71
     5
 72
     1
  1
220
 11
0.0000000000000001
 21
1.0
 31
0.0
 73
     1
 44
1.0
1001
ACAD
1000
MTEXTBEGIN
1070
    73
1070
     1
1070
    44
1040
1.0
1070
    74
1070
     0
1000
MTEXTEND
  0
POINT
  5
39EF
330
3932
100
AcDbEntity
  8
Defpoints
 62
     0
100
AcDbPoint
 10
1977.73201359999
 20
1517.517091367211
 30
0.0
  0
POINT
  5
39F0
330
3932
100
AcDbEntity
  8
Defpoints
 62
     0
100
AcDbPoint
 10
1977.73201359999
 20
1297.517091367211
 30
0.0
  0
POINT
  5
39F1
330
3932
100
AcDbEntity
  8
Defpoints
 62
     0
100
AcDbPoint
 10
2056.369244851114
 20
1297.517091367211
 30
0.0
  0
ENDBLK
  5
393D
330
3932
100
AcDbEntity
  8
0
 62
     3
100
AcDbBlockEnd
  0
BLOCK
  5
3969
330
395F
100
AcDbEntity
  8
0
 62
     3
100
AcDbBlockBegin
  2
*D69
 70
     1
 10
0.0
 20
0.0
 30
0.0
  3
*D69
  1

  0
MTEXT
  5
4687
330
395F
100
AcDbEntity
  8
実形
 62
     0
100
AcDbMText
 10
2037.619244851113
 20
1147.99925067346
 30
0.0
 40
25.0
 41
0.0
 71
     5
 72
     1
  1
20
 11
0.0000000000000001
 21
1.0
 31
0.0
 73
     1
 44
1.0
1001
ACAD
1000
MTEXTBEGIN
1070
    73
1070
     1
1070
    44
1040
1.0
1070
    74
1070
     0
1000
MTEXTEND
  0
POINT
  5
4688
330
395F
100
AcDbEntity
  8
Defpoints
 62
     0
100
AcDbPoint
 10
1982.10758069899
 20
1297.517091367211
 30
0.0
  0
POINT
  5
4689
330
395F
100
AcDbEntity
  8
Defpoints
 62
     0
100
AcDbPoint
 10
1966.972600192868
 20
1192.517091367211
 30
0.0
  0
POINT
  5
468A
330
395F
100
AcDbEntity
  8
Defpoints
 62
     0
100
AcDbPoint
 10
2056.369244851114
 20
1192.517091367211
 30
0.0
  0
ENDBLK
  5
396A
330
395F
100
AcDbEntity
  8
0
 62
     3
100
AcDbBlockEnd
  0
BLOCK
  5
3988
330
397E
100
AcDbEntity
  8
0
 62
     3
100
AcDbBlockBegin
  2
*D70
 70
     1
 10
0.0
 20
0.0
 30
0.0
  3
*D70
  1

  0
LINE
  5
3A2F
330
397E
100
AcDbEntity
  8
実形
 62
     0
370
    18
100
AcDbLine
 10
2009.845877281215
 20
1172.517091367211
 30
0.0
 11
2056.369244851114
 21
1172.517091367211
 31
0.0
  0
LINE
  5
3A30
330
397E
100
AcDbEntity
  8
実形
 62
     0
370
    18
100
AcDbLine
 10
2046.308363029639
 20
1297.517091367211
 30
0.0
 11
2056.369244851114
 21
1297.517091367211
 31
0.0
  0
LINE
  5
3A31
330
397E
100
AcDbEntity
  8
実形
 62
     0
370
    18
100
AcDbLine
 10
2056.369244851114
 20
1172.517091367211
 30
0.0
 11
2056.369244851114
 21
1297.517091367211
 31
0.0
  0
INSERT
  5
3A32
330
397E
100
AcDbEntity
  8
実形
 62
     0
370
    18
100
AcDbBlockReference
  2
_DotSmall
 10
2056.369244851114
 20
1172.517091367211
 30
0.0
 41
35.0
 42
35.0
 43
35.0
 50
270.0
  0
INSERT
  5
3A33
330
397E
100
AcDbEntity
  8
実形
 62
     0
370
    18
100
AcDbBlockReference
  2
_DotSmall
 10
2056.369244851114
 20
1297.517091367211
 30
0.0
 41
35.0
 42
35.0
 43
35.0
 50
90.0
  0
MTEXT
  5
3A34
330
397E
100
AcDbEntity
  8
実形
 62
     0
100
AcDbMText
 10
2037.619244851113
 20
1235.017091367211
 30
0.0
 40
25.0
 41
0.0
 71
     5
 72
     1
  1
105
 11
0.0000000000000001
 21
1.0
 31
0.0
 73
     1
 44
1.0
1001
ACAD
1000
MTEXTBEGIN
1070
    73
1070
     1
1070
    44
1040
1.0
1070
    74
1070
     0
1000
MTEXTEND
  0
POINT
  5
3A35
330
397E
100
AcDbEntity
  8
Defpoints
 62
     0
100
AcDbPoint
 10
1944.845877281215
 20
1172.517091367211
 30
0.0
  0
POINT
  5
3A36
330
397E
100
AcDbEntity
  8
Defpoints
 62
     0
100
AcDbPoint
 10
1981.308363029638
 20
1297.517091367211
 30
0.0
  0
POINT
  5
3A37
330
397E
100
AcDbEntity
  8
Defpoints
 62
     0
100
AcDbPoint
 10
2056.369244851114
 20
1297.517091367211
 30
0.0
  0
ENDBLK
  5
3989
330
397E
100
AcDbEntity
  8
0
 62
     3
100
AcDbBlockEnd
  0
BLOCK
  5
3A8E
330
3A82
100
AcDbEntity
  8
0
 62
     3
100
AcDbBlockBegin
  2
*D71
 70
     1
 10
0.0
 20
0.0
 30
0.0
  3
*D71
  1

  0
MTEXT
  5
3AC3
330
3A82
100
AcDbEntity
  8
実形
 62
     0
100
AcDbMText
 10
1295.490004243267
 20
772.6320639050855
 30
0.0
 40
25.0
 41
0.0
 71
     5
 72
     1
  1
40
 11
0.0000000000000001
 21
1.0
 31
0.0
 73
     1
 44
1.0
1001
ACAD
1000
MTEXTBEGIN
1070
    73
1070
     1
1070
    44
1040
1.0
1070
    74
1070
     0
1000
MTEXTEND
  0
POINT
  5
3AC4
330
3A82
100
AcDbEntity
  8
Defpoints
 62
     0
100
AcDbPoint
 10
1278.03740313813
 20
846.427037316068
 30
0.0
  0
POINT
  5
3AC5
330
3A82
100
AcDbEntity
  8
Defpoints
 62
     0
100
AcDbPoint
 10
1278.03740313813
 20
806.4270373160679
 30
0.0
  0
POINT
  5
3AC6
330
3A82
100
AcDbEntity
  8
Defpoints
 62
     0
100
AcDbPoint
 10
1308.217557037567
 20
806.4270373160677
 30
0.0
  0
ENDBLK
  5
3A8F
330
3A82
100
AcDbEntity
  8
0
 62
     3
100
AcDbBlockEnd
  0
BLOCK
  5
3E39
330
3E34
100
AcDbEntity
  8
0
 62
     3
100
AcDbBlockBegin
  2
*D72
 70
     1
 10
0.0
 20
0.0
 30
0.0
  3
*D72
  1

  0
MTEXT
  5
3F1D
330
3E34
100
AcDbEntity
  8
実形
 62
     0
100
AcDbMText
 10
811.6824204506466
 20
834.6826299336361
 30
0.0
 40
25.0
 41
0.0
 71
     5
 72
     1
  1
15
 11
0.0000000000000001
 21
1.0
 31
0.0
 73
     1
 44
1.0
1001
ACAD
1000
MTEXTBEGIN
1070
    73
1070
     1
1070
    44
1040
1.0
1070
    74
1070
     0
1000
MTEXTEND
  0
POINT
  5
3F1E
330
3E34
100
AcDbEntity
  8
Defpoints
 62
     0
100
AcDbPoint
 10
941.9193926275875
 20
861.427037316068
 30
0.0
  0
POINT
  5
3F1F
330
3E34
100
AcDbEntity
  8
Defpoints
 62
     0
100
AcDbPoint
 10
941.9193926275875
 20
661.4270373160674
 30
0.0
  0
POINT
  5
3F20
330
3E34
100
AcDbEntity
  8
Defpoints
 62
     0
100
AcDbPoint
 10
833.5676532641082
 20
661.4270373160674
 30
0.0
  0
ENDBLK
  5
3E3A
330
3E34
100
AcDbEntity
  8
0
 62
     3
100
AcDbBlockEnd
  0
BLOCK
  5
3E45
330
3E3B
100
AcDbEntity
  8
0
 62
     3
100
AcDbBlockBegin
  2
*D73
 70
     1
 10
0.0
 20
0.0
 30
0.0
  3
*D73
  1

  0
LINE
  5
3F61
330
3E3B
100
AcDbEntity
  8
実形
 62
     0
370
    18
100
AcDbLine
 10
876.9193926275875
 20
846.4270373160683
 30
0.0
 11
833.5676532641084
 21
846.4270373160683
 31
0.0
  0
LINE
  5
3F62
330
3E3B
100
AcDbEntity
  8
実形
 62
     0
370
    18
100
AcDbLine
 10
876.9193926275873
 20
661.4270373160674
 30
0.0
 11
833.5676532641082
 21
661.4270373160674
 31
0.0
  0
LINE
  5
3F63
330
3E3B
100
AcDbEntity
  8
実形
 62
     0
370
    18
100
AcDbLine
 10
833.5676532641084
 20
846.4270373160683
 30
0.0
 11
833.5676532641082
 21
661.4270373160674
 31
0.0
  0
INSERT
  5
3F64
330
3E3B
100
AcDbEntity
  8
実形
 62
     0
370
    18
100
AcDbBlockReference
  2
_DotSmall
 10
833.5676532641084
 20
846.4270373160683
 30
0.0
 41
35.0
 42
35.0
 43
35.0
 50
90.0
  0
INSERT
  5
3F65
330
3E3B
100
AcDbEntity
  8
実形
 62
     0
370
    18
100
AcDbBlockReference
  2
_DotSmall
 10
833.5676532641082
 20
661.4270373160674
 30
0.0
 41
35.0
 42
35.0
 43
35.0
 50
270.0
  0
MTEXT
  5
3F66
330
3E3B
100
AcDbEntity
  8
実形
 62
     0
100
AcDbMText
 10
814.817653264108
 20
753.9270373160682
 30
0.0
 40
25.0
 41
0.0
 71
     5
 72
     1
  1
187
 11
0.0000000000000001
 21
1.0
 31
0.0
 73
     1
 44
1.0
1001
ACAD
1000
MTEXTBEGIN
1070
    73
1070
     1
1070
    44
1040
1.0
1070
    74
1070
     0
1000
MTEXTEND
  0
POINT
  5
3F67
330
3E3B
100
AcDbEntity
  8
Defpoints
 62
     0
100
AcDbPoint
 10
941.9193926275875
 20
846.4270373160683
 30
0.0
  0
POINT
  5
3F68
330
3E3B
100
AcDbEntity
  8
Defpoints
 62
     0
100
AcDbPoint
 10
941.9193926275873
 20
661.4270373160674
 30
0.0
  0
POINT
  5
3F69
330
3E3B
100
AcDbEntity
  8
Defpoints
 62
     0
100
AcDbPoint
 10
833.5676532641082
 20
661.4270373160674
 30
0.0
  0
ENDBLK
  5
3E46
330
3E3B
100
AcDbEntity
  8
0
 62
     3
100
AcDbBlockEnd
  0
BLOCK
  5
3E51
330
3E47
100
AcDbEntity
  8
0
 62
     3
100
AcDbBlockBegin
  2
*D74
 70
     1
 10
0.0
 20
0.0
 30
0.0
  3
*D74
  1

  0
LINE
  5
3F70
330
3E47
100
AcDbEntity
  8
実形
 62
     0
370
    18
100
AcDbLine
 10
876.9193926275873
 20
861.427037316068
 30
0.0
 11
785.3450880972469
 21
861.427037316068
 31
0.0
  0
LINE
  5
3F71
330
3E47
100
AcDbEntity
  8
実形
 62
     0
370
    18
100
AcDbLine
 10
876.9193926275873
 20
661.4270373160674
 30
0.0
 11
785.3450880972468
 21
661.4270373160674
 31
0.0
  0
LINE
  5
3F72
330
3E47
100
AcDbEntity
  8
実形
 62
     0
370
    18
100
AcDbLine
 10
785.3450880972469
 20
861.427037316068
 30
0.0
 11
785.3450880972468
 21
661.4270373160674
 31
0.0
  0
MTEXT
  5
3F73
330
3E47
100
AcDbEntity
  8
実形
 62
     0
100
AcDbMText
 10
763.4202199377323
 20
749.2827595742992
 30
0.0
 40
25.0
 41
0.0
 71
     5
 72
     1
  1
202
 11
0.0000000000000001
 21
1.0
 31
0.0
 73
     1
 44
1.0
1001
ACAD
1000
MTEXTBEGIN
1070
    73
1070
     1
1070
    44
1040
1.0
1070
    74
1070
     0
1000
MTEXTEND
  0
INSERT
  5
3F74
330
3E47
100
AcDbEntity
  8
実形
 62
     0
370
    18
100
AcDbBlockReference
  2
_DotSmall
 10
785.3450880972469
 20
861.427037316068
 30
0.0
 41
35.0
 42
35.0
 43
35.0
 50
90.0
  0
INSERT
  5
3F75
330
3E47
100
AcDbEntity
  8
実形
 62
     0
370
    18
100
AcDbBlockReference
  2
_DotSmall
 10
785.3450880972468
 20
661.4270373160674
 30
0.0
 41
35.0
 42
35.0
 43
35.0
 50
270.0
  0
POINT
  5
3F76
330
3E47
100
AcDbEntity
  8
Defpoints
 62
     0
100
AcDbPoint
 10
941.9193926275873
 20
861.427037316068
 30
0.0
  0
POINT
  5
3F77
330
3E47
100
AcDbEntity
  8
Defpoints
 62
     0
100
AcDbPoint
 10
941.9193926275873
 20
661.4270373160674
 30
0.0
  0
POINT
  5
3F78
330
3E47
100
AcDbEntity
  8
Defpoints
 62
     0
100
AcDbPoint
 10
785.3450880972468
 20
661.4270373160674
 30
0.0
  0
ENDBLK
  5
3E52
330
3E47
100
AcDbEntity
  8
0
 62
     3
100
AcDbBlockEnd
  0
BLOCK
  5
3E5A
330
3E53
100
AcDbEntity
  8
0
 62
     3
100
AcDbBlockBegin
  2
*D75
 70
     1
 10
0.0
 20
0.0
 30
0.0
  3
*D75
  1

  0
LINE
  5
3F9D
330
3E53
100
AcDbEntity
  8
実形
 62
     0
370
    18
100
AcDbLine
 10
832.0329621596135
 20
861.427037316068
 30
0.0
 11
785.3450880972469
 21
861.427037316068
 31
0.0
  0
LINE
  5
3F9E
330
3E53
100
AcDbEntity
  8
実形
 62
     0
370
    18
100
AcDbLine
 10
824.1850134098603
 20
651.4270373160679
 30
0.0
 11
785.3450880972468
 21
651.4270373160679
 31
0.0
  0
MTEXT
  5
3F9F
330
3E53
100
AcDbEntity
  8
実形
 62
     0
100
AcDbMText
 10
761.4418657316019
 20
663.4605237027226
 30
0.0
 40
25.0
 41
0.0
 71
     5
 72
     1
  1
8
 11
0.0000000000000001
 21
1.0
 31
0.0
 73
     1
 44
1.0
1001
ACAD
1000
MTEXTBEGIN
1070
    73
1070
     1
1070
    44
1040
1.0
1070
    74
1070
     0
1000
MTEXTEND
  0
POINT
  5
3FA0
330
3E53
100
AcDbEntity
  8
Defpoints
 62
     0
100
AcDbPoint
 10
897.0329621596135
 20
861.427037316068
 30
0.0
  0
POINT
  5
3FA1
330
3E53
100
AcDbEntity
  8
Defpoints
 62
     0
100
AcDbPoint
 10
889.1850134098604
 20
651.4270373160679
 30
0.0
  0
POINT
  5
3FA2
330
3E53
100
AcDbEntity
  8
Defpoints
 62
     0
100
AcDbPoint
 10
785.3450880972468
 20
651.4270373160679
 30
0.0
  0
ENDBLK
  5
3E5B
330
3E53
100
AcDbEntity
  8
0
 62
     3
100
AcDbBlockEnd
  0
BLOCK
  5
3E66
330
3E5C
100
AcDbEntity
  8
0
 62
     3
100
AcDbBlockBegin
  2
*D76
 70
     1
 10
0.0
 20
0.0
 30
0.0
  3
*D76
  1

  0
LINE
  5
3F40
330
3E5C
100
AcDbEntity
  8
実形
 62
     0
370
    18
100
AcDbLine
 10
832.0329621596139
 20
861.427037316068
 30
0.0
 11
732.7973251137538
 21
861.427037316068
 31
0.0
  0
LINE
  5
3F41
330
3E5C
100
AcDbEntity
  8
実形
 62
     0
370
    18
100
AcDbLine
 10
801.4036163580131
 20
651.4270373160679
 30
0.0
 11
732.7973251137536
 21
651.4270373160679
 31
0.0
  0
LINE
  5
3F42
330
3E5C
100
AcDbEntity
  8
実形
 62
     0
370
    18
100
AcDbLine
 10
732.7973251137538
 20
861.427037316068
 30
0.0
 11
732.7973251137536
 21
651.4270373160679
 31
0.0
  0
INSERT
  5
3F43
330
3E5C
100
AcDbEntity
  8
実形
 62
     0
370
    18
100
AcDbBlockReference
  2
_DotSmall
 10
732.7973251137538
 20
861.427037316068
 30
0.0
 41
35.0
 42
35.0
 43
35.0
 50
90.0
  0
INSERT
  5
3F44
330
3E5C
100
AcDbEntity
  8
実形
 62
     0
370
    18
100
AcDbBlockReference
  2
_DotSmall
 10
732.7973251137536
 20
651.4270373160679
 30
0.0
 41
35.0
 42
35.0
 43
35.0
 50
270.0
  0
MTEXT
  5
3F45
330
3E5C
100
AcDbEntity
  8
実形
 62
     0
100
AcDbMText
 10
714.0473251137535
 20
756.4270373160682
 30
0.0
 40
25.0
 41
0.0
 71
     5
 72
     1
  1
210
 11
0.0000000000000001
 21
1.0
 31
0.0
 73
     1
 44
1.0
1001
ACAD
1000
MTEXTBEGIN
1070
    73
1070
     1
1070
    44
1040
1.0
1070
    74
1070
     0
1000
MTEXTEND
  0
POINT
  5
3F46
330
3E5C
100
AcDbEntity
  8
Defpoints
 62
     0
100
AcDbPoint
 10
897.0329621596137
 20
861.427037316068
 30
0.0
  0
POINT
  5
3F47
330
3E5C
100
AcDbEntity
  8
Defpoints
 62
     0
100
AcDbPoint
 10
866.4036163580131
 20
651.4270373160679
 30
0.0
  0
POINT
  5
3F48
330
3E5C
100
AcDbEntity
  8
Defpoints
 62
     0
100
AcDbPoint
 10
732.7973251137536
 20
651.4270373160679
 30
0.0
  0
ENDBLK
  5
3E67
330
3E5C
100
AcDbEntity
  8
0
 62
     3
100
AcDbBlockEnd
  0
BLOCK
  5
3E6D
330
3E68
100
AcDbEntity
  8
0
 62
     3
100
AcDbBlockBegin
  2
*D77
 70
     1
 10
0.0
 20
0.0
 30
0.0
  3
*D77
  1

  0
MTEXT
  5
3FA3
330
3E68
100
AcDbEntity
  8
実形
 62
     0
100
AcDbMText
 10
710.746272257471
 20
653.0258506719292
 30
0.0
 40
25.0
 41
0.0
 71
     5
 72
     1
  1
8
 11
0.0000000000000001
 21
1.0
 31
0.0
 73
     1
 44
1.0
1001
ACAD
1000
MTEXTBEGIN
1070
    73
1070
     1
1070
    44
1040
1.0
1070
    74
1070
     0
1000
MTEXTEND
  0
POINT
  5
3FA4
330
3E68
100
AcDbEntity
  8
Defpoints
 62
     0
100
AcDbPoint
 10
897.0329621596137
 20
861.427037316068
 30
0.0
  0
POINT
  5
3FA5
330
3E68
100
AcDbEntity
  8
Defpoints
 62
     0
100
AcDbPoint
 10
885.3301277838964
 20
641.4270373160682
 30
0.0
  0
POINT
  5
3FA6
330
3E68
100
AcDbEntity
  8
Defpoints
 62
     0
100
AcDbPoint
 10
732.7973251137536
 20
641.4270373160684
 30
0.0
  0
ENDBLK
  5
3E6E
330
3E68
100
AcDbEntity
  8
0
 62
     3
100
AcDbBlockEnd
  0
BLOCK
  5
3E79
330
3E6F
100
AcDbEntity
  8
0
 62
     3
100
AcDbBlockBegin
  2
*D78
 70
     1
 10
0.0
 20
0.0
 30
0.0
  3
*D78
  1

  0
LINE
  5
3F83
330
3E6F
100
AcDbEntity
  8
実形
 62
     0
370
    18
100
AcDbLine
 10
832.0329621596135
 20
861.427037316068
 30
0.0
 11
681.6839645052406
 21
861.427037316068
 31
0.0
  0
LINE
  5
3F84
330
3E6F
100
AcDbEntity
  8
実形
 62
     0
370
    18
100
AcDbLine
 10
740.9736642599273
 20
641.4270373160685
 30
0.0
 11
681.6839645052405
 21
641.4270373160685
 31
0.0
  0
LINE
  5
3F85
330
3E6F
100
AcDbEntity
  8
実形
 62
     0
370
    18
100
AcDbLine
 10
681.6839645052406
 20
861.427037316068
 30
0.0
 11
681.6839645052405
 21
641.4270373160685
 31
0.0
  0
INSERT
  5
3F86
330
3E6F
100
AcDbEntity
  8
実形
 62
     0
370
    18
100
AcDbBlockReference
  2
_DotSmall
 10
681.6839645052406
 20
861.427037316068
 30
0.0
 41
35.0
 42
35.0
 43
35.0
 50
90.0
  0
INSERT
  5
3F87
330
3E6F
100
AcDbEntity
  8
実形
 62
     0
370
    18
100
AcDbBlockReference
  2
_DotSmall
 10
681.6839645052405
 20
641.4270373160685
 30
0.0
 41
35.0
 42
35.0
 43
35.0
 50
270.0
  0
MTEXT
  5
3F88
330
3E6F
100
AcDbEntity
  8
実形
 62
     0
100
AcDbMText
 10
662.9339645052404
 20
751.4270373160684
 30
0.0
 40
25.0
 41
0.0
 71
     5
 72
     1
  1
218
 11
0.0000000000000001
 21
1.0
 31
0.0
 73
     1
 44
1.0
1001
ACAD
1000
MTEXTBEGIN
1070
    73
1070
     1
1070
    44
1040
1.0
1070
    74
1070
     0
1000
MTEXTEND
  0
POINT
  5
3F89
330
3E6F
100
AcDbEntity
  8
Defpoints
 62
     0
100
AcDbPoint
 10
897.0329621596135
 20
861.427037316068
 30
0.0
  0
POINT
  5
3F8A
330
3E6F
100
AcDbEntity
  8
Defpoints
 62
     0
100
AcDbPoint
 10
805.9736642599272
 20
641.4270373160684
 30
0.0
  0
POINT
  5
3F8B
330
3E6F
100
AcDbEntity
  8
Defpoints
 62
     0
100
AcDbPoint
 10
681.6839645052405
 20
641.4270373160685
 30
0.0
  0
ENDBLK
  5
3E7A
330
3E6F
100
AcDbEntity
  8
0
 62
     3
100
AcDbBlockEnd
  0
BLOCK
  5
42E8
330
42E3
100
AcDbEntity
  8
0
 62
     3
100
AcDbBlockBegin
  2
*D79
 70
     1
 10
0.0
 20
0.0
 30
0.0
  3
*D79
  1

  0
MTEXT
  5
43C2
330
42E3
100
AcDbEntity
  8
実形
 62
     0
100
AcDbMText
 10
1849.997537433717
 20
896.5985233790151
 30
0.0
 40
25.0
 41
0.0
 71
     5
 72
     1
  1
15
 11
0.0000000000000001
 21
1.0
 31
0.0
 73
     1
 44
1.0
1001
ACAD
1000
MTEXTBEGIN
1070
    73
1070
     1
1070
    44
1040
1.0
1070
    74
1070
     0
1000
MTEXTEND
  0
POINT
  5
43C3
330
42E3
100
AcDbEntity
  8
Defpoints
 62
     0
100
AcDbPoint
 10
1760.395798070238
 20
861.427037316068
 30
0.0
  0
POINT
  5
43C4
330
42E3
100
AcDbEntity
  8
Defpoints
 62
     0
100
AcDbPoint
 10
1760.395798070238
 20
661.4270373160675
 30
0.0
  0
POINT
  5
43C5
330
42E3
100
AcDbEntity
  8
Defpoints
 62
     0
100
AcDbPoint
 10
1868.747537433717
 20
661.4270373160674
 30
0.0
  0
ENDBLK
  5
42E9
330
42E3
100
AcDbEntity
  8
0
 62
     3
100
AcDbBlockEnd
  0
BLOCK
  5
42F4
330
42EA
100
AcDbEntity
  8
0
 62
     3
100
AcDbBlockBegin
  2
*D80
 70
     1
 10
0.0
 20
0.0
 30
0.0
  3
*D80
  1

  0
LINE
  5
43C6
330
42EA
100
AcDbEntity
  8
実形
 62
     0
370
    18
100
AcDbLine
 10
1825.395798070238
 20
846.4270373160683
 30
0.0
 11
1868.747537433717
 21
846.4270373160683
 31
0.0
  0
LINE
  5
43C7
330
42EA
100
AcDbEntity
  8
実形
 62
     0
370
    18
100
AcDbLine
 10
1825.395798070238
 20
661.4270373160674
 30
0.0
 11
1868.747537433717
 21
661.4270373160674
 31
0.0
  0
LINE
  5
43C8
330
42EA
100
AcDbEntity
  8
実形
 62
     0
370
    18
100
AcDbLine
 10
1868.747537433717
 20
846.4270373160683
 30
0.0
 11
1868.747537433717
 21
661.4270373160674
 31
0.0
  0
INSERT
  5
43C9
330
42EA
100
AcDbEntity
  8
実形
 62
     0
370
    18
100
AcDbBlockReference
  2
_DotSmall
 10
1868.747537433717
 20
846.4270373160683
 30
0.0
 41
35.0
 42
35.0
 43
35.0
 50
90.0
  0
INSERT
  5
43CA
330
42EA
100
AcDbEntity
  8
実形
 62
     0
370
    18
100
AcDbBlockReference
  2
_DotSmall
 10
1868.747537433717
 20
661.4270373160674
 30
0.0
 41
35.0
 42
35.0
 43
35.0
 50
270.0
  0
MTEXT
  5
43CB
330
42EA
100
AcDbEntity
  8
実形
 62
     0
100
AcDbMText
 10
1849.997537433717
 20
753.9270373160682
 30
0.0
 40
25.0
 41
0.0
 71
     5
 72
     1
  1
185
 11
0.0000000000000001
 21
1.0
 31
0.0
 73
     1
 44
1.0
1001
ACAD
1000
MTEXTBEGIN
1070
    73
1070
     1
1070
    44
1040
1.0
1070
    74
1070
     0
1000
MTEXTEND
  0
POINT
  5
43CC
330
42EA
100
AcDbEntity
  8
Defpoints
 62
     0
100
AcDbPoint
 10
1760.395798070238
 20
846.4270373160683
 30
0.0
  0
POINT
  5
43CD
330
42EA
100
AcDbEntity
  8
Defpoints
 62
     0
100
AcDbPoint
 10
1760.395798070238
 20
661.4270373160675
 30
0.0
  0
POINT
  5
43CE
330
42EA
100
AcDbEntity
  8
Defpoints
 62
     0
100
AcDbPoint
 10
1868.747537433717
 20
661.4270373160674
 30
0.0
  0
ENDBLK
  5
42F5
330
42EA
100
AcDbEntity
  8
0
 62
     3
100
AcDbBlockEnd
  0
BLOCK
  5
4300
330
42F6
100
AcDbEntity
  8
0
 62
     3
100
AcDbBlockBegin
  2
*D81
 70
     1
 10
0.0
 20
0.0
 30
0.0
  3
*D81
  1

  0
LINE
  5
43CF
330
42F6
100
AcDbEntity
  8
実形
 62
     0
370
    18
100
AcDbLine
 10
1825.395798070238
 20
861.4270373160678
 30
0.0
 11
1916.970102600578
 21
861.4270373160678
 31
0.0
  0
LINE
  5
43D0
330
42F6
100
AcDbEntity
  8
実形
 62
     0
370
    18
100
AcDbLine
 10
1825.395798070238
 20
661.4270373160674
 30
0.0
 11
1916.970102600578
 21
661.4270373160674
 31
0.0
  0
LINE
  5
43D1
330
42F6
100
AcDbEntity
  8
実形
 62
     0
370
    18
100
AcDbLine
 10
1916.970102600578
 20
861.4270373160678
 30
0.0
 11
1916.970102600578
 21
661.4270373160674
 31
0.0
  0
MTEXT
  5
43D2
330
42F6
100
AcDbEntity
  8
実形
 62
     0
100
AcDbMText
 10
1892.845112380007
 20
749.2827595742992
 30
0.0
 40
25.0
 41
0.0
 71
     5
 72
     1
  1
200
 11
0.0000000000000001
 21
1.0
 31
0.0
 73
     1
 44
1.0
1001
ACAD
1000
MTEXTBEGIN
1070
    73
1070
     1
1070
    44
1040
1.0
1070
    74
1070
     0
1000
MTEXTEND
  0
INSERT
  5
43D3
330
42F6
100
AcDbEntity
  8
実形
 62
     0
370
    18
100
AcDbBlockReference
  2
_DotSmall
 10
1916.970102600578
 20
861.4270373160678
 30
0.0
 41
35.0
 42
35.0
 43
35.0
 50
90.0
  0
INSERT
  5
43D4
330
42F6
100
AcDbEntity
  8
実形
 62
     0
370
    18
100
AcDbBlockReference
  2
_DotSmall
 10
1916.970102600578
 20
661.4270373160674
 30
0.0
 41
35.0
 42
35.0
 43
35.0
 50
270.0
  0
POINT
  5
43D5
330
42F6
100
AcDbEntity
  8
Defpoints
 62
     0
100
AcDbPoint
 10
1760.395798070238
 20
861.427037316068
 30
0.0
  0
POINT
  5
43D6
330
42F6
100
AcDbEntity
  8
Defpoints
 62
     0
100
AcDbPoint
 10
1760.395798070238
 20
661.4270373160675
 30
0.0
  0
POINT
  5
43D7
330
42F6
100
AcDbEntity
  8
Defpoints
 62
     0
100
AcDbPoint
 10
1916.970102600578
 20
661.4270373160674
 30
0.0
  0
ENDBLK
  5
4301
330
42F6
100
AcDbEntity
  8
0
 62
     3
100
AcDbBlockEnd
  0
BLOCK
  5
4309
330
4302
100
AcDbEntity
  8
0
 62
     3
100
AcDbBlockBegin
  2
*D82
 70
     1
 10
0.0
 20
0.0
 30
0.0
  3
*D82
  1

  0
LINE
  5
43D8
330
4302
100
AcDbEntity
  8
実形
 62
     0
370
    18
100
AcDbLine
 10
1870.282228538212
 20
861.427037316068
 30
0.0
 11
1916.970102600578
 21
861.427037316068
 31
0.0
  0
LINE
  5
43D9
330
4302
100
AcDbEntity
  8
実形
 62
     0
370
    18
100
AcDbLine
 10
1870.282228538212
 20
651.4270373160679
 30
0.0
 11
1916.970102600578
 21
651.4270373160679
 31
0.0
  0
MTEXT
  5
43DA
330
4302
100
AcDbEntity
  8
実形
 62
     0
100
AcDbMText
 10
1898.220102600578
 20
618.8089655821413
 30
0.0
 40
25.0
 41
0.0
 71
     5
 72
     1
  1
10
 11
0.0000000000000001
 21
1.0
 31
0.0
 73
     1
 44
1.0
1001
ACAD
1000
MTEXTBEGIN
1070
    73
1070
     1
1070
    44
1040
1.0
1070
    74
1070
     0
1000
MTEXTEND
  0
POINT
  5
43DB
330
4302
100
AcDbEntity
  8
Defpoints
 62
     0
100
AcDbPoint
 10
1805.282228538212
 20
861.427037316068
 30
0.0
  0
POINT
  5
43DC
330
4302
100
AcDbEntity
  8
Defpoints
 62
     0
100
AcDbPoint
 10
1805.282228538212
 20
651.4270373160679
 30
0.0
  0
POINT
  5
43DD
330
4302
100
AcDbEntity
  8
Defpoints
 62
     0
100
AcDbPoint
 10
1916.970102600578
 20
651.4270373160679
 30
0.0
  0
ENDBLK
  5
430A
330
4302
100
AcDbEntity
  8
0
 62
     3
100
AcDbBlockEnd
  0
BLOCK
  5
4315
330
430B
100
AcDbEntity
  8
0
 62
     3
100
AcDbBlockBegin
  2
*D83
 70
     1
 10
0.0
 20
0.0
 30
0.0
  3
*D83
  1

  0
LINE
  5
43DE
330
430B
100
AcDbEntity
  8
実形
 62
     0
370
    18
100
AcDbLine
 10
1870.282228538212
 20
861.427037316068
 30
0.0
 11
1969.517865584071
 21
861.427037316068
 31
0.0
  0
LINE
  5
43DF
330
430B
100
AcDbEntity
  8
実形
 62
     0
370
    18
100
AcDbLine
 10
1900.911574339812
 20
651.4270373160679
 30
0.0
 11
1969.517865584071
 21
651.4270373160679
 31
0.0
  0
LINE
  5
43E0
330
430B
100
AcDbEntity
  8
実形
 62
     0
370
    18
100
AcDbLine
 10
1969.517865584071
 20
861.427037316068
 30
0.0
 11
1969.517865584071
 21
651.4270373160679
 31
0.0
  0
INSERT
  5
43E1
330
430B
100
AcDbEntity
  8
実形
 62
     0
370
    18
100
AcDbBlockReference
  2
_DotSmall
 10
1969.517865584071
 20
861.427037316068
 30
0.0
 41
35.0
 42
35.0
 43
35.0
 50
90.0
  0
INSERT
  5
43E2
330
430B
100
AcDbEntity
  8
実形
 62
     0
370
    18
100
AcDbBlockReference
  2
_DotSmall
 10
1969.517865584071
 20
651.4270373160679
 30
0.0
 41
35.0
 42
35.0
 43
35.0
 50
270.0
  0
MTEXT
  5
43E3
330
430B
100
AcDbEntity
  8
実形
 62
     0
100
AcDbMText
 10
1950.767865584072
 20
756.4270373160683
 30
0.0
 40
25.0
 41
0.0
 71
     5
 72
     1
  1
210
 11
0.0000000000000001
 21
1.0
 31
0.0
 73
     1
 44
1.0
1001
ACAD
1000
MTEXTBEGIN
1070
    73
1070
     1
1070
    44
1040
1.0
1070
    74
1070
     0
1000
MTEXTEND
  0
POINT
  5
43E4
330
430B
100
AcDbEntity
  8
Defpoints
 62
     0
100
AcDbPoint
 10
1805.282228538212
 20
861.427037316068
 30
0.0
  0
POINT
  5
43E5
330
430B
100
AcDbEntity
  8
Defpoints
 62
     0
100
AcDbPoint
 10
1835.911574339812
 20
651.4270373160679
 30
0.0
  0
POINT
  5
43E6
330
430B
100
AcDbEntity
  8
Defpoints
 62
     0
100
AcDbPoint
 10
1969.517865584071
 20
651.4270373160679
 30
0.0
  0
ENDBLK
  5
4316
330
430B
100
AcDbEntity
  8
0
 62
     3
100
AcDbBlockEnd
  0
BLOCK
  5
431C
330
4317
100
AcDbEntity
  8
0
 62
     3
100
AcDbBlockBegin
  2
*D84
 70
     1
 10
0.0
 20
0.0
 30
0.0
  3
*D84
  1

  0
MTEXT
  5
43E7
330
4317
100
AcDbEntity
  8
実形
 62
     0
100
AcDbMText
 10
1950.767865584072
 20
612.346555939449
 30
0.0
 40
25.0
 41
0.0
 71
     5
 72
     1
  1
8
 11
0.0000000000000001
 21
1.0
 31
0.0
 73
     1
 44
1.0
1001
ACAD
1000
MTEXTBEGIN
1070
    73
1070
     1
1070
    44
1040
1.0
1070
    74
1070
     0
1000
MTEXTEND
  0
POINT
  5
43E8
330
4317
100
AcDbEntity
  8
Defpoints
 62
     0
100
AcDbPoint
 10
1805.282228538212
 20
861.427037316068
 30
0.0
  0
POINT
  5
43E9
330
4317
100
AcDbEntity
  8
Defpoints
 62
     0
100
AcDbPoint
 10
1816.985062913929
 20
641.4270373160684
 30
0.0
  0
POINT
  5
43EA
330
4317
100
AcDbEntity
  8
Defpoints
 62
     0
100
AcDbPoint
 10
1969.517865584071
 20
641.4270373160684
 30
0.0
  0
ENDBLK
  5
431D
330
4317
100
AcDbEntity
  8
0
 62
     3
100
AcDbBlockEnd
  0
BLOCK
  5
4328
330
431E
100
AcDbEntity
  8
0
 62
     3
100
AcDbBlockBegin
  2
*D85
 70
     1
 10
0.0
 20
0.0
 30
0.0
  3
*D85
  1

  0
LINE
  5
43EB
330
431E
100
AcDbEntity
  8
実形
 62
     0
370
    18
100
AcDbLine
 10
1870.282228538212
 20
861.427037316068
 30
0.0
 11
2020.631226192585
 21
861.427037316068
 31
0.0
  0
LINE
  5
43EC
330
431E
100
AcDbEntity
  8
実形
 62
     0
370
    18
100
AcDbLine
 10
1961.341526437898
 20
641.4270373160684
 30
0.0
 11
2020.631226192585
 21
641.4270373160684
 31
0.0
  0
LINE
  5
43ED
330
431E
100
AcDbEntity
  8
実形
 62
     0
370
    18
100
AcDbLine
 10
2020.631226192585
 20
861.427037316068
 30
0.0
 11
2020.631226192585
 21
641.4270373160684
 31
0.0
  0
INSERT
  5
43EE
330
431E
100
AcDbEntity
  8
実形
 62
     0
370
    18
100
AcDbBlockReference
  2
_DotSmall
 10
2020.631226192585
 20
861.427037316068
 30
0.0
 41
35.0
 42
35.0
 43
35.0
 50
90.0
  0
INSERT
  5
43EF
330
431E
100
AcDbEntity
  8
実形
 62
     0
370
    18
100
AcDbBlockReference
  2
_DotSmall
 10
2020.631226192585
 20
641.4270373160684
 30
0.0
 41
35.0
 42
35.0
 43
35.0
 50
270.0
  0
MTEXT
  5
43F0
330
431E
100
AcDbEntity
  8
実形
 62
     0
100
AcDbMText
 10
2001.881226192585
 20
751.4270373160685
 30
0.0
 40
25.0
 41
0.0
 71
     5
 72
     1
  1
218
 11
0.0000000000000001
 21
1.0
 31
0.0
 73
     1
 44
1.0
1001
ACAD
1000
MTEXTBEGIN
1070
    73
1070
     1
1070
    44
1040
1.0
1070
    74
1070
     0
1000
MTEXTEND
  0
POINT
  5
43F1
330
431E
100
AcDbEntity
  8
Defpoints
 62
     0
100
AcDbPoint
 10
1805.282228538212
 20
861.427037316068
 30
0.0
  0
POINT
  5
43F2
330
431E
100
AcDbEntity
  8
Defpoints
 62
     0
100
AcDbPoint
 10
1896.341526437898
 20
641.4270373160684
 30
0.0
  0
POINT
  5
43F3
330
431E
100
AcDbEntity
  8
Defpoints
 62
     0
100
AcDbPoint
 10
2020.631226192585
 20
641.4270373160684
 30
0.0
  0
ENDBLK
  5
4329
330
431E
100
AcDbEntity
  8
0
 62
     3
100
AcDbBlockEnd
  0
BLOCK
  5
445D
330
4453
100
AcDbEntity
  8
0
 62
     3
100
AcDbBlockBegin
  2
*D86
 70
     1
 10
0.0
 20
0.0
 30
0.0
  3
*D86
  1

  0
LINE
  5
445F
330
4453
100
AcDbEntity
  8
寸法
 62
     0
370
    15
100
AcDbLine
 10
2464.722944931568
 20
317.8360447459727
 30
0.0
 11
2464.722944931568
 21
295.8250599337407
 31
0.0
  0
LINE
  5
4460
330
4453
100
AcDbEntity
  8
寸法
 62
     0
370
    15
100
AcDbLine
 10
2355.087235606629
 20
317.8360447459727
 30
0.0
 11
2355.087235606629
 21
295.8250599337407
 31
0.0
  0
LINE
  5
4461
330
4453
100
AcDbEntity
  8
寸法
 62
     0
370
    15
100
AcDbLine
 10
2464.722944931568
 20
295.8250599337407
 30
0.0
 11
2355.087235606629
 21
295.8250599337407
 31
0.0
  0
INSERT
  5
4462
330
4453
100
AcDbEntity
  8
寸法
 62
     0
370
    15
100
AcDbBlockReference
  2
_DotSmall
 10
2464.722944931568
 20
295.8250599337407
 30
0.0
 41
40.0
 42
40.0
 43
40.0
  0
INSERT
  5
4463
330
4453
100
AcDbEntity
  8
寸法
 62
     0
370
    15
100
AcDbBlockReference
  2
_DotSmall
 10
2355.087235606629
 20
295.8250599337407
 30
0.0
 41
40.0
 42
40.0
 43
40.0
 50
180.0
  0
MTEXT
  5
4464
330
4453
100
AcDbEntity
  8
寸法
 62
     0
100
AcDbMText
 10
2409.905090269098
 20
314.5750599337407
 30
0.0
 40
25.0
 41
0.0
 71
     5
 72
     1
  1
12
 73
     1
 44
1.0
1001
ACAD
1000
MTEXTBEGIN
1070
    73
1070
     1
1070
    44
1040
1.0
1070
    74
1070
     0
1000
MTEXTEND
  0
POINT
  5
4465
330
4453
100
AcDbEntity
  8
Defpoints
 62
     0
100
AcDbPoint
 10
2464.722944931568
 20
362.8360447459727
 30
0.0
  0
POINT
  5
4466
330
4453
100
AcDbEntity
  8
Defpoints
 62
     0
100
AcDbPoint
 10
2355.087235606629
 20
362.8360447459727
 30
0.0
  0
POINT
  5
4467
330
4453
100
AcDbEntity
  8
Defpoints
 62
     0
100
AcDbPoint
 10
2355.087235606629
 20
295.8250599337407
 30
0.0
  0
ENDBLK
  5
445E
330
4453
100
AcDbEntity
  8
0
 62
     3
100
AcDbBlockEnd
  0
ENDSEC
  0
SECTION
  2
ENTITIES
  0
LINE
  5
9C
330
1F
100
AcDbEntity
  8
補助
100
AcDbLine
 10
109.0
 20
4.0
 30
0.0
 11
2784.0
 21
4.0
 31
0.0
  0
LINE
  5
A0
330
1F
100
AcDbEntity
  8
補助
100
AcDbLine
 10
2784.0
 20
2024.0
 30
0.0
 11
109.0
 21
2024.0
 31
0.0
  0
LINE
  5
A5
330
1F
100
AcDbEntity
  8
補助
100
AcDbLine
 10
2784.0
 20
4.0
 30
0.0
 11
2784.0
 21
2024.0
 31
0.0
  0
LINE
  5
A8
330
1F
100
AcDbEntity
  8
補助
100
AcDbLine
 10
2184.0
 20
4.0
 30
0.0
 11
2184.0
 21
199.0
 31
0.0
  0
LINE
  5
A9
330
1F
100
AcDbEntity
  8
補助
100
AcDbLine
 10
2184.0
 20
69.0
 30
0.0
 11
2784.0
 21
69.0
 31
0.0
  0
LINE
  5
AA
330
1F
100
AcDbEntity
  8
補助
100
AcDbLine
 10
2184.0
 20
134.0
 30
0.0
 11
2784.0
 21
134.0
 31
0.0
  0
LINE
  5
AB
330
1F
100
AcDbEntity
  8
補助
100
AcDbLine
 10
2184.0
 20
199.0
 30
0.0
 11
2784.0
 21
199.0
 31
0.0
  0
LINE
  5
AD
330
1F
100
AcDbEntity
  8
補助
100
AcDbLine
 10
2784.0
 20
4.0
 30
0.0
 11
2784.0
 21
69.0
 31
0.0
  0
LINE
  5
272
330
1F
100
AcDbEntity
  8
補助
100
AcDbLine
 10
2184.0
 20
134.0
 30
0.0
 11
2184.0
 21
199.0
 31
0.0
  0
TEXT
  5
2C9
330
1F
100
AcDbEntity
  8
0
100
AcDbText
 10
2268.166666666667
 20
149.0
 30
0.0
 40
35.0
  1
TBK860-510W-L
 72
     4
 11
2484.0
 21
166.5
 31
0.0
100
AcDbText
  0
TEXT
  5
8C9
330
1F
100
AcDbEntity
  8
0
100
AcDbText
 10
249.2632881086038
 20
83.52862940911927
 30
0.0
 40
30.0
  1
※実寸には製造上の誤差が多少生ずる場合があります。シンクの穴あけ加工は現物合わせにてお願いします。
100
AcDbText
  0
TEXT
  5
DB9
330
1F
100
AcDbEntity
  8
補助
100
AcDbText
 10
2360.255774665347
 20
16.49999999999999
 30
0.0
 40
40.0
  1
中外交易株式会社
 72
     4
 11
2548.255774665348
 21
36.5
 31
0.0
100
AcDbText
  0
LINE
  5
DBA
330
1F
100
AcDbEntity
  8
補助
100
AcDbLine
 10
2184.0
 20
69.0
 30
0.0
 11
2784.0
 21
69.0
 31
0.0
  0
HATCH
  5
DBB
330
1F
100
AcDbEntity
  8
補助
100
AcDbHatch
 10
0.0
 20
0.0
 30
0.0
210
0.0
220
0.0
230
1.0
  2
SOLID
 70
     1
 71
     1
 91
        3
 92
        1
 93
        4
 72
     2
 10
2317.166198313995
 20
36.5
 40
20.0
 50
11.647723667075
 51
342.6561058784676
 73
     1
 72
     1
 10
2336.256852341323
 20
30.53787547858514
 11
2312.166198313995
 21
30.53787547858519
 72
     1
 10
2312.166198313995
 20
30.53787547858519
 11
2312.166198313995
 21
40.53787547858519
 72
     1
 10
2312.166198313995
 20
40.53787547858519
 11
2336.75434681301
 21
40.53787547858519
 97
        4
330
DBC
330
DBE
330
DBF
330
DC0
 92
        1
 93
        4
 72
     2
 10
2248.255774665347
 20
36.5
 40
20.0
 50
11.647723667075
 51
342.6561058784676
 73
     1
 72
     1
 10
2267.346428692675
 20
30.53787547858514
 11
2243.255774665348
 21
30.53787547858519
 72
     1
 10
2243.255774665348
 20
30.53787547858519
 11
2243.255774665348
 21
40.53787547858519
 72
     1
 10
2243.255774665348
 20
40.53787547858519
 11
2267.843923164362
 21
40.53787547858519
 97
        4
330
DBD
330
DC6
330
DC7
330
DC8
 92
        1
 93
        5
 72
     1
 10
2305.64189404294
 20
56.5
 11
2270.64189404294
 21
56.5
 72
     1
 10
2270.64189404294
 20
56.5
 11
2270.64189404294
 21
16.5
 72
     1
 10
2270.64189404294
 20
16.5
 11
2305.64189404294
 21
16.5
 72
     1
 10
2305.64189404294
 20
16.5
 11
2270.64189404294
 21
36.5
 72
     1
 10
2270.64189404294
 20
36.5
 11
2305.64189404294
 21
56.5
 97
        5
330
DC1
330
DC5
330
DC4
330
DC3
330
DC2
 75
     0
 76
     1
 98
        1
 10
0.0
 20
0.0
  0
ARC
  5
DBC
102
{ACAD_REACTORS
330
DBB
102
}
330
1F
100
AcDbEntity
  8
補助
370
     5
100
AcDbCircle
 10
2317.166198313995
 20
36.5
 30
0.0
 40
20.0
100
AcDbArc
 50
11.647723667075
 51
342.6561058784676
  0
ARC
  5
DBD
102
{ACAD_REACTORS
330
DBB
102
}
330
1F
100
AcDbEntity
  8
補助
370
     5
100
AcDbCircle
 10
2248.255774665347
 20
36.5
 30
0.0
 40
20.0
100
AcDbArc
 50
11.647723667075
 51
342.6561058784676
  0
LINE
  5
DBE
102
{ACAD_REACTORS
330
DBB
102
}
330
1F
100
AcDbEntity
  8
補助
370
     5
100
AcDbLine
 10
2312.166198313995
 20
30.53787547858519
 30
0.0
 11
2336.256852341323
 21
30.53787547858514
 31
0.0
  0
LINE
  5
DBF
102
{ACAD_REACTORS
330
DBB
102
}
330
1F
100
AcDbEntity
  8
補助
370
     5
100
AcDbLine
 10
2312.166198313995
 20
40.53787547858519
 30
0.0
 11
2312.166198313995
 21
30.53787547858519
 31
0.0
  0
LINE
  5
DC0
102
{ACAD_REACTORS
330
DBB
102
}
330
1F
100
AcDbEntity
  8
補助
370
     5
100
AcDbLine
 10
2336.75434681301
 20
40.53787547858519
 30
0.0
 11
2312.166198313995
 21
40.53787547858519
 31
0.0
  0
LINE
  5
DC1
102
{ACAD_REACTORS
330
DBB
102
}
330
1F
100
AcDbEntity
  8
補助
370
     5
100
AcDbLine
 10
2305.64189404294
 20
56.5
 30
0.0
 11
2270.64189404294
 21
56.5
 31
0.0
  0
LINE
  5
DC2
102
{ACAD_REACTORS
330
DBB
102
}
330
1F
100
AcDbEntity
  8
補助
370
     5
100
AcDbLine
 10
2270.64189404294
 20
36.5
 30
0.0
 11
2305.64189404294
 21
56.5
 31
0.0
  0
LINE
  5
DC3
102
{ACAD_REACTORS
330
DBB
102
}
330
1F
100
AcDbEntity
  8
補助
370
     5
100
AcDbLine
 10
2305.64189404294
 20
16.5
 30
0.0
 11
2270.64189404294
 21
36.5
 31
0.0
  0
LINE
  5
DC4
102
{ACAD_REACTORS
330
DBB
102
}
330
1F
100
AcDbEntity
  8
補助
370
     5
100
AcDbLine
 10
2270.64189404294
 20
16.5
 30
0.0
 11
2305.64189404294
 21
16.5
 31
0.0
  0
LINE
  5
DC5
102
{ACAD_REACTORS
330
DBB
102
}
330
1F
100
AcDbEntity
  8
補助
370
     5
100
AcDbLine
 10
2270.64189404294
 20
56.5
 30
0.0
 11
2270.64189404294
 21
16.5
 31
0.0
  0
LINE
  5
DC6
102
{ACAD_REACTORS
330
DBB
102
}
330
1F
100
AcDbEntity
  8
補助
370
     5
100
AcDbLine
 10
2243.255774665348
 20
30.53787547858519
 30
0.0
 11
2267.346428692675
 21
30.53787547858514
 31
0.0
  0
LINE
  5
DC7
102
{ACAD_REACTORS
330
DBB
102
}
330
1F
100
AcDbEntity
  8
補助
370
     5
100
AcDbLine
 10
2243.255774665348
 20
40.53787547858519
 30
0.0
 11
2243.255774665348
 21
30.53787547858519
 31
0.0
  0
LINE
  5
DC8
102
{ACAD_REACTORS
330
DBB
102
}
330
1F
100
AcDbEntity
  8
補助
370
     5
100
AcDbLine
 10
2267.843923164362
 20
40.53787547858519
 30
0.0
 11
2243.255774665348
 21
40.53787547858519
 31
0.0
  0
DIMENSION
  5
1677
330
1F
100
AcDbEntity
  8
寸法
100
AcDbDimension
  2
*D4
 10
1751.80071929418
 20
1059.147751339128
 30
0.0
 11
1501.80071929418
 21
1077.897751339129
 31
0.0
 70
    32
 71
     5
 42
500.0
  3
ISO-25
100
AcDbAlignedDimension
 13
1251.80071929418
 23
1172.517091367211
 33
0.0
 14
1751.80071929418
 24
1172.517091367211
 34
0.0
 50
180.0
100
AcDbRotatedDimension
1001
ACAD
1000
DSTYLE
1002
{
1070
   279
1070
     1
1002
}
  0
DIMENSION
  5
1678
330
1F
100
AcDbEntity
  8
寸法
100
AcDbDimension
  2
*D5
 10
1251.80071929418
 20
1059.147751339128
 30
0.0
 11
1284.049674793173
 21
1059.147751339128
 31
0.0
 70
   160
 71
     5
 42
20.0
  3
ISO-25
100
AcDbAlignedDimension
 13
1231.80071929418
 23
1172.517091367211
 33
0.0
 14
1251.80071929418
 24
1172.517091367211
 34
0.0
 50
180.0
100
AcDbRotatedDimension
1001
ACAD
1000
DSTYLE
1002
{
1070
   279
1070
     1
1002
}
  0
DIMENSION
  5
1679
330
1F
100
AcDbEntity
  8
寸法
100
AcDbDimension
  2
*D6
 10
1554.540473240951
 20
1642.517091367211
 30
0.0
 11
1535.790473240951
 21
1535.017091367211
 31
0.0
 70
    32
 71
     5
 42
215.0000000000002
  3
ISO-25
100
AcDbAlignedDimension
 13
1436.271167751861
 23
1427.517091367211
 33
0.0
 14
1271.80071929418
 24
1642.517091367211
 34
0.0
 50
90.0
100
AcDbRotatedDimension
  0
DIMENSION
  5
167B
330
1F
100
AcDbEntity
  8
寸法
100
AcDbDimension
  2
*D7
 10
1401.80071929418
 20
1304.196731626641
 30
0.0
 11
1326.80071929418
 21
1322.946731626641
 31
0.0
 70
    32
 71
     5
 42
150.0
  3
ISO-25
100
AcDbAlignedDimension
 13
1251.80071929418
 23
1312.517091367211
 33
0.0
 14
1401.80071929418
 24
1427.517091367211
 34
0.0
100
AcDbRotatedDimension
1001
ACAD
1000
DSTYLE
1002
{
1070
   279
1070
     1
1070
    73
1070
     1
1070
    74
1070
     1
1002
}
  0
LINE
  5
167C
330
1F
100
AcDbEntity
  8
実形
100
AcDbLine
 10
1271.80071929418
 20
1642.517091367211
 30
0.0
 11
1731.800719294181
 21
1642.517091367211
 31
0.0
  0
LINE
  5
167D
330
1F
100
AcDbEntity
  8
実形
100
AcDbLine
 10
1271.80071929418
 20
1212.517091367211
 30
0.0
 11
1731.80071929418
 21
1212.517091367211
 31
0.0
  0
LINE
  5
167E
330
1F
100
AcDbEntity
  8
実形
100
AcDbLine
 10
971.8007192941804
 20
846.427037316068
 30
0.0
 11
1751.80071929418
 21
846.427037316068
 31
0.0
  0
LINE
  5
1680
330
1F
100
AcDbEntity
  8
実形
100
AcDbLine
 10
936.8007192941805
 20
861.427037316068
 30
0.0
 11
1786.80071929418
 21
861.427037316068
 31
0.0
  0
DIMENSION
  5
1681
330
1F
100
AcDbEntity
  8
実形
100
AcDbDimension
  2
*D8
 10
1791.80071929418
 20
994.5453660715575
 30
0.0
 11
1361.80071929418
 21
1013.295366071557
 31
0.0
 70
    32
 71
     5
 42
860.0
  3
ISO-25
100
AcDbAlignedDimension
 13
931.8007192941804
 23
1172.517091367211
 33
0.0
 14
1791.80071929418
 24
1172.517091367211
 34
0.0
100
AcDbRotatedDimension
  0
LINE
  5
1682
330
1F
100
AcDbEntity
  8
実形
100
AcDbLine
 10
1741.800719294181
 20
1662.517091367211
 30
0.0
 11
981.8007192941804
 21
1662.517091367211
 31
0.0
  0
LINE
  5
1683
330
1F
100
AcDbEntity
  8
実形
100
AcDbLine
 10
981.8007192941804
 20
1192.517091367211
 30
0.0
 11
1741.80071929418
 21
1192.517091367211
 31
0.0
  0
LINE
  5
1684
330
1F
100
AcDbEntity
  8
実形
100
AcDbLine
 10
931.8007192941804
 20
1682.517091367211
 30
0.0
 11
1791.80071929418
 21
1682.517091367211
 31
0.0
  0
LINE
  5
1685
330
1F
100
AcDbEntity
  8
実形
100
AcDbLine
 10
931.8007192941804
 20
1172.517091367211
 30
0.0
 11
1791.80071929418
 21
1172.517091367211
 31
0.0
  0
LINE
  5
1688
330
1F
100
AcDbEntity
  8
実形
100
AcDbLine
 10
1251.80071929418
 20
671.427037316068
 30
0.0
 11
1251.80071929418
 21
846.427037316068
 31
0.0
  0
LINE
  5
1689
330
1F
100
AcDbEntity
  8
実形
100
AcDbLine
 10
1231.80071929418
 20
846.427037316068
 30
0.0
 11
1231.80071929418
 21
671.4270373160679
 31
0.0
  0
LINE
  5
168A
330
1F
100
AcDbEntity
  8
実形
100
AcDbLine
 10
971.8007192941804
 20
671.427037316068
 30
0.0
 11
971.8007192941804
 21
843.427037316068
 31
0.0
  0
DIMENSION
  5
168D
330
1F
100
AcDbEntity
  8
寸法
100
AcDbDimension
  2
*D9
 10
971.8007192941804
 20
1365.303474596731
 30
0.0
 11
1036.80071929418
 21
1384.053474596731
 31
0.0
 70
    32
 71
     5
 42
129.9999999999998
  3
ISO-25
100
AcDbAlignedDimension
 13
1101.80071929418
 23
1487.517091367211
 33
0.0
 14
971.8007192941804
 24
1337.517091367211
 34
0.0
100
AcDbRotatedDimension
1001
ACAD
1000
DSTYLE
1002
{
1070
    73
1070
     1
1070
    74
1070
     1
1002
}
  0
LINE
  5
168F
330
1F
100
AcDbEntity
  8
センター
 48
0.5
100
AcDbLine
 10
1101.80071929418
 20
718.7653342921298
 30
0.0
 11
1101.80071929418
 21
588.7358638043451
 31
0.0
  0
DIMENSION
  5
1697
330
1F
100
AcDbEntity
  8
寸法
100
AcDbDimension
  2
*D10
 10
834.3366984874565
 20
1212.517091367211
 30
0.0
 11
815.5866984874565
 21
1405.017091367211
 31
0.0
 70
    32
 71
     5
 42
385.0
  3
ISO-25
100
AcDbAlignedDimension
 13
931.8007192941804
 23
1597.517091367211
 33
0.0
 14
931.8007192941804
 24
1212.517091367211
 34
0.0
 50
90.0
100
AcDbRotatedDimension
  0
DIMENSION
  5
1698
330
1F
100
AcDbEntity
  8
寸法
100
AcDbDimension
  2
*D11
 10
1194.543485780645
 20
1597.517091367211
 30
0.0
 11
1175.793485780644
 21
1542.517091367211
 31
0.0
 70
    32
 71
     5
 42
110.0
  3
ISO-25
100
AcDbAlignedDimension
 13
1101.80071929418
 23
1487.517091367211
 33
0.0
 14
1001.80071929418
 24
1597.517091367211
 34
0.0
 50
90.0
100
AcDbRotatedDimension
  0
LINE
  5
1699
330
1F
100
AcDbEntity
  8
実形
100
AcDbLine
 10
1251.80071929418
 20
1622.517091367211
 30
0.0
 11
1251.80071929418
 21
1232.517091367211
 31
0.0
  0
DIMENSION
  5
169A
330
1F
100
AcDbEntity
  8
実形
100
AcDbDimension
  2
*D12
 10
761.2841264678645
 20
1172.517091367211
 30
0.0
 11
742.5341264678644
 21
1427.517091367211
 31
0.0
 70
    32
 71
     5
 42
510.0
  3
ISO-25
100
AcDbAlignedDimension
 13
931.8007192941804
 23
1682.517091367211
 33
0.0
 14
931.8007192941804
 24
1172.517091367211
 34
0.0
 50
90.0
100
AcDbRotatedDimension
  0
LINE
  5
169B
330
1F
100
AcDbEntity
  8
実形
100
AcDbLine
 10
951.8007192941805
 20
1632.517091367211
 30
0.0
 11
951.8007192941805
 21
1222.517091367211
 31
0.0
  0
LINE
  5
169C
330
1F
100
AcDbEntity
  8
実形
100
AcDbLine
 10
931.8007192941804
 20
1682.517091367211
 30
0.0
 11
931.8007192941804
 21
1172.517091367211
 31
0.0
  0
DIMENSION
  5
169D
330
1F
100
AcDbEntity
  8
寸法
100
AcDbDimension
  2
*D13
 10
1231.80071929418
 20
1059.147751339128
 30
0.0
 11
1101.80071929418
 21
1077.897751339129
 31
0.0
 70
    33
 71
     5
 42
260.0
  3
ISO-25
100
AcDbAlignedDimension
 13
971.8007192941804
 23
1172.517091367211
 33
0.0
 14
1231.80071929418
 24
1172.517091367211
 34
0.0
  0
DIMENSION
  5
169E
330
1F
100
AcDbEntity
  8
実形
100
AcDbDimension
  2
*D14
 10
834.3366984874565
 20
1172.517091367211
 30
0.0
 11
834.3366984874565
 21
1135.349403066262
 31
0.0
 70
   160
 71
     5
 42
20.0
  3
ISO-25
100
AcDbAlignedDimension
 13
931.8007192941804
 23
1192.517091367211
 33
0.0
 14
931.8007192941804
 24
1172.517091367211
 34
0.0
 50
90.0
100
AcDbRotatedDimension
1001
ACAD
1000
DSTYLE
1002
{
1070
   279
1070
     1
1002
}
  0
DIMENSION
  5
169F
330
1F
100
AcDbEntity
  8
実形
100
AcDbDimension
  2
*D15
 10
951.8007192941805
 20
1059.936606647246
 30
0.0
 11
893.1770046204492
 21
1063.615093022798
 31
0.0
 70
   160
 71
     5
 42
20.0
  3
ISO-25
100
AcDbAlignedDimension
 13
931.8007192941804
 23
1172.517091367211
 33
0.0
 14
951.8007192941805
 24
1172.517091367211
 34
0.0
100
AcDbRotatedDimension
1001
ACAD
1000
DSTYLE
1002
{
1070
   279
1070
     2
1002
}
  0
DIMENSION
  5
16A0
330
1F
100
AcDbEntity
  8
実形
100
AcDbDimension
  2
*D16
 10
971.8007192941804
 20
1059.936606647246
 30
0.0
 11
1010.119404831683
 21
1059.936606647246
 31
0.0
 70
   160
 71
     5
 42
20.0
  3
ISO-25
100
AcDbAlignedDimension
 13
951.8007192941805
 23
1172.517091367211
 33
0.0
 14
971.8007192941804
 24
1172.517091367211
 34
0.0
100
AcDbRotatedDimension
1001
ACAD
1000
DSTYLE
1002
{
1070
   279
1070
     1
1002
}
  0
ARC
  5
16A2
330
1F
100
AcDbEntity
  8
実形
100
AcDbCircle
 10
968.8007192941805
 20
843.427037316068
 30
0.0
 40
3.0
100
AcDbArc
 50
0.0
 51
90.0
  0
ARC
  5
16A3
330
1F
100
AcDbEntity
  8
実形
100
AcDbCircle
 10
954.8007192941804
 20
849.4270373160679
 30
0.0
 40
3.0
100
AcDbArc
 50
180.0
 51
270.0
  0
LINE
  5
16A5
330
1F
100
AcDbEntity
  8
実形
100
AcDbLine
 10
941.8007192941804
 20
861.427037316068
 30
0.0
 11
941.8007192941804
 21
845.427037316068
 31
0.0
  0
LINE
  5
16A7
330
1F
100
AcDbEntity
  8
実形
100
AcDbLine
 10
951.8007192941805
 20
849.4270373160679
 30
0.0
 11
951.8007192941805
 21
861.427037316068
 31
0.0
  0
LINE
  5
16A8
330
1F
100
AcDbEntity
  8
実形
100
AcDbLine
 10
968.8007192941805
 20
846.427037316068
 30
0.0
 11
954.8007192941804
 21
846.427037316068
 31
0.0
  0
LINE
  5
16A9
330
1F
100
AcDbEntity
  8
実形
100
AcDbLine
 10
1231.80071929418
 20
806.4270373160679
 30
0.0
 11
1251.80071929418
 21
806.4270373160679
 31
0.0
  0
LINE
  5
16AB
330
1F
100
AcDbEntity
  8
実形
100
AcDbLine
 10
991.8007192941804
 20
1212.51709136721
 30
0.0
 11
1211.80071929418
 21
1212.517091367211
 31
0.0
  0
LINE
  5
16AD
330
1F
100
AcDbEntity
  8
実形
100
AcDbLine
 10
971.8007192941804
 20
1577.517091367211
 30
0.0
 11
971.8007192941804
 21
1232.51709136721
 31
0.0
  0
ARC
  5
16AE
330
1F
100
AcDbEntity
  8
実形
100
AcDbCircle
 10
981.8007192941804
 20
1222.517091367211
 30
0.0
 40
30.0
100
AcDbArc
 50
180.0
 51
270.0
  0
DIMENSION
  5
16AF
330
1F
100
AcDbEntity
  8
実形
100
AcDbDimension
  2
*D17
 10
834.3366984874565
 20
1192.517091367211
 30
0.0
 11
834.3366984874565
 21
1241.800254781239
 31
0.0
 70
   160
 71
     5
 42
20.0
  3
ISO-25
100
AcDbAlignedDimension
 13
931.8007192941804
 23
1212.517091367211
 33
0.0
 14
931.8007192941804
 24
1192.517091367211
 34
0.0
 50
90.0
100
AcDbRotatedDimension
1001
ACAD
1000
DSTYLE
1002
{
1070
   279
1070
     1
1002
}
  0
CIRCLE
  5
16B5
330
1F
100
AcDbEntity
  8
実形
100
AcDbCircle
 10
1101.80071929418
 20
1487.517091367211
 30
0.0
 40
47.0
  0
CIRCLE
  5
16B6
330
1F
100
AcDbEntity
  8
実形
100
AcDbCircle
 10
1101.80071929418
 20
1487.517091367211
 30
0.0
 40
57.5
  0
LINE
  5
16B8
330
1F
100
AcDbEntity
  8
実形
100
AcDbLine
 10
1251.80071929418
 20
1297.517091367211
 30
0.0
 11
1231.80071929418
 21
1297.517091367211
 31
0.0
  0
LINE
  5
16B9
330
1F
100
AcDbEntity
  8
実形
100
AcDbLine
 10
1251.80071929418
 20
1517.517091367211
 30
0.0
 11
1251.80071929418
 21
1297.517091367211
 31
0.0
  0
LINE
  5
16BA
330
1F
100
AcDbEntity
  8
実形
100
AcDbLine
 10
1231.80071929418
 20
1517.517091367211
 30
0.0
 11
1251.80071929418
 21
1517.517091367211
 31
0.0
  0
LINE
  5
16BB
330
1F
100
AcDbEntity
  8
実形
100
AcDbLine
 10
1231.80071929418
 20
1232.517091367211
 30
0.0
 11
1231.80071929418
 21
1577.517091367211
 31
0.0
  0
LINE
  5
16BC
330
1F
100
AcDbEntity
  8
実形
100
AcDbLine
 10
1211.80071929418
 20
1597.517091367211
 30
0.0
 11
991.8007192941804
 21
1597.517091367211
 31
0.0
  0
DIMENSION
  5
16BD
330
1F
100
AcDbEntity
  8
寸法
100
AcDbDimension
  2
*D18
 10
834.2650106872843
 20
1597.517091367211
 30
0.0
 11
815.515010687284
 21
1630.017091367211
 31
0.0
 70
    32
 71
     5
 42
65.0
  3
ISO-25
100
AcDbAlignedDimension
 13
931.8007192941804
 23
1662.517091367211
 33
0.0
 14
931.8007192941804
 24
1597.517091367211
 34
0.0
 50
90.0
100
AcDbRotatedDimension
  0
ARC
  5
16BE
330
1F
100
AcDbEntity
  8
実形
100
AcDbCircle
 10
981.8007192941804
 20
1632.517091367211
 30
0.0
 40
30.0
100
AcDbArc
 50
90.0
 51
180.0
  0
DIMENSION
  5
16BF
330
1F
100
AcDbEntity
  8
実形
100
AcDbDimension
  2
*D19
 10
834.3366984874567
 20
1662.517091367211
 30
0.0
 11
819.6585043381237
 21
1724.78756751963
 31
0.0
 70
   160
 71
     5
 42
20.0
  3
ISO-25
100
AcDbAlignedDimension
 13
931.8007192941804
 23
1682.517091367211
 33
0.0
 14
931.8007192941804
 24
1662.517091367211
 34
0.0
 50
90.0
100
AcDbRotatedDimension
1001
ACAD
1000
DSTYLE
1002
{
1070
   279
1070
     2
1002
}
  0
LINE
  5
16C1
330
1F
100
AcDbEntity
  8
実形
100
AcDbLine
 10
1751.80071929418
 20
843.427037316068
 30
0.0
 11
1751.800719294181
 21
680.671168857403
 31
0.0
  0
LINE
  5
16C4
330
1F
100
AcDbEntity
  8
センター
 48
0.5
100
AcDbLine
 10
1401.80071929418
 20
713.7653342921297
 30
0.0
 11
1401.80071929418
 21
598.9755678028796
 31
0.0
  0
LINE
  5
16C5
330
1F
100
AcDbEntity
  8
実形
100
AcDbLine
 10
1492.30071929418
 20
641.427037316068
 30
0.0
 11
1492.30071929418
 21
651.4270373160679
 31
0.0
  0
LINE
  5
16C7
330
1F
100
AcDbEntity
  8
実形
100
AcDbLine
 10
1311.30071929418
 20
651.4270373160679
 30
0.0
 11
1311.30071929418
 21
641.427037316068
 31
0.0
  0
DIMENSION
  5
16C9
330
1F
100
AcDbEntity
  8
寸法
100
AcDbDimension
  2
*D20
 10
2000.748026144723
 20
1517.517091367211
 30
0.0
 11
1981.998026144722
 21
1600.017091367211
 31
0.0
 70
    32
 71
     5
 42
165.0
  3
ISO-25
100
AcDbAlignedDimension
 13
1895.760270125927
 23
1682.517091367211
 33
0.0
 14
1893.572770125927
 24
1517.517091367211
 34
0.0
 50
90.0
100
AcDbRotatedDimension
  0
DIMENSION
  5
16CA
330
1F
100
AcDbEntity
  8
寸法
100
AcDbDimension
  2
*D21
 10
1913.04541516659
 20
1212.517091367211
 30
0.0
 11
1894.29541516659
 21
1427.517091367211
 31
0.0
 70
    32
 71
     5
 42
430.0
  3
ISO-25
100
AcDbAlignedDimension
 13
1791.80071929418
 23
1642.517091367211
 33
0.0
 14
1791.80071929418
 24
1212.517091367211
 34
0.0
 50
90.0
100
AcDbRotatedDimension
1001
ACAD
1000
DSTYLE
1002
{
1070
   279
1070
     1
1002
}
  0
LINE
  5
16CC
330
1F
100
AcDbEntity
  8
実形
100
AcDbLine
 10
1751.80071929418
 20
1232.517091367211
 30
0.0
 11
1751.800719294181
 21
1622.517091367211
 31
0.0
  0
LINE
  5
16CD
330
1F
100
AcDbEntity
  8
実形
100
AcDbLine
 10
1771.80071929418
 20
1222.517091367211
 30
0.0
 11
1771.800719294181
 21
1632.517091367211
 31
0.0
  0
LINE
  5
16CE
330
1F
100
AcDbEntity
  8
実形
100
AcDbLine
 10
1791.80071929418
 20
1172.517091367211
 30
0.0
 11
1791.80071929418
 21
1682.517091367211
 31
0.0
  0
DIMENSION
  5
16CF
330
1F
100
AcDbEntity
  8
寸法
100
AcDbDimension
  2
*D22
 10
1913.04541516659
 20
1172.517091367211
 30
0.0
 11
1914.559105216855
 21
1137.07870241621
 31
0.0
 70
   160
 71
     5
 42
40.0
  3
ISO-25
100
AcDbAlignedDimension
 13
1791.80071929418
 23
1212.517091367211
 33
0.0
 14
1791.80071929418
 24
1172.517091367211
 34
0.0
 50
90.0
100
AcDbRotatedDimension
1001
ACAD
1000
DSTYLE
1002
{
1070
   279
1070
     1
1002
}
  0
DIMENSION
  5
16D0
330
1F
100
AcDbEntity
  8
実形
100
AcDbDimension
  2
*D23
 10
1791.80071929418
 20
1059.936606647246
 30
0.0
 11
1827.395004328782
 21
1058.415878042084
 31
0.0
 70
   160
 71
     5
 42
20.0
  3
ISO-25
100
AcDbAlignedDimension
 13
1771.80071929418
 23
1172.517091367211
 33
0.0
 14
1791.80071929418
 24
1172.517091367211
 34
0.0
100
AcDbRotatedDimension
1001
ACAD
1000
DSTYLE
1002
{
1070
   279
1070
     1
1002
}
  0
DIMENSION
  5
16D1
330
1F
100
AcDbEntity
  8
実形
100
AcDbDimension
  2
*D24
 10
1771.80071929418
 20
1059.936606647246
 30
0.0
 11
1717.816158663623
 21
1059.936606647246
 31
0.0
 70
   160
 71
     5
 42
20.0
  3
ISO-25
100
AcDbAlignedDimension
 13
1751.80071929418
 23
1172.517091367211
 33
0.0
 14
1771.80071929418
 24
1172.517091367211
 34
0.0
100
AcDbRotatedDimension
1001
ACAD
1000
DSTYLE
1002
{
1070
   279
1070
     1
1002
}
  0
ARC
  5
16D2
330
1F
100
AcDbEntity
  8
実形
100
AcDbCircle
 10
1754.800719294181
 20
843.427037316068
 30
0.0
 40
3.0
100
AcDbArc
 50
90.0
 51
180.0
  0
ARC
  5
16D3
330
1F
100
AcDbEntity
  8
実形
100
AcDbCircle
 10
1768.80071929418
 20
849.4270373160679
 30
0.0
 40
3.0
100
AcDbArc
 50
270.0
 51
0.0
  0
LINE
  5
16D4
330
1F
100
AcDbEntity
  8
実形
100
AcDbLine
 10
1781.80071929418
 20
861.427037316068
 30
0.0
 11
1781.80071929418
 21
845.427037316068
 31
0.0
  0
LINE
  5
16D6
330
1F
100
AcDbEntity
  8
実形
100
AcDbLine
 10
1768.80071929418
 20
846.427037316068
 30
0.0
 11
1754.800719294181
 21
846.427037316068
 31
0.0
  0
LINE
  5
16D7
330
1F
100
AcDbEntity
  8
実形
100
AcDbLine
 10
1771.80071929418
 20
861.427037316068
 30
0.0
 11
1771.80071929418
 21
849.4270373160679
 31
0.0
  0
CIRCLE
  5
16DA
330
1F
100
AcDbEntity
  8
実形
100
AcDbCircle
 10
1401.80071929418
 20
1427.517091367211
 30
0.0
 40
80.0
  0
CIRCLE
  5
16DB
330
1F
100
AcDbEntity
  8
実形
100
AcDbCircle
 10
1401.80071929418
 20
1427.517091367211
 30
0.0
 40
90.5
  0
TEXT
  5
16DC
330
1F
100
AcDbEntity
  8
寸法
100
AcDbText
 10
1626.062764984207
 20
1536.487175981035
 30
0.0
 40
25.0
  1
20R
100
AcDbText
  0
ARC
  5
16DE
330
1F
100
AcDbEntity
  8
実形
100
AcDbCircle
 10
1741.80071929418
 20
1222.517091367211
 30
0.0
 40
30.0
100
AcDbArc
 50
270.0
 51
0.0
  0
DIMENSION
  5
16DF
330
1F
100
AcDbEntity
  8
寸法
100
AcDbDimension
  2
*D25
 10
2000.748026144723
 20
1172.51709136721
 30
0.0
 11
1981.998026144722
 21
1235.017091367211
 31
0.0
 70
    32
 71
     5
 42
125.0000000000002
  3
ISO-25
100
AcDbAlignedDimension
 13
1893.572770125927
 23
1297.517091367211
 33
0.0
 14
1891.385270125927
 24
1172.51709136721
 34
0.0
 50
90.0
100
AcDbRotatedDimension
1001
ACAD
1000
DSTYLE
1002
{
1070
   279
1070
     1
1002
}
  0
DIMENSION
  5
16E0
330
1F
100
AcDbEntity
  8
寸法
100
AcDbDimension
  2
*D26
 10
2000.748026144723
 20
1297.517091367211
 30
0.0
 11
1981.998026144722
 21
1407.517091367211
 31
0.0
 70
    32
 71
     5
 42
220.0
  3
ISO-25
100
AcDbAlignedDimension
 13
1893.572770125927
 23
1517.517091367211
 33
0.0
 14
1893.572770125927
 24
1297.517091367211
 34
0.0
 50
90.0
100
AcDbRotatedDimension
1001
ACAD
1000
DSTYLE
1002
{
1070
   279
1070
     1
1002
}
  0
DIMENSION
  5
16E1
330
1F
100
AcDbEntity
  8
寸法
100
AcDbDimension
  2
*D27
 10
1913.045415166591
 20
1642.517091367211
 30
0.0
 11
1893.553820648629
 21
1716.916467768677
 31
0.0
 70
   160
 71
     5
 42
40.0
  3
ISO-25
100
AcDbAlignedDimension
 13
1791.80071929418
 23
1682.517091367211
 33
0.0
 14
1805.688632563393
 24
1642.517091367211
 34
0.0
 50
90.0
100
AcDbRotatedDimension
1001
ACAD
1000
DSTYLE
1002
{
1070
   279
1070
     2
1002
}
  0
LEADER
  5
16E2
330
1F
100
AcDbEntity
  8
寸法
100
AcDbLeader
  3
ISO-25
 76
     2
 10
1736.841793767892
 20
1624.819826947707
 30
0.0
 10
1688.69502564133
 20
1572.248772628747
 30
0.0
1001
ACAD
1000
DSTYLE
1002
{
1070
    41
1040
25.0
1070
   147
1040
6.25
1070
    77
1070
     0
1002
}
  0
LINE
  5
1A22
330
1F
100
AcDbEntity
  8
センター
 48
0.5
100
AcDbLine
 10
1021.895250841815
 20
1487.517091367211
 30
0.0
 11
1181.706187746546
 21
1487.517091367211
 31
0.0
  0
LINE
  5
1A24
330
1F
100
AcDbEntity
  8
センター
 48
0.5
100
AcDbLine
 10
1101.80071929418
 20
1567.422559819576
 30
0.0
 11
1101.80071929418
 21
1407.611622914845
 31
0.0
  0
CIRCLE
  5
1A26
330
1F
100
AcDbEntity
  8
実形
100
AcDbCircle
 10
1101.80071929418
 20
1487.517091367211
 30
0.0
 40
0.0000000000002274
  0
LINE
  5
1A2B
330
1F
100
AcDbEntity
  8
センター
 48
0.75
100
AcDbLine
 10
1279.986737833957
 20
1427.517091367211
 30
0.0
 11
1523.614700754404
 21
1427.517091367211
 31
0.0
  0
LINE
  5
1A2C
330
1F
100
AcDbEntity
  8
センター
 48
0.75
100
AcDbLine
 10
1401.80071929418
 20
1549.331072827435
 30
0.0
 11
1401.80071929418
 21
1305.703109906987
 31
0.0
  0
LINE
  5
1A4D
330
1F
100
AcDbEntity
  8
実形
100
AcDbLine
 10
1231.80071929418
 20
1497.517091367211
 30
0.0
 11
1251.80071929418
 21
1497.517091367211
 31
0.0
  0
LINE
  5
1A4E
330
1F
100
AcDbEntity
  8
実形
100
AcDbLine
 10
1251.80071929418
 20
1317.517091367211
 30
0.0
 11
1231.80071929418
 21
1317.517091367211
 31
0.0
  0
LINE
  5
1A4F
330
1F
100
AcDbEntity
  8
実形
100
AcDbLine
 10
2122.756977120949
 20
1177.517091367211
 30
0.0
 11
2122.756977120949
 21
1677.517091367211
 31
0.0
  0
LINE
  5
1A52
330
1F
100
AcDbEntity
  8
実形
100
AcDbLine
 10
2137.756977120949
 20
1209.517091367211
 30
0.0
 11
2137.756977120949
 21
1645.517091367211
 31
0.0
  0
LINE
  5
1A59
330
1F
100
AcDbEntity
  8
実形
100
AcDbLine
 10
2137.756977120949
 20
1209.517091367211
 30
0.0
 11
2137.756977120949
 21
1195.517091367211
 31
0.0
  0
LINE
  5
1A5A
330
1F
100
AcDbEntity
  8
実形
100
AcDbLine
 10
2134.756977120949
 20
1192.517091367211
 30
0.0
 11
2122.756977120949
 21
1192.517091367211
 31
0.0
  0
LINE
  5
1A5B
330
1F
100
AcDbEntity
  8
実形
100
AcDbLine
 10
2122.756977120949
 20
1182.517091367211
 30
0.0
 11
2138.756977120949
 21
1182.517091367211
 31
0.0
  0
ARC
  5
1A5C
330
1F
100
AcDbEntity
  8
実形
100
AcDbCircle
 10
2134.756977120949
 20
1195.517091367211
 30
0.0
 40
3.0
100
AcDbArc
 50
270.0
 51
0.0
  0
ARC
  5
1A5D
330
1F
100
AcDbEntity
  8
実形
100
AcDbCircle
 10
2140.756977120949
 20
1209.517091367211
 30
0.0
 40
3.0
100
AcDbArc
 50
90.0
 51
180.0
  0
LINE
  5
1A5E
330
1F
100
AcDbEntity
  8
実形
100
AcDbLine
 10
2312.756977120949
 20
1212.517091367211
 30
0.0
 11
2140.756977120949
 21
1212.517091367211
 31
0.0
  0
LINE
  5
1A61
330
1F
100
AcDbEntity
  8
実形
100
AcDbLine
 10
2332.756977120949
 20
1523.017091367211
 30
0.0
 11
2332.756977120949
 21
1342.017091367211
 31
0.0
  0
LINE
  5
1A62
330
1F
100
AcDbEntity
  8
実形
100
AcDbLine
 10
2332.756977120949
 20
1342.017091367211
 30
0.0
 11
2342.756977120949
 21
1342.017091367211
 31
0.0
  0
LINE
  5
1A64
330
1F
100
AcDbEntity
  8
実形
100
AcDbLine
 10
2342.756977120949
 20
1523.017091367211
 30
0.0
 11
2332.756977120949
 21
1523.017091367211
 31
0.0
  0
LINE
  5
1A69
330
1F
100
AcDbEntity
  8
実形
100
AcDbLine
 10
2122.756977120949
 20
1662.517091367211
 30
0.0
 11
2134.756977120949
 21
1662.517091367211
 31
0.0
  0
LINE
  5
1A6A
330
1F
100
AcDbEntity
  8
実形
100
AcDbLine
 10
2137.756977120949
 20
1659.517091367211
 30
0.0
 11
2137.756977120949
 21
1645.517091367211
 31
0.0
  0
LINE
  5
1A6C
330
1F
100
AcDbEntity
  8
実形
100
AcDbLine
 10
2122.756977120949
 20
1672.517091367211
 30
0.0
 11
2138.756977120949
 21
1672.517091367211
 31
0.0
  0
ARC
  5
1A6D
330
1F
100
AcDbEntity
  8
実形
100
AcDbCircle
 10
2134.756977120949
 20
1659.517091367211
 30
0.0
 40
3.0
100
AcDbArc
 50
0.0
 51
90.0
  0
ARC
  5
1A6E
330
1F
100
AcDbEntity
  8
実形
100
AcDbCircle
 10
2140.756977120949
 20
1645.517091367211
 30
0.0
 40
3.0
100
AcDbArc
 50
180.0
 51
270.0
  0
LINE
  5
1A6F
330
1F
100
AcDbEntity
  8
実形
100
AcDbLine
 10
2140.756977120949
 20
1642.517091367211
 30
0.0
 11
2312.756977120949
 21
1642.517091367211
 31
0.0
  0
LINE
  5
1A73
330
1F
100
AcDbEntity
  8
実形
100
AcDbLine
 10
2177.756977120949
 20
1317.517091367211
 30
0.0
 11
2177.756977120949
 21
1497.517091367211
 31
0.0
  0
LINE
  5
1A77
330
1F
100
AcDbEntity
  8
実形
100
AcDbLine
 10
2137.756977120949
 20
1517.517091367211
 30
0.0
 11
2177.756977120949
 21
1497.517091367211
 31
0.0
  0
LINE
  5
1A78
330
1F
100
AcDbEntity
  8
実形
100
AcDbLine
 10
2177.756977120949
 20
1497.517091367211
 30
0.0
 11
2177.756977120949
 21
1317.517091367211
 31
0.0
  0
LINE
  5
1A79
330
1F
100
AcDbEntity
  8
実形
100
AcDbLine
 10
2177.756977120949
 20
1317.517091367211
 30
0.0
 11
2137.756977120949
 21
1297.517091367211
 31
0.0
  0
LINE
  5
1A7A
330
1F
100
AcDbEntity
  8
センター
 48
0.6
100
AcDbLine
 10
2248.126288903856
 20
1432.517091367211
 30
0.0
 11
2407.432606870387
 21
1432.517091367211
 31
0.0
  0
LINE
  5
22EB
330
1F
100
AcDbEntity
  8
実形
100
AcDbLine
 10
1786.80071929418
 20
861.427037316068
 30
0.0
 11
1791.80071929418
 21
858.4270373160679
 31
0.0
  0
LINE
  5
22EE
330
1F
100
AcDbEntity
  8
実形
100
AcDbLine
 10
936.8007192941805
 20
861.427037316068
 30
0.0
 11
931.8007192941804
 21
858.4270373160679
 31
0.0
  0
LINE
  5
22F1
330
1F
100
AcDbEntity
  8
実形
100
AcDbLine
 10
2122.756977120949
 20
1677.517091367211
 30
0.0
 11
2125.756977120949
 21
1682.517091367211
 31
0.0
  0
LINE
  5
22F4
330
1F
100
AcDbEntity
  8
実形
100
AcDbLine
 10
2122.756977120949
 20
1177.517091367211
 30
0.0
 11
2125.756977120949
 21
1172.517091367211
 31
0.0
  0
DIMENSION
  5
2376
330
1F
100
AcDbEntity
  8
寸法
100
AcDbDimension
  2
*D28
 10
2728.681082205087
 20
412.2432904202559
 30
0.0
 11
2664.316393789775
 21
412.2432904202559
 31
0.0
 70
   160
  1
20
 71
     5
 42
186.7969232992291
  3
ISO-25
100
AcDbAlignedDimension
 13
2541.884158905858
 23
372.1758909109342
 33
0.0
 14
2728.681082205087
 24
372.1758909109342
 34
0.0
100
AcDbRotatedDimension
1001
ACAD
1000
DSTYLE
1002
{
1070
    41
1040
40.0
1070
    42
1040
20.0
1002
}
  0
DIMENSION
  5
2377
330
1F
100
AcDbEntity
  8
寸法
100
AcDbDimension
  2
*D29
 10
2592.040005874708
 20
372.1758909109342
 30
0.0
 11
2592.040005874708
 21
458.5949910234858
 31
0.0
 70
   160
  1
15
 71
     5
 42
140.0976924744225
  3
ISO-25
100
AcDbAlignedDimension
 13
2541.884158905858
 23
512.2735833853567
 33
0.0
 14
2541.884158905858
 24
372.1758909109342
 34
0.0
 50
90.0
100
AcDbRotatedDimension
1001
ACAD
1000
DSTYLE
1002
{
1070
    41
1040
40.0
1070
    42
1040
20.0
1002
}
  0
DIMENSION
  5
2378
330
1F
100
AcDbEntity
  8
寸法
100
AcDbDimension
  2
*D30
 10
2223.10679045253
 20
362.8360447459727
 30
0.0
 11
2204.35679045253
 21
437.5548140656651
 31
0.0
 70
    32
  1
16
 71
     5
 42
149.437538639384
  3
ISO-25
100
AcDbAlignedDimension
 13
2355.087235606629
 23
512.2735833853567
 33
0.0
 14
2355.087235606629
 24
362.8360447459727
 34
0.0
 50
90.0
100
AcDbRotatedDimension
1001
ACAD
1000
DSTYLE
1002
{
1070
    41
1040
40.0
1070
    42
1040
45.0
1002
}
  0
LINE
  5
237C
330
1F
100
AcDbEntity
  8
実形
100
AcDbLine
 10
2532.544312740895
 20
502.9337372203952
 30
0.0
 11
2532.544312740895
 21
372.1758909109341
 31
0.0
  0
LINE
  5
237D
330
1F
100
AcDbEntity
  8
実形
100
AcDbLine
 10
2541.884158905856
 20
502.9337372203952
 30
0.0
 11
2541.884158905856
 21
372.1758909109341
 31
0.0
  0
ARC
  5
237F
330
1F
100
AcDbEntity
  8
実形
100
AcDbCircle
 10
2719.341236040125
 20
362.8360447459727
 30
0.0
 40
9.3398461649615
100
AcDbArc
 50
0.0
 51
90.0
  0
LINE
  5
2380
330
1F
100
AcDbEntity
  8
実形
100
AcDbLine
 10
2541.884158905856
 20
362.8360447459727
 30
0.0
 11
2719.341236040125
 21
362.8360447459727
 31
0.0
  0
LINE
  5
2381
330
1F
100
AcDbEntity
  8
実形
100
AcDbLine
 10
2541.884158905856
 20
372.1758909109341
 30
0.0
 11
2719.341236040125
 21
372.1758909109341
 31
0.0
  0
ARC
  5
2382
330
1F
100
AcDbEntity
  8
実形
100
AcDbCircle
 10
2541.884158905856
 20
372.1758909109341
 30
0.0
 40
9.3398461649615
100
AcDbArc
 50
180.0
 51
270.0
  0
LINE
  5
2383
330
1F
100
AcDbEntity
  8
実形
100
AcDbLine
 10
2719.341236040125
 20
362.8360447459727
 30
0.0
 11
2719.341236040125
 21
297.4571215912422
 31
0.0
  0
LINE
  5
2386
330
1F
100
AcDbEntity
  8
実形
100
AcDbLine
 10
2728.681082205087
 20
362.8360447459727
 30
0.0
 11
2728.681082205087
 21
297.4571215912422
 31
0.0
  0
LINE
  5
2387
330
1F
100
AcDbEntity
  8
実形
100
AcDbLine
 10
2402.055437015107
 20
512.2735833853566
 30
0.0
 11
2532.544312740895
 21
512.2735833853567
 31
0.0
  0
LINE
  5
2388
330
1F
100
AcDbEntity
  8
実形
100
AcDbLine
 10
2403.755646575089
 20
502.9337372203952
 30
0.0
 11
2532.544312740895
 21
502.9337372203952
 31
0.0
  0
DIMENSION
  5
2389
330
1F
100
AcDbEntity
  8
寸法
100
AcDbDimension
  2
*D31
 10
2541.884158905858
 20
631.0664425252025
 30
0.0
 11
2448.485697256243
 21
649.8164425252025
 31
0.0
 70
    32
  1
20
 71
     5
 42
186.7969232992291
  3
ISO-25
100
AcDbAlignedDimension
 13
2355.087235606629
 23
512.2735833853567
 33
0.0
 14
2541.884158905858
 24
512.2735833853567
 34
0.0
100
AcDbRotatedDimension
1001
ACAD
1000
DSTYLE
1002
{
1070
    41
1040
40.0
1070
    42
1040
45.0
1002
}
  0
TEXT
  5
238C
330
1F
100
AcDbEntity
  8
実形
100
AcDbText
 10
2286.3618625044
 20
709.3150658778859
 30
0.0
 40
30.0
  1
ツバ折込み詳細図
 11
2286.3618625044
 21
705.3150658778859
 31
0.0
100
AcDbText
 73
     1
  0
LINE
  5
238D
330
1F
100
AcDbEntity
  8
実形
100
AcDbLine
 10
2271.460337134939
 20
702.0477478275561
 30
0.0
 11
2583.641817231674
 21
702.0477478275561
 31
0.0
  0
LINE
  5
238E
330
1F
100
AcDbEntity
  8
実形
100
AcDbLine
 10
2271.460337134939
 20
697.0477478275561
 30
0.0
 11
2583.641817231674
 21
697.0477478275561
 31
0.0
  0
LINE
  5
238F
330
1F
100
AcDbEntity
  8
実形
100
AcDbLine
 10
2355.087235606629
 20
472.1779607216391
 30
0.0
 11
2395.23834475078
 21
509.5898155481335
 31
0.0
  0
ARC
  5
2390
330
1F
100
AcDbEntity
  8
実形
100
AcDbCircle
 10
2402.055437015107
 20
502.2735833853565
 30
0.0
 40
10.0
100
AcDbArc
 50
90.0
 51
132.9773528395669
  0
LINE
  5
2391
330
1F
100
AcDbEntity
  8
実形
100
AcDbLine
 10
2361.691612942911
 20
465.5735833853566
 30
0.0
 11
2400.347100442926
 21
501.5918533017837
 31
0.0
  0
ARC
  5
2392
330
1F
100
AcDbEntity
  8
実形
100
AcDbCircle
 10
2403.755646575089
 20
497.9337372203952
 30
0.0
 40
5.0
100
AcDbArc
 50
90.0
 51
132.9773528395669
  0
LINE
  5
2393
330
1F
100
AcDbEntity
  8
実形
100
AcDbLine
 10
2361.691612942911
 20
465.5735833853566
 30
0.0
 11
2355.087235606629
 21
472.1779607216391
 31
0.0
  0
DIMENSION
  5
2394
330
1F
100
AcDbEntity
  8
寸法
100
AcDbDimension
  2
*D32
 10
2275.965638979034
 20
465.5735833853566
 30
0.0
 11
2250.075589207659
 21
489.5176380222683
 31
0.0
 70
   160
  1
5
 71
     5
 42
46.7000000000001
  3
ISO-25
100
AcDbAlignedDimension
 13
2355.087235606629
 23
512.2735833853567
 33
0.0
 14
2355.087235606629
 24
465.5735833853566
 34
0.0
 50
90.0
100
AcDbRotatedDimension
1001
ACAD
1000
DSTYLE
1002
{
1070
   279
1070
     2
1070
    41
1040
40.0
1070
    42
1040
45.0
1002
}
  0
DIMENSION
  5
2395
330
1F
100
AcDbEntity
  8
寸法
100
AcDbDimension
  2
*D33
 10
2401.786466431435
 20
584.7147419219727
 30
0.0
 11
2378.436851019031
 21
603.4647419219727
 31
0.0
 70
    32
  1
5
 71
     5
 42
46.69923082480636
  3
ISO-25
100
AcDbAlignedDimension
 13
2355.087235606629
 23
512.2735833853567
 33
0.0
 14
2401.786466431435
 24
512.2735833853567
 34
0.0
100
AcDbRotatedDimension
1001
ACAD
1000
DSTYLE
1002
{
1070
    41
1040
40.0
1070
    42
1040
45.0
1002
}
  0
ARC
  5
2397
330
1F
100
AcDbEntity
  8
実形
100
AcDbCircle
 10
2532.544312740895
 20
502.9337372203952
 30
0.0
 40
9.3398461649615
100
AcDbArc
 50
0.0
 51
90.0
  0
LINE
  5
243E
330
1F
100
AcDbEntity
  8
実形
100
AcDbLine
 10
1492.30071929418
 20
651.4270373160679
 30
0.0
 11
1311.30071929418
 21
651.4270373160679
 31
0.0
  0
LINE
  5
243F
330
1F
100
AcDbEntity
  8
実形
100
AcDbLine
 10
1159.80071929418
 20
651.4270373160679
 30
0.0
 11
1043.80071929418
 21
651.4270373160679
 31
0.0
  0
TEXT
  5
24E5
330
1F
100
AcDbEntity
  8
寸法
100
AcDbText
 10
1625.247242709962
 20
737.3234188389361
 30
0.0
 40
25.0
  1
20R
100
AcDbText
  0
LEADER
  5
24E6
330
1F
100
AcDbEntity
  8
0
100
AcDbLeader
  3
ISO-25
 40
25.0
 41
16.66666666666666
 76
     2
 10
1732.614616242215
 20
674.6587898268671
 30
0.0
 10
1656.715523686916
 20
733.1235552846447
 30
0.0
213
0.0
223
-12.5
233
0.0
1001
ACAD
1000
DSTYLE
1002
{
1070
    41
1040
25.0
1070
   147
1040
6.25
1070
    77
1070
     0
1070
    73
1070
     1
1070
    74
1070
     1
1070
   279
1070
     1
1070
   342
1005
DA
1002
}
  0
DIMENSION
  5
2583
330
1F
100
AcDbEntity
  8
実形
100
AcDbDimension
  2
*D34
 10
1159.30071929418
 20
481.6961869903116
 30
0.0
 11
1101.80071929418
 21
500.4461869903116
 31
0.0
 70
    32
 71
     5
 42
115.0
  3
ISO-25
100
AcDbAlignedDimension
 13
1044.30071929418
 23
651.4270373160679
 33
0.0
 14
1159.30071929418
 24
651.4270373160679
 34
0.0
100
AcDbRotatedDimension
1001
ACAD
1000
DSTYLE
1002
{
1070
   279
1070
     2
1070
   289
1070
     0
1070
   371
1070
    18
1070
   372
1070
    18
1002
}
  0
LINE
  5
2591
330
1F
100
AcDbEntity
  8
実形
100
AcDbLine
 10
1159.30071929418
 20
641.427037316068
 30
0.0
 11
1044.30071929418
 21
641.427037316068
 31
0.0
  0
LINE
  5
2592
330
1F
100
AcDbEntity
  8
実形
100
AcDbLine
 10
1145.80071929418
 20
651.4270373160679
 30
0.0
 11
1057.80071929418
 21
651.4270373160679
 31
0.0
  0
DIMENSION
  5
2593
330
1F
100
AcDbEntity
  8
実形
100
AcDbDimension
  2
*D35
 10
1148.80071929418
 20
522.1167654009923
 30
0.0
 11
1101.80071929418
 21
540.8667654009923
 31
0.0
 70
    32
 71
     5
 42
93.99999999999977
  3
ISO-25
100
AcDbAlignedDimension
 13
1054.80071929418
 23
651.4270373160679
 33
0.0
 14
1148.80071929418
 24
651.4270373160679
 34
0.0
100
AcDbRotatedDimension
1001
ACAD
1000
DSTYLE
1002
{
1070
   279
1070
     2
1070
   289
1070
     0
1070
   371
1070
    18
1070
   372
1070
    18
1002
}
  0
LINE
  5
25B2
330
1F
100
AcDbEntity
  8
実形
100
AcDbLine
 10
1492.30071929418
 20
641.427037316068
 30
0.0
 11
1311.30071929418
 21
641.427037316068
 31
0.0
  0
LINE
  5
25B7
330
1F
100
AcDbEntity
  8
実形
100
AcDbLine
 10
1481.80071929418
 20
651.427037316068
 30
0.0
 11
1321.80071929418
 21
651.4270373160679
 31
0.0
  0
DIMENSION
  5
25B9
330
1F
100
AcDbEntity
  8
実形
100
AcDbDimension
  2
*D36
 10
1481.80071929418
 20
527.1167654009923
 30
0.0
 11
1401.80071929418
 21
545.8667654009923
 31
0.0
 70
    32
 71
     5
 42
160.0
  3
ISO-25
100
AcDbAlignedDimension
 13
1321.80071929418
 23
651.4270373160679
 33
0.0
 14
1481.80071929418
 24
651.427037316068
 34
0.0
100
AcDbRotatedDimension
1001
ACAD
1000
DSTYLE
1002
{
1070
   279
1070
     2
1070
   289
1070
     0
1070
   371
1070
    18
1070
   372
1070
    18
1002
}
  0
DIMENSION
  5
25C6
330
1F
100
AcDbEntity
  8
実形
100
AcDbDimension
  2
*D37
 10
1492.30071929418
 20
486.6961869903116
 30
0.0
 11
1401.80071929418
 21
505.4461869903116
 31
0.0
 70
    32
 71
     5
 42
181.0
  3
ISO-25
100
AcDbAlignedDimension
 13
1311.30071929418
 23
651.4270373160679
 33
0.0
 14
1492.30071929418
 24
651.4270373160679
 34
0.0
100
AcDbRotatedDimension
1001
ACAD
1000
DSTYLE
1002
{
1070
   279
1070
     2
1070
   289
1070
     0
1070
   371
1070
    18
1070
   372
1070
    18
1002
}
  0
LINE
  5
25D3
330
1F
100
AcDbEntity
  8
実形
100
AcDbLine
 10
2342.756977120949
 20
1523.017091367211
 30
0.0
 11
2342.756977120949
 21
1342.017091367211
 31
0.0
  0
TEXT
  5
2661
330
1F
100
AcDbEntity
  8
寸法
100
AcDbText
 10
1078.1171367241
 20
738.4840251138857
 30
0.0
 40
25.0
  1
20R
100
AcDbText
  0
LEADER
  5
2662
330
1F
100
AcDbEntity
  8
0
100
AcDbLeader
  3
ISO-25
 40
25.0
 41
16.66666666666666
 76
     2
 10
994.4703268081557
 20
676.6256203606426
 30
0.0
 10
1057.869881980867
 20
729.7724992509775
 30
0.0
213
0.0
223
-12.5
233
0.0
1001
ACAD
1000
DSTYLE
1002
{
1070
    41
1040
25.0
1070
   147
1040
6.25
1070
    77
1070
     0
1070
    73
1070
     1
1070
    74
1070
     1
1070
   279
1070
     1
1070
   342
1005
DA
1002
}
  0
TEXT
  5
267F
330
1F
100
AcDbEntity
  8
寸法
100
AcDbText
 10
1766.68785378267
 20
1734.485169792831
 30
0.0
 40
25.0
  1
30R
100
AcDbText
  0
LEADER
  5
2680
330
1F
100
AcDbEntity
  8
寸法
100
AcDbLeader
  3
ISO-25
 76
     2
 10
1764.72403650954
 20
1664.845828298361
 30
0.0
 10
1796.668814692331
 20
1725.960012080809
 30
0.0
1001
ACAD
1000
DSTYLE
1002
{
1070
    41
1040
25.0
1070
   147
1040
6.25
1070
    77
1070
     0
1002
}
  0
ARC
  5
2681
330
1F
100
AcDbEntity
  8
実形
100
AcDbCircle
 10
1741.800719294181
 20
1632.517091367211
 30
0.0
 40
30.0
100
AcDbArc
 50
0.0
 51
90.0
  0
ARC
  5
2936
330
1F
100
AcDbEntity
  8
実形
100
AcDbCircle
 10
1731.800719294181
 20
1622.517091367211
 30
0.0
 40
20.0
100
AcDbArc
 50
359.9999999999999
 51
89.99999999999998
  0
ARC
  5
2937
330
1F
100
AcDbEntity
  8
実形
100
AcDbCircle
 10
1271.80071929418
 20
1622.517091367211
 30
0.0
 40
20.0
100
AcDbArc
 50
89.99999999999998
 51
180.0
  0
ARC
  5
2938
330
1F
100
AcDbEntity
  8
実形
100
AcDbCircle
 10
1731.80071929418
 20
1232.517091367211
 30
0.0
 40
20.0
100
AcDbArc
 50
270.0
 51
359.9999999999999
  0
ARC
  5
2939
330
1F
100
AcDbEntity
  8
実形
100
AcDbCircle
 10
1271.80071929418
 20
1232.517091367211
 30
0.0
 40
20.0
100
AcDbArc
 50
180.0
 51
270.0
  0
ARC
  5
293A
330
1F
100
AcDbEntity
  8
実形
100
AcDbCircle
 10
1211.80071929418
 20
1232.517091367211
 30
0.0
 40
20.0
100
AcDbArc
 50
270.0
 51
0.0
  0
ARC
  5
293B
330
1F
100
AcDbEntity
  8
実形
100
AcDbCircle
 10
991.8007192941804
 20
1577.517091367211
 30
0.0
 40
20.0
100
AcDbArc
 50
90.0
 51
180.0
  0
ARC
  5
293C
330
1F
100
AcDbEntity
  8
実形
100
AcDbCircle
 10
991.8007192941804
 20
1232.51709136721
 30
0.0
 40
20.0
100
AcDbArc
 50
180.0
 51
270.0
  0
ARC
  5
293D
330
1F
100
AcDbEntity
  8
実形
100
AcDbCircle
 10
1211.80071929418
 20
1577.517091367211
 30
0.0
 40
20.0
100
AcDbArc
 50
0.0
 51
90.0
  0
LINE
  5
2ADA
330
1F
100
AcDbEntity
  8
実形
100
AcDbLine
 10
1159.80071929418
 20
651.4270373160679
 30
0.0
 11
1211.80071929418
 21
651.4270373160679
 31
0.0
  0
LINE
  5
2ADB
330
1F
100
AcDbEntity
  8
実形
100
AcDbLine
 10
1043.80071929418
 20
651.4270373160679
 30
0.0
 11
991.8007192941804
 21
651.4270373160679
 31
0.0
  0
ARC
  5
2ADC
330
1F
100
AcDbEntity
  8
実形
100
AcDbCircle
 10
1211.80071929418
 20
671.4270373160679
 30
0.0
 40
20.0
100
AcDbArc
 50
270.0
 51
0.0
  0
ARC
  5
2ADD
330
1F
100
AcDbEntity
  8
実形
100
AcDbCircle
 10
991.8007192941804
 20
671.427037316068
 30
0.0
 40
20.0
100
AcDbArc
 50
180.0
 51
270.0
  0
LINE
  5
2ADF
330
1F
100
AcDbEntity
  8
実形
100
AcDbLine
 10
1311.30071929418
 20
651.4270373160679
 30
0.0
 11
1271.80071929418
 21
651.4270373160679
 31
0.0
  0
ARC
  5
2AE0
330
1F
100
AcDbEntity
  8
実形
100
AcDbCircle
 10
1271.80071929418
 20
671.427037316068
 30
0.0
 40
20.0
100
AcDbArc
 50
179.9999999999999
 51
270.0
  0
LINE
  5
2AE4
330
1F
100
AcDbEntity
  8
実形
100
AcDbLine
 10
1492.30071929418
 20
651.4270373160679
 30
0.0
 11
1732.570860587396
 21
660.6860022984652
 31
0.0
  0
ARC
  5
2AE5
330
1F
100
AcDbEntity
  8
実形
100
AcDbCircle
 10
1731.800719294181
 20
680.671168857403
 30
0.0
 40
20.0
100
AcDbArc
 50
272.2068378968116
 51
0.0000000000001272
  0
LINE
  5
2C79
330
1F
100
AcDbEntity
  8
実形
100
AcDbLine
 10
2332.756977120949
 20
1342.017091367211
 30
0.0
 11
2332.756977120949
 21
1232.517091367211
 31
0.0
  0
LINE
  5
2C7A
330
1F
100
AcDbEntity
  8
実形
100
AcDbLine
 10
2332.756977120949
 20
1523.017091367211
 30
0.0
 11
2332.756977120949
 21
1622.517091367211
 31
0.0
  0
ARC
  5
2C7B
330
1F
100
AcDbEntity
  8
実形
100
AcDbCircle
 10
2312.756977120949
 20
1622.517091367211
 30
0.0
 40
20.0
100
AcDbArc
 50
0.0
 51
89.99999999999992
  0
ARC
  5
2C7C
330
1F
100
AcDbEntity
  8
実形
100
AcDbCircle
 10
2312.756977120949
 20
1232.517091367211
 30
0.0
 40
20.0
100
AcDbArc
 50
270.0
 51
0.0
  0
LINE
  5
2CCD
330
1F
100
AcDbEntity
  8
実形
100
AcDbLine
 10
2142.114942049076
 20
1517.517091367211
 30
0.0
 11
2149.164307790066
 21
1517.517091367211
 31
0.0
  0
LINE
  5
2CCE
330
1F
100
AcDbEntity
  8
実形
100
AcDbLine
 10
2177.756977120949
 20
1500.421663366697
 30
0.0
 11
2177.756977120949
 21
1506.285228291392
 31
0.0
  0
LINE
  5
2CCF
330
1F
100
AcDbEntity
  8
実形
100
AcDbLine
 10
2177.756977120949
 20
1512.284974729753
 30
0.0
 11
2177.756977120949
 21
1517.51709136721
 31
0.0
  0
LINE
  5
2CD1
330
1F
100
AcDbEntity
  8
実形
100
AcDbLine
 10
2157.880237646332
 20
1517.517091367211
 30
0.0
 11
2177.756977120949
 21
1517.51709136721
 31
0.0
  0
DIMENSION
  5
2CD2
330
1F
100
AcDbEntity
  8
実形
100
AcDbDimension
  2
*D38
 10
2177.756977120949
 20
1550.569449279112
 30
0.0
 11
2163.743057511845
 21
1572.50817979203
 31
0.0
 70
   160
 71
     5
 42
39.99999999999955
  3
ISO-25
100
AcDbAlignedDimension
 13
2137.756977120949
 23
1470.358071531854
 33
0.0
 14
2177.756977120949
 24
1470.358071531854
 34
0.0
100
AcDbRotatedDimension
1001
ACAD
1000
DSTYLE
1002
{
1070
   282
1070
     1
1070
   281
1070
     1
1070
    76
1070
     1
1070
    75
1070
     1
1070
   172
1070
     1
1070
   279
1070
     2
1070
   289
1070
     0
1070
   371
1070
    18
1070
   372
1070
    18
1002
}
  0
LINE
  5
2CEC
330
1F
100
AcDbEntity
  8
実形
100
AcDbLine
 10
2177.756977120949
 20
1535.358071531853
 30
0.0
 11
2177.756977120949
 21
1550.569449279112
 31
0.0
  0
LINE
  5
2CED
330
1F
100
AcDbEntity
  8
実形
100
AcDbLine
 10
2177.756977120949
 20
1550.569449279112
 30
0.0
 11
2137.756977120949
 21
1550.569449279112
 31
0.0
  0
TEXT
  5
2D2D
330
1F
100
AcDbEntity
  8
実形
370
    18
100
AcDbText
 10
2172.61326429807
 20
1546.337940971172
 30
0.0
 40
10.0
  1
●
100
AcDbText
  0
TEXT
  5
2D35
330
1F
100
AcDbEntity
  8
実形
370
    18
100
AcDbText
 10
2133.629822716182
 20
1546.337940971172
 30
0.0
 40
10.0
  1
●
100
AcDbText
  0
DIMENSION
  5
2DCE
330
1F
100
AcDbEntity
  8
実形
100
AcDbDimension
  2
*D39
 10
2229.921369724463
 20
1317.517091367211
 30
0.0
 11
2211.171369724463
 21
1407.517091367211
 31
0.0
 70
    32
 71
     5
 42
180.0
  3
ISO-25
100
AcDbAlignedDimension
 13
2136.147657562644
 23
1497.517091367211
 33
0.0
 14
2136.147657562644
 24
1317.517091367211
 34
0.0
 50
90.0
100
AcDbRotatedDimension
1001
ACAD
1000
DSTYLE
1002
{
1070
   279
1070
     2
1070
   289
1070
     0
1070
   371
1070
    18
1070
   372
1070
    18
1002
}
  0
DIMENSION
  5
2DE4
330
1F
100
AcDbEntity
  8
実形
100
AcDbDimension
  2
*D40
 10
2229.921369724463
 20
1317.517091367211
 30
0.0
 11
2211.171369724463
 21
1552.35624539669
 31
0.0
 70
   160
  1
20
 71
     5
 42
199.9999999999998
  3
ISO-25
100
AcDbAlignedDimension
 13
2134.971728925037
 23
1517.51709136721
 33
0.0
 14
2165.158701045664
 24
1317.517091367211
 34
0.0
 50
90.0
100
AcDbRotatedDimension
1001
ACAD
1000
DSTYLE
1002
{
1070
   282
1070
     1
1070
   281
1070
     1
1070
   279
1070
     2
1070
   289
1070
     0
1070
   371
1070
    18
1070
   372
1070
    18
1002
}
  0
LINE
  5
2E32
330
1F
100
AcDbEntity
  8
実形
100
AcDbLine
 10
2229.921369724463
 20
1497.517091367211
 30
0.0
 11
2229.921369724463
 21
1517.51709136721
 31
0.0
  0
TEXT
  5
2E3B
330
1F
100
AcDbEntity
  8
実形
370
    18
100
AcDbText
 10
2224.684148970508
 20
1511.925628855797
 30
0.0
 40
10.0
  1
●
100
AcDbText
  0
LINE
  5
2E3D
330
1F
100
AcDbEntity
  8
実形
100
AcDbLine
 10
2142.980511113565
 20
1297.517091367211
 30
0.0
 11
2153.932848178541
 21
1297.517091367211
 31
0.0
  0
LINE
  5
2E3E
330
1F
100
AcDbEntity
  8
実形
100
AcDbLine
 10
2177.756977120949
 20
1314.431253413818
 30
0.0
 11
2177.756977120949
 21
1307.02393246841
 31
0.0
  0
LINE
  5
2E3F
330
1F
100
AcDbEntity
  8
実形
100
AcDbLine
 10
2177.756977120949
 20
1307.517091367211
 30
0.0
 11
2177.756977120949
 21
1307.261303669938
 31
0.0
  0
LINE
  5
2E40
330
1F
100
AcDbEntity
  8
実形
100
AcDbLine
 10
2177.756977120949
 20
1302.517091367211
 30
0.0
 11
2177.756977120949
 21
1297.517091367211
 31
0.0
  0
LINE
  5
2E42
330
1F
100
AcDbEntity
  8
実形
100
AcDbLine
 10
2162.285047939233
 20
1297.517091367211
 30
0.0
 11
2177.756977120949
 21
1297.517091367211
 31
0.0
  0
DIMENSION
  5
2E43
330
1F
100
AcDbEntity
  8
実形
100
AcDbDimension
  2
*D41
 10
2230.158701045664
 20
1297.517091367211
 30
0.0
 11
2211.408701045664
 21
1266.774010556846
 31
0.0
 70
   160
  1
20
 71
     5
 42
219.9999999999998
  3
ISO-25
100
AcDbAlignedDimension
 13
2157.880237646332
 23
1517.517091367211
 33
0.0
 14
2137.756977120949
 24
1297.517091367211
 34
0.0
 50
90.0
100
AcDbRotatedDimension
1001
ACAD
1000
DSTYLE
1002
{
1070
   281
1070
     1
1070
   282
1070
     1
1070
   279
1070
     2
1070
   289
1070
     0
1070
   371
1070
    18
1070
   372
1070
    18
1002
}
  0
LINE
  5
2E8E
330
1F
100
AcDbEntity
  8
実形
100
AcDbLine
 10
2229.921369724463
 20
1315.329591367211
 30
0.0
 11
2229.921369724463
 21
1297.517091367211
 31
0.0
  0
LINE
  5
2E8F
330
1F
100
AcDbEntity
  8
実形
100
AcDbLine
 10
2229.921369724463
 20
1297.517091367211
 30
0.0
 11
2229.921369724463
 21
1317.517091367211
 31
0.0
  0
TEXT
  5
2E98
330
1F
100
AcDbEntity
  8
実形
370
    18
100
AcDbText
 10
2225.78003923965
 20
1292.844454381977
 30
0.0
 40
10.0
  1
●
100
AcDbText
  0
LINE
  5
309F
330
1F
100
AcDbEntity
  8
実形
  6
ACAD_ISO08W100
100
AcDbLine
 10
2322.756977120949
 20
1622.517091367211
 30
0.0
 11
2322.756977120949
 21
1232.517091367211
 31
0.0
  0
ARC
  5
30A2
330
1F
100
AcDbEntity
  8
実形
100
AcDbCircle
 10
2302.756977120949
 20
1622.517091367211
 30
0.0
 40
20.0
100
AcDbArc
 50
0.0
 51
90.0
  0
ARC
  5
30A3
330
1F
100
AcDbEntity
  8
実形
100
AcDbCircle
 10
2302.756977120949
 20
1232.517091367211
 30
0.0
 40
20.0
100
AcDbArc
 50
270.0
 51
0.0
  0
DIMENSION
  5
3224
330
1F
100
AcDbEntity
  8
実形
100
AcDbDimension
  2
*D43
 10
2322.756977120949
 20
1090.640767961284
 30
0.0
 11
2087.585491058002
 21
1109.390767961284
 31
0.0
 70
   160
  1
15
 71
     5
 42
200.0000000000004
  3
ISO-25
100
AcDbAlignedDimension
 13
2122.756977120949
 23
1198.992507324763
 33
0.0
 14
2322.756977120949
 24
1198.992507324763
 34
0.0
100
AcDbRotatedDimension
1001
ACAD
1000
DSTYLE
1002
{
1070
   282
1070
     1
1070
   281
1070
     1
1070
    76
1070
     1
1070
    75
1070
     1
1070
   279
1070
     2
1070
   289
1070
     0
1070
   371
1070
    18
1070
   372
1070
    18
1002
}
  0
DIMENSION
  5
3231
330
1F
100
AcDbEntity
  8
実形
100
AcDbDimension
  2
*D44
 10
2322.756977120949
 20
1090.640767961284
 30
0.0
 11
2230.256977120949
 21
1109.390767961284
 31
0.0
 70
    32
 71
     5
 42
185.0000000000009
  3
ISO-25
100
AcDbAlignedDimension
 13
2137.756977120949
 23
1198.992507324763
 33
0.0
 14
2322.756977120949
 24
1198.992507324763
 34
0.0
100
AcDbRotatedDimension
1001
ACAD
1000
DSTYLE
1002
{
1070
   279
1070
     2
1070
   289
1070
     0
1070
   371
1070
    18
1070
   372
1070
    18
1002
}
  0
LINE
  5
325D
330
1F
100
AcDbEntity
  8
実形
100
AcDbLine
 10
2122.756977120949
 20
1133.992507324763
 30
0.0
 11
2122.756977120949
 21
1090.640767961284
 31
0.0
  0
LINE
  5
325E
330
1F
100
AcDbEntity
  8
実形
100
AcDbLine
 10
2122.756977120949
 20
1090.640767961284
 30
0.0
 11
2137.756977120949
 21
1090.640767961284
 31
0.0
  0
TEXT
  5
3281
330
1F
100
AcDbEntity
  8
実形
370
    18
100
AcDbText
 10
2118.025726592987
 20
1085.884973442926
 30
0.0
 40
10.0
  1
●
100
AcDbText
  0
DIMENSION
  5
3286
330
1F
100
AcDbEntity
  8
実形
100
AcDbDimension
  2
*D45
 10
2322.756977120949
 20
1042.418202794422
 30
0.0
 11
2234.901254862718
 21
1061.168202794422
 31
0.0
 70
   160
 71
     5
 42
200.0000000000004
  3
ISO-25
100
AcDbAlignedDimension
 13
2122.756977120949
 23
1198.992507324763
 33
0.0
 14
2322.756977120949
 24
1198.992507324763
 34
0.0
100
AcDbRotatedDimension
1001
ACAD
1000
DSTYLE
1002
{
1070
   279
1070
     2
1070
   289
1070
     0
1070
   371
1070
    18
1070
   372
1070
    18
1002
}
  0
DIMENSION
  5
32CD
330
1F
100
AcDbEntity
  8
実形
100
AcDbDimension
  2
*D46
 10
2332.756977120949
 20
1042.418202794422
 30
0.0
 11
2365.375048854876
 21
1061.168202794422
 31
0.0
 70
   160
  1
10
 71
     5
 42
210.0
  3
ISO-25
100
AcDbAlignedDimension
 13
2122.756977120949
 23
1154.106076856789
 33
0.0
 14
2332.756977120949
 24
1154.106076856789
 34
0.0
100
AcDbRotatedDimension
1001
ACAD
1000
DSTYLE
1002
{
1070
   282
1070
     1
1070
   281
1070
     1
1070
   279
1070
     2
1070
   289
1070
     0
1070
   371
1070
    18
1070
   372
1070
    18
1002
}
  0
LINE
  5
333A
330
1F
100
AcDbEntity
  8
実形
100
AcDbLine
 10
2322.756977120949
 20
1042.418202794422
 30
0.0
 11
2332.756977120949
 21
1042.418202794422
 31
0.0
  0
TEXT
  5
3343
330
1F
100
AcDbEntity
  8
実形
370
    18
100
AcDbText
 10
2328.492206503968
 20
1037.380414347366
 30
0.0
 40
10.0
  1
●
100
AcDbText
  0
DIMENSION
  5
3344
330
1F
100
AcDbEntity
  8
実形
100
AcDbDimension
  2
*D47
 10
2332.756977120949
 20
989.8704398109293
 30
0.0
 11
2227.756977120949
 21
1008.620439810929
 31
0.0
 70
    32
 71
     5
 42
210.0
  3
ISO-25
100
AcDbAlignedDimension
 13
2122.756977120949
 23
1154.106076856789
 33
0.0
 14
2332.756977120949
 24
1123.476731055188
 34
0.0
100
AcDbRotatedDimension
1001
ACAD
1000
DSTYLE
1002
{
1070
   279
1070
     2
1070
   289
1070
     0
1070
   371
1070
    18
1070
   372
1070
    18
1002
}
  0
DIMENSION
  5
3351
330
1F
100
AcDbEntity
  8
実形
100
AcDbDimension
  2
*D48
 10
2342.756977120949
 20
989.8704398109293
 30
0.0
 11
2371.837458497568
 21
1008.620439810929
 31
0.0
 70
   160
  1
8
 71
     5
 42
219.9999999999995
  3
ISO-25
100
AcDbAlignedDimension
 13
2122.756977120949
 23
1154.106076856789
 33
0.0
 14
2342.756977120949
 24
1142.403242481072
 34
0.0
100
AcDbRotatedDimension
1001
ACAD
1000
DSTYLE
1002
{
1070
   282
1070
     1
1070
   281
1070
     1
1070
    76
1070
     1
1070
    75
1070
     1
1070
   279
1070
     2
1070
   289
1070
     0
1070
   371
1070
    18
1070
   372
1070
    18
1002
}
  0
LINE
  5
339E
330
1F
100
AcDbEntity
  8
実形
100
AcDbLine
 10
2332.756977120949
 20
989.8704398109293
 30
0.0
 11
2342.825504049793
 21
989.8704398109293
 31
0.0
  0
LINE
  5
339F
330
1F
100
AcDbEntity
  8
実形
100
AcDbLine
 10
2342.825504049793
 20
989.8704398109293
 30
0.0
 11
2342.825504049793
 21
1038.095311348708
 31
0.0
  0
TEXT
  5
33B0
330
1F
100
AcDbEntity
  8
実形
370
    18
100
AcDbText
 10
2337.901372735658
 20
984.7294690157506
 30
0.0
 40
10.0
  1
●
100
AcDbText
  0
DIMENSION
  5
33B1
330
1F
100
AcDbEntity
  8
実形
100
AcDbDimension
  2
*D49
 10
2342.756977120949
 20
938.7570792024162
 30
0.0
 11
2232.756977120949
 21
957.5070792024162
 31
0.0
 70
    32
  1
218
 71
     5
 42
219.9999999999995
  3
ISO-25
100
AcDbAlignedDimension
 13
2122.756977120949
 23
1154.106076856789
 33
0.0
 14
2342.756977120949
 24
1063.046778957103
 34
0.0
100
AcDbRotatedDimension
1001
ACAD
1000
DSTYLE
1002
{
1070
   279
1070
     2
1070
   289
1070
     0
1070
   371
1070
    18
1070
   372
1070
    18
1002
}
  0
LINE
  5
340C
330
1F
100
AcDbEntity
  8
実形
100
AcDbLine
 10
600.8444614674117
 20
1177.517091367211
 30
0.0
 11
600.8444614674117
 21
1677.517091367211
 31
0.0
  0
LINE
  5
340D
330
1F
100
AcDbEntity
  8
実形
100
AcDbLine
 10
585.8444614674119
 20
1600.51709136721
 30
0.0
 11
585.8444614674117
 21
1645.517091367211
 31
0.0
  0
LINE
  5
340E
330
1F
100
AcDbEntity
  8
実形
100
AcDbLine
 10
585.8444614674117
 20
1209.517091367211
 30
0.0
 11
585.8444614674117
 21
1195.517091367211
 31
0.0
  0
LINE
  5
340F
330
1F
100
AcDbEntity
  8
実形
100
AcDbLine
 10
588.8444614674117
 20
1192.517091367211
 30
0.0
 11
600.8444614674117
 21
1192.517091367211
 31
0.0
  0
LINE
  5
3410
330
1F
100
AcDbEntity
  8
実形
100
AcDbLine
 10
600.8444614674117
 20
1182.517091367211
 30
0.0
 11
584.8444614674117
 21
1182.517091367211
 31
0.0
  0
ARC
  5
3411
330
1F
100
AcDbEntity
  8
実形
100
AcDbCircle
 10
588.8444614674117
 20
1195.517091367211
 30
0.0
 40
3.0
100
AcDbArc
 50
180.0
 51
270.0
  0
ARC
  5
3412
330
1F
100
AcDbEntity
  8
実形
100
AcDbCircle
 10
582.8444614674118
 20
1209.517091367211
 30
0.0
 40
3.0
100
AcDbArc
 50
0.000000000000007
 51
90.0
  0
LINE
  5
3413
330
1F
100
AcDbEntity
  8
実形
100
AcDbLine
 10
419.9440276007641
 20
1212.517091367211
 30
0.0
 11
582.8444614674118
 21
1212.517091367211
 31
0.0
  0
LINE
  5
3414
330
1F
100
AcDbEntity
  8
実形
100
AcDbLine
 10
390.8444614674117
 20
1578.017091367211
 30
0.0
 11
390.8444614674118
 21
1429.517091367211
 31
0.0
  0
LINE
  5
3417
330
1F
100
AcDbEntity
  8
実形
100
AcDbLine
 10
600.8444614674117
 20
1662.517091367211
 30
0.0
 11
588.8444614674117
 21
1662.517091367211
 31
0.0
  0
LINE
  5
3418
330
1F
100
AcDbEntity
  8
実形
100
AcDbLine
 10
585.8444614674117
 20
1659.517091367211
 30
0.0
 11
585.8444614674117
 21
1645.517091367211
 31
0.0
  0
LINE
  5
3419
330
1F
100
AcDbEntity
  8
実形
100
AcDbLine
 10
600.8444614674117
 20
1672.517091367211
 30
0.0
 11
584.8444614674117
 21
1672.517091367211
 31
0.0
  0
ARC
  5
341A
330
1F
100
AcDbEntity
  8
実形
100
AcDbCircle
 10
588.8444614674117
 20
1659.517091367211
 30
0.0
 40
3.0
100
AcDbArc
 50
90.0
 51
180.0
  0
LINE
  5
341E
330
1F
100
AcDbEntity
  8
実形
100
AcDbLine
 10
545.8444614674117
 20
1317.517091367211
 30
0.0
 11
545.8444614674117
 21
1497.517091367211
 31
0.0
  0
LINE
  5
341F
330
1F
100
AcDbEntity
  8
実形
100
AcDbLine
 10
585.8444614674117
 20
1517.517091367211
 30
0.0
 11
545.8444614674117
 21
1497.517091367211
 31
0.0
  0
LINE
  5
3420
330
1F
100
AcDbEntity
  8
実形
100
AcDbLine
 10
545.8444614674117
 20
1497.517091367211
 30
0.0
 11
545.8444614674117
 21
1317.517091367211
 31
0.0
  0
LINE
  5
3421
330
1F
100
AcDbEntity
  8
実形
100
AcDbLine
 10
545.8444614674117
 20
1317.517091367211
 30
0.0
 11
585.8444614674117
 21
1297.517091367211
 31
0.0
  0
LINE
  5
3422
330
1F
100
AcDbEntity
  8
センター
 48
0.6
100
AcDbLine
 10
444.6540636906865
 20
1487.517091367211
 30
0.0
 11
316.1688317179741
 21
1487.517091367211
 31
0.0
  0
LINE
  5
3423
330
1F
100
AcDbEntity
  8
実形
100
AcDbLine
 10
600.8444614674117
 20
1677.517091367211
 30
0.0
 11
597.8444614674117
 21
1682.517091367211
 31
0.0
  0
LINE
  5
3424
330
1F
100
AcDbEntity
  8
実形
100
AcDbLine
 10
600.8444614674117
 20
1177.517091367211
 30
0.0
 11
597.8444614674117
 21
1172.517091367211
 31
0.0
  0
LINE
  5
3425
330
1F
100
AcDbEntity
  8
実形
100
AcDbLine
 10
380.8444614674117
 20
1545.017091367211
 30
0.0
 11
380.8444614674116
 21
1430.017091367211
 31
0.0
  0
LINE
  5
342A
330
1F
100
AcDbEntity
  8
実形
100
AcDbLine
 10
390.8444614674118
 20
1523.017091367211
 30
0.0
 11
390.8444614674118
 21
1577.517091367211
 31
0.0
  0
LINE
  5
342C
330
1F
100
AcDbEntity
  8
実形
100
AcDbLine
 10
581.4864965392843
 20
1517.517091367211
 30
0.0
 11
574.4371307982946
 21
1517.517091367211
 31
0.0
  0
LINE
  5
342D
330
1F
100
AcDbEntity
  8
実形
100
AcDbLine
 10
565.721200942029
 20
1517.517091367211
 30
0.0
 11
545.8444614674122
 21
1517.51709136721
 31
0.0
  0
LINE
  5
342E
330
1F
100
AcDbEntity
  8
実形
100
AcDbLine
 10
545.8444614674117
 20
1500.421663366697
 30
0.0
 11
545.8444614674117
 21
1506.285228291392
 31
0.0
  0
LINE
  5
342F
330
1F
100
AcDbEntity
  8
実形
100
AcDbLine
 10
545.8444614674122
 20
1512.284974729753
 30
0.0
 11
545.8444614674122
 21
1517.51709136721
 31
0.0
  0
DIMENSION
  5
3430
330
1F
100
AcDbEntity
  8
実形
100
AcDbDimension
  2
*D57
 10
545.8444614674122
 20
1550.569449279112
 30
0.0
 11
559.8583810765157
 21
1572.50817979203
 31
0.0
 70
   160
 71
     5
 42
39.99999999999955
  3
ISO-25
100
AcDbAlignedDimension
 13
585.8444614674117
 23
1470.358071531854
 33
0.0
 14
545.8444614674122
 24
1470.358071531854
 34
0.0
 50
180.0
100
AcDbRotatedDimension
1001
ACAD
1000
DSTYLE
1002
{
1070
   282
1070
     1
1070
   281
1070
     1
1070
    76
1070
     1
1070
    75
1070
     1
1070
   172
1070
     1
1070
   279
1070
     2
1070
   289
1070
     0
1070
   371
1070
    18
1070
   372
1070
    18
1002
}
  0
LINE
  5
3431
330
1F
100
AcDbEntity
  8
実形
100
AcDbLine
 10
545.8444614674122
 20
1535.358071531853
 30
0.0
 11
545.8444614674122
 21
1550.569449279112
 31
0.0
  0
LINE
  5
3432
330
1F
100
AcDbEntity
  8
実形
100
AcDbLine
 10
545.8444614674122
 20
1550.569449279112
 30
0.0
 11
585.8444614674117
 21
1550.569449279112
 31
0.0
  0
TEXT
  5
3433
330
1F
100
AcDbEntity
  8
実形
370
    18
100
AcDbText
 10
550.9881742902908
 20
1546.337940971172
 30
0.0
 40
10.0
  1
●
 71
     2
100
AcDbText
  0
TEXT
  5
3434
330
1F
100
AcDbEntity
  8
実形
370
    18
100
AcDbText
 10
589.9716158721785
 20
1546.337940971172
 30
0.0
 40
10.0
  1
●
 71
     2
100
AcDbText
  0
DIMENSION
  5
3435
330
1F
100
AcDbEntity
  8
実形
100
AcDbDimension
  2
*D58
 10
493.6800688638977
 20
1317.517091367211
 30
0.0
 11
474.9300688638975
 21
1407.517091367211
 31
0.0
 70
    32
 71
     5
 42
180.0
  3
ISO-25
100
AcDbAlignedDimension
 13
587.453781025717
 23
1497.517091367211
 33
0.0
 14
587.453781025717
 24
1317.517091367211
 34
0.0
 50
90.0
100
AcDbRotatedDimension
1001
ACAD
1000
DSTYLE
1002
{
1070
   279
1070
     2
1070
   289
1070
     0
1070
   371
1070
    18
1070
   372
1070
    18
1002
}
  0
DIMENSION
  5
3436
330
1F
100
AcDbEntity
  8
実形
100
AcDbDimension
  2
*D59
 10
493.6800688638977
 20
1317.517091367211
 30
0.0
 11
512.4300688638982
 21
1552.35624539669
 31
0.0
 70
   160
  1
20
 71
     5
 42
199.9999999999998
  3
ISO-25
100
AcDbAlignedDimension
 13
588.6297096633243
 23
1517.51709136721
 33
0.0
 14
558.4427375426967
 24
1317.517091367211
 34
0.0
 50
90.0
100
AcDbRotatedDimension
1001
ACAD
1000
DSTYLE
1002
{
1070
   282
1070
     1
1070
   281
1070
     1
1070
   279
1070
     2
1070
   289
1070
     0
1070
   371
1070
    18
1070
   372
1070
    18
1002
}
  0
LINE
  5
3437
330
1F
100
AcDbEntity
  8
実形
100
AcDbLine
 10
493.6800688638977
 20
1497.517091367211
 30
0.0
 11
493.6800688638977
 21
1517.51709136721
 31
0.0
  0
TEXT
  5
3438
330
1F
100
AcDbEntity
  8
実形
370
    18
100
AcDbText
 10
498.9172896178533
 20
1511.925628855797
 30
0.0
 40
10.0
  1
●
 71
     2
100
AcDbText
  0
LINE
  5
343A
330
1F
100
AcDbEntity
  8
実形
100
AcDbLine
 10
580.6209274747962
 20
1297.517091367211
 30
0.0
 11
569.6685904098194
 21
1297.517091367211
 31
0.0
  0
LINE
  5
343B
330
1F
100
AcDbEntity
  8
実形
100
AcDbLine
 10
561.3163906491281
 20
1297.517091367211
 30
0.0
 11
545.8444614674117
 21
1297.517091367211
 31
0.0
  0
LINE
  5
343C
330
1F
100
AcDbEntity
  8
実形
100
AcDbLine
 10
545.8444614674117
 20
1314.431253413818
 30
0.0
 11
545.8444614674117
 21
1307.02393246841
 31
0.0
  0
LINE
  5
343D
330
1F
100
AcDbEntity
  8
実形
100
AcDbLine
 10
545.8444614674117
 20
1307.517091367211
 30
0.0
 11
545.8444614674117
 21
1307.261303669938
 31
0.0
  0
LINE
  5
343E
330
1F
100
AcDbEntity
  8
実形
100
AcDbLine
 10
545.8444614674117
 20
1302.517091367211
 30
0.0
 11
545.8444614674117
 21
1297.517091367211
 31
0.0
  0
DIMENSION
  5
343F
330
1F
100
AcDbEntity
  8
実形
100
AcDbDimension
  2
*D60
 10
493.4427375426967
 20
1297.517091367211
 30
0.0
 11
512.1927375426971
 21
1266.774010556846
 31
0.0
 70
   160
  1
20
 71
     5
 42
219.9999999999998
  3
ISO-25
100
AcDbAlignedDimension
 13
565.721200942029
 23
1517.517091367211
 33
0.0
 14
585.8444614674117
 24
1297.517091367211
 34
0.0
 50
90.0
100
AcDbRotatedDimension
1001
ACAD
1000
DSTYLE
1002
{
1070
   281
1070
     1
1070
   282
1070
     1
1070
   279
1070
     2
1070
   289
1070
     0
1070
   371
1070
    18
1070
   372
1070
    18
1002
}
  0
LINE
  5
3440
330
1F
100
AcDbEntity
  8
実形
100
AcDbLine
 10
493.6800688638977
 20
1315.329591367211
 30
0.0
 11
493.6800688638977
 21
1297.517091367211
 31
0.0
  0
LINE
  5
3441
330
1F
100
AcDbEntity
  8
実形
100
AcDbLine
 10
493.6800688638977
 20
1297.517091367211
 30
0.0
 11
493.6800688638977
 21
1317.517091367211
 31
0.0
  0
TEXT
  5
3442
330
1F
100
AcDbEntity
  8
実形
370
    18
100
AcDbText
 10
497.8213993487115
 20
1292.844454381977
 30
0.0
 40
10.0
  1
●
 71
     2
100
AcDbText
  0
DIMENSION
  5
3443
330
1F
100
AcDbEntity
  8
実形
100
AcDbDimension
  2
*D50
 10
400.8444614674113
 20
1090.640767961284
 30
0.0
 11
636.0159475303589
 21
1109.390767961284
 31
0.0
 70
   160
  1
15
 71
     5
 42
200.0000000000004
  3
ISO-25
100
AcDbAlignedDimension
 13
600.8444614674117
 23
1198.992507324763
 33
0.0
 14
400.8444614674113
 24
1198.992507324763
 34
0.0
 50
180.0
100
AcDbRotatedDimension
1001
ACAD
1000
DSTYLE
1002
{
1070
   282
1070
     1
1070
   281
1070
     1
1070
    76
1070
     1
1070
    75
1070
     1
1070
   279
1070
     2
1070
   289
1070
     0
1070
   371
1070
    18
1070
   372
1070
    18
1002
}
  0
DIMENSION
  5
3444
330
1F
100
AcDbEntity
  8
実形
100
AcDbDimension
  2
*D51
 10
400.8444614674113
 20
1090.640767961284
 30
0.0
 11
493.3444614674117
 21
1109.390767961284
 31
0.0
 70
    32
  1
187
 71
     5
 42
185.0000000000009
  3
ISO-25
100
AcDbAlignedDimension
 13
585.8444614674121
 23
1198.992507324763
 33
0.0
 14
400.8444614674113
 24
1198.992507324763
 34
0.0
 50
180.0
100
AcDbRotatedDimension
1001
ACAD
1000
DSTYLE
1002
{
1070
   279
1070
     2
1070
   289
1070
     0
1070
   371
1070
    18
1070
   372
1070
    18
1002
}
  0
LINE
  5
3445
330
1F
100
AcDbEntity
  8
実形
100
AcDbLine
 10
600.8444614674117
 20
1133.992507324763
 30
0.0
 11
600.8444614674117
 21
1090.640767961284
 31
0.0
  0
LINE
  5
3446
330
1F
100
AcDbEntity
  8
実形
100
AcDbLine
 10
600.8444614674117
 20
1090.640767961284
 30
0.0
 11
585.8444614674121
 21
1090.640767961284
 31
0.0
  0
TEXT
  5
3447
330
1F
100
AcDbEntity
  8
実形
370
    18
100
AcDbText
 10
605.5757119953741
 20
1085.884973442926
 30
0.0
 40
10.0
  1
●
 71
     2
100
AcDbText
  0
DIMENSION
  5
3448
330
1F
100
AcDbEntity
  8
実形
100
AcDbDimension
  2
*D52
 10
400.8444614674113
 20
1042.418202794422
 30
0.0
 11
488.700183725643
 21
1061.168202794422
 31
0.0
 70
   160
  1
202
 71
     5
 42
200.0000000000004
  3
ISO-25
100
AcDbAlignedDimension
 13
600.8444614674117
 23
1198.992507324763
 33
0.0
 14
400.8444614674113
 24
1198.992507324763
 34
0.0
 50
180.0
100
AcDbRotatedDimension
1001
ACAD
1000
DSTYLE
1002
{
1070
   279
1070
     2
1070
   289
1070
     0
1070
   371
1070
    18
1070
   372
1070
    18
1002
}
  0
DIMENSION
  5
3449
330
1F
100
AcDbEntity
  8
実形
100
AcDbDimension
  2
*D53
 10
390.8444614674118
 20
1042.418202794422
 30
0.0
 11
358.2263897334851
 21
1061.168202794422
 31
0.0
 70
   160
  1
8
 71
     5
 42
210.0
  3
ISO-25
100
AcDbAlignedDimension
 13
600.8444614674117
 23
1154.106076856789
 33
0.0
 14
390.8444614674118
 24
1154.106076856789
 34
0.0
 50
180.0
100
AcDbRotatedDimension
1001
ACAD
1000
DSTYLE
1002
{
1070
   282
1070
     1
1070
   281
1070
     1
1070
   279
1070
     2
1070
   289
1070
     0
1070
   371
1070
    18
1070
   372
1070
    18
1002
}
  0
LINE
  5
344A
330
1F
100
AcDbEntity
  8
実形
100
AcDbLine
 10
400.8444614674113
 20
1042.418202794422
 30
0.0
 11
390.8444614674118
 21
1042.418202794422
 31
0.0
  0
TEXT
  5
344B
330
1F
100
AcDbEntity
  8
実形
370
    18
100
AcDbText
 10
395.1092320843927
 20
1037.380414347366
 30
0.0
 40
10.0
  1
●
 71
     2
100
AcDbText
  0
DIMENSION
  5
344C
330
1F
100
AcDbEntity
  8
実形
100
AcDbDimension
  2
*D54
 10
390.8444614674118
 20
989.8704398109293
 30
0.0
 11
495.8444614674117
 21
1008.620439810929
 31
0.0
 70
    32
  1
210
 71
     5
 42
210.0
  3
ISO-25
100
AcDbAlignedDimension
 13
600.8444614674117
 23
1154.106076856789
 33
0.0
 14
390.8444614674118
 24
1123.476731055188
 34
0.0
 50
180.0
100
AcDbRotatedDimension
1001
ACAD
1000
DSTYLE
1002
{
1070
   279
1070
     2
1070
   289
1070
     0
1070
   371
1070
    18
1070
   372
1070
    18
1002
}
  0
DIMENSION
  5
344D
330
1F
100
AcDbEntity
  8
実形
100
AcDbDimension
  2
*D55
 10
380.8444614674122
 20
989.8704398109293
 30
0.0
 11
351.7639800907927
 21
1008.620439810929
 31
0.0
 70
   160
  1
8
 71
     5
 42
219.9999999999995
  3
ISO-25
100
AcDbAlignedDimension
 13
600.8444614674117
 23
1154.106076856789
 33
0.0
 14
380.8444614674122
 24
1142.403242481072
 34
0.0
 50
180.0
100
AcDbRotatedDimension
1001
ACAD
1000
DSTYLE
1002
{
1070
   282
1070
     1
1070
   281
1070
     1
1070
    76
1070
     1
1070
    75
1070
     1
1070
   279
1070
     2
1070
   289
1070
     0
1070
   371
1070
    18
1070
   372
1070
    18
1002
}
  0
LINE
  5
344E
330
1F
100
AcDbEntity
  8
実形
100
AcDbLine
 10
390.8444614674118
 20
989.8704398109293
 30
0.0
 11
380.7759345385676
 21
989.8704398109293
 31
0.0
  0
LINE
  5
344F
330
1F
100
AcDbEntity
  8
実形
100
AcDbLine
 10
380.7759345385676
 20
989.8704398109293
 30
0.0
 11
380.7759345385676
 21
1038.095311348708
 31
0.0
  0
TEXT
  5
3450
330
1F
100
AcDbEntity
  8
実形
370
    18
100
AcDbText
 10
385.7000658527031
 20
984.7294690157506
 30
0.0
 40
10.0
  1
●
 71
     2
100
AcDbText
  0
DIMENSION
  5
3451
330
1F
100
AcDbEntity
  8
実形
100
AcDbDimension
  2
*D56
 10
380.8444614674122
 20
938.7570792024162
 30
0.0
 11
490.8444614674119
 21
957.5070792024162
 31
0.0
 70
    32
  1
218
 71
     5
 42
219.9999999999995
  3
ISO-25
100
AcDbAlignedDimension
 13
600.8444614674117
 23
1154.106076856789
 33
0.0
 14
380.8444614674122
 24
1063.046778957103
 34
0.0
 50
180.0
100
AcDbRotatedDimension
1001
ACAD
1000
DSTYLE
1002
{
1070
   279
1070
     2
1070
   289
1070
     0
1070
   371
1070
    18
1070
   372
1070
    18
1002
}
  0
LINE
  5
3509
330
1F
100
AcDbEntity
  8
実形
100
AcDbLine
 10
582.8444614674118
 20
1597.51709136721
 30
0.0
 11
410.8444614674118
 21
1597.51709136721
 31
0.0
  0
ARC
  5
350B
330
1F
100
AcDbEntity
  8
実形
100
AcDbCircle
 10
410.8444614674118
 20
1577.517091367211
 30
0.0
 40
20.0
100
AcDbArc
 50
90.00000000000003
 51
180.0
  0
ARC
  5
350F
330
1F
100
AcDbEntity
  8
実形
100
AcDbCircle
 10
582.8444614674118
 20
1600.51709136721
 30
0.0
 40
3.0
100
AcDbArc
 50
270.0
 51
0.0
  0
LINE
  5
3510
330
1F
100
AcDbEntity
  8
実形
100
AcDbLine
 10
585.8444614674117
 20
1623.017091367211
 30
0.0
 11
585.8444614674117
 21
1202.517091367211
 31
0.0
  0
LINE
  5
3511
330
1F
100
AcDbEntity
  8
実形
  6
ACAD_ISO08W100
100
AcDbLine
 10
991.8007192941804
 20
661.4270373160682
 30
0.0
 11
1211.80071929418
 21
661.4270373160677
 31
0.0
  0
ARC
  5
3512
330
1F
100
AcDbEntity
  8
実形
100
AcDbCircle
 10
1211.80071929418
 20
681.4270373160677
 30
0.0
 40
20.0
100
AcDbArc
 50
270.0
 51
360.0
  0
ARC
  5
3513
330
1F
100
AcDbEntity
  8
実形
100
AcDbCircle
 10
991.8007192941804
 20
681.4270373160682
 30
0.0
 40
20.0
100
AcDbArc
 50
180.0
 51
269.9999999999999
  0
LINE
  5
351C
330
1F
100
AcDbEntity
  8
実形
100
AcDbLine
 10
390.8444614674118
 20
1429.517091367211
 30
0.0
 11
399.9652302188865
 21
1231.596409460212
 31
0.0
  0
ARC
  5
351D
330
1F
100
AcDbEntity
  8
実形
100
AcDbCircle
 10
419.9440276007641
 20
1232.517091367211
 30
0.0
 40
20.0
100
AcDbArc
 50
182.6384918254111
 51
270.0
  0
DIMENSION
  5
37CD
330
1F
100
AcDbEntity
  8
実形
100
AcDbDimension
  2
*D61
 10
2459.673575656807
 20
1512.517091367211
 30
0.0
 11
2440.573575656807
 21
1432.517091367211
 31
0.0
 70
    32
 71
     5
 42
160.0
  3
ISO-25
100
AcDbAlignedDimension
 13
2342.756977120949
 23
1352.517091367211
 33
0.0
 14
2342.756977120949
 24
1512.517091367211
 34
0.0
 50
90.0
100
AcDbRotatedDimension
1001
ACAD
1000
DSTYLE
1002
{
1070
    41
1040
10.0
1070
   140
1040
25.0
1070
   147
1040
6.599999999999998
1070
   279
1070
     2
1070
   342
1005
2ED7
1070
   371
1070
    18
1070
   372
1070
    18
1002
}
  0
DIMENSION
  5
37CE
330
1F
100
AcDbEntity
  8
実形
100
AcDbDimension
  2
*D62
 10
2530.915872472084
 20
1523.017091367211
 30
0.0
 11
2511.815872472084
 21
1432.517091367211
 31
0.0
 70
    32
 71
     5
 42
180.9999999999995
  3
ISO-25
100
AcDbAlignedDimension
 13
2342.756977120949
 23
1342.017091367211
 33
0.0
 14
2342.756977120954
 24
1523.017091367211
 34
0.0
 50
90.0
100
AcDbRotatedDimension
1001
ACAD
1000
DSTYLE
1002
{
1070
    41
1040
10.0
1070
   140
1040
25.0
1070
   147
1040
6.599999999999998
1070
   279
1070
     2
1070
   342
1005
2ED7
1070
   371
1070
    18
1070
   372
1070
    18
1002
}
  0
DIMENSION
  5
3819
330
1F
100
AcDbEntity
  8
実形
100
AcDbDimension
  2
*D63
 10
304.6383949384252
 20
1440.517091367211
 30
0.0
 11
283.0383949384249
 21
1487.517091367211
 31
0.0
 70
    32
 71
     5
 42
94.0
  3
ISO-25
100
AcDbAlignedDimension
 13
412.6383949384251
 23
1534.517091367211
 33
0.0
 14
412.6383949384247
 24
1440.517091367211
 34
0.0
 50
90.0
100
AcDbRotatedDimension
1001
ACAD
1000
DSTYLE
1002
{
1070
    41
1040
10.0
1070
   140
1040
30.0
1070
   147
1040
6.599999999999998
1070
   279
1070
     2
1070
   342
1005
2ED7
1070
   371
1070
    18
1070
   372
1070
    18
1002
}
  0
DIMENSION
  5
381A
330
1F
100
AcDbEntity
  8
実形
100
AcDbDimension
  2
*D64
 10
253.9313240202446
 20
1430.017091367211
 30
0.0
 11
232.3313240202444
 21
1487.517091367211
 31
0.0
 70
    32
 71
     5
 42
115.0
  3
ISO-25
100
AcDbAlignedDimension
 13
413.2482878322443
 23
1545.017091367211
 33
0.0
 14
411.8411087884105
 24
1430.017091367211
 34
0.0
 50
90.0
100
AcDbRotatedDimension
1001
ACAD
1000
DSTYLE
1002
{
1070
    41
1040
10.0
1070
   140
1040
30.0
1070
   147
1040
6.599999999999998
1070
   279
1070
     2
1070
   342
1005
2ED7
1070
   371
1070
    18
1070
   372
1070
    18
1002
}
  0
LINE
  5
3912
330
1F
100
AcDbEntity
  8
実形
100
AcDbLine
 10
2007.687599150988
 20
1682.517091367211
 30
0.0
 11
2056.369244851114
 21
1682.517091367211
 31
0.0
  0
LINE
  5
3916
330
1F
100
AcDbEntity
  8
実形
100
AcDbLine
 10
2007.687599150989
 20
1662.517091367211
 30
0.0
 11
2056.369244851114
 21
1662.517091367211
 31
0.0
  0
LINE
  5
3917
330
1F
100
AcDbEntity
  8
実形
100
AcDbLine
 10
2007.687599150989
 20
1517.517091367211
 30
0.0
 11
2056.369244851114
 21
1517.517091367211
 31
0.0
  0
LINE
  5
3918
330
1F
100
AcDbEntity
  8
実形
100
AcDbLine
 10
2007.687599150989
 20
1297.517091367211
 30
0.0
 11
2056.369244851114
 21
1297.517091367211
 31
0.0
  0
LINE
  5
3919
330
1F
100
AcDbEntity
  8
実形
100
AcDbLine
 10
2007.687599150989
 20
1192.517091367211
 30
0.0
 11
2056.369244851114
 21
1192.517091367211
 31
0.0
  0
DIMENSION
  5
391A
330
1F
100
AcDbEntity
  8
実形
100
AcDbDimension
  2
*D66
 10
2056.369244851114
 20
1517.517091367211
 30
0.0
 11
2037.619244851113
 21
1731.166000608622
 31
0.0
 70
   160
  1
20
 71
     5
 42
165.0
  3
ISO-25
100
AcDbAlignedDimension
 13
2007.687599150988
 23
1682.517091367211
 33
0.0
 14
2007.687599150988
 24
1517.517091367211
 34
0.0
 50
90.0
100
AcDbRotatedDimension
1001
ACAD
1000
DSTYLE
1002
{
1070
   281
1070
     1
1070
    76
1070
     1
1070
    75
1070
     1
1070
   279
1070
     2
1070
   289
1070
     0
1070
   371
1070
    18
1070
   372
1070
    18
1002
}
  0
DIMENSION
  5
391B
330
1F
100
AcDbEntity
  8
実形
100
AcDbDimension
  2
*D67
 10
2056.369244851114
 20
1682.517091367211
 30
0.0
 11
2037.619244851113
 21
1600.017091367211
 31
0.0
 70
    32
  1
145
 71
     5
 42
165.0
  3
ISO-25
100
AcDbAlignedDimension
 13
1977.73201359999
 23
1517.517091367211
 33
0.0
 14
1977.73201359999
 24
1682.517091367211
 34
0.0
 50
90.0
100
AcDbRotatedDimension
1001
ACAD
1000
DSTYLE
1002
{
1070
    76
1070
     1
1070
    75
1070
     1
1070
   279
1070
     2
1070
   289
1070
     0
1070
   371
1070
    18
1070
   372
1070
    18
1002
}
  0
DIMENSION
  5
391C
330
1F
100
AcDbEntity
  8
実形
100
AcDbDimension
  2
*D68
 10
2056.369244851114
 20
1297.517091367211
 30
0.0
 11
2037.619244851113
 21
1407.517091367211
 31
0.0
 70
    32
 71
     5
 42
220.0
  3
ISO-25
100
AcDbAlignedDimension
 13
1977.73201359999
 23
1517.517091367211
 33
0.0
 14
1977.73201359999
 24
1297.517091367211
 34
0.0
 50
90.0
100
AcDbRotatedDimension
1001
ACAD
1000
DSTYLE
1002
{
1070
   279
1070
     2
1070
   289
1070
     0
1070
   371
1070
    18
1070
   372
1070
    18
1002
}
  0
TEXT
  5
395D
330
1F
100
AcDbEntity
  8
実形
370
    18
100
AcDbText
 10
2060.889039289814
 20
1657.608411231538
 30
0.0
 40
10.0
  1
●
 71
     2
100
AcDbText
  0
DIMENSION
  5
395E
330
1F
100
AcDbEntity
  8
実形
100
AcDbDimension
  2
*D69
 10
2056.369244851114
 20
1192.517091367211
 30
0.0
 11
2037.619244851113
 21
1147.99925067346
 31
0.0
 70
   160
  1
20
 71
     5
 42
105.0
  3
ISO-25
100
AcDbAlignedDimension
 13
1982.10758069899
 23
1297.517091367211
 33
0.0
 14
1966.972600192868
 24
1192.517091367211
 34
0.0
 50
90.0
100
AcDbRotatedDimension
1001
ACAD
1000
DSTYLE
1002
{
1070
   175
1070
     1
1070
   172
1070
     0
1070
    76
1070
     1
1070
    75
1070
     1
1070
   279
1070
     2
1070
   289
1070
     0
1070
   371
1070
    18
1070
   372
1070
    18
1002
}
  0
DIMENSION
  5
397D
330
1F
100
AcDbEntity
  8
実形
100
AcDbDimension
  2
*D70
 10
2056.369244851114
 20
1297.517091367211
 30
0.0
 11
2037.619244851113
 21
1235.017091367211
 31
0.0
 70
    32
  1
105
 71
     5
 42
125.0000000000002
  3
ISO-25
100
AcDbAlignedDimension
 13
1944.845877281215
 23
1172.517091367211
 33
0.0
 14
1981.308363029638
 24
1297.517091367211
 34
0.0
 50
90.0
100
AcDbRotatedDimension
1001
ACAD
1000
DSTYLE
1002
{
1070
   279
1070
     2
1070
   289
1070
     0
1070
   371
1070
    18
1070
   372
1070
    18
1002
}
  0
TEXT
  5
3A61
330
1F
100
AcDbEntity
  8
寸法
100
AcDbText
 10
1626.493262018593
 20
1288.069577198336
 30
0.0
 40
25.0
  1
20R
100
AcDbText
  0
LEADER
  5
3A62
330
1F
100
AcDbEntity
  8
寸法
100
AcDbLeader
  3
ISO-25
 76
     2
 10
1730.557425648243
 20
1226.650679424787
 30
0.0
 10
1679.090988252031
 20
1278.10404172541
 30
0.0
1001
ACAD
1000
DSTYLE
1002
{
1070
    41
1040
25.0
1070
   147
1040
6.25
1070
    77
1070
     0
1002
}
  0
LINE
  5
3A7E
330
1F
100
AcDbEntity
  8
実形
100
AcDbLine
 10
1278.03740313813
 20
846.427037316068
 30
0.0
 11
1308.217557037567
 21
846.4270373160678
 31
0.0
  0
LINE
  5
3A7F
330
1F
100
AcDbEntity
  8
実形
100
AcDbLine
 10
1308.217557037567
 20
846.4270373160678
 30
0.0
 11
1308.217557037567
 21
806.4270373160677
 31
0.0
  0
LINE
  5
3A80
330
1F
100
AcDbEntity
  8
実形
100
AcDbLine
 10
1308.217557037567
 20
806.4270373160677
 30
0.0
 11
1278.03740313813
 21
806.4270373160679
 31
0.0
  0
DIMENSION
  5
3A81
330
1F
100
AcDbEntity
  8
実形
100
AcDbDimension
  2
*D71
 10
1308.217557037567
 20
806.4270373160677
 30
0.0
 11
1295.490004243267
 21
772.6320639050855
 31
0.0
 70
   160
 71
     5
 42
40.0
  3
ISO-25
100
AcDbAlignedDimension
 13
1278.03740313813
 23
846.427037316068
 33
0.0
 14
1278.03740313813
 24
806.4270373160679
 34
0.0
 50
90.0
100
AcDbRotatedDimension
1001
ACAD
1000
DSTYLE
1002
{
1070
   282
1070
     1
1070
   281
1070
     1
1070
    76
1070
     1
1070
    75
1070
     1
1070
   279
1070
     2
1070
   289
1070
     0
1070
   371
1070
    18
1070
   372
1070
    18
1002
}
  0
TEXT
  5
3ABA
330
1F
100
AcDbEntity
  8
実形
370
    18
100
AcDbText
 10
1303.057115098751
 20
841.3245454198003
 30
0.0
 40
10.0
  1
●
100
AcDbText
  0
TEXT
  5
3AC2
330
1F
100
AcDbEntity
  8
実形
370
    18
100
AcDbText
 10
1303.057115098751
 20
802.2733958833706
 30
0.0
 40
10.0
  1
●
100
AcDbText
  0
TEXT
  5
3ACF
330
1F
100
AcDbEntity
  8
寸法
100
AcDbText
 10
1324.252344730265
 20
1541.127989136398
 30
0.0
 40
25.0
  1
20R
100
AcDbText
  0
TEXT
  5
3AEF
330
1F
100
AcDbEntity
  8
寸法
100
AcDbText
 10
1068.247393665176
 20
1282.923392293758
 30
0.0
 40
25.0
  1
20R
100
AcDbText
  0
TEXT
  5
3AF7
330
1F
100
AcDbEntity
  8
寸法
100
AcDbText
 10
980.1341558150561
 20
1493.645096429357
 30
0.0
 40
25.0
  1
20R
100
AcDbText
  0
LEADER
  5
3B00
330
1F
100
AcDbEntity
  8
寸法
100
AcDbLeader
  3
ISO-25
 76
     2
 10
1204.785618045693
 20
1221.068724341572
 30
0.0
 10
1153.319180649481
 20
1272.522086642195
 30
0.0
1001
ACAD
1000
DSTYLE
1002
{
1070
    41
1040
25.0
1070
   147
1040
6.25
1070
    77
1070
     0
1002
}
  0
LEADER
  5
3B08
330
1F
100
AcDbEntity
  8
寸法
100
AcDbLeader
  3
ISO-25
 76
     2
 10
990.9094033678648
 20
1226.867597113103
 30
0.0
 10
1048.912895859466
 20
1272.522086642195
 30
0.0
1001
ACAD
1000
DSTYLE
1002
{
1070
    41
1040
25.0
1070
   147
1040
6.25
1070
    77
1070
     0
1002
}
  0
LEADER
  5
3B11
330
1F
100
AcDbEntity
  8
寸法
100
AcDbLeader
  3
ISO-25
 76
     2
 10
998.4537210559851
 20
1582.913129517183
 30
0.0
 10
1007.20119076274
 20
1541.000372194338
 30
0.0
1001
ACAD
1000
DSTYLE
1002
{
1070
    41
1040
25.0
1070
   147
1040
6.25
1070
    77
1070
     0
1002
}
  0
LINE
  5
3B12
330
1F
100
AcDbEntity
  8
実形
100
AcDbLine
 10
998.7427375747666
 20
1580.744972358124
 30
0.0
 11
997.8968956457102
 21
1549.456666203231
 31
0.0
  0
LINE
  5
3B13
330
1F
100
AcDbEntity
  8
実形
100
AcDbLine
 10
998.8644377304918
 20
1582.356442563622
 30
0.0
 11
1014.109769883416
 21
1554.218360511076
 31
0.0
  0
LEADER
  5
3B39
330
1F
100
AcDbEntity
  8
寸法
100
AcDbLeader
  3
ISO-25
 76
     2
 10
1278.732237706073
 20
1626.5180711131
 30
0.0
 10
1333.824214349059
 20
1580.532745098909
 30
0.0
1001
ACAD
1000
DSTYLE
1002
{
1070
    41
1040
25.0
1070
   147
1040
6.25
1070
    77
1070
     0
1002
}
  0
DIMENSION
  5
3E25
330
1F
100
AcDbEntity
  8
実形
100
AcDbDimension
  2
*D72
 10
833.5676532641082
 20
661.4270373160674
 30
0.0
 11
811.6824204506466
 21
834.6826299336361
 31
0.0
 70
   160
  1
15
 71
     5
 42
200.0000000000006
  3
ISO-25
100
AcDbAlignedDimension
 13
941.9193926275875
 23
861.427037316068
 33
0.0
 14
941.9193926275875
 24
661.4270373160674
 34
0.0
 50
270.0
100
AcDbRotatedDimension
1001
ACAD
1000
DSTYLE
1002
{
1070
   282
1070
     1
1070
   281
1070
     1
1070
    76
1070
     1
1070
    75
1070
     1
1070
   279
1070
     2
1070
   289
1070
     0
1070
   371
1070
    18
1070
   372
1070
    18
1002
}
  0
DIMENSION
  5
3E26
330
1F
100
AcDbEntity
  8
実形
100
AcDbDimension
  2
*D73
 10
833.5676532641082
 20
661.4270373160674
 30
0.0
 11
814.817653264108
 21
753.9270373160682
 31
0.0
 70
    32
  1
187
 71
     5
 42
185.000000000001
  3
ISO-25
100
AcDbAlignedDimension
 13
941.9193926275875
 23
846.4270373160683
 33
0.0
 14
941.9193926275873
 24
661.4270373160674
 34
0.0
 50
270.0
100
AcDbRotatedDimension
1001
ACAD
1000
DSTYLE
1002
{
1070
   279
1070
     2
1070
   289
1070
     0
1070
   371
1070
    18
1070
   372
1070
    18
1002
}
  0
LINE
  5
3E27
330
1F
100
AcDbEntity
  8
実形
100
AcDbLine
 10
876.9193926275875
 20
861.427037316068
 30
0.0
 11
833.5676532641082
 21
861.427037316068
 31
0.0
  0
LINE
  5
3E28
330
1F
100
AcDbEntity
  8
実形
100
AcDbLine
 10
833.5676532641082
 20
861.427037316068
 30
0.0
 11
833.5676532641082
 21
846.4270373160683
 31
0.0
  0
TEXT
  5
3E29
330
1F
100
AcDbEntity
  8
実形
370
    18
100
AcDbText
 10
828.8118587457502
 20
866.1582878440304
 30
0.0
 40
10.0
  1
●
 50
270.0
100
AcDbText
  0
DIMENSION
  5
3E2A
330
1F
100
AcDbEntity
  8
実形
100
AcDbDimension
  2
*D74
 10
785.3450880972468
 20
661.4270373160674
 30
0.0
 11
763.4202199377323
 21
749.2827595742992
 31
0.0
 70
   160
  1
202
 71
     5
 42
200.0000000000006
  3
ISO-25
100
AcDbAlignedDimension
 13
941.9193926275873
 23
861.427037316068
 33
0.0
 14
941.9193926275873
 24
661.4270373160674
 34
0.0
 50
270.0
100
AcDbRotatedDimension
1001
ACAD
1000
DSTYLE
1002
{
1070
   279
1070
     2
1070
   289
1070
     0
1070
   371
1070
    18
1070
   372
1070
    18
1002
}
  0
DIMENSION
  5
3E2B
330
1F
100
AcDbEntity
  8
実形
100
AcDbDimension
  2
*D75
 10
785.3450880972468
 20
651.4270373160679
 30
0.0
 11
761.4418657316019
 21
663.4605237027226
 31
0.0
 70
   160
  1
8
 71
     5
 42
210.0000000000001
  3
ISO-25
100
AcDbAlignedDimension
 13
897.0329621596135
 23
861.427037316068
 33
0.0
 14
889.1850134098604
 24
651.4270373160679
 34
0.0
 50
270.0
100
AcDbRotatedDimension
1001
ACAD
1000
DSTYLE
1002
{
1070
   282
1070
     1
1070
   281
1070
     1
1070
   279
1070
     2
1070
   289
1070
     0
1070
   371
1070
    18
1070
   372
1070
    18
1002
}
  0
LINE
  5
3E2C
330
1F
100
AcDbEntity
  8
実形
100
AcDbLine
 10
785.3450880972468
 20
661.4270373160675
 30
0.0
 11
785.3450880972468
 21
651.4270373160679
 31
0.0
  0
TEXT
  5
3E2D
330
1F
100
AcDbEntity
  8
実形
370
    18
100
AcDbText
 10
780.3072996501905
 20
655.6918079330489
 30
0.0
 40
10.0
  1
●
 50
270.0
100
AcDbText
  0
DIMENSION
  5
3E2E
330
1F
100
AcDbEntity
  8
実形
100
AcDbDimension
  2
*D76
 10
732.7973251137536
 20
651.4270373160679
 30
0.0
 11
714.0473251137535
 21
756.4270373160682
 31
0.0
 70
    32
 71
     5
 42
210.0000000000001
  3
ISO-25
100
AcDbAlignedDimension
 13
897.0329621596137
 23
861.427037316068
 33
0.0
 14
866.4036163580131
 24
651.4270373160679
 34
0.0
 50
270.0
100
AcDbRotatedDimension
1001
ACAD
1000
DSTYLE
1002
{
1070
   279
1070
     2
1070
   289
1070
     0
1070
   371
1070
    18
1070
   372
1070
    18
1002
}
  0
DIMENSION
  5
3E2F
330
1F
100
AcDbEntity
  8
実形
100
AcDbDimension
  2
*D77
 10
732.7973251137536
 20
641.4270373160684
 30
0.0
 11
710.746272257471
 21
653.0258506719292
 31
0.0
 70
   160
  1
8
 71
     5
 42
219.9999999999997
  3
ISO-25
100
AcDbAlignedDimension
 13
897.0329621596137
 23
861.427037316068
 33
0.0
 14
885.3301277838964
 24
641.4270373160682
 34
0.0
 50
270.0
100
AcDbRotatedDimension
1001
ACAD
1000
DSTYLE
1002
{
1070
   282
1070
     1
1070
   281
1070
     1
1070
    76
1070
     1
1070
    75
1070
     1
1070
   279
1070
     2
1070
   289
1070
     0
1070
   371
1070
    18
1070
   372
1070
    18
1002
}
  0
LINE
  5
3E30
330
1F
100
AcDbEntity
  8
実形
100
AcDbLine
 10
732.7973251137536
 20
651.4270373160679
 30
0.0
 11
732.7973251137536
 21
641.3585103872237
 31
0.0
  0
LINE
  5
3E31
330
1F
100
AcDbEntity
  8
実形
100
AcDbLine
 10
732.7973251137536
 20
641.3585103872237
 30
0.0
 11
773.5276971005296
 21
641.3585103872237
 31
0.0
  0
TEXT
  5
3E32
330
1F
100
AcDbEntity
  8
実形
370
    18
100
AcDbText
 10
727.6563543185748
 20
646.2826417013594
 30
0.0
 40
10.0
  1
●
 50
270.0
100
AcDbText
  0
DIMENSION
  5
3E33
330
1F
100
AcDbEntity
  8
実形
100
AcDbDimension
  2
*D78
 10
681.6839645052405
 20
641.4270373160685
 30
0.0
 11
662.9339645052404
 21
751.4270373160684
 31
0.0
 70
    32
  1
218
 71
     5
 42
219.9999999999995
  3
ISO-25
100
AcDbAlignedDimension
 13
897.0329621596135
 23
861.427037316068
 33
0.0
 14
805.9736642599272
 24
641.4270373160684
 34
0.0
 50
270.0
100
AcDbRotatedDimension
1001
ACAD
1000
DSTYLE
1002
{
1070
   279
1070
     2
1070
   289
1070
     0
1070
   371
1070
    18
1070
   372
1070
    18
1002
}
  0
LEADER
  5
3FAF
330
1F
100
AcDbEntity
  8
0
100
AcDbLeader
  3
ISO-25
 40
25.0
 41
16.66666666666666
 76
     2
 10
1209.202831169479
 20
676.1284492754712
 30
0.0
 10
1157.373830945707
 20
728.2184574867805
 30
0.0
213
0.0
223
-12.5
233
0.0
1001
ACAD
1000
DSTYLE
1002
{
1070
    41
1040
25.0
1070
   147
1040
6.25
1070
    77
1070
     0
1070
    73
1070
     1
1070
    74
1070
     1
1070
   279
1070
     1
1070
   342
1005
DA
1002
}
  0
TEXT
  5
3FB9
330
1F
100
AcDbEntity
  8
寸法
100
AcDbText
 10
1350.809975738835
 20
738.7811789220241
 30
0.0
 40
25.0
  1
20R
100
AcDbText
  0
LEADER
  5
3FBA
330
1F
100
AcDbEntity
  8
0
100
AcDbLeader
  3
ISO-25
 40
25.0
 41
16.66666666666666
 76
     2
 10
1273.421472056705
 20
664.5719820871554
 30
0.0
 10
1369.083452660792
 20
732.0027196289275
 30
0.0
213
0.0
223
-12.5
233
0.0
1001
ACAD
1000
DSTYLE
1002
{
1070
    41
1040
25.0
1070
   147
1040
6.25
1070
    77
1070
     0
1070
    73
1070
     1
1070
    74
1070
     1
1070
   279
1070
     1
1070
   342
1005
DA
1002
}
  0
DIMENSION
  5
42D7
330
1F
100
AcDbEntity
  8
実形
100
AcDbDimension
  2
*D79
 10
1868.747537433717
 20
661.4270373160674
 30
0.0
 11
1849.997537433717
 21
896.5985233790151
 31
0.0
 70
   160
  1
15
 71
     5
 42
200.0000000000004
  3
ISO-25
100
AcDbAlignedDimension
 13
1760.395798070238
 23
861.427037316068
 33
0.0
 14
1760.395798070238
 24
661.4270373160675
 34
0.0
 50
270.0
100
AcDbRotatedDimension
1001
ACAD
1000
DSTYLE
1002
{
1070
   282
1070
     1
1070
   281
1070
     1
1070
    76
1070
     1
1070
    75
1070
     1
1070
   279
1070
     2
1070
   289
1070
     0
1070
   371
1070
    18
1070
   372
1070
    18
1002
}
  0
DIMENSION
  5
42D8
330
1F
100
AcDbEntity
  8
実形
100
AcDbDimension
  2
*D80
 10
1868.747537433717
 20
661.4270373160674
 30
0.0
 11
1849.997537433717
 21
753.9270373160682
 31
0.0
 70
    32
 71
     5
 42
185.0000000000009
  3
ISO-25
100
AcDbAlignedDimension
 13
1760.395798070238
 23
846.4270373160683
 33
0.0
 14
1760.395798070238
 24
661.4270373160675
 34
0.0
 50
270.0
100
AcDbRotatedDimension
1001
ACAD
1000
DSTYLE
1002
{
1070
   279
1070
     2
1070
   289
1070
     0
1070
   371
1070
    18
1070
   372
1070
    18
1002
}
  0
DIMENSION
  5
42D9
330
1F
100
AcDbEntity
  8
実形
100
AcDbDimension
  2
*D81
 10
1916.970102600578
 20
661.4270373160674
 30
0.0
 11
1892.845112380007
 21
749.2827595742992
 31
0.0
 70
   160
 71
     5
 42
200.0000000000004
  3
ISO-25
100
AcDbAlignedDimension
 13
1760.395798070238
 23
861.427037316068
 33
0.0
 14
1760.395798070238
 24
661.4270373160675
 34
0.0
 50
270.0
100
AcDbRotatedDimension
1001
ACAD
1000
DSTYLE
1002
{
1070
   279
1070
     2
1070
   289
1070
     0
1070
   371
1070
    18
1070
   372
1070
    18
1002
}
  0
DIMENSION
  5
42DA
330
1F
100
AcDbEntity
  8
実形
100
AcDbDimension
  2
*D82
 10
1916.970102600578
 20
651.4270373160679
 30
0.0
 11
1898.220102600578
 21
618.8089655821413
 31
0.0
 70
   160
  1
10
 71
     5
 42
210.0
  3
ISO-25
100
AcDbAlignedDimension
 13
1805.282228538212
 23
861.427037316068
 33
0.0
 14
1805.282228538212
 24
651.4270373160679
 34
0.0
 50
270.0
100
AcDbRotatedDimension
1001
ACAD
1000
DSTYLE
1002
{
1070
   282
1070
     1
1070
   281
1070
     1
1070
   279
1070
     2
1070
   289
1070
     0
1070
   371
1070
    18
1070
   372
1070
    18
1002
}
  0
LINE
  5
42DB
330
1F
100
AcDbEntity
  8
実形
100
AcDbLine
 10
1916.970102600578
 20
661.4270373160675
 30
0.0
 11
1916.970102600578
 21
651.4270373160679
 31
0.0
  0
TEXT
  5
42DC
330
1F
100
AcDbEntity
  8
実形
370
    18
100
AcDbText
 10
1922.007891047635
 20
655.6918079330491
 30
0.0
 40
10.0
  1
●
 50
90.0
 71
     2
100
AcDbText
  0
DIMENSION
  5
42DD
330
1F
100
AcDbEntity
  8
実形
100
AcDbDimension
  2
*D83
 10
1969.517865584071
 20
651.4270373160679
 30
0.0
 11
1950.767865584072
 21
756.4270373160683
 31
0.0
 70
    32
 71
     5
 42
210.0
  3
ISO-25
100
AcDbAlignedDimension
 13
1805.282228538212
 23
861.427037316068
 33
0.0
 14
1835.911574339812
 24
651.4270373160679
 34
0.0
 50
270.0
100
AcDbRotatedDimension
1001
ACAD
1000
DSTYLE
1002
{
1070
   279
1070
     2
1070
   289
1070
     0
1070
   371
1070
    18
1070
   372
1070
    18
1002
}
  0
DIMENSION
  5
42DE
330
1F
100
AcDbEntity
  8
実形
100
AcDbDimension
  2
*D84
 10
1969.517865584071
 20
641.4270373160684
 30
0.0
 11
1950.767865584072
 21
612.346555939449
 31
0.0
 70
   160
  1
8
 71
     5
 42
219.9999999999995
  3
ISO-25
100
AcDbAlignedDimension
 13
1805.282228538212
 23
861.427037316068
 33
0.0
 14
1816.985062913929
 24
641.4270373160684
 34
0.0
 50
270.0
100
AcDbRotatedDimension
1001
ACAD
1000
DSTYLE
1002
{
1070
   282
1070
     1
1070
   281
1070
     1
1070
    76
1070
     1
1070
    75
1070
     1
1070
   279
1070
     2
1070
   289
1070
     0
1070
   371
1070
    18
1070
   372
1070
    18
1002
}
  0
LINE
  5
42DF
330
1F
100
AcDbEntity
  8
実形
100
AcDbLine
 10
1969.517865584071
 20
651.4270373160679
 30
0.0
 11
1969.517865584071
 21
641.3585103872237
 31
0.0
  0
LINE
  5
42E0
330
1F
100
AcDbEntity
  8
実形
100
AcDbLine
 10
1969.517865584071
 20
641.3585103872237
 30
0.0
 11
1921.292994046293
 21
641.3585103872237
 31
0.0
  0
TEXT
  5
42E1
330
1F
100
AcDbEntity
  8
実形
370
    18
100
AcDbText
 10
1974.658836379251
 20
646.2826417013595
 30
0.0
 40
10.0
  1
●
 50
90.0
 71
     2
100
AcDbText
  0
DIMENSION
  5
42E2
330
1F
100
AcDbEntity
  8
実形
100
AcDbDimension
  2
*D85
 10
2020.631226192585
 20
641.4270373160684
 30
0.0
 11
2001.881226192585
 21
751.4270373160685
 31
0.0
 70
    32
  1
218
 71
     5
 42
219.9999999999995
  3
ISO-25
100
AcDbAlignedDimension
 13
1805.282228538212
 23
861.427037316068
 33
0.0
 14
1896.341526437898
 24
641.4270373160684
 34
0.0
 50
270.0
100
AcDbRotatedDimension
1001
ACAD
1000
DSTYLE
1002
{
1070
   279
1070
     2
1070
   289
1070
     0
1070
   371
1070
    18
1070
   372
1070
    18
1002
}
  0
LINE
  5
438E
330
1F
100
AcDbEntity
  8
実形
100
AcDbLine
 10
1868.747537433717
 20
846.4270373160683
 30
0.0
 11
1868.747537433717
 21
861.427037316068
 31
0.0
  0
TEXT
  5
4397
330
1F
100
AcDbEntity
  8
実形
370
    18
100
AcDbText
 10
1863.660479551324
 20
865.9852515496378
 30
0.0
 40
10.0
  1
●
 50
270.0
100
AcDbText
  0
LINE
  5
444A
330
1F
100
AcDbEntity
  8
実形
100
AcDbLine
 10
2472.194821863538
 20
495.4618602884263
 30
0.0
 11
2472.194821863538
 21
372.1758909109341
 31
0.0
  0
LINE
  5
444B
330
1F
100
AcDbEntity
  8
実形
100
AcDbLine
 10
2472.194821863538
 20
372.1758909109341
 30
0.0
 11
2472.194821863538
 21
495.4618602884263
 31
0.0
  0
LINE
  5
444C
330
1F
100
AcDbEntity
  8
実形
100
AcDbLine
 10
2464.722944931568
 20
495.4618602884263
 30
0.0
 11
2464.722944931568
 21
372.1758909109341
 31
0.0
  0
DIMENSION
  5
444D
330
1F
100
AcDbEntity
  8
寸法
100
AcDbDimension
  2
*D86
 10
2355.087235606629
 20
295.8250599337407
 30
0.0
 11
2409.905090269098
 21
314.5750599337407
 31
0.0
 70
    32
  1
12
 71
     5
 42
109.6357093249389
  3
ISO-25
100
AcDbAlignedDimension
 13
2464.722944931568
 23
362.8360447459727
 33
0.0
 14
2355.087235606629
 24
362.8360447459727
 34
0.0
100
AcDbRotatedDimension
1001
ACAD
1000
DSTYLE
1002
{
1070
    41
1040
40.0
1070
    42
1040
45.0
1002
}
  0
LINE
  5
444E
330
1F
100
AcDbEntity
  8
実形
100
AcDbLine
 10
2472.194821863538
 20
372.1758909109341
 30
0.0
 11
2464.722944931568
 21
372.1758909109341
 31
0.0
  0
LINE
  5
444F
330
1F
100
AcDbEntity
  8
実形
100
AcDbLine
 10
2464.722944931568
 20
372.1758909109341
 30
0.0
 11
2472.194821863538
 21
372.1758909109341
 31
0.0
  0
LINE
  5
4450
330
1F
100
AcDbEntity
  8
実形
100
AcDbLine
 10
2421.759652572746
 20
495.4618602884263
 30
0.0
 11
2515.15811422236
 21
495.4618602884263
 31
0.0
  0
LINE
  5
4451
330
1F
100
AcDbEntity
  8
実形
100
AcDbLine
 10
2421.759652572746
 20
502.9337372203952
 30
0.0
 11
2421.759652572746
 21
495.4618602884263
 31
0.0
  0
LINE
  5
4452
330
1F
100
AcDbEntity
  8
実形
100
AcDbLine
 10
2515.15811422236
 20
495.4618602884263
 30
0.0
 11
2515.15811422236
 21
502.9337372203952
 31
0.0
  0
TEXT
  5
44C1
330
1F
100
AcDbEntity
  8
寸法
100
AcDbText
 10
1158.086902994489
 20
1423.556078392971
 30
0.0
 40
25.0
  1
20R
100
AcDbText
  0
LEADER
  5
44CA
330
1F
100
AcDbEntity
  8
寸法
100
AcDbLeader
  3
ISO-25
 76
     2
 10
1218.311711868571
 20
1574.161743377669
 30
0.0
 10
1212.305967855194
 20
1460.331881328399
 30
0.0
1001
ACAD
1000
DSTYLE
1002
{
1070
    41
1040
25.0
1070
   147
1040
6.25
1070
    77
1070
     0
1002
}
  0
TEXT
  5
44D4
330
1F
100
AcDbEntity
  8
寸法
100
AcDbText
 10
875.4027403511409
 20
1737.05299934387
 30
0.0
 40
25.0
  1
30R
100
AcDbText
  0
LEADER
  5
44D5
330
1F
100
AcDbEntity
  8
寸法
100
AcDbLeader
  3
ISO-25
 76
     2
 10
960.7329902610153
 20
1663.073255309411
 30
0.0
 10
919.2812920810139
 20
1724.295275982557
 30
0.0
1001
ACAD
1000
DSTYLE
1002
{
1070
    41
1040
25.0
1070
   147
1040
6.25
1070
    77
1070
     0
1002
}
  0
TEXT
  5
44E0
330
1F
100
AcDbEntity
  8
寸法
100
AcDbText
 10
850.8935232642553
 20
1103.25197164363
 30
0.0
 40
25.0
  1
30R
100
AcDbText
  0
LEADER
  5
44E1
330
1F
100
AcDbEntity
  8
寸法
100
AcDbLeader
  3
ISO-25
 76
     2
 10
964.2963815760277
 20
1187.733080391917
 30
0.0
 10
909.6995630442844
 20
1131.774095082711
 30
0.0
1001
ACAD
1000
DSTYLE
1002
{
1070
    41
1040
25.0
1070
   147
1040
6.25
1070
    77
1070
     0
1002
}
  0
TEXT
  5
44EB
330
1F
100
AcDbEntity
  8
寸法
100
AcDbText
 10
1802.490569481541
 20
1106.577326753638
 30
0.0
 40
25.0
  1
30R
100
AcDbText
  0
LEADER
  5
44EC
330
1F
100
AcDbEntity
  8
寸法
100
AcDbLeader
  3
ISO-25
 76
     2
 10
1773.285569612044
 20
1186.994277359222
 30
0.0
 10
1807.217568670521
 20
1138.679162379584
 30
0.0
1001
ACAD
1000
DSTYLE
1002
{
1070
    41
1040
25.0
1070
   147
1040
6.25
1070
    77
1070
     0
1002
}
  0
TEXT
  5
44FD
330
1F
100
AcDbEntity
  8
寸法
100
AcDbText
 10
1377.869309253222
 20
1258.343183974484
 30
0.0
 40
25.0
  1
20R
100
AcDbText
  0
LEADER
  5
4506
330
1F
100
AcDbEntity
  8
寸法
100
AcDbLeader
  3
ISO-25
 76
     2
 10
1281.224792396966
 20
1228.865905694804
 30
0.0
 10
1363.126930002066
 20
1263.256065256998
 30
0.0
1001
ACAD
1000
DSTYLE
1002
{
1070
    41
1040
25.0
1070
   147
1040
6.25
1070
    77
1070
     0
1002
}
  0
LINE
  5
466B
330
1F
100
AcDbEntity
  8
実形
100
AcDbLine
 10
2009.845877281215
 20
1172.517091367211
 30
0.0
 11
2056.369244851114
 21
1172.517091367211
 31
0.0
  0
TEXT
  5
4693
330
1F
100
AcDbEntity
  8
実形
370
    18
100
AcDbText
 10
2061.019831952241
 20
1187.528072887485
 30
0.0
 40
10.0
  1
●
 71
     2
100
AcDbText
  0
LINE
  5
473E
330
1F
100
AcDbEntity
  8
補助
 62
     0
100
AcDbLine
 10
2784.0
 20
1959.000000000001
 30
0.0
 11
2019.387286519283
 21
1959.000000000002
 31
0.0
  0
LINE
  5
473F
330
1F
100
AcDbEntity
  8
補助
 62
     0
100
AcDbLine
 10
2784.0
 20
1894.000000000001
 30
0.0
 11
2019.387286519283
 21
1894.000000000001
 31
0.0
  0
LINE
  5
4740
330
1F
100
AcDbEntity
  8
補助
 62
     0
100
AcDbLine
 10
2784.0
 20
1829.000000000001
 30
0.0
 11
2019.387286519283
 21
1829.000000000001
 31
0.0
  0
LINE
  5
4741
330
1F
100
AcDbEntity
  8
補助
 62
     0
100
AcDbLine
 10
2202.547653420927
 20
1829.000000000001
 30
0.0
 11
2202.547653420927
 21
2024.000000000002
 31
0.0
  0
LINE
  5
4742
330
1F
100
AcDbEntity
  8
補助
 62
     0
100
AcDbLine
 10
2019.387286519283
 20
1829.000000000001
 30
0.0
 11
2019.387286519283
 21
2024.000000000002
 31
0.0
  0
TEXT
  5
4743
330
1F
100
AcDbEntity
  8
補助
 62
     0
100
AcDbText
 10
2050.295698850121
 20
1976.328571428573
 30
0.0
 40
30.0
  1
部品名
  7
明朝
 72
     4
 11
2116.124270278692
 21
1991.500000000002
 31
0.0
100
AcDbText
  0
TEXT
  5
4744
330
1F
100
AcDbEntity
  8
補助
 62
     0
100
AcDbText
 10
2627.614285714286
 20
1976.07142857143
 30
0.0
 40
30.0
  1
厚さ
  7
明朝
 72
     4
 11
2671.5
 21
1991.500000000002
 31
0.0
100
AcDbText
  0
LINE
  5
4745
330
1F
100
AcDbEntity
  8
補助
 62
     0
100
AcDbLine
 10
2559.0
 20
1829.000000000001
 30
0.0
 11
2559.0
 21
2024.000000000002
 31
0.0
  0
TEXT
  5
4746
330
1F
100
AcDbEntity
  8
補助
 62
     0
100
AcDbText
 10
2338.490869919937
 20
1975.947979478156
 30
0.0
 40
30.0
  1
材質
  7
明朝
 72
     4
 11
2382.376584205651
 21
1991.119408049584
 31
0.0
100
AcDbText
  0
TEXT
  5
4747
330
1F
100
AcDbEntity
  8
実形
 62
     0
100
AcDbText
 10
2048.227810657788
 20
1910.557142857144
 30
0.0
 40
30.0
  1
ボウル
  7
明朝
 72
     4
 11
2114.056382086359
 21
1926.500000000001
 31
0.0
100
AcDbText
  0
TEXT
  5
4748
330
1F
100
AcDbEntity
  8
実形
 62
     0
100
AcDbText
 10
2594.700000000001
 20
1911.842857142858
 30
0.0
 40
30.0
  1
1.0ｍｍ
  7
明朝
 72
     4
 11
2671.500000000001
 21
1926.500000000001
 31
0.0
100
AcDbText
  0
TEXT
  5
4749
330
1F
100
AcDbEntity
  8
実形
 62
     0
100
AcDbText
 10
2261.016869107866
 20
1910.728571428572
 30
0.0
 40
30.0
  1
SUS304（HL）
  7
明朝
 72
     4
 11
2392.674011965008
 21
1926.500000000001
 31
0.0
100
AcDbText
  0
TEXT
  5
474A
330
1F
100
AcDbEntity
  8
実形
 62
     0
100
AcDbText
 10
2070.170667800645
 20
1846.242857142858
 30
0.0
 40
30.0
  1
天板
  7
明朝
 72
     4
 11
2114.056382086359
 21
1861.500000000001
 31
0.0
100
AcDbText
  0
TEXT
  5
474B
330
1F
100
AcDbEntity
  8
実形
 62
     0
100
AcDbText
 10
2594.700000000001
 20
1846.842857142858
 30
0.0
 40
30.0
  1
1.0ｍｍ
  7
明朝
 72
     4
 11
2671.500000000001
 21
1861.500000000001
 31
0.0
100
AcDbText
  0
TEXT
  5
474C
330
1F
100
AcDbEntity
  8
実形
 62
     0
100
AcDbText
 10
2261.016869107866
 20
1845.728571428573
 30
0.0
 40
30.0
  1
SUS304（HL）
  7
明朝
 72
     4
 11
2392.674011965008
 21
1861.500000000001
 31
0.0
100
AcDbText
  0
LINE
  5
4759
330
1F
100
AcDbEntity
  8
補助
100
AcDbLine
 10
109.0
 20
4.0
 30
0.0
 11
109.0
 21
2024.0
 31
0.0
  0
TEXT
  5
4761
330
1F
100
AcDbEntity
  8
0
100
AcDbText
 10
2430.916666666667
 20
84.0
 30
0.0
 40
35.0
  1
1：10
 72
     4
 11
2484.0
 21
101.5
 31
0.0
100
AcDbText
  0
LINE
  5
476A
330
1F
100
AcDbEntity
  8
補助
100
AcDbLine
 10
109.0
 20
4.0
 30
0.0
 11
109.0
 21
2024.0
 31
0.0
  0
LINE
  5
4794
330
1F
100
AcDbEntity
  8
実形
100
AcDbLine
 10
1159.30071929418
 20
641.427037316068
 30
0.0
 11
1159.30071929418
 21
651.4270373160679
 31
0.0
  0
LINE
  5
4795
330
1F
100
AcDbEntity
  8
実形
100
AcDbLine
 10
1044.30071929418
 20
651.4270373160679
 30
0.0
 11
1044.30071929418
 21
641.427037316068
 31
0.0
  0
LINE
  5
47AA
330
1F
100
AcDbEntity
  8
実形
100
AcDbLine
 10
380.8444614674116
 20
1430.017091367211
 30
0.0
 11
390.8444614674118
 21
1430.017091367211
 31
0.0
  0
LINE
  5
47AB
330
1F
100
AcDbEntity
  8
実形
100
AcDbLine
 10
380.8444614674117
 20
1545.017091367211
 30
0.0
 11
390.8444614674118
 21
1545.017091367211
 31
0.0
  0
VIEWPORT
  5
2E
102
{ACAD_XDICTIONARY
360
4811
102
}
330
1B
100
AcDbEntity
 67
     1
  8
0
100
AcDbViewport
 10
144.7270812988281
 20
101.2295806407928
 30
0.0
 40
411.6736216682419
 41
222.1517806396485
 68
     1
 69
     1
 12
144.7270812988281
 22
101.2295806407928
 13
0.0
 23
0.0
 14
10.0
 24
10.0
 15
10.0
 25
10.0
 16
0.0
 26
0.0
 36
1.0
 17
0.0
 27
0.0
 37
0.0
 42
50.0
 43
0.0
 44
0.0
 45
222.1517806396485
 50
0.0
 51
0.0
 72
   100
 90
    32800
  1

281
     0
 71
     1
 74
     0
110
0.0
120
0.0
130
0.0
111
1.0
121
0.0
131
0.0
112
0.0
122
1.0
132
0.0
 79
     0
146
0.0
  0
VIEWPORT
  5
30
102
{ACAD_XDICTIONARY
360
4813
102
}
330
1B
100
AcDbEntity
 67
     1
  8
0
100
AcDbViewport
 10
139.2237563133239
 20
101.2295821905136
 30
0.0
 40
222.7580101013184
 41
161.9673315048218
 68
     2
 69
     2
 12
210.0
 22
148.5
 13
0.0
 23
0.0
 14
10.0
 24
10.0
 15
10.0
 25
10.0
 16
0.0
 26
0.0
 36
1.0
 17
0.0
 27
0.0
 37
0.0
 42
50.0
 43
0.0
 44
0.0
 45
309.0686705647124
 50
0.0
 51
0.0
 72
   100
 90
    32864
  1

281
     0
 71
     1
 74
     0
110
0.0
120
0.0
130
0.0
111
1.0
121
0.0
131
0.0
112
0.0
122
1.0
132
0.0
 79
     0
146
0.0
  0
ENDSEC
  0
SECTION
  2
OBJECTS
  0
DICTIONARY
  5
C
330
0
100
AcDbDictionary
281
     1
  3
ACAD_COLOR
350
260C
  3
ACAD_GROUP
350
D
  3
ACAD_LAYOUT
350
1A
  3
ACAD_MATERIAL
350
260B
  3
ACAD_MLINESTYLE
350
17
  3
ACAD_PLOTSETTINGS
350
19
  3
ACAD_PLOTSTYLENAME
350
E
  3
ACAD_TABLESTYLE
350
260D
  3
AcadDim
350
124
  3
ACDBHEADERROUNDTRIPXREC
350
480A
  3
AcDbVariableDictionary
350
1055
  0
DICTIONARY
  5
2635
330
2
100
AcDbDictionary
280
     1
281
     1
  3
ACAD_LAYERFILTERS
360
2637
  3
ACAD_LAYERSTATES
360
272C
  3
ACLYDICTIONARY
360
2636
  0
DICTIONARY
  5
264B
330
1F
100
AcDbDictionary
280
     1
281
     1
  3
ACAD_SORTENTS
360
264C
  0
DICTIONARY
  5
3890
330
388E
100
AcDbDictionary
280
     1
281
     1
  3
ACAD_SORTENTS
360
3891
  0
DICTIONARY
  5
4811
330
2E
100
AcDbDictionary
280
     1
281
     1
  3
ACAD_XREC_ROUNDTRIP
360
4812
  0
DICTIONARY
  5
4813
330
30
100
AcDbDictionary
280
     1
281
     1
  3
ACAD_XREC_ROUNDTRIP
360
4814
  0
DICTIONARY
  5
260C
102
{ACAD_REACTORS
330
C
102
}
330
C
100
AcDbDictionary
281
     1
  0
DICTIONARY
  5
D
102
{ACAD_REACTORS
330
C
102
}
330
C
100
AcDbDictionary
281
     1
  0
DICTIONARY
  5
1A
102
{ACAD_REACTORS
330
C
102
}
330
C
100
AcDbDictionary
281
     1
  3
Model
350
22
  3
ﾚｲｱｳﾄ1
350
1E
  3
ﾚｲｱｳﾄ2
350
26
  0
DICTIONARY
  5
260B
102
{ACAD_REACTORS
330
C
102
}
330
C
100
AcDbDictionary
281
     1
  0
DICTIONARY
  5
17
102
{ACAD_REACTORS
330
C
102
}
330
C
100
AcDbDictionary
281
     1
  3
Standard
350
18
  0
DICTIONARY
  5
19
102
{ACAD_REACTORS
330
C
102
}
330
C
100
AcDbDictionary
281
     1
  0
ACDBDICTIONARYWDFLT
  5
E
102
{ACAD_REACTORS
330
C
102
}
330
C
100
AcDbDictionary
281
     1
  3
Normal
350
F
100
AcDbDictionaryWithDefault
340
F
  0
DICTIONARY
  5
260D
102
{ACAD_REACTORS
330
C
102
}
330
C
100
AcDbDictionary
281
     1
  3
Standard
350
260E
  0
XRECORD
  5
124
102
{ACAD_REACTORS
330
C
102
}
330
C
100
AcDbXrecord
280
     1
 90
   990106
  3

 60
     0
 61
     0
 62
     1
 63
     3
 64
     0
 65
     0
 66
     0
 67
     3
 68
     1
 69
     0
 70
     0
 71
     0
 72
     0
 40
30.0
170
     0
  0
DICTIONARY
  5
480A
102
{ACAD_REACTORS
330
C
102
}
330
C
100
AcDbDictionary
281
     1
  0
DICTIONARY
  5
1055
102
{ACAD_REACTORS
330
C
102
}
330
C
100
AcDbDictionary
281
     1
  3
CTABLESTYLE
350
2614
  3
DIMASSOC
350
4807
  3
PROJECTNAME
350
4808
  3
SORTENTS
350
1056
  0
DICTIONARY
  5
2637
102
{ACAD_REACTORS
330
2635
102
}
330
2635
100
AcDbDictionary
281
     1
  0
DICTIONARY
  5
272C
102
{ACAD_REACTORS
330
2635
102
}
330
2635
100
AcDbDictionary
281
     1
  0
DICTIONARY
  5
2636
102
{ACAD_REACTORS
330
2635
102
}
330
2635
100
AcDbDictionary
281
     1
1001
ACAD
1000
<All
  0
SORTENTSTABLE
  5
264C
102
{ACAD_REACTORS
330
264B
102
}
330
264B
100
AcDbSortentsTable
330
1F
331
2E3B
  5
3231
331
A5
  5
A5
331
342F
  5
3444
331
2E43
  5
333A
331
267F
  5
2CD0
331
1A5C
  5
2381
331
30A2
  5
238D
331
3437
  5
344C
331
33B0
  5
3416
331
42DC
  5
444F
331
473F
  5
4759
331
44C1
  5
4740
331
4747
  5
47A9
331
3B11
  5
3E2F
331
3ABA
  5
3E28
331
16BA
  5
16D7
331
1A64
  5
2386
331
AD
  5
2C8
331
167B
  5
167D
331
2CCD
  5
2E40
331
2383
  5
2592
331
1A6C
  5
2389
331
1683
  5
1686
331
343F
  5
350A
331
2DE4
  5
2F41
331
16CA
  5
1A52
331
DBC
  5
DBE
331
3447
  5
3516
331
3410
  5
3424
331
2591
  5
2ADA
331
2937
  5
1680
331
2393
  5
2935
331
16D2
  5
1A69
331
DC4
  5
DC6
331
344F
  5
381A
331
3418
  5
3430
331
44E1
  5
4745
331
444A
  5
44E1
331
4452
  5
473F
331
3B39
  5
3E32
331
3AC2
  5
3E29
331
3919
  5
3ACF
331
3E27
  5
3FB9
331
381A
  5
3A7F
331
3E2F
  5
42DD
331
350F
  5
3421
331
16DA
  5
1A6F
331
169B
  5
16B5
331
3420
  5
3435
331
3351
  5
3413
331
2CED
  5
2F3D
331
2ADF
  5
2D35
331
16E2
  5
22EE
331
22F4
  5
243B
331
1A4D
  5
2379
331
16A3
  5
16BE
331
2D2D
  5
2F3E
331
25B9
  5
2C79
331
16AB
  5
16C3
331
3430
  5
3445
331
2D35
  5
2F3F
331
1A5D
  5
2382
331
30A3
  5
2E3B
331
33B1
  5
3417
331
42DD
  5
4450
331
4740
  5
4761
331
3B12
  5
3E30
331
3912
  5
3A80
331
2680
  5
2CD1
331
16BB
  5
16DA
331
237C
  5
24E5
331
167C
  5
167E
331
3438
  5
344D
331
2CCE
  5
2E42
331
1A6D
  5
238A
331
1684
  5
1689
331
3440
  5
350C
331
333A
  5
340F
331
238C
  5
264D
331
DBD
  5
DBF
331
3448
  5
351C
331
3411
  5
3425
331
2592
  5
2ADC
331
2938
  5
1A5A
331
2394
  5
2936
331
16D3
  5
1A6A
331
1A26
  5
2376
331
DC5
  5
DC7
331
4748
  5
47AA
331
44CA
  5
4741
331
3450
  5
3912
331
3419
  5
3431
331
444B
  5
44EB
331
391A
  5
3AE7
331
3E28
  5
3FBA
331
3E30
  5
42DE
331
3510
  5
391B
331
16DB
  5
1A73
331
169C
  5
16B6
331
2661
  5
2C7C
331
25B2
  5
2ADF
331
1A4E
  5
237B
331
2AE0
  5
1695
331
3421
  5
3438
331
2E3D
  5
325D
331
1A5E
  5
2383
331
3431
  5
3446
331
3224
  5
339E
331
2DCE
  5
2F40
331
42DE
  5
4451
331
4741
  5
476A
331
3B13
  5
3E31
331
2681
  5
1A5D
331
16BC
  5
16DE
331
237D
  5
24E6
331
167D
  5
1681
331
2583
  5
293D
331
2CCF
  5
2E43
331
16C4
  5
1A24
331
1A6E
  5
238B
331
1685
  5
168D
331
3441
  5
350D
331
16CC
  5
1A59
331
238D
  5
264E
331
DBE
  5
DC0
331
168D
  5
169E
331
3449
  5
351D
331
3412
  5
342C
331
2593
  5
2ADD
331
2939
  5
16AE
331
3343
  5
3411
331
2395
  5
2937
331
16D4
  5
1A6C
331
DC6
  5
DC8
331
4749
  5
47AB
331
3451
  5
3916
331
341A
  5
3432
331
4759
  5
A9
331
4761
  5
47D4
331
444C
  5
44EC
331
44EB
  5
4746
331
391B
  5
3AF7
331
3E29
  5
42D7
331
3509
  5
3917
331
3E31
  5
42DF
331
3511
  5
2CEC
331
16DC
  5
1A77
331
22EE
  5
2398
331
169D
  5
16B8
331
2662
  5
2CCF
331
3422
  5
3439
331
1A4F
  5
237C
331
16A5
  5
16BF
331
A0
  5
A0
331
342A
  5
3440
331
2C79
  5
2DE4
331
2E3E
  5
3281
331
2376
  5
243C
331
16AD
  5
16C9
331
3432
  5
3447
331
16B5
  5
16CE
331
42D7
  5
444A
331
42DF
  5
4452
331
4742
  5
4777
331
438E
  5
44D5
331
466B
  5
474A
331
37CD
  5
3A61
331
A8
  5
AA
331
25D3
  5
2C7B
331
16BD
  5
16E1
331
167E
  5
1682
331
343A
  5
344E
331
2386
  5
2593
331
1A6F
  5
238C
331
16C5
  5
1A26
331
3442
  5
350E
331
2E8E
  5
3343
331
238E
  5
2661
331
16CD
  5
1A5C
331
1A77
  5
238F
331
DBF
  5
DC1
331
344A
  5
351F
331
3413
  5
342D
331
293A
  5
16DB
331
3344
  5
3412
331
DC7
  5
1677
331
474A
  5
47D0
331
325D
  5
33B0
331
44D4
  5
4742
331
4693
  5
474B
331
444D
  5
44FD
331
44EC
  5
4747
331
476A
  5
A8
331
3FAF
  5
42E2
331
391C
  5
3B00
331
3E2A
  5
42D8
331
3E32
  5
42E0
331
3512
  5
1697
331
2ADA
  5
2CD2
331
169E
  5
16BA
331
3423
  5
343C
331
2E3F
  5
3286
331
2C7A
  5
2E3D
331
16AE
  5
16CA
331
2377
  5
243D
331
1677
  5
1679
331
3433
  5
3448
331
32CD
  5
340E
331
16B6
  5
16CF
331
42D8
  5
444B
331
42E0
  5
44C1
331
4743
  5
4778
331
3A7E
  5
3C3F
331
37CE
  5
3A62
331
A9
  5
AB
331
24E5
  5
293B
331
237F
  5
24F1
331
16BE
  5
16E2
331
343B
  5
344F
331
2CD1
  5
2E41
331
2387
  5
25C6
331
3443
  5
350F
331
340C
  5
3418
331
2E8F
  5
3344
331
16CE
  5
1A5E
331
238F
  5
267F
331
1A78
  5
2390
331
DC0
  5
DC2
331
168F
  5
169F
331
344B
  5
3520
331
3414
  5
342E
331
293B
  5
16E0
331
16D6
  5
1A6D
331
2397
  5
2938
331
1697
  5
16A9
331
474B
  5
47D1
331
4397
  5
44E0
331
47AA
  5
397D
331
325E
  5
33B1
331
44D5
  5
4743
331
444E
  5
4506
331
350B
  5
3919
331
3E2B
  5
42D9
331
3513
  5
169C
331
3E33
  5
42E1
331
DC8
  5
1678
331
2ADB
  5
2CED
331
16DE
  5
1A78
331
169F
  5
16BB
331
3424
  5
343D
331
3286
  5
340D
331
16A7
  5
16C0
331
342C
  5
3441
331
2E40
  5
32CD
331
2C7B
  5
2E3F
331
243E
  5
2939
331
309F
  5
2E32
331
1A59
  5
237E
331
16AF
  5
16CC
331
3434
  5
3449
331
44FD
  5
4748
331
42D9
  5
444C
331
42E1
  5
44CA
331
4744
  5
4794
331
3A7F
  5
3E25
331
395D
  5
3B08
331
3916
  5
3A81
331
397D
  5
3B12
331
2378
  5
24AC
331
1A61
  5
2384
331
AA
  5
AD
331
2C9
  5
DB9
331
1678
  5
167B
331
24E6
  5
293C
331
16BF
  5
16E3
331
2380
  5
24F4
331
1680
  5
1683
331
1A69
  5
2387
331
8C9
  5
DBA
331
343C
  5
3450
331
2CD2
  5
2E8E
331
16C7
  5
1A4D
331
2388
  5
25D3
331
DB9
  5
DBB
331
1688
  5
1692
331
3444
  5
3510
331
340D
  5
3420
331
2E98
  5
3351
331
2390
  5
2746
331
16CF
  5
1A61
331
1A79
  5
2391
331
1A22
  5
22F1
331
DC1
  5
DC3
331
344C
  5
356C
331
293C
  5
16C7
331
16D7
  5
1A6E
331
474C
  5
47D3
331
47AB
  5
395E
331
444F
  5
466B
331
3ACF
  5
3E2A
331
3FB9
  5
438E
331
3AEF
  5
3E2B
331
3E2C
  5
42DA
331
3AF7
  5
3E2C
331
1698
  5
16AB
331
2ADC
  5
1698
331
16DF
  5
1A79
331
22F1
  5
243A
331
16A0
  5
16BC
331
3425
  5
343F
331
2AE4
  5
2DCE
331
1A52
  5
237D
331
16A8
  5
16C1
331
342D
  5
3442
331
2C7C
  5
2E3C
331
243F
  5
293A
331
1A5A
  5
237F
331
272
  5
8C9
331
3435
  5
344A
331
339E
  5
3414
331
25C6
  5
2C7A
331
42DA
  5
444D
331
4506
  5
4749
331
42E2
  5
44D4
331
4794
  5
16A7
331
4745
  5
4795
331
351C
  5
391C
331
3A80
  5
3E26
331
395E
  5
3B11
331
3917
  5
3ABA
331
16B8
  5
16D0
331
1A62
  5
2385
331
AB
  5
272
331
1679
  5
167C
331
2381
  5
2583
331
1A6A
  5
2388
331
1681
  5
1684
331
343D
  5
3451
331
2389
  5
263D
331
DBA
  5
DBC
331
1689
  5
1696
331
3445
  5
3511
331
340E
  5
3422
331
2391
  5
2933
331
16D0
  5
1A62
331
1A7A
  5
2395
331
DC2
  5
DC4
331
344D
  5
37CE
331
293D
  5
16DF
331
341E
  5
3433
331
4450
  5
4693
331
3E25
  5
3E33
331
3FBA
  5
4397
331
3A61
  5
3B13
331
3E2D
  5
42DB
331
1A2B
  5
2377
331
1699
  5
16AC
331
2E32
  5
3224
331
2ADD
  5
169D
331
16E0
  5
1A7A
331
9C
  5
9C
331
25B7
  5
2C1C
331
2AE5
  5
1A22
331
16A9
  5
16C2
331
342E
  5
3443
331
2E42
  5
325E
331
1A5B
  5
2380
331
3436
  5
344B
331
339F
  5
3415
331
42DB
  5
444E
331
473E
  5
474C
331
4795
  5
16A8
331
4746
  5
47A8
331
3B00
  5
3E2D
331
351D
  5
395D
331
3B08
  5
3E2E
331
3A81
  5
3E27
331
16B9
  5
16D1
331
16C1
  5
16E4
331
2382
  5
2591
331
1682
  5
1685
331
343E
  5
3509
331
3231
  5
339F
331
16C9
  5
1A4F
331
1A73
  5
238E
331
DBB
  5
DBD
331
168A
  5
169B
331
3446
  5
3515
331
340F
  5
3423
331
2936
  5
1A5B
331
2392
  5
2934
331
16D1
  5
1A64
331
1A24
  5
22F4
331
DC3
  5
DC5
331
344E
  5
3819
331
3417
  5
342F
331
341F
  5
3434
331
44E0
  5
4744
331
4451
  5
473E
331
3918
  5
3AC2
331
3819
  5
3A7E
331
3E26
  5
3FAF
331
3A62
  5
3B30
331
3E2E
  5
42DC
331
22EB
  5
2396
331
1A2C
  5
2378
331
169A
  5
16AF
331
3281
  5
340C
331
2CEC
  5
2E98
331
16E1
  5
22EB
331
16A2
  5
16BD
  0
SORTENTSTABLE
  5
3891
102
{ACAD_REACTORS
330
3890
102
}
330
3890
100
AcDbSortentsTable
330
388E
  0
XRECORD
  5
4812
102
{ACAD_REACTORS
330
4811
102
}
330
4811
100
AcDbXrecord
280
     1
102
SHADEPLOT
 70
     0
  0
XRECORD
  5
4814
102
{ACAD_REACTORS
330
4813
102
}
330
4813
100
AcDbXrecord
280
     1
102
SHADEPLOT
 70
     0
  0
LAYOUT
  5
22
102
{ACAD_XDICTIONARY
360
480D
102
}
102
{ACAD_REACTORS
330
1A
102
}
330
1A
100
AcDbPlotSettings
  1

  2
EPSON PM-800C
  4
A4
  6

 40
3.757083177566528
 41
14.7637300491333
 42
3.757080078125
 43
3.757080078125
 44
209.9733276367187
 45
296.9683227539062
 46
0.0
 47
0.0
 48
0.0
 49
0.0
140
0.0
141
0.0
142
1.0
143
10.0
 70
 11952
 72
     1
 73
     1
 74
     2
  7

 75
    20
147
0.1
148
0.0
149
0.0
100
AcDbLayout
  1
Model
 70
     1
 71
     0
 10
0.0
 20
0.0
 11
12.0
 21
9.0
 12
0.0
 22
0.0
 32
0.0
 14
0.0
 24
0.0
 34
0.0
 15
0.0
 25
0.0
 35
0.0
146
0.0
 13
0.0
 23
0.0
 33
0.0
 16
1.0
 26
0.0
 36
0.0
 17
0.0
 27
1.0
 37
0.0
 76
     0
330
1F
  0
LAYOUT
  5
1E
102
{ACAD_XDICTIONARY
360
480B
102
}
102
{ACAD_REACTORS
330
1A
102
}
330
1A
100
AcDbPlotSettings
  1

  2
EPSON PM-800C
  4
A4
  6

 40
3.757083177566528
 41
14.7637300491333
 42
3.757080078125
 43
3.757080078125
 44
209.9733276367187
 45
296.9683227539062
 46
0.0
 47
0.0
 48
0.0
 49
0.0
140
0.0
141
0.0
142
1.0
143
1.0
 70
   688
 72
     1
 73
     1
 74
     5
  7

 75
    16
147
1.0
148
0.0
149
0.0
100
AcDbLayout
  1
ﾚｲｱｳﾄ1
 70
     1
 71
     1
 10
-3.757080078125
 20
-3.757083177566528
 11
293.2112426757813
 21
206.2162444591522
 12
0.0
 22
0.0
 32
0.0
 14
27.8447512626648
 24
20.24591643810271
 34
0.0
 15
250.6027613639831
 25
182.2132479429245
 35
0.0
146
0.0
 13
0.0
 23
0.0
 33
0.0
 16
1.0
 26
0.0
 36
0.0
 17
0.0
 27
1.0
 37
0.0
 76
     0
330
1B
331
2E
  0
LAYOUT
  5
26
102
{ACAD_XDICTIONARY
360
480F
102
}
102
{ACAD_REACTORS
330
1A
102
}
330
1A
100
AcDbPlotSettings
  1

  2
EPSON PM-800C
  4

  6

 40
0.0
 41
0.0
 42
0.0
 43
0.0
 44
0.0
 45
0.0
 46
0.0
 47
0.0
 48
0.0
 49
0.0
140
0.0
141
0.0
142
1.0
143
1.0
 70
   688
 72
     0
 73
     0
 74
     5
  7

 75
    16
147
1.0
148
0.0
149
0.0
100
AcDbLayout
  1
ﾚｲｱｳﾄ2
 70
     1
 71
     2
 10
0.0
 20
0.0
 11
12.0
 21
9.0
 12
0.0
 22
0.0
 32
0.0
 14
0.0
 24
0.0
 34
0.0
 15
0.0
 25
0.0
 35
0.0
146
0.0
 13
0.0
 23
0.0
 33
0.0
 16
1.0
 26
0.0
 36
0.0
 17
0.0
 27
1.0
 37
0.0
 76
     0
330
23
  0
MLINESTYLE
  5
18
102
{ACAD_REACTORS
330
17
102
}
330
17
100
AcDbMlineStyle
  2
STANDARD
 70
     0
  3

 62
   256
 51
90.0
 52
90.0
 71
     2
 49
0.5
 62
   256
  6
BYLAYER
 49
-0.5
 62
   256
  6
BYLAYER
  0
ACDBPLACEHOLDER
  5
F
102
{ACAD_REACTORS
330
E
102
}
330
E
  0
TABLESTYLE
  5
260E
102
{ACAD_REACTORS
330
260D
102
}
330
260D
100
AcDbTableStyle
  3
Standard
 70
     0
 71
     0
 40
1.5
 41
1.5
280
     0
281
     0
  7
Standard
140
4.5
170
     2
 62
     0
 63
     7
283
     0
274
    -2
284
     1
 64
     0
275
    -2
285
     1
 65
     0
276
    -2
286
     1
 66
     0
277
    -2
287
     1
 67
     0
278
    -2
288
     1
 68
     0
279
    -2
289
     1
 69
     0
  7
Standard
140
6.0
170
     5
 62
     0
 63
     7
283
     0
274
    -2
284
     1
 64
     0
275
    -2
285
     1
 65
     0
276
    -2
286
     1
 66
     0
277
    -2
287
     1
 67
     0
278
    -2
288
     1
 68
     0
279
    -2
289
     1
 69
     0
  7
Standard
140
4.5
170
     5
 62
     0
 63
     7
283
     0
274
    -2
284
     1
 64
     0
275
    -2
285
     1
 65
     0
276
    -2
286
     1
 66
     0
277
    -2
287
     1
 67
     0
278
    -2
288
     1
 68
     0
279
    -2
289
     1
 69
     0
  0
DICTIONARYVAR
  5
2614
102
{ACAD_REACTORS
330
1055
102
}
330
1055
100
DictionaryVariables
280
     0
  1
STANDARD
  0
DICTIONARYVAR
  5
4807
102
{ACAD_REACTORS
330
1055
102
}
330
1055
100
DictionaryVariables
280
     0
  1
1
  0
DICTIONARYVAR
  5
4808
102
{ACAD_REACTORS
330
1055
102
}
330
1055
100
DictionaryVariables
280
     0
  1

  0
DICTIONARYVAR
  5
1056
102
{ACAD_REACTORS
330
1055
102
}
330
1055
100
DictionaryVariables
280
     0
  1
96
  0
DICTIONARY
  5
480D
330
22
100
AcDbDictionary
280
     1
281
     1
  3
ACAD_XREC_ROUNDTRIP
360
480E
  0
DICTIONARY
  5
480B
330
1E
100
AcDbDictionary
280
     1
281
     1
  3
ACAD_XREC_ROUNDTRIP
360
480C
  0
DICTIONARY
  5
480F
330
26
100
AcDbDictionary
280
     1
281
     1
  3
ACAD_XREC_ROUNDTRIP
360
4810
  0
XRECORD
  5
480E
102
{ACAD_REACTORS
330
480D
102
}
330
480D
100
AcDbXrecord
280
     1
102
SHADEPLOT
 70
     0
102
SHADEPLOTRESLEVEL
 70
     2
102
SHADEPLOTCUSTOMDPI
 70
   300
  0
XRECORD
  5
480C
102
{ACAD_REACTORS
330
480B
102
}
330
480B
100
AcDbXrecord
280
     1
102
SHADEPLOT
 70
     0
102
SHADEPLOTRESLEVEL
 70
     2
102
SHADEPLOTCUSTOMDPI
 70
   300
  0
XRECORD
  5
4810
102
{ACAD_REACTORS
330
480F
102
}
330
480F
100
AcDbXrecord
280
     1
102
SHADEPLOT
 70
     0
102
SHADEPLOTRESLEVEL
 70
     2
102
SHADEPLOTCUSTOMDPI
 70
   300
  0
ENDSEC
  0
EOF
