  0
SECTION
  2
HEADER
  9
$ACADVER
  1
AC1015
  9
$ACADMAINTVER
 70
    20
  9
$DWGCODEPAGE
  3
ANSI_932
  9
$INSBASE
 10
0.0
 20
0.0
 30
0.0
  9
$EXTMIN
 10
109.0
 20
4.0
 30
0.0
  9
$EXTMAX
 10
2784.0
 20
2024.000000000002
 30
0.0
  9
$LIMMIN
 10
0.0
 20
0.0
  9
$LIMMAX
 10
29700.0
 20
21000.0
  9
$ORTHOMODE
 70
     1
  9
$REGENMODE
 70
     1
  9
$FILLMODE
 70
     1
  9
$QTEXTMODE
 70
     0
  9
$MIRRTEXT
 70
     1
  9
$LTSCALE
 40
4.0
  9
$ATTMODE
 70
     1
  9
$TEXTSIZE
 40
25.0
  9
$TRACEWID
 40
1.0
  9
$TEXTSTYLE
  7
Standard
  9
$CLAYER
  8
実形
  9
$CELTYPE
  6
ByLayer
  9
$CECOLOR
 62
     3
  9
$CELTSCALE
 40
1.0
  9
$DISPSILH
 70
     0
  9
$DIMSCALE
 40
1.0
  9
$DIMASZ
 40
35.0
  9
$DIMEXO
 40
65.0
  9
$DIMDLI
 40
3.75
  9
$DIMRND
 40
0.0
  9
$DIMDLE
 40
0.0
  9
$DIMEXE
 40
0.0
  9
$DIMTP
 40
0.0
  9
$DIMTM
 40
0.0
  9
$DIMTXT
 40
25.0
  9
$DIMCEN
 40
2.5
  9
$DIMTSZ
 40
0.0
  9
$DIMTOL
 70
     0
  9
$DIMLIM
 70
     0
  9
$DIMTIH
 70
     0
  9
$DIMTOH
 70
     0
  9
$DIMSE1
 70
     0
  9
$DIMSE2
 70
     0
  9
$DIMTAD
 70
     1
  9
$DIMZIN
 70
     8
  9
$DIMBLK
  1
DotSmall
  9
$DIMASO
 70
     1
  9
$DIMSHO
 70
     1
  9
$DIMPOST
  1

  9
$DIMAPOST
  1

  9
$DIMALT
 70
     0
  9
$DIMALTD
 70
     3
  9
$DIMALTF
 40
0.03937007874016
  9
$DIMLFAC
 40
1.0
  9
$DIMTOFL
 70
     1
  9
$DIMTVP
 40
0.0
  9
$DIMTIX
 70
     0
  9
$DIMSOXD
 70
     0
  9
$DIMSAH
 70
     0
  9
$DIMBLK1
  1

  9
$DIMBLK2
  1

  9
$DIMSTYLE
  2
ISO-25
  9
$DIMCLRD
 70
     0
  9
$DIMCLRE
 70
     0
  9
$DIMCLRT
 70
     0
  9
$DIMTFAC
 40
1.0
  9
$DIMGAP
 40
6.25
  9
$DIMJUST
 70
     0
  9
$DIMSD1
 70
     0
  9
$DIMSD2
 70
     0
  9
$DIMTOLJ
 70
     0
  9
$DIMTZIN
 70
     8
  9
$DIMALTZ
 70
     0
  9
$DIMALTTZ
 70
     0
  9
$DIMUPT
 70
     0
  9
$DIMDEC
 70
     2
  9
$DIMTDEC
 70
     2
  9
$DIMALTU
 70
     2
  9
$DIMALTTD
 70
     3
  9
$DIMTXSTY
  7
Standard
  9
$DIMAUNIT
 70
     0
  9
$DIMADEC
 70
     0
  9
$DIMALTRND
 40
0.0
  9
$DIMAZIN
 70
     0
  9
$DIMDSEP
 70
    46
  9
$DIMATFIT
 70
     0
  9
$DIMFRAC
 70
     0
  9
$DIMLDRBLK
  1
Open30
  9
$DIMLUNIT
 70
     2
  9
$DIMLWD
 70
    18
  9
$DIMLWE
 70
    18
  9
$DIMTMOVE
 70
     2
  9
$LUNITS
 70
     2
  9
$LUPREC
 70
     2
  9
$SKETCHINC
 40
1.0
  9
$FILLETRAD
 40
20.0
  9
$AUNITS
 70
     0
  9
$AUPREC
 70
     0
  9
$MENU
  1
.
  9
$ELEVATION
 40
0.0
  9
$PELEVATION
 40
0.0
  9
$THICKNESS
 40
0.0
  9
$LIMCHECK
 70
     1
  9
$CHAMFERA
 40
10.0
  9
$CHAMFERB
 40
10.0
  9
$CHAMFERC
 40
20.0
  9
$CHAMFERD
 40
0.0
  9
$SKPOLY
 70
     0
  9
$TDCREATE
 40
2451673.575802199
  9
$TDUCREATE
 40
2451673.200802199
  9
$TDUPDATE
 40
2458809.786338449
  9
$TDUUPDATE
 40
2458809.411338449
  9
$TDINDWG
 40
1.5540220949
  9
$TDUSRTIMER
 40
1.5540214005
  9
$USRTIMER
 70
     1
  9
$ANGBASE
 50
0.0
  9
$ANGDIR
 70
     0
  9
$PDMODE
 70
     3
  9
$PDSIZE
 40
0.0
  9
$PLINEWID
 40
0.0
  9
$SPLFRAME
 70
     0
  9
$SPLINETYPE
 70
     6
  9
$SPLINESEGS
 70
     8
  9
$HANDSEED
  5
5B33
  9
$SURFTAB1
 70
     6
  9
$SURFTAB2
 70
     6
  9
$SURFTYPE
 70
     6
  9
$SURFU
 70
     6
  9
$SURFV
 70
     6
  9
$UCSBASE
  2

  9
$UCSNAME
  2

  9
$UCSORG
 10
0.0
 20
0.0
 30
0.0
  9
$UCSXDIR
 10
1.0
 20
0.0
 30
0.0
  9
$UCSYDIR
 10
0.0
 20
1.0
 30
0.0
  9
$UCSORTHOREF
  2

  9
$UCSORTHOVIEW
 70
     0
  9
$UCSORGTOP
 10
0.0
 20
0.0
 30
0.0
  9
$UCSORGBOTTOM
 10
0.0
 20
0.0
 30
0.0
  9
$UCSORGLEFT
 10
0.0
 20
0.0
 30
0.0
  9
$UCSORGRIGHT
 10
0.0
 20
0.0
 30
0.0
  9
$UCSORGFRONT
 10
0.0
 20
0.0
 30
0.0
  9
$UCSORGBACK
 10
0.0
 20
0.0
 30
0.0
  9
$PUCSBASE
  2

  9
$PUCSNAME
  2

  9
$PUCSORG
 10
0.0
 20
0.0
 30
0.0
  9
$PUCSXDIR
 10
1.0
 20
0.0
 30
0.0
  9
$PUCSYDIR
 10
0.0
 20
1.0
 30
0.0
  9
$PUCSORTHOREF
  2

  9
$PUCSORTHOVIEW
 70
     0
  9
$PUCSORGTOP
 10
0.0
 20
0.0
 30
0.0
  9
$PUCSORGBOTTOM
 10
0.0
 20
0.0
 30
0.0
  9
$PUCSORGLEFT
 10
0.0
 20
0.0
 30
0.0
  9
$PUCSORGRIGHT
 10
0.0
 20
0.0
 30
0.0
  9
$PUCSORGFRONT
 10
0.0
 20
0.0
 30
0.0
  9
$PUCSORGBACK
 10
0.0
 20
0.0
 30
0.0
  9
$USERI1
 70
     0
  9
$USERI2
 70
     0
  9
$USERI3
 70
     0
  9
$USERI4
 70
     0
  9
$USERI5
 70
     0
  9
$USERR1
 40
0.0
  9
$USERR2
 40
0.0
  9
$USERR3
 40
0.0
  9
$USERR4
 40
0.0
  9
$USERR5
 40
0.0
  9
$WORLDVIEW
 70
     1
  9
$SHADEDGE
 70
     3
  9
$SHADEDIF
 70
    70
  9
$TILEMODE
 70
     1
  9
$MAXACTVP
 70
    64
  9
$PINSBASE
 10
0.0
 20
0.0
 30
0.0
  9
$PLIMCHECK
 70
     0
  9
$PEXTMIN
 10
27.8447512626648
 20
20.24591643810271
 30
0.0
  9
$PEXTMAX
 10
250.6027613639831
 20
182.2132479429245
 30
0.0
  9
$PLIMMIN
 10
-3.757080078125
 20
-3.757083177566528
  9
$PLIMMAX
 10
293.2112426757813
 20
206.2162444591522
  9
$UNITMODE
 70
     0
  9
$VISRETAIN
 70
     1
  9
$PLINEGEN
 70
     0
  9
$PSLTSCALE
 70
     1
  9
$TREEDEPTH
 70
  3020
  9
$CMLSTYLE
  2
Standard
  9
$CMLJUST
 70
     0
  9
$CMLSCALE
 40
20.0
  9
$PROXYGRAPHICS
 70
     1
  9
$MEASUREMENT
 70
     1
  9
$CELWEIGHT
370
    -1
  9
$ENDCAPS
280
     0
  9
$JOINSTYLE
280
     0
  9
$LWDISPLAY
290
     0
  9
$INSUNITS
 70
     4
  9
$HYPERLINKBASE
  1

  9
$STYLESHEET
  1

  9
$XEDIT
290
     1
  9
$CEPSNTYPE
380
     0
  9
$PSTYLEMODE
290
     1
  9
$FINGERPRINTGUID
  2
{C8EA1F16-24C9-11D4-9416-CE0A3B32152F}
  9
$VERSIONGUID
  2
{1A56F4B6-C381-4469-879D-2E1DD0A7AFAF}
  9
$EXTNAMES
290
     1
  9
$PSVPSCALE
 40
0.0
  9
$OLESTARTUP
290
     0
  0
ENDSEC
  0
SECTION
  2
CLASSES
  0
CLASS
  1
ACDBDICTIONARYWDFLT
  2
AcDbDictionaryWithDefault
  3
ObjectDBX Classes
 90
        0
280
     0
281
     0
  0
CLASS
  1
ACDBPLACEHOLDER
  2
AcDbPlaceHolder
  3
ObjectDBX Classes
 90
        0
280
     0
281
     0
  0
CLASS
  1
LAYOUT
  2
AcDbLayout
  3
ObjectDBX Classes
 90
        0
280
     0
281
     0
  0
CLASS
  1
DICTIONARYVAR
  2
AcDbDictionaryVar
  3
ObjectDBX Classes
 90
        0
280
     0
281
     0
  0
CLASS
  1
TABLESTYLE
  2
AcDbTableStyle
  3
ObjectDBX Classes
 90
     2047
280
     0
281
     0
  0
CLASS
  1
SORTENTSTABLE
  2
AcDbSortentsTable
  3
ObjectDBX Classes
 90
        0
280
     0
281
     0
  0
ENDSEC
  0
SECTION
  2
TABLES
  0
TABLE
  2
VPORT
  5
8
330
0
100
AcDbSymbolTable
 70
     2
  0
VPORT
  5
5B27
330
8
100
AcDbSymbolTableRecord
100
AcDbViewportTableRecord
  2
*Active
 70
     0
 10
0.0
 20
0.0
 11
1.0
 21
1.0
 12
1525.283621172005
 22
1063.807798399718
 13
0.0
 23
0.0
 14
10.0
 24
10.0
 15
10.0
 25
10.0
 16
0.0
 26
0.0
 36
1.0
 17
0.0
 27
0.0
 37
0.0
 40
2280.800295161439
 41
1.29038112522686
 42
50.0
 43
0.0
 44
0.0
 50
0.0
 51
0.0
 71
     0
 72
   100
 73
     1
 74
     3
 75
     0
 76
     0
 77
     0
 78
     0
281
     0
 65
     1
110
0.0
120
0.0
130
0.0
111
1.0
121
0.0
131
0.0
112
0.0
122
1.0
132
0.0
 79
     0
146
0.0
  0
ENDTAB
  0
TABLE
  2
LTYPE
  5
5
330
0
100
AcDbSymbolTable
 70
    46
  0
LTYPE
  5
14
330
5
100
AcDbSymbolTableRecord
100
AcDbLinetypeTableRecord
  2
ByBlock
 70
     0
  3

 72
    65
 73
     0
 40
0.0
  0
LTYPE
  5
15
330
5
100
AcDbSymbolTableRecord
100
AcDbLinetypeTableRecord
  2
ByLayer
 70
     0
  3

 72
    65
 73
     0
 40
0.0
  0
LTYPE
  5
16
330
5
100
AcDbSymbolTableRecord
100
AcDbLinetypeTableRecord
  2
Continuous
 70
     0
  3
Solid line
 72
    65
 73
     0
 40
0.0
  0
LTYPE
  5
34
330
5
100
AcDbSymbolTableRecord
100
AcDbLinetypeTableRecord
  2
ACAD_ISO02W100
 70
     0
  3
ISO dash __ __ __ __ __ __ __ __ __ __ __ __ __
 72
    65
 73
     2
 40
15.0
 49
12.0
 74
     0
 49
-3.0
 74
     0
  0
LTYPE
  5
35
330
5
100
AcDbSymbolTableRecord
100
AcDbLinetypeTableRecord
  2
ACAD_ISO03W100
 70
     0
  3
ISO dash space __    __    __    __    __    __
 72
    65
 73
     2
 40
30.0
 49
12.0
 74
     0
 49
-18.0
 74
     0
  0
LTYPE
  5
36
330
5
100
AcDbSymbolTableRecord
100
AcDbLinetypeTableRecord
  2
ACAD_ISO04W100
 70
     0
  3
ISO long-dash dot ____ . ____ . ____ . ____ . _
 72
    65
 73
     4
 40
30.0
 49
24.0
 74
     0
 49
-3.0
 74
     0
 49
0.0
 74
     0
 49
-3.0
 74
     0
  0
LTYPE
  5
37
330
5
100
AcDbSymbolTableRecord
100
AcDbLinetypeTableRecord
  2
ACAD_ISO05W100
 70
     0
  3
ISO long-dash double-dot ____ .. ____ .. ____ .
 72
    65
 73
     6
 40
34.0
 49
24.0
 74
     0
 49
-3.0
 74
     0
 49
0.5
 74
     0
 49
-3.0
 74
     0
 49
0.5
 74
     0
 49
-3.0
 74
     0
  0
LTYPE
  5
38
330
5
100
AcDbSymbolTableRecord
100
AcDbLinetypeTableRecord
  2
ACAD_ISO06W100
 70
     0
  3
ISO long-dash triple-dot ____ ... ____ ... ____
 72
    65
 73
     8
 40
37.5
 49
24.0
 74
     0
 49
-3.0
 74
     0
 49
0.5
 74
     0
 49
-3.0
 74
     0
 49
0.5
 74
     0
 49
-3.0
 74
     0
 49
0.5
 74
     0
 49
-3.0
 74
     0
  0
LTYPE
  5
39
330
5
100
AcDbSymbolTableRecord
100
AcDbLinetypeTableRecord
  2
ACAD_ISO07W100
 70
     0
  3
ISO dot . . . . . . . . . . . . . . . . . . . .
 72
    65
 73
     2
 40
3.0
 49
0.0
 74
     0
 49
-3.0
 74
     0
  0
LTYPE
  5
3A
330
5
100
AcDbSymbolTableRecord
100
AcDbLinetypeTableRecord
  2
ACAD_ISO08W100
 70
     0
  3
ISO long-dash short-dash ____ __ ____ __ ____ _
 72
    65
 73
     4
 40
36.0
 49
24.0
 74
     0
 49
-3.0
 74
     0
 49
6.0
 74
     0
 49
-3.0
 74
     0
  0
LTYPE
  5
3B
330
5
100
AcDbSymbolTableRecord
100
AcDbLinetypeTableRecord
  2
ACAD_ISO09W100
 70
     0
  3
ISO long-dash double-short-dash ____ __ __ ____
 72
    65
 73
     6
 40
45.0
 49
24.0
 74
     0
 49
-3.0
 74
     0
 49
6.0
 74
     0
 49
-3.0
 74
     0
 49
6.0
 74
     0
 49
-3.0
 74
     0
  0
LTYPE
  5
3C
330
5
100
AcDbSymbolTableRecord
100
AcDbLinetypeTableRecord
  2
ACAD_ISO10W100
 70
     0
  3
ISO dash dot __ . __ . __ . __ . __ . __ . __ .
 72
    65
 73
     4
 40
18.0
 49
12.0
 74
     0
 49
-3.0
 74
     0
 49
0.0
 74
     0
 49
-3.0
 74
     0
  0
LTYPE
  5
3D
330
5
100
AcDbSymbolTableRecord
100
AcDbLinetypeTableRecord
  2
ACAD_ISO11W100
 70
     0
  3
ISO double-dash dot __ __ . __ __ . __ __ . __ 
 72
    65
 73
     6
 40
33.0
 49
12.0
 74
     0
 49
-3.0
 74
     0
 49
12.0
 74
     0
 49
-3.0
 74
     0
 49
0.0
 74
     0
 49
-3.0
 74
     0
  0
LTYPE
  5
3E
330
5
100
AcDbSymbolTableRecord
100
AcDbLinetypeTableRecord
  2
ACAD_ISO12W100
 70
     0
  3
ISO dash double-dot __ . . __ . . __ . . __ . .
 72
    65
 73
     6
 40
21.0
 49
12.0
 74
     0
 49
-3.0
 74
     0
 49
0.0
 74
     0
 49
-3.0
 74
     0
 49
0.0
 74
     0
 49
-3.0
 74
     0
  0
LTYPE
  5
3F
330
5
100
AcDbSymbolTableRecord
100
AcDbLinetypeTableRecord
  2
ACAD_ISO13W100
 70
     0
  3
ISO double-dash double-dot __ __ . . __ __ . . 
 72
    65
 73
     8
 40
36.0
 49
12.0
 74
     0
 49
-3.0
 74
     0
 49
12.0
 74
     0
 49
-3.0
 74
     0
 49
0.0
 74
     0
 49
-3.0
 74
     0
 49
0.0
 74
     0
 49
-3.0
 74
     0
  0
LTYPE
  5
40
330
5
100
AcDbSymbolTableRecord
100
AcDbLinetypeTableRecord
  2
ACAD_ISO14W100
 70
     0
  3
ISO dash triple-dot __ . . . __ . . . __ . . . 
 72
    65
 73
     8
 40
24.0
 49
12.0
 74
     0
 49
-3.0
 74
     0
 49
0.0
 74
     0
 49
-3.0
 74
     0
 49
0.0
 74
     0
 49
-3.0
 74
     0
 49
0.0
 74
     0
 49
-3.0
 74
     0
  0
LTYPE
  5
41
330
5
100
AcDbSymbolTableRecord
100
AcDbLinetypeTableRecord
  2
ACAD_ISO15W100
 70
     0
  3
ISO double-dash triple-dot __ __ . . . __ __ . 
 72
    65
 73
    10
 40
39.0
 49
12.0
 74
     0
 49
-3.0
 74
     0
 49
12.0
 74
     0
 49
-3.0
 74
     0
 49
0.0
 74
     0
 49
-3.0
 74
     0
 49
0.0
 74
     0
 49
-3.0
 74
     0
 49
0.0
 74
     0
 49
-3.0
 74
     0
  0
LTYPE
  5
42
330
5
100
AcDbSymbolTableRecord
100
AcDbLinetypeTableRecord
  2
BATTING
 70
     0
  3
Batting SSSSSSSSSSSSSSSSSSSSSSSSSSSSSSSSSSSSSSS
 72
    65
 73
     4
 40
10.16254
 49
0.00254
 74
     0
 49
-2.54
 74
     4
 75
   134
340
33
 46
2.54
 50
0.0
 44
-2.54
 45
0.0
 49
-5.08
 74
     4
 75
   134
340
33
 46
2.54
 50
180.0
 44
2.54
 45
0.0
 49
-2.54
 74
     0
  0
LTYPE
  5
43
330
5
100
AcDbSymbolTableRecord
100
AcDbLinetypeTableRecord
  2
BORDER
 70
     0
  3
Border __ __ . __ __ . __ __ . __ __ . __ __ .
 72
    65
 73
     6
 40
44.45
 49
12.7
 74
     0
 49
-6.349999999999999
 74
     0
 49
12.7
 74
     0
 49
-6.349999999999999
 74
     0
 49
0.0
 74
     0
 49
-6.349999999999999
 74
     0
  0
LTYPE
  5
44
330
5
100
AcDbSymbolTableRecord
100
AcDbLinetypeTableRecord
  2
BORDER2
 70
     0
  3
Border (.5x) __.__.__.__.__.__.__.__.__.__.__.
 72
    65
 73
     6
 40
22.225
 49
6.349999999999999
 74
     0
 49
-3.174999999999999
 74
     0
 49
6.349999999999999
 74
     0
 49
-3.174999999999999
 74
     0
 49
0.0
 74
     0
 49
-3.174999999999999
 74
     0
  0
LTYPE
  5
45
330
5
100
AcDbSymbolTableRecord
100
AcDbLinetypeTableRecord
  2
BORDERX2
 70
     0
  3
Border (2x) ____  ____  .  ____  ____  .  ___
 72
    65
 73
     6
 40
88.9
 49
25.4
 74
     0
 49
-12.7
 74
     0
 49
25.4
 74
     0
 49
-12.7
 74
     0
 49
0.0
 74
     0
 49
-12.7
 74
     0
  0
LTYPE
  5
46
330
5
100
AcDbSymbolTableRecord
100
AcDbLinetypeTableRecord
  2
CENTER
 70
     0
  3
Center ____ _ ____ _ ____ _ ____ _ ____ _ ____
 72
    65
 73
     4
 40
50.8
 49
31.75
 74
     0
 49
-6.349999999999999
 74
     0
 49
6.349999999999999
 74
     0
 49
-6.349999999999999
 74
     0
  0
LTYPE
  5
47
330
5
100
AcDbSymbolTableRecord
100
AcDbLinetypeTableRecord
  2
CENTER2
 70
     0
  3
Center (.5x) ___ _ ___ _ ___ _ ___ _ ___ _ ___
 72
    65
 73
     4
 40
28.575
 49
19.05
 74
     0
 49
-3.174999999999999
 74
     0
 49
3.174999999999999
 74
     0
 49
-3.174999999999999
 74
     0
  0
LTYPE
  5
48
330
5
100
AcDbSymbolTableRecord
100
AcDbLinetypeTableRecord
  2
CENTERX2
 70
     0
  3
Center (2x) ________  __  ________  __  _____
 72
    65
 73
     4
 40
101.6
 49
63.5
 74
     0
 49
-12.7
 74
     0
 49
12.7
 74
     0
 49
-12.7
 74
     0
  0
LTYPE
  5
49
330
5
100
AcDbSymbolTableRecord
100
AcDbLinetypeTableRecord
  2
DASHDOT
 70
     0
  3
Dash dot __ . __ . __ . __ . __ . __ . __ . __
 72
    65
 73
     4
 40
25.4
 49
12.7
 74
     0
 49
-6.349999999999999
 74
     0
 49
0.0
 74
     0
 49
-6.349999999999999
 74
     0
  0
LTYPE
  5
4A
330
5
100
AcDbSymbolTableRecord
100
AcDbLinetypeTableRecord
  2
DASHDOT2
 70
     0
  3
Dash dot (.5x) _._._._._._._._._._._._._._._.
 72
    65
 73
     4
 40
12.7
 49
6.349999999999999
 74
     0
 49
-3.174999999999999
 74
     0
 49
0.0
 74
     0
 49
-3.174999999999999
 74
     0
  0
LTYPE
  5
4B
330
5
100
AcDbSymbolTableRecord
100
AcDbLinetypeTableRecord
  2
DASHDOTX2
 70
     0
  3
Dash dot (2x) ____  .  ____  .  ____  .  ___
 72
    65
 73
     4
 40
50.8
 49
25.4
 74
     0
 49
-12.7
 74
     0
 49
0.0
 74
     0
 49
-12.7
 74
     0
  0
LTYPE
  5
4C
330
5
100
AcDbSymbolTableRecord
100
AcDbLinetypeTableRecord
  2
DASHED
 70
     0
  3
Dashed __ __ __ __ __ __ __ __ __ __ __ __ __ _
 72
    65
 73
     2
 40
19.05
 49
12.7
 74
     0
 49
-6.349999999999999
 74
     0
  0
LTYPE
  5
4D
330
5
100
AcDbSymbolTableRecord
100
AcDbLinetypeTableRecord
  2
DASHED2
 70
     0
  3
Dashed (.5x) _ _ _ _ _ _ _ _ _ _ _ _ _ _ _ _ _
 72
    65
 73
     2
 40
9.524999999999998
 49
6.349999999999999
 74
     0
 49
-3.174999999999999
 74
     0
  0
LTYPE
  5
4E
330
5
100
AcDbSymbolTableRecord
100
AcDbLinetypeTableRecord
  2
DASHEDX2
 70
     0
  3
Dashed (2x) ____  ____  ____  ____  ____  ___
 72
    65
 73
     2
 40
38.1
 49
25.4
 74
     0
 49
-12.7
 74
     0
  0
LTYPE
  5
4F
330
5
100
AcDbSymbolTableRecord
100
AcDbLinetypeTableRecord
  2
DIVIDE
 70
     0
  3
Divide ____ . . ____ . . ____ . . ____ . . ____
 72
    65
 73
     6
 40
31.75
 49
12.7
 74
     0
 49
-6.349999999999999
 74
     0
 49
0.0
 74
     0
 49
-6.349999999999999
 74
     0
 49
0.0
 74
     0
 49
-6.349999999999999
 74
     0
  0
LTYPE
  5
50
330
5
100
AcDbSymbolTableRecord
100
AcDbLinetypeTableRecord
  2
DIVIDE2
 70
     0
  3
Divide (.5x) __..__..__..__..__..__..__..__.._
 72
    65
 73
     6
 40
15.875
 49
6.349999999999999
 74
     0
 49
-3.174999999999999
 74
     0
 49
0.0
 74
     0
 49
-3.174999999999999
 74
     0
 49
0.0
 74
     0
 49
-3.174999999999999
 74
     0
  0
LTYPE
  5
51
330
5
100
AcDbSymbolTableRecord
100
AcDbLinetypeTableRecord
  2
DIVIDEX2
 70
     0
  3
Divide (2x) ________  .  .  ________  .  .  _
 72
    65
 73
     6
 40
63.49999999999999
 49
25.4
 74
     0
 49
-12.7
 74
     0
 49
0.0
 74
     0
 49
-12.7
 74
     0
 49
0.0
 74
     0
 49
-12.7
 74
     0
  0
LTYPE
  5
52
330
5
100
AcDbSymbolTableRecord
100
AcDbLinetypeTableRecord
  2
DOT
 70
     0
  3
Dot . . . . . . . . . . . . . . . . . . . . . .
 72
    65
 73
     2
 40
6.349999999999999
 49
0.0
 74
     0
 49
-6.349999999999999
 74
     0
  0
LTYPE
  5
53
330
5
100
AcDbSymbolTableRecord
100
AcDbLinetypeTableRecord
  2
DOT2
 70
     0
  3
Dot (.5x) .....................................
 72
    65
 73
     2
 40
3.174999999999999
 49
0.0
 74
     0
 49
-3.174999999999999
 74
     0
  0
LTYPE
  5
54
330
5
100
AcDbSymbolTableRecord
100
AcDbLinetypeTableRecord
  2
DOTX2
 70
     0
  3
Dot (2x) .  .  .  .  .  .  .  .  .  .  .  .  . 
 72
    65
 73
     2
 40
12.7
 49
0.0
 74
     0
 49
-12.7
 74
     0
  0
LTYPE
  5
55
330
5
100
AcDbSymbolTableRecord
100
AcDbLinetypeTableRecord
  2
FENCELINE1
 70
     0
  3
Fenceline circle ----0-----0----0-----0----0---
 72
    65
 73
     4
 40
36.83
 49
6.349999999999999
 74
     0
 49
-2.54
 74
     4
 75
   133
340
33
 46
2.54
 50
0.0
 44
-2.54
 45
0.0
 49
-2.54
 74
     0
 49
25.4
 74
     0
  0
LTYPE
  5
56
330
5
100
AcDbSymbolTableRecord
100
AcDbLinetypeTableRecord
  2
FENCELINE2
 70
     0
  3
Fenceline square ----[]-----[]----[]-----[]----
 72
    65
 73
     4
 40
36.83
 49
6.349999999999999
 74
     0
 49
-2.54
 74
     4
 75
   132
340
33
 46
2.54
 50
0.0
 44
-2.54
 45
0.0
 49
-2.54
 74
     0
 49
25.4
 74
     0
  0
LTYPE
  5
57
330
5
100
AcDbSymbolTableRecord
100
AcDbLinetypeTableRecord
  2
GAS_LINE
 70
     0
  3
Gas line ----GAS----GAS----GAS----GAS----GAS---
 72
    65
 73
     3
 40
24.13
 49
12.7
 74
     0
 49
-5.08
 74
     2
 75
     0
340
11
 46
2.54
 50
0.0
 44
-2.54
 45
-1.27
  9
GAS
 49
-6.349999999999999
 74
     0
  0
LTYPE
  5
58
330
5
100
AcDbSymbolTableRecord
100
AcDbLinetypeTableRecord
  2
HIDDEN
 70
     0
  3
Hidden __ __ __ __ __ __ __ __ __ __ __ __ __ _
 72
    65
 73
     2
 40
9.524999999999998
 49
6.349999999999999
 74
     0
 49
-3.174999999999999
 74
     0
  0
LTYPE
  5
59
330
5
100
AcDbSymbolTableRecord
100
AcDbLinetypeTableRecord
  2
HIDDEN2
 70
     0
  3
Hidden (.5x) _ _ _ _ _ _ _ _ _ _ _ _ _ _ _ _ _
 72
    65
 73
     2
 40
4.762499999999999
 49
3.174999999999999
 74
     0
 49
-1.587499999999999
 74
     0
  0
LTYPE
  5
5A
330
5
100
AcDbSymbolTableRecord
100
AcDbLinetypeTableRecord
  2
HIDDENX2
 70
     0
  3
Hidden (2x) ____ ____ ____ ____ ____ ____ ____
 72
    65
 73
     2
 40
19.05
 49
12.7
 74
     0
 49
-6.349999999999999
 74
     0
  0
LTYPE
  5
5B
330
5
100
AcDbSymbolTableRecord
100
AcDbLinetypeTableRecord
  2
HOT_WATER_SUPPLY
 70
     0
  3
Hot water supply ---- HW ---- HW ---- HW ----
 72
    65
 73
     3
 40
22.86
 49
12.7
 74
     0
 49
-5.08
 74
     2
 75
     0
340
11
 46
2.54
 50
0.0
 44
-2.54
 45
-1.27
  9
HW
 49
-5.08
 74
     0
  0
LTYPE
  5
5C
330
5
100
AcDbSymbolTableRecord
100
AcDbLinetypeTableRecord
  2
PHANTOM
 70
     0
  3
Phantom ______  __  __  ______  __  __  ______
 72
    65
 73
     6
 40
63.5
 49
31.75
 74
     0
 49
-6.349999999999999
 74
     0
 49
6.349999999999999
 74
     0
 49
-6.349999999999999
 74
     0
 49
6.349999999999999
 74
     0
 49
-6.349999999999999
 74
     0
  0
LTYPE
  5
5D
330
5
100
AcDbSymbolTableRecord
100
AcDbLinetypeTableRecord
  2
PHANTOM2
 70
     0
  3
Phantom (.5x) ___ _ _ ___ _ _ ___ _ _ ___ _ _
 72
    65
 73
     6
 40
31.75
 49
15.875
 74
     0
 49
-3.174999999999999
 74
     0
 49
3.174999999999999
 74
     0
 49
-3.174999999999999
 74
     0
 49
3.174999999999999
 74
     0
 49
-3.174999999999999
 74
     0
  0
LTYPE
  5
5E
330
5
100
AcDbSymbolTableRecord
100
AcDbLinetypeTableRecord
  2
PHANTOMX2
 70
     0
  3
Phantom (2x) ____________    ____    ____   _
 72
    65
 73
     6
 40
127.0
 49
63.5
 74
     0
 49
-12.7
 74
     0
 49
12.7
 74
     0
 49
-12.7
 74
     0
 49
12.7
 74
     0
 49
-12.7
 74
     0
  0
LTYPE
  5
5F
330
5
100
AcDbSymbolTableRecord
100
AcDbLinetypeTableRecord
  2
TRACKS
 70
     0
  3
Tracks -|-|-|-|-|-|-|-|-|-|-|-|-|-|-|-|-|-|-|-|
 72
    65
 73
     2
 40
7.62
 49
3.81
 74
     4
 75
   130
340
33
 46
6.349999999999999
 50
0.0
 44
0.0
 45
0.0
 49
3.81
 74
     0
  0
LTYPE
  5
60
330
5
100
AcDbSymbolTableRecord
100
AcDbLinetypeTableRecord
  2
ZIGZAG
 70
     0
  3
Zig zag /\/\/\/\/\/\/\/\/\/\/\/\/\/\/\/\/\/\/\/
 72
    65
 73
     4
 40
20.32254
 49
0.00254
 74
     0
 49
-5.08
 74
     4
 75
   131
340
33
 46
5.08
 50
0.0
 44
-5.08
 45
0.0
 49
-10.16
 74
     4
 75
   131
340
33
 46
5.08
 50
180.0
 44
5.08
 45
0.0
 49
-5.08
 74
     0
  0
ENDTAB
  0
TABLE
  2
LAYER
  5
2
102
{ACAD_XDICTIONARY
360
2635
102
}
330
0
100
AcDbSymbolTable
 70
     9
  0
LAYER
  5
10
330
2
100
AcDbSymbolTableRecord
100
AcDbLayerTableRecord
  2
0
 70
     0
 62
     7
  6
Continuous
370
    -3
390
F
  0
LAYER
  5
C3
330
2
100
AcDbSymbolTableRecord
100
AcDbLayerTableRecord
  2
Defpoints
 70
     0
 62
     7
  6
Continuous
290
     0
370
    -3
390
F
  0
LAYER
  5
256
330
2
100
AcDbSymbolTableRecord
100
AcDbLayerTableRecord
  2
センター
 70
     0
 62
     7
  6
CENTER2
370
    18
390
F
  0
LAYER
  5
268
330
2
100
AcDbSymbolTableRecord
100
AcDbLayerTableRecord
  2
実形
 70
     0
 62
     7
  6
Continuous
370
    -3
390
F
  0
LAYER
  5
269
330
2
100
AcDbSymbolTableRecord
100
AcDbLayerTableRecord
  2
補助
 70
     0
 62
     7
  6
Continuous
370
    -3
390
F
  0
LAYER
  5
26A
330
2
100
AcDbSymbolTableRecord
100
AcDbLayerTableRecord
  2
寸法
 70
     0
 62
     7
  6
Continuous
370
    18
390
F
  0
LAYER
  5
26B
330
2
100
AcDbSymbolTableRecord
100
AcDbLayerTableRecord
  2
ハッチング
 70
     0
 62
     7
  6
Continuous
370
    18
390
F
  0
LAYER
  5
26D
330
2
100
AcDbSymbolTableRecord
100
AcDbLayerTableRecord
  2
文字
 70
     0
 62
     7
  6
Continuous
370
    -3
390
F
  0
LAYER
  5
59CD
330
2
100
AcDbSymbolTableRecord
100
AcDbLayerTableRecord
  2
枠
 70
     0
 62
     7
  6
Continuous
370
    -3
390
F
  0
ENDTAB
  0
TABLE
  2
STYLE
  5
3
330
0
100
AcDbSymbolTable
 70
     4
  0
STYLE
  5
11
330
3
100
AcDbSymbolTableRecord
100
AcDbTextStyleTableRecord
  2
Standard
 70
     0
 40
0.0
 41
1.0
 50
0.0
 71
     0
 42
25.0
  3
txt.shx
  4
bigfont.shx
  0
STYLE
  5
33
330
3
100
AcDbSymbolTableRecord
100
AcDbTextStyleTableRecord
  2

 70
     1
 40
0.0
 41
1.0
 50
0.0
 71
     0
 42
2.5
  3
ltypeshp.shx
  4

  0
STYLE
  5
272B
330
3
100
AcDbSymbolTableRecord
100
AcDbTextStyleTableRecord
  2
MS明朝
 70
     0
 40
0.0
 41
1.0
 50
0.0
 71
     0
 42
25.0
  3
MS PMincho.ttf
  4

1001
ACAD
1000
MS PMincho
1071
    32786
  0
STYLE
  5
5A44
330
3
100
AcDbSymbolTableRecord
100
AcDbTextStyleTableRecord
  2
明朝
 70
     0
 40
0.0
 41
1.0
 50
0.0
 71
     0
 42
25.0
  3
MS Mincho.ttf
  4

1001
ACAD
1000
MS Mincho
1071
    32785
  0
ENDTAB
  0
TABLE
  2
VIEW
  5
6
330
0
100
AcDbSymbolTable
 70
     0
  0
ENDTAB
  0
TABLE
  2
UCS
  5
7
330
0
100
AcDbSymbolTable
 70
     0
  0
ENDTAB
  0
TABLE
  2
APPID
  5
9
330
0
100
AcDbSymbolTable
 70
     1
  0
APPID
  5
12
330
9
100
AcDbSymbolTableRecord
100
AcDbRegAppTableRecord
  2
ACAD
 70
     0
  0
ENDTAB
  0
TABLE
  2
DIMSTYLE
  5
A
330
0
100
AcDbSymbolTable
 70
     1
100
AcDbDimStyleTable
 71
     1
340
27
  0
DIMSTYLE
105
27
102
{ACAD_REACTORS
330
1677
330
1678
330
1679
330
167B
330
1681
330
1697
330
169A
330
169D
330
169E
330
169F
330
16A0
330
16AF
330
16BD
330
16BF
330
16CA
330
16CF
330
16D0
330
16D1
330
16E1
330
2376
330
2377
330
2378
330
2389
330
2394
330
2395
330
2593
330
25B9
330
25C6
330
2CD2
330
2DCE
330
2DE4
330
2E43
330
3224
330
3231
330
3286
330
32CD
330
3344
330
3351
330
33B1
330
3443
330
3444
330
3448
330
3449
330
344C
330
344D
330
3451
330
3430
330
3435
330
3436
330
343F
330
37CD
330
37CE
330
3819
330
381A
330
3A81
330
3E25
330
3E26
330
3E2A
330
3E2B
330
3E2E
330
3E2F
330
3E33
330
42D7
330
42D8
330
42D9
330
42DA
330
42DD
330
42DE
330
42E2
330
444D
330
1698
330
168D
330
54BD
330
54CA
330
5512
330
5520
330
5563
330
5570
330
557D
330
558A
330
2583
102
}
330
A
100
AcDbSymbolTableRecord
100
AcDbDimStyleTableRecord
  2
ISO-25
 70
     0
 41
35.0
 42
65.0
 43
3.75
 44
0.0
 73
     0
 74
     0
 77
     1
 78
     8
140
25.0
141
2.5
143
0.03937007874016
147
6.25
171
     3
172
     1
271
     2
272
     2
274
     3
283
     0
284
     8
340
11
341
DA
342
D0
371
    15
372
    15
  0
ENDTAB
  0
TABLE
  2
BLOCK_RECORD
  5
1
330
0
100
AcDbSymbolTable
 70
    89
  0
BLOCK_RECORD
  5
1F
102
{ACAD_XDICTIONARY
360
264B
102
}
330
1
100
AcDbSymbolTableRecord
100
AcDbBlockTableRecord
  2
*Model_Space
340
22
  0
BLOCK_RECORD
  5
1B
330
1
100
AcDbSymbolTableRecord
100
AcDbBlockTableRecord
  2
*Paper_Space
340
1E
  0
BLOCK_RECORD
  5
23
330
1
100
AcDbSymbolTableRecord
100
AcDbBlockTableRecord
  2
*Paper_Space0
340
26
  0
BLOCK_RECORD
  5
D0
330
1
100
AcDbSymbolTableRecord
100
AcDbBlockTableRecord
  2
_DotSmall
340
0
102
{BLKREFS
331
2C81
331
2C82
331
2C8A
331
2C8B
331
2C93
331
2C94
331
2CA5
331
2CA6
331
2CAF
331
2CB0
331
2CB7
331
2CB8
331
4462
331
4463
331
4C9C
331
4C9D
331
4CA4
331
4CA5
331
4CB1
331
4CB2
331
4CBE
331
4CBF
331
4CCD
331
4CCE
331
4CDA
331
4CDB
331
4CE9
331
4CEA
331
4CF2
331
4CF3
331
4D12
331
4D13
331
4D1A
331
4D1B
331
4DC4
331
4DC5
331
4DE3
331
4DE4
331
4DF0
331
4DF1
331
4E00
331
4E01
331
4E08
331
4E09
331
532C
331
532D
331
5335
331
5336
331
533D
331
533E
331
5347
331
5348
331
534F
331
5350
331
5358
331
5359
331
5361
331
5362
331
536A
331
536B
331
5373
331
5374
331
537C
331
537D
331
5386
331
5387
331
538F
331
5390
331
5397
331
5398
331
53A0
331
53A1
331
53AA
331
53AB
331
53B3
331
53B4
331
53BC
331
53BD
331
53C5
331
53C6
331
53CE
331
53CF
331
53D6
331
53D7
331
53DF
331
53E0
331
58A7
331
58A8
331
58B0
331
58B1
331
58D4
331
58D5
331
58F1
331
58F2
331
5909
331
590A
331
5913
331
5914
331
5921
331
5922
331
592E
331
592F
331
594A
331
594B
331
5953
331
5954
331
595C
331
595D
331
5965
331
5966
331
5AC8
331
5AC9
331
5AD1
331
5AD2
102
}
  0
BLOCK_RECORD
  5
D4
330
1
100
AcDbSymbolTableRecord
100
AcDbBlockTableRecord
  2
_Origin2
340
0
  0
BLOCK_RECORD
  5
DA
330
1
100
AcDbSymbolTableRecord
100
AcDbBlockTableRecord
  2
_Open30
340
0
  0
BLOCK_RECORD
  5
16E5
330
1
100
AcDbSymbolTableRecord
100
AcDbBlockTableRecord
  2
*D4
340
0
  0
BLOCK_RECORD
  5
16F1
330
1
100
AcDbSymbolTableRecord
100
AcDbBlockTableRecord
  2
*D5
340
0
  0
BLOCK_RECORD
  5
16FD
330
1
100
AcDbSymbolTableRecord
100
AcDbBlockTableRecord
  2
*D6
340
0
  0
BLOCK_RECORD
  5
1709
330
1
100
AcDbSymbolTableRecord
100
AcDbBlockTableRecord
  2
*D7
340
0
  0
BLOCK_RECORD
  5
1715
330
1
100
AcDbSymbolTableRecord
100
AcDbBlockTableRecord
  2
*D8
340
0
  0
BLOCK_RECORD
  5
1739
330
1
100
AcDbSymbolTableRecord
100
AcDbBlockTableRecord
  2
*D9
340
0
  0
BLOCK_RECORD
  5
1745
330
1
100
AcDbSymbolTableRecord
100
AcDbBlockTableRecord
  2
*D10
340
0
  0
BLOCK_RECORD
  5
1751
330
1
100
AcDbSymbolTableRecord
100
AcDbBlockTableRecord
  2
*D11
340
0
  0
BLOCK_RECORD
  5
175D
330
1
100
AcDbSymbolTableRecord
100
AcDbBlockTableRecord
  2
*D12
340
0
  0
BLOCK_RECORD
  5
1769
330
1
100
AcDbSymbolTableRecord
100
AcDbBlockTableRecord
  2
*D13
340
0
  0
BLOCK_RECORD
  5
1775
330
1
100
AcDbSymbolTableRecord
100
AcDbBlockTableRecord
  2
*D14
340
0
  0
BLOCK_RECORD
  5
1781
330
1
100
AcDbSymbolTableRecord
100
AcDbBlockTableRecord
  2
*D15
340
0
  0
BLOCK_RECORD
  5
178E
330
1
100
AcDbSymbolTableRecord
100
AcDbBlockTableRecord
  2
*D16
340
0
  0
BLOCK_RECORD
  5
17B3
330
1
100
AcDbSymbolTableRecord
100
AcDbBlockTableRecord
  2
*D17
340
0
  0
BLOCK_RECORD
  5
17CA
330
1
100
AcDbSymbolTableRecord
100
AcDbBlockTableRecord
  2
*D18
340
0
  0
BLOCK_RECORD
  5
17D6
330
1
100
AcDbSymbolTableRecord
100
AcDbBlockTableRecord
  2
*D19
340
0
  0
BLOCK_RECORD
  5
17EF
330
1
100
AcDbSymbolTableRecord
100
AcDbBlockTableRecord
  2
*D20
340
0
  0
BLOCK_RECORD
  5
17FB
330
1
100
AcDbSymbolTableRecord
100
AcDbBlockTableRecord
  2
*D21
340
0
  0
BLOCK_RECORD
  5
1807
330
1
100
AcDbSymbolTableRecord
100
AcDbBlockTableRecord
  2
*D22
340
0
  0
BLOCK_RECORD
  5
1813
330
1
100
AcDbSymbolTableRecord
100
AcDbBlockTableRecord
  2
*D23
340
0
  0
BLOCK_RECORD
  5
1842
330
1
100
AcDbSymbolTableRecord
100
AcDbBlockTableRecord
  2
*D24
340
0
  0
BLOCK_RECORD
  5
2399
330
1
100
AcDbSymbolTableRecord
100
AcDbBlockTableRecord
  2
*D25
340
0
  0
BLOCK_RECORD
  5
23A5
330
1
100
AcDbSymbolTableRecord
100
AcDbBlockTableRecord
  2
*D26
340
0
  0
BLOCK_RECORD
  5
23B1
330
1
100
AcDbSymbolTableRecord
100
AcDbBlockTableRecord
  2
*D27
340
0
  0
BLOCK_RECORD
  5
23C9
330
1
100
AcDbSymbolTableRecord
100
AcDbBlockTableRecord
  2
*D28
340
0
  0
BLOCK_RECORD
  5
23D5
330
1
100
AcDbSymbolTableRecord
100
AcDbBlockTableRecord
  2
*D29
340
0
  0
BLOCK_RECORD
  5
23E1
330
1
100
AcDbSymbolTableRecord
100
AcDbBlockTableRecord
  2
*D30
340
0
  0
BLOCK_RECORD
  5
2584
330
1
100
AcDbSymbolTableRecord
100
AcDbBlockTableRecord
  2
*D31
340
0
  0
BLOCK_RECORD
  5
2594
330
1
100
AcDbSymbolTableRecord
100
AcDbBlockTableRecord
  2
*D32
340
0
  0
BLOCK_RECORD
  5
25BA
330
1
100
AcDbSymbolTableRecord
100
AcDbBlockTableRecord
  2
*D33
340
0
  0
BLOCK_RECORD
  5
25C7
330
1
100
AcDbSymbolTableRecord
100
AcDbBlockTableRecord
  2
*D34
340
0
  0
BLOCK_RECORD
  5
2CD3
330
1
100
AcDbSymbolTableRecord
100
AcDbBlockTableRecord
  2
*D35
340
0
  0
BLOCK_RECORD
  5
2DCF
330
1
100
AcDbSymbolTableRecord
100
AcDbBlockTableRecord
  2
*D36
340
0
  0
BLOCK_RECORD
  5
2DE5
330
1
100
AcDbSymbolTableRecord
100
AcDbBlockTableRecord
  2
*D37
340
0
  0
BLOCK_RECORD
  5
2E44
330
1
100
AcDbSymbolTableRecord
100
AcDbBlockTableRecord
  2
*D38
340
0
  0
BLOCK_RECORD
  5
2ED7
330
1
100
AcDbSymbolTableRecord
100
AcDbBlockTableRecord
  2
_Dot
340
0
102
{BLKREFS
331
5937
331
5938
331
5940
331
5941
331
5AE7
331
5AE8
331
5AFB
331
5AFC
102
}
  0
BLOCK_RECORD
  5
3225
330
1
100
AcDbSymbolTableRecord
100
AcDbBlockTableRecord
  2
*D40
340
0
  0
BLOCK_RECORD
  5
3232
330
1
100
AcDbSymbolTableRecord
100
AcDbBlockTableRecord
  2
*D41
340
0
  0
BLOCK_RECORD
  5
3287
330
1
100
AcDbSymbolTableRecord
100
AcDbBlockTableRecord
  2
*D42
340
0
  0
BLOCK_RECORD
  5
32CE
330
1
100
AcDbSymbolTableRecord
100
AcDbBlockTableRecord
  2
*D43
340
0
  0
BLOCK_RECORD
  5
3345
330
1
100
AcDbSymbolTableRecord
100
AcDbBlockTableRecord
  2
*D44
340
0
  0
BLOCK_RECORD
  5
3352
330
1
100
AcDbSymbolTableRecord
100
AcDbBlockTableRecord
  2
*D45
340
0
  0
BLOCK_RECORD
  5
33B2
330
1
100
AcDbSymbolTableRecord
100
AcDbBlockTableRecord
  2
*D46
340
0
  0
BLOCK_RECORD
  5
3452
330
1
100
AcDbSymbolTableRecord
100
AcDbBlockTableRecord
  2
*D47
340
0
  0
BLOCK_RECORD
  5
3459
330
1
100
AcDbSymbolTableRecord
100
AcDbBlockTableRecord
  2
*D48
340
0
  0
BLOCK_RECORD
  5
3465
330
1
100
AcDbSymbolTableRecord
100
AcDbBlockTableRecord
  2
*D49
340
0
  0
BLOCK_RECORD
  5
3471
330
1
100
AcDbSymbolTableRecord
100
AcDbBlockTableRecord
  2
*D50
340
0
  0
BLOCK_RECORD
  5
347A
330
1
100
AcDbSymbolTableRecord
100
AcDbBlockTableRecord
  2
*D51
340
0
  0
BLOCK_RECORD
  5
3486
330
1
100
AcDbSymbolTableRecord
100
AcDbBlockTableRecord
  2
*D52
340
0
  0
BLOCK_RECORD
  5
348D
330
1
100
AcDbSymbolTableRecord
100
AcDbBlockTableRecord
  2
*D53
340
0
  0
BLOCK_RECORD
  5
3499
330
1
100
AcDbSymbolTableRecord
100
AcDbBlockTableRecord
  2
*D54
340
0
  0
BLOCK_RECORD
  5
34A0
330
1
100
AcDbSymbolTableRecord
100
AcDbBlockTableRecord
  2
*D55
340
0
  0
BLOCK_RECORD
  5
34AC
330
1
100
AcDbSymbolTableRecord
100
AcDbBlockTableRecord
  2
*D56
340
0
  0
BLOCK_RECORD
  5
34B5
330
1
100
AcDbSymbolTableRecord
100
AcDbBlockTableRecord
  2
*D57
340
0
  0
BLOCK_RECORD
  5
37CF
330
1
100
AcDbSymbolTableRecord
100
AcDbBlockTableRecord
  2
*D58
340
0
  0
BLOCK_RECORD
  5
37DB
330
1
100
AcDbSymbolTableRecord
100
AcDbBlockTableRecord
  2
*D59
340
0
  0
BLOCK_RECORD
  5
381B
330
1
100
AcDbSymbolTableRecord
100
AcDbBlockTableRecord
  2
*D60
340
0
  0
BLOCK_RECORD
  5
3827
330
1
100
AcDbSymbolTableRecord
100
AcDbBlockTableRecord
  2
*D61
340
0
  0
BLOCK_RECORD
  5
388E
102
{ACAD_XDICTIONARY
360
3890
102
}
330
1
100
AcDbSymbolTableRecord
100
AcDbBlockTableRecord
  2
A$C4E395AB2
340
0
  0
BLOCK_RECORD
  5
3A82
330
1
100
AcDbSymbolTableRecord
100
AcDbBlockTableRecord
  2
*D63
340
0
  0
BLOCK_RECORD
  5
3E34
330
1
100
AcDbSymbolTableRecord
100
AcDbBlockTableRecord
  2
*D64
340
0
  0
BLOCK_RECORD
  5
3E3B
330
1
100
AcDbSymbolTableRecord
100
AcDbBlockTableRecord
  2
*D65
340
0
  0
BLOCK_RECORD
  5
3E47
330
1
100
AcDbSymbolTableRecord
100
AcDbBlockTableRecord
  2
*D66
340
0
  0
BLOCK_RECORD
  5
3E53
330
1
100
AcDbSymbolTableRecord
100
AcDbBlockTableRecord
  2
*D67
340
0
  0
BLOCK_RECORD
  5
3E5C
330
1
100
AcDbSymbolTableRecord
100
AcDbBlockTableRecord
  2
*D68
340
0
  0
BLOCK_RECORD
  5
3E68
330
1
100
AcDbSymbolTableRecord
100
AcDbBlockTableRecord
  2
*D69
340
0
  0
BLOCK_RECORD
  5
3E6F
330
1
100
AcDbSymbolTableRecord
100
AcDbBlockTableRecord
  2
*D70
340
0
  0
BLOCK_RECORD
  5
42E3
330
1
100
AcDbSymbolTableRecord
100
AcDbBlockTableRecord
  2
*D71
340
0
  0
BLOCK_RECORD
  5
42EA
330
1
100
AcDbSymbolTableRecord
100
AcDbBlockTableRecord
  2
*D72
340
0
  0
BLOCK_RECORD
  5
42F6
330
1
100
AcDbSymbolTableRecord
100
AcDbBlockTableRecord
  2
*D73
340
0
  0
BLOCK_RECORD
  5
4302
330
1
100
AcDbSymbolTableRecord
100
AcDbBlockTableRecord
  2
*D74
340
0
  0
BLOCK_RECORD
  5
430B
330
1
100
AcDbSymbolTableRecord
100
AcDbBlockTableRecord
  2
*D75
340
0
  0
BLOCK_RECORD
  5
4317
330
1
100
AcDbSymbolTableRecord
100
AcDbBlockTableRecord
  2
*D76
340
0
  0
BLOCK_RECORD
  5
431E
330
1
100
AcDbSymbolTableRecord
100
AcDbBlockTableRecord
  2
*D77
340
0
  0
BLOCK_RECORD
  5
4453
330
1
100
AcDbSymbolTableRecord
100
AcDbBlockTableRecord
  2
*D78
340
0
  0
BLOCK_RECORD
  5
49DC
102
{ACAD_XDICTIONARY
360
49DF
102
}
330
1
100
AcDbSymbolTableRecord
100
AcDbBlockTableRecord
  2
A$C23847E86
340
0
  0
BLOCK_RECORD
  5
54BE
330
1
100
AcDbSymbolTableRecord
100
AcDbBlockTableRecord
  2
*D80
340
0
  0
BLOCK_RECORD
  5
54CB
330
1
100
AcDbSymbolTableRecord
100
AcDbBlockTableRecord
  2
*D81
340
0
  0
BLOCK_RECORD
  5
5513
330
1
100
AcDbSymbolTableRecord
100
AcDbBlockTableRecord
  2
*D82
340
0
  0
BLOCK_RECORD
  5
5521
330
1
100
AcDbSymbolTableRecord
100
AcDbBlockTableRecord
  2
*D83
340
0
  0
BLOCK_RECORD
  5
5564
330
1
100
AcDbSymbolTableRecord
100
AcDbBlockTableRecord
  2
*D84
340
0
  0
BLOCK_RECORD
  5
5571
330
1
100
AcDbSymbolTableRecord
100
AcDbBlockTableRecord
  2
*D85
340
0
  0
BLOCK_RECORD
  5
557E
330
1
100
AcDbSymbolTableRecord
100
AcDbBlockTableRecord
  2
*D86
340
0
  0
BLOCK_RECORD
  5
558B
330
1
100
AcDbSymbolTableRecord
100
AcDbBlockTableRecord
  2
*D87
340
0
  0
BLOCK_RECORD
  5
5A3B
102
{ACAD_XDICTIONARY
360
5A3D
102
}
330
1
100
AcDbSymbolTableRecord
100
AcDbBlockTableRecord
  2
A$C378820C5
340
0
  0
ENDTAB
  0
ENDSEC
  0
SECTION
  2
BLOCKS
  0
BLOCK
  5
20
330
1F
100
AcDbEntity
  8
0
100
AcDbBlockBegin
  2
*Model_Space
 70
     0
 10
0.0
 20
0.0
 30
0.0
  3
*Model_Space
  1

  0
ENDBLK
  5
21
330
1F
100
AcDbEntity
  8
0
100
AcDbBlockEnd
  0
BLOCK
  5
1C
330
1B
100
AcDbEntity
 67
     1
  8
0
100
AcDbBlockBegin
  2
*Paper_Space
 70
     0
 10
0.0
 20
0.0
 30
0.0
  3
*Paper_Space
  1

  0
ENDBLK
  5
1D
330
1B
100
AcDbEntity
 67
     1
  8
0
100
AcDbBlockEnd
  0
BLOCK
  5
24
330
23
100
AcDbEntity
  8
0
100
AcDbBlockBegin
  2
*Paper_Space0
 70
     0
 10
0.0
 20
0.0
 30
0.0
  3
*Paper_Space0
  1

  0
ENDBLK
  5
25
330
23
100
AcDbEntity
  8
0
100
AcDbBlockEnd
  0
BLOCK
  5
D2
330
D0
100
AcDbEntity
  8
0
100
AcDbBlockBegin
  2
_DotSmall
 70
     0
 10
0.0
 20
0.0
 30
0.0
  3
_DotSmall
  1

  0
LWPOLYLINE
  5
D1
330
D0
100
AcDbEntity
  8
0
 62
     0
100
AcDbPolyline
 90
        2
 70
     1
 43
0.5
 10
-0.0625
 20
0.0
 42
1.0
 10
0.0625
 20
0.0
 42
1.0
  0
ENDBLK
  5
D3
330
D0
100
AcDbEntity
  8
0
100
AcDbBlockEnd
  0
BLOCK
  5
D8
330
D4
100
AcDbEntity
  8
0
100
AcDbBlockBegin
  2
_Origin2
 70
     0
 10
0.0
 20
0.0
 30
0.0
  3
_Origin2
  1

  0
CIRCLE
  5
D5
330
D4
100
AcDbEntity
  8
0
 62
     0
370
    -2
100
AcDbCircle
 10
0.0
 20
0.0
 30
0.0
 40
0.5
  0
CIRCLE
  5
D6
330
D4
100
AcDbEntity
  8
0
 62
     0
370
    -2
100
AcDbCircle
 10
0.0
 20
0.0
 30
0.0
 40
0.25
  0
LINE
  5
D7
330
D4
100
AcDbEntity
  8
0
 62
     0
370
    -2
100
AcDbLine
 10
-0.5
 20
0.0
 30
0.0
 11
-1.0
 21
0.0
 31
0.0
  0
ENDBLK
  5
D9
330
D4
100
AcDbEntity
  8
0
100
AcDbBlockEnd
  0
BLOCK
  5
DE
330
DA
100
AcDbEntity
  8
0
100
AcDbBlockBegin
  2
_Open30
 70
     0
 10
0.0
 20
0.0
 30
0.0
  3
_Open30
  1

  0
LINE
  5
DB
330
DA
100
AcDbEntity
  8
0
 62
     0
370
    -2
100
AcDbLine
 10
-1.0
 20
0.26794919
 30
0.0
 11
0.0
 21
0.0
 31
0.0
  0
LINE
  5
DC
330
DA
100
AcDbEntity
  8
0
 62
     0
370
    -2
100
AcDbLine
 10
0.0
 20
0.0
 30
0.0
 11
-1.0
 21
-0.26794919
 31
0.0
  0
LINE
  5
DD
330
DA
100
AcDbEntity
  8
0
 62
     0
370
    -2
100
AcDbLine
 10
0.0
 20
0.0
 30
0.0
 11
-1.0
 21
0.0
 31
0.0
  0
ENDBLK
  5
DF
330
DA
100
AcDbEntity
  8
0
100
AcDbBlockEnd
  0
BLOCK
  5
16EF
330
16E5
100
AcDbEntity
  8
0
100
AcDbBlockBegin
  2
*D4
 70
     1
 10
0.0
 20
0.0
 30
0.0
  3
*D4
  1

  0
LINE
  5
5394
330
16E5
100
AcDbEntity
  8
寸法
 62
     0
370
    15
100
AcDbLine
 10
1471.80071929418
 20
1107.517091367211
 30
0.0
 11
1471.80071929418
 21
1059.147751339128
 31
0.0
  0
LINE
  5
5395
330
16E5
100
AcDbEntity
  8
寸法
 62
     0
370
    15
100
AcDbLine
 10
971.8007192941804
 20
1107.517091367211
 30
0.0
 11
971.8007192941804
 21
1059.147751339128
 31
0.0
  0
LINE
  5
5396
330
16E5
100
AcDbEntity
  8
寸法
 62
     0
370
    15
100
AcDbLine
 10
1471.80071929418
 20
1059.147751339128
 30
0.0
 11
971.8007192941804
 21
1059.147751339128
 31
0.0
  0
INSERT
  5
5397
330
16E5
100
AcDbEntity
  8
寸法
 62
     0
370
    15
100
AcDbBlockReference
  2
_DotSmall
 10
1471.80071929418
 20
1059.147751339128
 30
0.0
 41
35.0
 42
35.0
 43
35.0
  0
INSERT
  5
5398
330
16E5
100
AcDbEntity
  8
寸法
 62
     0
370
    15
100
AcDbBlockReference
  2
_DotSmall
 10
971.8007192941804
 20
1059.147751339128
 30
0.0
 41
35.0
 42
35.0
 43
35.0
 50
180.0
  0
MTEXT
  5
5399
330
16E5
100
AcDbEntity
  8
寸法
 62
     0
100
AcDbMText
 10
1221.80071929418
 20
1077.897751339129
 30
0.0
 40
25.0
 41
0.0
 71
     5
 72
     1
  1
500
 73
     1
 44
1.0
1001
ACAD
1000
MTEXTBEGIN
1070
    73
1070
     1
1070
    44
1040
1.0
1070
    74
1070
     0
1000
MTEXTEND
  0
POINT
  5
539A
330
16E5
100
AcDbEntity
  8
Defpoints
 62
     0
100
AcDbPoint
 10
1471.80071929418
 20
1172.517091367211
 30
0.0
  0
POINT
  5
539B
330
16E5
100
AcDbEntity
  8
Defpoints
 62
     0
100
AcDbPoint
 10
971.8007192941804
 20
1172.517091367211
 30
0.0
  0
POINT
  5
539C
330
16E5
100
AcDbEntity
  8
Defpoints
 62
     0
100
AcDbPoint
 10
971.8007192941804
 20
1059.147751339128
 30
0.0
  0
ENDBLK
  5
16F0
330
16E5
100
AcDbEntity
  8
0
100
AcDbBlockEnd
  0
BLOCK
  5
16FB
330
16F1
100
AcDbEntity
  8
0
100
AcDbBlockBegin
  2
*D5
 70
     1
 10
0.0
 20
0.0
 30
0.0
  3
*D5
  1

  0
LINE
  5
538B
330
16F1
100
AcDbEntity
  8
寸法
 62
     0
370
    15
100
AcDbLine
 10
1491.80071929418
 20
1107.517091367211
 30
0.0
 11
1491.80071929418
 21
1059.147751339128
 31
0.0
  0
LINE
  5
538C
330
16F1
100
AcDbEntity
  8
寸法
 62
     0
370
    15
100
AcDbLine
 10
1471.80071929418
 20
1107.517091367211
 30
0.0
 11
1471.80071929418
 21
1059.147751339128
 31
0.0
  0
LINE
  5
538D
330
16F1
100
AcDbEntity
  8
寸法
 62
     0
370
    15
100
AcDbLine
 10
1491.80071929418
 20
1059.147751339128
 30
0.0
 11
1471.80071929418
 21
1059.147751339128
 31
0.0
  0
MTEXT
  5
538E
330
16F1
100
AcDbEntity
  8
寸法
 62
     0
100
AcDbMText
 10
1439.551763795188
 20
1077.897751339129
 30
0.0
 40
25.0
 41
0.0
 71
     5
 72
     1
  1
20
 73
     1
 44
1.0
1001
ACAD
1000
MTEXTBEGIN
1070
    73
1070
     1
1070
    44
1040
1.0
1070
    74
1070
     0
1000
MTEXTEND
  0
INSERT
  5
538F
330
16F1
100
AcDbEntity
  8
寸法
 62
     0
370
    15
100
AcDbBlockReference
  2
_DotSmall
 10
1491.80071929418
 20
1059.147751339128
 30
0.0
 41
35.0
 42
35.0
 43
35.0
  0
INSERT
  5
5390
330
16F1
100
AcDbEntity
  8
寸法
 62
     0
370
    15
100
AcDbBlockReference
  2
_DotSmall
 10
1471.80071929418
 20
1059.147751339128
 30
0.0
 41
35.0
 42
35.0
 43
35.0
 50
180.0
  0
POINT
  5
5391
330
16F1
100
AcDbEntity
  8
Defpoints
 62
     0
100
AcDbPoint
 10
1491.80071929418
 20
1172.517091367211
 30
0.0
  0
POINT
  5
5392
330
16F1
100
AcDbEntity
  8
Defpoints
 62
     0
100
AcDbPoint
 10
1471.80071929418
 20
1172.517091367211
 30
0.0
  0
POINT
  5
5393
330
16F1
100
AcDbEntity
  8
Defpoints
 62
     0
100
AcDbPoint
 10
1471.80071929418
 20
1059.147751339128
 30
0.0
  0
ENDBLK
  5
16FC
330
16F1
100
AcDbEntity
  8
0
100
AcDbBlockEnd
  0
BLOCK
  5
1707
330
16FD
100
AcDbEntity
  8
0
100
AcDbBlockBegin
  2
*D6
 70
     1
 10
0.0
 20
0.0
 30
0.0
  3
*D6
  1

  0
LINE
  5
535E
330
16FD
100
AcDbEntity
  8
寸法
 62
     0
370
    15
100
AcDbLine
 10
1222.330270836499
 20
1427.517091367211
 30
0.0
 11
1169.060965347409
 21
1427.517091367211
 31
0.0
  0
LINE
  5
535F
330
16FD
100
AcDbEntity
  8
寸法
 62
     0
370
    15
100
AcDbLine
 10
1386.80071929418
 20
1642.517091367211
 30
0.0
 11
1169.060965347409
 21
1642.517091367211
 31
0.0
  0
LINE
  5
5360
330
16FD
100
AcDbEntity
  8
寸法
 62
     0
370
    15
100
AcDbLine
 10
1169.060965347409
 20
1427.517091367211
 30
0.0
 11
1169.060965347409
 21
1642.517091367211
 31
0.0
  0
INSERT
  5
5361
330
16FD
100
AcDbEntity
  8
寸法
 62
     0
370
    15
100
AcDbBlockReference
  2
_DotSmall
 10
1169.060965347409
 20
1427.517091367211
 30
0.0
 41
35.0
 42
35.0
 43
35.0
 50
270.0
  0
INSERT
  5
5362
330
16FD
100
AcDbEntity
  8
寸法
 62
     0
370
    15
100
AcDbBlockReference
  2
_DotSmall
 10
1169.060965347409
 20
1642.517091367211
 30
0.0
 41
35.0
 42
35.0
 43
35.0
 50
90.0
  0
MTEXT
  5
5363
330
16FD
100
AcDbEntity
  8
寸法
 62
     0
100
AcDbMText
 10
1150.310965347409
 20
1535.017091367211
 30
0.0
 40
25.0
 41
0.0
 71
     5
 72
     1
  1
215
 11
0.0000000000000001
 21
1.0
 31
0.0
 73
     1
 44
1.0
1001
ACAD
1000
MTEXTBEGIN
1070
    73
1070
     1
1070
    44
1040
1.0
1070
    74
1070
     0
1000
MTEXTEND
  0
POINT
  5
5364
330
16FD
100
AcDbEntity
  8
Defpoints
 62
     0
100
AcDbPoint
 10
1287.330270836499
 20
1427.517091367211
 30
0.0
  0
POINT
  5
5365
330
16FD
100
AcDbEntity
  8
Defpoints
 62
     0
100
AcDbPoint
 10
1451.80071929418
 20
1642.517091367211
 30
0.0
  0
POINT
  5
5366
330
16FD
100
AcDbEntity
  8
Defpoints
 62
     0
100
AcDbPoint
 10
1169.060965347409
 20
1642.517091367211
 30
0.0
  0
ENDBLK
  5
1708
330
16FD
100
AcDbEntity
  8
0
100
AcDbBlockEnd
  0
BLOCK
  5
1713
330
1709
100
AcDbEntity
  8
0
100
AcDbBlockBegin
  2
*D7
 70
     1
 10
0.0
 20
0.0
 30
0.0
  3
*D7
  1

  0
LINE
  5
539D
330
1709
100
AcDbEntity
  8
寸法
 62
     0
370
    15
100
AcDbLine
 10
1471.80071929418
 20
1247.517091367211
 30
0.0
 11
1471.80071929418
 21
1304.196731626641
 31
0.0
  0
LINE
  5
539E
330
1709
100
AcDbEntity
  8
寸法
 62
     0
370
    15
100
AcDbLine
 10
1321.80071929418
 20
1362.517091367211
 30
0.0
 11
1321.80071929418
 21
1304.196731626641
 31
0.0
  0
LINE
  5
539F
330
1709
100
AcDbEntity
  8
寸法
 62
     0
370
    15
100
AcDbLine
 10
1471.80071929418
 20
1304.196731626641
 30
0.0
 11
1321.80071929418
 21
1304.196731626641
 31
0.0
  0
INSERT
  5
53A0
330
1709
100
AcDbEntity
  8
寸法
 62
     0
370
    15
100
AcDbBlockReference
  2
_DotSmall
 10
1471.80071929418
 20
1304.196731626641
 30
0.0
 41
35.0
 42
35.0
 43
35.0
  0
INSERT
  5
53A1
330
1709
100
AcDbEntity
  8
寸法
 62
     0
370
    15
100
AcDbBlockReference
  2
_DotSmall
 10
1321.80071929418
 20
1304.196731626641
 30
0.0
 41
35.0
 42
35.0
 43
35.0
 50
180.0
  0
MTEXT
  5
53A2
330
1709
100
AcDbEntity
  8
寸法
 62
     0
100
AcDbMText
 10
1396.80071929418
 20
1322.946731626641
 30
0.0
 40
25.0
 41
0.0
 71
     5
 72
     1
  1
150
 73
     1
 44
1.0
1001
ACAD
1000
MTEXTBEGIN
1070
    73
1070
     1
1070
    44
1040
1.0
1070
    74
1070
     0
1000
MTEXTEND
  0
POINT
  5
53A3
330
1709
100
AcDbEntity
  8
Defpoints
 62
     0
100
AcDbPoint
 10
1471.80071929418
 20
1312.517091367211
 30
0.0
  0
POINT
  5
53A4
330
1709
100
AcDbEntity
  8
Defpoints
 62
     0
100
AcDbPoint
 10
1321.80071929418
 20
1427.517091367211
 30
0.0
  0
POINT
  5
53A5
330
1709
100
AcDbEntity
  8
Defpoints
 62
     0
100
AcDbPoint
 10
1321.80071929418
 20
1304.196731626641
 30
0.0
  0
ENDBLK
  5
1714
330
1709
100
AcDbEntity
  8
0
100
AcDbBlockEnd
  0
BLOCK
  5
171F
330
1715
100
AcDbEntity
  8
0
100
AcDbBlockBegin
  2
*D8
 70
     1
 10
0.0
 20
0.0
 30
0.0
  3
*D8
  1

  0
LINE
  5
534C
330
1715
100
AcDbEntity
  8
実形
 62
     0
370
    15
100
AcDbLine
 10
1791.80071929418
 20
1107.517091367211
 30
0.0
 11
1791.80071929418
 21
994.5453660715575
 31
0.0
  0
LINE
  5
534D
330
1715
100
AcDbEntity
  8
実形
 62
     0
370
    15
100
AcDbLine
 10
931.8007192941804
 20
1107.517091367211
 30
0.0
 11
931.8007192941804
 21
994.5453660715575
 31
0.0
  0
LINE
  5
534E
330
1715
100
AcDbEntity
  8
実形
 62
     0
370
    15
100
AcDbLine
 10
1791.80071929418
 20
994.5453660715575
 30
0.0
 11
931.8007192941804
 21
994.5453660715575
 31
0.0
  0
INSERT
  5
534F
330
1715
100
AcDbEntity
  8
実形
 62
     0
370
    15
100
AcDbBlockReference
  2
_DotSmall
 10
1791.80071929418
 20
994.5453660715575
 30
0.0
 41
35.0
 42
35.0
 43
35.0
  0
INSERT
  5
5350
330
1715
100
AcDbEntity
  8
実形
 62
     0
370
    15
100
AcDbBlockReference
  2
_DotSmall
 10
931.8007192941804
 20
994.5453660715575
 30
0.0
 41
35.0
 42
35.0
 43
35.0
 50
180.0
  0
MTEXT
  5
5351
330
1715
100
AcDbEntity
  8
実形
 62
     0
100
AcDbMText
 10
1361.80071929418
 20
1013.295366071557
 30
0.0
 40
25.0
 41
0.0
 71
     5
 72
     1
  1
860
 73
     1
 44
1.0
1001
ACAD
1000
MTEXTBEGIN
1070
    73
1070
     1
1070
    44
1040
1.0
1070
    74
1070
     0
1000
MTEXTEND
  0
POINT
  5
5352
330
1715
100
AcDbEntity
  8
Defpoints
 62
     0
100
AcDbPoint
 10
1791.80071929418
 20
1172.517091367211
 30
0.0
  0
POINT
  5
5353
330
1715
100
AcDbEntity
  8
Defpoints
 62
     0
100
AcDbPoint
 10
931.8007192941804
 20
1172.517091367211
 30
0.0
  0
POINT
  5
5354
330
1715
100
AcDbEntity
  8
Defpoints
 62
     0
100
AcDbPoint
 10
931.8007192941804
 20
994.5453660715575
 30
0.0
  0
ENDBLK
  5
1720
330
1715
100
AcDbEntity
  8
0
100
AcDbBlockEnd
  0
BLOCK
  5
1743
330
1739
100
AcDbEntity
  8
0
100
AcDbBlockBegin
  2
*D9
 70
     1
 10
0.0
 20
0.0
 30
0.0
  3
*D9
  1

  0
LINE
  5
5355
330
1739
100
AcDbEntity
  8
寸法
 62
     0
370
    15
100
AcDbLine
 10
1621.800719294181
 20
1422.51709136721
 30
0.0
 11
1621.800719294181
 21
1365.303474596731
 31
0.0
  0
LINE
  5
5356
330
1739
100
AcDbEntity
  8
寸法
 62
     0
370
    15
100
AcDbLine
 10
1751.80071929418
 20
1402.517091367211
 30
0.0
 11
1751.80071929418
 21
1365.303474596731
 31
0.0
  0
LINE
  5
5357
330
1739
100
AcDbEntity
  8
寸法
 62
     0
370
    15
100
AcDbLine
 10
1621.800719294181
 20
1365.303474596731
 30
0.0
 11
1751.80071929418
 21
1365.303474596731
 31
0.0
  0
INSERT
  5
5358
330
1739
100
AcDbEntity
  8
寸法
 62
     0
370
    15
100
AcDbBlockReference
  2
_DotSmall
 10
1621.800719294181
 20
1365.303474596731
 30
0.0
 41
35.0
 42
35.0
 43
35.0
 50
180.0
  0
INSERT
  5
5359
330
1739
100
AcDbEntity
  8
寸法
 62
     0
370
    15
100
AcDbBlockReference
  2
_DotSmall
 10
1751.80071929418
 20
1365.303474596731
 30
0.0
 41
35.0
 42
35.0
 43
35.0
  0
MTEXT
  5
535A
330
1739
100
AcDbEntity
  8
寸法
 62
     0
100
AcDbMText
 10
1686.80071929418
 20
1384.053474596731
 30
0.0
 40
25.0
 41
0.0
 71
     5
 72
     1
  1
130
 73
     1
 44
1.0
1001
ACAD
1000
MTEXTBEGIN
1070
    73
1070
     1
1070
    44
1040
1.0
1070
    74
1070
     0
1000
MTEXTEND
  0
POINT
  5
535B
330
1739
100
AcDbEntity
  8
Defpoints
 62
     0
100
AcDbPoint
 10
1621.800719294181
 20
1487.517091367211
 30
0.0
  0
POINT
  5
535C
330
1739
100
AcDbEntity
  8
Defpoints
 62
     0
100
AcDbPoint
 10
1751.80071929418
 20
1337.517091367211
 30
0.0
  0
POINT
  5
535D
330
1739
100
AcDbEntity
  8
Defpoints
 62
     0
100
AcDbPoint
 10
1751.80071929418
 20
1365.303474596731
 30
0.0
  0
ENDBLK
  5
1744
330
1739
100
AcDbEntity
  8
0
100
AcDbBlockEnd
  0
BLOCK
  5
174F
330
1745
100
AcDbEntity
  8
0
100
AcDbBlockBegin
  2
*D10
 70
     1
 10
0.0
 20
0.0
 30
0.0
  3
*D10
  1

  0
LINE
  5
5370
330
1745
100
AcDbEntity
  8
寸法
 62
     0
370
    15
100
AcDbLine
 10
1856.80071929418
 20
1597.517091367211
 30
0.0
 11
1889.264740100905
 21
1597.517091367211
 31
0.0
  0
LINE
  5
5371
330
1745
100
AcDbEntity
  8
寸法
 62
     0
370
    15
100
AcDbLine
 10
1856.80071929418
 20
1212.517091367211
 30
0.0
 11
1889.264740100904
 21
1212.517091367211
 31
0.0
  0
LINE
  5
5372
330
1745
100
AcDbEntity
  8
寸法
 62
     0
370
    15
100
AcDbLine
 10
1889.264740100905
 20
1597.517091367211
 30
0.0
 11
1889.264740100904
 21
1212.517091367211
 31
0.0
  0
INSERT
  5
5373
330
1745
100
AcDbEntity
  8
寸法
 62
     0
370
    15
100
AcDbBlockReference
  2
_DotSmall
 10
1889.264740100905
 20
1597.517091367211
 30
0.0
 41
35.0
 42
35.0
 43
35.0
 50
90.0
  0
INSERT
  5
5374
330
1745
100
AcDbEntity
  8
寸法
 62
     0
370
    15
100
AcDbBlockReference
  2
_DotSmall
 10
1889.264740100904
 20
1212.517091367211
 30
0.0
 41
35.0
 42
35.0
 43
35.0
 50
270.0
  0
MTEXT
  5
5375
330
1745
100
AcDbEntity
  8
寸法
 62
     0
100
AcDbMText
 10
1870.514740100904
 20
1405.017091367211
 30
0.0
 40
25.0
 41
0.0
 71
     5
 72
     1
  1
385
 11
0.0000000000000001
 21
1.0
 31
0.0
 73
     1
 44
1.0
1001
ACAD
1000
MTEXTBEGIN
1070
    73
1070
     1
1070
    44
1040
1.0
1070
    74
1070
     0
1000
MTEXTEND
  0
POINT
  5
5376
330
1745
100
AcDbEntity
  8
Defpoints
 62
     0
100
AcDbPoint
 10
1791.80071929418
 20
1597.517091367211
 30
0.0
  0
POINT
  5
5377
330
1745
100
AcDbEntity
  8
Defpoints
 62
     0
100
AcDbPoint
 10
1791.80071929418
 20
1212.517091367211
 30
0.0
  0
POINT
  5
5378
330
1745
100
AcDbEntity
  8
Defpoints
 62
     0
100
AcDbPoint
 10
1889.264740100904
 20
1212.517091367211
 30
0.0
  0
ENDBLK
  5
1750
330
1745
100
AcDbEntity
  8
0
100
AcDbBlockEnd
  0
BLOCK
  5
175B
330
1751
100
AcDbEntity
  8
0
100
AcDbBlockBegin
  2
*D11
 70
     1
 10
0.0
 20
0.0
 30
0.0
  3
*D11
  1

  0
LINE
  5
53DC
330
1751
100
AcDbEntity
  8
寸法
 62
     0
370
    15
100
AcDbLine
 10
1655.405882244344
 20
1487.517091367211
 30
0.0
 11
1551.559350127268
 21
1487.517091367211
 31
0.0
  0
LINE
  5
53DD
330
1751
100
AcDbEntity
  8
寸法
 62
     0
370
    15
100
AcDbLine
 10
1679.302116613733
 20
1597.517091367211
 30
0.0
 11
1551.559350127269
 21
1597.517091367211
 31
0.0
  0
LINE
  5
53DE
330
1751
100
AcDbEntity
  8
寸法
 62
     0
370
    15
100
AcDbLine
 10
1551.559350127268
 20
1487.517091367211
 30
0.0
 11
1551.559350127269
 21
1597.517091367211
 31
0.0
  0
INSERT
  5
53DF
330
1751
100
AcDbEntity
  8
寸法
 62
     0
370
    15
100
AcDbBlockReference
  2
_DotSmall
 10
1551.559350127268
 20
1487.517091367211
 30
0.0
 41
35.0
 42
35.0
 43
35.0
 50
270.0
  0
INSERT
  5
53E0
330
1751
100
AcDbEntity
  8
寸法
 62
     0
370
    15
100
AcDbBlockReference
  2
_DotSmall
 10
1551.559350127269
 20
1597.517091367211
 30
0.0
 41
35.0
 42
35.0
 43
35.0
 50
90.0
  0
MTEXT
  5
53E1
330
1751
100
AcDbEntity
  8
寸法
 62
     0
100
AcDbMText
 10
1532.809350127268
 20
1542.517091367211
 30
0.0
 40
25.0
 41
0.0
 71
     5
 72
     1
  1
110
 11
0.0000000000000001
 21
1.0
 31
0.0
 73
     1
 44
1.0
1001
ACAD
1000
MTEXTBEGIN
1070
    73
1070
     1
1070
    44
1040
1.0
1070
    74
1070
     0
1000
MTEXTEND
  0
POINT
  5
53E2
330
1751
100
AcDbEntity
  8
Defpoints
 62
     0
100
AcDbPoint
 10
1720.405882244344
 20
1487.517091367211
 30
0.0
  0
POINT
  5
53E3
330
1751
100
AcDbEntity
  8
Defpoints
 62
     0
100
AcDbPoint
 10
1744.302116613733
 20
1597.517091367211
 30
0.0
  0
POINT
  5
53E4
330
1751
100
AcDbEntity
  8
Defpoints
 62
     0
100
AcDbPoint
 10
1551.559350127269
 20
1597.517091367211
 30
0.0
  0
ENDBLK
  5
175C
330
1751
100
AcDbEntity
  8
0
100
AcDbBlockEnd
  0
BLOCK
  5
1767
330
175D
100
AcDbEntity
  8
0
100
AcDbBlockBegin
  2
*D12
 70
     1
 10
0.0
 20
0.0
 30
0.0
  3
*D12
  1

  0
LINE
  5
5367
330
175D
100
AcDbEntity
  8
実形
 62
     0
370
    15
100
AcDbLine
 10
1856.80071929418
 20
1682.517091367211
 30
0.0
 11
1962.317312120497
 21
1682.517091367211
 31
0.0
  0
LINE
  5
5368
330
175D
100
AcDbEntity
  8
実形
 62
     0
370
    15
100
AcDbLine
 10
1856.80071929418
 20
1172.517091367211
 30
0.0
 11
1962.317312120496
 21
1172.517091367211
 31
0.0
  0
LINE
  5
5369
330
175D
100
AcDbEntity
  8
実形
 62
     0
370
    15
100
AcDbLine
 10
1962.317312120497
 20
1682.517091367211
 30
0.0
 11
1962.317312120496
 21
1172.517091367211
 31
0.0
  0
INSERT
  5
536A
330
175D
100
AcDbEntity
  8
実形
 62
     0
370
    15
100
AcDbBlockReference
  2
_DotSmall
 10
1962.317312120497
 20
1682.517091367211
 30
0.0
 41
35.0
 42
35.0
 43
35.0
 50
90.0
  0
INSERT
  5
536B
330
175D
100
AcDbEntity
  8
実形
 62
     0
370
    15
100
AcDbBlockReference
  2
_DotSmall
 10
1962.317312120496
 20
1172.517091367211
 30
0.0
 41
35.0
 42
35.0
 43
35.0
 50
270.0
  0
MTEXT
  5
536C
330
175D
100
AcDbEntity
  8
実形
 62
     0
100
AcDbMText
 10
1943.567312120496
 20
1427.517091367211
 30
0.0
 40
25.0
 41
0.0
 71
     5
 72
     1
  1
510
 11
0.0000000000000001
 21
1.0
 31
0.0
 73
     1
 44
1.0
1001
ACAD
1000
MTEXTBEGIN
1070
    73
1070
     1
1070
    44
1040
1.0
1070
    74
1070
     0
1000
MTEXTEND
  0
POINT
  5
536D
330
175D
100
AcDbEntity
  8
Defpoints
 62
     0
100
AcDbPoint
 10
1791.80071929418
 20
1682.517091367211
 30
0.0
  0
POINT
  5
536E
330
175D
100
AcDbEntity
  8
Defpoints
 62
     0
100
AcDbPoint
 10
1791.80071929418
 20
1172.517091367211
 30
0.0
  0
POINT
  5
536F
330
175D
100
AcDbEntity
  8
Defpoints
 62
     0
100
AcDbPoint
 10
1962.317312120496
 20
1172.517091367211
 30
0.0
  0
ENDBLK
  5
1768
330
175D
100
AcDbEntity
  8
0
100
AcDbBlockEnd
  0
BLOCK
  5
1773
330
1769
100
AcDbEntity
  8
0
100
AcDbBlockBegin
  2
*D13
 70
     1
 10
0.0
 20
0.0
 30
0.0
  3
*D13
  1

  0
LINE
  5
5379
330
1769
100
AcDbEntity
  8
寸法
 62
     0
370
    15
100
AcDbLine
 10
1751.80071929418
 20
1107.517091367211
 30
0.0
 11
1751.80071929418
 21
1059.147751339128
 31
0.0
  0
LINE
  5
537A
330
1769
100
AcDbEntity
  8
寸法
 62
     0
370
    15
100
AcDbLine
 10
1491.80071929418
 20
1107.517091367211
 30
0.0
 11
1491.80071929418
 21
1059.147751339128
 31
0.0
  0
LINE
  5
537B
330
1769
100
AcDbEntity
  8
寸法
 62
     0
370
    15
100
AcDbLine
 10
1751.80071929418
 20
1059.147751339128
 30
0.0
 11
1491.80071929418
 21
1059.147751339128
 31
0.0
  0
INSERT
  5
537C
330
1769
100
AcDbEntity
  8
寸法
 62
     0
370
    15
100
AcDbBlockReference
  2
_DotSmall
 10
1751.80071929418
 20
1059.147751339128
 30
0.0
 41
35.0
 42
35.0
 43
35.0
  0
INSERT
  5
537D
330
1769
100
AcDbEntity
  8
寸法
 62
     0
370
    15
100
AcDbBlockReference
  2
_DotSmall
 10
1491.80071929418
 20
1059.147751339128
 30
0.0
 41
35.0
 42
35.0
 43
35.0
 50
180.0
  0
MTEXT
  5
537E
330
1769
100
AcDbEntity
  8
寸法
 62
     0
100
AcDbMText
 10
1621.80071929418
 20
1077.897751339129
 30
0.0
 40
25.0
 41
0.0
 71
     5
 72
     1
  1
260
 73
     1
 44
1.0
1001
ACAD
1000
MTEXTBEGIN
1070
    73
1070
     1
1070
    44
1040
1.0
1070
    74
1070
     0
1000
MTEXTEND
  0
POINT
  5
537F
330
1769
100
AcDbEntity
  8
Defpoints
 62
     0
100
AcDbPoint
 10
1751.80071929418
 20
1172.517091367211
 30
0.0
  0
POINT
  5
5380
330
1769
100
AcDbEntity
  8
Defpoints
 62
     0
100
AcDbPoint
 10
1491.80071929418
 20
1172.517091367211
 30
0.0
  0
POINT
  5
5381
330
1769
100
AcDbEntity
  8
Defpoints
 62
     0
100
AcDbPoint
 10
1491.80071929418
 20
1059.147751339128
 30
0.0
  0
ENDBLK
  5
1774
330
1769
100
AcDbEntity
  8
0
100
AcDbBlockEnd
  0
BLOCK
  5
177F
330
1775
100
AcDbEntity
  8
0
100
AcDbBlockBegin
  2
*D14
 70
     1
 10
0.0
 20
0.0
 30
0.0
  3
*D14
  1

  0
LINE
  5
53C1
330
1775
100
AcDbEntity
  8
実形
 62
     0
370
    15
100
AcDbLine
 10
1856.80071929418
 20
1192.517091367211
 30
0.0
 11
1889.264740100904
 21
1192.517091367211
 31
0.0
  0
LINE
  5
53C2
330
1775
100
AcDbEntity
  8
実形
 62
     0
370
    15
100
AcDbLine
 10
1856.80071929418
 20
1172.517091367211
 30
0.0
 11
1889.264740100904
 21
1172.517091367211
 31
0.0
  0
LINE
  5
53C3
330
1775
100
AcDbEntity
  8
実形
 62
     0
370
    15
100
AcDbLine
 10
1889.264740100904
 20
1192.517091367211
 30
0.0
 11
1889.264740100904
 21
1172.517091367211
 31
0.0
  0
MTEXT
  5
53C4
330
1775
100
AcDbEntity
  8
実形
 62
     0
100
AcDbMText
 10
1870.514740100904
 20
1135.349403066262
 30
0.0
 40
25.0
 41
0.0
 71
     5
 72
     1
  1
20
 11
0.0000000000000001
 21
1.0
 31
0.0
 73
     1
 44
1.0
1001
ACAD
1000
MTEXTBEGIN
1070
    73
1070
     1
1070
    44
1040
1.0
1070
    74
1070
     0
1000
MTEXTEND
  0
INSERT
  5
53C5
330
1775
100
AcDbEntity
  8
実形
 62
     0
370
    15
100
AcDbBlockReference
  2
_DotSmall
 10
1889.264740100904
 20
1192.517091367211
 30
0.0
 41
35.0
 42
35.0
 43
35.0
 50
90.0
  0
INSERT
  5
53C6
330
1775
100
AcDbEntity
  8
実形
 62
     0
370
    15
100
AcDbBlockReference
  2
_DotSmall
 10
1889.264740100904
 20
1172.517091367211
 30
0.0
 41
35.0
 42
35.0
 43
35.0
 50
270.0
  0
POINT
  5
53C7
330
1775
100
AcDbEntity
  8
Defpoints
 62
     0
100
AcDbPoint
 10
1791.80071929418
 20
1192.517091367211
 30
0.0
  0
POINT
  5
53C8
330
1775
100
AcDbEntity
  8
Defpoints
 62
     0
100
AcDbPoint
 10
1791.80071929418
 20
1172.517091367211
 30
0.0
  0
POINT
  5
53C9
330
1775
100
AcDbEntity
  8
Defpoints
 62
     0
100
AcDbPoint
 10
1889.264740100904
 20
1172.517091367211
 30
0.0
  0
ENDBLK
  5
1780
330
1775
100
AcDbEntity
  8
0
100
AcDbBlockEnd
  0
BLOCK
  5
178C
330
1781
100
AcDbEntity
  8
0
100
AcDbBlockBegin
  2
*D15
 70
     1
 10
0.0
 20
0.0
 30
0.0
  3
*D15
  1

  0
LINE
  5
53AF
330
1781
100
AcDbEntity
  8
実形
 62
     0
370
    15
100
AcDbLine
 10
1791.80071929418
 20
1107.517091367211
 30
0.0
 11
1791.80071929418
 21
1059.936606647246
 31
0.0
  0
LINE
  5
53B0
330
1781
100
AcDbEntity
  8
実形
 62
     0
370
    15
100
AcDbLine
 10
1771.80071929418
 20
1107.517091367211
 30
0.0
 11
1771.80071929418
 21
1059.936606647246
 31
0.0
  0
LINE
  5
53B1
330
1781
100
AcDbEntity
  8
実形
 62
     0
370
    15
100
AcDbLine
 10
1791.80071929418
 20
1059.936606647246
 30
0.0
 11
1771.80071929418
 21
1059.936606647246
 31
0.0
  0
MTEXT
  5
53B2
330
1781
100
AcDbEntity
  8
実形
 62
     0
100
AcDbMText
 10
1830.424433967911
 20
1063.615093022798
 30
0.0
 40
25.0
 41
0.0
 71
     5
 72
     1
  1
20
 73
     1
 44
1.0
1001
ACAD
1000
MTEXTBEGIN
1070
    73
1070
     1
1070
    44
1040
1.0
1070
    74
1070
     0
1000
MTEXTEND
  0
INSERT
  5
53B3
330
1781
100
AcDbEntity
  8
実形
 62
     0
370
    15
100
AcDbBlockReference
  2
_DotSmall
 10
1791.80071929418
 20
1059.936606647246
 30
0.0
 41
35.0
 42
35.0
 43
35.0
  0
INSERT
  5
53B4
330
1781
100
AcDbEntity
  8
実形
 62
     0
370
    15
100
AcDbBlockReference
  2
_DotSmall
 10
1771.80071929418
 20
1059.936606647246
 30
0.0
 41
35.0
 42
35.0
 43
35.0
 50
180.0
  0
POINT
  5
53B5
330
1781
100
AcDbEntity
  8
Defpoints
 62
     0
100
AcDbPoint
 10
1791.80071929418
 20
1172.517091367211
 30
0.0
  0
POINT
  5
53B6
330
1781
100
AcDbEntity
  8
Defpoints
 62
     0
100
AcDbPoint
 10
1771.80071929418
 20
1172.517091367211
 30
0.0
  0
POINT
  5
53B7
330
1781
100
AcDbEntity
  8
Defpoints
 62
     0
100
AcDbPoint
 10
1771.80071929418
 20
1059.936606647246
 30
0.0
  0
ENDBLK
  5
178D
330
1781
100
AcDbEntity
  8
0
100
AcDbBlockEnd
  0
BLOCK
  5
1798
330
178E
100
AcDbEntity
  8
0
100
AcDbBlockBegin
  2
*D16
 70
     1
 10
0.0
 20
0.0
 30
0.0
  3
*D16
  1

  0
LINE
  5
53A6
330
178E
100
AcDbEntity
  8
実形
 62
     0
370
    15
100
AcDbLine
 10
1771.80071929418
 20
1107.517091367211
 30
0.0
 11
1771.80071929418
 21
1059.936606647246
 31
0.0
  0
LINE
  5
53A7
330
178E
100
AcDbEntity
  8
実形
 62
     0
370
    15
100
AcDbLine
 10
1751.80071929418
 20
1107.517091367211
 30
0.0
 11
1751.80071929418
 21
1059.936606647246
 31
0.0
  0
LINE
  5
53A8
330
178E
100
AcDbEntity
  8
実形
 62
     0
370
    15
100
AcDbLine
 10
1771.80071929418
 20
1059.936606647246
 30
0.0
 11
1751.80071929418
 21
1059.936606647246
 31
0.0
  0
MTEXT
  5
53A9
330
178E
100
AcDbEntity
  8
実形
 62
     0
100
AcDbMText
 10
1713.482033756678
 20
1078.686606647246
 30
0.0
 40
25.0
 41
0.0
 71
     5
 72
     1
  1
20
 73
     1
 44
1.0
1001
ACAD
1000
MTEXTBEGIN
1070
    73
1070
     1
1070
    44
1040
1.0
1070
    74
1070
     0
1000
MTEXTEND
  0
INSERT
  5
53AA
330
178E
100
AcDbEntity
  8
実形
 62
     0
370
    15
100
AcDbBlockReference
  2
_DotSmall
 10
1771.80071929418
 20
1059.936606647246
 30
0.0
 41
35.0
 42
35.0
 43
35.0
  0
INSERT
  5
53AB
330
178E
100
AcDbEntity
  8
実形
 62
     0
370
    15
100
AcDbBlockReference
  2
_DotSmall
 10
1751.80071929418
 20
1059.936606647246
 30
0.0
 41
35.0
 42
35.0
 43
35.0
 50
180.0
  0
POINT
  5
53AC
330
178E
100
AcDbEntity
  8
Defpoints
 62
     0
100
AcDbPoint
 10
1771.80071929418
 20
1172.517091367211
 30
0.0
  0
POINT
  5
53AD
330
178E
100
AcDbEntity
  8
Defpoints
 62
     0
100
AcDbPoint
 10
1751.80071929418
 20
1172.517091367211
 30
0.0
  0
POINT
  5
53AE
330
178E
100
AcDbEntity
  8
Defpoints
 62
     0
100
AcDbPoint
 10
1751.80071929418
 20
1059.936606647246
 30
0.0
  0
ENDBLK
  5
1799
330
178E
100
AcDbEntity
  8
0
100
AcDbBlockEnd
  0
BLOCK
  5
17BD
330
17B3
100
AcDbEntity
  8
0
100
AcDbBlockBegin
  2
*D17
 70
     1
 10
0.0
 20
0.0
 30
0.0
  3
*D17
  1

  0
LINE
  5
53B8
330
17B3
100
AcDbEntity
  8
実形
 62
     0
370
    15
100
AcDbLine
 10
1856.80071929418
 20
1212.517091367211
 30
0.0
 11
1889.264740100904
 21
1212.517091367211
 31
0.0
  0
LINE
  5
53B9
330
17B3
100
AcDbEntity
  8
実形
 62
     0
370
    15
100
AcDbLine
 10
1856.80071929418
 20
1192.517091367211
 30
0.0
 11
1889.264740100904
 21
1192.517091367211
 31
0.0
  0
LINE
  5
53BA
330
17B3
100
AcDbEntity
  8
実形
 62
     0
370
    15
100
AcDbLine
 10
1889.264740100904
 20
1212.517091367211
 30
0.0
 11
1889.264740100904
 21
1192.517091367211
 31
0.0
  0
MTEXT
  5
53BB
330
17B3
100
AcDbEntity
  8
実形
 62
     0
100
AcDbMText
 10
1870.514740100904
 20
1241.800254781239
 30
0.0
 40
25.0
 41
0.0
 71
     5
 72
     1
  1
20
 11
0.0000000000000001
 21
1.0
 31
0.0
 73
     1
 44
1.0
1001
ACAD
1000
MTEXTBEGIN
1070
    73
1070
     1
1070
    44
1040
1.0
1070
    74
1070
     0
1000
MTEXTEND
  0
INSERT
  5
53BC
330
17B3
100
AcDbEntity
  8
実形
 62
     0
370
    15
100
AcDbBlockReference
  2
_DotSmall
 10
1889.264740100904
 20
1212.517091367211
 30
0.0
 41
35.0
 42
35.0
 43
35.0
 50
90.0
  0
INSERT
  5
53BD
330
17B3
100
AcDbEntity
  8
実形
 62
     0
370
    15
100
AcDbBlockReference
  2
_DotSmall
 10
1889.264740100904
 20
1192.517091367211
 30
0.0
 41
35.0
 42
35.0
 43
35.0
 50
270.0
  0
POINT
  5
53BE
330
17B3
100
AcDbEntity
  8
Defpoints
 62
     0
100
AcDbPoint
 10
1791.80071929418
 20
1212.517091367211
 30
0.0
  0
POINT
  5
53BF
330
17B3
100
AcDbEntity
  8
Defpoints
 62
     0
100
AcDbPoint
 10
1791.80071929418
 20
1192.517091367211
 30
0.0
  0
POINT
  5
53C0
330
17B3
100
AcDbEntity
  8
Defpoints
 62
     0
100
AcDbPoint
 10
1889.264740100904
 20
1192.517091367211
 30
0.0
  0
ENDBLK
  5
17BE
330
17B3
100
AcDbEntity
  8
0
100
AcDbBlockEnd
  0
BLOCK
  5
17D4
330
17CA
100
AcDbEntity
  8
0
100
AcDbBlockBegin
  2
*D18
 70
     1
 10
0.0
 20
0.0
 30
0.0
  3
*D18
  1

  0
LINE
  5
53D3
330
17CA
100
AcDbEntity
  8
寸法
 62
     0
370
    15
100
AcDbLine
 10
1856.80071929418
 20
1662.517091367211
 30
0.0
 11
1889.336427901076
 21
1662.517091367211
 31
0.0
  0
LINE
  5
53D4
330
17CA
100
AcDbEntity
  8
寸法
 62
     0
370
    15
100
AcDbLine
 10
1856.80071929418
 20
1597.517091367211
 30
0.0
 11
1889.336427901076
 21
1597.517091367211
 31
0.0
  0
LINE
  5
53D5
330
17CA
100
AcDbEntity
  8
寸法
 62
     0
370
    15
100
AcDbLine
 10
1889.336427901076
 20
1662.517091367211
 30
0.0
 11
1889.336427901076
 21
1597.517091367211
 31
0.0
  0
INSERT
  5
53D6
330
17CA
100
AcDbEntity
  8
寸法
 62
     0
370
    15
100
AcDbBlockReference
  2
_DotSmall
 10
1889.336427901076
 20
1662.517091367211
 30
0.0
 41
35.0
 42
35.0
 43
35.0
 50
90.0
  0
INSERT
  5
53D7
330
17CA
100
AcDbEntity
  8
寸法
 62
     0
370
    15
100
AcDbBlockReference
  2
_DotSmall
 10
1889.336427901076
 20
1597.517091367211
 30
0.0
 41
35.0
 42
35.0
 43
35.0
 50
270.0
  0
MTEXT
  5
53D8
330
17CA
100
AcDbEntity
  8
寸法
 62
     0
100
AcDbMText
 10
1870.586427901076
 20
1630.017091367211
 30
0.0
 40
25.0
 41
0.0
 71
     5
 72
     1
  1
65
 11
0.0000000000000001
 21
1.0
 31
0.0
 73
     1
 44
1.0
1001
ACAD
1000
MTEXTBEGIN
1070
    73
1070
     1
1070
    44
1040
1.0
1070
    74
1070
     0
1000
MTEXTEND
  0
POINT
  5
53D9
330
17CA
100
AcDbEntity
  8
Defpoints
 62
     0
100
AcDbPoint
 10
1791.80071929418
 20
1662.517091367211
 30
0.0
  0
POINT
  5
53DA
330
17CA
100
AcDbEntity
  8
Defpoints
 62
     0
100
AcDbPoint
 10
1791.80071929418
 20
1597.517091367211
 30
0.0
  0
POINT
  5
53DB
330
17CA
100
AcDbEntity
  8
Defpoints
 62
     0
100
AcDbPoint
 10
1889.336427901076
 20
1597.517091367211
 30
0.0
  0
ENDBLK
  5
17D5
330
17CA
100
AcDbEntity
  8
0
100
AcDbBlockEnd
  0
BLOCK
  5
17E1
330
17D6
100
AcDbEntity
  8
0
100
AcDbBlockBegin
  2
*D19
 70
     1
 10
0.0
 20
0.0
 30
0.0
  3
*D19
  1

  0
LINE
  5
53CA
330
17D6
100
AcDbEntity
  8
実形
 62
     0
370
    15
100
AcDbLine
 10
1856.80071929418
 20
1682.517091367211
 30
0.0
 11
1889.264740100904
 21
1682.517091367211
 31
0.0
  0
LINE
  5
53CB
330
17D6
100
AcDbEntity
  8
実形
 62
     0
370
    15
100
AcDbLine
 10
1856.80071929418
 20
1662.517091367211
 30
0.0
 11
1889.264740100904
 21
1662.517091367211
 31
0.0
  0
LINE
  5
53CC
330
17D6
100
AcDbEntity
  8
実形
 62
     0
370
    15
100
AcDbLine
 10
1889.264740100904
 20
1682.517091367211
 30
0.0
 11
1889.264740100904
 21
1662.517091367211
 31
0.0
  0
MTEXT
  5
53CD
330
17D6
100
AcDbEntity
  8
実形
 62
     0
100
AcDbMText
 10
1873.607668915156
 20
1713.125028234153
 30
0.0
 40
25.0
 41
0.0
 71
     5
 72
     1
  1
20
 11
0.0000000000000001
 21
1.0
 31
0.0
 73
     1
 44
1.0
1001
ACAD
1000
MTEXTBEGIN
1070
    73
1070
     1
1070
    44
1040
1.0
1070
    74
1070
     0
1000
MTEXTEND
  0
INSERT
  5
53CE
330
17D6
100
AcDbEntity
  8
実形
 62
     0
370
    15
100
AcDbBlockReference
  2
_DotSmall
 10
1889.264740100904
 20
1682.517091367211
 30
0.0
 41
35.0
 42
35.0
 43
35.0
 50
90.0
  0
INSERT
  5
53CF
330
17D6
100
AcDbEntity
  8
実形
 62
     0
370
    15
100
AcDbBlockReference
  2
_DotSmall
 10
1889.264740100904
 20
1662.517091367211
 30
0.0
 41
35.0
 42
35.0
 43
35.0
 50
270.0
  0
POINT
  5
53D0
330
17D6
100
AcDbEntity
  8
Defpoints
 62
     0
100
AcDbPoint
 10
1791.80071929418
 20
1682.517091367211
 30
0.0
  0
POINT
  5
53D1
330
17D6
100
AcDbEntity
  8
Defpoints
 62
     0
100
AcDbPoint
 10
1791.80071929418
 20
1662.517091367211
 30
0.0
  0
POINT
  5
53D2
330
17D6
100
AcDbEntity
  8
Defpoints
 62
     0
100
AcDbPoint
 10
1889.264740100904
 20
1662.517091367211
 30
0.0
  0
ENDBLK
  5
17E2
330
17D6
100
AcDbEntity
  8
0
100
AcDbBlockEnd
  0
BLOCK
  5
17F9
330
17EF
100
AcDbEntity
  8
0
100
AcDbBlockBegin
  2
*D20
 70
     1
 10
0.0
 20
0.0
 30
0.0
  3
*D20
  1

  0
LINE
  5
533A
330
17EF
100
AcDbEntity
  8
寸法
 62
     0
370
    15
100
AcDbLine
 10
907.6979094020281
 20
1642.517091367211
 30
0.0
 11
851.4532135296184
 21
1642.517091367211
 31
0.0
  0
LINE
  5
533B
330
17EF
100
AcDbEntity
  8
寸法
 62
     0
370
    15
100
AcDbLine
 10
907.6979094020281
 20
1212.517091367211
 30
0.0
 11
851.4532135296184
 21
1212.517091367211
 31
0.0
  0
LINE
  5
533C
330
17EF
100
AcDbEntity
  8
寸法
 62
     0
370
    15
100
AcDbLine
 10
851.4532135296184
 20
1642.517091367211
 30
0.0
 11
851.4532135296184
 21
1212.517091367211
 31
0.0
  0
INSERT
  5
533D
330
17EF
100
AcDbEntity
  8
寸法
 62
     0
370
    15
100
AcDbBlockReference
  2
_DotSmall
 10
851.4532135296184
 20
1642.517091367211
 30
0.0
 41
35.0
 42
35.0
 43
35.0
 50
90.0
  0
INSERT
  5
533E
330
17EF
100
AcDbEntity
  8
寸法
 62
     0
370
    15
100
AcDbBlockReference
  2
_DotSmall
 10
851.4532135296184
 20
1212.517091367211
 30
0.0
 41
35.0
 42
35.0
 43
35.0
 50
270.0
  0
MTEXT
  5
533F
330
17EF
100
AcDbEntity
  8
寸法
 62
     0
100
AcDbMText
 10
832.7032135296182
 20
1427.517091367211
 30
0.0
 40
25.0
 41
0.0
 71
     5
 72
     1
  1
430
 11
0.0000000000000001
 21
1.0
 31
0.0
 73
     1
 44
1.0
1001
ACAD
1000
MTEXTBEGIN
1070
    73
1070
     1
1070
    44
1040
1.0
1070
    74
1070
     0
1000
MTEXTEND
  0
POINT
  5
5340
330
17EF
100
AcDbEntity
  8
Defpoints
 62
     0
100
AcDbPoint
 10
972.6979094020279
 20
1642.517091367211
 30
0.0
  0
POINT
  5
5341
330
17EF
100
AcDbEntity
  8
Defpoints
 62
     0
100
AcDbPoint
 10
972.6979094020279
 20
1212.517091367211
 30
0.0
  0
POINT
  5
5342
330
17EF
100
AcDbEntity
  8
Defpoints
 62
     0
100
AcDbPoint
 10
851.4532135296184
 20
1212.517091367211
 30
0.0
  0
ENDBLK
  5
17FA
330
17EF
100
AcDbEntity
  8
0
100
AcDbBlockEnd
  0
BLOCK
  5
1805
330
17FB
100
AcDbEntity
  8
0
100
AcDbBlockBegin
  2
*D21
 70
     1
 10
0.0
 20
0.0
 30
0.0
  3
*D21
  1

  0
LINE
  5
5331
330
17FB
100
AcDbEntity
  8
寸法
 62
     0
370
    15
100
AcDbLine
 10
907.6979094020281
 20
1212.517091367211
 30
0.0
 11
851.4532135296184
 21
1212.517091367211
 31
0.0
  0
LINE
  5
5332
330
17FB
100
AcDbEntity
  8
寸法
 62
     0
370
    15
100
AcDbLine
 10
907.6979094020281
 20
1172.517091367211
 30
0.0
 11
851.4532135296184
 21
1172.517091367211
 31
0.0
  0
LINE
  5
5333
330
17FB
100
AcDbEntity
  8
寸法
 62
     0
370
    15
100
AcDbLine
 10
851.4532135296184
 20
1212.517091367211
 30
0.0
 11
851.4532135296184
 21
1172.517091367211
 31
0.0
  0
MTEXT
  5
5334
330
17FB
100
AcDbEntity
  8
寸法
 62
     0
100
AcDbMText
 10
820.6061317573331
 20
1202.057906695183
 30
0.0
 40
25.0
 41
0.0
 71
     5
 72
     1
  1
40
 11
0.0000000000000001
 21
1.0
 31
0.0
 73
     1
 44
1.0
1001
ACAD
1000
MTEXTBEGIN
1070
    73
1070
     1
1070
    44
1040
1.0
1070
    74
1070
     0
1000
MTEXTEND
  0
INSERT
  5
5335
330
17FB
100
AcDbEntity
  8
寸法
 62
     0
370
    15
100
AcDbBlockReference
  2
_DotSmall
 10
851.4532135296184
 20
1212.517091367211
 30
0.0
 41
35.0
 42
35.0
 43
35.0
 50
90.0
  0
INSERT
  5
5336
330
17FB
100
AcDbEntity
  8
寸法
 62
     0
370
    15
100
AcDbBlockReference
  2
_DotSmall
 10
851.4532135296184
 20
1172.517091367211
 30
0.0
 41
35.0
 42
35.0
 43
35.0
 50
270.0
  0
POINT
  5
5337
330
17FB
100
AcDbEntity
  8
Defpoints
 62
     0
100
AcDbPoint
 10
972.6979094020279
 20
1212.517091367211
 30
0.0
  0
POINT
  5
5338
330
17FB
100
AcDbEntity
  8
Defpoints
 62
     0
100
AcDbPoint
 10
972.6979094020279
 20
1172.517091367211
 30
0.0
  0
POINT
  5
5339
330
17FB
100
AcDbEntity
  8
Defpoints
 62
     0
100
AcDbPoint
 10
851.4532135296184
 20
1172.517091367211
 30
0.0
  0
ENDBLK
  5
1806
330
17FB
100
AcDbEntity
  8
0
100
AcDbBlockEnd
  0
BLOCK
  5
1811
330
1807
100
AcDbEntity
  8
0
100
AcDbBlockBegin
  2
*D22
 70
     1
 10
0.0
 20
0.0
 30
0.0
  3
*D22
  1

  0
LINE
  5
5343
330
1807
100
AcDbEntity
  8
実形
 62
     0
370
    15
100
AcDbLine
 10
951.8007192941805
 20
1107.517091367211
 30
0.0
 11
951.8007192941805
 21
1059.936606647246
 31
0.0
  0
LINE
  5
5344
330
1807
100
AcDbEntity
  8
実形
 62
     0
370
    15
100
AcDbLine
 10
931.8007192941804
 20
1107.517091367211
 30
0.0
 11
931.8007192941804
 21
1059.936606647246
 31
0.0
  0
LINE
  5
5345
330
1807
100
AcDbEntity
  8
実形
 62
     0
370
    15
100
AcDbLine
 10
951.8007192941805
 20
1059.936606647246
 30
0.0
 11
931.8007192941804
 21
1059.936606647246
 31
0.0
  0
MTEXT
  5
5346
330
1807
100
AcDbEntity
  8
実形
 62
     0
100
AcDbMText
 10
896.2064342595786
 20
1077.165878042084
 30
0.0
 40
25.0
 41
0.0
 71
     5
 72
     1
  1
20
 73
     1
 44
1.0
1001
ACAD
1000
MTEXTBEGIN
1070
    73
1070
     1
1070
    44
1040
1.0
1070
    74
1070
     0
1000
MTEXTEND
  0
INSERT
  5
5347
330
1807
100
AcDbEntity
  8
実形
 62
     0
370
    15
100
AcDbBlockReference
  2
_DotSmall
 10
951.8007192941805
 20
1059.936606647246
 30
0.0
 41
35.0
 42
35.0
 43
35.0
  0
INSERT
  5
5348
330
1807
100
AcDbEntity
  8
実形
 62
     0
370
    15
100
AcDbBlockReference
  2
_DotSmall
 10
931.8007192941804
 20
1059.936606647246
 30
0.0
 41
35.0
 42
35.0
 43
35.0
 50
180.0
  0
POINT
  5
5349
330
1807
100
AcDbEntity
  8
Defpoints
 62
     0
100
AcDbPoint
 10
951.8007192941805
 20
1172.517091367211
 30
0.0
  0
POINT
  5
534A
330
1807
100
AcDbEntity
  8
Defpoints
 62
     0
100
AcDbPoint
 10
931.8007192941804
 20
1172.517091367211
 30
0.0
  0
POINT
  5
534B
330
1807
100
AcDbEntity
  8
Defpoints
 62
     0
100
AcDbPoint
 10
931.8007192941804
 20
1059.936606647246
 30
0.0
  0
ENDBLK
  5
1812
330
1807
100
AcDbEntity
  8
0
100
AcDbBlockEnd
  0
BLOCK
  5
181D
330
1813
100
AcDbEntity
  8
0
100
AcDbBlockBegin
  2
*D23
 70
     1
 10
0.0
 20
0.0
 30
0.0
  3
*D23
  1

  0
LINE
  5
5382
330
1813
100
AcDbEntity
  8
実形
 62
     0
370
    15
100
AcDbLine
 10
971.8007192941804
 20
1107.517091367211
 30
0.0
 11
971.8007192941804
 21
1059.936606647246
 31
0.0
  0
LINE
  5
5383
330
1813
100
AcDbEntity
  8
実形
 62
     0
370
    15
100
AcDbLine
 10
951.8007192941805
 20
1107.517091367211
 30
0.0
 11
951.8007192941805
 21
1059.936606647246
 31
0.0
  0
LINE
  5
5384
330
1813
100
AcDbEntity
  8
実形
 62
     0
370
    15
100
AcDbLine
 10
971.8007192941804
 20
1059.936606647246
 30
0.0
 11
951.8007192941805
 21
1059.936606647246
 31
0.0
  0
MTEXT
  5
5385
330
1813
100
AcDbEntity
  8
実形
 62
     0
100
AcDbMText
 10
1005.785279924737
 20
1078.686606647246
 30
0.0
 40
25.0
 41
0.0
 71
     5
 72
     1
  1
20
 73
     1
 44
1.0
1001
ACAD
1000
MTEXTBEGIN
1070
    73
1070
     1
1070
    44
1040
1.0
1070
    74
1070
     0
1000
MTEXTEND
  0
INSERT
  5
5386
330
1813
100
AcDbEntity
  8
実形
 62
     0
370
    15
100
AcDbBlockReference
  2
_DotSmall
 10
971.8007192941804
 20
1059.936606647246
 30
0.0
 41
35.0
 42
35.0
 43
35.0
  0
INSERT
  5
5387
330
1813
100
AcDbEntity
  8
実形
 62
     0
370
    15
100
AcDbBlockReference
  2
_DotSmall
 10
951.8007192941805
 20
1059.936606647246
 30
0.0
 41
35.0
 42
35.0
 43
35.0
 50
180.0
  0
POINT
  5
5388
330
1813
100
AcDbEntity
  8
Defpoints
 62
     0
100
AcDbPoint
 10
971.8007192941804
 20
1172.517091367211
 30
0.0
  0
POINT
  5
5389
330
1813
100
AcDbEntity
  8
Defpoints
 62
     0
100
AcDbPoint
 10
951.8007192941805
 20
1172.517091367211
 30
0.0
  0
POINT
  5
538A
330
1813
100
AcDbEntity
  8
Defpoints
 62
     0
100
AcDbPoint
 10
951.8007192941805
 20
1059.936606647246
 30
0.0
  0
ENDBLK
  5
181E
330
1813
100
AcDbEntity
  8
0
100
AcDbBlockEnd
  0
BLOCK
  5
184C
330
1842
100
AcDbEntity
  8
0
100
AcDbBlockBegin
  2
*D24
 70
     1
 10
0.0
 20
0.0
 30
0.0
  3
*D24
  1

  0
LINE
  5
5328
330
1842
100
AcDbEntity
  8
寸法
 62
     0
370
    15
100
AcDbLine
 10
907.6979094020281
 20
1682.517091367211
 30
0.0
 11
851.4532135296176
 21
1682.517091367211
 31
0.0
  0
LINE
  5
5329
330
1842
100
AcDbEntity
  8
寸法
 62
     0
370
    15
100
AcDbLine
 10
893.8099961328152
 20
1642.517091367211
 30
0.0
 11
851.4532135296176
 21
1642.517091367211
 31
0.0
  0
LINE
  5
532A
330
1842
100
AcDbEntity
  8
寸法
 62
     0
370
    15
100
AcDbLine
 10
851.4532135296176
 20
1682.517091367211
 30
0.0
 11
851.4532135296176
 21
1642.517091367211
 31
0.0
  0
MTEXT
  5
532B
330
1842
100
AcDbEntity
  8
寸法
 62
     0
100
AcDbMText
 10
831.4357614076543
 20
1657.803151918135
 30
0.0
 40
25.0
 41
0.0
 71
     5
 72
     1
  1
40
 11
0.0000000000000001
 21
1.0
 31
0.0
 73
     1
 44
1.0
1001
ACAD
1000
MTEXTBEGIN
1070
    73
1070
     1
1070
    44
1040
1.0
1070
    74
1070
     0
1000
MTEXTEND
  0
INSERT
  5
532C
330
1842
100
AcDbEntity
  8
寸法
 62
     0
370
    15
100
AcDbBlockReference
  2
_DotSmall
 10
851.4532135296176
 20
1682.517091367211
 30
0.0
 41
35.0
 42
35.0
 43
35.0
 50
90.0
  0
INSERT
  5
532D
330
1842
100
AcDbEntity
  8
寸法
 62
     0
370
    15
100
AcDbBlockReference
  2
_DotSmall
 10
851.4532135296176
 20
1642.517091367211
 30
0.0
 41
35.0
 42
35.0
 43
35.0
 50
270.0
  0
POINT
  5
532E
330
1842
100
AcDbEntity
  8
Defpoints
 62
     0
100
AcDbPoint
 10
972.6979094020279
 20
1682.517091367211
 30
0.0
  0
POINT
  5
532F
330
1842
100
AcDbEntity
  8
Defpoints
 62
     0
100
AcDbPoint
 10
958.8099961328152
 20
1642.517091367211
 30
0.0
  0
POINT
  5
5330
330
1842
100
AcDbEntity
  8
Defpoints
 62
     0
100
AcDbPoint
 10
851.4532135296176
 20
1642.517091367211
 30
0.0
  0
ENDBLK
  5
184D
330
1842
100
AcDbEntity
  8
0
100
AcDbBlockEnd
  0
BLOCK
  5
23A3
330
2399
100
AcDbEntity
  8
0
100
AcDbBlockBegin
  2
*D25
 70
     1
 10
0.0
 20
0.0
 30
0.0
  3
*D25
  1

  0
LINE
  5
2C7E
330
2399
100
AcDbEntity
  8
寸法
 62
     0
370
    15
100
AcDbLine
 10
2541.884158905858
 20
392.1758909109342
 30
0.0
 11
2541.884158905858
 21
412.2432904202559
 31
0.0
  0
LINE
  5
2C7F
330
2399
100
AcDbEntity
  8
寸法
 62
     0
370
    15
100
AcDbLine
 10
2728.681082205087
 20
392.1758909109342
 30
0.0
 11
2728.681082205087
 21
412.2432904202559
 31
0.0
  0
LINE
  5
2C80
330
2399
100
AcDbEntity
  8
寸法
 62
     0
370
    15
100
AcDbLine
 10
2541.884158905858
 20
412.2432904202559
 30
0.0
 11
2728.681082205087
 21
412.2432904202559
 31
0.0
  0
INSERT
  5
2C81
330
2399
100
AcDbEntity
  8
寸法
 62
     0
370
    15
100
AcDbBlockReference
  2
_DotSmall
 10
2541.884158905858
 20
412.2432904202559
 30
0.0
 41
40.0
 42
40.0
 43
40.0
 50
180.0
  0
INSERT
  5
2C82
330
2399
100
AcDbEntity
  8
寸法
 62
     0
370
    15
100
AcDbBlockReference
  2
_DotSmall
 10
2728.681082205087
 20
412.2432904202559
 30
0.0
 41
40.0
 42
40.0
 43
40.0
  0
MTEXT
  5
2C83
330
2399
100
AcDbEntity
  8
寸法
 62
     0
100
AcDbMText
 10
2664.316393789775
 20
430.993290420256
 30
0.0
 40
25.0
 41
0.0
 71
     5
 72
     1
  1
20
 73
     1
 44
1.0
1001
ACAD
1000
MTEXTBEGIN
1070
    73
1070
     1
1070
    44
1040
1.0
1070
    74
1070
     0
1000
MTEXTEND
  0
POINT
  5
2C84
330
2399
100
AcDbEntity
  8
Defpoints
 62
     0
100
AcDbPoint
 10
2541.884158905858
 20
372.1758909109342
 30
0.0
  0
POINT
  5
2C85
330
2399
100
AcDbEntity
  8
Defpoints
 62
     0
100
AcDbPoint
 10
2728.681082205087
 20
372.1758909109342
 30
0.0
  0
POINT
  5
2C86
330
2399
100
AcDbEntity
  8
Defpoints
 62
     0
100
AcDbPoint
 10
2728.681082205087
 20
412.2432904202559
 30
0.0
  0
ENDBLK
  5
23A4
330
2399
100
AcDbEntity
  8
0
100
AcDbBlockEnd
  0
BLOCK
  5
23AF
330
23A5
100
AcDbEntity
  8
0
100
AcDbBlockBegin
  2
*D26
 70
     1
 10
0.0
 20
0.0
 30
0.0
  3
*D26
  1

  0
LINE
  5
2C87
330
23A5
100
AcDbEntity
  8
寸法
 62
     0
370
    15
100
AcDbLine
 10
2561.884158905858
 20
512.2735833853567
 30
0.0
 11
2592.040005874708
 21
512.2735833853567
 31
0.0
  0
LINE
  5
2C88
330
23A5
100
AcDbEntity
  8
寸法
 62
     0
370
    15
100
AcDbLine
 10
2561.884158905858
 20
372.1758909109342
 30
0.0
 11
2592.040005874708
 21
372.1758909109342
 31
0.0
  0
LINE
  5
2C89
330
23A5
100
AcDbEntity
  8
寸法
 62
     0
370
    15
100
AcDbLine
 10
2592.040005874708
 20
512.2735833853567
 30
0.0
 11
2592.040005874708
 21
372.1758909109342
 31
0.0
  0
INSERT
  5
2C8A
330
23A5
100
AcDbEntity
  8
寸法
 62
     0
370
    15
100
AcDbBlockReference
  2
_DotSmall
 10
2592.040005874708
 20
512.2735833853567
 30
0.0
 41
40.0
 42
40.0
 43
40.0
 50
90.0
  0
INSERT
  5
2C8B
330
23A5
100
AcDbEntity
  8
寸法
 62
     0
370
    15
100
AcDbBlockReference
  2
_DotSmall
 10
2592.040005874708
 20
372.1758909109342
 30
0.0
 41
40.0
 42
40.0
 43
40.0
 50
270.0
  0
MTEXT
  5
2C8C
330
23A5
100
AcDbEntity
  8
寸法
 62
     0
100
AcDbMText
 10
2573.290005874707
 20
458.5949910234858
 30
0.0
 40
25.0
 41
0.0
 71
     5
 72
     1
  1
15
 11
0.0000000000000001
 21
1.0
 31
0.0
 73
     1
 44
1.0
1001
ACAD
1000
MTEXTBEGIN
1070
    73
1070
     1
1070
    44
1040
1.0
1070
    74
1070
     0
1000
MTEXTEND
  0
POINT
  5
2C8D
330
23A5
100
AcDbEntity
  8
Defpoints
 62
     0
100
AcDbPoint
 10
2541.884158905858
 20
512.2735833853567
 30
0.0
  0
POINT
  5
2C8E
330
23A5
100
AcDbEntity
  8
Defpoints
 62
     0
100
AcDbPoint
 10
2541.884158905858
 20
372.1758909109342
 30
0.0
  0
POINT
  5
2C8F
330
23A5
100
AcDbEntity
  8
Defpoints
 62
     0
100
AcDbPoint
 10
2592.040005874708
 20
372.1758909109342
 30
0.0
  0
ENDBLK
  5
23B0
330
23A5
100
AcDbEntity
  8
0
100
AcDbBlockEnd
  0
BLOCK
  5
23BB
330
23B1
100
AcDbEntity
  8
0
100
AcDbBlockBegin
  2
*D27
 70
     1
 10
0.0
 20
0.0
 30
0.0
  3
*D27
  1

  0
LINE
  5
2C90
330
23B1
100
AcDbEntity
  8
寸法
 62
     0
370
    15
100
AcDbLine
 10
2310.087235606628
 20
512.2735833853567
 30
0.0
 11
2223.10679045253
 21
512.2735833853568
 31
0.0
  0
LINE
  5
2C91
330
23B1
100
AcDbEntity
  8
寸法
 62
     0
370
    15
100
AcDbLine
 10
2310.087235606628
 20
362.8360447459727
 30
0.0
 11
2223.10679045253
 21
362.8360447459727
 31
0.0
  0
LINE
  5
2C92
330
23B1
100
AcDbEntity
  8
寸法
 62
     0
370
    15
100
AcDbLine
 10
2223.10679045253
 20
512.2735833853568
 30
0.0
 11
2223.10679045253
 21
362.8360447459727
 31
0.0
  0
INSERT
  5
2C93
330
23B1
100
AcDbEntity
  8
寸法
 62
     0
370
    15
100
AcDbBlockReference
  2
_DotSmall
 10
2223.10679045253
 20
512.2735833853568
 30
0.0
 41
40.0
 42
40.0
 43
40.0
 50
90.0
  0
INSERT
  5
2C94
330
23B1
100
AcDbEntity
  8
寸法
 62
     0
370
    15
100
AcDbBlockReference
  2
_DotSmall
 10
2223.10679045253
 20
362.8360447459727
 30
0.0
 41
40.0
 42
40.0
 43
40.0
 50
270.0
  0
MTEXT
  5
2C95
330
23B1
100
AcDbEntity
  8
寸法
 62
     0
100
AcDbMText
 10
2204.35679045253
 20
437.5548140656651
 30
0.0
 40
25.0
 41
0.0
 71
     5
 72
     1
  1
16
 11
0.0000000000000001
 21
1.0
 31
0.0
 73
     1
 44
1.0
1001
ACAD
1000
MTEXTBEGIN
1070
    73
1070
     1
1070
    44
1040
1.0
1070
    74
1070
     0
1000
MTEXTEND
  0
POINT
  5
2C96
330
23B1
100
AcDbEntity
  8
Defpoints
 62
     0
100
AcDbPoint
 10
2355.087235606629
 20
512.2735833853567
 30
0.0
  0
POINT
  5
2C97
330
23B1
100
AcDbEntity
  8
Defpoints
 62
     0
100
AcDbPoint
 10
2355.087235606629
 20
362.8360447459727
 30
0.0
  0
POINT
  5
2C98
330
23B1
100
AcDbEntity
  8
Defpoints
 62
     0
100
AcDbPoint
 10
2223.10679045253
 20
362.8360447459727
 30
0.0
  0
ENDBLK
  5
23BC
330
23B1
100
AcDbEntity
  8
0
100
AcDbBlockEnd
  0
BLOCK
  5
23D3
330
23C9
100
AcDbEntity
  8
0
100
AcDbBlockBegin
  2
*D28
 70
     1
 10
0.0
 20
0.0
 30
0.0
  3
*D28
  1

  0
LINE
  5
2CA2
330
23C9
100
AcDbEntity
  8
寸法
 62
     0
370
    15
100
AcDbLine
 10
2355.087235606629
 20
557.2735833853567
 30
0.0
 11
2355.087235606629
 21
631.0664425252025
 31
0.0
  0
LINE
  5
2CA3
330
23C9
100
AcDbEntity
  8
寸法
 62
     0
370
    15
100
AcDbLine
 10
2541.884158905858
 20
557.2735833853567
 30
0.0
 11
2541.884158905858
 21
631.0664425252025
 31
0.0
  0
LINE
  5
2CA4
330
23C9
100
AcDbEntity
  8
寸法
 62
     0
370
    15
100
AcDbLine
 10
2355.087235606629
 20
631.0664425252025
 30
0.0
 11
2541.884158905858
 21
631.0664425252025
 31
0.0
  0
INSERT
  5
2CA5
330
23C9
100
AcDbEntity
  8
寸法
 62
     0
370
    15
100
AcDbBlockReference
  2
_DotSmall
 10
2355.087235606629
 20
631.0664425252025
 30
0.0
 41
40.0
 42
40.0
 43
40.0
 50
180.0
  0
INSERT
  5
2CA6
330
23C9
100
AcDbEntity
  8
寸法
 62
     0
370
    15
100
AcDbBlockReference
  2
_DotSmall
 10
2541.884158905858
 20
631.0664425252025
 30
0.0
 41
40.0
 42
40.0
 43
40.0
  0
MTEXT
  5
2CA7
330
23C9
100
AcDbEntity
  8
寸法
 62
     0
100
AcDbMText
 10
2448.485697256243
 20
649.8164425252025
 30
0.0
 40
25.0
 41
0.0
 71
     5
 72
     1
  1
20
 73
     1
 44
1.0
1001
ACAD
1000
MTEXTBEGIN
1070
    73
1070
     1
1070
    44
1040
1.0
1070
    74
1070
     0
1000
MTEXTEND
  0
POINT
  5
2CA8
330
23C9
100
AcDbEntity
  8
Defpoints
 62
     0
100
AcDbPoint
 10
2355.087235606629
 20
512.2735833853567
 30
0.0
  0
POINT
  5
2CA9
330
23C9
100
AcDbEntity
  8
Defpoints
 62
     0
100
AcDbPoint
 10
2541.884158905858
 20
512.2735833853567
 30
0.0
  0
POINT
  5
2CAA
330
23C9
100
AcDbEntity
  8
Defpoints
 62
     0
100
AcDbPoint
 10
2541.884158905858
 20
631.0664425252025
 30
0.0
  0
ENDBLK
  5
23D4
330
23C9
100
AcDbEntity
  8
0
100
AcDbBlockEnd
  0
BLOCK
  5
23DF
330
23D5
100
AcDbEntity
  8
0
100
AcDbBlockBegin
  2
*D29
 70
     1
 10
0.0
 20
0.0
 30
0.0
  3
*D29
  1

  0
LINE
  5
2CAB
330
23D5
100
AcDbEntity
  8
寸法
 62
     0
370
    15
100
AcDbLine
 10
2310.087235606628
 20
512.2735833853567
 30
0.0
 11
2275.965638979034
 21
512.2735833853568
 31
0.0
  0
LINE
  5
2CAC
330
23D5
100
AcDbEntity
  8
寸法
 62
     0
370
    15
100
AcDbLine
 10
2310.087235606628
 20
465.5735833853566
 30
0.0
 11
2275.965638979034
 21
465.5735833853566
 31
0.0
  0
LINE
  5
2CAD
330
23D5
100
AcDbEntity
  8
寸法
 62
     0
370
    15
100
AcDbLine
 10
2275.965638979034
 20
512.2735833853568
 30
0.0
 11
2275.965638979034
 21
465.5735833853566
 31
0.0
  0
MTEXT
  5
2CAE
330
23D5
100
AcDbEntity
  8
寸法
 62
     0
100
AcDbMText
 10
2250.075589207659
 20
489.5176380222683
 30
0.0
 40
25.0
 41
0.0
 71
     5
 72
     1
  1
5
 11
0.0000000000000001
 21
1.0
 31
0.0
 73
     1
 44
1.0
1001
ACAD
1000
MTEXTBEGIN
1070
    73
1070
     1
1070
    44
1040
1.0
1070
    74
1070
     0
1000
MTEXTEND
  0
INSERT
  5
2CAF
330
23D5
100
AcDbEntity
  8
寸法
 62
     0
370
    15
100
AcDbBlockReference
  2
_DotSmall
 10
2275.965638979034
 20
512.2735833853568
 30
0.0
 41
40.0
 42
40.0
 43
40.0
 50
90.0
  0
INSERT
  5
2CB0
330
23D5
100
AcDbEntity
  8
寸法
 62
     0
370
    15
100
AcDbBlockReference
  2
_DotSmall
 10
2275.965638979034
 20
465.5735833853566
 30
0.0
 41
40.0
 42
40.0
 43
40.0
 50
270.0
  0
POINT
  5
2CB1
330
23D5
100
AcDbEntity
  8
Defpoints
 62
     0
100
AcDbPoint
 10
2355.087235606629
 20
512.2735833853567
 30
0.0
  0
POINT
  5
2CB2
330
23D5
100
AcDbEntity
  8
Defpoints
 62
     0
100
AcDbPoint
 10
2355.087235606629
 20
465.5735833853566
 30
0.0
  0
POINT
  5
2CB3
330
23D5
100
AcDbEntity
  8
Defpoints
 62
     0
100
AcDbPoint
 10
2275.965638979034
 20
465.5735833853566
 30
0.0
  0
ENDBLK
  5
23E0
330
23D5
100
AcDbEntity
  8
0
100
AcDbBlockEnd
  0
BLOCK
  5
23EB
330
23E1
100
AcDbEntity
  8
0
100
AcDbBlockBegin
  2
*D30
 70
     1
 10
0.0
 20
0.0
 30
0.0
  3
*D30
  1

  0
LINE
  5
2CB4
330
23E1
100
AcDbEntity
  8
寸法
 62
     0
370
    15
100
AcDbLine
 10
2355.087235606629
 20
557.2735833853567
 30
0.0
 11
2355.087235606629
 21
584.7147419219727
 31
0.0
  0
LINE
  5
2CB5
330
23E1
100
AcDbEntity
  8
寸法
 62
     0
370
    15
100
AcDbLine
 10
2401.786466431435
 20
557.2735833853567
 30
0.0
 11
2401.786466431435
 21
584.7147419219727
 31
0.0
  0
LINE
  5
2CB6
330
23E1
100
AcDbEntity
  8
寸法
 62
     0
370
    15
100
AcDbLine
 10
2355.087235606629
 20
584.7147419219727
 30
0.0
 11
2401.786466431435
 21
584.7147419219727
 31
0.0
  0
INSERT
  5
2CB7
330
23E1
100
AcDbEntity
  8
寸法
 62
     0
370
    15
100
AcDbBlockReference
  2
_DotSmall
 10
2355.087235606629
 20
584.7147419219727
 30
0.0
 41
40.0
 42
40.0
 43
40.0
 50
180.0
  0
INSERT
  5
2CB8
330
23E1
100
AcDbEntity
  8
寸法
 62
     0
370
    15
100
AcDbBlockReference
  2
_DotSmall
 10
2401.786466431435
 20
584.7147419219727
 30
0.0
 41
40.0
 42
40.0
 43
40.0
  0
MTEXT
  5
2CB9
330
23E1
100
AcDbEntity
  8
寸法
 62
     0
100
AcDbMText
 10
2378.436851019031
 20
603.4647419219727
 30
0.0
 40
25.0
 41
0.0
 71
     5
 72
     1
  1
5
 73
     1
 44
1.0
1001
ACAD
1000
MTEXTBEGIN
1070
    73
1070
     1
1070
    44
1040
1.0
1070
    74
1070
     0
1000
MTEXTEND
  0
POINT
  5
2CBA
330
23E1
100
AcDbEntity
  8
Defpoints
 62
     0
100
AcDbPoint
 10
2355.087235606629
 20
512.2735833853567
 30
0.0
  0
POINT
  5
2CBB
330
23E1
100
AcDbEntity
  8
Defpoints
 62
     0
100
AcDbPoint
 10
2401.786466431435
 20
512.2735833853567
 30
0.0
  0
POINT
  5
2CBC
330
23E1
100
AcDbEntity
  8
Defpoints
 62
     0
100
AcDbPoint
 10
2401.786466431435
 20
584.7147419219727
 30
0.0
  0
ENDBLK
  5
23EC
330
23E1
100
AcDbEntity
  8
0
100
AcDbBlockEnd
  0
BLOCK
  5
258E
330
2584
100
AcDbEntity
  8
0
100
AcDbBlockBegin
  2
*D31
 70
     1
 10
0.0
 20
0.0
 30
0.0
  3
*D31
  1

  0
LINE
  5
5AC5
330
2584
100
AcDbEntity
  8
実形
 62
     0
370
    18
100
AcDbLine
 10
1679.30071929418
 20
586.4270373160679
 30
0.0
 11
1679.30071929418
 21
481.6961869903116
 31
0.0
  0
LINE
  5
5AC6
330
2584
100
AcDbEntity
  8
実形
 62
     0
370
    18
100
AcDbLine
 10
1564.30071929418
 20
586.4270373160679
 30
0.0
 11
1564.30071929418
 21
481.6961869903116
 31
0.0
  0
LINE
  5
5AC7
330
2584
100
AcDbEntity
  8
実形
 62
     0
370
    18
100
AcDbLine
 10
1679.30071929418
 20
481.6961869903116
 30
0.0
 11
1564.30071929418
 21
481.6961869903116
 31
0.0
  0
INSERT
  5
5AC8
330
2584
100
AcDbEntity
  8
実形
 62
     0
370
    18
100
AcDbBlockReference
  2
_DotSmall
 10
1679.30071929418
 20
481.6961869903116
 30
0.0
 41
35.0
 42
35.0
 43
35.0
  0
INSERT
  5
5AC9
330
2584
100
AcDbEntity
  8
実形
 62
     0
370
    18
100
AcDbBlockReference
  2
_DotSmall
 10
1564.30071929418
 20
481.6961869903116
 30
0.0
 41
35.0
 42
35.0
 43
35.0
 50
180.0
  0
MTEXT
  5
5ACA
330
2584
100
AcDbEntity
  8
実形
 62
     0
100
AcDbMText
 10
1621.80071929418
 20
500.4461869903116
 30
0.0
 40
25.0
 41
0.0
 71
     5
 72
     1
  1
115
 73
     1
 44
1.0
1001
ACAD
1000
MTEXTBEGIN
1070
    73
1070
     1
1070
    44
1040
1.0
1070
    74
1070
     0
1000
MTEXTEND
  0
POINT
  5
5ACB
330
2584
100
AcDbEntity
  8
Defpoints
 62
     0
100
AcDbPoint
 10
1679.30071929418
 20
651.4270373160679
 30
0.0
  0
POINT
  5
5ACC
330
2584
100
AcDbEntity
  8
Defpoints
 62
     0
100
AcDbPoint
 10
1564.30071929418
 20
651.4270373160679
 30
0.0
  0
POINT
  5
5ACD
330
2584
100
AcDbEntity
  8
Defpoints
 62
     0
100
AcDbPoint
 10
1564.30071929418
 20
481.6961869903116
 30
0.0
  0
ENDBLK
  5
258F
330
2584
100
AcDbEntity
  8
0
100
AcDbBlockEnd
  0
BLOCK
  5
259E
330
2594
100
AcDbEntity
  8
0
100
AcDbBlockBegin
  2
*D32
 70
     1
 10
0.0
 20
0.0
 30
0.0
  3
*D32
  1

  0
LINE
  5
5ACE
330
2594
100
AcDbEntity
  8
実形
 62
     0
370
    18
100
AcDbLine
 10
1668.80071929418
 20
586.4270373160679
 30
0.0
 11
1668.80071929418
 21
522.1167654009923
 31
0.0
  0
LINE
  5
5ACF
330
2594
100
AcDbEntity
  8
実形
 62
     0
370
    18
100
AcDbLine
 10
1574.80071929418
 20
586.4270373160679
 30
0.0
 11
1574.80071929418
 21
522.1167654009923
 31
0.0
  0
LINE
  5
5AD0
330
2594
100
AcDbEntity
  8
実形
 62
     0
370
    18
100
AcDbLine
 10
1668.80071929418
 20
522.1167654009923
 30
0.0
 11
1574.80071929418
 21
522.1167654009923
 31
0.0
  0
INSERT
  5
5AD1
330
2594
100
AcDbEntity
  8
実形
 62
     0
370
    18
100
AcDbBlockReference
  2
_DotSmall
 10
1668.80071929418
 20
522.1167654009923
 30
0.0
 41
35.0
 42
35.0
 43
35.0
  0
INSERT
  5
5AD2
330
2594
100
AcDbEntity
  8
実形
 62
     0
370
    18
100
AcDbBlockReference
  2
_DotSmall
 10
1574.80071929418
 20
522.1167654009923
 30
0.0
 41
35.0
 42
35.0
 43
35.0
 50
180.0
  0
MTEXT
  5
5AD3
330
2594
100
AcDbEntity
  8
実形
 62
     0
100
AcDbMText
 10
1621.80071929418
 20
540.8667654009923
 30
0.0
 40
25.0
 41
0.0
 71
     5
 72
     1
  1
94
 73
     1
 44
1.0
1001
ACAD
1000
MTEXTBEGIN
1070
    73
1070
     1
1070
    44
1040
1.0
1070
    74
1070
     0
1000
MTEXTEND
  0
POINT
  5
5AD4
330
2594
100
AcDbEntity
  8
Defpoints
 62
     0
100
AcDbPoint
 10
1668.80071929418
 20
651.4270373160679
 30
0.0
  0
POINT
  5
5AD5
330
2594
100
AcDbEntity
  8
Defpoints
 62
     0
100
AcDbPoint
 10
1574.80071929418
 20
651.4270373160679
 30
0.0
  0
POINT
  5
5AD6
330
2594
100
AcDbEntity
  8
Defpoints
 62
     0
100
AcDbPoint
 10
1574.80071929418
 20
522.1167654009923
 30
0.0
  0
ENDBLK
  5
259F
330
2594
100
AcDbEntity
  8
0
100
AcDbBlockEnd
  0
BLOCK
  5
25C4
330
25BA
100
AcDbEntity
  8
0
100
AcDbBlockBegin
  2
*D33
 70
     1
 10
0.0
 20
0.0
 30
0.0
  3
*D33
  1

  0
LINE
  5
4CEF
330
25BA
100
AcDbEntity
  8
実形
 62
     0
370
    18
100
AcDbLine
 10
1401.80071929418
 20
586.4270373160679
 30
0.0
 11
1401.80071929418
 21
527.1167654009923
 31
0.0
  0
LINE
  5
4CF0
330
25BA
100
AcDbEntity
  8
実形
 62
     0
370
    18
100
AcDbLine
 10
1241.80071929418
 20
586.4270373160681
 30
0.0
 11
1241.80071929418
 21
527.1167654009923
 31
0.0
  0
LINE
  5
4CF1
330
25BA
100
AcDbEntity
  8
実形
 62
     0
370
    18
100
AcDbLine
 10
1401.80071929418
 20
527.1167654009923
 30
0.0
 11
1241.80071929418
 21
527.1167654009923
 31
0.0
  0
INSERT
  5
4CF2
330
25BA
100
AcDbEntity
  8
実形
 62
     0
370
    18
100
AcDbBlockReference
  2
_DotSmall
 10
1401.80071929418
 20
527.1167654009923
 30
0.0
 41
35.0
 42
35.0
 43
35.0
  0
INSERT
  5
4CF3
330
25BA
100
AcDbEntity
  8
実形
 62
     0
370
    18
100
AcDbBlockReference
  2
_DotSmall
 10
1241.80071929418
 20
527.1167654009923
 30
0.0
 41
35.0
 42
35.0
 43
35.0
 50
180.0
  0
MTEXT
  5
4CF4
330
25BA
100
AcDbEntity
  8
実形
 62
     0
100
AcDbMText
 10
1321.80071929418
 20
545.8667654009923
 30
0.0
 40
25.0
 41
0.0
 71
     5
 72
     1
  1
160
 73
     1
 44
1.0
1001
ACAD
1000
MTEXTBEGIN
1070
    73
1070
     1
1070
    44
1040
1.0
1070
    74
1070
     0
1000
MTEXTEND
  0
POINT
  5
4CF5
330
25BA
100
AcDbEntity
  8
Defpoints
 62
     0
100
AcDbPoint
 10
1401.80071929418
 20
651.4270373160679
 30
0.0
  0
POINT
  5
4CF6
330
25BA
100
AcDbEntity
  8
Defpoints
 62
     0
100
AcDbPoint
 10
1241.80071929418
 20
651.427037316068
 30
0.0
  0
POINT
  5
4CF7
330
25BA
100
AcDbEntity
  8
Defpoints
 62
     0
100
AcDbPoint
 10
1241.80071929418
 20
527.1167654009923
 30
0.0
  0
ENDBLK
  5
25C5
330
25BA
100
AcDbEntity
  8
0
100
AcDbBlockEnd
  0
BLOCK
  5
25D1
330
25C7
100
AcDbEntity
  8
0
100
AcDbBlockBegin
  2
*D34
 70
     1
 10
0.0
 20
0.0
 30
0.0
  3
*D34
  1

  0
LINE
  5
4CE6
330
25C7
100
AcDbEntity
  8
実形
 62
     0
370
    18
100
AcDbLine
 10
1412.30071929418
 20
586.4270373160679
 30
0.0
 11
1412.30071929418
 21
486.6961869903116
 31
0.0
  0
LINE
  5
4CE7
330
25C7
100
AcDbEntity
  8
実形
 62
     0
370
    18
100
AcDbLine
 10
1231.30071929418
 20
586.4270373160679
 30
0.0
 11
1231.30071929418
 21
486.6961869903116
 31
0.0
  0
LINE
  5
4CE8
330
25C7
100
AcDbEntity
  8
実形
 62
     0
370
    18
100
AcDbLine
 10
1412.30071929418
 20
486.6961869903116
 30
0.0
 11
1231.30071929418
 21
486.6961869903116
 31
0.0
  0
INSERT
  5
4CE9
330
25C7
100
AcDbEntity
  8
実形
 62
     0
370
    18
100
AcDbBlockReference
  2
_DotSmall
 10
1412.30071929418
 20
486.6961869903116
 30
0.0
 41
35.0
 42
35.0
 43
35.0
  0
INSERT
  5
4CEA
330
25C7
100
AcDbEntity
  8
実形
 62
     0
370
    18
100
AcDbBlockReference
  2
_DotSmall
 10
1231.30071929418
 20
486.6961869903116
 30
0.0
 41
35.0
 42
35.0
 43
35.0
 50
180.0
  0
MTEXT
  5
4CEB
330
25C7
100
AcDbEntity
  8
実形
 62
     0
100
AcDbMText
 10
1321.80071929418
 20
505.4461869903116
 30
0.0
 40
25.0
 41
0.0
 71
     5
 72
     1
  1
181
 73
     1
 44
1.0
1001
ACAD
1000
MTEXTBEGIN
1070
    73
1070
     1
1070
    44
1040
1.0
1070
    74
1070
     0
1000
MTEXTEND
  0
POINT
  5
4CEC
330
25C7
100
AcDbEntity
  8
Defpoints
 62
     0
100
AcDbPoint
 10
1412.30071929418
 20
651.4270373160679
 30
0.0
  0
POINT
  5
4CED
330
25C7
100
AcDbEntity
  8
Defpoints
 62
     0
100
AcDbPoint
 10
1231.30071929418
 20
651.4270373160679
 30
0.0
  0
POINT
  5
4CEE
330
25C7
100
AcDbEntity
  8
Defpoints
 62
     0
100
AcDbPoint
 10
1231.30071929418
 20
486.6961869903116
 30
0.0
  0
ENDBLK
  5
25D2
330
25C7
100
AcDbEntity
  8
0
100
AcDbBlockEnd
  0
BLOCK
  5
2CDF
330
2CD3
100
AcDbEntity
  8
0
100
AcDbBlockBegin
  2
*D35
 70
     1
 10
0.0
 20
0.0
 30
0.0
  3
*D35
  1

  0
MTEXT
  5
58E9
330
2CD3
100
AcDbEntity
  8
実形
 62
     0
100
AcDbMText
 10
537.1987028504063
 20
1572.50817979203
 30
0.0
 40
25.0
 41
0.0
 71
     5
 72
     1
  1
40
 73
     1
 44
1.0
1001
ACAD
1000
MTEXTBEGIN
1070
    73
1070
     1
1070
    44
1040
1.0
1070
    74
1070
     0
1000
MTEXTEND
  0
POINT
  5
58EA
330
2CD3
100
AcDbEntity
  8
Defpoints
 62
     0
100
AcDbPoint
 10
563.1847832413022
 20
1470.358071531854
 30
0.0
  0
POINT
  5
58EB
330
2CD3
100
AcDbEntity
  8
Defpoints
 62
     0
100
AcDbPoint
 10
523.1847832413027
 20
1470.358071531854
 30
0.0
  0
POINT
  5
58EC
330
2CD3
100
AcDbEntity
  8
Defpoints
 62
     0
100
AcDbPoint
 10
523.1847832413027
 20
1550.569449279112
 30
0.0
  0
ENDBLK
  5
2CE0
330
2CD3
100
AcDbEntity
  8
0
100
AcDbBlockEnd
  0
BLOCK
  5
2DD9
330
2DCF
100
AcDbEntity
  8
0
100
AcDbBlockBegin
  2
*D36
 70
     1
 10
0.0
 20
0.0
 30
0.0
  3
*D36
  1

  0
LINE
  5
58ED
330
2DCF
100
AcDbEntity
  8
実形
 62
     0
370
    18
100
AcDbLine
 10
499.7941027996075
 20
1497.517091367211
 30
0.0
 11
471.0203906377883
 21
1497.517091367211
 31
0.0
  0
LINE
  5
58EE
330
2DCF
100
AcDbEntity
  8
実形
 62
     0
370
    18
100
AcDbLine
 10
499.7941027996075
 20
1317.517091367211
 30
0.0
 11
471.0203906377882
 21
1317.517091367211
 31
0.0
  0
LINE
  5
58EF
330
2DCF
100
AcDbEntity
  8
実形
 62
     0
370
    18
100
AcDbLine
 10
471.0203906377883
 20
1497.517091367211
 30
0.0
 11
471.0203906377882
 21
1317.517091367211
 31
0.0
  0
MTEXT
  5
58F0
330
2DCF
100
AcDbEntity
  8
実形
 62
     0
100
AcDbMText
 10
447.883948812987
 20
1407.702330559448
 30
0.0
 40
25.0
 41
0.0
 71
     5
 72
     1
  1
180
 11
0.0000000000000001
 21
1.0
 31
0.0
 73
     1
 44
1.0
1001
ACAD
1000
MTEXTBEGIN
1070
    73
1070
     1
1070
    44
1040
1.0
1070
    74
1070
     0
1000
MTEXTEND
  0
INSERT
  5
58F1
330
2DCF
100
AcDbEntity
  8
実形
 62
     0
370
    18
100
AcDbBlockReference
  2
_DotSmall
 10
471.0203906377883
 20
1497.517091367211
 30
0.0
 41
35.0
 42
35.0
 43
35.0
 50
90.0
  0
INSERT
  5
58F2
330
2DCF
100
AcDbEntity
  8
実形
 62
     0
370
    18
100
AcDbBlockReference
  2
_DotSmall
 10
471.0203906377882
 20
1317.517091367211
 30
0.0
 41
35.0
 42
35.0
 43
35.0
 50
270.0
  0
POINT
  5
58F3
330
2DCF
100
AcDbEntity
  8
Defpoints
 62
     0
100
AcDbPoint
 10
564.7941027996076
 20
1497.517091367211
 30
0.0
  0
POINT
  5
58F4
330
2DCF
100
AcDbEntity
  8
Defpoints
 62
     0
100
AcDbPoint
 10
564.7941027996076
 20
1317.517091367211
 30
0.0
  0
POINT
  5
58F5
330
2DCF
100
AcDbEntity
  8
Defpoints
 62
     0
100
AcDbPoint
 10
471.0203906377882
 20
1317.517091367211
 30
0.0
  0
ENDBLK
  5
2DDA
330
2DCF
100
AcDbEntity
  8
0
100
AcDbBlockEnd
  0
BLOCK
  5
2DEF
330
2DE5
100
AcDbEntity
  8
0
100
AcDbBlockBegin
  2
*D37
 70
     1
 10
0.0
 20
0.0
 30
0.0
  3
*D37
  1

  0
LINE
  5
58F6
330
2DE5
100
AcDbEntity
  8
実形
 62
     0
370
    18
100
AcDbLine
 10
500.9700314372148
 20
1517.517091367211
 30
0.0
 11
471.0203906377883
 21
1517.517091367211
 31
0.0
  0
LINE
  5
58F7
330
2DE5
100
AcDbEntity
  8
実形
 62
     0
370
    18
100
AcDbLine
 10
470.7830593165872
 20
1317.517091367211
 30
0.0
 11
471.0203906377882
 21
1317.517091367211
 31
0.0
  0
MTEXT
  5
58F8
330
2DE5
100
AcDbEntity
  8
実形
 62
     0
100
AcDbMText
 10
448.1173475982814
 20
1509.265617030804
 30
0.0
 40
25.0
 41
0.0
 71
     5
 72
     1
  1
20
 11
0.0000000000000001
 21
1.0
 31
0.0
 73
     1
 44
1.0
1001
ACAD
1000
MTEXTBEGIN
1070
    73
1070
     1
1070
    44
1040
1.0
1070
    74
1070
     0
1000
MTEXTEND
  0
POINT
  5
58F9
330
2DE5
100
AcDbEntity
  8
Defpoints
 62
     0
100
AcDbPoint
 10
565.9700314372148
 20
1517.51709136721
 30
0.0
  0
POINT
  5
58FA
330
2DE5
100
AcDbEntity
  8
Defpoints
 62
     0
100
AcDbPoint
 10
535.7830593165872
 20
1317.517091367211
 30
0.0
  0
POINT
  5
58FB
330
2DE5
100
AcDbEntity
  8
Defpoints
 62
     0
100
AcDbPoint
 10
471.0203906377882
 20
1317.517091367211
 30
0.0
  0
ENDBLK
  5
2DF0
330
2DE5
100
AcDbEntity
  8
0
100
AcDbBlockEnd
  0
BLOCK
  5
2E4E
330
2E44
100
AcDbEntity
  8
0
100
AcDbBlockBegin
  2
*D38
 70
     1
 10
0.0
 20
0.0
 30
0.0
  3
*D38
  1

  0
LINE
  5
58FC
330
2E44
100
AcDbEntity
  8
実形
 62
     0
370
    18
100
AcDbLine
 10
478.0615227159196
 20
1517.517091367211
 30
0.0
 11
470.7830593165873
 21
1517.517091367211
 31
0.0
  0
LINE
  5
58FD
330
2E44
100
AcDbEntity
  8
実形
 62
     0
370
    18
100
AcDbLine
 10
498.1847832413022
 20
1297.517091367211
 30
0.0
 11
470.7830593165872
 21
1297.517091367211
 31
0.0
  0
MTEXT
  5
58FE
330
2E44
100
AcDbEntity
  8
実形
 62
     0
100
AcDbMText
 10
449.1750352004692
 20
1307.296217284442
 30
0.0
 40
25.0
 41
0.0
 71
     5
 72
     1
  1
20
 11
0.0000000000000001
 21
1.0
 31
0.0
 73
     1
 44
1.0
1001
ACAD
1000
MTEXTBEGIN
1070
    73
1070
     1
1070
    44
1040
1.0
1070
    74
1070
     0
1000
MTEXTEND
  0
POINT
  5
58FF
330
2E44
100
AcDbEntity
  8
Defpoints
 62
     0
100
AcDbPoint
 10
543.0615227159196
 20
1517.517091367211
 30
0.0
  0
POINT
  5
5900
330
2E44
100
AcDbEntity
  8
Defpoints
 62
     0
100
AcDbPoint
 10
563.1847832413022
 20
1297.517091367211
 30
0.0
  0
POINT
  5
5901
330
2E44
100
AcDbEntity
  8
Defpoints
 62
     0
100
AcDbPoint
 10
470.7830593165872
 20
1297.517091367211
 30
0.0
  0
ENDBLK
  5
2E4F
330
2E44
100
AcDbEntity
  8
0
100
AcDbBlockEnd
  0
BLOCK
  5
2ED8
330
2ED7
100
AcDbEntity
  8
0
100
AcDbBlockBegin
  2
_Dot
 70
     0
 10
0.0
 20
0.0
 30
0.0
  3
_Dot
  1

  0
LWPOLYLINE
  5
2ED9
330
2ED7
100
AcDbEntity
  8
0
 62
     0
100
AcDbPolyline
 90
        2
 70
     1
 43
0.5
 10
-0.25
 20
0.0
 42
1.0
 10
0.25
 20
0.0
 42
1.0
  0
LINE
  5
2EDA
330
2ED7
100
AcDbEntity
  8
0
 62
     0
370
    -2
100
AcDbLine
 10
-0.5
 20
0.0
 30
0.0
 11
-1.0
 21
0.0
 31
0.0
  0
ENDBLK
  5
2EDB
330
2ED7
100
AcDbEntity
  8
0
100
AcDbBlockEnd
  0
BLOCK
  5
322F
330
3225
100
AcDbEntity
  8
0
 62
     3
100
AcDbBlockBegin
  2
*D40
 70
     1
 10
0.0
 20
0.0
 30
0.0
  3
*D40
  1

  0
MTEXT
  5
5902
330
3225
100
AcDbEntity
  8
実形
 62
     0
100
AcDbMText
 10
613.3562693042494
 20
1109.390767961284
 30
0.0
 40
25.0
 41
0.0
 71
     5
 72
     1
  1
15
 73
     1
 44
1.0
1001
ACAD
1000
MTEXTBEGIN
1070
    73
1070
     1
1070
    44
1040
1.0
1070
    74
1070
     0
1000
MTEXTEND
  0
POINT
  5
5903
330
3225
100
AcDbEntity
  8
Defpoints
 62
     0
100
AcDbPoint
 10
578.1847832413022
 20
1198.992507324763
 30
0.0
  0
POINT
  5
5904
330
3225
100
AcDbEntity
  8
Defpoints
 62
     0
100
AcDbPoint
 10
378.1847832413018
 20
1198.992507324763
 30
0.0
  0
POINT
  5
5905
330
3225
100
AcDbEntity
  8
Defpoints
 62
     0
100
AcDbPoint
 10
378.1847832413018
 20
1090.640767961284
 30
0.0
  0
ENDBLK
  5
3230
330
3225
100
AcDbEntity
  8
0
 62
     3
100
AcDbBlockEnd
  0
BLOCK
  5
323C
330
3232
100
AcDbEntity
  8
0
 62
     3
100
AcDbBlockBegin
  2
*D41
 70
     1
 10
0.0
 20
0.0
 30
0.0
  3
*D41
  1

  0
LINE
  5
5906
330
3232
100
AcDbEntity
  8
実形
 62
     0
370
    18
100
AcDbLine
 10
563.1847832413027
 20
1133.992507324763
 30
0.0
 11
563.1847832413027
 21
1090.640767961284
 31
0.0
  0
LINE
  5
5907
330
3232
100
AcDbEntity
  8
実形
 62
     0
370
    18
100
AcDbLine
 10
378.1847832413018
 20
1133.992507324763
 30
0.0
 11
378.1847832413018
 21
1090.640767961284
 31
0.0
  0
LINE
  5
5908
330
3232
100
AcDbEntity
  8
実形
 62
     0
370
    18
100
AcDbLine
 10
563.1847832413027
 20
1090.640767961284
 30
0.0
 11
378.1847832413018
 21
1090.640767961284
 31
0.0
  0
INSERT
  5
5909
330
3232
100
AcDbEntity
  8
実形
 62
     0
370
    18
100
AcDbBlockReference
  2
_DotSmall
 10
563.1847832413027
 20
1090.640767961284
 30
0.0
 41
35.0
 42
35.0
 43
35.0
  0
INSERT
  5
590A
330
3232
100
AcDbEntity
  8
実形
 62
     0
370
    18
100
AcDbBlockReference
  2
_DotSmall
 10
378.1847832413018
 20
1090.640767961284
 30
0.0
 41
35.0
 42
35.0
 43
35.0
 50
180.0
  0
MTEXT
  5
590B
330
3232
100
AcDbEntity
  8
実形
 62
     0
100
AcDbMText
 10
470.6847832413022
 20
1109.390767961284
 30
0.0
 40
25.0
 41
0.0
 71
     5
 72
     1
  1
185
 73
     1
 44
1.0
1001
ACAD
1000
MTEXTBEGIN
1070
    73
1070
     1
1070
    44
1040
1.0
1070
    74
1070
     0
1000
MTEXTEND
  0
POINT
  5
590C
330
3232
100
AcDbEntity
  8
Defpoints
 62
     0
100
AcDbPoint
 10
563.1847832413027
 20
1198.992507324763
 30
0.0
  0
POINT
  5
590D
330
3232
100
AcDbEntity
  8
Defpoints
 62
     0
100
AcDbPoint
 10
378.1847832413018
 20
1198.992507324763
 30
0.0
  0
POINT
  5
590E
330
3232
100
AcDbEntity
  8
Defpoints
 62
     0
100
AcDbPoint
 10
378.1847832413018
 20
1090.640767961284
 30
0.0
  0
ENDBLK
  5
323D
330
3232
100
AcDbEntity
  8
0
 62
     3
100
AcDbBlockEnd
  0
BLOCK
  5
3291
330
3287
100
AcDbEntity
  8
0
 62
     3
100
AcDbBlockBegin
  2
*D42
 70
     1
 10
0.0
 20
0.0
 30
0.0
  3
*D42
  1

  0
LINE
  5
590F
330
3287
100
AcDbEntity
  8
実形
 62
     0
370
    18
100
AcDbLine
 10
578.1847832413022
 20
1133.992507324763
 30
0.0
 11
578.1847832413022
 21
1042.418202794422
 31
0.0
  0
LINE
  5
5910
330
3287
100
AcDbEntity
  8
実形
 62
     0
370
    18
100
AcDbLine
 10
378.1847832413018
 20
1133.992507324763
 30
0.0
 11
378.1847832413018
 21
1042.418202794422
 31
0.0
  0
LINE
  5
5911
330
3287
100
AcDbEntity
  8
実形
 62
     0
370
    18
100
AcDbLine
 10
578.1847832413022
 20
1042.418202794422
 30
0.0
 11
378.1847832413018
 21
1042.418202794422
 31
0.0
  0
MTEXT
  5
5912
330
3287
100
AcDbEntity
  8
実形
 62
     0
100
AcDbMText
 10
466.0405054995335
 20
1061.168202794422
 30
0.0
 40
25.0
 41
0.0
 71
     5
 72
     1
  1
200
 73
     1
 44
1.0
1001
ACAD
1000
MTEXTBEGIN
1070
    73
1070
     1
1070
    44
1040
1.0
1070
    74
1070
     0
1000
MTEXTEND
  0
INSERT
  5
5913
330
3287
100
AcDbEntity
  8
実形
 62
     0
370
    18
100
AcDbBlockReference
  2
_DotSmall
 10
578.1847832413022
 20
1042.418202794422
 30
0.0
 41
35.0
 42
35.0
 43
35.0
  0
INSERT
  5
5914
330
3287
100
AcDbEntity
  8
実形
 62
     0
370
    18
100
AcDbBlockReference
  2
_DotSmall
 10
378.1847832413018
 20
1042.418202794422
 30
0.0
 41
35.0
 42
35.0
 43
35.0
 50
180.0
  0
POINT
  5
5915
330
3287
100
AcDbEntity
  8
Defpoints
 62
     0
100
AcDbPoint
 10
578.1847832413022
 20
1198.992507324763
 30
0.0
  0
POINT
  5
5916
330
3287
100
AcDbEntity
  8
Defpoints
 62
     0
100
AcDbPoint
 10
378.1847832413018
 20
1198.992507324763
 30
0.0
  0
POINT
  5
5917
330
3287
100
AcDbEntity
  8
Defpoints
 62
     0
100
AcDbPoint
 10
378.1847832413018
 20
1042.418202794422
 30
0.0
  0
ENDBLK
  5
3292
330
3287
100
AcDbEntity
  8
0
 62
     3
100
AcDbBlockEnd
  0
BLOCK
  5
32D8
330
32CE
100
AcDbEntity
  8
0
 62
     3
100
AcDbBlockBegin
  2
*D43
 70
     1
 10
0.0
 20
0.0
 30
0.0
  3
*D43
  1

  0
LINE
  5
5918
330
32CE
100
AcDbEntity
  8
実形
 62
     0
370
    18
100
AcDbLine
 10
578.1847832413022
 20
1089.106076856789
 30
0.0
 11
578.1847832413022
 21
1042.418202794422
 31
0.0
  0
LINE
  5
5919
330
32CE
100
AcDbEntity
  8
実形
 62
     0
370
    18
100
AcDbLine
 10
368.1847832413023
 20
1089.106076856789
 30
0.0
 11
368.1847832413023
 21
1042.418202794422
 31
0.0
  0
MTEXT
  5
591A
330
32CE
100
AcDbEntity
  8
実形
 62
     0
100
AcDbMText
 10
335.5667115073757
 20
1061.168202794422
 30
0.0
 40
25.0
 41
0.0
 71
     5
 72
     1
  1
10
 73
     1
 44
1.0
1001
ACAD
1000
MTEXTBEGIN
1070
    73
1070
     1
1070
    44
1040
1.0
1070
    74
1070
     0
1000
MTEXTEND
  0
POINT
  5
591B
330
32CE
100
AcDbEntity
  8
Defpoints
 62
     0
100
AcDbPoint
 10
578.1847832413022
 20
1154.106076856789
 30
0.0
  0
POINT
  5
591C
330
32CE
100
AcDbEntity
  8
Defpoints
 62
     0
100
AcDbPoint
 10
368.1847832413023
 20
1154.106076856789
 30
0.0
  0
POINT
  5
591D
330
32CE
100
AcDbEntity
  8
Defpoints
 62
     0
100
AcDbPoint
 10
368.1847832413023
 20
1042.418202794422
 30
0.0
  0
ENDBLK
  5
32D9
330
32CE
100
AcDbEntity
  8
0
 62
     3
100
AcDbBlockEnd
  0
BLOCK
  5
334F
330
3345
100
AcDbEntity
  8
0
 62
     3
100
AcDbBlockBegin
  2
*D44
 70
     1
 10
0.0
 20
0.0
 30
0.0
  3
*D44
  1

  0
LINE
  5
591E
330
3345
100
AcDbEntity
  8
実形
 62
     0
370
    18
100
AcDbLine
 10
578.1847832413022
 20
1089.106076856789
 30
0.0
 11
578.1847832413022
 21
989.8704398109293
 31
0.0
  0
LINE
  5
591F
330
3345
100
AcDbEntity
  8
実形
 62
     0
370
    18
100
AcDbLine
 10
368.1847832413023
 20
1058.476731055189
 30
0.0
 11
368.1847832413023
 21
989.8704398109293
 31
0.0
  0
LINE
  5
5920
330
3345
100
AcDbEntity
  8
実形
 62
     0
370
    18
100
AcDbLine
 10
578.1847832413022
 20
989.8704398109293
 30
0.0
 11
368.1847832413023
 21
989.8704398109293
 31
0.0
  0
INSERT
  5
5921
330
3345
100
AcDbEntity
  8
実形
 62
     0
370
    18
100
AcDbBlockReference
  2
_DotSmall
 10
578.1847832413022
 20
989.8704398109293
 30
0.0
 41
35.0
 42
35.0
 43
35.0
  0
INSERT
  5
5922
330
3345
100
AcDbEntity
  8
実形
 62
     0
370
    18
100
AcDbBlockReference
  2
_DotSmall
 10
368.1847832413023
 20
989.8704398109293
 30
0.0
 41
35.0
 42
35.0
 43
35.0
 50
180.0
  0
MTEXT
  5
5923
330
3345
100
AcDbEntity
  8
実形
 62
     0
100
AcDbMText
 10
473.1847832413023
 20
1008.620439810929
 30
0.0
 40
25.0
 41
0.0
 71
     5
 72
     1
  1
210
 73
     1
 44
1.0
1001
ACAD
1000
MTEXTBEGIN
1070
    73
1070
     1
1070
    44
1040
1.0
1070
    74
1070
     0
1000
MTEXTEND
  0
POINT
  5
5924
330
3345
100
AcDbEntity
  8
Defpoints
 62
     0
100
AcDbPoint
 10
578.1847832413022
 20
1154.106076856789
 30
0.0
  0
POINT
  5
5925
330
3345
100
AcDbEntity
  8
Defpoints
 62
     0
100
AcDbPoint
 10
368.1847832413023
 20
1123.476731055188
 30
0.0
  0
POINT
  5
5926
330
3345
100
AcDbEntity
  8
Defpoints
 62
     0
100
AcDbPoint
 10
368.1847832413023
 20
989.8704398109293
 30
0.0
  0
ENDBLK
  5
3350
330
3345
100
AcDbEntity
  8
0
 62
     3
100
AcDbBlockEnd
  0
BLOCK
  5
335C
330
3352
100
AcDbEntity
  8
0
 62
     3
100
AcDbBlockBegin
  2
*D45
 70
     1
 10
0.0
 20
0.0
 30
0.0
  3
*D45
  1

  0
MTEXT
  5
5927
330
3352
100
AcDbEntity
  8
実形
 62
     0
100
AcDbMText
 10
329.1043018646833
 20
1008.620439810929
 30
0.0
 40
25.0
 41
0.0
 71
     5
 72
     1
  1
8
 73
     1
 44
1.0
1001
ACAD
1000
MTEXTBEGIN
1070
    73
1070
     1
1070
    44
1040
1.0
1070
    74
1070
     0
1000
MTEXTEND
  0
POINT
  5
5928
330
3352
100
AcDbEntity
  8
Defpoints
 62
     0
100
AcDbPoint
 10
578.1847832413022
 20
1154.106076856789
 30
0.0
  0
POINT
  5
5929
330
3352
100
AcDbEntity
  8
Defpoints
 62
     0
100
AcDbPoint
 10
358.1847832413028
 20
1142.403242481072
 30
0.0
  0
POINT
  5
592A
330
3352
100
AcDbEntity
  8
Defpoints
 62
     0
100
AcDbPoint
 10
358.1847832413028
 20
989.8704398109293
 30
0.0
  0
ENDBLK
  5
335D
330
3352
100
AcDbEntity
  8
0
 62
     3
100
AcDbBlockEnd
  0
BLOCK
  5
33BC
330
33B2
100
AcDbEntity
  8
0
 62
     3
100
AcDbBlockBegin
  2
*D46
 70
     1
 10
0.0
 20
0.0
 30
0.0
  3
*D46
  1

  0
LINE
  5
592B
330
33B2
100
AcDbEntity
  8
実形
 62
     0
370
    18
100
AcDbLine
 10
578.1847832413022
 20
1089.106076856789
 30
0.0
 11
578.1847832413022
 21
938.7570792024162
 31
0.0
  0
LINE
  5
592C
330
33B2
100
AcDbEntity
  8
実形
 62
     0
370
    18
100
AcDbLine
 10
358.1847832413028
 20
998.0467789571029
 30
0.0
 11
358.1847832413028
 21
938.7570792024162
 31
0.0
  0
LINE
  5
592D
330
33B2
100
AcDbEntity
  8
実形
 62
     0
370
    18
100
AcDbLine
 10
578.1847832413022
 20
938.7570792024162
 30
0.0
 11
358.1847832413028
 21
938.7570792024162
 31
0.0
  0
INSERT
  5
592E
330
33B2
100
AcDbEntity
  8
実形
 62
     0
370
    18
100
AcDbBlockReference
  2
_DotSmall
 10
578.1847832413022
 20
938.7570792024162
 30
0.0
 41
35.0
 42
35.0
 43
35.0
  0
INSERT
  5
592F
330
33B2
100
AcDbEntity
  8
実形
 62
     0
370
    18
100
AcDbBlockReference
  2
_DotSmall
 10
358.1847832413028
 20
938.7570792024162
 30
0.0
 41
35.0
 42
35.0
 43
35.0
 50
180.0
  0
MTEXT
  5
5930
330
33B2
100
AcDbEntity
  8
実形
 62
     0
100
AcDbMText
 10
468.1847832413025
 20
957.5070792024162
 30
0.0
 40
25.0
 41
0.0
 71
     5
 72
     1
  1
218
 73
     1
 44
1.0
1001
ACAD
1000
MTEXTBEGIN
1070
    73
1070
     1
1070
    44
1040
1.0
1070
    74
1070
     0
1000
MTEXTEND
  0
POINT
  5
5931
330
33B2
100
AcDbEntity
  8
Defpoints
 62
     0
100
AcDbPoint
 10
578.1847832413022
 20
1154.106076856789
 30
0.0
  0
POINT
  5
5932
330
33B2
100
AcDbEntity
  8
Defpoints
 62
     0
100
AcDbPoint
 10
358.1847832413028
 20
1063.046778957103
 30
0.0
  0
POINT
  5
5933
330
33B2
100
AcDbEntity
  8
Defpoints
 62
     0
100
AcDbPoint
 10
358.1847832413028
 20
938.7570792024162
 30
0.0
  0
ENDBLK
  5
33BD
330
33B2
100
AcDbEntity
  8
0
 62
     3
100
AcDbBlockEnd
  0
BLOCK
  5
3457
330
3452
100
AcDbEntity
  8
0
 62
     3
100
AcDbBlockBegin
  2
*D47
 70
     1
 10
0.0
 20
0.0
 30
0.0
  3
*D47
  1

  0
MTEXT
  5
4DB1
330
3452
100
AcDbEntity
  8
実形
 62
     0
100
AcDbMText
 10
2087.585491058002
 20
1109.390767961284
 30
0.0
 40
25.0
 41
0.0
 71
     5
 72
     1
  1
15
 73
     1
 44
1.0
1001
ACAD
1000
MTEXTBEGIN
1070
    73
1070
     1
1070
    44
1040
1.0
1070
    74
1070
     0
1000
MTEXTEND
  0
POINT
  5
4DB2
330
3452
100
AcDbEntity
  8
Defpoints
 62
     0
100
AcDbPoint
 10
2122.756977120949
 20
1198.992507324763
 30
0.0
  0
POINT
  5
4DB3
330
3452
100
AcDbEntity
  8
Defpoints
 62
     0
100
AcDbPoint
 10
2322.756977120949
 20
1198.992507324763
 30
0.0
  0
POINT
  5
4DB4
330
3452
100
AcDbEntity
  8
Defpoints
 62
     0
100
AcDbPoint
 10
2322.756977120949
 20
1090.640767961284
 30
0.0
  0
ENDBLK
  5
3458
330
3452
100
AcDbEntity
  8
0
 62
     3
100
AcDbBlockEnd
  0
BLOCK
  5
3463
330
3459
100
AcDbEntity
  8
0
 62
     3
100
AcDbBlockBegin
  2
*D48
 70
     1
 10
0.0
 20
0.0
 30
0.0
  3
*D48
  1

  0
LINE
  5
4E05
330
3459
100
AcDbEntity
  8
実形
 62
     0
370
    18
100
AcDbLine
 10
2137.756977120949
 20
1133.992507324763
 30
0.0
 11
2137.756977120949
 21
1090.640767961284
 31
0.0
  0
LINE
  5
4E06
330
3459
100
AcDbEntity
  8
実形
 62
     0
370
    18
100
AcDbLine
 10
2322.756977120949
 20
1133.992507324763
 30
0.0
 11
2322.756977120949
 21
1090.640767961284
 31
0.0
  0
LINE
  5
4E07
330
3459
100
AcDbEntity
  8
実形
 62
     0
370
    18
100
AcDbLine
 10
2137.756977120949
 20
1090.640767961284
 30
0.0
 11
2322.756977120949
 21
1090.640767961284
 31
0.0
  0
INSERT
  5
4E08
330
3459
100
AcDbEntity
  8
実形
 62
     0
370
    18
100
AcDbBlockReference
  2
_DotSmall
 10
2137.756977120949
 20
1090.640767961284
 30
0.0
 41
35.0
 42
35.0
 43
35.0
 50
180.0
  0
INSERT
  5
4E09
330
3459
100
AcDbEntity
  8
実形
 62
     0
370
    18
100
AcDbBlockReference
  2
_DotSmall
 10
2322.756977120949
 20
1090.640767961284
 30
0.0
 41
35.0
 42
35.0
 43
35.0
  0
MTEXT
  5
4E0A
330
3459
100
AcDbEntity
  8
実形
 62
     0
100
AcDbMText
 10
2230.256977120949
 20
1109.390767961284
 30
0.0
 40
25.0
 41
0.0
 71
     5
 72
     1
  1
187
 73
     1
 44
1.0
1001
ACAD
1000
MTEXTBEGIN
1070
    73
1070
     1
1070
    44
1040
1.0
1070
    74
1070
     0
1000
MTEXTEND
  0
POINT
  5
4E0B
330
3459
100
AcDbEntity
  8
Defpoints
 62
     0
100
AcDbPoint
 10
2137.756977120949
 20
1198.992507324763
 30
0.0
  0
POINT
  5
4E0C
330
3459
100
AcDbEntity
  8
Defpoints
 62
     0
100
AcDbPoint
 10
2322.756977120949
 20
1198.992507324763
 30
0.0
  0
POINT
  5
4E0D
330
3459
100
AcDbEntity
  8
Defpoints
 62
     0
100
AcDbPoint
 10
2322.756977120949
 20
1090.640767961284
 30
0.0
  0
ENDBLK
  5
3464
330
3459
100
AcDbEntity
  8
0
 62
     3
100
AcDbBlockEnd
  0
BLOCK
  5
346F
330
3465
100
AcDbEntity
  8
0
 62
     3
100
AcDbBlockBegin
  2
*D49
 70
     1
 10
0.0
 20
0.0
 30
0.0
  3
*D49
  1

  0
LINE
  5
4DFC
330
3465
100
AcDbEntity
  8
実形
 62
     0
370
    18
100
AcDbLine
 10
2122.756977120949
 20
1133.992507324763
 30
0.0
 11
2122.756977120949
 21
1042.418202794422
 31
0.0
  0
LINE
  5
4DFD
330
3465
100
AcDbEntity
  8
実形
 62
     0
370
    18
100
AcDbLine
 10
2322.756977120949
 20
1133.992507324763
 30
0.0
 11
2322.756977120949
 21
1042.418202794422
 31
0.0
  0
LINE
  5
4DFE
330
3465
100
AcDbEntity
  8
実形
 62
     0
370
    18
100
AcDbLine
 10
2122.756977120949
 20
1042.418202794422
 30
0.0
 11
2322.756977120949
 21
1042.418202794422
 31
0.0
  0
MTEXT
  5
4DFF
330
3465
100
AcDbEntity
  8
実形
 62
     0
100
AcDbMText
 10
2234.901254862718
 20
1061.168202794422
 30
0.0
 40
25.0
 41
0.0
 71
     5
 72
     1
  1
202
 73
     1
 44
1.0
1001
ACAD
1000
MTEXTBEGIN
1070
    73
1070
     1
1070
    44
1040
1.0
1070
    74
1070
     0
1000
MTEXTEND
  0
INSERT
  5
4E00
330
3465
100
AcDbEntity
  8
実形
 62
     0
370
    18
100
AcDbBlockReference
  2
_DotSmall
 10
2122.756977120949
 20
1042.418202794422
 30
0.0
 41
35.0
 42
35.0
 43
35.0
 50
180.0
  0
INSERT
  5
4E01
330
3465
100
AcDbEntity
  8
実形
 62
     0
370
    18
100
AcDbBlockReference
  2
_DotSmall
 10
2322.756977120949
 20
1042.418202794422
 30
0.0
 41
35.0
 42
35.0
 43
35.0
  0
POINT
  5
4E02
330
3465
100
AcDbEntity
  8
Defpoints
 62
     0
100
AcDbPoint
 10
2122.756977120949
 20
1198.992507324763
 30
0.0
  0
POINT
  5
4E03
330
3465
100
AcDbEntity
  8
Defpoints
 62
     0
100
AcDbPoint
 10
2322.756977120949
 20
1198.992507324763
 30
0.0
  0
POINT
  5
4E04
330
3465
100
AcDbEntity
  8
Defpoints
 62
     0
100
AcDbPoint
 10
2322.756977120949
 20
1042.418202794422
 30
0.0
  0
ENDBLK
  5
3470
330
3465
100
AcDbEntity
  8
0
 62
     3
100
AcDbBlockEnd
  0
BLOCK
  5
3478
330
3471
100
AcDbEntity
  8
0
 62
     3
100
AcDbBlockBegin
  2
*D50
 70
     1
 10
0.0
 20
0.0
 30
0.0
  3
*D50
  1

  0
LINE
  5
4DF6
330
3471
100
AcDbEntity
  8
実形
 62
     0
370
    18
100
AcDbLine
 10
2122.756977120949
 20
1089.106076856789
 30
0.0
 11
2122.756977120949
 21
1042.418202794422
 31
0.0
  0
LINE
  5
4DF7
330
3471
100
AcDbEntity
  8
実形
 62
     0
370
    18
100
AcDbLine
 10
2332.756977120949
 20
1089.106076856789
 30
0.0
 11
2332.756977120949
 21
1042.418202794422
 31
0.0
  0
MTEXT
  5
4DF8
330
3471
100
AcDbEntity
  8
実形
 62
     0
100
AcDbMText
 10
2365.375048854876
 20
1061.168202794422
 30
0.0
 40
25.0
 41
0.0
 71
     5
 72
     1
  1
8
 73
     1
 44
1.0
1001
ACAD
1000
MTEXTBEGIN
1070
    73
1070
     1
1070
    44
1040
1.0
1070
    74
1070
     0
1000
MTEXTEND
  0
POINT
  5
4DF9
330
3471
100
AcDbEntity
  8
Defpoints
 62
     0
100
AcDbPoint
 10
2122.756977120949
 20
1154.106076856789
 30
0.0
  0
POINT
  5
4DFA
330
3471
100
AcDbEntity
  8
Defpoints
 62
     0
100
AcDbPoint
 10
2332.756977120949
 20
1154.106076856789
 30
0.0
  0
POINT
  5
4DFB
330
3471
100
AcDbEntity
  8
Defpoints
 62
     0
100
AcDbPoint
 10
2332.756977120949
 20
1042.418202794422
 30
0.0
  0
ENDBLK
  5
3479
330
3471
100
AcDbEntity
  8
0
 62
     3
100
AcDbBlockEnd
  0
BLOCK
  5
3484
330
347A
100
AcDbEntity
  8
0
 62
     3
100
AcDbBlockBegin
  2
*D51
 70
     1
 10
0.0
 20
0.0
 30
0.0
  3
*D51
  1

  0
LINE
  5
4DED
330
347A
100
AcDbEntity
  8
実形
 62
     0
370
    18
100
AcDbLine
 10
2122.756977120949
 20
1089.106076856789
 30
0.0
 11
2122.756977120949
 21
989.8704398109293
 31
0.0
  0
LINE
  5
4DEE
330
347A
100
AcDbEntity
  8
実形
 62
     0
370
    18
100
AcDbLine
 10
2332.756977120949
 20
1058.476731055189
 30
0.0
 11
2332.756977120949
 21
989.8704398109293
 31
0.0
  0
LINE
  5
4DEF
330
347A
100
AcDbEntity
  8
実形
 62
     0
370
    18
100
AcDbLine
 10
2122.756977120949
 20
989.8704398109293
 30
0.0
 11
2332.756977120949
 21
989.8704398109293
 31
0.0
  0
INSERT
  5
4DF0
330
347A
100
AcDbEntity
  8
実形
 62
     0
370
    18
100
AcDbBlockReference
  2
_DotSmall
 10
2122.756977120949
 20
989.8704398109293
 30
0.0
 41
35.0
 42
35.0
 43
35.0
 50
180.0
  0
INSERT
  5
4DF1
330
347A
100
AcDbEntity
  8
実形
 62
     0
370
    18
100
AcDbBlockReference
  2
_DotSmall
 10
2332.756977120949
 20
989.8704398109293
 30
0.0
 41
35.0
 42
35.0
 43
35.0
  0
MTEXT
  5
4DF2
330
347A
100
AcDbEntity
  8
実形
 62
     0
100
AcDbMText
 10
2227.756977120949
 20
1008.620439810929
 30
0.0
 40
25.0
 41
0.0
 71
     5
 72
     1
  1
210
 73
     1
 44
1.0
1001
ACAD
1000
MTEXTBEGIN
1070
    73
1070
     1
1070
    44
1040
1.0
1070
    74
1070
     0
1000
MTEXTEND
  0
POINT
  5
4DF3
330
347A
100
AcDbEntity
  8
Defpoints
 62
     0
100
AcDbPoint
 10
2122.756977120949
 20
1154.106076856789
 30
0.0
  0
POINT
  5
4DF4
330
347A
100
AcDbEntity
  8
Defpoints
 62
     0
100
AcDbPoint
 10
2332.756977120949
 20
1123.476731055188
 30
0.0
  0
POINT
  5
4DF5
330
347A
100
AcDbEntity
  8
Defpoints
 62
     0
100
AcDbPoint
 10
2332.756977120949
 20
989.8704398109293
 30
0.0
  0
ENDBLK
  5
3485
330
347A
100
AcDbEntity
  8
0
 62
     3
100
AcDbBlockEnd
  0
BLOCK
  5
348B
330
3486
100
AcDbEntity
  8
0
 62
     3
100
AcDbBlockBegin
  2
*D52
 70
     1
 10
0.0
 20
0.0
 30
0.0
  3
*D52
  1

  0
MTEXT
  5
4DE9
330
3486
100
AcDbEntity
  8
実形
 62
     0
100
AcDbMText
 10
2371.837458497568
 20
1008.620439810929
 30
0.0
 40
25.0
 41
0.0
 71
     5
 72
     1
  1
8
 73
     1
 44
1.0
1001
ACAD
1000
MTEXTBEGIN
1070
    73
1070
     1
1070
    44
1040
1.0
1070
    74
1070
     0
1000
MTEXTEND
  0
POINT
  5
4DEA
330
3486
100
AcDbEntity
  8
Defpoints
 62
     0
100
AcDbPoint
 10
2122.756977120949
 20
1154.106076856789
 30
0.0
  0
POINT
  5
4DEB
330
3486
100
AcDbEntity
  8
Defpoints
 62
     0
100
AcDbPoint
 10
2342.756977120949
 20
1142.403242481072
 30
0.0
  0
POINT
  5
4DEC
330
3486
100
AcDbEntity
  8
Defpoints
 62
     0
100
AcDbPoint
 10
2342.756977120949
 20
989.8704398109293
 30
0.0
  0
ENDBLK
  5
348C
330
3486
100
AcDbEntity
  8
0
 62
     3
100
AcDbBlockEnd
  0
BLOCK
  5
3497
330
348D
100
AcDbEntity
  8
0
 62
     3
100
AcDbBlockBegin
  2
*D53
 70
     1
 10
0.0
 20
0.0
 30
0.0
  3
*D53
  1

  0
LINE
  5
4DE0
330
348D
100
AcDbEntity
  8
実形
 62
     0
370
    18
100
AcDbLine
 10
2122.756977120949
 20
1089.106076856789
 30
0.0
 11
2122.756977120949
 21
938.7570792024162
 31
0.0
  0
LINE
  5
4DE1
330
348D
100
AcDbEntity
  8
実形
 62
     0
370
    18
100
AcDbLine
 10
2342.756977120949
 20
998.0467789571029
 30
0.0
 11
2342.756977120949
 21
938.7570792024162
 31
0.0
  0
LINE
  5
4DE2
330
348D
100
AcDbEntity
  8
実形
 62
     0
370
    18
100
AcDbLine
 10
2122.756977120949
 20
938.7570792024162
 30
0.0
 11
2342.756977120949
 21
938.7570792024162
 31
0.0
  0
INSERT
  5
4DE3
330
348D
100
AcDbEntity
  8
実形
 62
     0
370
    18
100
AcDbBlockReference
  2
_DotSmall
 10
2122.756977120949
 20
938.7570792024162
 30
0.0
 41
35.0
 42
35.0
 43
35.0
 50
180.0
  0
INSERT
  5
4DE4
330
348D
100
AcDbEntity
  8
実形
 62
     0
370
    18
100
AcDbBlockReference
  2
_DotSmall
 10
2342.756977120949
 20
938.7570792024162
 30
0.0
 41
35.0
 42
35.0
 43
35.0
  0
MTEXT
  5
4DE5
330
348D
100
AcDbEntity
  8
実形
 62
     0
100
AcDbMText
 10
2232.756977120949
 20
957.5070792024162
 30
0.0
 40
25.0
 41
0.0
 71
     5
 72
     1
  1
218
 73
     1
 44
1.0
1001
ACAD
1000
MTEXTBEGIN
1070
    73
1070
     1
1070
    44
1040
1.0
1070
    74
1070
     0
1000
MTEXTEND
  0
POINT
  5
4DE6
330
348D
100
AcDbEntity
  8
Defpoints
 62
     0
100
AcDbPoint
 10
2122.756977120949
 20
1154.106076856789
 30
0.0
  0
POINT
  5
4DE7
330
348D
100
AcDbEntity
  8
Defpoints
 62
     0
100
AcDbPoint
 10
2342.756977120949
 20
1063.046778957103
 30
0.0
  0
POINT
  5
4DE8
330
348D
100
AcDbEntity
  8
Defpoints
 62
     0
100
AcDbPoint
 10
2342.756977120949
 20
938.7570792024162
 30
0.0
  0
ENDBLK
  5
3498
330
348D
100
AcDbEntity
  8
0
 62
     3
100
AcDbBlockEnd
  0
BLOCK
  5
349E
330
3499
100
AcDbEntity
  8
0
 62
     3
100
AcDbBlockBegin
  2
*D54
 70
     1
 10
0.0
 20
0.0
 30
0.0
  3
*D54
  1

  0
MTEXT
  5
4DCA
330
3499
100
AcDbEntity
  8
実形
 62
     0
100
AcDbMText
 10
2163.743057511845
 20
1572.50817979203
 30
0.0
 40
25.0
 41
0.0
 71
     5
 72
     1
  1
40
 73
     1
 44
1.0
1001
ACAD
1000
MTEXTBEGIN
1070
    73
1070
     1
1070
    44
1040
1.0
1070
    74
1070
     0
1000
MTEXTEND
  0
POINT
  5
4DCB
330
3499
100
AcDbEntity
  8
Defpoints
 62
     0
100
AcDbPoint
 10
2137.756977120949
 20
1470.358071531854
 30
0.0
  0
POINT
  5
4DCC
330
3499
100
AcDbEntity
  8
Defpoints
 62
     0
100
AcDbPoint
 10
2177.756977120949
 20
1470.358071531854
 30
0.0
  0
POINT
  5
4DCD
330
3499
100
AcDbEntity
  8
Defpoints
 62
     0
100
AcDbPoint
 10
2177.756977120949
 20
1550.569449279112
 30
0.0
  0
ENDBLK
  5
349F
330
3499
100
AcDbEntity
  8
0
 62
     3
100
AcDbBlockEnd
  0
BLOCK
  5
34AA
330
34A0
100
AcDbEntity
  8
0
 62
     3
100
AcDbBlockBegin
  2
*D55
 70
     1
 10
0.0
 20
0.0
 30
0.0
  3
*D55
  1

  0
LINE
  5
4DC1
330
34A0
100
AcDbEntity
  8
実形
 62
     0
370
    18
100
AcDbLine
 10
2201.147657562644
 20
1497.517091367211
 30
0.0
 11
2229.921369724463
 21
1497.517091367211
 31
0.0
  0
LINE
  5
4DC2
330
34A0
100
AcDbEntity
  8
実形
 62
     0
370
    18
100
AcDbLine
 10
2201.147657562644
 20
1317.517091367211
 30
0.0
 11
2229.921369724463
 21
1317.517091367211
 31
0.0
  0
LINE
  5
4DC3
330
34A0
100
AcDbEntity
  8
実形
 62
     0
370
    18
100
AcDbLine
 10
2229.921369724463
 20
1497.517091367211
 30
0.0
 11
2229.921369724463
 21
1317.517091367211
 31
0.0
  0
INSERT
  5
4DC4
330
34A0
100
AcDbEntity
  8
実形
 62
     0
370
    18
100
AcDbBlockReference
  2
_DotSmall
 10
2229.921369724463
 20
1497.517091367211
 30
0.0
 41
35.0
 42
35.0
 43
35.0
 50
90.0
  0
INSERT
  5
4DC5
330
34A0
100
AcDbEntity
  8
実形
 62
     0
370
    18
100
AcDbBlockReference
  2
_DotSmall
 10
2229.921369724463
 20
1317.517091367211
 30
0.0
 41
35.0
 42
35.0
 43
35.0
 50
270.0
  0
MTEXT
  5
4DC6
330
34A0
100
AcDbEntity
  8
実形
 62
     0
100
AcDbMText
 10
2211.171369724463
 20
1407.517091367211
 30
0.0
 40
25.0
 41
0.0
 71
     5
 72
     1
  1
180
 11
0.0000000000000001
 21
1.0
 31
0.0
 73
     1
 44
1.0
1001
ACAD
1000
MTEXTBEGIN
1070
    73
1070
     1
1070
    44
1040
1.0
1070
    74
1070
     0
1000
MTEXTEND
  0
POINT
  5
4DC7
330
34A0
100
AcDbEntity
  8
Defpoints
 62
     0
100
AcDbPoint
 10
2136.147657562644
 20
1497.517091367211
 30
0.0
  0
POINT
  5
4DC8
330
34A0
100
AcDbEntity
  8
Defpoints
 62
     0
100
AcDbPoint
 10
2136.147657562644
 20
1317.517091367211
 30
0.0
  0
POINT
  5
4DC9
330
34A0
100
AcDbEntity
  8
Defpoints
 62
     0
100
AcDbPoint
 10
2229.921369724463
 20
1317.517091367211
 30
0.0
  0
ENDBLK
  5
34AB
330
34A0
100
AcDbEntity
  8
0
 62
     3
100
AcDbBlockEnd
  0
BLOCK
  5
34B3
330
34AC
100
AcDbEntity
  8
0
 62
     3
100
AcDbBlockBegin
  2
*D56
 70
     1
 10
0.0
 20
0.0
 30
0.0
  3
*D56
  1

  0
LINE
  5
4DBB
330
34AC
100
AcDbEntity
  8
実形
 62
     0
370
    18
100
AcDbLine
 10
2199.971728925037
 20
1517.51709136721
 30
0.0
 11
2229.921369724463
 21
1517.51709136721
 31
0.0
  0
LINE
  5
4DBC
330
34AC
100
AcDbEntity
  8
実形
 62
     0
370
    18
100
AcDbLine
 10
2230.158701045664
 20
1317.517091367211
 30
0.0
 11
2229.921369724463
 21
1317.517091367211
 31
0.0
  0
MTEXT
  5
4DBD
330
34AC
100
AcDbEntity
  8
実形
 62
     0
100
AcDbMText
 10
2211.171369724463
 20
1552.35624539669
 30
0.0
 40
25.0
 41
0.0
 71
     5
 72
     1
  1
20
 11
0.0000000000000001
 21
1.0
 31
0.0
 73
     1
 44
1.0
1001
ACAD
1000
MTEXTBEGIN
1070
    73
1070
     1
1070
    44
1040
1.0
1070
    74
1070
     0
1000
MTEXTEND
  0
POINT
  5
4DBE
330
34AC
100
AcDbEntity
  8
Defpoints
 62
     0
100
AcDbPoint
 10
2134.971728925037
 20
1517.51709136721
 30
0.0
  0
POINT
  5
4DBF
330
34AC
100
AcDbEntity
  8
Defpoints
 62
     0
100
AcDbPoint
 10
2165.158701045664
 20
1317.517091367211
 30
0.0
  0
POINT
  5
4DC0
330
34AC
100
AcDbEntity
  8
Defpoints
 62
     0
100
AcDbPoint
 10
2229.921369724463
 20
1317.517091367211
 30
0.0
  0
ENDBLK
  5
34B4
330
34AC
100
AcDbEntity
  8
0
 62
     3
100
AcDbBlockEnd
  0
BLOCK
  5
34BC
330
34B5
100
AcDbEntity
  8
0
 62
     3
100
AcDbBlockBegin
  2
*D57
 70
     1
 10
0.0
 20
0.0
 30
0.0
  3
*D57
  1

  0
LINE
  5
4DB5
330
34B5
100
AcDbEntity
  8
実形
 62
     0
370
    18
100
AcDbLine
 10
2222.880237646332
 20
1517.517091367211
 30
0.0
 11
2230.158701045664
 21
1517.517091367211
 31
0.0
  0
LINE
  5
4DB6
330
34B5
100
AcDbEntity
  8
実形
 62
     0
370
    18
100
AcDbLine
 10
2202.756977120949
 20
1297.517091367211
 30
0.0
 11
2230.158701045664
 21
1297.517091367211
 31
0.0
  0
MTEXT
  5
4DB7
330
34B5
100
AcDbEntity
  8
実形
 62
     0
100
AcDbMText
 10
2211.408701045664
 20
1266.774010556846
 30
0.0
 40
25.0
 41
0.0
 71
     5
 72
     1
  1
20
 11
0.0000000000000001
 21
1.0
 31
0.0
 73
     1
 44
1.0
1001
ACAD
1000
MTEXTBEGIN
1070
    73
1070
     1
1070
    44
1040
1.0
1070
    74
1070
     0
1000
MTEXTEND
  0
POINT
  5
4DB8
330
34B5
100
AcDbEntity
  8
Defpoints
 62
     0
100
AcDbPoint
 10
2157.880237646332
 20
1517.517091367211
 30
0.0
  0
POINT
  5
4DB9
330
34B5
100
AcDbEntity
  8
Defpoints
 62
     0
100
AcDbPoint
 10
2137.756977120949
 20
1297.517091367211
 30
0.0
  0
POINT
  5
4DBA
330
34B5
100
AcDbEntity
  8
Defpoints
 62
     0
100
AcDbPoint
 10
2230.158701045664
 20
1297.517091367211
 30
0.0
  0
ENDBLK
  5
34BD
330
34B5
100
AcDbEntity
  8
0
 62
     3
100
AcDbBlockEnd
  0
BLOCK
  5
37D9
330
37CF
100
AcDbEntity
  8
0
 62
     3
100
AcDbBlockBegin
  2
*D58
 70
     1
 10
0.0
 20
0.0
 30
0.0
  3
*D58
  1

  0
LINE
  5
5934
330
37CF
100
AcDbEntity
  8
実形
 62
     0
370
    18
100
AcDbLine
 10
318.902912268657
 20
1352.517091367211
 30
0.0
 11
266.9863137327993
 21
1352.517091367211
 31
0.0
  0
LINE
  5
5935
330
37CF
100
AcDbEntity
  8
実形
 62
     0
370
    18
100
AcDbLine
 10
318.902912268657
 20
1512.517091367211
 30
0.0
 11
266.9863137327993
 21
1512.517091367211
 31
0.0
  0
LINE
  5
5936
330
37CF
100
AcDbEntity
  8
実形
 62
     0
370
    18
100
AcDbLine
 10
266.9863137327993
 20
1362.517091367211
 30
0.0
 11
266.9863137327993
 21
1502.517091367211
 31
0.0
  0
INSERT
  5
5937
330
37CF
100
AcDbEntity
  8
実形
 62
     0
370
    18
100
AcDbBlockReference
  2
_Dot
 10
266.9863137327993
 20
1352.517091367211
 30
0.0
 41
10.0
 42
10.0
 43
10.0
 50
270.0
  0
INSERT
  5
5938
330
37CF
100
AcDbEntity
  8
実形
 62
     0
370
    18
100
AcDbBlockReference
  2
_Dot
 10
266.9863137327993
 20
1512.517091367211
 30
0.0
 41
10.0
 42
10.0
 43
10.0
 50
90.0
  0
MTEXT
  5
5939
330
37CF
100
AcDbEntity
  8
実形
 62
     0
100
AcDbMText
 10
247.8863137327991
 20
1432.517091367211
 30
0.0
 40
25.0
 41
0.0
 71
     5
 72
     1
  1
160
 11
0.0000000000000001
 21
1.0
 31
0.0
 73
     1
 44
1.0
1001
ACAD
1000
MTEXTBEGIN
1070
    73
1070
     1
1070
    44
1040
1.0
1070
    74
1070
     0
1000
MTEXTEND
  0
POINT
  5
593A
330
37CF
100
AcDbEntity
  8
Defpoints
 62
     0
100
AcDbPoint
 10
383.902912268657
 20
1352.517091367211
 30
0.0
  0
POINT
  5
593B
330
37CF
100
AcDbEntity
  8
Defpoints
 62
     0
100
AcDbPoint
 10
383.902912268657
 20
1512.517091367211
 30
0.0
  0
POINT
  5
593C
330
37CF
100
AcDbEntity
  8
Defpoints
 62
     0
100
AcDbPoint
 10
266.9863137327993
 20
1512.517091367211
 30
0.0
  0
ENDBLK
  5
37DA
330
37CF
100
AcDbEntity
  8
0
 62
     3
100
AcDbBlockEnd
  0
BLOCK
  5
37E5
330
37DB
100
AcDbEntity
  8
0
 62
     3
100
AcDbBlockBegin
  2
*D59
 70
     1
 10
0.0
 20
0.0
 30
0.0
  3
*D59
  1

  0
LINE
  5
593D
330
37DB
100
AcDbEntity
  8
実形
 62
     0
370
    18
100
AcDbLine
 10
318.902912268657
 20
1342.017091367211
 30
0.0
 11
195.7440169175224
 21
1342.017091367211
 31
0.0
  0
LINE
  5
593E
330
37DB
100
AcDbEntity
  8
実形
 62
     0
370
    18
100
AcDbLine
 10
318.9029122686525
 20
1523.017091367211
 30
0.0
 11
195.7440169175224
 21
1523.017091367211
 31
0.0
  0
LINE
  5
593F
330
37DB
100
AcDbEntity
  8
実形
 62
     0
370
    18
100
AcDbLine
 10
195.7440169175224
 20
1352.017091367211
 30
0.0
 11
195.7440169175224
 21
1513.017091367211
 31
0.0
  0
INSERT
  5
5940
330
37DB
100
AcDbEntity
  8
実形
 62
     0
370
    18
100
AcDbBlockReference
  2
_Dot
 10
195.7440169175224
 20
1342.017091367211
 30
0.0
 41
10.0
 42
10.0
 43
10.0
 50
270.0
  0
INSERT
  5
5941
330
37DB
100
AcDbEntity
  8
実形
 62
     0
370
    18
100
AcDbBlockReference
  2
_Dot
 10
195.7440169175224
 20
1523.017091367211
 30
0.0
 41
10.0
 42
10.0
 43
10.0
 50
90.0
  0
MTEXT
  5
5942
330
37DB
100
AcDbEntity
  8
実形
 62
     0
100
AcDbMText
 10
176.6440169175222
 20
1432.517091367211
 30
0.0
 40
25.0
 41
0.0
 71
     5
 72
     1
  1
181
 11
0.0000000000000001
 21
1.0
 31
0.0
 73
     1
 44
1.0
1001
ACAD
1000
MTEXTBEGIN
1070
    73
1070
     1
1070
    44
1040
1.0
1070
    74
1070
     0
1000
MTEXTEND
  0
POINT
  5
5943
330
37DB
100
AcDbEntity
  8
Defpoints
 62
     0
100
AcDbPoint
 10
383.902912268657
 20
1342.017091367211
 30
0.0
  0
POINT
  5
5944
330
37DB
100
AcDbEntity
  8
Defpoints
 62
     0
100
AcDbPoint
 10
383.9029122686525
 20
1523.017091367211
 30
0.0
  0
POINT
  5
5945
330
37DB
100
AcDbEntity
  8
Defpoints
 62
     0
100
AcDbPoint
 10
195.7440169175224
 20
1523.017091367211
 30
0.0
  0
ENDBLK
  5
37E6
330
37DB
100
AcDbEntity
  8
0
 62
     3
100
AcDbBlockEnd
  0
BLOCK
  5
3825
330
381B
100
AcDbEntity
  8
0
 62
     3
100
AcDbBlockBegin
  2
*D60
 70
     1
 10
0.0
 20
0.0
 30
0.0
  3
*D60
  1

  0
LINE
  5
5AE4
330
381B
100
AcDbEntity
  8
実形
 62
     0
370
    18
100
AcDbLine
 10
2375.963043649936
 20
1534.517091367211
 30
0.0
 11
2418.963043649936
 21
1534.517091367211
 31
0.0
  0
LINE
  5
5AE5
330
381B
100
AcDbEntity
  8
実形
 62
     0
370
    18
100
AcDbLine
 10
2375.963043649936
 20
1440.517091367211
 30
0.0
 11
2418.963043649936
 21
1440.517091367211
 31
0.0
  0
LINE
  5
5AE6
330
381B
100
AcDbEntity
  8
実形
 62
     0
370
    18
100
AcDbLine
 10
2418.963043649936
 20
1524.517091367211
 30
0.0
 11
2418.963043649936
 21
1450.517091367211
 31
0.0
  0
INSERT
  5
5AE7
330
381B
100
AcDbEntity
  8
実形
 62
     0
370
    18
100
AcDbBlockReference
  2
_Dot
 10
2418.963043649936
 20
1534.517091367211
 30
0.0
 41
10.0
 42
10.0
 43
10.0
 50
90.0
  0
INSERT
  5
5AE8
330
381B
100
AcDbEntity
  8
実形
 62
     0
370
    18
100
AcDbBlockReference
  2
_Dot
 10
2418.963043649936
 20
1440.517091367211
 30
0.0
 41
10.0
 42
10.0
 43
10.0
 50
270.0
  0
MTEXT
  5
5AE9
330
381B
100
AcDbEntity
  8
実形
 62
     0
100
AcDbMText
 10
2397.363043649935
 20
1487.517091367211
 30
0.0
 40
30.0
 41
0.0
 71
     5
 72
     1
  1
94
 11
0.0000000000000001
 21
1.0
 31
0.0
 73
     1
 44
1.0
1001
ACAD
1000
MTEXTBEGIN
1070
    73
1070
     1
1070
    44
1040
1.0
1070
    74
1070
     0
1000
MTEXTEND
  0
POINT
  5
5AEA
330
381B
100
AcDbEntity
  8
Defpoints
 62
     0
100
AcDbPoint
 10
2310.963043649936
 20
1534.517091367211
 30
0.0
  0
POINT
  5
5AEB
330
381B
100
AcDbEntity
  8
Defpoints
 62
     0
100
AcDbPoint
 10
2310.963043649936
 20
1440.517091367211
 30
0.0
  0
POINT
  5
5AEC
330
381B
100
AcDbEntity
  8
Defpoints
 62
     0
100
AcDbPoint
 10
2418.963043649936
 20
1440.517091367211
 30
0.0
  0
ENDBLK
  5
3826
330
381B
100
AcDbEntity
  8
0
 62
     3
100
AcDbBlockEnd
  0
BLOCK
  5
3831
330
3827
100
AcDbEntity
  8
0
 62
     3
100
AcDbBlockBegin
  2
*D61
 70
     1
 10
0.0
 20
0.0
 30
0.0
  3
*D61
  1

  0
LINE
  5
5AF8
330
3827
100
AcDbEntity
  8
実形
 62
     0
370
    18
100
AcDbLine
 10
2375.426743006457
 20
1545.017091367211
 30
0.0
 11
2469.670114568117
 21
1545.017091367211
 31
0.0
  0
LINE
  5
5AF9
330
3827
100
AcDbEntity
  8
実形
 62
     0
370
    18
100
AcDbLine
 10
2376.965327696263
 20
1430.017091367211
 30
0.0
 11
2469.670114568117
 21
1430.017091367211
 31
0.0
  0
LINE
  5
5AFA
330
3827
100
AcDbEntity
  8
実形
 62
     0
370
    18
100
AcDbLine
 10
2469.670114568117
 20
1535.017091367211
 30
0.0
 11
2469.670114568117
 21
1440.017091367211
 31
0.0
  0
INSERT
  5
5AFB
330
3827
100
AcDbEntity
  8
実形
 62
     0
370
    18
100
AcDbBlockReference
  2
_Dot
 10
2469.670114568117
 20
1545.017091367211
 30
0.0
 41
10.0
 42
10.0
 43
10.0
 50
90.0
  0
INSERT
  5
5AFC
330
3827
100
AcDbEntity
  8
実形
 62
     0
370
    18
100
AcDbBlockReference
  2
_Dot
 10
2469.670114568117
 20
1430.017091367211
 30
0.0
 41
10.0
 42
10.0
 43
10.0
 50
270.0
  0
MTEXT
  5
5AFD
330
3827
100
AcDbEntity
  8
実形
 62
     0
100
AcDbMText
 10
2448.070114568116
 20
1487.517091367211
 30
0.0
 40
30.0
 41
0.0
 71
     5
 72
     1
  1
115
 11
0.0000000000000001
 21
1.0
 31
0.0
 73
     1
 44
1.0
1001
ACAD
1000
MTEXTBEGIN
1070
    73
1070
     1
1070
    44
1040
1.0
1070
    74
1070
     0
1000
MTEXTEND
  0
POINT
  5
5AFE
330
3827
100
AcDbEntity
  8
Defpoints
 62
     0
100
AcDbPoint
 10
2310.426743006457
 20
1545.017091367211
 30
0.0
  0
POINT
  5
5AFF
330
3827
100
AcDbEntity
  8
Defpoints
 62
     0
100
AcDbPoint
 10
2311.965327696263
 20
1430.017091367211
 30
0.0
  0
POINT
  5
5B00
330
3827
100
AcDbEntity
  8
Defpoints
 62
     0
100
AcDbPoint
 10
2469.670114568117
 20
1430.017091367211
 30
0.0
  0
ENDBLK
  5
3832
330
3827
100
AcDbEntity
  8
0
 62
     3
100
AcDbBlockEnd
  0
BLOCK
  5
3892
330
388E
100
AcDbEntity
  8
0
 62
     3
100
AcDbBlockBegin
  2
A$C4E395AB2
 70
     0
 10
0.0
 20
0.0
 30
0.0
  3
A$C4E395AB2
  1

  0
TEXT
  5
388F
330
388E
100
AcDbEntity
  8
寸法
 62
     0
100
AcDbText
 10
0.0000147323662536
 20
0.0000153190912897
 30
0.0
 40
60.0
  1
36φ
 11
0.0000147323662532
 21
-7.99998468090871
 31
0.0
100
AcDbText
 73
     1
  0
ENDBLK
  5
3893
330
388E
100
AcDbEntity
  8
0
 62
     3
100
AcDbBlockEnd
  0
BLOCK
  5
3A8E
330
3A82
100
AcDbEntity
  8
0
 62
     3
100
AcDbBlockBegin
  2
*D63
 70
     1
 10
0.0
 20
0.0
 30
0.0
  3
*D63
  1

  0
MTEXT
  5
4D0A
330
3A82
100
AcDbEntity
  8
実形
 62
     0
100
AcDbMText
 10
1428.111434345093
 20
772.6320639050855
 30
0.0
 40
25.0
 41
0.0
 71
     5
 72
     1
  1
40
 11
0.0000000000000001
 21
1.0
 31
0.0
 73
     1
 44
1.0
1001
ACAD
1000
MTEXTBEGIN
1070
    73
1070
     1
1070
    44
1040
1.0
1070
    74
1070
     0
1000
MTEXTEND
  0
POINT
  5
4D0B
330
3A82
100
AcDbEntity
  8
Defpoints
 62
     0
100
AcDbPoint
 10
1445.56403545023
 20
846.427037316068
 30
0.0
  0
POINT
  5
4D0C
330
3A82
100
AcDbEntity
  8
Defpoints
 62
     0
100
AcDbPoint
 10
1445.56403545023
 20
806.4270373160679
 30
0.0
  0
POINT
  5
4D0D
330
3A82
100
AcDbEntity
  8
Defpoints
 62
     0
100
AcDbPoint
 10
1415.383881550793
 20
806.4270373160679
 30
0.0
  0
ENDBLK
  5
3A8F
330
3A82
100
AcDbEntity
  8
0
 62
     3
100
AcDbBlockEnd
  0
BLOCK
  5
3E39
330
3E34
100
AcDbEntity
  8
0
 62
     3
100
AcDbBlockBegin
  2
*D64
 70
     1
 10
0.0
 20
0.0
 30
0.0
  3
*D64
  1

  0
MTEXT
  5
4D20
330
3E34
100
AcDbEntity
  8
実形
 62
     0
100
AcDbMText
 10
1872.293234987934
 20
893.7722153455688
 30
0.0
 40
25.0
 41
0.0
 71
     5
 72
     1
  1
15
 11
0.0000000000000001
 21
1.0
 31
0.0
 73
     1
 44
1.0
1001
ACAD
1000
MTEXTBEGIN
1070
    73
1070
     1
1070
    44
1040
1.0
1070
    74
1070
     0
1000
MTEXTEND
  0
POINT
  5
4D21
330
3E34
100
AcDbEntity
  8
Defpoints
 62
     0
100
AcDbPoint
 10
1781.682045960773
 20
861.427037316068
 30
0.0
  0
POINT
  5
4D22
330
3E34
100
AcDbEntity
  8
Defpoints
 62
     0
100
AcDbPoint
 10
1781.682045960773
 20
661.4270373160674
 30
0.0
  0
POINT
  5
4D23
330
3E34
100
AcDbEntity
  8
Defpoints
 62
     0
100
AcDbPoint
 10
1890.033785324252
 20
661.4270373160673
 30
0.0
  0
ENDBLK
  5
3E3A
330
3E34
100
AcDbEntity
  8
0
 62
     3
100
AcDbBlockEnd
  0
BLOCK
  5
3E45
330
3E3B
100
AcDbEntity
  8
0
 62
     3
100
AcDbBlockBegin
  2
*D65
 70
     1
 10
0.0
 20
0.0
 30
0.0
  3
*D65
  1

  0
LINE
  5
4D17
330
3E3B
100
AcDbEntity
  8
実形
 62
     0
370
    18
100
AcDbLine
 10
1846.682045960773
 20
846.4270373160683
 30
0.0
 11
1890.033785324252
 21
846.4270373160683
 31
0.0
  0
LINE
  5
4D18
330
3E3B
100
AcDbEntity
  8
実形
 62
     0
370
    18
100
AcDbLine
 10
1846.682045960773
 20
661.4270373160673
 30
0.0
 11
1890.033785324252
 21
661.4270373160673
 31
0.0
  0
LINE
  5
4D19
330
3E3B
100
AcDbEntity
  8
実形
 62
     0
370
    18
100
AcDbLine
 10
1890.033785324252
 20
846.4270373160683
 30
0.0
 11
1890.033785324252
 21
661.4270373160673
 31
0.0
  0
INSERT
  5
4D1A
330
3E3B
100
AcDbEntity
  8
実形
 62
     0
370
    18
100
AcDbBlockReference
  2
_DotSmall
 10
1890.033785324252
 20
846.4270373160683
 30
0.0
 41
35.0
 42
35.0
 43
35.0
 50
90.0
  0
INSERT
  5
4D1B
330
3E3B
100
AcDbEntity
  8
実形
 62
     0
370
    18
100
AcDbBlockReference
  2
_DotSmall
 10
1890.033785324252
 20
661.4270373160673
 30
0.0
 41
35.0
 42
35.0
 43
35.0
 50
270.0
  0
MTEXT
  5
4D1C
330
3E3B
100
AcDbEntity
  8
実形
 62
     0
100
AcDbMText
 10
1871.283785324252
 20
753.9270373160681
 30
0.0
 40
25.0
 41
0.0
 71
     5
 72
     1
  1
187
 11
0.0000000000000001
 21
1.0
 31
0.0
 73
     1
 44
1.0
1001
ACAD
1000
MTEXTBEGIN
1070
    73
1070
     1
1070
    44
1040
1.0
1070
    74
1070
     0
1000
MTEXTEND
  0
POINT
  5
4D1D
330
3E3B
100
AcDbEntity
  8
Defpoints
 62
     0
100
AcDbPoint
 10
1781.682045960773
 20
846.4270373160683
 30
0.0
  0
POINT
  5
4D1E
330
3E3B
100
AcDbEntity
  8
Defpoints
 62
     0
100
AcDbPoint
 10
1781.682045960774
 20
661.4270373160674
 30
0.0
  0
POINT
  5
4D1F
330
3E3B
100
AcDbEntity
  8
Defpoints
 62
     0
100
AcDbPoint
 10
1890.033785324252
 20
661.4270373160673
 30
0.0
  0
ENDBLK
  5
3E46
330
3E3B
100
AcDbEntity
  8
0
 62
     3
100
AcDbBlockEnd
  0
BLOCK
  5
3E51
330
3E47
100
AcDbEntity
  8
0
 62
     3
100
AcDbBlockBegin
  2
*D66
 70
     1
 10
0.0
 20
0.0
 30
0.0
  3
*D66
  1

  0
LINE
  5
4D0E
330
3E47
100
AcDbEntity
  8
実形
 62
     0
370
    18
100
AcDbLine
 10
1846.682045960773
 20
861.4270373160678
 30
0.0
 11
1938.256350491114
 21
861.4270373160678
 31
0.0
  0
LINE
  5
4D0F
330
3E47
100
AcDbEntity
  8
実形
 62
     0
370
    18
100
AcDbLine
 10
1846.682045960773
 20
661.4270373160673
 30
0.0
 11
1938.256350491114
 21
661.4270373160673
 31
0.0
  0
LINE
  5
4D10
330
3E47
100
AcDbEntity
  8
実形
 62
     0
370
    18
100
AcDbLine
 10
1938.256350491114
 20
861.4270373160678
 30
0.0
 11
1938.256350491114
 21
661.4270373160673
 31
0.0
  0
MTEXT
  5
4D11
330
3E47
100
AcDbEntity
  8
実形
 62
     0
100
AcDbMText
 10
1918.453810947594
 20
751.7757460154426
 30
0.0
 40
25.0
 41
0.0
 71
     5
 72
     1
  1
202
 11
0.0000000000000001
 21
1.0
 31
0.0
 73
     1
 44
1.0
1001
ACAD
1000
MTEXTBEGIN
1070
    73
1070
     1
1070
    44
1040
1.0
1070
    74
1070
     0
1000
MTEXTEND
  0
INSERT
  5
4D12
330
3E47
100
AcDbEntity
  8
実形
 62
     0
370
    18
100
AcDbBlockReference
  2
_DotSmall
 10
1938.256350491114
 20
861.4270373160678
 30
0.0
 41
35.0
 42
35.0
 43
35.0
 50
90.0
  0
INSERT
  5
4D13
330
3E47
100
AcDbEntity
  8
実形
 62
     0
370
    18
100
AcDbBlockReference
  2
_DotSmall
 10
1938.256350491114
 20
661.4270373160673
 30
0.0
 41
35.0
 42
35.0
 43
35.0
 50
270.0
  0
POINT
  5
4D14
330
3E47
100
AcDbEntity
  8
Defpoints
 62
     0
100
AcDbPoint
 10
1781.682045960774
 20
861.427037316068
 30
0.0
  0
POINT
  5
4D15
330
3E47
100
AcDbEntity
  8
Defpoints
 62
     0
100
AcDbPoint
 10
1781.682045960774
 20
661.4270373160674
 30
0.0
  0
POINT
  5
4D16
330
3E47
100
AcDbEntity
  8
Defpoints
 62
     0
100
AcDbPoint
 10
1938.256350491114
 20
661.4270373160673
 30
0.0
  0
ENDBLK
  5
3E52
330
3E47
100
AcDbEntity
  8
0
 62
     3
100
AcDbBlockEnd
  0
BLOCK
  5
3E5A
330
3E53
100
AcDbEntity
  8
0
 62
     3
100
AcDbBlockBegin
  2
*D67
 70
     1
 10
0.0
 20
0.0
 30
0.0
  3
*D67
  1

  0
LINE
  5
4CE0
330
3E53
100
AcDbEntity
  8
実形
 62
     0
370
    18
100
AcDbLine
 10
1891.568476428747
 20
861.427037316068
 30
0.0
 11
1938.256350491114
 21
861.427037316068
 31
0.0
  0
LINE
  5
4CE1
330
3E53
100
AcDbEntity
  8
実形
 62
     0
370
    18
100
AcDbLine
 10
1899.4164251785
 20
651.4270373160679
 30
0.0
 11
1938.256350491114
 21
651.4270373160679
 31
0.0
  0
MTEXT
  5
4CE2
330
3E53
100
AcDbEntity
  8
実形
 62
     0
100
AcDbMText
 10
1912.535793790797
 20
631.0787437720501
 30
0.0
 40
25.0
 41
0.0
 71
     5
 72
     1
  1
8
 11
0.0000000000000001
 21
1.0
 31
0.0
 73
     1
 44
1.0
1001
ACAD
1000
MTEXTBEGIN
1070
    73
1070
     1
1070
    44
1040
1.0
1070
    74
1070
     0
1000
MTEXTEND
  0
POINT
  5
4CE3
330
3E53
100
AcDbEntity
  8
Defpoints
 62
     0
100
AcDbPoint
 10
1826.568476428747
 20
861.427037316068
 30
0.0
  0
POINT
  5
4CE4
330
3E53
100
AcDbEntity
  8
Defpoints
 62
     0
100
AcDbPoint
 10
1834.4164251785
 20
651.4270373160679
 30
0.0
  0
POINT
  5
4CE5
330
3E53
100
AcDbEntity
  8
Defpoints
 62
     0
100
AcDbPoint
 10
1938.256350491114
 20
651.4270373160679
 30
0.0
  0
ENDBLK
  5
3E5B
330
3E53
100
AcDbEntity
  8
0
 62
     3
100
AcDbBlockEnd
  0
BLOCK
  5
3E66
330
3E5C
100
AcDbEntity
  8
0
 62
     3
100
AcDbBlockBegin
  2
*D68
 70
     1
 10
0.0
 20
0.0
 30
0.0
  3
*D68
  1

  0
LINE
  5
4CD7
330
3E5C
100
AcDbEntity
  8
実形
 62
     0
370
    18
100
AcDbLine
 10
1891.568476428747
 20
861.427037316068
 30
0.0
 11
1990.804113474607
 21
861.427037316068
 31
0.0
  0
LINE
  5
4CD8
330
3E5C
100
AcDbEntity
  8
実形
 62
     0
370
    18
100
AcDbLine
 10
1922.197822230348
 20
651.4270373160679
 30
0.0
 11
1990.804113474607
 21
651.4270373160679
 31
0.0
  0
LINE
  5
4CD9
330
3E5C
100
AcDbEntity
  8
実形
 62
     0
370
    18
100
AcDbLine
 10
1990.804113474607
 20
861.427037316068
 30
0.0
 11
1990.804113474607
 21
651.4270373160679
 31
0.0
  0
INSERT
  5
4CDA
330
3E5C
100
AcDbEntity
  8
実形
 62
     0
370
    18
100
AcDbBlockReference
  2
_DotSmall
 10
1990.804113474607
 20
861.427037316068
 30
0.0
 41
35.0
 42
35.0
 43
35.0
 50
90.0
  0
INSERT
  5
4CDB
330
3E5C
100
AcDbEntity
  8
実形
 62
     0
370
    18
100
AcDbBlockReference
  2
_DotSmall
 10
1990.804113474607
 20
651.4270373160679
 30
0.0
 41
35.0
 42
35.0
 43
35.0
 50
270.0
  0
MTEXT
  5
4CDC
330
3E5C
100
AcDbEntity
  8
実形
 62
     0
100
AcDbMText
 10
1972.054113474607
 20
756.4270373160683
 30
0.0
 40
25.0
 41
0.0
 71
     5
 72
     1
  1
210
 11
0.0000000000000001
 21
1.0
 31
0.0
 73
     1
 44
1.0
1001
ACAD
1000
MTEXTBEGIN
1070
    73
1070
     1
1070
    44
1040
1.0
1070
    74
1070
     0
1000
MTEXTEND
  0
POINT
  5
4CDD
330
3E5C
100
AcDbEntity
  8
Defpoints
 62
     0
100
AcDbPoint
 10
1826.568476428747
 20
861.427037316068
 30
0.0
  0
POINT
  5
4CDE
330
3E5C
100
AcDbEntity
  8
Defpoints
 62
     0
100
AcDbPoint
 10
1857.197822230348
 20
651.4270373160679
 30
0.0
  0
POINT
  5
4CDF
330
3E5C
100
AcDbEntity
  8
Defpoints
 62
     0
100
AcDbPoint
 10
1990.804113474607
 20
651.4270373160679
 30
0.0
  0
ENDBLK
  5
3E67
330
3E5C
100
AcDbEntity
  8
0
 62
     3
100
AcDbBlockEnd
  0
BLOCK
  5
3E6D
330
3E68
100
AcDbEntity
  8
0
 62
     3
100
AcDbBlockBegin
  2
*D69
 70
     1
 10
0.0
 20
0.0
 30
0.0
  3
*D69
  1

  0
MTEXT
  5
4CD3
330
3E68
100
AcDbEntity
  8
実形
 62
     0
100
AcDbMText
 10
1968.373704712918
 20
626.5842520034821
 30
0.0
 40
25.0
 41
0.0
 71
     5
 72
     1
  1
8
 11
0.0000000000000001
 21
1.0
 31
0.0
 73
     1
 44
1.0
1001
ACAD
1000
MTEXTBEGIN
1070
    73
1070
     1
1070
    44
1040
1.0
1070
    74
1070
     0
1000
MTEXTEND
  0
POINT
  5
4CD4
330
3E68
100
AcDbEntity
  8
Defpoints
 62
     0
100
AcDbPoint
 10
1826.568476428747
 20
861.427037316068
 30
0.0
  0
POINT
  5
4CD5
330
3E68
100
AcDbEntity
  8
Defpoints
 62
     0
100
AcDbPoint
 10
1838.271310804464
 20
641.4270373160682
 30
0.0
  0
POINT
  5
4CD6
330
3E68
100
AcDbEntity
  8
Defpoints
 62
     0
100
AcDbPoint
 10
1990.804113474607
 20
641.4270373160682
 30
0.0
  0
ENDBLK
  5
3E6E
330
3E68
100
AcDbEntity
  8
0
 62
     3
100
AcDbBlockEnd
  0
BLOCK
  5
3E79
330
3E6F
100
AcDbEntity
  8
0
 62
     3
100
AcDbBlockBegin
  2
*D70
 70
     1
 10
0.0
 20
0.0
 30
0.0
  3
*D70
  1

  0
LINE
  5
4CCA
330
3E6F
100
AcDbEntity
  8
実形
 62
     0
370
    18
100
AcDbLine
 10
1891.568476428747
 20
861.427037316068
 30
0.0
 11
2041.91747408312
 21
861.427037316068
 31
0.0
  0
LINE
  5
4CCB
330
3E6F
100
AcDbEntity
  8
実形
 62
     0
370
    18
100
AcDbLine
 10
1982.627774328434
 20
641.4270373160684
 30
0.0
 11
2041.91747408312
 21
641.4270373160684
 31
0.0
  0
LINE
  5
4CCC
330
3E6F
100
AcDbEntity
  8
実形
 62
     0
370
    18
100
AcDbLine
 10
2041.91747408312
 20
861.427037316068
 30
0.0
 11
2041.91747408312
 21
641.4270373160684
 31
0.0
  0
INSERT
  5
4CCD
330
3E6F
100
AcDbEntity
  8
実形
 62
     0
370
    18
100
AcDbBlockReference
  2
_DotSmall
 10
2041.91747408312
 20
861.427037316068
 30
0.0
 41
35.0
 42
35.0
 43
35.0
 50
90.0
  0
INSERT
  5
4CCE
330
3E6F
100
AcDbEntity
  8
実形
 62
     0
370
    18
100
AcDbBlockReference
  2
_DotSmall
 10
2041.91747408312
 20
641.4270373160684
 30
0.0
 41
35.0
 42
35.0
 43
35.0
 50
270.0
  0
MTEXT
  5
4CCF
330
3E6F
100
AcDbEntity
  8
実形
 62
     0
100
AcDbMText
 10
2023.16747408312
 20
751.4270373160685
 30
0.0
 40
25.0
 41
0.0
 71
     5
 72
     1
  1
218
 11
0.0000000000000001
 21
1.0
 31
0.0
 73
     1
 44
1.0
1001
ACAD
1000
MTEXTBEGIN
1070
    73
1070
     1
1070
    44
1040
1.0
1070
    74
1070
     0
1000
MTEXTEND
  0
POINT
  5
4CD0
330
3E6F
100
AcDbEntity
  8
Defpoints
 62
     0
100
AcDbPoint
 10
1826.568476428747
 20
861.427037316068
 30
0.0
  0
POINT
  5
4CD1
330
3E6F
100
AcDbEntity
  8
Defpoints
 62
     0
100
AcDbPoint
 10
1917.627774328433
 20
641.4270373160684
 30
0.0
  0
POINT
  5
4CD2
330
3E6F
100
AcDbEntity
  8
Defpoints
 62
     0
100
AcDbPoint
 10
2041.91747408312
 20
641.4270373160684
 30
0.0
  0
ENDBLK
  5
3E7A
330
3E6F
100
AcDbEntity
  8
0
 62
     3
100
AcDbBlockEnd
  0
BLOCK
  5
42E8
330
42E3
100
AcDbEntity
  8
0
 62
     3
100
AcDbBlockBegin
  2
*D71
 70
     1
 10
0.0
 20
0.0
 30
0.0
  3
*D71
  1

  0
MTEXT
  5
4CAA
330
42E3
100
AcDbEntity
  8
実形
 62
     0
100
AcDbMText
 10
833.6252396729468
 20
832.5648740951764
 30
0.0
 40
25.0
 41
0.0
 71
     5
 72
     1
  1
15
 11
0.0000000000000001
 21
1.0
 31
0.0
 73
     1
 44
1.0
1001
ACAD
1000
MTEXTBEGIN
1070
    73
1070
     1
1070
    44
1040
1.0
1070
    74
1070
     0
1000
MTEXTEND
  0
POINT
  5
4CAB
330
42E3
100
AcDbEntity
  8
Defpoints
 62
     0
100
AcDbPoint
 10
963.2056405181229
 20
861.427037316068
 30
0.0
  0
POINT
  5
4CAC
330
42E3
100
AcDbEntity
  8
Defpoints
 62
     0
100
AcDbPoint
 10
963.2056405181229
 20
661.4270373160675
 30
0.0
  0
POINT
  5
4CAD
330
42E3
100
AcDbEntity
  8
Defpoints
 62
     0
100
AcDbPoint
 10
854.8539011546436
 20
661.4270373160675
 30
0.0
  0
ENDBLK
  5
42E9
330
42E3
100
AcDbEntity
  8
0
 62
     3
100
AcDbBlockEnd
  0
BLOCK
  5
42F4
330
42EA
100
AcDbEntity
  8
0
 62
     3
100
AcDbBlockBegin
  2
*D72
 70
     1
 10
0.0
 20
0.0
 30
0.0
  3
*D72
  1

  0
LINE
  5
4CA1
330
42EA
100
AcDbEntity
  8
実形
 62
     0
370
    18
100
AcDbLine
 10
898.2056405181229
 20
846.4270373160683
 30
0.0
 11
854.8539011546436
 21
846.4270373160683
 31
0.0
  0
LINE
  5
4CA2
330
42EA
100
AcDbEntity
  8
実形
 62
     0
370
    18
100
AcDbLine
 10
898.2056405181229
 20
661.4270373160675
 30
0.0
 11
854.8539011546436
 21
661.4270373160675
 31
0.0
  0
LINE
  5
4CA3
330
42EA
100
AcDbEntity
  8
実形
 62
     0
370
    18
100
AcDbLine
 10
854.8539011546436
 20
846.4270373160683
 30
0.0
 11
854.8539011546436
 21
661.4270373160675
 31
0.0
  0
INSERT
  5
4CA4
330
42EA
100
AcDbEntity
  8
実形
 62
     0
370
    18
100
AcDbBlockReference
  2
_DotSmall
 10
854.8539011546436
 20
846.4270373160683
 30
0.0
 41
35.0
 42
35.0
 43
35.0
 50
90.0
  0
INSERT
  5
4CA5
330
42EA
100
AcDbEntity
  8
実形
 62
     0
370
    18
100
AcDbBlockReference
  2
_DotSmall
 10
854.8539011546436
 20
661.4270373160675
 30
0.0
 41
35.0
 42
35.0
 43
35.0
 50
270.0
  0
MTEXT
  5
4CA6
330
42EA
100
AcDbEntity
  8
実形
 62
     0
100
AcDbMText
 10
836.1039011546434
 20
753.9270373160682
 30
0.0
 40
25.0
 41
0.0
 71
     5
 72
     1
  1
185
 11
0.0000000000000001
 21
1.0
 31
0.0
 73
     1
 44
1.0
1001
ACAD
1000
MTEXTBEGIN
1070
    73
1070
     1
1070
    44
1040
1.0
1070
    74
1070
     0
1000
MTEXTEND
  0
POINT
  5
4CA7
330
42EA
100
AcDbEntity
  8
Defpoints
 62
     0
100
AcDbPoint
 10
963.2056405181229
 20
846.4270373160683
 30
0.0
  0
POINT
  5
4CA8
330
42EA
100
AcDbEntity
  8
Defpoints
 62
     0
100
AcDbPoint
 10
963.2056405181229
 20
661.4270373160675
 30
0.0
  0
POINT
  5
4CA9
330
42EA
100
AcDbEntity
  8
Defpoints
 62
     0
100
AcDbPoint
 10
854.8539011546436
 20
661.4270373160675
 30
0.0
  0
ENDBLK
  5
42F5
330
42EA
100
AcDbEntity
  8
0
 62
     3
100
AcDbBlockEnd
  0
BLOCK
  5
4300
330
42F6
100
AcDbEntity
  8
0
 62
     3
100
AcDbBlockBegin
  2
*D73
 70
     1
 10
0.0
 20
0.0
 30
0.0
  3
*D73
  1

  0
LINE
  5
4C98
330
42F6
100
AcDbEntity
  8
実形
 62
     0
370
    18
100
AcDbLine
 10
898.2056405181229
 20
861.427037316068
 30
0.0
 11
806.6313359877822
 21
861.427037316068
 31
0.0
  0
LINE
  5
4C99
330
42F6
100
AcDbEntity
  8
実形
 62
     0
370
    18
100
AcDbLine
 10
898.2056405181229
 20
661.4270373160675
 30
0.0
 11
806.6313359877822
 21
661.4270373160675
 31
0.0
  0
LINE
  5
4C9A
330
42F6
100
AcDbEntity
  8
実形
 62
     0
370
    18
100
AcDbLine
 10
806.6313359877822
 20
861.427037316068
 30
0.0
 11
806.6313359877822
 21
661.4270373160675
 31
0.0
  0
MTEXT
  5
4C9B
330
42F6
100
AcDbEntity
  8
実形
 62
     0
100
AcDbMText
 10
785.525553815085
 20
756.3058833762333
 30
0.0
 40
25.0
 41
0.0
 71
     5
 72
     1
  1
200
 11
0.0000000000000001
 21
1.0
 31
0.0
 73
     1
 44
1.0
1001
ACAD
1000
MTEXTBEGIN
1070
    73
1070
     1
1070
    44
1040
1.0
1070
    74
1070
     0
1000
MTEXTEND
  0
INSERT
  5
4C9C
330
42F6
100
AcDbEntity
  8
実形
 62
     0
370
    18
100
AcDbBlockReference
  2
_DotSmall
 10
806.6313359877822
 20
861.427037316068
 30
0.0
 41
35.0
 42
35.0
 43
35.0
 50
90.0
  0
INSERT
  5
4C9D
330
42F6
100
AcDbEntity
  8
実形
 62
     0
370
    18
100
AcDbBlockReference
  2
_DotSmall
 10
806.6313359877822
 20
661.4270373160675
 30
0.0
 41
35.0
 42
35.0
 43
35.0
 50
270.0
  0
POINT
  5
4C9E
330
42F6
100
AcDbEntity
  8
Defpoints
 62
     0
100
AcDbPoint
 10
963.2056405181229
 20
861.427037316068
 30
0.0
  0
POINT
  5
4C9F
330
42F6
100
AcDbEntity
  8
Defpoints
 62
     0
100
AcDbPoint
 10
963.2056405181229
 20
661.4270373160675
 30
0.0
  0
POINT
  5
4CA0
330
42F6
100
AcDbEntity
  8
Defpoints
 62
     0
100
AcDbPoint
 10
806.6313359877822
 20
661.4270373160675
 30
0.0
  0
ENDBLK
  5
4301
330
42F6
100
AcDbEntity
  8
0
 62
     3
100
AcDbBlockEnd
  0
BLOCK
  5
4309
330
4302
100
AcDbEntity
  8
0
 62
     3
100
AcDbBlockBegin
  2
*D74
 70
     1
 10
0.0
 20
0.0
 30
0.0
  3
*D74
  1

  0
LINE
  5
4CC4
330
4302
100
AcDbEntity
  8
実形
 62
     0
370
    18
100
AcDbLine
 10
853.3192100501491
 20
861.427037316068
 30
0.0
 11
806.6313359877822
 21
861.427037316068
 31
0.0
  0
LINE
  5
4CC5
330
4302
100
AcDbEntity
  8
実形
 62
     0
370
    18
100
AcDbLine
 10
853.3192100501491
 20
651.4270373160679
 30
0.0
 11
806.6313359877822
 21
651.4270373160679
 31
0.0
  0
MTEXT
  5
4CC6
330
4302
100
AcDbEntity
  8
実形
 62
     0
100
AcDbMText
 10
782.3832890757111
 20
674.1346438369364
 30
0.0
 40
25.0
 41
0.0
 71
     5
 72
     1
  1
10
 11
0.0000000000000001
 21
1.0
 31
0.0
 73
     1
 44
1.0
1001
ACAD
1000
MTEXTBEGIN
1070
    73
1070
     1
1070
    44
1040
1.0
1070
    74
1070
     0
1000
MTEXTEND
  0
POINT
  5
4CC7
330
4302
100
AcDbEntity
  8
Defpoints
 62
     0
100
AcDbPoint
 10
918.3192100501491
 20
861.427037316068
 30
0.0
  0
POINT
  5
4CC8
330
4302
100
AcDbEntity
  8
Defpoints
 62
     0
100
AcDbPoint
 10
918.3192100501491
 20
651.4270373160679
 30
0.0
  0
POINT
  5
4CC9
330
4302
100
AcDbEntity
  8
Defpoints
 62
     0
100
AcDbPoint
 10
806.6313359877822
 20
651.4270373160679
 30
0.0
  0
ENDBLK
  5
430A
330
4302
100
AcDbEntity
  8
0
 62
     3
100
AcDbBlockEnd
  0
BLOCK
  5
4315
330
430B
100
AcDbEntity
  8
0
 62
     3
100
AcDbBlockBegin
  2
*D75
 70
     1
 10
0.0
 20
0.0
 30
0.0
  3
*D75
  1

  0
LINE
  5
4CBB
330
430B
100
AcDbEntity
  8
実形
 62
     0
370
    18
100
AcDbLine
 10
853.3192100501491
 20
861.427037316068
 30
0.0
 11
754.0835730042892
 21
861.427037316068
 31
0.0
  0
LINE
  5
4CBC
330
430B
100
AcDbEntity
  8
実形
 62
     0
370
    18
100
AcDbLine
 10
822.6898642485485
 20
651.4270373160679
 30
0.0
 11
754.083573004289
 21
651.427037316068
 31
0.0
  0
LINE
  5
4CBD
330
430B
100
AcDbEntity
  8
実形
 62
     0
370
    18
100
AcDbLine
 10
754.0835730042892
 20
861.427037316068
 30
0.0
 11
754.083573004289
 21
651.427037316068
 31
0.0
  0
INSERT
  5
4CBE
330
430B
100
AcDbEntity
  8
実形
 62
     0
370
    18
100
AcDbBlockReference
  2
_DotSmall
 10
754.0835730042892
 20
861.427037316068
 30
0.0
 41
35.0
 42
35.0
 43
35.0
 50
90.0
  0
INSERT
  5
4CBF
330
430B
100
AcDbEntity
  8
実形
 62
     0
370
    18
100
AcDbBlockReference
  2
_DotSmall
 10
754.083573004289
 20
651.427037316068
 30
0.0
 41
35.0
 42
35.0
 43
35.0
 50
270.0
  0
MTEXT
  5
4CC0
330
430B
100
AcDbEntity
  8
実形
 62
     0
100
AcDbMText
 10
735.3335730042889
 20
756.4270373160682
 30
0.0
 40
25.0
 41
0.0
 71
     5
 72
     1
  1
210
 11
0.0000000000000001
 21
1.0
 31
0.0
 73
     1
 44
1.0
1001
ACAD
1000
MTEXTBEGIN
1070
    73
1070
     1
1070
    44
1040
1.0
1070
    74
1070
     0
1000
MTEXTEND
  0
POINT
  5
4CC1
330
430B
100
AcDbEntity
  8
Defpoints
 62
     0
100
AcDbPoint
 10
918.3192100501491
 20
861.427037316068
 30
0.0
  0
POINT
  5
4CC2
330
430B
100
AcDbEntity
  8
Defpoints
 62
     0
100
AcDbPoint
 10
887.6898642485484
 20
651.4270373160679
 30
0.0
  0
POINT
  5
4CC3
330
430B
100
AcDbEntity
  8
Defpoints
 62
     0
100
AcDbPoint
 10
754.083573004289
 20
651.427037316068
 30
0.0
  0
ENDBLK
  5
4316
330
430B
100
AcDbEntity
  8
0
 62
     3
100
AcDbBlockEnd
  0
BLOCK
  5
431C
330
4317
100
AcDbEntity
  8
0
 62
     3
100
AcDbBlockBegin
  2
*D76
 70
     1
 10
0.0
 20
0.0
 30
0.0
  3
*D76
  1

  0
MTEXT
  5
4CB7
330
4317
100
AcDbEntity
  8
実形
 62
     0
100
AcDbMText
 10
731.3595297604442
 20
660.5458384564408
 30
0.0
 40
25.0
 41
0.0
 71
     5
 72
     1
  1
8
 11
0.0000000000000001
 21
1.0
 31
0.0
 73
     1
 44
1.0
1001
ACAD
1000
MTEXTBEGIN
1070
    73
1070
     1
1070
    44
1040
1.0
1070
    74
1070
     0
1000
MTEXTEND
  0
POINT
  5
4CB8
330
4317
100
AcDbEntity
  8
Defpoints
 62
     0
100
AcDbPoint
 10
918.3192100501491
 20
861.427037316068
 30
0.0
  0
POINT
  5
4CB9
330
4317
100
AcDbEntity
  8
Defpoints
 62
     0
100
AcDbPoint
 10
906.6163756744318
 20
641.4270373160684
 30
0.0
  0
POINT
  5
4CBA
330
4317
100
AcDbEntity
  8
Defpoints
 62
     0
100
AcDbPoint
 10
754.083573004289
 20
641.4270373160685
 30
0.0
  0
ENDBLK
  5
431D
330
4317
100
AcDbEntity
  8
0
 62
     3
100
AcDbBlockEnd
  0
BLOCK
  5
4328
330
431E
100
AcDbEntity
  8
0
 62
     3
100
AcDbBlockBegin
  2
*D77
 70
     1
 10
0.0
 20
0.0
 30
0.0
  3
*D77
  1

  0
LINE
  5
4CAE
330
431E
100
AcDbEntity
  8
実形
 62
     0
370
    18
100
AcDbLine
 10
853.3192100501491
 20
861.427037316068
 30
0.0
 11
702.9702123957759
 21
861.427037316068
 31
0.0
  0
LINE
  5
4CAF
330
431E
100
AcDbEntity
  8
実形
 62
     0
370
    18
100
AcDbLine
 10
762.2599121504626
 20
641.4270373160685
 30
0.0
 11
702.9702123957759
 21
641.4270373160685
 31
0.0
  0
LINE
  5
4CB0
330
431E
100
AcDbEntity
  8
実形
 62
     0
370
    18
100
AcDbLine
 10
702.9702123957759
 20
861.427037316068
 30
0.0
 11
702.9702123957759
 21
641.4270373160685
 31
0.0
  0
INSERT
  5
4CB1
330
431E
100
AcDbEntity
  8
実形
 62
     0
370
    18
100
AcDbBlockReference
  2
_DotSmall
 10
702.9702123957759
 20
861.427037316068
 30
0.0
 41
35.0
 42
35.0
 43
35.0
 50
90.0
  0
INSERT
  5
4CB2
330
431E
100
AcDbEntity
  8
実形
 62
     0
370
    18
100
AcDbBlockReference
  2
_DotSmall
 10
702.9702123957759
 20
641.4270373160685
 30
0.0
 41
35.0
 42
35.0
 43
35.0
 50
270.0
  0
MTEXT
  5
4CB3
330
431E
100
AcDbEntity
  8
実形
 62
     0
100
AcDbMText
 10
684.2202123957758
 20
751.4270373160684
 30
0.0
 40
25.0
 41
0.0
 71
     5
 72
     1
  1
218
 11
0.0000000000000001
 21
1.0
 31
0.0
 73
     1
 44
1.0
1001
ACAD
1000
MTEXTBEGIN
1070
    73
1070
     1
1070
    44
1040
1.0
1070
    74
1070
     0
1000
MTEXTEND
  0
POINT
  5
4CB4
330
431E
100
AcDbEntity
  8
Defpoints
 62
     0
100
AcDbPoint
 10
918.3192100501491
 20
861.427037316068
 30
0.0
  0
POINT
  5
4CB5
330
431E
100
AcDbEntity
  8
Defpoints
 62
     0
100
AcDbPoint
 10
827.2599121504626
 20
641.4270373160684
 30
0.0
  0
POINT
  5
4CB6
330
431E
100
AcDbEntity
  8
Defpoints
 62
     0
100
AcDbPoint
 10
702.9702123957759
 20
641.4270373160685
 30
0.0
  0
ENDBLK
  5
4329
330
431E
100
AcDbEntity
  8
0
 62
     3
100
AcDbBlockEnd
  0
BLOCK
  5
445D
330
4453
100
AcDbEntity
  8
0
 62
     3
100
AcDbBlockBegin
  2
*D78
 70
     1
 10
0.0
 20
0.0
 30
0.0
  3
*D78
  1

  0
LINE
  5
445F
330
4453
100
AcDbEntity
  8
寸法
 62
     0
370
    15
100
AcDbLine
 10
2464.722944931568
 20
317.8360447459727
 30
0.0
 11
2464.722944931568
 21
295.8250599337407
 31
0.0
  0
LINE
  5
4460
330
4453
100
AcDbEntity
  8
寸法
 62
     0
370
    15
100
AcDbLine
 10
2355.087235606629
 20
317.8360447459727
 30
0.0
 11
2355.087235606629
 21
295.8250599337407
 31
0.0
  0
LINE
  5
4461
330
4453
100
AcDbEntity
  8
寸法
 62
     0
370
    15
100
AcDbLine
 10
2464.722944931568
 20
295.8250599337407
 30
0.0
 11
2355.087235606629
 21
295.8250599337407
 31
0.0
  0
INSERT
  5
4462
330
4453
100
AcDbEntity
  8
寸法
 62
     0
370
    15
100
AcDbBlockReference
  2
_DotSmall
 10
2464.722944931568
 20
295.8250599337407
 30
0.0
 41
40.0
 42
40.0
 43
40.0
  0
INSERT
  5
4463
330
4453
100
AcDbEntity
  8
寸法
 62
     0
370
    15
100
AcDbBlockReference
  2
_DotSmall
 10
2355.087235606629
 20
295.8250599337407
 30
0.0
 41
40.0
 42
40.0
 43
40.0
 50
180.0
  0
MTEXT
  5
4464
330
4453
100
AcDbEntity
  8
寸法
 62
     0
100
AcDbMText
 10
2409.905090269098
 20
314.5750599337407
 30
0.0
 40
25.0
 41
0.0
 71
     5
 72
     1
  1
12
 73
     1
 44
1.0
1001
ACAD
1000
MTEXTBEGIN
1070
    73
1070
     1
1070
    44
1040
1.0
1070
    74
1070
     0
1000
MTEXTEND
  0
POINT
  5
4465
330
4453
100
AcDbEntity
  8
Defpoints
 62
     0
100
AcDbPoint
 10
2464.722944931568
 20
362.8360447459727
 30
0.0
  0
POINT
  5
4466
330
4453
100
AcDbEntity
  8
Defpoints
 62
     0
100
AcDbPoint
 10
2355.087235606629
 20
362.8360447459727
 30
0.0
  0
POINT
  5
4467
330
4453
100
AcDbEntity
  8
Defpoints
 62
     0
100
AcDbPoint
 10
2355.087235606629
 20
295.8250599337407
 30
0.0
  0
ENDBLK
  5
445E
330
4453
100
AcDbEntity
  8
0
 62
     3
100
AcDbBlockEnd
  0
BLOCK
  5
49E1
330
49DC
100
AcDbEntity
  8
0
 62
     3
100
AcDbBlockBegin
  2
A$C23847E86
 70
     0
 10
0.0
 20
0.0
 30
0.0
  3
A$C23847E86
  1

  0
TEXT
  5
49DD
330
49DC
100
AcDbEntity
  8
寸法
100
AcDbText
 10
0.0000017526954252
 20
434.5506622631992
 30
0.0
 40
25.0
  1
20R
100
AcDbText
  0
TEXT
  5
49DE
330
49DC
100
AcDbEntity
  8
寸法
100
AcDbText
 10
478.2382265039713
 20
-0.0000001195608093
 30
0.0
 40
25.0
  1
30R
100
AcDbText
  0
ENDBLK
  5
49E2
330
49DC
100
AcDbEntity
  8
0
 62
     3
100
AcDbBlockEnd
  0
BLOCK
  5
54C8
330
54BE
100
AcDbEntity
  8
0
 62
     3
100
AcDbBlockBegin
  2
*D80
 70
     1
 10
0.0
 20
0.0
 30
0.0
  3
*D80
  1

  0
LINE
  5
58A4
330
54BE
100
AcDbEntity
  8
実形
 62
     0
370
    18
100
AcDbLine
 10
794.358032257418
 20
1682.517091367211
 30
0.0
 11
746.6663872830731
 21
1682.517091367211
 31
0.0
  0
LINE
  5
58A5
330
54BE
100
AcDbEntity
  8
実形
 62
     0
370
    18
100
AcDbLine
 10
794.358032257418
 20
1517.51709136721
 30
0.0
 11
746.6663872830731
 21
1517.51709136721
 31
0.0
  0
LINE
  5
58A6
330
54BE
100
AcDbEntity
  8
実形
 62
     0
370
    18
100
AcDbLine
 10
746.6663872830731
 20
1682.517091367211
 30
0.0
 11
746.6663872830731
 21
1517.51709136721
 31
0.0
  0
INSERT
  5
58A7
330
54BE
100
AcDbEntity
  8
実形
 62
     0
370
    18
100
AcDbBlockReference
  2
_DotSmall
 10
746.6663872830731
 20
1682.517091367211
 30
0.0
 41
35.0
 42
35.0
 43
35.0
 50
90.0
  0
INSERT
  5
58A8
330
54BE
100
AcDbEntity
  8
実形
 62
     0
370
    18
100
AcDbBlockReference
  2
_DotSmall
 10
746.6663872830731
 20
1517.51709136721
 30
0.0
 41
35.0
 42
35.0
 43
35.0
 50
270.0
  0
MTEXT
  5
58A9
330
54BE
100
AcDbEntity
  8
実形
 62
     0
100
AcDbMText
 10
727.9163872830729
 20
1600.017091367211
 30
0.0
 40
25.0
 41
0.0
 71
     5
 72
     1
  1
165
 11
0.0000000000000001
 21
1.0
 31
0.0
 73
     1
 44
1.0
1001
ACAD
1000
MTEXTBEGIN
1070
    73
1070
     1
1070
    44
1040
1.0
1070
    74
1070
     0
1000
MTEXTEND
  0
POINT
  5
58AA
330
54BE
100
AcDbEntity
  8
Defpoints
 62
     0
100
AcDbPoint
 10
859.358032257418
 20
1682.517091367211
 30
0.0
  0
POINT
  5
58AB
330
54BE
100
AcDbEntity
  8
Defpoints
 62
     0
100
AcDbPoint
 10
859.358032257418
 20
1517.51709136721
 30
0.0
  0
POINT
  5
58AC
330
54BE
100
AcDbEntity
  8
Defpoints
 62
     0
100
AcDbPoint
 10
746.6663872830731
 20
1517.51709136721
 30
0.0
  0
ENDBLK
  5
54C9
330
54BE
100
AcDbEntity
  8
0
 62
     3
100
AcDbBlockEnd
  0
BLOCK
  5
54D5
330
54CB
100
AcDbEntity
  8
0
 62
     3
100
AcDbBlockBegin
  2
*D81
 70
     1
 10
0.0
 20
0.0
 30
0.0
  3
*D81
  1

  0
LINE
  5
58AD
330
54CB
100
AcDbEntity
  8
実形
 62
     0
370
    18
100
AcDbLine
 10
794.358032257418
 20
1517.51709136721
 30
0.0
 11
746.6663872830731
 21
1517.51709136721
 31
0.0
  0
LINE
  5
58AE
330
54CB
100
AcDbEntity
  8
実形
 62
     0
370
    18
100
AcDbLine
 10
794.3580322574181
 20
1297.517091367211
 30
0.0
 11
746.6663872830731
 21
1297.517091367211
 31
0.0
  0
LINE
  5
58AF
330
54CB
100
AcDbEntity
  8
実形
 62
     0
370
    18
100
AcDbLine
 10
746.6663872830731
 20
1517.51709136721
 30
0.0
 11
746.6663872830731
 21
1297.517091367211
 31
0.0
  0
INSERT
  5
58B0
330
54CB
100
AcDbEntity
  8
実形
 62
     0
370
    18
100
AcDbBlockReference
  2
_DotSmall
 10
746.6663872830731
 20
1517.51709136721
 30
0.0
 41
35.0
 42
35.0
 43
35.0
 50
90.0
  0
INSERT
  5
58B1
330
54CB
100
AcDbEntity
  8
実形
 62
     0
370
    18
100
AcDbBlockReference
  2
_DotSmall
 10
746.6663872830731
 20
1297.517091367211
 30
0.0
 41
35.0
 42
35.0
 43
35.0
 50
270.0
  0
MTEXT
  5
58B2
330
54CB
100
AcDbEntity
  8
実形
 62
     0
100
AcDbMText
 10
727.9163872830729
 20
1407.517091367211
 30
0.0
 40
25.0
 41
0.0
 71
     5
 72
     1
  1
220
 11
0.0000000000000001
 21
1.0
 31
0.0
 73
     1
 44
1.0
1001
ACAD
1000
MTEXTBEGIN
1070
    73
1070
     1
1070
    44
1040
1.0
1070
    74
1070
     0
1000
MTEXTEND
  0
POINT
  5
58B3
330
54CB
100
AcDbEntity
  8
Defpoints
 62
     0
100
AcDbPoint
 10
859.358032257418
 20
1517.51709136721
 30
0.0
  0
POINT
  5
58B4
330
54CB
100
AcDbEntity
  8
Defpoints
 62
     0
100
AcDbPoint
 10
859.3580322574181
 20
1297.517091367211
 30
0.0
  0
POINT
  5
58B5
330
54CB
100
AcDbEntity
  8
Defpoints
 62
     0
100
AcDbPoint
 10
746.6663872830731
 20
1297.517091367211
 30
0.0
  0
ENDBLK
  5
54D6
330
54CB
100
AcDbEntity
  8
0
 62
     3
100
AcDbBlockEnd
  0
BLOCK
  5
551D
330
5513
100
AcDbEntity
  8
0
 62
     3
100
AcDbBlockBegin
  2
*D82
 70
     1
 10
0.0
 20
0.0
 30
0.0
  3
*D82
  1

  0
LINE
  5
5946
330
5513
100
AcDbEntity
  8
実形
 62
     0
370
    18
100
AcDbLine
 10
730.838539415
 20
1682.517091367211
 30
0.0
 11
672.4084262228643
 21
1682.517091367211
 31
0.0
  0
LINE
  5
5947
330
5513
100
AcDbEntity
  8
実形
 62
     0
370
    18
100
AcDbLine
 10
722.4861232706062
 20
1517.51709136721
 30
0.0
 11
672.4084262228643
 21
1517.51709136721
 31
0.0
  0
LINE
  5
5948
330
5513
100
AcDbEntity
  8
実形
 62
     0
370
    18
100
AcDbLine
 10
672.4084262228643
 20
1682.517091367211
 30
0.0
 11
672.4084262228643
 21
1517.51709136721
 31
0.0
  0
MTEXT
  5
5949
330
5513
100
AcDbEntity
  8
実形
 62
     0
100
AcDbMText
 10
647.196390181607
 20
1672.159908841189
 30
0.0
 40
25.0
 41
0.0
 71
     5
 72
     1
  1
20
 11
0.0000000000000001
 21
1.0
 31
0.0
 73
     1
 44
1.0
1001
ACAD
1000
MTEXTBEGIN
1070
    73
1070
     1
1070
    44
1040
1.0
1070
    74
1070
     0
1000
MTEXTEND
  0
INSERT
  5
594A
330
5513
100
AcDbEntity
  8
実形
 62
     0
370
    18
100
AcDbBlockReference
  2
_DotSmall
 10
672.4084262228643
 20
1682.517091367211
 30
0.0
 41
35.0
 42
35.0
 43
35.0
 50
90.0
  0
INSERT
  5
594B
330
5513
100
AcDbEntity
  8
実形
 62
     0
370
    18
100
AcDbBlockReference
  2
_DotSmall
 10
672.4084262228643
 20
1517.51709136721
 30
0.0
 41
35.0
 42
35.0
 43
35.0
 50
270.0
  0
POINT
  5
594C
330
5513
100
AcDbEntity
  8
Defpoints
 62
     0
100
AcDbPoint
 10
795.838539415
 20
1682.517091367211
 30
0.0
  0
POINT
  5
594D
330
5513
100
AcDbEntity
  8
Defpoints
 62
     0
100
AcDbPoint
 10
787.4861232706061
 20
1517.51709136721
 30
0.0
  0
POINT
  5
594E
330
5513
100
AcDbEntity
  8
Defpoints
 62
     0
100
AcDbPoint
 10
672.4084262228643
 20
1517.51709136721
 30
0.0
  0
ENDBLK
  5
551E
330
5513
100
AcDbEntity
  8
0
 62
     3
100
AcDbBlockEnd
  0
BLOCK
  5
552B
330
5521
100
AcDbEntity
  8
0
 62
     3
100
AcDbBlockBegin
  2
*D83
 70
     1
 10
0.0
 20
0.0
 30
0.0
  3
*D83
  1

  0
LINE
  5
594F
330
5521
100
AcDbEntity
  8
実形
 62
     0
370
    18
100
AcDbLine
 10
732.5090125369515
 20
1662.517091367211
 30
0.0
 11
672.4084262228643
 21
1662.517091367211
 31
0.0
  0
LINE
  5
5950
330
5521
100
AcDbEntity
  8
実形
 62
     0
370
    18
100
AcDbLine
 10
737.5204655925626
 20
1517.51709136721
 30
0.0
 11
672.4084262228643
 21
1517.51709136721
 31
0.0
  0
LINE
  5
5951
330
5521
100
AcDbEntity
  8
実形
 62
     0
370
    18
100
AcDbLine
 10
672.4084262228643
 20
1662.517091367211
 30
0.0
 11
672.4084262228643
 21
1517.51709136721
 31
0.0
  0
MTEXT
  5
5952
330
5521
100
AcDbEntity
  8
実形
 62
     0
100
AcDbMText
 10
645.2924554366163
 20
1579.842516614246
 30
0.0
 40
25.0
 41
0.0
 71
     5
 72
     1
  1
145
 11
0.0000000000000001
 21
1.0
 31
0.0
 73
     1
 44
1.0
1001
ACAD
1000
MTEXTBEGIN
1070
    73
1070
     1
1070
    44
1040
1.0
1070
    74
1070
     0
1000
MTEXTEND
  0
INSERT
  5
5953
330
5521
100
AcDbEntity
  8
実形
 62
     0
370
    18
100
AcDbBlockReference
  2
_DotSmall
 10
672.4084262228643
 20
1662.517091367211
 30
0.0
 41
35.0
 42
35.0
 43
35.0
 50
90.0
  0
INSERT
  5
5954
330
5521
100
AcDbEntity
  8
実形
 62
     0
370
    18
100
AcDbBlockReference
  2
_DotSmall
 10
672.4084262228643
 20
1517.51709136721
 30
0.0
 41
35.0
 42
35.0
 43
35.0
 50
270.0
  0
POINT
  5
5955
330
5521
100
AcDbEntity
  8
Defpoints
 62
     0
100
AcDbPoint
 10
797.5090125369515
 20
1662.517091367211
 30
0.0
  0
POINT
  5
5956
330
5521
100
AcDbEntity
  8
Defpoints
 62
     0
100
AcDbPoint
 10
802.5204655925627
 20
1517.51709136721
 30
0.0
  0
POINT
  5
5957
330
5521
100
AcDbEntity
  8
Defpoints
 62
     0
100
AcDbPoint
 10
672.4084262228643
 20
1517.51709136721
 30
0.0
  0
ENDBLK
  5
552C
330
5521
100
AcDbEntity
  8
0
 62
     3
100
AcDbBlockEnd
  0
BLOCK
  5
556E
330
5564
100
AcDbEntity
  8
0
 62
     3
100
AcDbBlockBegin
  2
*D84
 70
     1
 10
0.0
 20
0.0
 30
0.0
  3
*D84
  1

  0
LINE
  5
5958
330
5564
100
AcDbEntity
  8
実形
 62
     0
370
    18
100
AcDbLine
 10
672.3716264042423
 20
1517.51709136721
 30
0.0
 11
672.4084262228643
 21
1517.51709136721
 31
0.0
  0
LINE
  5
5959
330
5564
100
AcDbEntity
  8
実形
 62
     0
370
    18
100
AcDbLine
 10
684.0649972149776
 20
1297.517091367211
 30
0.0
 11
672.4084262228643
 21
1297.517091367211
 31
0.0
  0
LINE
  5
595A
330
5564
100
AcDbEntity
  8
実形
 62
     0
370
    18
100
AcDbLine
 10
672.4084262228643
 20
1517.51709136721
 30
0.0
 11
672.4084262228643
 21
1297.517091367211
 31
0.0
  0
MTEXT
  5
595B
330
5564
100
AcDbEntity
  8
実形
 62
     0
100
AcDbMText
 10
645.9678003906865
 20
1407.517091367211
 30
0.0
 40
25.0
 41
0.0
 71
     5
 72
     1
  1
220
 11
0.0000000000000001
 21
1.0
 31
0.0
 73
     1
 44
1.0
1001
ACAD
1000
MTEXTBEGIN
1070
    73
1070
     1
1070
    44
1040
1.0
1070
    74
1070
     0
1000
MTEXTEND
  0
INSERT
  5
595C
330
5564
100
AcDbEntity
  8
実形
 62
     0
370
    18
100
AcDbBlockReference
  2
_DotSmall
 10
672.4084262228643
 20
1517.51709136721
 30
0.0
 41
35.0
 42
35.0
 43
35.0
 50
90.0
  0
INSERT
  5
595D
330
5564
100
AcDbEntity
  8
実形
 62
     0
370
    18
100
AcDbBlockReference
  2
_DotSmall
 10
672.4084262228643
 20
1297.517091367211
 30
0.0
 41
35.0
 42
35.0
 43
35.0
 50
270.0
  0
POINT
  5
595E
330
5564
100
AcDbEntity
  8
Defpoints
 62
     0
100
AcDbPoint
 10
737.3716264042423
 20
1517.51709136721
 30
0.0
  0
POINT
  5
595F
330
5564
100
AcDbEntity
  8
Defpoints
 62
     0
100
AcDbPoint
 10
749.0649972149777
 20
1297.517091367211
 30
0.0
  0
POINT
  5
5960
330
5564
100
AcDbEntity
  8
Defpoints
 62
     0
100
AcDbPoint
 10
672.4084262228643
 20
1297.517091367211
 30
0.0
  0
ENDBLK
  5
556F
330
5564
100
AcDbEntity
  8
0
 62
     3
100
AcDbBlockEnd
  0
BLOCK
  5
557B
330
5571
100
AcDbEntity
  8
0
 62
     3
100
AcDbBlockBegin
  2
*D85
 70
     1
 10
0.0
 20
0.0
 30
0.0
  3
*D85
  1

  0
LINE
  5
58D1
330
5571
100
AcDbEntity
  8
実形
 62
     0
370
    18
100
AcDbLine
 10
794.358032257418
 20
1297.517091367211
 30
0.0
 11
746.6663872830731
 21
1297.517091367211
 31
0.0
  0
LINE
  5
58D2
330
5571
100
AcDbEntity
  8
実形
 62
     0
370
    18
100
AcDbLine
 10
794.3580322574181
 20
1172.51709136721
 30
0.0
 11
746.666387283073
 21
1172.51709136721
 31
0.0
  0
LINE
  5
58D3
330
5571
100
AcDbEntity
  8
実形
 62
     0
370
    18
100
AcDbLine
 10
746.6663872830731
 20
1297.517091367211
 30
0.0
 11
746.666387283073
 21
1172.51709136721
 31
0.0
  0
INSERT
  5
58D4
330
5571
100
AcDbEntity
  8
実形
 62
     0
370
    18
100
AcDbBlockReference
  2
_DotSmall
 10
746.6663872830731
 20
1297.517091367211
 30
0.0
 41
35.0
 42
35.0
 43
35.0
 50
90.0
  0
INSERT
  5
58D5
330
5571
100
AcDbEntity
  8
実形
 62
     0
370
    18
100
AcDbBlockReference
  2
_DotSmall
 10
746.666387283073
 20
1172.51709136721
 30
0.0
 41
35.0
 42
35.0
 43
35.0
 50
270.0
  0
MTEXT
  5
58D6
330
5571
100
AcDbEntity
  8
実形
 62
     0
100
AcDbMText
 10
727.9163872830729
 20
1235.017091367211
 30
0.0
 40
25.0
 41
0.0
 71
     5
 72
     1
  1
125
 11
0.0000000000000001
 21
1.0
 31
0.0
 73
     1
 44
1.0
1001
ACAD
1000
MTEXTBEGIN
1070
    73
1070
     1
1070
    44
1040
1.0
1070
    74
1070
     0
1000
MTEXTEND
  0
POINT
  5
58D7
330
5571
100
AcDbEntity
  8
Defpoints
 62
     0
100
AcDbPoint
 10
859.358032257418
 20
1297.517091367211
 30
0.0
  0
POINT
  5
58D8
330
5571
100
AcDbEntity
  8
Defpoints
 62
     0
100
AcDbPoint
 10
859.3580322574181
 20
1172.51709136721
 30
0.0
  0
POINT
  5
58D9
330
5571
100
AcDbEntity
  8
Defpoints
 62
     0
100
AcDbPoint
 10
746.666387283073
 20
1172.51709136721
 30
0.0
  0
ENDBLK
  5
557C
330
5571
100
AcDbEntity
  8
0
 62
     3
100
AcDbBlockEnd
  0
BLOCK
  5
5588
330
557E
100
AcDbEntity
  8
0
 62
     3
100
AcDbBlockBegin
  2
*D86
 70
     1
 10
0.0
 20
0.0
 30
0.0
  3
*D86
  1

  0
LINE
  5
5961
330
557E
100
AcDbEntity
  8
実形
 62
     0
370
    18
100
AcDbLine
 10
707.4517641037691
 20
1297.517091367211
 30
0.0
 11
672.4084262228643
 21
1297.517091367211
 31
0.0
  0
LINE
  5
5962
330
557E
100
AcDbEntity
  8
実形
 62
     0
370
    18
100
AcDbLine
 10
732.5090125369515
 20
1192.517091367211
 30
0.0
 11
672.4084262228642
 21
1192.517091367211
 31
0.0
  0
LINE
  5
5963
330
557E
100
AcDbEntity
  8
実形
 62
     0
370
    18
100
AcDbLine
 10
672.4084262228643
 20
1297.517091367211
 30
0.0
 11
672.4084262228642
 21
1192.517091367211
 31
0.0
  0
MTEXT
  5
5964
330
557E
100
AcDbEntity
  8
実形
 62
     0
100
AcDbMText
 10
644.7005010640869
 20
1245.017091367211
 30
0.0
 40
25.0
 41
0.0
 71
     5
 72
     1
  1
105
 11
0.0000000000000001
 21
1.0
 31
0.0
 73
     1
 44
1.0
1001
ACAD
1000
MTEXTBEGIN
1070
    73
1070
     1
1070
    44
1040
1.0
1070
    74
1070
     0
1000
MTEXTEND
  0
INSERT
  5
5965
330
557E
100
AcDbEntity
  8
実形
 62
     0
370
    18
100
AcDbBlockReference
  2
_DotSmall
 10
672.4084262228643
 20
1297.517091367211
 30
0.0
 41
35.0
 42
35.0
 43
35.0
 50
90.0
  0
INSERT
  5
5966
330
557E
100
AcDbEntity
  8
実形
 62
     0
370
    18
100
AcDbBlockReference
  2
_DotSmall
 10
672.4084262228642
 20
1192.517091367211
 30
0.0
 41
35.0
 42
35.0
 43
35.0
 50
270.0
  0
POINT
  5
5967
330
557E
100
AcDbEntity
  8
Defpoints
 62
     0
100
AcDbPoint
 10
772.4517641037691
 20
1297.517091367211
 30
0.0
  0
POINT
  5
5968
330
557E
100
AcDbEntity
  8
Defpoints
 62
     0
100
AcDbPoint
 10
797.5090125369515
 20
1192.517091367211
 30
0.0
  0
POINT
  5
5969
330
557E
100
AcDbEntity
  8
Defpoints
 62
     0
100
AcDbPoint
 10
672.4084262228642
 20
1192.517091367211
 30
0.0
  0
ENDBLK
  5
5589
330
557E
100
AcDbEntity
  8
0
 62
     3
100
AcDbBlockEnd
  0
BLOCK
  5
5595
330
558B
100
AcDbEntity
  8
0
 62
     3
100
AcDbBlockBegin
  2
*D87
 70
     1
 10
0.0
 20
0.0
 30
0.0
  3
*D87
  1

  0
LINE
  5
596A
330
558B
100
AcDbEntity
  8
実形
 62
     0
370
    18
100
AcDbLine
 10
727.4975679037789
 20
1297.517091367211
 30
0.0
 11
672.4084262228643
 21
1297.517091367211
 31
0.0
  0
LINE
  5
596B
330
558B
100
AcDbEntity
  8
実形
 62
     0
370
    18
100
AcDbLine
 10
730.8385309925597
 20
1172.51709136721
 30
0.0
 11
672.4084262228642
 21
1172.51709136721
 31
0.0
  0
MTEXT
  5
596C
330
558B
100
AcDbEntity
  8
実形
 62
     0
100
AcDbMText
 10
643.4332017374863
 20
1174.075494136473
 30
0.0
 40
25.0
 41
0.0
 71
     5
 72
     1
  1
20
 11
0.0000000000000001
 21
1.0
 31
0.0
 73
     1
 44
1.0
1001
ACAD
1000
MTEXTBEGIN
1070
    73
1070
     1
1070
    44
1040
1.0
1070
    74
1070
     0
1000
MTEXTEND
  0
POINT
  5
596D
330
558B
100
AcDbEntity
  8
Defpoints
 62
     0
100
AcDbPoint
 10
792.4975679037788
 20
1297.517091367211
 30
0.0
  0
POINT
  5
596E
330
558B
100
AcDbEntity
  8
Defpoints
 62
     0
100
AcDbPoint
 10
795.8385309925597
 20
1172.51709136721
 30
0.0
  0
POINT
  5
596F
330
558B
100
AcDbEntity
  8
Defpoints
 62
     0
100
AcDbPoint
 10
672.4084262228642
 20
1172.51709136721
 30
0.0
  0
ENDBLK
  5
5596
330
558B
100
AcDbEntity
  8
0
 62
     3
100
AcDbBlockEnd
  0
BLOCK
  5
5A3F
330
5A3B
100
AcDbEntity
  8
0
 62
     3
100
AcDbBlockBegin
  2
A$C378820C5
 70
     0
 10
0.0
 20
0.0
 30
0.0
  3
A$C378820C5
  1

  0
TEXT
  5
5A3C
330
5A3B
100
AcDbEntity
  8
0
100
AcDbText
 10
246.9166666666667
 20
15.0
 30
0.0
 40
35.0
  1
1：10
 72
     4
 11
300.0
 21
32.5
 31
0.0
100
AcDbText
  0
ENDBLK
  5
5A40
330
5A3B
100
AcDbEntity
  8
0
 62
     3
100
AcDbBlockEnd
  0
ENDSEC
  0
SECTION
  2
ENTITIES
  0
LINE
  5
9C
330
1F
100
AcDbEntity
  8
補助
100
AcDbLine
 10
109.0
 20
4.0
 30
0.0
 11
2784.0
 21
4.0
 31
0.0
  0
LINE
  5
A0
330
1F
100
AcDbEntity
  8
補助
100
AcDbLine
 10
2784.0
 20
2024.0
 30
0.0
 11
109.0
 21
2024.0
 31
0.0
  0
LINE
  5
A5
330
1F
100
AcDbEntity
  8
補助
100
AcDbLine
 10
2784.0
 20
4.0
 30
0.0
 11
2784.0
 21
2024.0
 31
0.0
  0
LINE
  5
A8
330
1F
100
AcDbEntity
  8
補助
100
AcDbLine
 10
2184.0
 20
4.0
 30
0.0
 11
2184.0
 21
199.0
 31
0.0
  0
LINE
  5
A9
330
1F
100
AcDbEntity
  8
補助
100
AcDbLine
 10
2184.0
 20
69.0
 30
0.0
 11
2784.0
 21
69.0
 31
0.0
  0
LINE
  5
AA
330
1F
100
AcDbEntity
  8
補助
100
AcDbLine
 10
2184.0
 20
134.0
 30
0.0
 11
2784.0
 21
134.0
 31
0.0
  0
LINE
  5
AB
330
1F
100
AcDbEntity
  8
補助
100
AcDbLine
 10
2184.0
 20
199.0
 30
0.0
 11
2784.0
 21
199.0
 31
0.0
  0
LINE
  5
AD
330
1F
100
AcDbEntity
  8
補助
100
AcDbLine
 10
2784.0
 20
4.0
 30
0.0
 11
2784.0
 21
69.0
 31
0.0
  0
LINE
  5
272
330
1F
100
AcDbEntity
  8
補助
100
AcDbLine
 10
2184.0
 20
134.0
 30
0.0
 11
2184.0
 21
199.0
 31
0.0
  0
TEXT
  5
2C9
330
1F
100
AcDbEntity
  8
0
100
AcDbText
 10
2268.166666666667
 20
149.0
 30
0.0
 40
35.0
  1
TBK860-510W-R
 72
     4
 11
2484.0
 21
166.5
 31
0.0
100
AcDbText
  0
TEXT
  5
8C9
330
1F
100
AcDbEntity
  8
0
100
AcDbText
 10
249.2632881086038
 20
83.52862940911927
 30
0.0
 40
30.0
  1
※実寸には製造上の誤差が多少生ずる場合があります。シンクの穴あけ加工は現物合わせにてお願いします。
100
AcDbText
  0
TEXT
  5
DB9
330
1F
100
AcDbEntity
  8
補助
100
AcDbText
 10
2360.255774665347
 20
16.49999999999999
 30
0.0
 40
40.0
  1
中外交易株式会社
 72
     4
 11
2548.255774665348
 21
36.5
 31
0.0
100
AcDbText
  0
LINE
  5
DBA
330
1F
100
AcDbEntity
  8
補助
100
AcDbLine
 10
2184.0
 20
69.0
 30
0.0
 11
2784.0
 21
69.0
 31
0.0
  0
HATCH
  5
DBB
330
1F
100
AcDbEntity
  8
補助
100
AcDbHatch
 10
0.0
 20
0.0
 30
0.0
210
0.0
220
0.0
230
1.0
  2
SOLID
 70
     1
 71
     1
 91
        3
 92
        1
 93
        4
 72
     2
 10
2317.166198313995
 20
36.5
 40
20.0
 50
11.647723667075
 51
342.6561058784676
 73
     1
 72
     1
 10
2336.256852341323
 20
30.53787547858514
 11
2312.166198313995
 21
30.53787547858519
 72
     1
 10
2312.166198313995
 20
30.53787547858519
 11
2312.166198313995
 21
40.53787547858519
 72
     1
 10
2312.166198313995
 20
40.53787547858519
 11
2336.75434681301
 21
40.53787547858519
 97
        4
330
DBC
330
DBE
330
DBF
330
DC0
 92
        1
 93
        4
 72
     2
 10
2248.255774665347
 20
36.5
 40
20.0
 50
11.647723667075
 51
342.6561058784676
 73
     1
 72
     1
 10
2267.346428692675
 20
30.53787547858514
 11
2243.255774665348
 21
30.53787547858519
 72
     1
 10
2243.255774665348
 20
30.53787547858519
 11
2243.255774665348
 21
40.53787547858519
 72
     1
 10
2243.255774665348
 20
40.53787547858519
 11
2267.843923164362
 21
40.53787547858519
 97
        4
330
DBD
330
DC6
330
DC7
330
DC8
 92
        1
 93
        5
 72
     1
 10
2305.64189404294
 20
56.5
 11
2270.64189404294
 21
56.5
 72
     1
 10
2270.64189404294
 20
56.5
 11
2270.64189404294
 21
16.5
 72
     1
 10
2270.64189404294
 20
16.5
 11
2305.64189404294
 21
16.5
 72
     1
 10
2305.64189404294
 20
16.5
 11
2270.64189404294
 21
36.5
 72
     1
 10
2270.64189404294
 20
36.5
 11
2305.64189404294
 21
56.5
 97
        5
330
DC1
330
DC5
330
DC4
330
DC3
330
DC2
 75
     0
 76
     1
 98
        1
 10
0.0
 20
0.0
  0
ARC
  5
DBC
102
{ACAD_REACTORS
330
DBB
102
}
330
1F
100
AcDbEntity
  8
補助
370
     5
100
AcDbCircle
 10
2317.166198313995
 20
36.5
 30
0.0
 40
20.0
100
AcDbArc
 50
11.647723667075
 51
342.6561058784676
  0
ARC
  5
DBD
102
{ACAD_REACTORS
330
DBB
102
}
330
1F
100
AcDbEntity
  8
補助
370
     5
100
AcDbCircle
 10
2248.255774665347
 20
36.5
 30
0.0
 40
20.0
100
AcDbArc
 50
11.647723667075
 51
342.6561058784676
  0
LINE
  5
DBE
102
{ACAD_REACTORS
330
DBB
102
}
330
1F
100
AcDbEntity
  8
補助
370
     5
100
AcDbLine
 10
2312.166198313995
 20
30.53787547858519
 30
0.0
 11
2336.256852341323
 21
30.53787547858514
 31
0.0
  0
LINE
  5
DBF
102
{ACAD_REACTORS
330
DBB
102
}
330
1F
100
AcDbEntity
  8
補助
370
     5
100
AcDbLine
 10
2312.166198313995
 20
40.53787547858519
 30
0.0
 11
2312.166198313995
 21
30.53787547858519
 31
0.0
  0
LINE
  5
DC0
102
{ACAD_REACTORS
330
DBB
102
}
330
1F
100
AcDbEntity
  8
補助
370
     5
100
AcDbLine
 10
2336.75434681301
 20
40.53787547858519
 30
0.0
 11
2312.166198313995
 21
40.53787547858519
 31
0.0
  0
LINE
  5
DC1
102
{ACAD_REACTORS
330
DBB
102
}
330
1F
100
AcDbEntity
  8
補助
370
     5
100
AcDbLine
 10
2305.64189404294
 20
56.5
 30
0.0
 11
2270.64189404294
 21
56.5
 31
0.0
  0
LINE
  5
DC2
102
{ACAD_REACTORS
330
DBB
102
}
330
1F
100
AcDbEntity
  8
補助
370
     5
100
AcDbLine
 10
2270.64189404294
 20
36.5
 30
0.0
 11
2305.64189404294
 21
56.5
 31
0.0
  0
LINE
  5
DC3
102
{ACAD_REACTORS
330
DBB
102
}
330
1F
100
AcDbEntity
  8
補助
370
     5
100
AcDbLine
 10
2305.64189404294
 20
16.5
 30
0.0
 11
2270.64189404294
 21
36.5
 31
0.0
  0
LINE
  5
DC4
102
{ACAD_REACTORS
330
DBB
102
}
330
1F
100
AcDbEntity
  8
補助
370
     5
100
AcDbLine
 10
2270.64189404294
 20
16.5
 30
0.0
 11
2305.64189404294
 21
16.5
 31
0.0
  0
LINE
  5
DC5
102
{ACAD_REACTORS
330
DBB
102
}
330
1F
100
AcDbEntity
  8
補助
370
     5
100
AcDbLine
 10
2270.64189404294
 20
56.5
 30
0.0
 11
2270.64189404294
 21
16.5
 31
0.0
  0
LINE
  5
DC6
102
{ACAD_REACTORS
330
DBB
102
}
330
1F
100
AcDbEntity
  8
補助
370
     5
100
AcDbLine
 10
2243.255774665348
 20
30.53787547858519
 30
0.0
 11
2267.346428692675
 21
30.53787547858514
 31
0.0
  0
LINE
  5
DC7
102
{ACAD_REACTORS
330
DBB
102
}
330
1F
100
AcDbEntity
  8
補助
370
     5
100
AcDbLine
 10
2243.255774665348
 20
40.53787547858519
 30
0.0
 11
2243.255774665348
 21
30.53787547858519
 31
0.0
  0
LINE
  5
DC8
102
{ACAD_REACTORS
330
DBB
102
}
330
1F
100
AcDbEntity
  8
補助
370
     5
100
AcDbLine
 10
2267.843923164362
 20
40.53787547858519
 30
0.0
 11
2243.255774665348
 21
40.53787547858519
 31
0.0
  0
DIMENSION
  5
1677
330
1F
100
AcDbEntity
  8
寸法
100
AcDbDimension
  2
*D4
 10
971.8007192941804
 20
1059.147751339128
 30
0.0
 11
1221.80071929418
 21
1077.897751339129
 31
0.0
 70
    32
 71
     5
 42
500.0
  3
ISO-25
100
AcDbAlignedDimension
 13
1471.80071929418
 23
1172.517091367211
 33
0.0
 14
971.8007192941804
 24
1172.517091367211
 34
0.0
 50
0.000000000000007
100
AcDbRotatedDimension
1001
ACAD
1000
DSTYLE
1002
{
1070
   279
1070
     1
1002
}
  0
DIMENSION
  5
1678
330
1F
100
AcDbEntity
  8
寸法
100
AcDbDimension
  2
*D5
 10
1471.80071929418
 20
1059.147751339128
 30
0.0
 11
1439.551763795188
 21
1059.147751339128
 31
0.0
 70
   160
 71
     5
 42
20.0
  3
ISO-25
100
AcDbAlignedDimension
 13
1491.80071929418
 23
1172.517091367211
 33
0.0
 14
1471.80071929418
 24
1172.517091367211
 34
0.0
 50
0.000000000000007
100
AcDbRotatedDimension
1001
ACAD
1000
DSTYLE
1002
{
1070
   279
1070
     1
1002
}
  0
DIMENSION
  5
1679
330
1F
100
AcDbEntity
  8
寸法
100
AcDbDimension
  2
*D6
 10
1169.060965347409
 20
1642.517091367211
 30
0.0
 11
1150.310965347409
 21
1535.017091367211
 31
0.0
 70
    32
 71
     5
 42
215.0000000000002
  3
ISO-25
100
AcDbAlignedDimension
 13
1287.330270836499
 23
1427.517091367211
 33
0.0
 14
1451.80071929418
 24
1642.517091367211
 34
0.0
 50
90.0
100
AcDbRotatedDimension
  0
DIMENSION
  5
167B
330
1F
100
AcDbEntity
  8
寸法
100
AcDbDimension
  2
*D7
 10
1321.80071929418
 20
1304.196731626641
 30
0.0
 11
1396.80071929418
 21
1322.946731626641
 31
0.0
 70
    32
 71
     5
 42
150.0
  3
ISO-25
100
AcDbAlignedDimension
 13
1471.80071929418
 23
1312.517091367211
 33
0.0
 14
1321.80071929418
 24
1427.517091367211
 34
0.0
 50
180.0
100
AcDbRotatedDimension
1001
ACAD
1000
DSTYLE
1002
{
1070
   279
1070
     1
1070
    73
1070
     1
1070
    74
1070
     1
1002
}
  0
LINE
  5
167C
330
1F
100
AcDbEntity
  8
実形
100
AcDbLine
 10
1451.80071929418
 20
1642.517091367211
 30
0.0
 11
991.80071929418
 21
1642.517091367211
 31
0.0
  0
LINE
  5
167D
330
1F
100
AcDbEntity
  8
実形
100
AcDbLine
 10
1451.80071929418
 20
1212.517091367211
 30
0.0
 11
991.8007192941809
 21
1212.517091367211
 31
0.0
  0
LINE
  5
167E
330
1F
100
AcDbEntity
  8
実形
100
AcDbLine
 10
1751.80071929418
 20
846.427037316068
 30
0.0
 11
971.8007192941804
 21
846.427037316068
 31
0.0
  0
LINE
  5
1680
330
1F
100
AcDbEntity
  8
実形
100
AcDbLine
 10
1786.80071929418
 20
861.427037316068
 30
0.0
 11
936.8007192941805
 21
861.427037316068
 31
0.0
  0
DIMENSION
  5
1681
330
1F
100
AcDbEntity
  8
実形
100
AcDbDimension
  2
*D8
 10
931.8007192941804
 20
994.5453660715575
 30
0.0
 11
1361.80071929418
 21
1013.295366071557
 31
0.0
 70
    32
 71
     5
 42
860.0
  3
ISO-25
100
AcDbAlignedDimension
 13
1791.80071929418
 23
1172.517091367211
 33
0.0
 14
931.8007192941804
 24
1172.517091367211
 34
0.0
 50
180.0
100
AcDbRotatedDimension
  0
LINE
  5
1682
330
1F
100
AcDbEntity
  8
実形
100
AcDbLine
 10
981.8007192941802
 20
1662.517091367211
 30
0.0
 11
1741.80071929418
 21
1662.517091367211
 31
0.0
  0
LINE
  5
1683
330
1F
100
AcDbEntity
  8
実形
100
AcDbLine
 10
1741.80071929418
 20
1192.517091367211
 30
0.0
 11
981.8007192941804
 21
1192.517091367211
 31
0.0
  0
LINE
  5
1684
330
1F
100
AcDbEntity
  8
実形
100
AcDbLine
 10
1791.80071929418
 20
1682.517091367211
 30
0.0
 11
931.8007192941804
 21
1682.517091367211
 31
0.0
  0
LINE
  5
1685
330
1F
100
AcDbEntity
  8
実形
100
AcDbLine
 10
1791.80071929418
 20
1172.517091367211
 30
0.0
 11
931.8007192941804
 21
1172.517091367211
 31
0.0
  0
LINE
  5
1688
330
1F
100
AcDbEntity
  8
実形
100
AcDbLine
 10
1471.80071929418
 20
671.427037316068
 30
0.0
 11
1471.80071929418
 21
846.427037316068
 31
0.0
  0
LINE
  5
1689
330
1F
100
AcDbEntity
  8
実形
100
AcDbLine
 10
1491.80071929418
 20
846.427037316068
 30
0.0
 11
1491.800719294181
 21
671.4270373160679
 31
0.0
  0
LINE
  5
168A
330
1F
100
AcDbEntity
  8
実形
100
AcDbLine
 10
1751.80071929418
 20
671.427037316068
 30
0.0
 11
1751.80071929418
 21
843.427037316068
 31
0.0
  0
DIMENSION
  5
168D
330
1F
100
AcDbEntity
  8
寸法
100
AcDbDimension
  2
*D9
 10
1751.80071929418
 20
1365.303474596731
 30
0.0
 11
1686.80071929418
 21
1384.053474596731
 31
0.0
 70
    32
 71
     5
 42
129.9999999999998
  3
ISO-25
100
AcDbAlignedDimension
 13
1621.800719294181
 23
1487.517091367211
 33
0.0
 14
1751.80071929418
 24
1337.517091367211
 34
0.0
 50
180.0
100
AcDbRotatedDimension
1001
ACAD
1000
DSTYLE
1002
{
1070
    73
1070
     1
1070
    74
1070
     1
1002
}
  0
LINE
  5
168F
330
1F
100
AcDbEntity
  8
センター
 48
0.5
100
AcDbLine
 10
1621.80071929418
 20
718.7653342921298
 30
0.0
 11
1621.80071929418
 21
588.7358638043451
 31
0.0
  0
DIMENSION
  5
1697
330
1F
100
AcDbEntity
  8
寸法
100
AcDbDimension
  2
*D10
 10
1889.264740100904
 20
1212.517091367211
 30
0.0
 11
1870.514740100904
 21
1405.017091367211
 31
0.0
 70
    32
 71
     5
 42
385.0
  3
ISO-25
100
AcDbAlignedDimension
 13
1791.80071929418
 23
1597.517091367211
 33
0.0
 14
1791.80071929418
 24
1212.517091367211
 34
0.0
 50
90.0
100
AcDbRotatedDimension
  0
DIMENSION
  5
1698
330
1F
100
AcDbEntity
  8
寸法
100
AcDbDimension
  2
*D11
 10
1551.559350127269
 20
1597.517091367211
 30
0.0
 11
1532.809350127268
 21
1542.517091367211
 31
0.0
 70
    32
 71
     5
 42
110.0
  3
ISO-25
100
AcDbAlignedDimension
 13
1720.405882244344
 23
1487.517091367211
 33
0.0
 14
1744.302116613733
 24
1597.517091367211
 34
0.0
 50
90.0
100
AcDbRotatedDimension
  0
LINE
  5
1699
330
1F
100
AcDbEntity
  8
実形
100
AcDbLine
 10
1471.80071929418
 20
1622.517091367211
 30
0.0
 11
1471.80071929418
 21
1232.517091367211
 31
0.0
  0
DIMENSION
  5
169A
330
1F
100
AcDbEntity
  8
実形
100
AcDbDimension
  2
*D12
 10
1962.317312120496
 20
1172.517091367211
 30
0.0
 11
1943.567312120496
 21
1427.517091367211
 31
0.0
 70
    32
 71
     5
 42
510.0
  3
ISO-25
100
AcDbAlignedDimension
 13
1791.80071929418
 23
1682.517091367211
 33
0.0
 14
1791.80071929418
 24
1172.517091367211
 34
0.0
 50
90.0
100
AcDbRotatedDimension
  0
LINE
  5
169B
330
1F
100
AcDbEntity
  8
実形
100
AcDbLine
 10
1771.80071929418
 20
1632.517091367211
 30
0.0
 11
1771.80071929418
 21
1222.517091367211
 31
0.0
  0
LINE
  5
169C
330
1F
100
AcDbEntity
  8
実形
100
AcDbLine
 10
1791.80071929418
 20
1682.517091367211
 30
0.0
 11
1791.80071929418
 21
1172.517091367211
 31
0.0
  0
DIMENSION
  5
169D
330
1F
100
AcDbEntity
  8
寸法
100
AcDbDimension
  2
*D13
 10
1491.80071929418
 20
1059.147751339128
 30
0.0
 11
1621.80071929418
 21
1077.897751339129
 31
0.0
 70
    33
 71
     5
 42
260.0
  3
ISO-25
100
AcDbAlignedDimension
 13
1751.80071929418
 23
1172.517091367211
 33
0.0
 14
1491.80071929418
 24
1172.517091367211
 34
0.0
  0
DIMENSION
  5
169E
330
1F
100
AcDbEntity
  8
実形
100
AcDbDimension
  2
*D14
 10
1889.264740100904
 20
1172.517091367211
 30
0.0
 11
1889.264740100904
 21
1135.349403066262
 31
0.0
 70
   160
 71
     5
 42
20.0
  3
ISO-25
100
AcDbAlignedDimension
 13
1791.80071929418
 23
1192.517091367211
 33
0.0
 14
1791.80071929418
 24
1172.517091367211
 34
0.0
 50
90.0
100
AcDbRotatedDimension
1001
ACAD
1000
DSTYLE
1002
{
1070
   279
1070
     1
1002
}
  0
DIMENSION
  5
169F
330
1F
100
AcDbEntity
  8
実形
100
AcDbDimension
  2
*D15
 10
1771.80071929418
 20
1059.936606647246
 30
0.0
 11
1830.424433967911
 21
1063.615093022798
 31
0.0
 70
   160
 71
     5
 42
20.0
  3
ISO-25
100
AcDbAlignedDimension
 13
1791.80071929418
 23
1172.517091367211
 33
0.0
 14
1771.80071929418
 24
1172.517091367211
 34
0.0
 50
180.0
100
AcDbRotatedDimension
1001
ACAD
1000
DSTYLE
1002
{
1070
   279
1070
     2
1002
}
  0
DIMENSION
  5
16A0
330
1F
100
AcDbEntity
  8
実形
100
AcDbDimension
  2
*D16
 10
1751.80071929418
 20
1059.936606647246
 30
0.0
 11
1713.482033756678
 21
1059.936606647246
 31
0.0
 70
   160
 71
     5
 42
20.0
  3
ISO-25
100
AcDbAlignedDimension
 13
1771.80071929418
 23
1172.517091367211
 33
0.0
 14
1751.80071929418
 24
1172.517091367211
 34
0.0
 50
180.0
100
AcDbRotatedDimension
1001
ACAD
1000
DSTYLE
1002
{
1070
   279
1070
     1
1002
}
  0
ARC
  5
16A2
330
1F
100
AcDbEntity
  8
実形
100
AcDbCircle
 10
1754.800719294181
 20
843.427037316068
 30
0.0
 40
3.0
100
AcDbArc
 50
90.0
 51
180.0
  0
ARC
  5
16A3
330
1F
100
AcDbEntity
  8
実形
100
AcDbCircle
 10
1768.80071929418
 20
849.4270373160679
 30
0.0
 40
3.0
100
AcDbArc
 50
270.0
 51
0.000000000000007
  0
LINE
  5
16A5
330
1F
100
AcDbEntity
  8
実形
100
AcDbLine
 10
1781.80071929418
 20
861.427037316068
 30
0.0
 11
1781.80071929418
 21
845.427037316068
 31
0.0
  0
LINE
  5
16A7
330
1F
100
AcDbEntity
  8
実形
100
AcDbLine
 10
1771.80071929418
 20
849.4270373160679
 30
0.0
 11
1771.80071929418
 21
861.427037316068
 31
0.0
  0
LINE
  5
16A8
330
1F
100
AcDbEntity
  8
実形
100
AcDbLine
 10
1754.800719294181
 20
846.427037316068
 30
0.0
 11
1768.80071929418
 21
846.427037316068
 31
0.0
  0
LINE
  5
16A9
330
1F
100
AcDbEntity
  8
実形
100
AcDbLine
 10
1491.80071929418
 20
806.4270373160679
 30
0.0
 11
1471.80071929418
 21
806.4270373160679
 31
0.0
  0
LINE
  5
16AB
330
1F
100
AcDbEntity
  8
実形
100
AcDbLine
 10
1731.80071929418
 20
1212.51709136721
 30
0.0
 11
1511.80071929418
 21
1212.517091367211
 31
0.0
  0
LINE
  5
16AD
330
1F
100
AcDbEntity
  8
実形
100
AcDbLine
 10
1751.80071929418
 20
1577.517091367211
 30
0.0
 11
1751.80071929418
 21
1232.51709136721
 31
0.0
  0
ARC
  5
16AE
330
1F
100
AcDbEntity
  8
実形
100
AcDbCircle
 10
1741.80071929418
 20
1222.517091367211
 30
0.0
 40
30.0
100
AcDbArc
 50
270.0
 51
0.000000000000007
  0
DIMENSION
  5
16AF
330
1F
100
AcDbEntity
  8
実形
100
AcDbDimension
  2
*D17
 10
1889.264740100904
 20
1192.517091367211
 30
0.0
 11
1889.264740100904
 21
1241.800254781239
 31
0.0
 70
   160
 71
     5
 42
20.0
  3
ISO-25
100
AcDbAlignedDimension
 13
1791.80071929418
 23
1212.517091367211
 33
0.0
 14
1791.80071929418
 24
1192.517091367211
 34
0.0
 50
90.0
100
AcDbRotatedDimension
1001
ACAD
1000
DSTYLE
1002
{
1070
   279
1070
     1
1002
}
  0
CIRCLE
  5
16B5
330
1F
100
AcDbEntity
  8
実形
100
AcDbCircle
 10
1621.80071929418
 20
1487.517091367211
 30
0.0
 40
47.0
  0
CIRCLE
  5
16B6
330
1F
100
AcDbEntity
  8
実形
100
AcDbCircle
 10
1621.80071929418
 20
1487.517091367211
 30
0.0
 40
57.5
  0
LINE
  5
16B8
330
1F
100
AcDbEntity
  8
実形
100
AcDbLine
 10
1471.80071929418
 20
1297.517091367211
 30
0.0
 11
1491.80071929418
 21
1297.517091367211
 31
0.0
  0
LINE
  5
16B9
330
1F
100
AcDbEntity
  8
実形
100
AcDbLine
 10
1471.80071929418
 20
1517.517091367211
 30
0.0
 11
1471.80071929418
 21
1297.517091367211
 31
0.0
  0
LINE
  5
16BA
330
1F
100
AcDbEntity
  8
実形
100
AcDbLine
 10
1491.80071929418
 20
1517.517091367211
 30
0.0
 11
1471.80071929418
 21
1517.517091367211
 31
0.0
  0
LINE
  5
16BB
330
1F
100
AcDbEntity
  8
実形
100
AcDbLine
 10
1491.80071929418
 20
1232.517091367211
 30
0.0
 11
1491.80071929418
 21
1577.517091367211
 31
0.0
  0
LINE
  5
16BC
330
1F
100
AcDbEntity
  8
実形
100
AcDbLine
 10
1511.80071929418
 20
1597.517091367211
 30
0.0
 11
1731.80071929418
 21
1597.517091367211
 31
0.0
  0
DIMENSION
  5
16BD
330
1F
100
AcDbEntity
  8
寸法
100
AcDbDimension
  2
*D18
 10
1889.336427901076
 20
1597.517091367211
 30
0.0
 11
1870.586427901076
 21
1630.017091367211
 31
0.0
 70
    32
 71
     5
 42
65.0
  3
ISO-25
100
AcDbAlignedDimension
 13
1791.80071929418
 23
1662.517091367211
 33
0.0
 14
1791.80071929418
 24
1597.517091367211
 34
0.0
 50
90.0
100
AcDbRotatedDimension
  0
ARC
  5
16BE
330
1F
100
AcDbEntity
  8
実形
100
AcDbCircle
 10
1741.80071929418
 20
1632.517091367211
 30
0.0
 40
30.0
100
AcDbArc
 50
0.000000000000007
 51
90.0
  0
DIMENSION
  5
16BF
330
1F
100
AcDbEntity
  8
実形
100
AcDbDimension
  2
*D19
 10
1889.264740100904
 20
1662.517091367211
 30
0.0
 11
1873.607668915156
 21
1713.125028234153
 31
0.0
 70
   160
 71
     5
 42
20.0
  3
ISO-25
100
AcDbAlignedDimension
 13
1791.80071929418
 23
1682.517091367211
 33
0.0
 14
1791.80071929418
 24
1662.517091367211
 34
0.0
 50
90.0
100
AcDbRotatedDimension
1001
ACAD
1000
DSTYLE
1002
{
1070
   279
1070
     2
1002
}
  0
LINE
  5
16C1
330
1F
100
AcDbEntity
  8
実形
100
AcDbLine
 10
971.8007192941804
 20
843.427037316068
 30
0.0
 11
971.8007192941799
 21
680.671168857403
 31
0.0
  0
LINE
  5
16C4
330
1F
100
AcDbEntity
  8
センター
 48
0.5
100
AcDbLine
 10
1321.80071929418
 20
713.7653342921297
 30
0.0
 11
1321.80071929418
 21
598.9755678028796
 31
0.0
  0
LINE
  5
16C5
330
1F
100
AcDbEntity
  8
実形
100
AcDbLine
 10
1231.30071929418
 20
641.427037316068
 30
0.0
 11
1231.30071929418
 21
651.4270373160679
 31
0.0
  0
LINE
  5
16C7
330
1F
100
AcDbEntity
  8
実形
100
AcDbLine
 10
1412.30071929418
 20
651.4270373160679
 30
0.0
 11
1412.30071929418
 21
641.427037316068
 31
0.0
  0
DIMENSION
  5
16CA
330
1F
100
AcDbEntity
  8
寸法
100
AcDbDimension
  2
*D20
 10
851.4532135296184
 20
1212.517091367211
 30
0.0
 11
832.7032135296182
 21
1427.517091367211
 31
0.0
 70
    32
 71
     5
 42
430.0
  3
ISO-25
100
AcDbAlignedDimension
 13
972.6979094020279
 23
1642.517091367211
 33
0.0
 14
972.6979094020279
 24
1212.517091367211
 34
0.0
 50
90.0
100
AcDbRotatedDimension
1001
ACAD
1000
DSTYLE
1002
{
1070
   279
1070
     1
1002
}
  0
LINE
  5
16CC
330
1F
100
AcDbEntity
  8
実形
100
AcDbLine
 10
971.800719294181
 20
1232.517091367211
 30
0.0
 11
971.8007192941799
 21
1622.517091367211
 31
0.0
  0
LINE
  5
16CD
330
1F
100
AcDbEntity
  8
実形
100
AcDbLine
 10
951.8007192941805
 20
1222.517091367211
 30
0.0
 11
951.8007192941801
 21
1632.517091367211
 31
0.0
  0
LINE
  5
16CE
330
1F
100
AcDbEntity
  8
実形
100
AcDbLine
 10
931.8007192941804
 20
1172.517091367211
 30
0.0
 11
931.8007192941804
 21
1682.517091367211
 31
0.0
  0
DIMENSION
  5
16CF
330
1F
100
AcDbEntity
  8
寸法
100
AcDbDimension
  2
*D21
 10
851.4532135296184
 20
1172.517091367211
 30
0.0
 11
839.3561317573331
 21
1202.057906695183
 31
0.0
 70
   160
 71
     5
 42
40.0
  3
ISO-25
100
AcDbAlignedDimension
 13
972.6979094020279
 23
1212.517091367211
 33
0.0
 14
972.6979094020279
 24
1172.517091367211
 34
0.0
 50
90.0
100
AcDbRotatedDimension
1001
ACAD
1000
DSTYLE
1002
{
1070
   279
1070
     1
1002
}
  0
DIMENSION
  5
16D0
330
1F
100
AcDbEntity
  8
実形
100
AcDbDimension
  2
*D22
 10
931.8007192941804
 20
1059.936606647246
 30
0.0
 11
896.2064342595786
 21
1058.415878042084
 31
0.0
 70
   160
 71
     5
 42
20.0
  3
ISO-25
100
AcDbAlignedDimension
 13
951.8007192941805
 23
1172.517091367211
 33
0.0
 14
931.8007192941804
 24
1172.517091367211
 34
0.0
 50
180.0
100
AcDbRotatedDimension
1001
ACAD
1000
DSTYLE
1002
{
1070
   279
1070
     1
1002
}
  0
DIMENSION
  5
16D1
330
1F
100
AcDbEntity
  8
実形
100
AcDbDimension
  2
*D23
 10
951.8007192941805
 20
1059.936606647246
 30
0.0
 11
1005.785279924737
 21
1059.936606647246
 31
0.0
 70
   160
 71
     5
 42
20.0
  3
ISO-25
100
AcDbAlignedDimension
 13
971.8007192941804
 23
1172.517091367211
 33
0.0
 14
951.8007192941805
 24
1172.517091367211
 34
0.0
 50
180.0
100
AcDbRotatedDimension
1001
ACAD
1000
DSTYLE
1002
{
1070
   279
1070
     1
1002
}
  0
ARC
  5
16D2
330
1F
100
AcDbEntity
  8
実形
100
AcDbCircle
 10
968.8007192941805
 20
843.427037316068
 30
0.0
 40
3.0
100
AcDbArc
 50
0.000000000000007
 51
90.0
  0
ARC
  5
16D3
330
1F
100
AcDbEntity
  8
実形
100
AcDbCircle
 10
954.8007192941804
 20
849.4270373160679
 30
0.0
 40
3.0
100
AcDbArc
 50
180.0
 51
270.0
  0
LINE
  5
16D4
330
1F
100
AcDbEntity
  8
実形
100
AcDbLine
 10
941.8007192941804
 20
861.427037316068
 30
0.0
 11
941.8007192941804
 21
845.427037316068
 31
0.0
  0
LINE
  5
16D6
330
1F
100
AcDbEntity
  8
実形
100
AcDbLine
 10
954.8007192941804
 20
846.427037316068
 30
0.0
 11
968.8007192941805
 21
846.427037316068
 31
0.0
  0
LINE
  5
16D7
330
1F
100
AcDbEntity
  8
実形
100
AcDbLine
 10
951.8007192941805
 20
861.427037316068
 30
0.0
 11
951.8007192941805
 21
849.4270373160679
 31
0.0
  0
CIRCLE
  5
16DA
330
1F
100
AcDbEntity
  8
実形
100
AcDbCircle
 10
1321.80071929418
 20
1427.517091367211
 30
0.0
 40
80.0
  0
CIRCLE
  5
16DB
330
1F
100
AcDbEntity
  8
実形
100
AcDbCircle
 10
1321.80071929418
 20
1427.517091367211
 30
0.0
 40
90.5
  0
ARC
  5
16DE
330
1F
100
AcDbEntity
  8
実形
100
AcDbCircle
 10
981.8007192941804
 20
1222.517091367211
 30
0.0
 40
30.0
100
AcDbArc
 50
180.0
 51
270.0
  0
DIMENSION
  5
16E1
330
1F
100
AcDbEntity
  8
寸法
100
AcDbDimension
  2
*D24
 10
851.4532135296176
 20
1642.517091367211
 30
0.0
 11
831.4357614076543
 21
1657.803151918135
 31
0.0
 70
   160
 71
     5
 42
40.0
  3
ISO-25
100
AcDbAlignedDimension
 13
972.6979094020279
 23
1682.517091367211
 33
0.0
 14
958.8099961328152
 24
1642.517091367211
 34
0.0
 50
90.0
100
AcDbRotatedDimension
1001
ACAD
1000
DSTYLE
1002
{
1070
   279
1070
     2
1002
}
  0
LEADER
  5
16E2
330
1F
100
AcDbEntity
  8
寸法
100
AcDbLeader
  3
ISO-25
 76
     2
 10
986.759644820469
 20
1624.819826947707
 30
0.0
 10
1034.90641294703
 20
1572.248772628747
 30
0.0
211
-1.0
221
0.0
231
0.0
1001
ACAD
1000
DSTYLE
1002
{
1070
    41
1040
25.0
1070
   147
1040
6.25
1070
    77
1070
     0
1002
}
  0
LINE
  5
1A22
330
1F
100
AcDbEntity
  8
センター
 48
0.5
100
AcDbLine
 10
1701.706187746545
 20
1487.517091367211
 30
0.0
 11
1570.055598212173
 21
1487.517091367211
 31
0.0
  0
LINE
  5
1A24
330
1F
100
AcDbEntity
  8
センター
 48
0.5
100
AcDbLine
 10
1621.80071929418
 20
1567.422559819576
 30
0.0
 11
1621.80071929418
 21
1407.611622914845
 31
0.0
  0
CIRCLE
  5
1A26
330
1F
100
AcDbEntity
  8
実形
100
AcDbCircle
 10
1621.800719294181
 20
1487.517091367211
 30
0.0
 40
0.0000000000002274
  0
LINE
  5
1A2B
330
1F
100
AcDbEntity
  8
センター
 48
0.75
100
AcDbLine
 10
1443.614700754404
 20
1427.517091367211
 30
0.0
 11
1199.986737833957
 21
1427.517091367211
 31
0.0
  0
LINE
  5
1A2C
330
1F
100
AcDbEntity
  8
センター
 48
0.75
100
AcDbLine
 10
1321.80071929418
 20
1549.331072827435
 30
0.0
 11
1321.80071929418
 21
1305.703109906987
 31
0.0
  0
LINE
  5
1A4D
330
1F
100
AcDbEntity
  8
実形
100
AcDbLine
 10
1491.80071929418
 20
1497.517091367211
 30
0.0
 11
1471.80071929418
 21
1497.517091367211
 31
0.0
  0
LINE
  5
1A4E
330
1F
100
AcDbEntity
  8
実形
100
AcDbLine
 10
1471.80071929418
 20
1317.517091367211
 30
0.0
 11
1491.80071929418
 21
1317.517091367211
 31
0.0
  0
LINE
  5
1A4F
330
1F
100
AcDbEntity
  8
実形
100
AcDbLine
 10
578.1847832413022
 20
1177.517091367211
 30
0.0
 11
578.1847832413022
 21
1677.517091367211
 31
0.0
  0
LINE
  5
1A52
330
1F
100
AcDbEntity
  8
実形
100
AcDbLine
 10
563.1847832413022
 20
1209.517091367211
 30
0.0
 11
563.1847832413022
 21
1645.517091367211
 31
0.0
  0
LINE
  5
1A59
330
1F
100
AcDbEntity
  8
実形
100
AcDbLine
 10
563.1847832413022
 20
1209.517091367211
 30
0.0
 11
563.1847832413022
 21
1195.517091367211
 31
0.0
  0
LINE
  5
1A5A
330
1F
100
AcDbEntity
  8
実形
100
AcDbLine
 10
566.1847832413022
 20
1192.517091367211
 30
0.0
 11
578.1847832413022
 21
1192.517091367211
 31
0.0
  0
LINE
  5
1A5B
330
1F
100
AcDbEntity
  8
実形
100
AcDbLine
 10
578.1847832413022
 20
1182.517091367211
 30
0.0
 11
562.1847832413022
 21
1182.517091367211
 31
0.0
  0
ARC
  5
1A5C
330
1F
100
AcDbEntity
  8
実形
100
AcDbCircle
 10
566.1847832413022
 20
1195.517091367211
 30
0.0
 40
3.0
100
AcDbArc
 50
180.0
 51
270.0
  0
ARC
  5
1A5D
330
1F
100
AcDbEntity
  8
実形
100
AcDbCircle
 10
560.1847832413023
 20
1209.517091367211
 30
0.0
 40
3.0
100
AcDbArc
 50
0.000000000000007
 51
90.0
  0
LINE
  5
1A5E
330
1F
100
AcDbEntity
  8
実形
100
AcDbLine
 10
388.1847832413023
 20
1212.517091367211
 30
0.0
 11
560.1847832413023
 21
1212.517091367211
 31
0.0
  0
LINE
  5
1A61
330
1F
100
AcDbEntity
  8
実形
100
AcDbLine
 10
368.1847832413023
 20
1523.017091367211
 30
0.0
 11
368.1847832413023
 21
1342.017091367211
 31
0.0
  0
LINE
  5
1A62
330
1F
100
AcDbEntity
  8
実形
100
AcDbLine
 10
368.1847832413023
 20
1342.017091367211
 30
0.0
 11
358.1847832413023
 21
1342.017091367211
 31
0.0
  0
LINE
  5
1A64
330
1F
100
AcDbEntity
  8
実形
100
AcDbLine
 10
358.1847832413023
 20
1523.017091367211
 30
0.0
 11
368.1847832413023
 21
1523.017091367211
 31
0.0
  0
LINE
  5
1A69
330
1F
100
AcDbEntity
  8
実形
100
AcDbLine
 10
578.1847832413022
 20
1662.517091367211
 30
0.0
 11
566.1847832413022
 21
1662.517091367211
 31
0.0
  0
LINE
  5
1A6A
330
1F
100
AcDbEntity
  8
実形
100
AcDbLine
 10
563.1847832413022
 20
1659.517091367211
 30
0.0
 11
563.1847832413022
 21
1645.517091367211
 31
0.0
  0
LINE
  5
1A6C
330
1F
100
AcDbEntity
  8
実形
100
AcDbLine
 10
578.1847832413022
 20
1672.517091367211
 30
0.0
 11
562.1847832413022
 21
1672.517091367211
 31
0.0
  0
ARC
  5
1A6D
330
1F
100
AcDbEntity
  8
実形
100
AcDbCircle
 10
566.1847832413022
 20
1659.517091367211
 30
0.0
 40
3.0
100
AcDbArc
 50
90.0
 51
180.0
  0
ARC
  5
1A6E
330
1F
100
AcDbEntity
  8
実形
100
AcDbCircle
 10
560.1847832413023
 20
1645.517091367211
 30
0.0
 40
3.0
100
AcDbArc
 50
270.0
 51
0.000000000000007
  0
LINE
  5
1A6F
330
1F
100
AcDbEntity
  8
実形
100
AcDbLine
 10
560.1847832413023
 20
1642.517091367211
 30
0.0
 11
388.1847832413023
 21
1642.517091367211
 31
0.0
  0
LINE
  5
1A73
330
1F
100
AcDbEntity
  8
実形
100
AcDbLine
 10
523.1847832413023
 20
1317.517091367211
 30
0.0
 11
523.1847832413023
 21
1497.517091367211
 31
0.0
  0
LINE
  5
1A77
330
1F
100
AcDbEntity
  8
実形
100
AcDbLine
 10
563.1847832413022
 20
1517.517091367211
 30
0.0
 11
523.1847832413023
 21
1497.517091367211
 31
0.0
  0
LINE
  5
1A78
330
1F
100
AcDbEntity
  8
実形
100
AcDbLine
 10
523.1847832413023
 20
1497.517091367211
 30
0.0
 11
523.1847832413023
 21
1317.517091367211
 31
0.0
  0
LINE
  5
1A79
330
1F
100
AcDbEntity
  8
実形
100
AcDbLine
 10
523.1847832413023
 20
1317.517091367211
 30
0.0
 11
563.1847832413022
 21
1297.517091367211
 31
0.0
  0
LINE
  5
1A7A
330
1F
100
AcDbEntity
  8
センター
 48
0.6
100
AcDbLine
 10
422.7132132932365
 20
1432.517091367211
 30
0.0
 11
293.5091534918647
 21
1432.517091367211
 31
0.0
  0
LINE
  5
22EB
330
1F
100
AcDbEntity
  8
実形
100
AcDbLine
 10
936.8007192941805
 20
861.427037316068
 30
0.0
 11
931.8007192941804
 21
858.4270373160679
 31
0.0
  0
LINE
  5
22EE
330
1F
100
AcDbEntity
  8
実形
100
AcDbLine
 10
1786.80071929418
 20
861.427037316068
 30
0.0
 11
1791.80071929418
 21
858.4270373160679
 31
0.0
  0
LINE
  5
22F1
330
1F
100
AcDbEntity
  8
実形
100
AcDbLine
 10
578.1847832413022
 20
1677.517091367211
 30
0.0
 11
575.1847832413022
 21
1682.517091367211
 31
0.0
  0
LINE
  5
22F4
330
1F
100
AcDbEntity
  8
実形
100
AcDbLine
 10
578.1847832413022
 20
1177.517091367211
 30
0.0
 11
575.1847832413022
 21
1172.517091367211
 31
0.0
  0
DIMENSION
  5
2376
330
1F
100
AcDbEntity
  8
寸法
100
AcDbDimension
  2
*D25
 10
2728.681082205087
 20
412.2432904202559
 30
0.0
 11
2664.316393789775
 21
412.2432904202559
 31
0.0
 70
   160
  1
20
 71
     5
 42
186.7969232992291
  3
ISO-25
100
AcDbAlignedDimension
 13
2541.884158905858
 23
372.1758909109342
 33
0.0
 14
2728.681082205087
 24
372.1758909109342
 34
0.0
100
AcDbRotatedDimension
1001
ACAD
1000
DSTYLE
1002
{
1070
    41
1040
40.0
1070
    42
1040
20.0
1002
}
  0
DIMENSION
  5
2377
330
1F
100
AcDbEntity
  8
寸法
100
AcDbDimension
  2
*D26
 10
2592.040005874708
 20
372.1758909109342
 30
0.0
 11
2592.040005874708
 21
458.5949910234858
 31
0.0
 70
   160
  1
15
 71
     5
 42
140.0976924744225
  3
ISO-25
100
AcDbAlignedDimension
 13
2541.884158905858
 23
512.2735833853567
 33
0.0
 14
2541.884158905858
 24
372.1758909109342
 34
0.0
 50
90.0
100
AcDbRotatedDimension
1001
ACAD
1000
DSTYLE
1002
{
1070
    41
1040
40.0
1070
    42
1040
20.0
1002
}
  0
DIMENSION
  5
2378
330
1F
100
AcDbEntity
  8
寸法
100
AcDbDimension
  2
*D27
 10
2223.10679045253
 20
362.8360447459727
 30
0.0
 11
2204.35679045253
 21
437.5548140656651
 31
0.0
 70
    32
  1
16
 71
     5
 42
149.437538639384
  3
ISO-25
100
AcDbAlignedDimension
 13
2355.087235606629
 23
512.2735833853567
 33
0.0
 14
2355.087235606629
 24
362.8360447459727
 34
0.0
 50
90.0
100
AcDbRotatedDimension
1001
ACAD
1000
DSTYLE
1002
{
1070
    41
1040
40.0
1070
    42
1040
45.0
1002
}
  0
LINE
  5
237C
330
1F
100
AcDbEntity
  8
実形
100
AcDbLine
 10
2532.544312740895
 20
502.9337372203952
 30
0.0
 11
2532.544312740895
 21
372.1758909109341
 31
0.0
  0
LINE
  5
237D
330
1F
100
AcDbEntity
  8
実形
100
AcDbLine
 10
2541.884158905856
 20
502.9337372203952
 30
0.0
 11
2541.884158905856
 21
372.1758909109341
 31
0.0
  0
ARC
  5
237F
330
1F
100
AcDbEntity
  8
実形
100
AcDbCircle
 10
2719.341236040125
 20
362.8360447459727
 30
0.0
 40
9.3398461649615
100
AcDbArc
 50
0.0
 51
90.0
  0
LINE
  5
2380
330
1F
100
AcDbEntity
  8
実形
100
AcDbLine
 10
2541.884158905856
 20
362.8360447459727
 30
0.0
 11
2719.341236040125
 21
362.8360447459727
 31
0.0
  0
LINE
  5
2381
330
1F
100
AcDbEntity
  8
実形
100
AcDbLine
 10
2541.884158905856
 20
372.1758909109341
 30
0.0
 11
2719.341236040125
 21
372.1758909109341
 31
0.0
  0
ARC
  5
2382
330
1F
100
AcDbEntity
  8
実形
100
AcDbCircle
 10
2541.884158905856
 20
372.1758909109341
 30
0.0
 40
9.3398461649615
100
AcDbArc
 50
180.0
 51
270.0
  0
LINE
  5
2383
330
1F
100
AcDbEntity
  8
実形
100
AcDbLine
 10
2719.341236040125
 20
362.8360447459727
 30
0.0
 11
2719.341236040125
 21
297.4571215912422
 31
0.0
  0
LINE
  5
2386
330
1F
100
AcDbEntity
  8
実形
100
AcDbLine
 10
2728.681082205087
 20
362.8360447459727
 30
0.0
 11
2728.681082205087
 21
297.4571215912422
 31
0.0
  0
LINE
  5
2387
330
1F
100
AcDbEntity
  8
実形
100
AcDbLine
 10
2402.055437015107
 20
512.2735833853566
 30
0.0
 11
2532.544312740895
 21
512.2735833853567
 31
0.0
  0
LINE
  5
2388
330
1F
100
AcDbEntity
  8
実形
100
AcDbLine
 10
2403.755646575089
 20
502.9337372203952
 30
0.0
 11
2532.544312740895
 21
502.9337372203952
 31
0.0
  0
DIMENSION
  5
2389
330
1F
100
AcDbEntity
  8
寸法
100
AcDbDimension
  2
*D28
 10
2541.884158905858
 20
631.0664425252025
 30
0.0
 11
2448.485697256243
 21
649.8164425252025
 31
0.0
 70
    32
  1
20
 71
     5
 42
186.7969232992291
  3
ISO-25
100
AcDbAlignedDimension
 13
2355.087235606629
 23
512.2735833853567
 33
0.0
 14
2541.884158905858
 24
512.2735833853567
 34
0.0
100
AcDbRotatedDimension
1001
ACAD
1000
DSTYLE
1002
{
1070
    41
1040
40.0
1070
    42
1040
45.0
1002
}
  0
TEXT
  5
238C
330
1F
100
AcDbEntity
  8
実形
100
AcDbText
 10
2286.3618625044
 20
709.3150658778859
 30
0.0
 40
30.0
  1
ツバ折込み詳細図
 11
2286.3618625044
 21
705.3150658778859
 31
0.0
100
AcDbText
 73
     1
  0
LINE
  5
238D
330
1F
100
AcDbEntity
  8
実形
100
AcDbLine
 10
2271.460337134939
 20
702.0477478275561
 30
0.0
 11
2583.641817231674
 21
702.0477478275561
 31
0.0
  0
LINE
  5
238E
330
1F
100
AcDbEntity
  8
実形
100
AcDbLine
 10
2271.460337134939
 20
697.0477478275561
 30
0.0
 11
2583.641817231674
 21
697.0477478275561
 31
0.0
  0
LINE
  5
238F
330
1F
100
AcDbEntity
  8
実形
100
AcDbLine
 10
2355.087235606629
 20
472.1779607216391
 30
0.0
 11
2395.23834475078
 21
509.5898155481335
 31
0.0
  0
ARC
  5
2390
330
1F
100
AcDbEntity
  8
実形
100
AcDbCircle
 10
2402.055437015107
 20
502.2735833853565
 30
0.0
 40
10.0
100
AcDbArc
 50
90.0
 51
132.9773528395669
  0
LINE
  5
2391
330
1F
100
AcDbEntity
  8
実形
100
AcDbLine
 10
2361.691612942911
 20
465.5735833853566
 30
0.0
 11
2400.347100442926
 21
501.5918533017837
 31
0.0
  0
ARC
  5
2392
330
1F
100
AcDbEntity
  8
実形
100
AcDbCircle
 10
2403.755646575089
 20
497.9337372203952
 30
0.0
 40
5.0
100
AcDbArc
 50
90.0
 51
132.9773528395669
  0
LINE
  5
2393
330
1F
100
AcDbEntity
  8
実形
100
AcDbLine
 10
2361.691612942911
 20
465.5735833853566
 30
0.0
 11
2355.087235606629
 21
472.1779607216391
 31
0.0
  0
DIMENSION
  5
2394
330
1F
100
AcDbEntity
  8
寸法
100
AcDbDimension
  2
*D29
 10
2275.965638979034
 20
465.5735833853566
 30
0.0
 11
2250.075589207659
 21
489.5176380222683
 31
0.0
 70
   160
  1
5
 71
     5
 42
46.7000000000001
  3
ISO-25
100
AcDbAlignedDimension
 13
2355.087235606629
 23
512.2735833853567
 33
0.0
 14
2355.087235606629
 24
465.5735833853566
 34
0.0
 50
90.0
100
AcDbRotatedDimension
1001
ACAD
1000
DSTYLE
1002
{
1070
   279
1070
     2
1070
    41
1040
40.0
1070
    42
1040
45.0
1002
}
  0
DIMENSION
  5
2395
330
1F
100
AcDbEntity
  8
寸法
100
AcDbDimension
  2
*D30
 10
2401.786466431435
 20
584.7147419219727
 30
0.0
 11
2378.436851019031
 21
603.4647419219727
 31
0.0
 70
    32
  1
5
 71
     5
 42
46.69923082480636
  3
ISO-25
100
AcDbAlignedDimension
 13
2355.087235606629
 23
512.2735833853567
 33
0.0
 14
2401.786466431435
 24
512.2735833853567
 34
0.0
100
AcDbRotatedDimension
1001
ACAD
1000
DSTYLE
1002
{
1070
    41
1040
40.0
1070
    42
1040
45.0
1002
}
  0
ARC
  5
2397
330
1F
100
AcDbEntity
  8
実形
100
AcDbCircle
 10
2532.544312740895
 20
502.9337372203952
 30
0.0
 40
9.3398461649615
100
AcDbArc
 50
0.0
 51
90.0
  0
LINE
  5
243E
330
1F
100
AcDbEntity
  8
実形
100
AcDbLine
 10
1231.30071929418
 20
651.4270373160679
 30
0.0
 11
1412.30071929418
 21
651.4270373160679
 31
0.0
  0
LINE
  5
243F
330
1F
100
AcDbEntity
  8
実形
100
AcDbLine
 10
1563.80071929418
 20
651.4270373160679
 30
0.0
 11
1679.80071929418
 21
651.4270373160679
 31
0.0
  0
LEADER
  5
24E6
330
1F
100
AcDbEntity
  8
0
100
AcDbLeader
  3
ISO-25
 40
25.0
 41
16.66666666666666
 76
     2
 10
990.9868223461453
 20
674.6587898268671
 30
0.0
 10
1066.885914901444
 20
733.1235552846447
 30
0.0
211
-1.0
221
0.0
231
0.0
213
0.0
223
-12.5
233
0.0
1001
ACAD
1000
DSTYLE
1002
{
1070
    41
1040
25.0
1070
   147
1040
6.25
1070
    77
1070
     0
1070
    73
1070
     1
1070
    74
1070
     1
1070
   279
1070
     1
1070
   342
1005
DA
1002
}
  0
DIMENSION
  5
2583
330
1F
100
AcDbEntity
  8
実形
100
AcDbDimension
  2
*D31
 10
1564.30071929418
 20
481.6961869903116
 30
0.0
 11
1621.80071929418
 21
500.4461869903116
 31
0.0
 70
    32
 71
     5
 42
115.0
  3
ISO-25
100
AcDbAlignedDimension
 13
1679.30071929418
 23
651.4270373160679
 33
0.0
 14
1564.30071929418
 24
651.4270373160679
 34
0.0
 50
180.0
100
AcDbRotatedDimension
1001
ACAD
1000
DSTYLE
1002
{
1070
   279
1070
     2
1070
   289
1070
     0
1070
   371
1070
    18
1070
   372
1070
    18
1002
}
  0
LINE
  5
2591
330
1F
100
AcDbEntity
  8
実形
100
AcDbLine
 10
1564.30071929418
 20
641.427037316068
 30
0.0
 11
1679.30071929418
 21
641.427037316068
 31
0.0
  0
LINE
  5
2592
330
1F
100
AcDbEntity
  8
実形
100
AcDbLine
 10
1577.80071929418
 20
651.4270373160679
 30
0.0
 11
1665.80071929418
 21
651.4270373160679
 31
0.0
  0
DIMENSION
  5
2593
330
1F
100
AcDbEntity
  8
実形
100
AcDbDimension
  2
*D32
 10
1574.80071929418
 20
522.1167654009923
 30
0.0
 11
1621.80071929418
 21
540.8667654009923
 31
0.0
 70
    32
 71
     5
 42
94.0
  3
ISO-25
100
AcDbAlignedDimension
 13
1668.80071929418
 23
651.4270373160679
 33
0.0
 14
1574.80071929418
 24
651.4270373160679
 34
0.0
 50
180.0
100
AcDbRotatedDimension
1001
ACAD
1000
DSTYLE
1002
{
1070
   279
1070
     2
1070
   289
1070
     0
1070
   371
1070
    18
1070
   372
1070
    18
1002
}
  0
LINE
  5
25B2
330
1F
100
AcDbEntity
  8
実形
100
AcDbLine
 10
1231.30071929418
 20
641.427037316068
 30
0.0
 11
1412.30071929418
 21
641.427037316068
 31
0.0
  0
LINE
  5
25B7
330
1F
100
AcDbEntity
  8
実形
100
AcDbLine
 10
1241.80071929418
 20
651.427037316068
 30
0.0
 11
1401.80071929418
 21
651.4270373160679
 31
0.0
  0
DIMENSION
  5
25B9
330
1F
100
AcDbEntity
  8
実形
100
AcDbDimension
  2
*D33
 10
1241.80071929418
 20
527.1167654009923
 30
0.0
 11
1321.80071929418
 21
545.8667654009923
 31
0.0
 70
    32
 71
     5
 42
160.0
  3
ISO-25
100
AcDbAlignedDimension
 13
1401.80071929418
 23
651.4270373160679
 33
0.0
 14
1241.80071929418
 24
651.427037316068
 34
0.0
 50
180.0
100
AcDbRotatedDimension
1001
ACAD
1000
DSTYLE
1002
{
1070
   279
1070
     2
1070
   289
1070
     0
1070
   371
1070
    18
1070
   372
1070
    18
1002
}
  0
DIMENSION
  5
25C6
330
1F
100
AcDbEntity
  8
実形
100
AcDbDimension
  2
*D34
 10
1231.30071929418
 20
486.6961869903116
 30
0.0
 11
1321.80071929418
 21
505.4461869903116
 31
0.0
 70
    32
 71
     5
 42
181.0
  3
ISO-25
100
AcDbAlignedDimension
 13
1412.30071929418
 23
651.4270373160679
 33
0.0
 14
1231.30071929418
 24
651.4270373160679
 34
0.0
 50
180.0
100
AcDbRotatedDimension
1001
ACAD
1000
DSTYLE
1002
{
1070
   279
1070
     2
1070
   289
1070
     0
1070
   371
1070
    18
1070
   372
1070
    18
1002
}
  0
LINE
  5
25D3
330
1F
100
AcDbEntity
  8
実形
100
AcDbLine
 10
358.1847832413023
 20
1523.017091367211
 30
0.0
 11
358.1847832413023
 21
1342.017091367211
 31
0.0
  0
LEADER
  5
2662
330
1F
100
AcDbEntity
  8
0
100
AcDbLeader
  3
ISO-25
 40
25.0
 41
16.66666666666666
 76
     2
 10
1729.131111780205
 20
676.6256203606426
 30
0.0
 10
1665.731556607494
 20
729.7724992509775
 30
0.0
211
-1.0
221
0.0
231
0.0
213
0.0
223
-12.5
233
0.0
1001
ACAD
1000
DSTYLE
1002
{
1070
    41
1040
25.0
1070
   147
1040
6.25
1070
    77
1070
     0
1070
    73
1070
     1
1070
    74
1070
     1
1070
   279
1070
     1
1070
   342
1005
DA
1002
}
  0
LEADER
  5
2680
330
1F
100
AcDbEntity
  8
寸法
100
AcDbLeader
  3
ISO-25
 76
     2
 10
958.8774020788205
 20
1664.845828298361
 30
0.0
 10
926.9326238960292
 20
1725.960012080809
 30
0.0
211
-1.0
221
0.0
231
0.0
1001
ACAD
1000
DSTYLE
1002
{
1070
    41
1040
25.0
1070
   147
1040
6.25
1070
    77
1070
     0
1002
}
  0
ARC
  5
2681
330
1F
100
AcDbEntity
  8
実形
100
AcDbCircle
 10
981.8007192941802
 20
1632.517091367211
 30
0.0
 40
30.0
100
AcDbArc
 50
90.0
 51
180.0
  0
ARC
  5
2936
330
1F
100
AcDbEntity
  8
実形
100
AcDbCircle
 10
991.80071929418
 20
1622.517091367211
 30
0.0
 40
20.0
100
AcDbArc
 50
90.00000000000003
 51
180.0000000000001
  0
ARC
  5
2937
330
1F
100
AcDbEntity
  8
実形
100
AcDbCircle
 10
1451.80071929418
 20
1622.517091367211
 30
0.0
 40
20.0
100
AcDbArc
 50
0.000000000000007
 51
90.00000000000003
  0
ARC
  5
2938
330
1F
100
AcDbEntity
  8
実形
100
AcDbCircle
 10
991.8007192941809
 20
1232.517091367211
 30
0.0
 40
20.0
100
AcDbArc
 50
180.0000000000001
 51
270.0
  0
ARC
  5
2939
330
1F
100
AcDbEntity
  8
実形
100
AcDbCircle
 10
1451.80071929418
 20
1232.517091367211
 30
0.0
 40
20.0
100
AcDbArc
 50
270.0
 51
0.000000000000007
  0
ARC
  5
293A
330
1F
100
AcDbEntity
  8
実形
100
AcDbCircle
 10
1511.80071929418
 20
1232.517091367211
 30
0.0
 40
20.0
100
AcDbArc
 50
180.0
 51
270.0
  0
ARC
  5
293B
330
1F
100
AcDbEntity
  8
実形
100
AcDbCircle
 10
1731.80071929418
 20
1577.517091367211
 30
0.0
 40
20.0
100
AcDbArc
 50
0.000000000000007
 51
90.0
  0
ARC
  5
293C
330
1F
100
AcDbEntity
  8
実形
100
AcDbCircle
 10
1731.80071929418
 20
1232.51709136721
 30
0.0
 40
20.0
100
AcDbArc
 50
270.0
 51
0.000000000000007
  0
ARC
  5
293D
330
1F
100
AcDbEntity
  8
実形
100
AcDbCircle
 10
1511.80071929418
 20
1577.517091367211
 30
0.0
 40
20.0
100
AcDbArc
 50
90.0
 51
180.0
  0
LINE
  5
2ADA
330
1F
100
AcDbEntity
  8
実形
100
AcDbLine
 10
1563.80071929418
 20
651.4270373160679
 30
0.0
 11
1511.80071929418
 21
651.4270373160679
 31
0.0
  0
LINE
  5
2ADB
330
1F
100
AcDbEntity
  8
実形
100
AcDbLine
 10
1679.80071929418
 20
651.4270373160679
 30
0.0
 11
1731.80071929418
 21
651.4270373160679
 31
0.0
  0
ARC
  5
2ADC
330
1F
100
AcDbEntity
  8
実形
100
AcDbCircle
 10
1511.80071929418
 20
671.4270373160679
 30
0.0
 40
20.0
100
AcDbArc
 50
180.0
 51
270.0
  0
ARC
  5
2ADD
330
1F
100
AcDbEntity
  8
実形
100
AcDbCircle
 10
1731.80071929418
 20
671.427037316068
 30
0.0
 40
20.0
100
AcDbArc
 50
270.0
 51
0.000000000000007
  0
LINE
  5
2ADF
330
1F
100
AcDbEntity
  8
実形
100
AcDbLine
 10
1412.30071929418
 20
651.4270373160679
 30
0.0
 11
1451.80071929418
 21
651.4270373160679
 31
0.0
  0
ARC
  5
2AE0
330
1F
100
AcDbEntity
  8
実形
100
AcDbCircle
 10
1451.80071929418
 20
671.427037316068
 30
0.0
 40
20.0
100
AcDbArc
 50
270.0
 51
0.0000000000000833
  0
LINE
  5
2AE4
330
1F
100
AcDbEntity
  8
実形
100
AcDbLine
 10
1231.30071929418
 20
651.4270373160679
 30
0.0
 11
991.0305780009647
 21
660.6860022984652
 31
0.0
  0
ARC
  5
2AE5
330
1F
100
AcDbEntity
  8
実形
100
AcDbCircle
 10
991.80071929418
 20
680.671168857403
 30
0.0
 40
20.0
100
AcDbArc
 50
179.9999999999998
 51
267.7931621031884
  0
LINE
  5
2C79
330
1F
100
AcDbEntity
  8
実形
100
AcDbLine
 10
368.1847832413023
 20
1342.017091367211
 30
0.0
 11
368.1847832413023
 21
1232.517091367211
 31
0.0
  0
LINE
  5
2C7A
330
1F
100
AcDbEntity
  8
実形
100
AcDbLine
 10
368.1847832413023
 20
1523.017091367211
 30
0.0
 11
368.1847832413023
 21
1622.517091367211
 31
0.0
  0
ARC
  5
2C7B
330
1F
100
AcDbEntity
  8
実形
100
AcDbCircle
 10
388.1847832413023
 20
1622.517091367211
 30
0.0
 40
20.0
100
AcDbArc
 50
90.00000000000007
 51
180.0
  0
ARC
  5
2C7C
330
1F
100
AcDbEntity
  8
実形
100
AcDbCircle
 10
388.1847832413023
 20
1232.517091367211
 30
0.0
 40
20.0
100
AcDbArc
 50
180.0
 51
270.0
  0
LINE
  5
2CCD
330
1F
100
AcDbEntity
  8
実形
100
AcDbLine
 10
558.8268183131749
 20
1517.517091367211
 30
0.0
 11
551.7774525721852
 21
1517.517091367211
 31
0.0
  0
LINE
  5
2CCE
330
1F
100
AcDbEntity
  8
実形
100
AcDbLine
 10
523.1847832413023
 20
1500.421663366697
 30
0.0
 11
523.1847832413023
 21
1506.285228291392
 31
0.0
  0
LINE
  5
2CCF
330
1F
100
AcDbEntity
  8
実形
100
AcDbLine
 10
523.1847832413027
 20
1512.284974729753
 30
0.0
 11
523.1847832413027
 21
1517.51709136721
 31
0.0
  0
LINE
  5
2CD1
330
1F
100
AcDbEntity
  8
実形
100
AcDbLine
 10
543.0615227159196
 20
1517.517091367211
 30
0.0
 11
523.1847832413027
 21
1517.51709136721
 31
0.0
  0
DIMENSION
  5
2CD2
330
1F
100
AcDbEntity
  8
実形
100
AcDbDimension
  2
*D35
 10
523.1847832413027
 20
1550.569449279112
 30
0.0
 11
537.1987028504063
 21
1572.50817979203
 31
0.0
 70
   160
 71
     5
 42
39.99999999999955
  3
ISO-25
100
AcDbAlignedDimension
 13
563.1847832413022
 23
1470.358071531854
 33
0.0
 14
523.1847832413027
 24
1470.358071531854
 34
0.0
 50
180.0
100
AcDbRotatedDimension
1001
ACAD
1000
DSTYLE
1002
{
1070
   282
1070
     1
1070
   281
1070
     1
1070
    76
1070
     1
1070
    75
1070
     1
1070
   172
1070
     1
1070
   279
1070
     2
1070
   289
1070
     0
1070
   371
1070
    18
1070
   372
1070
    18
1002
}
  0
LINE
  5
2CEC
330
1F
100
AcDbEntity
  8
実形
100
AcDbLine
 10
523.1847832413027
 20
1535.358071531853
 30
0.0
 11
523.1847832413027
 21
1550.569449279112
 31
0.0
  0
LINE
  5
2CED
330
1F
100
AcDbEntity
  8
実形
100
AcDbLine
 10
523.1847832413027
 20
1550.569449279112
 30
0.0
 11
563.1847832413022
 21
1550.569449279112
 31
0.0
  0
TEXT
  5
2D2D
330
1F
100
AcDbEntity
  8
実形
370
    18
100
AcDbText
 10
528.3284960641813
 20
1546.337940971172
 30
0.0
 40
10.0
  1
●
 71
     2
100
AcDbText
  0
TEXT
  5
2D35
330
1F
100
AcDbEntity
  8
実形
370
    18
100
AcDbText
 10
567.311937646069
 20
1546.337940971172
 30
0.0
 40
10.0
  1
●
 71
     2
100
AcDbText
  0
DIMENSION
  5
2DCE
330
1F
100
AcDbEntity
  8
実形
100
AcDbDimension
  2
*D36
 10
471.0203906377882
 20
1317.517091367211
 30
0.0
 11
447.883948812987
 21
1407.702330559448
 31
0.0
 70
   160
 71
     5
 42
180.0
  3
ISO-25
100
AcDbAlignedDimension
 13
564.7941027996076
 23
1497.517091367211
 33
0.0
 14
564.7941027996076
 24
1317.517091367211
 34
0.0
 50
90.0
100
AcDbRotatedDimension
1001
ACAD
1000
DSTYLE
1002
{
1070
   279
1070
     2
1070
   289
1070
     0
1070
   371
1070
    18
1070
   372
1070
    18
1002
}
  0
DIMENSION
  5
2DE4
330
1F
100
AcDbEntity
  8
実形
100
AcDbDimension
  2
*D37
 10
471.0203906377882
 20
1317.517091367211
 30
0.0
 11
448.1173475982814
 21
1509.265617030804
 31
0.0
 70
   160
  1
20
 71
     5
 42
199.9999999999998
  3
ISO-25
100
AcDbAlignedDimension
 13
565.9700314372148
 23
1517.51709136721
 33
0.0
 14
535.7830593165872
 24
1317.517091367211
 34
0.0
 50
90.0
100
AcDbRotatedDimension
1001
ACAD
1000
DSTYLE
1002
{
1070
   282
1070
     1
1070
   281
1070
     1
1070
   279
1070
     2
1070
   289
1070
     0
1070
   371
1070
    18
1070
   372
1070
    18
1002
}
  0
LINE
  5
2E32
330
1F
100
AcDbEntity
  8
実形
100
AcDbLine
 10
471.0203906377882
 20
1497.517091367211
 30
0.0
 11
471.0203906377882
 21
1517.51709136721
 31
0.0
  0
TEXT
  5
2E3B
330
1F
100
AcDbEntity
  8
実形
370
    18
100
AcDbText
 10
476.2576113917439
 20
1511.925628855797
 30
0.0
 40
10.0
  1
●
 71
     2
100
AcDbText
  0
LINE
  5
2E3D
330
1F
100
AcDbEntity
  8
実形
100
AcDbLine
 10
557.9612492486867
 20
1297.517091367211
 30
0.0
 11
547.00891218371
 21
1297.517091367211
 31
0.0
  0
LINE
  5
2E3E
330
1F
100
AcDbEntity
  8
実形
100
AcDbLine
 10
523.1847832413023
 20
1314.431253413818
 30
0.0
 11
523.1847832413023
 21
1307.02393246841
 31
0.0
  0
LINE
  5
2E3F
330
1F
100
AcDbEntity
  8
実形
100
AcDbLine
 10
523.1847832413023
 20
1307.517091367211
 30
0.0
 11
523.1847832413023
 21
1307.261303669938
 31
0.0
  0
LINE
  5
2E40
330
1F
100
AcDbEntity
  8
実形
100
AcDbLine
 10
523.1847832413023
 20
1302.517091367211
 30
0.0
 11
523.1847832413023
 21
1297.517091367211
 31
0.0
  0
LINE
  5
2E42
330
1F
100
AcDbEntity
  8
実形
100
AcDbLine
 10
538.6567124230187
 20
1297.517091367211
 30
0.0
 11
523.1847832413023
 21
1297.517091367211
 31
0.0
  0
DIMENSION
  5
2E43
330
1F
100
AcDbEntity
  8
実形
100
AcDbDimension
  2
*D38
 10
470.7830593165872
 20
1297.517091367211
 30
0.0
 11
449.1750352004692
 21
1307.296217284442
 31
0.0
 70
   160
  1
20
 71
     5
 42
219.9999999999998
  3
ISO-25
100
AcDbAlignedDimension
 13
543.0615227159196
 23
1517.517091367211
 33
0.0
 14
563.1847832413022
 24
1297.517091367211
 34
0.0
 50
90.0
100
AcDbRotatedDimension
1001
ACAD
1000
DSTYLE
1002
{
1070
   281
1070
     1
1070
   282
1070
     1
1070
   279
1070
     2
1070
   289
1070
     0
1070
   371
1070
    18
1070
   372
1070
    18
1002
}
  0
LINE
  5
2E8E
330
1F
100
AcDbEntity
  8
実形
100
AcDbLine
 10
471.0203906377882
 20
1315.329591367211
 30
0.0
 11
471.0203906377882
 21
1297.517091367211
 31
0.0
  0
LINE
  5
2E8F
330
1F
100
AcDbEntity
  8
実形
100
AcDbLine
 10
471.0203906377882
 20
1297.517091367211
 30
0.0
 11
471.0203906377882
 21
1317.517091367211
 31
0.0
  0
TEXT
  5
2E98
330
1F
100
AcDbEntity
  8
実形
370
    18
100
AcDbText
 10
475.1617211226021
 20
1292.844454381977
 30
0.0
 40
10.0
  1
●
 71
     2
100
AcDbText
  0
LINE
  5
309F
330
1F
100
AcDbEntity
  8
実形
  6
ACAD_ISO08W100
100
AcDbLine
 10
378.1847832413023
 20
1622.517091367211
 30
0.0
 11
378.1847832413018
 21
1232.517091367211
 31
0.0
  0
ARC
  5
30A2
330
1F
100
AcDbEntity
  8
実形
100
AcDbCircle
 10
398.1847832413023
 20
1622.517091367211
 30
0.0
 40
20.0
100
AcDbArc
 50
90.0
 51
180.0
  0
ARC
  5
30A3
330
1F
100
AcDbEntity
  8
実形
100
AcDbCircle
 10
398.1847832413018
 20
1232.517091367211
 30
0.0
 40
20.0
100
AcDbArc
 50
180.0
 51
270.0
  0
DIMENSION
  5
3224
330
1F
100
AcDbEntity
  8
実形
100
AcDbDimension
  2
*D40
 10
378.1847832413018
 20
1090.640767961284
 30
0.0
 11
613.3562693042494
 21
1109.390767961284
 31
0.0
 70
   160
  1
15
 71
     5
 42
200.0000000000004
  3
ISO-25
100
AcDbAlignedDimension
 13
578.1847832413022
 23
1198.992507324763
 33
0.0
 14
378.1847832413018
 24
1198.992507324763
 34
0.0
 50
180.0
100
AcDbRotatedDimension
1001
ACAD
1000
DSTYLE
1002
{
1070
   282
1070
     1
1070
   281
1070
     1
1070
    76
1070
     1
1070
    75
1070
     1
1070
   279
1070
     2
1070
   289
1070
     0
1070
   371
1070
    18
1070
   372
1070
    18
1002
}
  0
DIMENSION
  5
3231
330
1F
100
AcDbEntity
  8
実形
100
AcDbDimension
  2
*D41
 10
378.1847832413018
 20
1090.640767961284
 30
0.0
 11
470.6847832413022
 21
1109.390767961284
 31
0.0
 70
    32
 71
     5
 42
185.0000000000009
  3
ISO-25
100
AcDbAlignedDimension
 13
563.1847832413027
 23
1198.992507324763
 33
0.0
 14
378.1847832413018
 24
1198.992507324763
 34
0.0
 50
180.0
100
AcDbRotatedDimension
1001
ACAD
1000
DSTYLE
1002
{
1070
   279
1070
     2
1070
   289
1070
     0
1070
   371
1070
    18
1070
   372
1070
    18
1002
}
  0
LINE
  5
325D
330
1F
100
AcDbEntity
  8
実形
100
AcDbLine
 10
578.1847832413022
 20
1133.992507324763
 30
0.0
 11
578.1847832413022
 21
1090.640767961284
 31
0.0
  0
LINE
  5
325E
330
1F
100
AcDbEntity
  8
実形
100
AcDbLine
 10
578.1847832413022
 20
1090.640767961284
 30
0.0
 11
563.1847832413027
 21
1090.640767961284
 31
0.0
  0
TEXT
  5
3281
330
1F
100
AcDbEntity
  8
実形
370
    18
100
AcDbText
 10
582.9160337692647
 20
1085.884973442926
 30
0.0
 40
10.0
  1
●
 71
     2
100
AcDbText
  0
DIMENSION
  5
3286
330
1F
100
AcDbEntity
  8
実形
100
AcDbDimension
  2
*D42
 10
378.1847832413018
 20
1042.418202794422
 30
0.0
 11
466.0405054995335
 21
1061.168202794422
 31
0.0
 70
   160
 71
     5
 42
200.0000000000004
  3
ISO-25
100
AcDbAlignedDimension
 13
578.1847832413022
 23
1198.992507324763
 33
0.0
 14
378.1847832413018
 24
1198.992507324763
 34
0.0
 50
180.0
100
AcDbRotatedDimension
1001
ACAD
1000
DSTYLE
1002
{
1070
   279
1070
     2
1070
   289
1070
     0
1070
   371
1070
    18
1070
   372
1070
    18
1002
}
  0
DIMENSION
  5
32CD
330
1F
100
AcDbEntity
  8
実形
100
AcDbDimension
  2
*D43
 10
368.1847832413023
 20
1042.418202794422
 30
0.0
 11
335.5667115073757
 21
1061.168202794422
 31
0.0
 70
   160
  1
10
 71
     5
 42
210.0
  3
ISO-25
100
AcDbAlignedDimension
 13
578.1847832413022
 23
1154.106076856789
 33
0.0
 14
368.1847832413023
 24
1154.106076856789
 34
0.0
 50
180.0
100
AcDbRotatedDimension
1001
ACAD
1000
DSTYLE
1002
{
1070
   282
1070
     1
1070
   281
1070
     1
1070
   279
1070
     2
1070
   289
1070
     0
1070
   371
1070
    18
1070
   372
1070
    18
1002
}
  0
LINE
  5
333A
330
1F
100
AcDbEntity
  8
実形
100
AcDbLine
 10
378.1847832413018
 20
1042.418202794422
 30
0.0
 11
368.1847832413023
 21
1042.418202794422
 31
0.0
  0
TEXT
  5
3343
330
1F
100
AcDbEntity
  8
実形
370
    18
100
AcDbText
 10
372.4495538582833
 20
1037.380414347366
 30
0.0
 40
10.0
  1
●
 71
     2
100
AcDbText
  0
DIMENSION
  5
3344
330
1F
100
AcDbEntity
  8
実形
100
AcDbDimension
  2
*D44
 10
368.1847832413023
 20
989.8704398109293
 30
0.0
 11
473.1847832413023
 21
1008.620439810929
 31
0.0
 70
    32
 71
     5
 42
210.0
  3
ISO-25
100
AcDbAlignedDimension
 13
578.1847832413022
 23
1154.106076856789
 33
0.0
 14
368.1847832413023
 24
1123.476731055188
 34
0.0
 50
180.0
100
AcDbRotatedDimension
1001
ACAD
1000
DSTYLE
1002
{
1070
   279
1070
     2
1070
   289
1070
     0
1070
   371
1070
    18
1070
   372
1070
    18
1002
}
  0
DIMENSION
  5
3351
330
1F
100
AcDbEntity
  8
実形
100
AcDbDimension
  2
*D45
 10
358.1847832413028
 20
989.8704398109293
 30
0.0
 11
329.1043018646833
 21
1008.620439810929
 31
0.0
 70
   160
  1
8
 71
     5
 42
219.9999999999995
  3
ISO-25
100
AcDbAlignedDimension
 13
578.1847832413022
 23
1154.106076856789
 33
0.0
 14
358.1847832413028
 24
1142.403242481072
 34
0.0
 50
180.0
100
AcDbRotatedDimension
1001
ACAD
1000
DSTYLE
1002
{
1070
   282
1070
     1
1070
   281
1070
     1
1070
    76
1070
     1
1070
    75
1070
     1
1070
   279
1070
     2
1070
   289
1070
     0
1070
   371
1070
    18
1070
   372
1070
    18
1002
}
  0
LINE
  5
339E
330
1F
100
AcDbEntity
  8
実形
100
AcDbLine
 10
368.1847832413023
 20
989.8704398109293
 30
0.0
 11
358.1162563124581
 21
989.8704398109293
 31
0.0
  0
LINE
  5
339F
330
1F
100
AcDbEntity
  8
実形
100
AcDbLine
 10
358.1162563124581
 20
989.8704398109293
 30
0.0
 11
358.1162563124581
 21
1038.095311348708
 31
0.0
  0
TEXT
  5
33B0
330
1F
100
AcDbEntity
  8
実形
370
    18
100
AcDbText
 10
363.0403876265936
 20
984.7294690157506
 30
0.0
 40
10.0
  1
●
 71
     2
100
AcDbText
  0
DIMENSION
  5
33B1
330
1F
100
AcDbEntity
  8
実形
100
AcDbDimension
  2
*D46
 10
358.1847832413028
 20
938.7570792024162
 30
0.0
 11
468.1847832413025
 21
957.5070792024162
 31
0.0
 70
    32
  1
218
 71
     5
 42
219.9999999999995
  3
ISO-25
100
AcDbAlignedDimension
 13
578.1847832413022
 23
1154.106076856789
 33
0.0
 14
358.1847832413028
 24
1063.046778957103
 34
0.0
 50
180.0
100
AcDbRotatedDimension
1001
ACAD
1000
DSTYLE
1002
{
1070
   279
1070
     2
1070
   289
1070
     0
1070
   371
1070
    18
1070
   372
1070
    18
1002
}
  0
LINE
  5
340C
330
1F
100
AcDbEntity
  8
実形
100
AcDbLine
 10
2122.756977120949
 20
1177.517091367211
 30
0.0
 11
2122.756977120949
 21
1677.517091367211
 31
0.0
  0
LINE
  5
340D
330
1F
100
AcDbEntity
  8
実形
100
AcDbLine
 10
2137.756977120949
 20
1600.51709136721
 30
0.0
 11
2137.756977120949
 21
1645.517091367211
 31
0.0
  0
LINE
  5
340E
330
1F
100
AcDbEntity
  8
実形
100
AcDbLine
 10
2137.756977120949
 20
1209.517091367211
 30
0.0
 11
2137.756977120949
 21
1195.517091367211
 31
0.0
  0
LINE
  5
340F
330
1F
100
AcDbEntity
  8
実形
100
AcDbLine
 10
2134.756977120949
 20
1192.517091367211
 30
0.0
 11
2122.756977120949
 21
1192.517091367211
 31
0.0
  0
LINE
  5
3410
330
1F
100
AcDbEntity
  8
実形
100
AcDbLine
 10
2122.756977120949
 20
1182.517091367211
 30
0.0
 11
2138.756977120949
 21
1182.517091367211
 31
0.0
  0
ARC
  5
3411
330
1F
100
AcDbEntity
  8
実形
100
AcDbCircle
 10
2134.756977120949
 20
1195.517091367211
 30
0.0
 40
3.0
100
AcDbArc
 50
270.0
 51
0.000000000000007
  0
ARC
  5
3412
330
1F
100
AcDbEntity
  8
実形
100
AcDbCircle
 10
2140.756977120949
 20
1209.517091367211
 30
0.0
 40
3.0
100
AcDbArc
 50
90.0
 51
180.0
  0
LINE
  5
3413
330
1F
100
AcDbEntity
  8
実形
100
AcDbLine
 10
2303.657410987597
 20
1212.517091367211
 30
0.0
 11
2140.756977120949
 21
1212.517091367211
 31
0.0
  0
LINE
  5
3414
330
1F
100
AcDbEntity
  8
実形
100
AcDbLine
 10
2332.756977120949
 20
1578.017091367211
 30
0.0
 11
2332.756977120949
 21
1429.517091367211
 31
0.0
  0
LINE
  5
3417
330
1F
100
AcDbEntity
  8
実形
100
AcDbLine
 10
2122.756977120949
 20
1662.517091367211
 30
0.0
 11
2134.756977120949
 21
1662.517091367211
 31
0.0
  0
LINE
  5
3418
330
1F
100
AcDbEntity
  8
実形
100
AcDbLine
 10
2137.756977120949
 20
1659.517091367211
 30
0.0
 11
2137.756977120949
 21
1645.517091367211
 31
0.0
  0
LINE
  5
3419
330
1F
100
AcDbEntity
  8
実形
100
AcDbLine
 10
2122.756977120949
 20
1672.517091367211
 30
0.0
 11
2138.756977120949
 21
1672.517091367211
 31
0.0
  0
ARC
  5
341A
330
1F
100
AcDbEntity
  8
実形
100
AcDbCircle
 10
2134.756977120949
 20
1659.517091367211
 30
0.0
 40
3.0
100
AcDbArc
 50
0.000000000000007
 51
90.0
  0
LINE
  5
341E
330
1F
100
AcDbEntity
  8
実形
100
AcDbLine
 10
2177.756977120949
 20
1317.517091367211
 30
0.0
 11
2177.756977120949
 21
1497.517091367211
 31
0.0
  0
LINE
  5
341F
330
1F
100
AcDbEntity
  8
実形
100
AcDbLine
 10
2137.756977120949
 20
1517.517091367211
 30
0.0
 11
2177.756977120949
 21
1497.517091367211
 31
0.0
  0
LINE
  5
3420
330
1F
100
AcDbEntity
  8
実形
100
AcDbLine
 10
2177.756977120949
 20
1497.517091367211
 30
0.0
 11
2177.756977120949
 21
1317.517091367211
 31
0.0
  0
LINE
  5
3421
330
1F
100
AcDbEntity
  8
実形
100
AcDbLine
 10
2177.756977120949
 20
1317.517091367211
 30
0.0
 11
2137.756977120949
 21
1297.517091367211
 31
0.0
  0
LINE
  5
3422
330
1F
100
AcDbEntity
  8
センター
 48
0.6
100
AcDbLine
 10
2278.947374897674
 20
1487.517091367211
 30
0.0
 11
2376.725794689246
 21
1487.517091367211
 31
0.0
  0
LINE
  5
3423
330
1F
100
AcDbEntity
  8
実形
100
AcDbLine
 10
2122.756977120949
 20
1677.517091367211
 30
0.0
 11
2125.756977120949
 21
1682.517091367211
 31
0.0
  0
LINE
  5
3424
330
1F
100
AcDbEntity
  8
実形
100
AcDbLine
 10
2122.756977120949
 20
1177.517091367211
 30
0.0
 11
2125.756977120949
 21
1172.517091367211
 31
0.0
  0
LINE
  5
3425
330
1F
100
AcDbEntity
  8
実形
100
AcDbLine
 10
2342.756977120949
 20
1545.017091367211
 30
0.0
 11
2342.756977120949
 21
1430.017091367211
 31
0.0
  0
LINE
  5
342A
330
1F
100
AcDbEntity
  8
実形
100
AcDbLine
 10
2332.756977120949
 20
1523.017091367211
 30
0.0
 11
2332.756977120949
 21
1577.517091367211
 31
0.0
  0
LINE
  5
342C
330
1F
100
AcDbEntity
  8
実形
100
AcDbLine
 10
2142.114942049076
 20
1517.517091367211
 30
0.0
 11
2149.164307790066
 21
1517.517091367211
 31
0.0
  0
LINE
  5
342D
330
1F
100
AcDbEntity
  8
実形
100
AcDbLine
 10
2157.880237646332
 20
1517.517091367211
 30
0.0
 11
2177.756977120949
 21
1517.51709136721
 31
0.0
  0
LINE
  5
342E
330
1F
100
AcDbEntity
  8
実形
100
AcDbLine
 10
2177.756977120949
 20
1500.421663366697
 30
0.0
 11
2177.756977120949
 21
1506.285228291392
 31
0.0
  0
LINE
  5
342F
330
1F
100
AcDbEntity
  8
実形
100
AcDbLine
 10
2177.756977120949
 20
1512.284974729753
 30
0.0
 11
2177.756977120949
 21
1517.51709136721
 31
0.0
  0
DIMENSION
  5
3430
330
1F
100
AcDbEntity
  8
実形
100
AcDbDimension
  2
*D54
 10
2177.756977120949
 20
1550.569449279112
 30
0.0
 11
2163.743057511845
 21
1572.50817979203
 31
0.0
 70
   160
 71
     5
 42
39.99999999999955
  3
ISO-25
100
AcDbAlignedDimension
 13
2137.756977120949
 23
1470.358071531854
 33
0.0
 14
2177.756977120949
 24
1470.358071531854
 34
0.0
 50
0.000000000000007
100
AcDbRotatedDimension
1001
ACAD
1000
DSTYLE
1002
{
1070
   282
1070
     1
1070
   281
1070
     1
1070
    76
1070
     1
1070
    75
1070
     1
1070
   172
1070
     1
1070
   279
1070
     2
1070
   289
1070
     0
1070
   371
1070
    18
1070
   372
1070
    18
1002
}
  0
LINE
  5
3431
330
1F
100
AcDbEntity
  8
実形
100
AcDbLine
 10
2177.756977120949
 20
1535.358071531853
 30
0.0
 11
2177.756977120949
 21
1550.569449279112
 31
0.0
  0
LINE
  5
3432
330
1F
100
AcDbEntity
  8
実形
100
AcDbLine
 10
2177.756977120949
 20
1550.569449279112
 30
0.0
 11
2137.756977120949
 21
1550.569449279112
 31
0.0
  0
TEXT
  5
3433
330
1F
100
AcDbEntity
  8
実形
370
    18
100
AcDbText
 10
2172.61326429807
 20
1546.337940971172
 30
0.0
 40
10.0
  1
●
100
AcDbText
  0
TEXT
  5
3434
330
1F
100
AcDbEntity
  8
実形
370
    18
100
AcDbText
 10
2133.629822716182
 20
1546.337940971172
 30
0.0
 40
10.0
  1
●
100
AcDbText
  0
DIMENSION
  5
3435
330
1F
100
AcDbEntity
  8
実形
100
AcDbDimension
  2
*D55
 10
2229.921369724463
 20
1317.517091367211
 30
0.0
 11
2211.171369724463
 21
1407.517091367211
 31
0.0
 70
    32
 71
     5
 42
180.0
  3
ISO-25
100
AcDbAlignedDimension
 13
2136.147657562644
 23
1497.517091367211
 33
0.0
 14
2136.147657562644
 24
1317.517091367211
 34
0.0
 50
90.0
100
AcDbRotatedDimension
1001
ACAD
1000
DSTYLE
1002
{
1070
   279
1070
     2
1070
   289
1070
     0
1070
   371
1070
    18
1070
   372
1070
    18
1002
}
  0
DIMENSION
  5
3436
330
1F
100
AcDbEntity
  8
実形
100
AcDbDimension
  2
*D56
 10
2229.921369724463
 20
1317.517091367211
 30
0.0
 11
2211.171369724463
 21
1552.35624539669
 31
0.0
 70
   160
  1
20
 71
     5
 42
199.9999999999998
  3
ISO-25
100
AcDbAlignedDimension
 13
2134.971728925037
 23
1517.51709136721
 33
0.0
 14
2165.158701045664
 24
1317.517091367211
 34
0.0
 50
90.0
100
AcDbRotatedDimension
1001
ACAD
1000
DSTYLE
1002
{
1070
   282
1070
     1
1070
   281
1070
     1
1070
   279
1070
     2
1070
   289
1070
     0
1070
   371
1070
    18
1070
   372
1070
    18
1002
}
  0
LINE
  5
3437
330
1F
100
AcDbEntity
  8
実形
100
AcDbLine
 10
2229.921369724463
 20
1497.517091367211
 30
0.0
 11
2229.921369724463
 21
1517.51709136721
 31
0.0
  0
TEXT
  5
3438
330
1F
100
AcDbEntity
  8
実形
370
    18
100
AcDbText
 10
2224.684148970508
 20
1511.925628855797
 30
0.0
 40
10.0
  1
●
100
AcDbText
  0
LINE
  5
343A
330
1F
100
AcDbEntity
  8
実形
100
AcDbLine
 10
2142.980511113565
 20
1297.517091367211
 30
0.0
 11
2153.932848178541
 21
1297.517091367211
 31
0.0
  0
LINE
  5
343B
330
1F
100
AcDbEntity
  8
実形
100
AcDbLine
 10
2162.285047939233
 20
1297.517091367211
 30
0.0
 11
2177.756977120949
 21
1297.517091367211
 31
0.0
  0
LINE
  5
343C
330
1F
100
AcDbEntity
  8
実形
100
AcDbLine
 10
2177.756977120949
 20
1314.431253413818
 30
0.0
 11
2177.756977120949
 21
1307.02393246841
 31
0.0
  0
LINE
  5
343D
330
1F
100
AcDbEntity
  8
実形
100
AcDbLine
 10
2177.756977120949
 20
1307.517091367211
 30
0.0
 11
2177.756977120949
 21
1307.261303669938
 31
0.0
  0
LINE
  5
343E
330
1F
100
AcDbEntity
  8
実形
100
AcDbLine
 10
2177.756977120949
 20
1302.517091367211
 30
0.0
 11
2177.756977120949
 21
1297.517091367211
 31
0.0
  0
DIMENSION
  5
343F
330
1F
100
AcDbEntity
  8
実形
100
AcDbDimension
  2
*D57
 10
2230.158701045664
 20
1297.517091367211
 30
0.0
 11
2211.408701045664
 21
1266.774010556846
 31
0.0
 70
   160
  1
20
 71
     5
 42
219.9999999999998
  3
ISO-25
100
AcDbAlignedDimension
 13
2157.880237646332
 23
1517.517091367211
 33
0.0
 14
2137.756977120949
 24
1297.517091367211
 34
0.0
 50
90.0
100
AcDbRotatedDimension
1001
ACAD
1000
DSTYLE
1002
{
1070
   281
1070
     1
1070
   282
1070
     1
1070
   279
1070
     2
1070
   289
1070
     0
1070
   371
1070
    18
1070
   372
1070
    18
1002
}
  0
LINE
  5
3440
330
1F
100
AcDbEntity
  8
実形
100
AcDbLine
 10
2229.921369724463
 20
1315.329591367211
 30
0.0
 11
2229.921369724463
 21
1297.517091367211
 31
0.0
  0
LINE
  5
3441
330
1F
100
AcDbEntity
  8
実形
100
AcDbLine
 10
2229.921369724463
 20
1297.517091367211
 30
0.0
 11
2229.921369724463
 21
1317.517091367211
 31
0.0
  0
TEXT
  5
3442
330
1F
100
AcDbEntity
  8
実形
370
    18
100
AcDbText
 10
2225.78003923965
 20
1292.844454381977
 30
0.0
 40
10.0
  1
●
100
AcDbText
  0
DIMENSION
  5
3443
330
1F
100
AcDbEntity
  8
実形
100
AcDbDimension
  2
*D47
 10
2322.756977120949
 20
1090.640767961284
 30
0.0
 11
2087.585491058002
 21
1109.390767961284
 31
0.0
 70
   160
  1
15
 71
     5
 42
200.0000000000004
  3
ISO-25
100
AcDbAlignedDimension
 13
2122.756977120949
 23
1198.992507324763
 33
0.0
 14
2322.756977120949
 24
1198.992507324763
 34
0.0
 50
0.000000000000007
100
AcDbRotatedDimension
1001
ACAD
1000
DSTYLE
1002
{
1070
   282
1070
     1
1070
   281
1070
     1
1070
    76
1070
     1
1070
    75
1070
     1
1070
   279
1070
     2
1070
   289
1070
     0
1070
   371
1070
    18
1070
   372
1070
    18
1002
}
  0
DIMENSION
  5
3444
330
1F
100
AcDbEntity
  8
実形
100
AcDbDimension
  2
*D48
 10
2322.756977120949
 20
1090.640767961284
 30
0.0
 11
2230.256977120949
 21
1109.390767961284
 31
0.0
 70
    32
  1
187
 71
     5
 42
185.0000000000009
  3
ISO-25
100
AcDbAlignedDimension
 13
2137.756977120949
 23
1198.992507324763
 33
0.0
 14
2322.756977120949
 24
1198.992507324763
 34
0.0
 50
0.000000000000007
100
AcDbRotatedDimension
1001
ACAD
1000
DSTYLE
1002
{
1070
   279
1070
     2
1070
   289
1070
     0
1070
   371
1070
    18
1070
   372
1070
    18
1002
}
  0
LINE
  5
3445
330
1F
100
AcDbEntity
  8
実形
100
AcDbLine
 10
2122.756977120949
 20
1133.992507324763
 30
0.0
 11
2122.756977120949
 21
1090.640767961284
 31
0.0
  0
LINE
  5
3446
330
1F
100
AcDbEntity
  8
実形
100
AcDbLine
 10
2122.756977120949
 20
1090.640767961284
 30
0.0
 11
2137.756977120949
 21
1090.640767961284
 31
0.0
  0
TEXT
  5
3447
330
1F
100
AcDbEntity
  8
実形
370
    18
100
AcDbText
 10
2118.025726592987
 20
1085.884973442926
 30
0.0
 40
10.0
  1
●
100
AcDbText
  0
DIMENSION
  5
3448
330
1F
100
AcDbEntity
  8
実形
100
AcDbDimension
  2
*D49
 10
2322.756977120949
 20
1042.418202794422
 30
0.0
 11
2234.901254862718
 21
1061.168202794422
 31
0.0
 70
   160
  1
202
 71
     5
 42
200.0000000000004
  3
ISO-25
100
AcDbAlignedDimension
 13
2122.756977120949
 23
1198.992507324763
 33
0.0
 14
2322.756977120949
 24
1198.992507324763
 34
0.0
 50
0.000000000000007
100
AcDbRotatedDimension
1001
ACAD
1000
DSTYLE
1002
{
1070
   279
1070
     2
1070
   289
1070
     0
1070
   371
1070
    18
1070
   372
1070
    18
1002
}
  0
DIMENSION
  5
3449
330
1F
100
AcDbEntity
  8
実形
100
AcDbDimension
  2
*D50
 10
2332.756977120949
 20
1042.418202794422
 30
0.0
 11
2365.375048854876
 21
1061.168202794422
 31
0.0
 70
   160
  1
8
 71
     5
 42
210.0
  3
ISO-25
100
AcDbAlignedDimension
 13
2122.756977120949
 23
1154.106076856789
 33
0.0
 14
2332.756977120949
 24
1154.106076856789
 34
0.0
 50
0.000000000000007
100
AcDbRotatedDimension
1001
ACAD
1000
DSTYLE
1002
{
1070
   282
1070
     1
1070
   281
1070
     1
1070
   279
1070
     2
1070
   289
1070
     0
1070
   371
1070
    18
1070
   372
1070
    18
1002
}
  0
LINE
  5
344A
330
1F
100
AcDbEntity
  8
実形
100
AcDbLine
 10
2322.756977120949
 20
1042.418202794422
 30
0.0
 11
2332.756977120949
 21
1042.418202794422
 31
0.0
  0
TEXT
  5
344B
330
1F
100
AcDbEntity
  8
実形
370
    18
100
AcDbText
 10
2328.492206503968
 20
1037.380414347366
 30
0.0
 40
10.0
  1
●
100
AcDbText
  0
DIMENSION
  5
344C
330
1F
100
AcDbEntity
  8
実形
100
AcDbDimension
  2
*D51
 10
2332.756977120949
 20
989.8704398109293
 30
0.0
 11
2227.756977120949
 21
1008.620439810929
 31
0.0
 70
    32
  1
210
 71
     5
 42
210.0
  3
ISO-25
100
AcDbAlignedDimension
 13
2122.756977120949
 23
1154.106076856789
 33
0.0
 14
2332.756977120949
 24
1123.476731055188
 34
0.0
 50
0.000000000000007
100
AcDbRotatedDimension
1001
ACAD
1000
DSTYLE
1002
{
1070
   279
1070
     2
1070
   289
1070
     0
1070
   371
1070
    18
1070
   372
1070
    18
1002
}
  0
DIMENSION
  5
344D
330
1F
100
AcDbEntity
  8
実形
100
AcDbDimension
  2
*D52
 10
2342.756977120949
 20
989.8704398109293
 30
0.0
 11
2371.837458497568
 21
1008.620439810929
 31
0.0
 70
   160
  1
8
 71
     5
 42
219.9999999999995
  3
ISO-25
100
AcDbAlignedDimension
 13
2122.756977120949
 23
1154.106076856789
 33
0.0
 14
2342.756977120949
 24
1142.403242481072
 34
0.0
 50
0.000000000000007
100
AcDbRotatedDimension
1001
ACAD
1000
DSTYLE
1002
{
1070
   282
1070
     1
1070
   281
1070
     1
1070
    76
1070
     1
1070
    75
1070
     1
1070
   279
1070
     2
1070
   289
1070
     0
1070
   371
1070
    18
1070
   372
1070
    18
1002
}
  0
LINE
  5
344E
330
1F
100
AcDbEntity
  8
実形
100
AcDbLine
 10
2332.756977120949
 20
989.8704398109293
 30
0.0
 11
2342.825504049793
 21
989.8704398109293
 31
0.0
  0
LINE
  5
344F
330
1F
100
AcDbEntity
  8
実形
100
AcDbLine
 10
2342.825504049793
 20
989.8704398109293
 30
0.0
 11
2342.825504049793
 21
1038.095311348708
 31
0.0
  0
TEXT
  5
3450
330
1F
100
AcDbEntity
  8
実形
370
    18
100
AcDbText
 10
2337.901372735658
 20
984.7294690157506
 30
0.0
 40
10.0
  1
●
100
AcDbText
  0
DIMENSION
  5
3451
330
1F
100
AcDbEntity
  8
実形
100
AcDbDimension
  2
*D53
 10
2342.756977120949
 20
938.7570792024162
 30
0.0
 11
2232.756977120949
 21
957.5070792024162
 31
0.0
 70
    32
  1
218
 71
     5
 42
219.9999999999995
  3
ISO-25
100
AcDbAlignedDimension
 13
2122.756977120949
 23
1154.106076856789
 33
0.0
 14
2342.756977120949
 24
1063.046778957103
 34
0.0
 50
0.000000000000007
100
AcDbRotatedDimension
1001
ACAD
1000
DSTYLE
1002
{
1070
   279
1070
     2
1070
   289
1070
     0
1070
   371
1070
    18
1070
   372
1070
    18
1002
}
  0
LINE
  5
3509
330
1F
100
AcDbEntity
  8
実形
100
AcDbLine
 10
2140.756977120949
 20
1597.51709136721
 30
0.0
 11
2312.756977120949
 21
1597.51709136721
 31
0.0
  0
ARC
  5
350B
330
1F
100
AcDbEntity
  8
実形
100
AcDbCircle
 10
2312.756977120949
 20
1577.517091367211
 30
0.0
 40
20.0
100
AcDbArc
 50
0.000000000000007
 51
89.99999999999998
  0
ARC
  5
350F
330
1F
100
AcDbEntity
  8
実形
100
AcDbCircle
 10
2140.756977120949
 20
1600.51709136721
 30
0.0
 40
3.0
100
AcDbArc
 50
180.0
 51
270.0
  0
LINE
  5
3510
330
1F
100
AcDbEntity
  8
実形
100
AcDbLine
 10
2137.756977120949
 20
1623.017091367211
 30
0.0
 11
2137.756977120949
 21
1202.517091367211
 31
0.0
  0
LINE
  5
3511
330
1F
100
AcDbEntity
  8
実形
  6
ACAD_ISO08W100
100
AcDbLine
 10
1731.80071929418
 20
661.4270373160682
 30
0.0
 11
1511.800719294181
 21
661.4270373160677
 31
0.0
  0
ARC
  5
3512
330
1F
100
AcDbEntity
  8
実形
100
AcDbCircle
 10
1511.800719294181
 20
681.4270373160677
 30
0.0
 40
20.0
100
AcDbArc
 50
180.0000000000001
 51
270.0
  0
ARC
  5
3513
330
1F
100
AcDbEntity
  8
実形
100
AcDbCircle
 10
1731.80071929418
 20
681.4270373160682
 30
0.0
 40
20.0
100
AcDbArc
 50
270.0000000000001
 51
0.000000000000007
  0
LINE
  5
351C
330
1F
100
AcDbEntity
  8
実形
100
AcDbLine
 10
2332.756977120949
 20
1429.517091367211
 30
0.0
 11
2323.636208369475
 21
1231.596409460212
 31
0.0
  0
ARC
  5
351D
330
1F
100
AcDbEntity
  8
実形
100
AcDbCircle
 10
2303.657410987597
 20
1232.517091367211
 30
0.0
 40
20.0
100
AcDbArc
 50
270.0
 51
357.3615081745888
  0
DIMENSION
  5
37CD
330
1F
100
AcDbEntity
  8
実形
100
AcDbDimension
  2
*D58
 10
266.9863137327993
 20
1512.517091367211
 30
0.0
 11
247.8863137327991
 21
1432.517091367211
 31
0.0
 70
    32
 71
     5
 42
160.0
  3
ISO-25
100
AcDbAlignedDimension
 13
383.902912268657
 23
1352.517091367211
 33
0.0
 14
383.902912268657
 24
1512.517091367211
 34
0.0
 50
90.0
100
AcDbRotatedDimension
1001
ACAD
1000
DSTYLE
1002
{
1070
    41
1040
10.0
1070
   140
1040
25.0
1070
   147
1040
6.599999999999998
1070
   279
1070
     2
1070
   342
1005
2ED7
1070
   371
1070
    18
1070
   372
1070
    18
1002
}
  0
DIMENSION
  5
37CE
330
1F
100
AcDbEntity
  8
実形
100
AcDbDimension
  2
*D59
 10
195.7440169175224
 20
1523.017091367211
 30
0.0
 11
176.6440169175222
 21
1432.517091367211
 31
0.0
 70
    32
 71
     5
 42
180.9999999999995
  3
ISO-25
100
AcDbAlignedDimension
 13
383.902912268657
 23
1342.017091367211
 33
0.0
 14
383.9029122686525
 24
1523.017091367211
 34
0.0
 50
90.0
100
AcDbRotatedDimension
1001
ACAD
1000
DSTYLE
1002
{
1070
    41
1040
10.0
1070
   140
1040
25.0
1070
   147
1040
6.599999999999998
1070
   279
1070
     2
1070
   342
1005
2ED7
1070
   371
1070
    18
1070
   372
1070
    18
1002
}
  0
DIMENSION
  5
3819
330
1F
100
AcDbEntity
  8
実形
100
AcDbDimension
  2
*D60
 10
2418.963043649936
 20
1440.517091367211
 30
0.0
 11
2397.363043649935
 21
1487.517091367211
 31
0.0
 70
    32
 71
     5
 42
94.0
  3
ISO-25
100
AcDbAlignedDimension
 13
2310.963043649936
 23
1534.517091367211
 33
0.0
 14
2310.963043649936
 24
1440.517091367211
 34
0.0
 50
90.0
100
AcDbRotatedDimension
1001
ACAD
1000
DSTYLE
1002
{
1070
    41
1040
10.0
1070
   140
1040
30.0
1070
   147
1040
6.599999999999998
1070
   279
1070
     2
1070
   342
1005
2ED7
1070
   371
1070
    18
1070
   372
1070
    18
1002
}
  0
DIMENSION
  5
381A
330
1F
100
AcDbEntity
  8
実形
100
AcDbDimension
  2
*D61
 10
2469.670114568117
 20
1430.017091367211
 30
0.0
 11
2448.070114568116
 21
1487.517091367211
 31
0.0
 70
    32
 71
     5
 42
115.0
  3
ISO-25
100
AcDbAlignedDimension
 13
2310.426743006457
 23
1545.017091367211
 33
0.0
 14
2311.965327696263
 24
1430.017091367211
 34
0.0
 50
90.0
100
AcDbRotatedDimension
1001
ACAD
1000
DSTYLE
1002
{
1070
    41
1040
10.0
1070
   140
1040
30.0
1070
   147
1040
6.599999999999998
1070
   279
1070
     2
1070
   342
1005
2ED7
1070
   371
1070
    18
1070
   372
1070
    18
1002
}
  0
LEADER
  5
3A62
330
1F
100
AcDbEntity
  8
寸法
100
AcDbLeader
  3
ISO-25
 76
     2
 10
993.0440129401176
 20
1226.650679424787
 30
0.0
 10
1044.510450336329
 20
1278.10404172541
 30
0.0
211
-1.0
221
0.0
231
0.0
1001
ACAD
1000
DSTYLE
1002
{
1070
    41
1040
25.0
1070
   147
1040
6.25
1070
    77
1070
     0
1002
}
  0
LINE
  5
3A7E
330
1F
100
AcDbEntity
  8
実形
100
AcDbLine
 10
1445.56403545023
 20
846.427037316068
 30
0.0
 11
1415.383881550793
 21
846.4270373160678
 31
0.0
  0
LINE
  5
3A7F
330
1F
100
AcDbEntity
  8
実形
100
AcDbLine
 10
1415.383881550793
 20
846.4270373160678
 30
0.0
 11
1415.383881550793
 21
806.4270373160677
 31
0.0
  0
LINE
  5
3A80
330
1F
100
AcDbEntity
  8
実形
100
AcDbLine
 10
1415.383881550793
 20
806.4270373160677
 30
0.0
 11
1445.56403545023
 21
806.4270373160679
 31
0.0
  0
DIMENSION
  5
3A81
330
1F
100
AcDbEntity
  8
実形
100
AcDbDimension
  2
*D63
 10
1415.383881550793
 20
806.4270373160679
 30
0.0
 11
1428.111434345093
 21
772.6320639050855
 31
0.0
 70
   160
 71
     5
 42
40.0
  3
ISO-25
100
AcDbAlignedDimension
 13
1445.56403545023
 23
846.427037316068
 33
0.0
 14
1445.56403545023
 24
806.4270373160679
 34
0.0
 50
90.0
100
AcDbRotatedDimension
1001
ACAD
1000
DSTYLE
1002
{
1070
   282
1070
     1
1070
   281
1070
     1
1070
    76
1070
     1
1070
    75
1070
     1
1070
   279
1070
     2
1070
   289
1070
     0
1070
   371
1070
    18
1070
   372
1070
    18
1002
}
  0
TEXT
  5
3ABA
330
1F
100
AcDbEntity
  8
実形
370
    18
100
AcDbText
 10
1420.54432348961
 20
841.3245454198003
 30
0.0
 40
10.0
  1
●
 71
     2
100
AcDbText
  0
TEXT
  5
3AC2
330
1F
100
AcDbEntity
  8
実形
370
    18
100
AcDbText
 10
1420.54432348961
 20
802.2733958833706
 30
0.0
 40
10.0
  1
●
 71
     2
100
AcDbText
  0
LEADER
  5
3B00
330
1F
100
AcDbEntity
  8
寸法
100
AcDbLeader
  3
ISO-25
 76
     2
 10
1518.815820542668
 20
1221.068724341572
 30
0.0
 10
1570.282257938879
 20
1272.522086642195
 30
0.0
211
-1.0
221
0.0
231
0.0
1001
ACAD
1000
DSTYLE
1002
{
1070
    41
1040
25.0
1070
   147
1040
6.25
1070
    77
1070
     0
1002
}
  0
LEADER
  5
3B08
330
1F
100
AcDbEntity
  8
寸法
100
AcDbLeader
  3
ISO-25
 76
     2
 10
1732.692035220496
 20
1226.867597113103
 30
0.0
 10
1674.688542728894
 20
1272.522086642195
 30
0.0
211
-1.0
221
0.0
231
0.0
1001
ACAD
1000
DSTYLE
1002
{
1070
    41
1040
25.0
1070
   147
1040
6.25
1070
    77
1070
     0
1002
}
  0
LEADER
  5
3B11
330
1F
100
AcDbEntity
  8
寸法
100
AcDbLeader
  3
ISO-25
 76
     2
 10
1725.147717532375
 20
1582.913129517183
 30
0.0
 10
1707.987921515723
 20
1525.681107936511
 30
0.0
211
-1.0
221
0.0
231
0.0
1001
ACAD
1000
DSTYLE
1002
{
1070
    41
1040
25.0
1070
   147
1040
6.25
1070
    77
1070
     0
1002
}
  0
LEADER
  5
3B39
330
1F
100
AcDbEntity
  8
寸法
100
AcDbLeader
  3
ISO-25
 76
     2
 10
1444.869200882287
 20
1626.5180711131
 30
0.0
 10
1389.777224239302
 20
1580.532745098909
 30
0.0
211
-1.0
221
0.0
231
0.0
1001
ACAD
1000
DSTYLE
1002
{
1070
    41
1040
25.0
1070
   147
1040
6.25
1070
    77
1070
     0
1002
}
  0
DIMENSION
  5
3E25
330
1F
100
AcDbEntity
  8
実形
100
AcDbDimension
  2
*D64
 10
1890.033785324252
 20
661.4270373160673
 30
0.0
 11
1872.293234987934
 21
893.7722153455688
 31
0.0
 70
   160
  1
15
 71
     5
 42
200.0000000000006
  3
ISO-25
100
AcDbAlignedDimension
 13
1781.682045960773
 23
861.427037316068
 33
0.0
 14
1781.682045960773
 24
661.4270373160674
 34
0.0
 50
270.0
100
AcDbRotatedDimension
1001
ACAD
1000
DSTYLE
1002
{
1070
   282
1070
     1
1070
   281
1070
     1
1070
    76
1070
     1
1070
    75
1070
     1
1070
   279
1070
     2
1070
   289
1070
     0
1070
   371
1070
    18
1070
   372
1070
    18
1002
}
  0
DIMENSION
  5
3E26
330
1F
100
AcDbEntity
  8
実形
100
AcDbDimension
  2
*D65
 10
1890.033785324252
 20
661.4270373160673
 30
0.0
 11
1871.283785324252
 21
753.9270373160681
 31
0.0
 70
    32
  1
187
 71
     5
 42
185.000000000001
  3
ISO-25
100
AcDbAlignedDimension
 13
1781.682045960773
 23
846.4270373160683
 33
0.0
 14
1781.682045960774
 24
661.4270373160674
 34
0.0
 50
270.0
100
AcDbRotatedDimension
1001
ACAD
1000
DSTYLE
1002
{
1070
   279
1070
     2
1070
   289
1070
     0
1070
   371
1070
    18
1070
   372
1070
    18
1002
}
  0
LINE
  5
3E27
330
1F
100
AcDbEntity
  8
実形
100
AcDbLine
 10
1846.682045960773
 20
861.427037316068
 30
0.0
 11
1890.033785324252
 21
861.427037316068
 31
0.0
  0
LINE
  5
3E28
330
1F
100
AcDbEntity
  8
実形
100
AcDbLine
 10
1890.033785324252
 20
861.427037316068
 30
0.0
 11
1890.033785324252
 21
846.4270373160683
 31
0.0
  0
TEXT
  5
3E29
330
1F
100
AcDbEntity
  8
実形
370
    18
100
AcDbText
 10
1894.78957984261
 20
866.1582878440304
 30
0.0
 40
10.0
  1
●
 50
90.0
 71
     2
100
AcDbText
  0
DIMENSION
  5
3E2A
330
1F
100
AcDbEntity
  8
実形
100
AcDbDimension
  2
*D66
 10
1938.256350491114
 20
661.4270373160673
 30
0.0
 11
1918.453810947594
 21
751.7757460154426
 31
0.0
 70
   160
  1
202
 71
     5
 42
200.0000000000006
  3
ISO-25
100
AcDbAlignedDimension
 13
1781.682045960774
 23
861.427037316068
 33
0.0
 14
1781.682045960774
 24
661.4270373160674
 34
0.0
 50
270.0
100
AcDbRotatedDimension
1001
ACAD
1000
DSTYLE
1002
{
1070
   279
1070
     2
1070
   289
1070
     0
1070
   371
1070
    18
1070
   372
1070
    18
1002
}
  0
DIMENSION
  5
3E2B
330
1F
100
AcDbEntity
  8
実形
100
AcDbDimension
  2
*D67
 10
1938.256350491114
 20
651.4270373160679
 30
0.0
 11
1912.535793790797
 21
631.0787437720501
 31
0.0
 70
   160
  1
8
 71
     5
 42
210.0000000000001
  3
ISO-25
100
AcDbAlignedDimension
 13
1826.568476428747
 23
861.427037316068
 33
0.0
 14
1834.4164251785
 24
651.4270373160679
 34
0.0
 50
270.0
100
AcDbRotatedDimension
1001
ACAD
1000
DSTYLE
1002
{
1070
   282
1070
     1
1070
   281
1070
     1
1070
   279
1070
     2
1070
   289
1070
     0
1070
   371
1070
    18
1070
   372
1070
    18
1002
}
  0
LINE
  5
3E2C
330
1F
100
AcDbEntity
  8
実形
100
AcDbLine
 10
1938.256350491114
 20
661.4270373160675
 30
0.0
 11
1938.256350491114
 21
651.4270373160679
 31
0.0
  0
TEXT
  5
3E2D
330
1F
100
AcDbEntity
  8
実形
370
    18
100
AcDbText
 10
1943.29413893817
 20
655.6918079330489
 30
0.0
 40
10.0
  1
●
 50
90.0
 71
     2
100
AcDbText
  0
DIMENSION
  5
3E2E
330
1F
100
AcDbEntity
  8
実形
100
AcDbDimension
  2
*D68
 10
1990.804113474607
 20
651.4270373160679
 30
0.0
 11
1972.054113474607
 21
756.4270373160683
 31
0.0
 70
    32
 71
     5
 42
210.0000000000001
  3
ISO-25
100
AcDbAlignedDimension
 13
1826.568476428747
 23
861.427037316068
 33
0.0
 14
1857.197822230348
 24
651.4270373160679
 34
0.0
 50
270.0
100
AcDbRotatedDimension
1001
ACAD
1000
DSTYLE
1002
{
1070
   279
1070
     2
1070
   289
1070
     0
1070
   371
1070
    18
1070
   372
1070
    18
1002
}
  0
DIMENSION
  5
3E2F
330
1F
100
AcDbEntity
  8
実形
100
AcDbDimension
  2
*D69
 10
1990.804113474607
 20
641.4270373160682
 30
0.0
 11
1968.373704712918
 21
626.5842520034821
 31
0.0
 70
   160
  1
8
 71
     5
 42
219.9999999999997
  3
ISO-25
100
AcDbAlignedDimension
 13
1826.568476428747
 23
861.427037316068
 33
0.0
 14
1838.271310804464
 24
641.4270373160682
 34
0.0
 50
270.0
100
AcDbRotatedDimension
1001
ACAD
1000
DSTYLE
1002
{
1070
   282
1070
     1
1070
   281
1070
     1
1070
    76
1070
     1
1070
    75
1070
     1
1070
   279
1070
     2
1070
   289
1070
     0
1070
   371
1070
    18
1070
   372
1070
    18
1002
}
  0
LINE
  5
3E30
330
1F
100
AcDbEntity
  8
実形
100
AcDbLine
 10
1990.804113474607
 20
651.4270373160679
 30
0.0
 11
1990.804113474607
 21
641.3585103872237
 31
0.0
  0
LINE
  5
3E31
330
1F
100
AcDbEntity
  8
実形
100
AcDbLine
 10
1990.804113474607
 20
641.3585103872237
 30
0.0
 11
1950.073741487831
 21
641.3585103872237
 31
0.0
  0
TEXT
  5
3E32
330
1F
100
AcDbEntity
  8
実形
370
    18
100
AcDbText
 10
1995.945084269786
 20
646.2826417013594
 30
0.0
 40
10.0
  1
●
 50
90.0
 71
     2
100
AcDbText
  0
DIMENSION
  5
3E33
330
1F
100
AcDbEntity
  8
実形
100
AcDbDimension
  2
*D70
 10
2041.91747408312
 20
641.4270373160684
 30
0.0
 11
2023.16747408312
 21
751.4270373160685
 31
0.0
 70
    32
  1
218
 71
     5
 42
219.9999999999995
  3
ISO-25
100
AcDbAlignedDimension
 13
1826.568476428747
 23
861.427037316068
 33
0.0
 14
1917.627774328433
 24
641.4270373160684
 34
0.0
 50
270.0
100
AcDbRotatedDimension
1001
ACAD
1000
DSTYLE
1002
{
1070
   279
1070
     2
1070
   289
1070
     0
1070
   371
1070
    18
1070
   372
1070
    18
1002
}
  0
LEADER
  5
3FAF
330
1F
100
AcDbEntity
  8
0
100
AcDbLeader
  3
ISO-25
 40
25.0
 41
16.66666666666666
 76
     2
 10
1514.398607418881
 20
676.1284492754712
 30
0.0
 10
1566.227607642653
 20
728.2184574867805
 30
0.0
211
-1.0
221
0.0
231
0.0
213
0.0
223
-12.5
233
0.0
1001
ACAD
1000
DSTYLE
1002
{
1070
    41
1040
25.0
1070
   147
1040
6.25
1070
    77
1070
     0
1070
    73
1070
     1
1070
    74
1070
     1
1070
   279
1070
     1
1070
   342
1005
DA
1002
}
  0
LEADER
  5
3FBA
330
1F
100
AcDbEntity
  8
0
100
AcDbLeader
  3
ISO-25
 40
25.0
 41
16.66666666666666
 76
     2
 10
1450.179966531656
 20
664.5719820871554
 30
0.0
 10
1354.517985927568
 20
732.0027196289275
 30
0.0
211
-1.0
221
0.0
231
0.0
213
0.0
223
-12.5
233
0.0
1001
ACAD
1000
DSTYLE
1002
{
1070
    41
1040
25.0
1070
   147
1040
6.25
1070
    77
1070
     0
1070
    73
1070
     1
1070
    74
1070
     1
1070
   279
1070
     1
1070
   342
1005
DA
1002
}
  0
DIMENSION
  5
42D7
330
1F
100
AcDbEntity
  8
実形
100
AcDbDimension
  2
*D71
 10
854.8539011546436
 20
661.4270373160675
 30
0.0
 11
833.6252396729468
 21
832.5648740951764
 31
0.0
 70
   160
  1
15
 71
     5
 42
200.0000000000004
  3
ISO-25
100
AcDbAlignedDimension
 13
963.2056405181229
 23
861.427037316068
 33
0.0
 14
963.2056405181229
 24
661.4270373160675
 34
0.0
 50
270.0
100
AcDbRotatedDimension
1001
ACAD
1000
DSTYLE
1002
{
1070
   282
1070
     1
1070
   281
1070
     1
1070
    76
1070
     1
1070
    75
1070
     1
1070
   279
1070
     2
1070
   289
1070
     0
1070
   371
1070
    18
1070
   372
1070
    18
1002
}
  0
DIMENSION
  5
42D8
330
1F
100
AcDbEntity
  8
実形
100
AcDbDimension
  2
*D72
 10
854.8539011546436
 20
661.4270373160675
 30
0.0
 11
836.1039011546434
 21
753.9270373160682
 31
0.0
 70
    32
 71
     5
 42
185.0000000000009
  3
ISO-25
100
AcDbAlignedDimension
 13
963.2056405181229
 23
846.4270373160683
 33
0.0
 14
963.2056405181229
 24
661.4270373160675
 34
0.0
 50
270.0
100
AcDbRotatedDimension
1001
ACAD
1000
DSTYLE
1002
{
1070
   279
1070
     2
1070
   289
1070
     0
1070
   371
1070
    18
1070
   372
1070
    18
1002
}
  0
DIMENSION
  5
42D9
330
1F
100
AcDbEntity
  8
実形
100
AcDbDimension
  2
*D73
 10
806.6313359877822
 20
661.4270373160675
 30
0.0
 11
785.525553815085
 21
756.3058833762333
 31
0.0
 70
   160
 71
     5
 42
200.0000000000004
  3
ISO-25
100
AcDbAlignedDimension
 13
963.2056405181229
 23
861.427037316068
 33
0.0
 14
963.2056405181229
 24
661.4270373160675
 34
0.0
 50
270.0
100
AcDbRotatedDimension
1001
ACAD
1000
DSTYLE
1002
{
1070
   279
1070
     2
1070
   289
1070
     0
1070
   371
1070
    18
1070
   372
1070
    18
1002
}
  0
DIMENSION
  5
42DA
330
1F
100
AcDbEntity
  8
実形
100
AcDbDimension
  2
*D74
 10
806.6313359877822
 20
651.4270373160679
 30
0.0
 11
782.3832890757111
 21
674.1346438369364
 31
0.0
 70
   160
  1
10
 71
     5
 42
210.0
  3
ISO-25
100
AcDbAlignedDimension
 13
918.3192100501491
 23
861.427037316068
 33
0.0
 14
918.3192100501491
 24
651.4270373160679
 34
0.0
 50
270.0
100
AcDbRotatedDimension
1001
ACAD
1000
DSTYLE
1002
{
1070
   282
1070
     1
1070
   281
1070
     1
1070
   279
1070
     2
1070
   289
1070
     0
1070
   371
1070
    18
1070
   372
1070
    18
1002
}
  0
LINE
  5
42DB
330
1F
100
AcDbEntity
  8
実形
100
AcDbLine
 10
806.6313359877822
 20
661.4270373160675
 30
0.0
 11
806.6313359877822
 21
651.4270373160679
 31
0.0
  0
TEXT
  5
42DC
330
1F
100
AcDbEntity
  8
実形
370
    18
100
AcDbText
 10
801.5935475407259
 20
655.6918079330491
 30
0.0
 40
10.0
  1
●
 50
270.0
100
AcDbText
  0
DIMENSION
  5
42DD
330
1F
100
AcDbEntity
  8
実形
100
AcDbDimension
  2
*D75
 10
754.083573004289
 20
651.427037316068
 30
0.0
 11
735.3335730042889
 21
756.4270373160682
 31
0.0
 70
    32
 71
     5
 42
210.0
  3
ISO-25
100
AcDbAlignedDimension
 13
918.3192100501491
 23
861.427037316068
 33
0.0
 14
887.6898642485484
 24
651.4270373160679
 34
0.0
 50
270.0
100
AcDbRotatedDimension
1001
ACAD
1000
DSTYLE
1002
{
1070
   279
1070
     2
1070
   289
1070
     0
1070
   371
1070
    18
1070
   372
1070
    18
1002
}
  0
DIMENSION
  5
42DE
330
1F
100
AcDbEntity
  8
実形
100
AcDbDimension
  2
*D76
 10
754.083573004289
 20
641.4270373160685
 30
0.0
 11
731.3595297604442
 21
660.5458384564408
 31
0.0
 70
   160
  1
8
 71
     5
 42
219.9999999999995
  3
ISO-25
100
AcDbAlignedDimension
 13
918.3192100501491
 23
861.427037316068
 33
0.0
 14
906.6163756744318
 24
641.4270373160684
 34
0.0
 50
270.0
100
AcDbRotatedDimension
1001
ACAD
1000
DSTYLE
1002
{
1070
   282
1070
     1
1070
   281
1070
     1
1070
    76
1070
     1
1070
    75
1070
     1
1070
   279
1070
     2
1070
   289
1070
     0
1070
   371
1070
    18
1070
   372
1070
    18
1002
}
  0
LINE
  5
42DF
330
1F
100
AcDbEntity
  8
実形
100
AcDbLine
 10
754.083573004289
 20
651.4270373160679
 30
0.0
 11
754.083573004289
 21
641.3585103872237
 31
0.0
  0
LINE
  5
42E0
330
1F
100
AcDbEntity
  8
実形
100
AcDbLine
 10
754.083573004289
 20
641.3585103872237
 30
0.0
 11
802.3084445420682
 21
641.3585103872237
 31
0.0
  0
TEXT
  5
42E1
330
1F
100
AcDbEntity
  8
実形
370
    18
100
AcDbText
 10
748.9426022091102
 20
646.2826417013595
 30
0.0
 40
10.0
  1
●
 50
270.0
100
AcDbText
  0
DIMENSION
  5
42E2
330
1F
100
AcDbEntity
  8
実形
100
AcDbDimension
  2
*D77
 10
702.9702123957759
 20
641.4270373160685
 30
0.0
 11
684.2202123957758
 21
751.4270373160684
 31
0.0
 70
    32
  1
218
 71
     5
 42
219.9999999999995
  3
ISO-25
100
AcDbAlignedDimension
 13
918.3192100501491
 23
861.427037316068
 33
0.0
 14
827.2599121504626
 24
641.4270373160684
 34
0.0
 50
270.0
100
AcDbRotatedDimension
1001
ACAD
1000
DSTYLE
1002
{
1070
   279
1070
     2
1070
   289
1070
     0
1070
   371
1070
    18
1070
   372
1070
    18
1002
}
  0
LINE
  5
438E
330
1F
100
AcDbEntity
  8
実形
100
AcDbLine
 10
854.8539011546436
 20
846.4270373160683
 30
0.0
 11
854.8539011546436
 21
861.427037316068
 31
0.0
  0
TEXT
  5
4397
330
1F
100
AcDbEntity
  8
実形
370
    18
100
AcDbText
 10
859.9409590370369
 20
865.9852515496378
 30
0.0
 40
10.0
  1
●
 50
90.0
 71
     2
100
AcDbText
  0
LINE
  5
444A
330
1F
100
AcDbEntity
  8
実形
100
AcDbLine
 10
2472.194821863538
 20
495.4618602884263
 30
0.0
 11
2472.194821863538
 21
372.1758909109341
 31
0.0
  0
LINE
  5
444B
330
1F
100
AcDbEntity
  8
実形
100
AcDbLine
 10
2472.194821863538
 20
372.1758909109341
 30
0.0
 11
2472.194821863538
 21
495.4618602884263
 31
0.0
  0
LINE
  5
444C
330
1F
100
AcDbEntity
  8
実形
100
AcDbLine
 10
2464.722944931568
 20
495.4618602884263
 30
0.0
 11
2464.722944931568
 21
372.1758909109341
 31
0.0
  0
DIMENSION
  5
444D
330
1F
100
AcDbEntity
  8
寸法
100
AcDbDimension
  2
*D78
 10
2355.087235606629
 20
295.8250599337407
 30
0.0
 11
2409.905090269098
 21
314.5750599337407
 31
0.0
 70
    32
  1
12
 71
     5
 42
109.6357093249389
  3
ISO-25
100
AcDbAlignedDimension
 13
2464.722944931568
 23
362.8360447459727
 33
0.0
 14
2355.087235606629
 24
362.8360447459727
 34
0.0
100
AcDbRotatedDimension
1001
ACAD
1000
DSTYLE
1002
{
1070
    41
1040
40.0
1070
    42
1040
45.0
1002
}
  0
LINE
  5
444E
330
1F
100
AcDbEntity
  8
実形
100
AcDbLine
 10
2472.194821863538
 20
372.1758909109341
 30
0.0
 11
2464.722944931568
 21
372.1758909109341
 31
0.0
  0
LINE
  5
444F
330
1F
100
AcDbEntity
  8
実形
100
AcDbLine
 10
2464.722944931568
 20
372.1758909109341
 30
0.0
 11
2472.194821863538
 21
372.1758909109341
 31
0.0
  0
LINE
  5
4450
330
1F
100
AcDbEntity
  8
実形
100
AcDbLine
 10
2421.759652572746
 20
495.4618602884263
 30
0.0
 11
2515.15811422236
 21
495.4618602884263
 31
0.0
  0
LINE
  5
4451
330
1F
100
AcDbEntity
  8
実形
100
AcDbLine
 10
2421.759652572746
 20
502.9337372203952
 30
0.0
 11
2421.759652572746
 21
495.4618602884263
 31
0.0
  0
LINE
  5
4452
330
1F
100
AcDbEntity
  8
実形
100
AcDbLine
 10
2515.15811422236
 20
495.4618602884263
 30
0.0
 11
2515.15811422236
 21
502.9337372203952
 31
0.0
  0
LEADER
  5
44CA
330
1F
100
AcDbEntity
  8
寸法
100
AcDbLeader
  3
ISO-25
 76
     2
 10
1505.289726719789
 20
1574.161743377669
 30
0.0
 10
1511.295470733166
 20
1460.331881328399
 30
0.0
211
-1.0
221
0.0
231
0.0
1001
ACAD
1000
DSTYLE
1002
{
1070
    41
1040
25.0
1070
   147
1040
6.25
1070
    77
1070
     0
1002
}
  0
LEADER
  5
44D5
330
1F
100
AcDbEntity
  8
寸法
100
AcDbLeader
  3
ISO-25
 76
     2
 10
1762.868448327346
 20
1663.073255309411
 30
0.0
 10
1804.320146507347
 20
1724.295275982557
 30
0.0
211
-1.0
221
0.0
231
0.0
1001
ACAD
1000
DSTYLE
1002
{
1070
    41
1040
25.0
1070
   147
1040
6.25
1070
    77
1070
     0
1002
}
  0
LEADER
  5
44E1
330
1F
100
AcDbEntity
  8
寸法
100
AcDbLeader
  3
ISO-25
 76
     2
 10
1768.725349085398
 20
1189.016903836116
 30
0.0
 10
1823.92132715934
 20
1115.535950359681
 30
0.0
211
-1.0
221
0.0
231
0.0
1001
ACAD
1000
DSTYLE
1002
{
1070
    41
1040
25.0
1070
   147
1040
6.25
1070
    77
1070
     0
1002
}
  0
LEADER
  5
44EC
330
1F
100
AcDbEntity
  8
寸法
100
AcDbLeader
  3
ISO-25
 76
     2
 10
950.3158689763168
 20
1186.994277359222
 30
0.0
 10
878.0095064626985
 20
1137.790278717366
 30
0.0
211
-1.0
221
0.0
231
0.0
1001
ACAD
1000
DSTYLE
1002
{
1070
    41
1040
25.0
1070
   147
1040
6.25
1070
    77
1070
     0
1002
}
  0
LEADER
  5
4506
330
1F
100
AcDbEntity
  8
寸法
100
AcDbLeader
  3
ISO-25
 76
     2
 10
1442.376646191395
 20
1228.865905694804
 30
0.0
 10
1360.474508586294
 20
1263.256065256998
 30
0.0
211
-1.0
221
0.0
231
0.0
1001
ACAD
1000
DSTYLE
1002
{
1070
    41
1040
25.0
1070
   147
1040
6.25
1070
    77
1070
     0
1002
}
  0
TEXT
  5
49D2
330
1F
100
AcDbEntity
  8
寸法
100
AcDbText
 10
1801.917769413786
 20
1084.231136447566
 30
0.0
 40
25.0
  1
30R
100
AcDbText
  0
TEXT
  5
49DB
330
1F
100
AcDbEntity
  8
寸法
100
AcDbText
 10
1785.9167753387
 20
1731.750943272831
 30
0.0
 40
25.0
  1
30R
100
AcDbText
  0
TEXT
  5
49EA
330
1F
100
AcDbEntity
  8
寸法
100
AcDbText
 10
1032.990725999488
 20
1535.558113606902
 30
0.0
 40
25.0
  1
20R
100
AcDbText
  0
TEXT
  5
49F3
330
1F
100
AcDbEntity
  8
寸法
100
AcDbText
 10
1046.80499984515
 20
1285.273233781293
 30
0.0
 40
25.0
  1
20R
100
AcDbText
  0
TEXT
  5
49FC
330
1F
100
AcDbEntity
  8
寸法
100
AcDbText
 10
1289.095367174265
 20
1255.416240586016
 30
0.0
 40
25.0
  1
20R
100
AcDbText
  0
TEXT
  5
4A04
330
1F
100
AcDbEntity
  8
寸法
100
AcDbText
 10
1344.415207872899
 20
1540.961717052681
 30
0.0
 40
25.0
  1
20R
100
AcDbText
  0
TEXT
  5
4A1F
330
1F
100
AcDbEntity
  8
寸法
100
AcDbText
 10
891.2308550027873
 20
1744.395239842944
 30
0.0
 40
25.0
  1
30R
100
AcDbText
  0
TEXT
  5
4A27
330
1F
100
AcDbEntity
  8
寸法
100
AcDbText
 10
837.4861592329679
 20
1106.626407344401
 30
0.0
 40
25.0
  1
30R
100
AcDbText
  0
TEXT
  5
4A31
330
1F
100
AcDbEntity
  8
寸法
100
AcDbText
 10
1078.48387643222
 20
746.3537860753067
 30
0.0
 40
25.0
  1
20R
100
AcDbText
  0
TEXT
  5
4A39
330
1F
100
AcDbEntity
  8
寸法
100
AcDbText
 10
1596.562297414029
 20
1285.270070069343
 30
0.0
 40
25.0
  1
20R
100
AcDbText
  0
TEXT
  5
4AAE
330
1F
100
AcDbEntity
  8
寸法
100
AcDbText
 10
1505.402642502472
 20
1423.662541443028
 30
0.0
 40
25.0
  1
20R
100
AcDbText
  0
TEXT
  5
4AB7
330
1F
100
AcDbEntity
  8
寸法
100
AcDbText
 10
1683.6866376502
 20
1495.675320895989
 30
0.0
 40
25.0
  1
20R
100
AcDbText
  0
TEXT
  5
4B94
330
1F
100
AcDbEntity
  8
寸法
100
AcDbText
 10
1285.418694679495
 20
739.5467699471055
 30
0.0
 40
25.0
  1
20R
100
AcDbText
  0
TEXT
  5
4B9C
330
1F
100
AcDbEntity
  8
寸法
100
AcDbText
 10
1589.59513120428
 20
734.54008812146
 30
0.0
 40
25.0
  1
20R
100
AcDbText
  0
DIMENSION
  5
54BD
330
1F
100
AcDbEntity
  8
実形
100
AcDbDimension
  2
*D80
 10
746.6663872830731
 20
1517.51709136721
 30
0.0
 11
727.9163872830729
 21
1600.017091367211
 31
0.0
 70
    32
 71
     5
 42
165.0000000000002
  3
ISO-25
100
AcDbAlignedDimension
 13
859.358032257418
 23
1682.517091367211
 33
0.0
 14
859.358032257418
 24
1517.51709136721
 34
0.0
 50
90.0
100
AcDbRotatedDimension
1001
ACAD
1000
DSTYLE
1002
{
1070
   279
1070
     2
1070
   289
1070
     0
1070
   371
1070
    18
1070
   372
1070
    18
1002
}
  0
DIMENSION
  5
54CA
330
1F
100
AcDbEntity
  8
実形
100
AcDbDimension
  2
*D81
 10
746.6663872830731
 20
1297.517091367211
 30
0.0
 11
727.9163872830729
 21
1407.517091367211
 31
0.0
 70
    32
 71
     5
 42
219.9999999999995
  3
ISO-25
100
AcDbAlignedDimension
 13
859.358032257418
 23
1517.51709136721
 33
0.0
 14
859.3580322574181
 24
1297.517091367211
 34
0.0
 50
90.0
100
AcDbRotatedDimension
1001
ACAD
1000
DSTYLE
1002
{
1070
   279
1070
     2
1070
   289
1070
     0
1070
   371
1070
    18
1070
   372
1070
    18
1002
}
  0
DIMENSION
  5
5512
330
1F
100
AcDbEntity
  8
実形
100
AcDbDimension
  2
*D82
 10
672.4084262228643
 20
1517.51709136721
 30
0.0
 11
647.196390181607
 21
1672.159908841189
 31
0.0
 70
   160
  1
20
 71
     5
 42
165.0000000000002
  3
ISO-25
100
AcDbAlignedDimension
 13
795.838539415
 23
1682.517091367211
 33
0.0
 14
787.4861232706061
 24
1517.51709136721
 34
0.0
 50
90.0
100
AcDbRotatedDimension
1001
ACAD
1000
DSTYLE
1002
{
1070
   279
1070
     2
1070
   289
1070
     0
1070
   371
1070
    18
1070
   372
1070
    18
1002
}
  0
DIMENSION
  5
5520
330
1F
100
AcDbEntity
  8
実形
100
AcDbDimension
  2
*D83
 10
672.4084262228643
 20
1517.51709136721
 30
0.0
 11
645.2924554366163
 21
1579.842516614246
 31
0.0
 70
   160
 71
     5
 42
145.0000000000004
  3
ISO-25
100
AcDbAlignedDimension
 13
797.5090125369515
 23
1662.517091367211
 33
0.0
 14
802.5204655925627
 24
1517.51709136721
 34
0.0
 50
90.0
100
AcDbRotatedDimension
1001
ACAD
1000
DSTYLE
1002
{
1070
   279
1070
     2
1070
   289
1070
     0
1070
   371
1070
    18
1070
   372
1070
    18
1002
}
  0
DIMENSION
  5
5563
330
1F
100
AcDbEntity
  8
実形
100
AcDbDimension
  2
*D84
 10
672.4084262228643
 20
1297.517091367211
 30
0.0
 11
645.9678003906865
 21
1407.517091367211
 31
0.0
 70
   160
 71
     5
 42
219.9999999999995
  3
ISO-25
100
AcDbAlignedDimension
 13
737.3716264042423
 23
1517.51709136721
 33
0.0
 14
749.0649972149777
 24
1297.517091367211
 34
0.0
 50
90.0
100
AcDbRotatedDimension
1001
ACAD
1000
DSTYLE
1002
{
1070
   279
1070
     2
1070
   289
1070
     0
1070
   371
1070
    18
1070
   372
1070
    18
1002
}
  0
DIMENSION
  5
5570
330
1F
100
AcDbEntity
  8
実形
100
AcDbDimension
  2
*D85
 10
746.666387283073
 20
1172.51709136721
 30
0.0
 11
727.9163872830729
 21
1235.017091367211
 31
0.0
 70
    32
 71
     5
 42
125.0000000000004
  3
ISO-25
100
AcDbAlignedDimension
 13
859.358032257418
 23
1297.517091367211
 33
0.0
 14
859.3580322574181
 24
1172.51709136721
 34
0.0
 50
90.0
100
AcDbRotatedDimension
1001
ACAD
1000
DSTYLE
1002
{
1070
   279
1070
     2
1070
   289
1070
     0
1070
   371
1070
    18
1070
   372
1070
    18
1002
}
  0
DIMENSION
  5
557D
330
1F
100
AcDbEntity
  8
実形
100
AcDbDimension
  2
*D86
 10
672.4084262228642
 20
1192.517091367211
 30
0.0
 11
644.7005010640869
 21
1245.017091367211
 31
0.0
 70
   160
 71
     5
 42
105.0000000000002
  3
ISO-25
100
AcDbAlignedDimension
 13
772.4517641037691
 23
1297.517091367211
 33
0.0
 14
797.5090125369515
 24
1192.517091367211
 34
0.0
 50
90.0
100
AcDbRotatedDimension
1001
ACAD
1000
DSTYLE
1002
{
1070
   279
1070
     2
1070
   289
1070
     0
1070
   371
1070
    18
1070
   372
1070
    18
1002
}
  0
DIMENSION
  5
558A
330
1F
100
AcDbEntity
  8
実形
100
AcDbDimension
  2
*D87
 10
672.4084262228642
 20
1172.51709136721
 30
0.0
 11
643.4332017374863
 21
1174.075494136473
 31
0.0
 70
   160
  1
20
 71
     5
 42
125.0000000000002
  3
ISO-25
100
AcDbAlignedDimension
 13
792.4975679037788
 23
1297.517091367211
 33
0.0
 14
795.8385309925597
 24
1172.51709136721
 34
0.0
 50
90.0
100
AcDbRotatedDimension
1001
ACAD
1000
DSTYLE
1002
{
1070
   281
1070
     1
1070
   282
1070
     1
1070
   279
1070
     2
1070
   289
1070
     0
1070
   371
1070
    18
1070
   372
1070
    18
1002
}
  0
LINE
  5
55B7
330
1F
100
AcDbEntity
  8
実形
100
AcDbLine
 10
672.4084262228642
 20
1172.51709136721
 30
0.0
 11
672.4084262228642
 21
1190.329591367211
 31
0.0
  0
TEXT
  5
56ED
330
1F
100
AcDbEntity
  8
実形
370
    18
100
AcDbText
 10
668.4752948752148
 20
1168.665399986343
 30
0.0
 40
10.0
  1
●
100
AcDbText
  0
TEXT
  5
5A42
330
1F
100
AcDbEntity
  8
0
100
AcDbText
 10
2430.916666666667
 20
84.0
 30
0.0
 40
35.0
  1
1：10
 72
     4
 11
2484.0
 21
101.5
 31
0.0
100
AcDbText
  0
LINE
  5
5A43
330
1F
100
AcDbEntity
  8
補助
100
AcDbLine
 10
109.0
 20
4.0
 30
0.0
 11
109.0
 21
2024.0
 31
0.0
  0
LINE
  5
5A5B
330
1F
100
AcDbEntity
  8
補助
 62
     0
100
AcDbLine
 10
2784.0
 20
1959.000000000001
 30
0.0
 11
2019.387286519283
 21
1959.000000000002
 31
0.0
  0
LINE
  5
5A5C
330
1F
100
AcDbEntity
  8
補助
 62
     0
100
AcDbLine
 10
2784.0
 20
1894.000000000001
 30
0.0
 11
2019.387286519283
 21
1894.000000000001
 31
0.0
  0
LINE
  5
5A5D
330
1F
100
AcDbEntity
  8
補助
 62
     0
100
AcDbLine
 10
2784.0
 20
1829.000000000001
 30
0.0
 11
2019.387286519283
 21
1829.000000000001
 31
0.0
  0
LINE
  5
5A5E
330
1F
100
AcDbEntity
  8
補助
 62
     0
100
AcDbLine
 10
2202.547653420927
 20
1829.000000000001
 30
0.0
 11
2202.547653420927
 21
2024.000000000002
 31
0.0
  0
LINE
  5
5A5F
330
1F
100
AcDbEntity
  8
補助
 62
     0
100
AcDbLine
 10
2019.387286519283
 20
1829.000000000001
 30
0.0
 11
2019.387286519283
 21
2024.000000000002
 31
0.0
  0
TEXT
  5
5A60
330
1F
100
AcDbEntity
  8
補助
 62
     0
100
AcDbText
 10
2050.295698850121
 20
1976.328571428573
 30
0.0
 40
30.0
  1
部品名
  7
明朝
 72
     4
 11
2116.124270278692
 21
1991.500000000002
 31
0.0
100
AcDbText
  0
TEXT
  5
5A61
330
1F
100
AcDbEntity
  8
補助
 62
     0
100
AcDbText
 10
2627.614285714286
 20
1976.07142857143
 30
0.0
 40
30.0
  1
厚さ
  7
明朝
 72
     4
 11
2671.5
 21
1991.500000000002
 31
0.0
100
AcDbText
  0
LINE
  5
5A62
330
1F
100
AcDbEntity
  8
補助
 62
     0
100
AcDbLine
 10
2559.0
 20
1829.000000000001
 30
0.0
 11
2559.0
 21
2024.000000000002
 31
0.0
  0
TEXT
  5
5A63
330
1F
100
AcDbEntity
  8
補助
 62
     0
100
AcDbText
 10
2338.490869919937
 20
1975.947979478156
 30
0.0
 40
30.0
  1
材質
  7
明朝
 72
     4
 11
2382.376584205651
 21
1991.119408049584
 31
0.0
100
AcDbText
  0
TEXT
  5
5A64
330
1F
100
AcDbEntity
  8
実形
 62
     0
100
AcDbText
 10
2048.227810657788
 20
1910.557142857144
 30
0.0
 40
30.0
  1
ボウル
  7
明朝
 72
     4
 11
2114.056382086359
 21
1926.500000000001
 31
0.0
100
AcDbText
  0
TEXT
  5
5A65
330
1F
100
AcDbEntity
  8
実形
 62
     0
100
AcDbText
 10
2594.700000000001
 20
1911.842857142858
 30
0.0
 40
30.0
  1
1.0ｍｍ
  7
明朝
 72
     4
 11
2671.500000000001
 21
1926.500000000001
 31
0.0
100
AcDbText
  0
TEXT
  5
5A66
330
1F
100
AcDbEntity
  8
実形
 62
     0
100
AcDbText
 10
2261.016869107866
 20
1910.728571428572
 30
0.0
 40
30.0
  1
SUS304（HL）
  7
明朝
 72
     4
 11
2392.674011965008
 21
1926.500000000001
 31
0.0
100
AcDbText
  0
TEXT
  5
5A67
330
1F
100
AcDbEntity
  8
実形
 62
     0
100
AcDbText
 10
2070.170667800645
 20
1846.242857142858
 30
0.0
 40
30.0
  1
天板
  7
明朝
 72
     4
 11
2114.056382086359
 21
1861.500000000001
 31
0.0
100
AcDbText
  0
TEXT
  5
5A68
330
1F
100
AcDbEntity
  8
実形
 62
     0
100
AcDbText
 10
2594.700000000001
 20
1846.842857142858
 30
0.0
 40
30.0
  1
1.0ｍｍ
  7
明朝
 72
     4
 11
2671.500000000001
 21
1861.500000000001
 31
0.0
100
AcDbText
  0
TEXT
  5
5A69
330
1F
100
AcDbEntity
  8
実形
 62
     0
100
AcDbText
 10
2261.016869107866
 20
1845.728571428573
 30
0.0
 40
30.0
  1
SUS304（HL）
  7
明朝
 72
     4
 11
2392.674011965008
 21
1861.500000000001
 31
0.0
100
AcDbText
  0
LINE
  5
5A6A
330
1F
100
AcDbEntity
  8
補助
100
AcDbLine
 10
109.0
 20
4.0
 30
0.0
 11
109.0
 21
2024.0
 31
0.0
  0
LINE
  5
5AD7
330
1F
100
AcDbEntity
  8
実形
100
AcDbLine
 10
1679.30071929418
 20
651.4270373160679
 30
0.0
 11
1679.30071929418
 21
641.427037316068
 31
0.0
  0
LINE
  5
5AD8
330
1F
100
AcDbEntity
  8
実形
100
AcDbLine
 10
1564.30071929418
 20
641.427037316068
 30
0.0
 11
1564.30071929418
 21
651.4270373160679
 31
0.0
  0
LINE
  5
5B01
330
1F
100
AcDbEntity
  8
実形
100
AcDbLine
 10
2342.756977120949
 20
1545.017091367211
 30
0.0
 11
2332.756977120949
 21
1545.017091367211
 31
0.0
  0
LINE
  5
5B02
330
1F
100
AcDbEntity
  8
実形
100
AcDbLine
 10
2342.756977120949
 20
1430.017091367211
 30
0.0
 11
2332.756977120949
 21
1430.017091367211
 31
0.0
  0
VIEWPORT
  5
2E
102
{ACAD_XDICTIONARY
360
5B2F
102
}
330
1B
100
AcDbEntity
 67
     1
  8
0
100
AcDbViewport
 10
144.7270812988281
 20
101.2295806407928
 30
0.0
 40
411.6736216682419
 41
222.1517806396485
 68
     1
 69
     1
 12
144.7270812988281
 22
101.2295806407928
 13
0.0
 23
0.0
 14
10.0
 24
10.0
 15
10.0
 25
10.0
 16
0.0
 26
0.0
 36
1.0
 17
0.0
 27
0.0
 37
0.0
 42
50.0
 43
0.0
 44
0.0
 45
222.1517806396485
 50
0.0
 51
0.0
 72
   100
 90
    32800
  1

281
     0
 71
     1
 74
     0
110
0.0
120
0.0
130
0.0
111
1.0
121
0.0
131
0.0
112
0.0
122
1.0
132
0.0
 79
     0
146
0.0
  0
VIEWPORT
  5
30
102
{ACAD_XDICTIONARY
360
5B31
102
}
330
1B
100
AcDbEntity
 67
     1
  8
0
100
AcDbViewport
 10
139.2237563133239
 20
101.2295821905136
 30
0.0
 40
222.7580101013184
 41
161.9673315048218
 68
     2
 69
     2
 12
210.0
 22
148.5
 13
0.0
 23
0.0
 14
10.0
 24
10.0
 15
10.0
 25
10.0
 16
0.0
 26
0.0
 36
1.0
 17
0.0
 27
0.0
 37
0.0
 42
50.0
 43
0.0
 44
0.0
 45
309.0686705647124
 50
0.0
 51
0.0
 72
   100
 90
    32864
  1

281
     0
 71
     1
 74
     0
110
0.0
120
0.0
130
0.0
111
1.0
121
0.0
131
0.0
112
0.0
122
1.0
132
0.0
 79
     0
146
0.0
  0
ENDSEC
  0
SECTION
  2
OBJECTS
  0
DICTIONARY
  5
C
330
0
100
AcDbDictionary
281
     1
  3
ACAD_COLOR
350
260C
  3
ACAD_GROUP
350
D
  3
ACAD_LAYOUT
350
1A
  3
ACAD_MATERIAL
350
260B
  3
ACAD_MLINESTYLE
350
17
  3
ACAD_PLOTSETTINGS
350
19
  3
ACAD_PLOTSTYLENAME
350
E
  3
ACAD_TABLESTYLE
350
260D
  3
AcadDim
350
124
  3
ACDBHEADERROUNDTRIPXREC
350
5B28
  3
AcDbVariableDictionary
350
1055
  0
DICTIONARY
  5
2635
330
2
100
AcDbDictionary
280
     1
281
     1
  3
ACAD_LAYERFILTERS
360
2637
  3
ACAD_LAYERSTATES
360
272C
  3
ACLYDICTIONARY
360
2636
  0
DICTIONARY
  5
264B
330
1F
100
AcDbDictionary
280
     1
281
     1
  3
ACAD_SORTENTS
360
264C
  0
DICTIONARY
  5
3890
330
388E
100
AcDbDictionary
280
     1
281
     1
  3
ACAD_SORTENTS
360
3891
  0
DICTIONARY
  5
49DF
330
49DC
100
AcDbDictionary
280
     1
281
     1
  3
ACAD_SORTENTS
360
49E0
  0
DICTIONARY
  5
5A3D
330
5A3B
100
AcDbDictionary
280
     1
281
     1
  3
ACAD_SORTENTS
360
5A3E
  0
DICTIONARY
  5
5B2F
330
2E
100
AcDbDictionary
280
     1
281
     1
  3
ACAD_XREC_ROUNDTRIP
360
5B30
  0
DICTIONARY
  5
5B31
330
30
100
AcDbDictionary
280
     1
281
     1
  3
ACAD_XREC_ROUNDTRIP
360
5B32
  0
DICTIONARY
  5
260C
102
{ACAD_REACTORS
330
C
102
}
330
C
100
AcDbDictionary
281
     1
  0
DICTIONARY
  5
D
102
{ACAD_REACTORS
330
C
102
}
330
C
100
AcDbDictionary
281
     1
  0
DICTIONARY
  5
1A
102
{ACAD_REACTORS
330
C
102
}
330
C
100
AcDbDictionary
281
     1
  3
Model
350
22
  3
ﾚｲｱｳﾄ1
350
1E
  3
ﾚｲｱｳﾄ2
350
26
  0
DICTIONARY
  5
260B
102
{ACAD_REACTORS
330
C
102
}
330
C
100
AcDbDictionary
281
     1
  0
DICTIONARY
  5
17
102
{ACAD_REACTORS
330
C
102
}
330
C
100
AcDbDictionary
281
     1
  3
Standard
350
18
  0
DICTIONARY
  5
19
102
{ACAD_REACTORS
330
C
102
}
330
C
100
AcDbDictionary
281
     1
  0
ACDBDICTIONARYWDFLT
  5
E
102
{ACAD_REACTORS
330
C
102
}
330
C
100
AcDbDictionary
281
     1
  3
Normal
350
F
100
AcDbDictionaryWithDefault
340
F
  0
DICTIONARY
  5
260D
102
{ACAD_REACTORS
330
C
102
}
330
C
100
AcDbDictionary
281
     1
  3
Standard
350
260E
  0
XRECORD
  5
124
102
{ACAD_REACTORS
330
C
102
}
330
C
100
AcDbXrecord
280
     1
 90
   990106
  3

 60
     0
 61
     0
 62
     1
 63
     3
 64
     0
 65
     0
 66
     0
 67
     3
 68
     1
 69
     0
 70
     0
 71
     0
 72
     0
 40
30.0
170
     0
  0
DICTIONARY
  5
5B28
102
{ACAD_REACTORS
330
C
102
}
330
C
100
AcDbDictionary
281
     1
  0
DICTIONARY
  5
1055
102
{ACAD_REACTORS
330
C
102
}
330
C
100
AcDbDictionary
281
     1
  3
CTABLESTYLE
350
2614
  3
DIMASSOC
350
5B25
  3
PROJECTNAME
350
5B26
  3
SORTENTS
350
1056
  0
DICTIONARY
  5
2637
102
{ACAD_REACTORS
330
2635
102
}
330
2635
100
AcDbDictionary
281
     1
  0
DICTIONARY
  5
272C
102
{ACAD_REACTORS
330
2635
102
}
330
2635
100
AcDbDictionary
281
     1
  0
DICTIONARY
  5
2636
102
{ACAD_REACTORS
330
2635
102
}
330
2635
100
AcDbDictionary
281
     1
1001
ACAD
1000
<All
  0
SORTENTSTABLE
  5
264C
102
{ACAD_REACTORS
330
264B
102
}
330
264B
100
AcDbSortentsTable
330
1F
331
1A52
  5
237C
331
243F
  5
293A
331
1A5A
  5
237E
331
25C6
  5
2C7B
331
2381
  5
24F4
331
1A62
  5
2384
331
1A6A
  5
2387
331
3A81
  5
3E2B
331
33B0
  5
3415
331
169A
  5
16AE
331
49F3
  5
5512
331
381A
  5
3E26
331
343F
  5
3509
331
16E1
  5
1A7A
331
16A2
  5
16BC
331
3E28
  5
3FBA
331
3447
  5
3515
331
2DE4
  5
2F40
331
44EC
  5
4AB7
331
444D
  5
49EA
331
3E30
  5
42DE
331
5570
  5
5A61
331
344F
  5
3819
331
3410
  5
3423
331
2389
  5
25D3
331
2391
  5
2746
331
1A7A
  5
2391
331
293D
  5
16DE
331
1A2B
  5
2376
331
2ADD
  5
169D
331
2AE5
  5
1A22
331
25B7
  5
2C79
331
3513
  5
169C
331
3418
  5
342F
331
16BA
  5
16D1
331
167B
  5
167D
331
AD
  5
2C9
331
3FAF
  5
42E2
331
5A5C
  5
5A68
331
3420
  5
3434
331
3351
  5
3412
331
1683
  5
1686
331
2CED
  5
2E98
331
3A62
  5
3E27
331
5A64
  5
5AD8
331
16CA
  5
1A4F
331
2D2D
  5
2F3D
331
DBC
  5
DBE
331
42D7
  5
4397
331
3B11
  5
3E30
331
3430
  5
3444
331
30A3
  5
2E32
331
16D2
  5
1A69
331
2D35
  5
2F3E
331
DC4
  5
DC6
331
42DF
  5
4451
331
4A31
  5
558A
331
4A39
  5
55B7
331
1A5B
  5
237F
331
9C
  5
9C
331
2382
  5
2583
331
2936
  5
1A5A
331
3B39
  5
3E31
331
3438
  5
344C
331
33B1
  5
3416
331
16DA
  5
1A77
331
169B
  5
16AF
331
44D5
  5
4A39
331
438E
  5
44E1
331
3440
  5
350A
331
333A
  5
340E
331
16E2
  5
22EB
331
16A3
  5
16BD
331
49FC
  5
5520
331
3E29
  5
42D7
331
3ABA
  5
3E2C
331
3448
  5
3516
331
16AB
  5
16C2
331
4A04
  5
5563
331
3E31
  5
42DF
331
444E
  5
49F3
331
3411
  5
3424
331
54CA
  5
5A5D
331
1A73
  5
238D
331
2392
  5
2934
331
1A24
  5
22F1
331
22EB
  5
2395
331
1A2C
  5
2377
331
3AC2
  5
3E2D
331
3450
  5
381A
331
3419
  5
3430
331
16BB
  5
16D7
331
167C
  5
167E
331
5A5D
  5
5A69
331
351C
  5
3A81
331
5512
  5
5A5E
331
3421
  5
3435
331
1684
  5
1689
331
5A65
  5
5AD9
331
2E3D
  5
3231
331
DBD
  5
DBF
331
42D8
  5
444A
331
3431
  5
3445
331
16D3
  5
1A6D
331
DC5
  5
DC7
331
2CCD
  5
2E3F
331
1A5C
  5
2380
331
2383
  5
2591
331
1A64
  5
2385
331
A5
  5
A5
331
1A6C
  5
2388
331
2937
  5
1680
331
42E0
  5
4452
331
16DB
  5
1A78
331
169C
  5
16B5
331
3224
  5
3351
331
2DCE
  5
2F3F
331
4397
  5
44EC
331
3E2A
  5
42D8
331
3441
  5
350C
331
3449
  5
351C
331
3E32
  5
42E0
331
444F
  5
49FC
331
3343
  5
340F
331
4506
  5
4B94
331
3412
  5
3425
331
350F
  5
3420
331
2591
  5
293D
331
2393
  5
2935
331
2ADF
  5
2CED
331
22F4
  5
243A
331
1A4D
  5
2378
331
3451
  5
3912
331
341A
  5
3431
331
16BC
  5
16DB
331
5A5E
  5
5A6A
331
351D
  5
3ABA
331
558A
  5
5A63
331
167D
  5
1681
331
3422
  5
3436
331
16C4
  5
1A24
331
37CD
  5
3B12
331
5A66
  5
5ADA
331
1685
  5
168D
331
342A
  5
343F
331
16CC
  5
1A52
331
2E3E
  5
325E
331
42D9
  5
444B
331
DBE
  5
DC0
331
168D
  5
169E
331
3432
  5
3446
331
16D4
  5
1A6E
331
DC6
  5
DC8
331
2680
  5
2CD0
331
25B9
  5
2C7A
331
2CCE
  5
2E41
331
237C
  5
24AC
331
1A5D
  5
2381
331
1A6D
  5
2389
331
42E1
  5
44CA
331
343A
  5
344D
331
5563
  5
5A60
331
169D
  5
16B6
331
3442
  5
350D
331
3E2B
  5
42D9
331
2E8E
  5
333A
331
16A5
  5
16BE
331
344A
  5
351D
331
3344
  5
3411
331
3E33
  5
42E1
331
16AD
  5
16C7
331
3413
  5
342C
331
16B5
  5
16CC
331
238C
  5
263D
331
2938
  5
1A59
331
2592
  5
2ADA
331
2394
  5
2936
331
1A26
  5
22F4
331
2AE0
  5
1695
331
25B2
  5
2C1C
331
1A4E
  5
2379
331
4450
  5
4A04
331
A8
  5
AA
331
325D
  5
339F
331
16BD
  5
16E0
331
3FBA
  5
438E
331
5A5F
  5
5A8E
331
167E
  5
1682
331
3423
  5
343B
331
37CE
  5
3C3F
331
5A67
  5
5AED
331
16C5
  5
1A26
331
2E3F
  5
3281
331
16CD
  5
1A5B
331
42DA
  5
444C
331
DBF
  5
DC1
331
3433
  5
3447
331
32CD
  5
340D
331
DC7
  5
1677
331
2681
  5
1A5C
331
2CCF
  5
2E42
331
237D
  5
24E5
331
1A5E
  5
2382
331
2583
  5
293C
331
1A6E
  5
238A
331
42E2
  5
44D5
331
343B
  5
344E
331
169E
  5
16B8
331
5AD7
  5
16A7
331
3443
  5
350E
331
2E8F
  5
3343
331
3E2C
  5
42DA
331
3509
  5
3A7E
331
344B
  5
351F
331
340C
  5
3417
331
16AE
  5
16C9
331
1677
  5
1679
331
4B94
  5
5A43
331
54BD
  5
5A5C
331
3414
  5
342D
331
16B6
  5
16CE
331
4B9C
  5
5A5B
331
238D
  5
264D
331
2939
  5
16AC
331
2593
  5
2ADF
331
2395
  5
2937
331
22EE
  5
2396
331
2C79
  5
2DCE
331
2662
  5
2CCF
331
1A4F
  5
237B
331
A9
  5
AB
331
4451
  5
4A1F
331
325E
  5
33B0
331
5A60
  5
5A8F
331
16BE
  5
16E2
331
3424
  5
343C
331
5A68
  5
5AEE
331
3286
  5
340C
331
342C
  5
3440
331
309F
  5
2DE4
331
16CE
  5
1A5D
331
2E40
  5
3286
331
DC0
  5
DC2
331
168F
  5
169F
331
42DB
  5
444D
331
3A7E
  5
3E28
331
3434
  5
3448
331
16D6
  5
1A6F
331
1697
  5
16A8
331
2376
  5
243B
331
A0
  5
A0
331
25D3
  5
2C7C
331
2386
  5
2592
331
1A6F
  5
238B
331
DC8
  5
1678
331
343C
  5
344F
331
16DE
  5
1A79
331
169F
  5
16BA
331
44E1
  5
4AAE
331
3E25
  5
3E32
331
3444
  5
350F
331
5AD8
  5
5B02
331
2E98
  5
3344
331
16A7
  5
16BF
331
3E2D
  5
42DB
331
444A
  5
4506
331
344C
  5
3520
331
340D
  5
3418
331
16AF
  5
16CA
331
238E
  5
264E
331
1A77
  5
238E
331
293A
  5
16DA
331
2ADA
  5
2CD1
331
2C7A
  5
2E3C
331
3510
  5
3A80
331
1678
  5
167B
331
2C9
  5
DB9
331
557D
  5
5A62
331
AA
  5
AD
331
4452
  5
4A27
331
16BF
  5
16E3
331
5A61
  5
5AA2
331
1680
  5
1683
331
8C9
  5
DBA
331
3425
  5
343D
331
16C7
  5
1A4D
331
5A69
  5
5B01
331
1688
  5
1692
331
DB9
  5
DBB
331
342D
  5
3441
331
16CF
  5
1A5E
331
DC1
  5
DC3
331
44CA
  5
4A31
331
42DC
  5
444E
331
3A7F
  5
3E29
331
3435
  5
3449
331
339E
  5
3413
331
16D7
  5
1A73
331
2377
  5
243C
331
2CD1
  5
2E40
331
237F
  5
24E6
331
2387
  5
2593
331
1698
  5
16A9
331
56ED
  5
5A65
331
343D
  5
3450
331
16A0
  5
16BB
331
3E26
  5
3E33
331
3445
  5
3510
331
16A8
  5
16C0
331
3E2E
  5
42DC
331
444B
  5
49D2
331
4AAE
  5
56ED
331
350B
  5
3A7F
331
344D
  5
356C
331
340E
  5
3421
331
272
  5
8C9
331
5A42
  5
5A66
331
238F
  5
2661
331
1A78
  5
238F
331
293B
  5
16DF
331
2ADB
  5
2CEC
331
2397
  5
2938
331
2C7B
  5
2E3D
331
3511
  5
2CD2
331
16B8
  5
16CF
331
1679
  5
167C
331
AB
  5
272
331
49D2
  5
4B9C
331
341E
  5
3432
331
1681
  5
1684
331
2E32
  5
2F41
331
5A62
  5
5AA3
331
1689
  5
1696
331
DBA
  5
DBC
331
5A6A
  5
A8
331
4A1F
  5
5570
331
342E
  5
3442
331
16D0
  5
1A61
331
2E42
  5
325D
331
DC2
  5
DC4
331
49EA
  5
54CA
331
42DD
  5
444F
331
5B01
  5
3ACF
331
4A27
  5
557D
331
3436
  5
344A
331
339F
  5
3414
331
243E
  5
2939
331
2378
  5
243D
331
1A59
  5
237D
331
2CD2
  5
2E43
331
24E6
  5
293B
331
2380
  5
24F1
331
1A61
  5
2383
331
1A69
  5
2386
331
3A80
  5
3E2A
331
1699
  5
16AB
331
3819
  5
3E25
331
343E
  5
3451
331
3E27
  5
3FAF
331
3446
  5
3511
331
3231
  5
339E
331
16A9
  5
16C1
331
3E2F
  5
42DD
331
444C
  5
49DB
331
344E
  5
37CE
331
340F
  5
3422
331
5A43
  5
A9
331
4AB7
  5
5A42
331
3417
  5
342E
331
2388
  5
25C6
331
2390
  5
267F
331
1A79
  5
2390
331
1A22
  5
22EE
331
293C
  5
16C3
331
2ADC
  5
1698
331
2AE4
  5
2D35
331
22F1
  5
2398
331
2C7C
  5
2E3B
331
3512
  5
1697
331
16B9
  5
16D0
331
3B00
  5
3E2E
331
5A5B
  5
5A67
331
341F
  5
3433
331
3281
  5
33B1
331
16C1
  5
16E4
331
1682
  5
1685
331
2CEC
  5
2E8E
331
49DB
  5
54BD
331
3B08
  5
3E2F
331
5A63
  5
5AB6
331
2E3B
  5
3224
331
168A
  5
169B
331
DBB
  5
DBD
331
5520
  5
5A5F
331
342F
  5
3443
331
16D1
  5
1A62
331
2E43
  5
32CD
331
30A2
  5
238C
331
DC3
  5
DC5
331
42DE
  5
4450
331
5B02
  5
3B11
331
55B7
  5
5A64
331
3437
  5
344B
  0
SORTENTSTABLE
  5
3891
102
{ACAD_REACTORS
330
3890
102
}
330
3890
100
AcDbSortentsTable
330
388E
  0
SORTENTSTABLE
  5
49E0
102
{ACAD_REACTORS
330
49DF
102
}
330
49DF
100
AcDbSortentsTable
330
49DC
  0
SORTENTSTABLE
  5
5A3E
102
{ACAD_REACTORS
330
5A3D
102
}
330
5A3D
100
AcDbSortentsTable
330
5A3B
  0
XRECORD
  5
5B30
102
{ACAD_REACTORS
330
5B2F
102
}
330
5B2F
100
AcDbXrecord
280
     1
102
SHADEPLOT
 70
     0
  0
XRECORD
  5
5B32
102
{ACAD_REACTORS
330
5B31
102
}
330
5B31
100
AcDbXrecord
280
     1
102
SHADEPLOT
 70
     0
  0
LAYOUT
  5
22
102
{ACAD_XDICTIONARY
360
5B2B
102
}
102
{ACAD_REACTORS
330
1A
102
}
330
1A
100
AcDbPlotSettings
  1

  2
EPSON PM-800C
  4
A4
  6

 40
3.757083177566528
 41
14.7637300491333
 42
3.757080078125
 43
3.757080078125
 44
209.9733276367187
 45
296.9683227539062
 46
0.0
 47
0.0
 48
0.0
 49
0.0
140
0.0
141
0.0
142
1.0
143
10.0
 70
 11952
 72
     1
 73
     1
 74
     2
  7

 75
    20
147
0.1
148
0.0
149
0.0
100
AcDbLayout
  1
Model
 70
     1
 71
     0
 10
0.0
 20
0.0
 11
12.0
 21
9.0
 12
0.0
 22
0.0
 32
0.0
 14
0.0
 24
0.0
 34
0.0
 15
0.0
 25
0.0
 35
0.0
146
0.0
 13
0.0
 23
0.0
 33
0.0
 16
1.0
 26
0.0
 36
0.0
 17
0.0
 27
1.0
 37
0.0
 76
     0
330
1F
  0
LAYOUT
  5
1E
102
{ACAD_XDICTIONARY
360
5B29
102
}
102
{ACAD_REACTORS
330
1A
102
}
330
1A
100
AcDbPlotSettings
  1

  2
EPSON PM-800C
  4
A4
  6

 40
3.757083177566528
 41
14.7637300491333
 42
3.757080078125
 43
3.757080078125
 44
209.9733276367187
 45
296.9683227539062
 46
0.0
 47
0.0
 48
0.0
 49
0.0
140
0.0
141
0.0
142
1.0
143
1.0
 70
   688
 72
     1
 73
     1
 74
     5
  7

 75
    16
147
1.0
148
0.0
149
0.0
100
AcDbLayout
  1
ﾚｲｱｳﾄ1
 70
     1
 71
     1
 10
-3.757080078125
 20
-3.757083177566528
 11
293.2112426757813
 21
206.2162444591522
 12
0.0
 22
0.0
 32
0.0
 14
27.8447512626648
 24
20.24591643810271
 34
0.0
 15
250.6027613639831
 25
182.2132479429245
 35
0.0
146
0.0
 13
0.0
 23
0.0
 33
0.0
 16
1.0
 26
0.0
 36
0.0
 17
0.0
 27
1.0
 37
0.0
 76
     0
330
1B
331
2E
  0
LAYOUT
  5
26
102
{ACAD_XDICTIONARY
360
5B2D
102
}
102
{ACAD_REACTORS
330
1A
102
}
330
1A
100
AcDbPlotSettings
  1

  2
EPSON PM-800C
  4

  6

 40
0.0
 41
0.0
 42
0.0
 43
0.0
 44
0.0
 45
0.0
 46
0.0
 47
0.0
 48
0.0
 49
0.0
140
0.0
141
0.0
142
1.0
143
1.0
 70
   688
 72
     0
 73
     0
 74
     5
  7

 75
    16
147
1.0
148
0.0
149
0.0
100
AcDbLayout
  1
ﾚｲｱｳﾄ2
 70
     1
 71
     2
 10
0.0
 20
0.0
 11
12.0
 21
9.0
 12
0.0
 22
0.0
 32
0.0
 14
0.0
 24
0.0
 34
0.0
 15
0.0
 25
0.0
 35
0.0
146
0.0
 13
0.0
 23
0.0
 33
0.0
 16
1.0
 26
0.0
 36
0.0
 17
0.0
 27
1.0
 37
0.0
 76
     0
330
23
  0
MLINESTYLE
  5
18
102
{ACAD_REACTORS
330
17
102
}
330
17
100
AcDbMlineStyle
  2
STANDARD
 70
     0
  3

 62
   256
 51
90.0
 52
90.0
 71
     2
 49
0.5
 62
   256
  6
BYLAYER
 49
-0.5
 62
   256
  6
BYLAYER
  0
ACDBPLACEHOLDER
  5
F
102
{ACAD_REACTORS
330
E
102
}
330
E
  0
TABLESTYLE
  5
260E
102
{ACAD_REACTORS
330
260D
102
}
330
260D
100
AcDbTableStyle
  3
Standard
 70
     0
 71
     0
 40
1.5
 41
1.5
280
     0
281
     0
  7
Standard
140
4.5
170
     2
 62
     0
 63
     7
283
     0
274
    -2
284
     1
 64
     0
275
    -2
285
     1
 65
     0
276
    -2
286
     1
 66
     0
277
    -2
287
     1
 67
     0
278
    -2
288
     1
 68
     0
279
    -2
289
     1
 69
     0
  7
Standard
140
6.0
170
     5
 62
     0
 63
     7
283
     0
274
    -2
284
     1
 64
     0
275
    -2
285
     1
 65
     0
276
    -2
286
     1
 66
     0
277
    -2
287
     1
 67
     0
278
    -2
288
     1
 68
     0
279
    -2
289
     1
 69
     0
  7
Standard
140
4.5
170
     5
 62
     0
 63
     7
283
     0
274
    -2
284
     1
 64
     0
275
    -2
285
     1
 65
     0
276
    -2
286
     1
 66
     0
277
    -2
287
     1
 67
     0
278
    -2
288
     1
 68
     0
279
    -2
289
     1
 69
     0
  0
DICTIONARYVAR
  5
2614
102
{ACAD_REACTORS
330
1055
102
}
330
1055
100
DictionaryVariables
280
     0
  1
STANDARD
  0
DICTIONARYVAR
  5
5B25
102
{ACAD_REACTORS
330
1055
102
}
330
1055
100
DictionaryVariables
280
     0
  1
1
  0
DICTIONARYVAR
  5
5B26
102
{ACAD_REACTORS
330
1055
102
}
330
1055
100
DictionaryVariables
280
     0
  1

  0
DICTIONARYVAR
  5
1056
102
{ACAD_REACTORS
330
1055
102
}
330
1055
100
DictionaryVariables
280
     0
  1
96
  0
DICTIONARY
  5
5B2B
330
22
100
AcDbDictionary
280
     1
281
     1
  3
ACAD_XREC_ROUNDTRIP
360
5B2C
  0
DICTIONARY
  5
5B29
330
1E
100
AcDbDictionary
280
     1
281
     1
  3
ACAD_XREC_ROUNDTRIP
360
5B2A
  0
DICTIONARY
  5
5B2D
330
26
100
AcDbDictionary
280
     1
281
     1
  3
ACAD_XREC_ROUNDTRIP
360
5B2E
  0
XRECORD
  5
5B2C
102
{ACAD_REACTORS
330
5B2B
102
}
330
5B2B
100
AcDbXrecord
280
     1
102
SHADEPLOT
 70
     0
102
SHADEPLOTRESLEVEL
 70
     2
102
SHADEPLOTCUSTOMDPI
 70
   300
  0
XRECORD
  5
5B2A
102
{ACAD_REACTORS
330
5B29
102
}
330
5B29
100
AcDbXrecord
280
     1
102
SHADEPLOT
 70
     0
102
SHADEPLOTRESLEVEL
 70
     2
102
SHADEPLOTCUSTOMDPI
 70
   300
  0
XRECORD
  5
5B2E
102
{ACAD_REACTORS
330
5B2D
102
}
330
5B2D
100
AcDbXrecord
280
     1
102
SHADEPLOT
 70
     0
102
SHADEPLOTRESLEVEL
 70
     2
102
SHADEPLOTCUSTOMDPI
 70
   300
  0
ENDSEC
  0
EOF
