  0
SECTION
  2
HEADER
  9
$ACADVER
  1
AC1015
  9
$ACADMAINTVER
 70
    20
  9
$DWGCODEPAGE
  3
ANSI_932
  9
$INSBASE
 10
0.0
 20
0.0
 30
0.0
  9
$EXTMIN
 10
111.0
 20
4.0
 30
0.0
  9
$EXTMAX
 10
2784.000000000001
 20
2024.0
 30
0.0
  9
$LIMMIN
 10
0.0
 20
0.0
  9
$LIMMAX
 10
29700.0
 20
21000.0
  9
$ORTHOMODE
 70
     0
  9
$REGENMODE
 70
     1
  9
$FILLMODE
 70
     1
  9
$QTEXTMODE
 70
     0
  9
$MIRRTEXT
 70
     1
  9
$LTSCALE
 40
4.0
  9
$ATTMODE
 70
     1
  9
$TEXTSIZE
 40
25.0
  9
$TRACEWID
 40
1.0
  9
$TEXTSTYLE
  7
ms明朝
  9
$CLAYER
  8
実形
  9
$CELTYPE
  6
ByLayer
  9
$CECOLOR
 62
     1
  9
$CELTSCALE
 40
1.0
  9
$DISPSILH
 70
     0
  9
$DIMSCALE
 40
1.0
  9
$DIMASZ
 40
30.0
  9
$DIMEXO
 40
65.0
  9
$DIMDLI
 40
3.75
  9
$DIMRND
 40
0.0
  9
$DIMDLE
 40
0.0
  9
$DIMEXE
 40
0.0
  9
$DIMTP
 40
0.0
  9
$DIMTM
 40
0.0
  9
$DIMTXT
 40
25.0
  9
$DIMCEN
 40
2.5
  9
$DIMTSZ
 40
0.0
  9
$DIMTOL
 70
     0
  9
$DIMLIM
 70
     0
  9
$DIMTIH
 70
     0
  9
$DIMTOH
 70
     0
  9
$DIMSE1
 70
     0
  9
$DIMSE2
 70
     0
  9
$DIMTAD
 70
     1
  9
$DIMZIN
 70
     8
  9
$DIMBLK
  1
DotSmall
  9
$DIMASO
 70
     1
  9
$DIMSHO
 70
     1
  9
$DIMPOST
  1

  9
$DIMAPOST
  1

  9
$DIMALT
 70
     0
  9
$DIMALTD
 70
     3
  9
$DIMALTF
 40
0.03937007874016
  9
$DIMLFAC
 40
1.0
  9
$DIMTOFL
 70
     1
  9
$DIMTVP
 40
0.0
  9
$DIMTIX
 70
     0
  9
$DIMSOXD
 70
     0
  9
$DIMSAH
 70
     0
  9
$DIMBLK1
  1

  9
$DIMBLK2
  1

  9
$DIMSTYLE
  2
ISO-25
  9
$DIMCLRD
 70
     0
  9
$DIMCLRE
 70
     0
  9
$DIMCLRT
 70
     0
  9
$DIMTFAC
 40
1.0
  9
$DIMGAP
 40
6.25
  9
$DIMJUST
 70
     0
  9
$DIMSD1
 70
     0
  9
$DIMSD2
 70
     0
  9
$DIMTOLJ
 70
     0
  9
$DIMTZIN
 70
     8
  9
$DIMALTZ
 70
     0
  9
$DIMALTTZ
 70
     0
  9
$DIMUPT
 70
     0
  9
$DIMDEC
 70
     2
  9
$DIMTDEC
 70
     2
  9
$DIMALTU
 70
     2
  9
$DIMALTTD
 70
     3
  9
$DIMTXSTY
  7
Standard
  9
$DIMAUNIT
 70
     0
  9
$DIMADEC
 70
     0
  9
$DIMALTRND
 40
0.0
  9
$DIMAZIN
 70
     0
  9
$DIMDSEP
 70
    46
  9
$DIMATFIT
 70
     3
  9
$DIMFRAC
 70
     0
  9
$DIMLDRBLK
  1
Open30
  9
$DIMLUNIT
 70
     2
  9
$DIMLWD
 70
    15
  9
$DIMLWE
 70
    15
  9
$DIMTMOVE
 70
     1
  9
$LUNITS
 70
     2
  9
$LUPREC
 70
     2
  9
$SKETCHINC
 40
1.0
  9
$FILLETRAD
 40
30.0
  9
$AUNITS
 70
     0
  9
$AUPREC
 70
     0
  9
$MENU
  1
.
  9
$ELEVATION
 40
0.0
  9
$PELEVATION
 40
0.0
  9
$THICKNESS
 40
0.0
  9
$LIMCHECK
 70
     1
  9
$CHAMFERA
 40
10.0
  9
$CHAMFERB
 40
10.0
  9
$CHAMFERC
 40
20.0
  9
$CHAMFERD
 40
0.0
  9
$SKPOLY
 70
     0
  9
$TDCREATE
 40
2451673.575802199
  9
$TDUCREATE
 40
2451673.200802199
  9
$TDUPDATE
 40
2458807.449974202
  9
$TDUUPDATE
 40
2458807.074974202
  9
$TDINDWG
 40
1.6276760069
  9
$TDUSRTIMER
 40
1.6276753125
  9
$USRTIMER
 70
     1
  9
$ANGBASE
 50
0.0
  9
$ANGDIR
 70
     0
  9
$PDMODE
 70
     0
  9
$PDSIZE
 40
0.0
  9
$PLINEWID
 40
0.0
  9
$SPLFRAME
 70
     0
  9
$SPLINETYPE
 70
     6
  9
$SPLINESEGS
 70
     8
  9
$HANDSEED
  5
190D
  9
$SURFTAB1
 70
     6
  9
$SURFTAB2
 70
     6
  9
$SURFTYPE
 70
     6
  9
$SURFU
 70
     6
  9
$SURFV
 70
     6
  9
$UCSBASE
  2

  9
$UCSNAME
  2

  9
$UCSORG
 10
0.0
 20
0.0
 30
0.0
  9
$UCSXDIR
 10
1.0
 20
0.0
 30
0.0
  9
$UCSYDIR
 10
0.0
 20
1.0
 30
0.0
  9
$UCSORTHOREF
  2

  9
$UCSORTHOVIEW
 70
     0
  9
$UCSORGTOP
 10
0.0
 20
0.0
 30
0.0
  9
$UCSORGBOTTOM
 10
0.0
 20
0.0
 30
0.0
  9
$UCSORGLEFT
 10
0.0
 20
0.0
 30
0.0
  9
$UCSORGRIGHT
 10
0.0
 20
0.0
 30
0.0
  9
$UCSORGFRONT
 10
0.0
 20
0.0
 30
0.0
  9
$UCSORGBACK
 10
0.0
 20
0.0
 30
0.0
  9
$PUCSBASE
  2

  9
$PUCSNAME
  2

  9
$PUCSORG
 10
0.0
 20
0.0
 30
0.0
  9
$PUCSXDIR
 10
1.0
 20
0.0
 30
0.0
  9
$PUCSYDIR
 10
0.0
 20
1.0
 30
0.0
  9
$PUCSORTHOREF
  2

  9
$PUCSORTHOVIEW
 70
     0
  9
$PUCSORGTOP
 10
0.0
 20
0.0
 30
0.0
  9
$PUCSORGBOTTOM
 10
0.0
 20
0.0
 30
0.0
  9
$PUCSORGLEFT
 10
0.0
 20
0.0
 30
0.0
  9
$PUCSORGRIGHT
 10
0.0
 20
0.0
 30
0.0
  9
$PUCSORGFRONT
 10
0.0
 20
0.0
 30
0.0
  9
$PUCSORGBACK
 10
0.0
 20
0.0
 30
0.0
  9
$USERI1
 70
     0
  9
$USERI2
 70
     0
  9
$USERI3
 70
     0
  9
$USERI4
 70
     0
  9
$USERI5
 70
     0
  9
$USERR1
 40
0.0
  9
$USERR2
 40
0.0
  9
$USERR3
 40
0.0
  9
$USERR4
 40
0.0
  9
$USERR5
 40
0.0
  9
$WORLDVIEW
 70
     1
  9
$SHADEDGE
 70
     3
  9
$SHADEDIF
 70
    70
  9
$TILEMODE
 70
     1
  9
$MAXACTVP
 70
    64
  9
$PINSBASE
 10
0.0
 20
0.0
 30
0.0
  9
$PLIMCHECK
 70
     0
  9
$PEXTMIN
 10
27.8447512626648
 20
20.24591643810271
 30
0.0
  9
$PEXTMAX
 10
250.6027613639831
 20
182.2132479429245
 30
0.0
  9
$PLIMMIN
 10
-3.757080078125
 20
-3.757083177566528
  9
$PLIMMAX
 10
293.2112426757813
 20
206.2162444591522
  9
$UNITMODE
 70
     0
  9
$VISRETAIN
 70
     1
  9
$PLINEGEN
 70
     0
  9
$PSLTSCALE
 70
     1
  9
$TREEDEPTH
 70
  3020
  9
$CMLSTYLE
  2
Standard
  9
$CMLJUST
 70
     0
  9
$CMLSCALE
 40
20.0
  9
$PROXYGRAPHICS
 70
     1
  9
$MEASUREMENT
 70
     1
  9
$CELWEIGHT
370
    -1
  9
$ENDCAPS
280
     0
  9
$JOINSTYLE
280
     0
  9
$LWDISPLAY
290
     0
  9
$INSUNITS
 70
     4
  9
$HYPERLINKBASE
  1

  9
$STYLESHEET
  1

  9
$XEDIT
290
     1
  9
$CEPSNTYPE
380
     0
  9
$PSTYLEMODE
290
     1
  9
$FINGERPRINTGUID
  2
{C8EA1F16-24C9-11D4-9416-CE0A3B32152F}
  9
$VERSIONGUID
  2
{E7522212-7A46-470D-AFC9-D9AEE9AAC256}
  9
$EXTNAMES
290
     1
  9
$PSVPSCALE
 40
0.0
  9
$OLESTARTUP
290
     0
  0
ENDSEC
  0
SECTION
  2
CLASSES
  0
CLASS
  1
ACDBDICTIONARYWDFLT
  2
AcDbDictionaryWithDefault
  3
ObjectDBX Classes
 90
        0
280
     0
281
     0
  0
CLASS
  1
ACDBPLACEHOLDER
  2
AcDbPlaceHolder
  3
ObjectDBX Classes
 90
        0
280
     0
281
     0
  0
CLASS
  1
LAYOUT
  2
AcDbLayout
  3
ObjectDBX Classes
 90
        0
280
     0
281
     0
  0
CLASS
  1
DICTIONARYVAR
  2
AcDbDictionaryVar
  3
ObjectDBX Classes
 90
        0
280
     0
281
     0
  0
CLASS
  1
TABLESTYLE
  2
AcDbTableStyle
  3
ObjectDBX Classes
 90
     2047
280
     0
281
     0
  0
CLASS
  1
SORTENTSTABLE
  2
AcDbSortentsTable
  3
ObjectDBX Classes
 90
        0
280
     0
281
     0
  0
ENDSEC
  0
SECTION
  2
TABLES
  0
TABLE
  2
VPORT
  5
8
330
0
100
AcDbSymbolTable
 70
     2
  0
VPORT
  5
1901
330
8
100
AcDbSymbolTableRecord
100
AcDbViewportTableRecord
  2
*Active
 70
     0
 10
0.0
 20
0.0
 11
1.0
 21
1.0
 12
1514.812875713281
 22
1071.40103862727
 13
0.0
 23
0.0
 14
10.0
 24
10.0
 15
10.0
 25
10.0
 16
0.0
 26
0.0
 36
1.0
 17
0.0
 27
0.0
 37
0.0
 40
2299.887202197646
 41
1.29038112522686
 42
50.0
 43
0.0
 44
0.0
 50
0.0
 51
0.0
 71
     0
 72
   100
 73
     1
 74
     3
 75
     0
 76
     0
 77
     0
 78
     0
281
     0
 65
     1
110
0.0
120
0.0
130
0.0
111
1.0
121
0.0
131
0.0
112
0.0
122
1.0
132
0.0
 79
     0
146
0.0
  0
ENDTAB
  0
TABLE
  2
LTYPE
  5
5
330
0
100
AcDbSymbolTable
 70
    46
  0
LTYPE
  5
14
330
5
100
AcDbSymbolTableRecord
100
AcDbLinetypeTableRecord
  2
ByBlock
 70
     0
  3

 72
    65
 73
     0
 40
0.0
  0
LTYPE
  5
15
330
5
100
AcDbSymbolTableRecord
100
AcDbLinetypeTableRecord
  2
ByLayer
 70
     0
  3

 72
    65
 73
     0
 40
0.0
  0
LTYPE
  5
16
330
5
100
AcDbSymbolTableRecord
100
AcDbLinetypeTableRecord
  2
Continuous
 70
     0
  3
Solid line
 72
    65
 73
     0
 40
0.0
  0
LTYPE
  5
34
330
5
100
AcDbSymbolTableRecord
100
AcDbLinetypeTableRecord
  2
ACAD_ISO02W100
 70
     0
  3
ISO dash __ __ __ __ __ __ __ __ __ __ __ __ __
 72
    65
 73
     2
 40
15.0
 49
12.0
 74
     0
 49
-3.0
 74
     0
  0
LTYPE
  5
35
330
5
100
AcDbSymbolTableRecord
100
AcDbLinetypeTableRecord
  2
ACAD_ISO03W100
 70
     0
  3
ISO dash space __    __    __    __    __    __
 72
    65
 73
     2
 40
30.0
 49
12.0
 74
     0
 49
-18.0
 74
     0
  0
LTYPE
  5
36
330
5
100
AcDbSymbolTableRecord
100
AcDbLinetypeTableRecord
  2
ACAD_ISO04W100
 70
     0
  3
ISO long-dash dot ____ . ____ . ____ . ____ . _
 72
    65
 73
     4
 40
30.0
 49
24.0
 74
     0
 49
-3.0
 74
     0
 49
0.0
 74
     0
 49
-3.0
 74
     0
  0
LTYPE
  5
37
330
5
100
AcDbSymbolTableRecord
100
AcDbLinetypeTableRecord
  2
ACAD_ISO05W100
 70
     0
  3
ISO long-dash double-dot ____ .. ____ .. ____ .
 72
    65
 73
     6
 40
34.0
 49
24.0
 74
     0
 49
-3.0
 74
     0
 49
0.5
 74
     0
 49
-3.0
 74
     0
 49
0.5
 74
     0
 49
-3.0
 74
     0
  0
LTYPE
  5
38
330
5
100
AcDbSymbolTableRecord
100
AcDbLinetypeTableRecord
  2
ACAD_ISO06W100
 70
     0
  3
ISO long-dash triple-dot ____ ... ____ ... ____
 72
    65
 73
     8
 40
37.5
 49
24.0
 74
     0
 49
-3.0
 74
     0
 49
0.5
 74
     0
 49
-3.0
 74
     0
 49
0.5
 74
     0
 49
-3.0
 74
     0
 49
0.5
 74
     0
 49
-3.0
 74
     0
  0
LTYPE
  5
39
330
5
100
AcDbSymbolTableRecord
100
AcDbLinetypeTableRecord
  2
ACAD_ISO07W100
 70
     0
  3
ISO dot . . . . . . . . . . . . . . . . . . . .
 72
    65
 73
     2
 40
3.0
 49
0.0
 74
     0
 49
-3.0
 74
     0
  0
LTYPE
  5
3A
330
5
100
AcDbSymbolTableRecord
100
AcDbLinetypeTableRecord
  2
ACAD_ISO08W100
 70
     0
  3
ISO long-dash short-dash ____ __ ____ __ ____ _
 72
    65
 73
     4
 40
36.0
 49
24.0
 74
     0
 49
-3.0
 74
     0
 49
6.0
 74
     0
 49
-3.0
 74
     0
  0
LTYPE
  5
3B
330
5
100
AcDbSymbolTableRecord
100
AcDbLinetypeTableRecord
  2
ACAD_ISO09W100
 70
     0
  3
ISO long-dash double-short-dash ____ __ __ ____
 72
    65
 73
     6
 40
45.0
 49
24.0
 74
     0
 49
-3.0
 74
     0
 49
6.0
 74
     0
 49
-3.0
 74
     0
 49
6.0
 74
     0
 49
-3.0
 74
     0
  0
LTYPE
  5
3C
330
5
100
AcDbSymbolTableRecord
100
AcDbLinetypeTableRecord
  2
ACAD_ISO10W100
 70
     0
  3
ISO dash dot __ . __ . __ . __ . __ . __ . __ .
 72
    65
 73
     4
 40
18.0
 49
12.0
 74
     0
 49
-3.0
 74
     0
 49
0.0
 74
     0
 49
-3.0
 74
     0
  0
LTYPE
  5
3D
330
5
100
AcDbSymbolTableRecord
100
AcDbLinetypeTableRecord
  2
ACAD_ISO11W100
 70
     0
  3
ISO double-dash dot __ __ . __ __ . __ __ . __ 
 72
    65
 73
     6
 40
33.0
 49
12.0
 74
     0
 49
-3.0
 74
     0
 49
12.0
 74
     0
 49
-3.0
 74
     0
 49
0.0
 74
     0
 49
-3.0
 74
     0
  0
LTYPE
  5
3E
330
5
100
AcDbSymbolTableRecord
100
AcDbLinetypeTableRecord
  2
ACAD_ISO12W100
 70
     0
  3
ISO dash double-dot __ . . __ . . __ . . __ . .
 72
    65
 73
     6
 40
21.0
 49
12.0
 74
     0
 49
-3.0
 74
     0
 49
0.0
 74
     0
 49
-3.0
 74
     0
 49
0.0
 74
     0
 49
-3.0
 74
     0
  0
LTYPE
  5
3F
330
5
100
AcDbSymbolTableRecord
100
AcDbLinetypeTableRecord
  2
ACAD_ISO13W100
 70
     0
  3
ISO double-dash double-dot __ __ . . __ __ . . 
 72
    65
 73
     8
 40
36.0
 49
12.0
 74
     0
 49
-3.0
 74
     0
 49
12.0
 74
     0
 49
-3.0
 74
     0
 49
0.0
 74
     0
 49
-3.0
 74
     0
 49
0.0
 74
     0
 49
-3.0
 74
     0
  0
LTYPE
  5
40
330
5
100
AcDbSymbolTableRecord
100
AcDbLinetypeTableRecord
  2
ACAD_ISO14W100
 70
     0
  3
ISO dash triple-dot __ . . . __ . . . __ . . . 
 72
    65
 73
     8
 40
24.0
 49
12.0
 74
     0
 49
-3.0
 74
     0
 49
0.0
 74
     0
 49
-3.0
 74
     0
 49
0.0
 74
     0
 49
-3.0
 74
     0
 49
0.0
 74
     0
 49
-3.0
 74
     0
  0
LTYPE
  5
41
330
5
100
AcDbSymbolTableRecord
100
AcDbLinetypeTableRecord
  2
ACAD_ISO15W100
 70
     0
  3
ISO double-dash triple-dot __ __ . . . __ __ . 
 72
    65
 73
    10
 40
39.0
 49
12.0
 74
     0
 49
-3.0
 74
     0
 49
12.0
 74
     0
 49
-3.0
 74
     0
 49
0.0
 74
     0
 49
-3.0
 74
     0
 49
0.0
 74
     0
 49
-3.0
 74
     0
 49
0.0
 74
     0
 49
-3.0
 74
     0
  0
LTYPE
  5
42
330
5
100
AcDbSymbolTableRecord
100
AcDbLinetypeTableRecord
  2
BATTING
 70
     0
  3
Batting SSSSSSSSSSSSSSSSSSSSSSSSSSSSSSSSSSSSSSS
 72
    65
 73
     4
 40
10.16254
 49
0.00254
 74
     0
 49
-2.54
 74
     4
 75
   134
340
33
 46
2.54
 50
0.0
 44
-2.54
 45
0.0
 49
-5.08
 74
     4
 75
   134
340
33
 46
2.54
 50
180.0
 44
2.54
 45
0.0
 49
-2.54
 74
     0
  0
LTYPE
  5
43
330
5
100
AcDbSymbolTableRecord
100
AcDbLinetypeTableRecord
  2
BORDER
 70
     0
  3
Border __ __ . __ __ . __ __ . __ __ . __ __ .
 72
    65
 73
     6
 40
44.45
 49
12.7
 74
     0
 49
-6.349999999999999
 74
     0
 49
12.7
 74
     0
 49
-6.349999999999999
 74
     0
 49
0.0
 74
     0
 49
-6.349999999999999
 74
     0
  0
LTYPE
  5
44
330
5
100
AcDbSymbolTableRecord
100
AcDbLinetypeTableRecord
  2
BORDER2
 70
     0
  3
Border (.5x) __.__.__.__.__.__.__.__.__.__.__.
 72
    65
 73
     6
 40
22.225
 49
6.349999999999999
 74
     0
 49
-3.174999999999999
 74
     0
 49
6.349999999999999
 74
     0
 49
-3.174999999999999
 74
     0
 49
0.0
 74
     0
 49
-3.174999999999999
 74
     0
  0
LTYPE
  5
45
330
5
100
AcDbSymbolTableRecord
100
AcDbLinetypeTableRecord
  2
BORDERX2
 70
     0
  3
Border (2x) ____  ____  .  ____  ____  .  ___
 72
    65
 73
     6
 40
88.9
 49
25.4
 74
     0
 49
-12.7
 74
     0
 49
25.4
 74
     0
 49
-12.7
 74
     0
 49
0.0
 74
     0
 49
-12.7
 74
     0
  0
LTYPE
  5
46
330
5
100
AcDbSymbolTableRecord
100
AcDbLinetypeTableRecord
  2
CENTER
 70
     0
  3
Center ____ _ ____ _ ____ _ ____ _ ____ _ ____
 72
    65
 73
     4
 40
50.8
 49
31.75
 74
     0
 49
-6.349999999999999
 74
     0
 49
6.349999999999999
 74
     0
 49
-6.349999999999999
 74
     0
  0
LTYPE
  5
47
330
5
100
AcDbSymbolTableRecord
100
AcDbLinetypeTableRecord
  2
CENTER2
 70
     0
  3
Center (.5x) ___ _ ___ _ ___ _ ___ _ ___ _ ___
 72
    65
 73
     4
 40
28.575
 49
19.05
 74
     0
 49
-3.174999999999999
 74
     0
 49
3.174999999999999
 74
     0
 49
-3.174999999999999
 74
     0
  0
LTYPE
  5
48
330
5
100
AcDbSymbolTableRecord
100
AcDbLinetypeTableRecord
  2
CENTERX2
 70
     0
  3
Center (2x) ________  __  ________  __  _____
 72
    65
 73
     4
 40
101.6
 49
63.5
 74
     0
 49
-12.7
 74
     0
 49
12.7
 74
     0
 49
-12.7
 74
     0
  0
LTYPE
  5
49
330
5
100
AcDbSymbolTableRecord
100
AcDbLinetypeTableRecord
  2
DASHDOT
 70
     0
  3
Dash dot __ . __ . __ . __ . __ . __ . __ . __
 72
    65
 73
     4
 40
25.4
 49
12.7
 74
     0
 49
-6.349999999999999
 74
     0
 49
0.0
 74
     0
 49
-6.349999999999999
 74
     0
  0
LTYPE
  5
4A
330
5
100
AcDbSymbolTableRecord
100
AcDbLinetypeTableRecord
  2
DASHDOT2
 70
     0
  3
Dash dot (.5x) _._._._._._._._._._._._._._._.
 72
    65
 73
     4
 40
12.7
 49
6.349999999999999
 74
     0
 49
-3.174999999999999
 74
     0
 49
0.0
 74
     0
 49
-3.174999999999999
 74
     0
  0
LTYPE
  5
4B
330
5
100
AcDbSymbolTableRecord
100
AcDbLinetypeTableRecord
  2
DASHDOTX2
 70
     0
  3
Dash dot (2x) ____  .  ____  .  ____  .  ___
 72
    65
 73
     4
 40
50.8
 49
25.4
 74
     0
 49
-12.7
 74
     0
 49
0.0
 74
     0
 49
-12.7
 74
     0
  0
LTYPE
  5
4C
330
5
100
AcDbSymbolTableRecord
100
AcDbLinetypeTableRecord
  2
DASHED
 70
     0
  3
Dashed __ __ __ __ __ __ __ __ __ __ __ __ __ _
 72
    65
 73
     2
 40
19.05
 49
12.7
 74
     0
 49
-6.349999999999999
 74
     0
  0
LTYPE
  5
4D
330
5
100
AcDbSymbolTableRecord
100
AcDbLinetypeTableRecord
  2
DASHED2
 70
     0
  3
Dashed (.5x) _ _ _ _ _ _ _ _ _ _ _ _ _ _ _ _ _
 72
    65
 73
     2
 40
9.524999999999998
 49
6.349999999999999
 74
     0
 49
-3.174999999999999
 74
     0
  0
LTYPE
  5
4E
330
5
100
AcDbSymbolTableRecord
100
AcDbLinetypeTableRecord
  2
DASHEDX2
 70
     0
  3
Dashed (2x) ____  ____  ____  ____  ____  ___
 72
    65
 73
     2
 40
38.1
 49
25.4
 74
     0
 49
-12.7
 74
     0
  0
LTYPE
  5
4F
330
5
100
AcDbSymbolTableRecord
100
AcDbLinetypeTableRecord
  2
DIVIDE
 70
     0
  3
Divide ____ . . ____ . . ____ . . ____ . . ____
 72
    65
 73
     6
 40
31.75
 49
12.7
 74
     0
 49
-6.349999999999999
 74
     0
 49
0.0
 74
     0
 49
-6.349999999999999
 74
     0
 49
0.0
 74
     0
 49
-6.349999999999999
 74
     0
  0
LTYPE
  5
50
330
5
100
AcDbSymbolTableRecord
100
AcDbLinetypeTableRecord
  2
DIVIDE2
 70
     0
  3
Divide (.5x) __..__..__..__..__..__..__..__.._
 72
    65
 73
     6
 40
15.875
 49
6.349999999999999
 74
     0
 49
-3.174999999999999
 74
     0
 49
0.0
 74
     0
 49
-3.174999999999999
 74
     0
 49
0.0
 74
     0
 49
-3.174999999999999
 74
     0
  0
LTYPE
  5
51
330
5
100
AcDbSymbolTableRecord
100
AcDbLinetypeTableRecord
  2
DIVIDEX2
 70
     0
  3
Divide (2x) ________  .  .  ________  .  .  _
 72
    65
 73
     6
 40
63.49999999999999
 49
25.4
 74
     0
 49
-12.7
 74
     0
 49
0.0
 74
     0
 49
-12.7
 74
     0
 49
0.0
 74
     0
 49
-12.7
 74
     0
  0
LTYPE
  5
52
330
5
100
AcDbSymbolTableRecord
100
AcDbLinetypeTableRecord
  2
DOT
 70
     0
  3
Dot . . . . . . . . . . . . . . . . . . . . . .
 72
    65
 73
     2
 40
6.349999999999999
 49
0.0
 74
     0
 49
-6.349999999999999
 74
     0
  0
LTYPE
  5
53
330
5
100
AcDbSymbolTableRecord
100
AcDbLinetypeTableRecord
  2
DOT2
 70
     0
  3
Dot (.5x) .....................................
 72
    65
 73
     2
 40
3.174999999999999
 49
0.0
 74
     0
 49
-3.174999999999999
 74
     0
  0
LTYPE
  5
54
330
5
100
AcDbSymbolTableRecord
100
AcDbLinetypeTableRecord
  2
DOTX2
 70
     0
  3
Dot (2x) .  .  .  .  .  .  .  .  .  .  .  .  . 
 72
    65
 73
     2
 40
12.7
 49
0.0
 74
     0
 49
-12.7
 74
     0
  0
LTYPE
  5
55
330
5
100
AcDbSymbolTableRecord
100
AcDbLinetypeTableRecord
  2
FENCELINE1
 70
     0
  3
Fenceline circle ----0-----0----0-----0----0---
 72
    65
 73
     4
 40
36.83
 49
6.349999999999999
 74
     0
 49
-2.54
 74
     4
 75
   133
340
33
 46
2.54
 50
0.0
 44
-2.54
 45
0.0
 49
-2.54
 74
     0
 49
25.4
 74
     0
  0
LTYPE
  5
56
330
5
100
AcDbSymbolTableRecord
100
AcDbLinetypeTableRecord
  2
FENCELINE2
 70
     0
  3
Fenceline square ----[]-----[]----[]-----[]----
 72
    65
 73
     4
 40
36.83
 49
6.349999999999999
 74
     0
 49
-2.54
 74
     4
 75
   132
340
33
 46
2.54
 50
0.0
 44
-2.54
 45
0.0
 49
-2.54
 74
     0
 49
25.4
 74
     0
  0
LTYPE
  5
57
330
5
100
AcDbSymbolTableRecord
100
AcDbLinetypeTableRecord
  2
GAS_LINE
 70
     0
  3
Gas line ----GAS----GAS----GAS----GAS----GAS---
 72
    65
 73
     3
 40
24.13
 49
12.7
 74
     0
 49
-5.08
 74
     2
 75
     0
340
11
 46
2.54
 50
0.0
 44
-2.54
 45
-1.27
  9
GAS
 49
-6.349999999999999
 74
     0
  0
LTYPE
  5
58
330
5
100
AcDbSymbolTableRecord
100
AcDbLinetypeTableRecord
  2
HIDDEN
 70
     0
  3
Hidden __ __ __ __ __ __ __ __ __ __ __ __ __ _
 72
    65
 73
     2
 40
9.524999999999998
 49
6.349999999999999
 74
     0
 49
-3.174999999999999
 74
     0
  0
LTYPE
  5
59
330
5
100
AcDbSymbolTableRecord
100
AcDbLinetypeTableRecord
  2
HIDDEN2
 70
     0
  3
Hidden (.5x) _ _ _ _ _ _ _ _ _ _ _ _ _ _ _ _ _
 72
    65
 73
     2
 40
4.762499999999999
 49
3.174999999999999
 74
     0
 49
-1.587499999999999
 74
     0
  0
LTYPE
  5
5A
330
5
100
AcDbSymbolTableRecord
100
AcDbLinetypeTableRecord
  2
HIDDENX2
 70
     0
  3
Hidden (2x) ____ ____ ____ ____ ____ ____ ____
 72
    65
 73
     2
 40
19.05
 49
12.7
 74
     0
 49
-6.349999999999999
 74
     0
  0
LTYPE
  5
5B
330
5
100
AcDbSymbolTableRecord
100
AcDbLinetypeTableRecord
  2
HOT_WATER_SUPPLY
 70
     0
  3
Hot water supply ---- HW ---- HW ---- HW ----
 72
    65
 73
     3
 40
22.86
 49
12.7
 74
     0
 49
-5.08
 74
     2
 75
     0
340
11
 46
2.54
 50
0.0
 44
-2.54
 45
-1.27
  9
HW
 49
-5.08
 74
     0
  0
LTYPE
  5
5C
330
5
100
AcDbSymbolTableRecord
100
AcDbLinetypeTableRecord
  2
PHANTOM
 70
     0
  3
Phantom ______  __  __  ______  __  __  ______
 72
    65
 73
     6
 40
63.5
 49
31.75
 74
     0
 49
-6.349999999999999
 74
     0
 49
6.349999999999999
 74
     0
 49
-6.349999999999999
 74
     0
 49
6.349999999999999
 74
     0
 49
-6.349999999999999
 74
     0
  0
LTYPE
  5
5D
330
5
100
AcDbSymbolTableRecord
100
AcDbLinetypeTableRecord
  2
PHANTOM2
 70
     0
  3
Phantom (.5x) ___ _ _ ___ _ _ ___ _ _ ___ _ _
 72
    65
 73
     6
 40
31.75
 49
15.875
 74
     0
 49
-3.174999999999999
 74
     0
 49
3.174999999999999
 74
     0
 49
-3.174999999999999
 74
     0
 49
3.174999999999999
 74
     0
 49
-3.174999999999999
 74
     0
  0
LTYPE
  5
5E
330
5
100
AcDbSymbolTableRecord
100
AcDbLinetypeTableRecord
  2
PHANTOMX2
 70
     0
  3
Phantom (2x) ____________    ____    ____   _
 72
    65
 73
     6
 40
127.0
 49
63.5
 74
     0
 49
-12.7
 74
     0
 49
12.7
 74
     0
 49
-12.7
 74
     0
 49
12.7
 74
     0
 49
-12.7
 74
     0
  0
LTYPE
  5
5F
330
5
100
AcDbSymbolTableRecord
100
AcDbLinetypeTableRecord
  2
TRACKS
 70
     0
  3
Tracks -|-|-|-|-|-|-|-|-|-|-|-|-|-|-|-|-|-|-|-|
 72
    65
 73
     2
 40
7.62
 49
3.81
 74
     4
 75
   130
340
33
 46
6.349999999999999
 50
0.0
 44
0.0
 45
0.0
 49
3.81
 74
     0
  0
LTYPE
  5
60
330
5
100
AcDbSymbolTableRecord
100
AcDbLinetypeTableRecord
  2
ZIGZAG
 70
     0
  3
Zig zag /\/\/\/\/\/\/\/\/\/\/\/\/\/\/\/\/\/\/\/
 72
    65
 73
     4
 40
20.32254
 49
0.00254
 74
     0
 49
-5.08
 74
     4
 75
   131
340
33
 46
5.08
 50
0.0
 44
-5.08
 45
0.0
 49
-10.16
 74
     4
 75
   131
340
33
 46
5.08
 50
180.0
 44
5.08
 45
0.0
 49
-5.08
 74
     0
  0
ENDTAB
  0
TABLE
  2
LAYER
  5
2
102
{ACAD_XDICTIONARY
360
DE1
102
}
330
0
100
AcDbSymbolTable
 70
     7
  0
LAYER
  5
10
330
2
100
AcDbSymbolTableRecord
100
AcDbLayerTableRecord
  2
0
 70
     0
 62
     7
  6
Continuous
370
    -3
390
F
  0
LAYER
  5
C3
330
2
100
AcDbSymbolTableRecord
100
AcDbLayerTableRecord
  2
Defpoints
 70
     0
 62
     7
  6
Continuous
290
     0
370
    -3
390
F
  0
LAYER
  5
256
330
2
100
AcDbSymbolTableRecord
100
AcDbLayerTableRecord
  2
Cen
 70
     0
 62
     7
  6
CENTER2
370
    15
390
F
  0
LAYER
  5
5DF
330
2
100
AcDbSymbolTableRecord
100
AcDbLayerTableRecord
  2
実形
 70
     0
 62
     7
  6
Continuous
370
    -3
390
F
  0
LAYER
  5
60C
330
2
100
AcDbSymbolTableRecord
100
AcDbLayerTableRecord
  2
補助
 70
     0
 62
     7
  6
Continuous
370
    -3
390
F
  0
LAYER
  5
619
330
2
100
AcDbSymbolTableRecord
100
AcDbLayerTableRecord
  2
センター
 70
     0
 62
     7
  6
CENTER2
370
    18
390
F
  0
LAYER
  5
61A
330
2
100
AcDbSymbolTableRecord
100
AcDbLayerTableRecord
  2
寸法
 70
     0
 62
     7
  6
Continuous
370
    18
390
F
  0
ENDTAB
  0
TABLE
  2
STYLE
  5
3
330
0
100
AcDbSymbolTable
 70
     4
  0
STYLE
  5
11
330
3
100
AcDbSymbolTableRecord
100
AcDbTextStyleTableRecord
  2
Standard
 70
     0
 40
0.0
 41
1.0
 50
0.0
 71
     0
 42
25.0
  3
txt.shx
  4
bigfont.shx
  0
STYLE
  5
33
330
3
100
AcDbSymbolTableRecord
100
AcDbTextStyleTableRecord
  2

 70
     1
 40
0.0
 41
1.0
 50
0.0
 71
     0
 42
2.5
  3
ltypeshp.shx
  4

  0
STYLE
  5
EEA
330
3
100
AcDbSymbolTableRecord
100
AcDbTextStyleTableRecord
  2
ms明朝
 70
     0
 40
0.0
 41
1.0
 50
0.0
 71
     0
 42
25.0
  3
MS Mincho.ttf
  4

1001
ACAD
1000
MS Mincho
1071
    32785
  0
STYLE
  5
18B4
330
3
100
AcDbSymbolTableRecord
100
AcDbTextStyleTableRecord
  2
明朝
 70
     0
 40
0.0
 41
1.0
 50
0.0
 71
     0
 42
25.0
  3
MS Mincho.ttf
  4

1001
ACAD
1000
MS Mincho
1071
    32785
  0
ENDTAB
  0
TABLE
  2
VIEW
  5
6
330
0
100
AcDbSymbolTable
 70
     0
  0
ENDTAB
  0
TABLE
  2
UCS
  5
7
330
0
100
AcDbSymbolTable
 70
     0
  0
ENDTAB
  0
TABLE
  2
APPID
  5
9
330
0
100
AcDbSymbolTable
 70
     2
  0
APPID
  5
12
330
9
100
AcDbSymbolTableRecord
100
AcDbRegAppTableRecord
  2
ACAD
 70
     0
  0
APPID
  5
DE0
330
9
100
AcDbSymbolTableRecord
100
AcDbRegAppTableRecord
  2
ACAD_PSEXT
 70
     0
  0
ENDTAB
  0
TABLE
  2
DIMSTYLE
  5
A
330
0
100
AcDbSymbolTable
 70
     1
100
AcDbDimStyleTable
 71
     1
340
27
  0
DIMSTYLE
105
27
102
{ACAD_REACTORS
330
473
330
480
330
586
330
304
330
28B
330
2B3
330
270
330
376
330
2E9
330
298
330
2DC
330
2A6
330
27E
330
384
330
31C
330
2F7
330
3BF
330
3B2
330
E79
330
F2A
330
1005
330
1006
330
110C
330
1119
330
11CE
330
11DB
330
162D
330
16C8
330
16DE
330
1805
330
1806
330
1807
330
1808
102
}
330
A
100
AcDbSymbolTableRecord
100
AcDbDimStyleTableRecord
  2
ISO-25
 70
     0
 41
30.0
 42
65.0
 43
3.75
 44
0.0
 73
     0
 74
     0
 77
     1
 78
     8
140
25.0
141
2.5
143
0.03937007874016
147
6.25
171
     3
172
     1
271
     2
272
     2
274
     3
283
     0
284
     8
340
11
341
DA
342
D0
371
    15
372
    15
  0
ENDTAB
  0
TABLE
  2
BLOCK_RECORD
  5
1
330
0
100
AcDbSymbolTable
 70
    46
  0
BLOCK_RECORD
  5
1F
102
{ACAD_XDICTIONARY
360
C47
102
}
330
1
100
AcDbSymbolTableRecord
100
AcDbBlockTableRecord
  2
*Model_Space
340
22
  0
BLOCK_RECORD
  5
1B
330
1
100
AcDbSymbolTableRecord
100
AcDbBlockTableRecord
  2
*Paper_Space
340
1E
  0
BLOCK_RECORD
  5
23
330
1
100
AcDbSymbolTableRecord
100
AcDbBlockTableRecord
  2
*Paper_Space0
340
26
  0
BLOCK_RECORD
  5
D0
330
1
100
AcDbSymbolTableRecord
100
AcDbBlockTableRecord
  2
_DotSmall
340
0
102
{BLKREFS
331
B43
331
B44
331
BC2
331
BC3
331
CF8
331
CF9
331
D01
331
D02
331
D0A
331
D0B
331
D13
331
D14
331
D1C
331
D1D
331
D26
331
D27
331
D30
331
D31
331
D3A
331
D3B
331
D4C
331
D4D
331
D56
331
D57
331
D67
331
D68
331
D70
331
D71
331
DAC
331
DAD
331
DB4
331
DB5
331
ED6
331
ED7
331
F48
331
F49
331
F53
331
F54
331
1038
331
1039
331
1073
331
1074
331
107E
331
107F
331
108C
331
12EE
331
12EF
331
12F8
331
12F9
331
1301
331
1302
331
130A
331
130B
331
1657
331
1658
331
169A
331
169B
331
1744
331
1745
331
174D
331
174E
331
17C5
331
17C6
331
183D
331
183E
331
1846
331
1847
331
184F
331
1850
331
1857
331
1858
102
}
  0
BLOCK_RECORD
  5
D4
330
1
100
AcDbSymbolTableRecord
100
AcDbBlockTableRecord
  2
_Origin2
340
0
  0
BLOCK_RECORD
  5
DA
330
1
100
AcDbSymbolTableRecord
100
AcDbBlockTableRecord
  2
_Open30
340
0
  0
BLOCK_RECORD
  5
271
330
1
100
AcDbSymbolTableRecord
100
AcDbBlockTableRecord
  2
*D4
340
0
  0
BLOCK_RECORD
  5
27F
330
1
100
AcDbSymbolTableRecord
100
AcDbBlockTableRecord
  2
*D5
340
0
  0
BLOCK_RECORD
  5
28C
330
1
100
AcDbSymbolTableRecord
100
AcDbBlockTableRecord
  2
*D6
340
0
  0
BLOCK_RECORD
  5
299
330
1
100
AcDbSymbolTableRecord
100
AcDbBlockTableRecord
  2
*D7
340
0
  0
BLOCK_RECORD
  5
2A7
330
1
100
AcDbSymbolTableRecord
100
AcDbBlockTableRecord
  2
*D8
340
0
  0
BLOCK_RECORD
  5
2B4
330
1
100
AcDbSymbolTableRecord
100
AcDbBlockTableRecord
  2
*D9
340
0
  0
BLOCK_RECORD
  5
2DD
330
1
100
AcDbSymbolTableRecord
100
AcDbBlockTableRecord
  2
*D10
340
0
  0
BLOCK_RECORD
  5
2EA
330
1
100
AcDbSymbolTableRecord
100
AcDbBlockTableRecord
  2
*D11
340
0
  0
BLOCK_RECORD
  5
2F8
330
1
100
AcDbSymbolTableRecord
100
AcDbBlockTableRecord
  2
*D12
340
0
  0
BLOCK_RECORD
  5
305
330
1
100
AcDbSymbolTableRecord
100
AcDbBlockTableRecord
  2
*D13
340
0
  0
BLOCK_RECORD
  5
31D
330
1
100
AcDbSymbolTableRecord
100
AcDbBlockTableRecord
  2
*D14
340
0
  0
BLOCK_RECORD
  5
377
330
1
100
AcDbSymbolTableRecord
100
AcDbBlockTableRecord
  2
*D15
340
0
  0
BLOCK_RECORD
  5
385
330
1
100
AcDbSymbolTableRecord
100
AcDbBlockTableRecord
  2
*D16
340
0
  0
BLOCK_RECORD
  5
3B3
330
1
100
AcDbSymbolTableRecord
100
AcDbBlockTableRecord
  2
*D17
340
0
  0
BLOCK_RECORD
  5
3C0
330
1
100
AcDbSymbolTableRecord
100
AcDbBlockTableRecord
  2
*D18
340
0
  0
BLOCK_RECORD
  5
474
330
1
100
AcDbSymbolTableRecord
100
AcDbBlockTableRecord
  2
*D19
340
0
  0
BLOCK_RECORD
  5
481
330
1
100
AcDbSymbolTableRecord
100
AcDbBlockTableRecord
  2
*D20
340
0
  0
BLOCK_RECORD
  5
587
330
1
100
AcDbSymbolTableRecord
100
AcDbBlockTableRecord
  2
*D21
340
0
  0
BLOCK_RECORD
  5
DE3
102
{ACAD_XDICTIONARY
360
DE5
102
}
330
1
100
AcDbSymbolTableRecord
100
AcDbBlockTableRecord
  2
A$C0655774D
340
0
  0
BLOCK_RECORD
  5
DE9
330
1
100
AcDbSymbolTableRecord
100
AcDbBlockTableRecord
  2
_Dot
340
0
  0
BLOCK_RECORD
  5
E7A
330
1
100
AcDbSymbolTableRecord
100
AcDbBlockTableRecord
  2
*D24
340
0
  0
BLOCK_RECORD
  5
F39
330
1
100
AcDbSymbolTableRecord
100
AcDbBlockTableRecord
  2
*D25
340
0
  0
BLOCK_RECORD
  5
1010
330
1
100
AcDbSymbolTableRecord
100
AcDbBlockTableRecord
  2
*D26
340
0
  0
BLOCK_RECORD
  5
101C
330
1
100
AcDbSymbolTableRecord
100
AcDbBlockTableRecord
  2
*D27
340
0
  0
BLOCK_RECORD
  5
106D
330
1
100
AcDbSymbolTableRecord
100
AcDbBlockTableRecord
  2
*D28
340
0
  0
BLOCK_RECORD
  5
1079
330
1
100
AcDbSymbolTableRecord
100
AcDbBlockTableRecord
  2
*D29
340
0
  0
BLOCK_RECORD
  5
1085
330
1
100
AcDbSymbolTableRecord
100
AcDbBlockTableRecord
  2
*D30
340
0
  0
BLOCK_RECORD
  5
1091
102
{ACAD_XDICTIONARY
360
10AA
102
}
330
1
100
AcDbSymbolTableRecord
100
AcDbBlockTableRecord
  2
A$C47360BBC
340
0
  0
BLOCK_RECORD
  5
110D
330
1
100
AcDbSymbolTableRecord
100
AcDbBlockTableRecord
  2
*D32
340
0
  0
BLOCK_RECORD
  5
111A
330
1
100
AcDbSymbolTableRecord
100
AcDbBlockTableRecord
  2
*D33
340
0
  0
BLOCK_RECORD
  5
11CF
330
1
100
AcDbSymbolTableRecord
100
AcDbBlockTableRecord
  2
*D34
340
0
  0
BLOCK_RECORD
  5
11DC
330
1
100
AcDbSymbolTableRecord
100
AcDbBlockTableRecord
  2
*D35
340
0
  0
BLOCK_RECORD
  5
12A6
330
1
100
AcDbSymbolTableRecord
100
AcDbBlockTableRecord
  2
A$C12C95FB9
340
0
  0
BLOCK_RECORD
  5
15C1
330
1
100
AcDbSymbolTableRecord
100
AcDbBlockTableRecord
  2
_Open90
340
0
  0
BLOCK_RECORD
  5
15EF
330
1
100
AcDbSymbolTableRecord
100
AcDbBlockTableRecord
  2
_Closed
340
0
  0
BLOCK_RECORD
  5
162E
330
1
100
AcDbSymbolTableRecord
100
AcDbBlockTableRecord
  2
*D39
340
0
  0
BLOCK_RECORD
  5
16C9
330
1
100
AcDbSymbolTableRecord
100
AcDbBlockTableRecord
  2
*D40
340
0
  0
BLOCK_RECORD
  5
16DF
330
1
100
AcDbSymbolTableRecord
100
AcDbBlockTableRecord
  2
*D41
340
0
  0
BLOCK_RECORD
  5
1809
330
1
100
AcDbSymbolTableRecord
100
AcDbBlockTableRecord
  2
*D42
340
0
  0
BLOCK_RECORD
  5
1815
330
1
100
AcDbSymbolTableRecord
100
AcDbBlockTableRecord
  2
*D43
340
0
  0
BLOCK_RECORD
  5
1821
330
1
100
AcDbSymbolTableRecord
100
AcDbBlockTableRecord
  2
*D44
340
0
  0
BLOCK_RECORD
  5
182D
330
1
100
AcDbSymbolTableRecord
100
AcDbBlockTableRecord
  2
*D45
340
0
  0
ENDTAB
  0
ENDSEC
  0
SECTION
  2
BLOCKS
  0
BLOCK
  5
20
330
1F
100
AcDbEntity
  8
0
100
AcDbBlockBegin
  2
*Model_Space
 70
     0
 10
0.0
 20
0.0
 30
0.0
  3
*Model_Space
  1

  0
ENDBLK
  5
21
330
1F
100
AcDbEntity
  8
0
100
AcDbBlockEnd
  0
BLOCK
  5
1C
330
1B
100
AcDbEntity
 67
     1
  8
0
100
AcDbBlockBegin
  2
*Paper_Space
 70
     0
 10
0.0
 20
0.0
 30
0.0
  3
*Paper_Space
  1

  0
ENDBLK
  5
1D
330
1B
100
AcDbEntity
 67
     1
  8
0
100
AcDbBlockEnd
  0
BLOCK
  5
24
330
23
100
AcDbEntity
  8
0
100
AcDbBlockBegin
  2
*Paper_Space0
 70
     0
 10
0.0
 20
0.0
 30
0.0
  3
*Paper_Space0
  1

  0
ENDBLK
  5
25
330
23
100
AcDbEntity
  8
0
100
AcDbBlockEnd
  0
BLOCK
  5
D2
330
D0
100
AcDbEntity
  8
0
100
AcDbBlockBegin
  2
_DotSmall
 70
     0
 10
0.0
 20
0.0
 30
0.0
  3
_DotSmall
  1

  0
LWPOLYLINE
  5
D1
330
D0
100
AcDbEntity
  8
0
 62
     0
100
AcDbPolyline
 90
        2
 70
     1
 43
0.5
 10
-0.0625
 20
0.0
 42
1.0
 10
0.0625
 20
0.0
 42
1.0
  0
ENDBLK
  5
D3
330
D0
100
AcDbEntity
  8
0
100
AcDbBlockEnd
  0
BLOCK
  5
D8
330
D4
100
AcDbEntity
  8
0
100
AcDbBlockBegin
  2
_Origin2
 70
     0
 10
0.0
 20
0.0
 30
0.0
  3
_Origin2
  1

  0
CIRCLE
  5
D5
330
D4
100
AcDbEntity
  8
0
 62
     0
370
    -2
100
AcDbCircle
 10
0.0
 20
0.0
 30
0.0
 40
0.5
  0
CIRCLE
  5
D6
330
D4
100
AcDbEntity
  8
0
 62
     0
370
    -2
100
AcDbCircle
 10
0.0
 20
0.0
 30
0.0
 40
0.25
  0
LINE
  5
D7
330
D4
100
AcDbEntity
  8
0
 62
     0
370
    -2
100
AcDbLine
 10
-0.5
 20
0.0
 30
0.0
 11
-1.0
 21
0.0
 31
0.0
  0
ENDBLK
  5
D9
330
D4
100
AcDbEntity
  8
0
100
AcDbBlockEnd
  0
BLOCK
  5
DE
330
DA
100
AcDbEntity
  8
0
100
AcDbBlockBegin
  2
_Open30
 70
     0
 10
0.0
 20
0.0
 30
0.0
  3
_Open30
  1

  0
LINE
  5
DB
330
DA
100
AcDbEntity
  8
0
 62
     0
370
    -2
100
AcDbLine
 10
-1.0
 20
0.26794919
 30
0.0
 11
0.0
 21
0.0
 31
0.0
  0
LINE
  5
DC
330
DA
100
AcDbEntity
  8
0
 62
     0
370
    -2
100
AcDbLine
 10
0.0
 20
0.0
 30
0.0
 11
-1.0
 21
-0.26794919
 31
0.0
  0
LINE
  5
DD
330
DA
100
AcDbEntity
  8
0
 62
     0
370
    -2
100
AcDbLine
 10
0.0
 20
0.0
 30
0.0
 11
-1.0
 21
0.0
 31
0.0
  0
ENDBLK
  5
DF
330
DA
100
AcDbEntity
  8
0
100
AcDbBlockEnd
  0
BLOCK
  5
27C
330
271
100
AcDbEntity
  8
0
100
AcDbBlockBegin
  2
*D4
 70
     1
 10
0.0
 20
0.0
 30
0.0
  3
*D4
  1

  0
LINE
  5
D2C
330
271
100
AcDbEntity
  8
0
 62
     0
370
    15
100
AcDbLine
 10
732.5107194732054
 20
1050.093561842788
 30
0.0
 11
679.7602173563091
 21
1050.093561842788
 31
0.0
  0
LINE
  5
D2D
330
271
100
AcDbEntity
  8
0
 62
     0
370
    15
100
AcDbLine
 10
732.5107194732054
 20
1065.093561842788
 30
0.0
 11
679.7602173563091
 21
1065.093561842788
 31
0.0
  0
LINE
  5
D2E
330
271
100
AcDbEntity
  8
0
 62
     0
370
    15
100
AcDbLine
 10
679.7602173563091
 20
1050.093561842788
 30
0.0
 11
679.7602173563091
 21
1065.093561842788
 31
0.0
  0
LINE
  5
D2F
330
271
100
AcDbEntity
  8
0
 62
     0
370
    15
100
AcDbLine
 10
679.7602173563091
 20
1065.093561842788
 30
0.0
 11
679.7602173563091
 21
1140.926895176122
 31
0.0
  0
INSERT
  5
D30
330
271
100
AcDbEntity
  8
0
 62
     0
370
    15
100
AcDbBlockReference
  2
_DotSmall
 10
679.7602173563091
 20
1050.093561842788
 30
0.0
 41
30.0
 42
30.0
 43
30.0
 50
270.0
  0
INSERT
  5
D31
330
271
100
AcDbEntity
  8
0
 62
     0
370
    15
100
AcDbBlockReference
  2
_DotSmall
 10
679.7602173563091
 20
1065.093561842788
 30
0.0
 41
30.0
 42
30.0
 43
30.0
 50
90.0
  0
MTEXT
  5
D32
330
271
100
AcDbEntity
  8
0
 62
     0
100
AcDbMText
 10
661.010217356309
 20
1118.010228509455
 30
0.0
 40
25.0
 41
0.0
 71
     5
 72
     1
  1
15
 11
0.0000000000000001
 21
1.0
 31
0.0
 73
     1
 44
1.0
1001
ACAD
1000
MTEXTBEGIN
1070
    73
1070
     1
1070
    44
1040
1.0
1070
    74
1070
     0
1000
MTEXTEND
  0
POINT
  5
D33
330
271
100
AcDbEntity
  8
Defpoints
 62
     0
100
AcDbPoint
 10
797.5107194732054
 20
1050.093561842788
 30
0.0
  0
POINT
  5
D34
330
271
100
AcDbEntity
  8
Defpoints
 62
     0
100
AcDbPoint
 10
797.5107194732054
 20
1065.093561842788
 30
0.0
  0
POINT
  5
D35
330
271
100
AcDbEntity
  8
Defpoints
 62
     0
100
AcDbPoint
 10
679.7602173563091
 20
1065.093561842788
 30
0.0
  0
ENDBLK
  5
27D
330
271
100
AcDbEntity
  8
0
100
AcDbBlockEnd
  0
BLOCK
  5
289
330
27F
100
AcDbEntity
  8
0
100
AcDbBlockBegin
  2
*D5
 70
     1
 10
0.0
 20
0.0
 30
0.0
  3
*D5
  1

  0
LINE
  5
D19
330
27F
100
AcDbEntity
  8
0
 62
     0
370
    15
100
AcDbLine
 10
732.5107194732054
 20
1065.093561842788
 30
0.0
 11
679.7602173563091
 21
1065.093561842788
 31
0.0
  0
LINE
  5
D1A
330
27F
100
AcDbEntity
  8
0
 62
     0
370
    15
100
AcDbLine
 10
732.5107194732055
 20
1495.093561842788
 30
0.0
 11
679.7602173563092
 21
1495.093561842788
 31
0.0
  0
LINE
  5
D1B
330
27F
100
AcDbEntity
  8
0
 62
     0
370
    15
100
AcDbLine
 10
679.7602173563091
 20
1065.093561842788
 30
0.0
 11
679.7602173563092
 21
1495.093561842788
 31
0.0
  0
INSERT
  5
D1C
330
27F
100
AcDbEntity
  8
0
 62
     0
370
    15
100
AcDbBlockReference
  2
_DotSmall
 10
679.7602173563091
 20
1065.093561842788
 30
0.0
 41
30.0
 42
30.0
 43
30.0
 50
270.0
  0
INSERT
  5
D1D
330
27F
100
AcDbEntity
  8
0
 62
     0
370
    15
100
AcDbBlockReference
  2
_DotSmall
 10
679.7602173563092
 20
1495.093561842788
 30
0.0
 41
30.0
 42
30.0
 43
30.0
 50
90.0
  0
MTEXT
  5
D1E
330
27F
100
AcDbEntity
  8
0
 62
     0
100
AcDbMText
 10
661.010217356309
 20
1280.093561842788
 30
0.0
 40
25.0
 41
0.0
 71
     5
 72
     1
  1
430
 11
0.0000000000000001
 21
1.0
 31
0.0
 73
     1
 44
1.0
1001
ACAD
1000
MTEXTBEGIN
1070
    73
1070
     1
1070
    44
1040
1.0
1070
    74
1070
     0
1000
MTEXTEND
  0
POINT
  5
D1F
330
27F
100
AcDbEntity
  8
Defpoints
 62
     0
100
AcDbPoint
 10
797.5107194732054
 20
1065.093561842788
 30
0.0
  0
POINT
  5
D20
330
27F
100
AcDbEntity
  8
Defpoints
 62
     0
100
AcDbPoint
 10
797.5107194732055
 20
1495.093561842788
 30
0.0
  0
POINT
  5
D21
330
27F
100
AcDbEntity
  8
Defpoints
 62
     0
100
AcDbPoint
 10
679.7602173563092
 20
1495.093561842788
 30
0.0
  0
ENDBLK
  5
28A
330
27F
100
AcDbEntity
  8
0
100
AcDbBlockEnd
  0
BLOCK
  5
296
330
28C
100
AcDbEntity
  8
0
100
AcDbBlockBegin
  2
*D6
 70
     1
 10
0.0
 20
0.0
 30
0.0
  3
*D6
  1

  0
LINE
  5
D49
330
28C
100
AcDbEntity
  8
0
 62
     0
370
    15
100
AcDbLine
 10
732.5107194732055
 20
1495.093561842788
 30
0.0
 11
679.7602173563092
 21
1495.093561842788
 31
0.0
  0
LINE
  5
D4A
330
28C
100
AcDbEntity
  8
0
 62
     0
370
    15
100
AcDbLine
 10
732.5107194732055
 20
1570.093561842788
 30
0.0
 11
679.7602173563092
 21
1570.093561842788
 31
0.0
  0
LINE
  5
D4B
330
28C
100
AcDbEntity
  8
0
 62
     0
370
    15
100
AcDbLine
 10
679.7602173563092
 20
1495.093561842788
 30
0.0
 11
679.7602173563092
 21
1570.093561842788
 31
0.0
  0
INSERT
  5
D4C
330
28C
100
AcDbEntity
  8
0
 62
     0
370
    15
100
AcDbBlockReference
  2
_DotSmall
 10
679.7602173563092
 20
1495.093561842788
 30
0.0
 41
30.0
 42
30.0
 43
30.0
 50
270.0
  0
INSERT
  5
D4D
330
28C
100
AcDbEntity
  8
0
 62
     0
370
    15
100
AcDbBlockReference
  2
_DotSmall
 10
679.7602173563092
 20
1570.093561842788
 30
0.0
 41
30.0
 42
30.0
 43
30.0
 50
90.0
  0
MTEXT
  5
D4E
330
28C
100
AcDbEntity
  8
0
 62
     0
100
AcDbMText
 10
661.010217356309
 20
1532.593561842788
 30
0.0
 40
25.0
 41
0.0
 71
     5
 72
     1
  1
75
 11
0.0000000000000001
 21
1.0
 31
0.0
 73
     1
 44
1.0
1001
ACAD
1000
MTEXTBEGIN
1070
    73
1070
     1
1070
    44
1040
1.0
1070
    74
1070
     0
1000
MTEXTEND
  0
POINT
  5
D4F
330
28C
100
AcDbEntity
  8
Defpoints
 62
     0
100
AcDbPoint
 10
797.5107194732055
 20
1495.093561842788
 30
0.0
  0
POINT
  5
D50
330
28C
100
AcDbEntity
  8
Defpoints
 62
     0
100
AcDbPoint
 10
797.5107194732055
 20
1570.093561842788
 30
0.0
  0
POINT
  5
D51
330
28C
100
AcDbEntity
  8
Defpoints
 62
     0
100
AcDbPoint
 10
679.7602173563092
 20
1570.093561842788
 30
0.0
  0
ENDBLK
  5
297
330
28C
100
AcDbEntity
  8
0
100
AcDbBlockEnd
  0
BLOCK
  5
2A4
330
299
100
AcDbEntity
  8
0
100
AcDbBlockBegin
  2
*D7
 70
     1
 10
0.0
 20
0.0
 30
0.0
  3
*D7
  1

  0
LINE
  5
D22
330
299
100
AcDbEntity
  8
0
 62
     0
370
    15
100
AcDbLine
 10
732.5107194732054
 20
1033.093561842788
 30
0.0
 11
607.1317974531767
 21
1033.093561842788
 31
0.0
  0
LINE
  5
D23
330
299
100
AcDbEntity
  8
0
 62
     0
370
    15
100
AcDbLine
 10
732.5107194732054
 20
1050.093561842788
 30
0.0
 11
607.1317974531767
 21
1050.093561842788
 31
0.0
  0
LINE
  5
D24
330
299
100
AcDbEntity
  8
0
 62
     0
370
    15
100
AcDbLine
 10
607.1317974531767
 20
1033.093561842788
 30
0.0
 11
607.1317974531767
 21
1050.093561842788
 31
0.0
  0
LINE
  5
D25
330
299
100
AcDbEntity
  8
0
 62
     0
370
    15
100
AcDbLine
 10
607.1317974531767
 20
1050.093561842788
 30
0.0
 11
607.1317974531767
 21
1125.926895176121
 31
0.0
  0
INSERT
  5
D26
330
299
100
AcDbEntity
  8
0
 62
     0
370
    15
100
AcDbBlockReference
  2
_DotSmall
 10
607.1317974531767
 20
1033.093561842788
 30
0.0
 41
30.0
 42
30.0
 43
30.0
 50
270.0
  0
INSERT
  5
D27
330
299
100
AcDbEntity
  8
0
 62
     0
370
    15
100
AcDbBlockReference
  2
_DotSmall
 10
607.1317974531767
 20
1050.093561842788
 30
0.0
 41
30.0
 42
30.0
 43
30.0
 50
90.0
  0
MTEXT
  5
D28
330
299
100
AcDbEntity
  8
0
 62
     0
100
AcDbMText
 10
588.3817974531766
 20
1103.010228509455
 30
0.0
 40
25.0
 41
0.0
 71
     5
 72
     1
  1
17
 11
0.0000000000000001
 21
1.0
 31
0.0
 73
     1
 44
1.0
1001
ACAD
1000
MTEXTBEGIN
1070
    73
1070
     1
1070
    44
1040
1.0
1070
    74
1070
     0
1000
MTEXTEND
  0
POINT
  5
D29
330
299
100
AcDbEntity
  8
Defpoints
 62
     0
100
AcDbPoint
 10
797.5107194732054
 20
1033.093561842788
 30
0.0
  0
POINT
  5
D2A
330
299
100
AcDbEntity
  8
Defpoints
 62
     0
100
AcDbPoint
 10
797.5107194732054
 20
1050.093561842788
 30
0.0
  0
POINT
  5
D2B
330
299
100
AcDbEntity
  8
Defpoints
 62
     0
100
AcDbPoint
 10
607.1317974531767
 20
1050.093561842788
 30
0.0
  0
ENDBLK
  5
2A5
330
299
100
AcDbEntity
  8
0
100
AcDbBlockEnd
  0
BLOCK
  5
2B1
330
2A7
100
AcDbEntity
  8
0
100
AcDbBlockBegin
  2
*D8
 70
     1
 10
0.0
 20
0.0
 30
0.0
  3
*D8
  1

  0
LINE
  5
D10
330
2A7
100
AcDbEntity
  8
0
 62
     0
370
    15
100
AcDbLine
 10
732.5107194732054
 20
1050.093561842788
 30
0.0
 11
607.1317974531766
 21
1050.093561842788
 31
0.0
  0
LINE
  5
D11
330
2A7
100
AcDbEntity
  8
0
 62
     0
370
    15
100
AcDbLine
 10
732.5107194732055
 20
1570.093561842788
 30
0.0
 11
607.1317974531767
 21
1570.093561842788
 31
0.0
  0
LINE
  5
D12
330
2A7
100
AcDbEntity
  8
0
 62
     0
370
    15
100
AcDbLine
 10
607.1317974531766
 20
1050.093561842788
 30
0.0
 11
607.1317974531767
 21
1570.093561842788
 31
0.0
  0
INSERT
  5
D13
330
2A7
100
AcDbEntity
  8
0
 62
     0
370
    15
100
AcDbBlockReference
  2
_DotSmall
 10
607.1317974531766
 20
1050.093561842788
 30
0.0
 41
30.0
 42
30.0
 43
30.0
 50
270.0
  0
INSERT
  5
D14
330
2A7
100
AcDbEntity
  8
0
 62
     0
370
    15
100
AcDbBlockReference
  2
_DotSmall
 10
607.1317974531767
 20
1570.093561842788
 30
0.0
 41
30.0
 42
30.0
 43
30.0
 50
90.0
  0
MTEXT
  5
D15
330
2A7
100
AcDbEntity
  8
0
 62
     0
100
AcDbMText
 10
588.3817974531765
 20
1310.093561842788
 30
0.0
 40
25.0
 41
0.0
 71
     5
 72
     1
  1
520
 11
0.0000000000000001
 21
1.0
 31
0.0
 73
     1
 44
1.0
1001
ACAD
1000
MTEXTBEGIN
1070
    73
1070
     1
1070
    44
1040
1.0
1070
    74
1070
     0
1000
MTEXTEND
  0
POINT
  5
D16
330
2A7
100
AcDbEntity
  8
Defpoints
 62
     0
100
AcDbPoint
 10
797.5107194732054
 20
1050.093561842788
 30
0.0
  0
POINT
  5
D17
330
2A7
100
AcDbEntity
  8
Defpoints
 62
     0
100
AcDbPoint
 10
797.5107194732055
 20
1570.093561842788
 30
0.0
  0
POINT
  5
D18
330
2A7
100
AcDbEntity
  8
Defpoints
 62
     0
100
AcDbPoint
 10
607.1317974531767
 20
1570.093561842788
 30
0.0
  0
ENDBLK
  5
2B2
330
2A7
100
AcDbEntity
  8
0
100
AcDbBlockEnd
  0
BLOCK
  5
2BE
330
2B4
100
AcDbEntity
  8
0
100
AcDbBlockBegin
  2
*D9
 70
     1
 10
0.0
 20
0.0
 30
0.0
  3
*D9
  1

  0
LINE
  5
F4F
330
2B4
100
AcDbEntity
  8
0
 62
     0
370
    15
100
AcDbLine
 10
732.5107194732055
 20
1570.093561842788
 30
0.0
 11
607.1317974531767
 21
1570.093561842788
 31
0.0
  0
LINE
  5
F50
330
2B4
100
AcDbEntity
  8
0
 62
     0
370
    15
100
AcDbLine
 10
732.5107194732054
 20
1587.093561842788
 30
0.0
 11
607.1317974531767
 21
1587.093561842788
 31
0.0
  0
LINE
  5
F51
330
2B4
100
AcDbEntity
  8
0
 62
     0
370
    15
100
AcDbLine
 10
607.1317974531767
 20
1570.093561842788
 30
0.0
 11
607.1317974531767
 21
1587.093561842788
 31
0.0
  0
MTEXT
  5
F52
330
2B4
100
AcDbEntity
  8
0
 62
     0
100
AcDbMText
 10
570.7452507770713
 20
1555.523807371525
 30
0.0
 40
25.0
 41
0.0
 71
     5
 72
     1
  1
17
 11
0.0000000000000001
 21
1.0
 31
0.0
 73
     1
 44
1.0
1001
ACAD
1000
MTEXTBEGIN
1070
    73
1070
     1
1070
    44
1040
1.0
1070
    74
1070
     0
1000
MTEXTEND
  0
INSERT
  5
F53
330
2B4
100
AcDbEntity
  8
0
 62
     0
370
    15
100
AcDbBlockReference
  2
_DotSmall
 10
607.1317974531767
 20
1570.093561842788
 30
0.0
 41
30.0
 42
30.0
 43
30.0
 50
270.0
  0
INSERT
  5
F54
330
2B4
100
AcDbEntity
  8
0
 62
     0
370
    15
100
AcDbBlockReference
  2
_DotSmall
 10
607.1317974531767
 20
1587.093561842788
 30
0.0
 41
30.0
 42
30.0
 43
30.0
 50
90.0
  0
POINT
  5
F55
330
2B4
100
AcDbEntity
  8
Defpoints
 62
     0
100
AcDbPoint
 10
797.5107194732055
 20
1570.093561842788
 30
0.0
  0
POINT
  5
F56
330
2B4
100
AcDbEntity
  8
Defpoints
 62
     0
100
AcDbPoint
 10
797.5107194732054
 20
1587.093561842788
 30
0.0
  0
POINT
  5
F57
330
2B4
100
AcDbEntity
  8
Defpoints
 62
     0
100
AcDbPoint
 10
607.1317974531767
 20
1587.093561842788
 30
0.0
  0
ENDBLK
  5
2BF
330
2B4
100
AcDbEntity
  8
0
100
AcDbBlockEnd
  0
BLOCK
  5
2E7
330
2DD
100
AcDbEntity
  8
0
100
AcDbBlockBegin
  2
*D10
 70
     1
 10
0.0
 20
0.0
 30
0.0
  3
*D10
  1

  0
LINE
  5
D07
330
2DD
100
AcDbEntity
  8
0
 62
     0
370
    15
100
AcDbLine
 10
732.5107194732054
 20
1033.093561842788
 30
0.0
 11
537.6611450838626
 21
1033.093561842788
 31
0.0
  0
LINE
  5
D08
330
2DD
100
AcDbEntity
  8
0
 62
     0
370
    15
100
AcDbLine
 10
732.5107194732054
 20
1587.093561842788
 30
0.0
 11
537.6611450838627
 21
1587.093561842788
 31
0.0
  0
LINE
  5
D09
330
2DD
100
AcDbEntity
  8
0
 62
     0
370
    15
100
AcDbLine
 10
537.6611450838626
 20
1033.093561842788
 30
0.0
 11
537.6611450838627
 21
1587.093561842788
 31
0.0
  0
INSERT
  5
D0A
330
2DD
100
AcDbEntity
  8
0
 62
     0
370
    15
100
AcDbBlockReference
  2
_DotSmall
 10
537.6611450838626
 20
1033.093561842788
 30
0.0
 41
30.0
 42
30.0
 43
30.0
 50
270.0
  0
INSERT
  5
D0B
330
2DD
100
AcDbEntity
  8
0
 62
     0
370
    15
100
AcDbBlockReference
  2
_DotSmall
 10
537.6611450838627
 20
1587.093561842788
 30
0.0
 41
30.0
 42
30.0
 43
30.0
 50
90.0
  0
MTEXT
  5
D0C
330
2DD
100
AcDbEntity
  8
0
 62
     0
100
AcDbMText
 10
518.9111450838624
 20
1310.093561842788
 30
0.0
 40
25.0
 41
0.0
 71
     5
 72
     1
  1
554
 11
0.0000000000000001
 21
1.0
 31
0.0
 73
     1
 44
1.0
1001
ACAD
1000
MTEXTBEGIN
1070
    73
1070
     1
1070
    44
1040
1.0
1070
    74
1070
     0
1000
MTEXTEND
  0
POINT
  5
D0D
330
2DD
100
AcDbEntity
  8
Defpoints
 62
     0
100
AcDbPoint
 10
797.5107194732054
 20
1033.093561842788
 30
0.0
  0
POINT
  5
D0E
330
2DD
100
AcDbEntity
  8
Defpoints
 62
     0
100
AcDbPoint
 10
797.5107194732054
 20
1587.093561842788
 30
0.0
  0
POINT
  5
D0F
330
2DD
100
AcDbEntity
  8
Defpoints
 62
     0
100
AcDbPoint
 10
537.6611450838627
 20
1587.093561842788
 30
0.0
  0
ENDBLK
  5
2E8
330
2DD
100
AcDbEntity
  8
0
100
AcDbBlockEnd
  0
BLOCK
  5
2F5
330
2EA
100
AcDbEntity
  8
0
100
AcDbBlockBegin
  2
*D11
 70
     1
 10
0.0
 20
0.0
 30
0.0
  3
*D11
  1

  0
LINE
  5
D36
330
2EA
100
AcDbEntity
  8
0
 62
     0
370
    15
100
AcDbLine
 10
797.5107194732054
 20
968.0935618427884
 30
0.0
 11
797.5107194732054
 21
916.1857900480718
 31
0.0
  0
LINE
  5
D37
330
2EA
100
AcDbEntity
  8
0
 62
     0
370
    15
100
AcDbLine
 10
814.5107194732053
 20
968.0935618427884
 30
0.0
 11
814.5107194732053
 21
916.1857900480718
 31
0.0
  0
LINE
  5
D38
330
2EA
100
AcDbEntity
  8
0
 62
     0
370
    15
100
AcDbLine
 10
797.5107194732054
 20
916.1857900480718
 30
0.0
 11
814.5107194732053
 21
916.1857900480718
 31
0.0
  0
LINE
  5
D39
330
2EA
100
AcDbEntity
  8
0
 62
     0
370
    15
100
AcDbLine
 10
814.5107194732053
 20
916.1857900480718
 30
0.0
 11
890.3440528065388
 21
916.1857900480718
 31
0.0
  0
INSERT
  5
D3A
330
2EA
100
AcDbEntity
  8
0
 62
     0
370
    15
100
AcDbBlockReference
  2
_DotSmall
 10
797.5107194732054
 20
916.1857900480718
 30
0.0
 41
30.0
 42
30.0
 43
30.0
 50
180.0
  0
INSERT
  5
D3B
330
2EA
100
AcDbEntity
  8
0
 62
     0
370
    15
100
AcDbBlockReference
  2
_DotSmall
 10
814.5107194732053
 20
916.1857900480718
 30
0.0
 41
30.0
 42
30.0
 43
30.0
  0
MTEXT
  5
D3C
330
2EA
100
AcDbEntity
  8
0
 62
     0
100
AcDbMText
 10
867.427386139872
 20
934.9357900480718
 30
0.0
 40
25.0
 41
0.0
 71
     5
 72
     1
  1
17
 73
     1
 44
1.0
1001
ACAD
1000
MTEXTBEGIN
1070
    73
1070
     1
1070
    44
1040
1.0
1070
    74
1070
     0
1000
MTEXTEND
  0
POINT
  5
D3D
330
2EA
100
AcDbEntity
  8
Defpoints
 62
     0
100
AcDbPoint
 10
797.5107194732054
 20
1033.093561842788
 30
0.0
  0
POINT
  5
D3E
330
2EA
100
AcDbEntity
  8
Defpoints
 62
     0
100
AcDbPoint
 10
814.5107194732053
 20
1033.093561842788
 30
0.0
  0
POINT
  5
D3F
330
2EA
100
AcDbEntity
  8
Defpoints
 62
     0
100
AcDbPoint
 10
814.5107194732053
 20
916.1857900480718
 30
0.0
  0
ENDBLK
  5
2F6
330
2EA
100
AcDbEntity
  8
0
100
AcDbBlockEnd
  0
BLOCK
  5
302
330
2F8
100
AcDbEntity
  8
0
100
AcDbBlockBegin
  2
*D12
 70
     1
 10
0.0
 20
0.0
 30
0.0
  3
*D12
  1

  0
LINE
  5
CFE
330
2F8
100
AcDbEntity
  8
0
 62
     0
370
    15
100
AcDbLine
 10
814.5107194732053
 20
968.0935618427884
 30
0.0
 11
814.5107194732053
 21
916.1857900480718
 31
0.0
  0
LINE
  5
CFF
330
2F8
100
AcDbEntity
  8
0
 62
     0
370
    15
100
AcDbLine
 10
1614.510719473205
 20
968.0935618427884
 30
0.0
 11
1614.510719473205
 21
916.1857900480718
 31
0.0
  0
LINE
  5
D00
330
2F8
100
AcDbEntity
  8
0
 62
     0
370
    15
100
AcDbLine
 10
814.5107194732053
 20
916.1857900480718
 30
0.0
 11
1614.510719473205
 21
916.1857900480718
 31
0.0
  0
INSERT
  5
D01
330
2F8
100
AcDbEntity
  8
0
 62
     0
370
    15
100
AcDbBlockReference
  2
_DotSmall
 10
814.5107194732053
 20
916.1857900480718
 30
0.0
 41
30.0
 42
30.0
 43
30.0
 50
180.0
  0
INSERT
  5
D02
330
2F8
100
AcDbEntity
  8
0
 62
     0
370
    15
100
AcDbBlockReference
  2
_DotSmall
 10
1614.510719473205
 20
916.1857900480718
 30
0.0
 41
30.0
 42
30.0
 43
30.0
  0
MTEXT
  5
D03
330
2F8
100
AcDbEntity
  8
0
 62
     0
100
AcDbMText
 10
1214.510719473205
 20
934.9357900480718
 30
0.0
 40
25.0
 41
0.0
 71
     5
 72
     1
  1
800
 73
     1
 44
1.0
1001
ACAD
1000
MTEXTBEGIN
1070
    73
1070
     1
1070
    44
1040
1.0
1070
    74
1070
     0
1000
MTEXTEND
  0
POINT
  5
D04
330
2F8
100
AcDbEntity
  8
Defpoints
 62
     0
100
AcDbPoint
 10
814.5107194732053
 20
1033.093561842788
 30
0.0
  0
POINT
  5
D05
330
2F8
100
AcDbEntity
  8
Defpoints
 62
     0
100
AcDbPoint
 10
1614.510719473205
 20
1033.093561842788
 30
0.0
  0
POINT
  5
D06
330
2F8
100
AcDbEntity
  8
Defpoints
 62
     0
100
AcDbPoint
 10
1614.510719473205
 20
916.1857900480718
 30
0.0
  0
ENDBLK
  5
303
330
2F8
100
AcDbEntity
  8
0
100
AcDbBlockEnd
  0
BLOCK
  5
311
330
305
100
AcDbEntity
  8
0
100
AcDbBlockBegin
  2
*D13
 70
     1
 10
0.0
 20
0.0
 30
0.0
  3
*D13
  1

  0
LINE
  5
D52
330
305
100
AcDbEntity
  8
0
 62
     0
370
    15
100
AcDbLine
 10
1614.510719473205
 20
968.0935618427884
 30
0.0
 11
1614.510719473205
 21
916.1857900480718
 31
0.0
  0
LINE
  5
D53
330
305
100
AcDbEntity
  8
0
 62
     0
370
    15
100
AcDbLine
 10
1631.510719473205
 20
968.0935618427884
 30
0.0
 11
1631.510719473205
 21
916.1857900480718
 31
0.0
  0
LINE
  5
D54
330
305
100
AcDbEntity
  8
0
 62
     0
370
    15
100
AcDbLine
 10
1614.510719473205
 20
916.1857900480718
 30
0.0
 11
1631.510719473205
 21
916.1857900480718
 31
0.0
  0
MTEXT
  5
D55
330
305
100
AcDbEntity
  8
0
 62
     0
100
AcDbMText
 10
1571.052503888749
 20
934.9357900480718
 30
0.0
 40
25.0
 41
0.0
 71
     5
 72
     1
  1
17
 73
     1
 44
1.0
1001
ACAD
1000
MTEXTBEGIN
1070
    73
1070
     1
1070
    44
1040
1.0
1070
    74
1070
     0
1000
MTEXTEND
  0
INSERT
  5
D56
330
305
100
AcDbEntity
  8
0
 62
     0
370
    15
100
AcDbBlockReference
  2
_DotSmall
 10
1614.510719473205
 20
916.1857900480718
 30
0.0
 41
30.0
 42
30.0
 43
30.0
 50
180.0
  0
INSERT
  5
D57
330
305
100
AcDbEntity
  8
0
 62
     0
370
    15
100
AcDbBlockReference
  2
_DotSmall
 10
1631.510719473205
 20
916.1857900480718
 30
0.0
 41
30.0
 42
30.0
 43
30.0
  0
POINT
  5
D58
330
305
100
AcDbEntity
  8
Defpoints
 62
     0
100
AcDbPoint
 10
1614.510719473205
 20
1033.093561842788
 30
0.0
  0
POINT
  5
D59
330
305
100
AcDbEntity
  8
Defpoints
 62
     0
100
AcDbPoint
 10
1631.510719473205
 20
1033.093561842788
 30
0.0
  0
POINT
  5
D5A
330
305
100
AcDbEntity
  8
Defpoints
 62
     0
100
AcDbPoint
 10
1631.510719473205
 20
916.1857900480718
 30
0.0
  0
ENDBLK
  5
312
330
305
100
AcDbEntity
  8
0
100
AcDbBlockEnd
  0
BLOCK
  5
327
330
31D
100
AcDbEntity
  8
0
100
AcDbBlockBegin
  2
*D14
 70
     1
 10
0.0
 20
0.0
 30
0.0
  3
*D14
  1

  0
LINE
  5
B40
330
31D
100
AcDbEntity
  8
0
 62
     0
370
    15
100
AcDbLine
 10
797.5107194732054
 20
968.0935618427884
 30
0.0
 11
797.5107194732054
 21
845.8270180928648
 31
0.0
  0
LINE
  5
B41
330
31D
100
AcDbEntity
  8
0
 62
     0
370
    15
100
AcDbLine
 10
1631.510719473205
 20
968.0935618427884
 30
0.0
 11
1631.510719473205
 21
845.8270180928648
 31
0.0
  0
LINE
  5
B42
330
31D
100
AcDbEntity
  8
0
 62
     0
370
    15
100
AcDbLine
 10
797.5107194732054
 20
845.8270180928648
 30
0.0
 11
1631.510719473205
 21
845.8270180928648
 31
0.0
  0
INSERT
  5
B43
330
31D
100
AcDbEntity
  8
0
 62
     0
370
    15
100
AcDbBlockReference
  2
_DotSmall
 10
797.5107194732054
 20
845.8270180928648
 30
0.0
 41
30.0
 42
30.0
 43
30.0
 50
180.0
  0
INSERT
  5
B44
330
31D
100
AcDbEntity
  8
0
 62
     0
370
    15
100
AcDbBlockReference
  2
_DotSmall
 10
1631.510719473205
 20
845.8270180928648
 30
0.0
 41
30.0
 42
30.0
 43
30.0
  0
MTEXT
  5
B45
330
31D
100
AcDbEntity
  8
0
 62
     0
100
AcDbMText
 10
1214.510719473205
 20
864.5770180928648
 30
0.0
 40
25.0
 41
0.0
 71
     5
 72
     1
  1
834
 73
     1
 44
1.0
1001
ACAD
1000
MTEXTBEGIN
1070
    73
1070
     1
1070
    44
1040
1.0
1070
    74
1070
     0
1000
MTEXTEND
  0
POINT
  5
B46
330
31D
100
AcDbEntity
  8
Defpoints
 62
     0
100
AcDbPoint
 10
797.5107194732054
 20
1033.093561842788
 30
0.0
  0
POINT
  5
B47
330
31D
100
AcDbEntity
  8
Defpoints
 62
     0
100
AcDbPoint
 10
1631.510719473205
 20
1033.093561842788
 30
0.0
  0
POINT
  5
B48
330
31D
100
AcDbEntity
  8
Defpoints
 62
     0
100
AcDbPoint
 10
1631.510719473205
 20
845.8270180928648
 30
0.0
  0
ENDBLK
  5
328
330
31D
100
AcDbEntity
  8
0
100
AcDbBlockEnd
  0
BLOCK
  5
381
330
377
100
AcDbEntity
  8
0
100
AcDbBlockBegin
  2
*D15
 70
     1
 10
0.0
 20
0.0
 30
0.0
  3
*D15
  1

  0
LINE
  5
CF5
330
377
100
AcDbEntity
  8
0
 62
     0
370
    15
100
AcDbLine
 10
1214.510719473205
 20
1244.593561842788
 30
0.0
 11
1214.510719473205
 21
1202.556483900574
 31
0.0
  0
LINE
  5
CF6
330
377
100
AcDbEntity
  8
0
 62
     0
370
    15
100
AcDbLine
 10
814.5107194732053
 20
1315.093561842789
 30
0.0
 11
814.5107194732053
 21
1202.556483900574
 31
0.0
  0
LINE
  5
CF7
330
377
100
AcDbEntity
  8
0
 62
     0
370
    15
100
AcDbLine
 10
1214.510719473205
 20
1202.556483900574
 30
0.0
 11
814.5107194732053
 21
1202.556483900574
 31
0.0
  0
INSERT
  5
CF8
330
377
100
AcDbEntity
  8
0
 62
     0
370
    15
100
AcDbBlockReference
  2
_DotSmall
 10
1214.510719473205
 20
1202.556483900574
 30
0.0
 41
30.0
 42
30.0
 43
30.0
  0
INSERT
  5
CF9
330
377
100
AcDbEntity
  8
0
 62
     0
370
    15
100
AcDbBlockReference
  2
_DotSmall
 10
814.5107194732053
 20
1202.556483900574
 30
0.0
 41
30.0
 42
30.0
 43
30.0
 50
180.0
  0
MTEXT
  5
CFA
330
377
100
AcDbEntity
  8
0
 62
     0
100
AcDbMText
 10
1014.510719473205
 20
1221.306483900574
 30
0.0
 40
25.0
 41
0.0
 71
     5
 72
     1
  1
400
 73
     1
 44
1.0
1001
ACAD
1000
MTEXTBEGIN
1070
    73
1070
     1
1070
    44
1040
1.0
1070
    74
1070
     0
1000
MTEXTEND
  0
POINT
  5
CFB
330
377
100
AcDbEntity
  8
Defpoints
 62
     0
100
AcDbPoint
 10
1214.510719473205
 20
1309.593561842788
 30
0.0
  0
POINT
  5
CFC
330
377
100
AcDbEntity
  8
Defpoints
 62
     0
100
AcDbPoint
 10
814.5107194732053
 20
1380.093561842788
 30
0.0
  0
POINT
  5
CFD
330
377
100
AcDbEntity
  8
Defpoints
 62
     0
100
AcDbPoint
 10
814.5107194732053
 20
1202.556483900574
 30
0.0
  0
ENDBLK
  5
382
330
377
100
AcDbEntity
  8
0
100
AcDbBlockEnd
  0
BLOCK
  5
38F
330
385
100
AcDbEntity
  8
0
100
AcDbBlockBegin
  2
*D16
 70
     1
 10
0.0
 20
0.0
 30
0.0
  3
*D16
  1

  0
LINE
  5
DB1
330
385
100
AcDbEntity
  8
0
 62
     0
370
    15
100
AcDbLine
 10
1370.010719473205
 20
1400.093561842788
 30
0.0
 11
1458.421072719255
 21
1400.093561842788
 31
0.0
  0
LINE
  5
DB2
330
385
100
AcDbEntity
  8
0
 62
     0
370
    15
100
AcDbLine
 10
939.5107194732055
 20
1570.093561842788
 30
0.0
 11
1458.421072719255
 21
1570.093561842788
 31
0.0
  0
LINE
  5
DB3
330
385
100
AcDbEntity
  8
0
 62
     0
370
    15
100
AcDbLine
 10
1458.421072719255
 20
1400.093561842788
 30
0.0
 11
1458.421072719255
 21
1570.093561842788
 31
0.0
  0
INSERT
  5
DB4
330
385
100
AcDbEntity
  8
0
 62
     0
370
    15
100
AcDbBlockReference
  2
_DotSmall
 10
1458.421072719255
 20
1400.093561842788
 30
0.0
 41
30.0
 42
30.0
 43
30.0
 50
270.0
  0
INSERT
  5
DB5
330
385
100
AcDbEntity
  8
0
 62
     0
370
    15
100
AcDbBlockReference
  2
_DotSmall
 10
1458.421072719255
 20
1570.093561842788
 30
0.0
 41
30.0
 42
30.0
 43
30.0
 50
90.0
  0
MTEXT
  5
DB6
330
385
100
AcDbEntity
  8
0
 62
     0
100
AcDbMText
 10
1439.671072719254
 20
1455.076764407947
 30
0.0
 40
25.0
 41
0.0
 71
     5
 72
     1
  1
170
 11
0.0000000000000001
 21
1.0
 31
0.0
 73
     1
 44
1.0
1001
ACAD
1000
MTEXTBEGIN
1070
    73
1070
     1
1070
    44
1040
1.0
1070
    74
1070
     0
1000
MTEXTEND
  0
POINT
  5
DB7
330
385
100
AcDbEntity
  8
Defpoints
 62
     0
100
AcDbPoint
 10
1305.010719473205
 20
1400.093561842788
 30
0.0
  0
POINT
  5
DB8
330
385
100
AcDbEntity
  8
Defpoints
 62
     0
100
AcDbPoint
 10
874.5107194732055
 20
1570.093561842788
 30
0.0
  0
POINT
  5
DB9
330
385
100
AcDbEntity
  8
Defpoints
 62
     0
100
AcDbPoint
 10
1458.421072719255
 20
1570.093561842788
 30
0.0
  0
ENDBLK
  5
390
330
385
100
AcDbEntity
  8
0
100
AcDbBlockEnd
  0
BLOCK
  5
3BD
330
3B3
100
AcDbEntity
  8
0
100
AcDbBlockBegin
  2
*D17
 70
     1
 10
0.0
 20
0.0
 30
0.0
  3
*D17
  1

  0
LINE
  5
D6D
330
3B3
100
AcDbEntity
  8
0
 62
     0
370
    15
100
AcDbLine
 10
1149.510719473205
 20
1717.093561842788
 30
0.0
 11
1149.510719473205
 21
1735.737145145187
 31
0.0
  0
LINE
  5
D6E
330
3B3
100
AcDbEntity
  8
0
 62
     0
370
    15
100
AcDbLine
 10
1279.510719473205
 20
1717.093561842788
 30
0.0
 11
1279.510719473205
 21
1735.737145145187
 31
0.0
  0
LINE
  5
D6F
330
3B3
100
AcDbEntity
  8
0
 62
     0
370
    15
100
AcDbLine
 10
1149.510719473205
 20
1735.737145145187
 30
0.0
 11
1279.510719473205
 21
1735.737145145187
 31
0.0
  0
INSERT
  5
D70
330
3B3
100
AcDbEntity
  8
0
 62
     0
370
    15
100
AcDbBlockReference
  2
_DotSmall
 10
1149.510719473205
 20
1735.737145145187
 30
0.0
 41
30.0
 42
30.0
 43
30.0
 50
180.0
  0
INSERT
  5
D71
330
3B3
100
AcDbEntity
  8
0
 62
     0
370
    15
100
AcDbBlockReference
  2
_DotSmall
 10
1279.510719473205
 20
1735.737145145187
 30
0.0
 41
30.0
 42
30.0
 43
30.0
  0
MTEXT
  5
D72
330
3B3
100
AcDbEntity
  8
0
 62
     0
100
AcDbMText
 10
1214.510719473205
 20
1754.487145145187
 30
0.0
 40
25.0
 41
0.0
 71
     5
 72
     1
  1
130
 73
     1
 44
1.0
1001
ACAD
1000
MTEXTBEGIN
1070
    73
1070
     1
1070
    44
1040
1.0
1070
    74
1070
     0
1000
MTEXTEND
  0
POINT
  5
D73
330
3B3
100
AcDbEntity
  8
Defpoints
 62
     0
100
AcDbPoint
 10
1149.510719473205
 20
1652.093561842789
 30
0.0
  0
POINT
  5
D74
330
3B3
100
AcDbEntity
  8
Defpoints
 62
     0
100
AcDbPoint
 10
1279.510719473205
 20
1652.093561842789
 30
0.0
  0
POINT
  5
D75
330
3B3
100
AcDbEntity
  8
Defpoints
 62
     0
100
AcDbPoint
 10
1279.510719473205
 20
1735.737145145187
 30
0.0
  0
ENDBLK
  5
3BE
330
3B3
100
AcDbEntity
  8
0
100
AcDbBlockEnd
  0
BLOCK
  5
3CA
330
3C0
100
AcDbEntity
  8
0
100
AcDbBlockBegin
  2
*D18
 70
     1
 10
0.0
 20
0.0
 30
0.0
  3
*D18
  1

  0
LINE
  5
D64
330
3C0
100
AcDbEntity
  8
0
 62
     0
370
    15
100
AcDbLine
 10
1084.510719473205
 20
1717.093561842788
 30
0.0
 11
1084.510719473205
 21
1799.395076462493
 31
0.0
  0
LINE
  5
D65
330
3C0
100
AcDbEntity
  8
0
 62
     0
370
    15
100
AcDbLine
 10
1344.510719473205
 20
1717.093561842788
 30
0.0
 11
1344.510719473205
 21
1799.395076462493
 31
0.0
  0
LINE
  5
D66
330
3C0
100
AcDbEntity
  8
0
 62
     0
370
    15
100
AcDbLine
 10
1084.510719473205
 20
1799.395076462493
 30
0.0
 11
1344.510719473205
 21
1799.395076462493
 31
0.0
  0
INSERT
  5
D67
330
3C0
100
AcDbEntity
  8
0
 62
     0
370
    15
100
AcDbBlockReference
  2
_DotSmall
 10
1084.510719473205
 20
1799.395076462493
 30
0.0
 41
30.0
 42
30.0
 43
30.0
 50
180.0
  0
INSERT
  5
D68
330
3C0
100
AcDbEntity
  8
0
 62
     0
370
    15
100
AcDbBlockReference
  2
_DotSmall
 10
1344.510719473205
 20
1799.395076462493
 30
0.0
 41
30.0
 42
30.0
 43
30.0
  0
MTEXT
  5
D69
330
3C0
100
AcDbEntity
  8
0
 62
     0
100
AcDbMText
 10
1214.510719473205
 20
1818.145076462493
 30
0.0
 40
25.0
 41
0.0
 71
     5
 72
     1
  1
260
 73
     1
 44
1.0
1001
ACAD
1000
MTEXTBEGIN
1070
    73
1070
     1
1070
    44
1040
1.0
1070
    74
1070
     0
1000
MTEXTEND
  0
POINT
  5
D6A
330
3C0
100
AcDbEntity
  8
Defpoints
 62
     0
100
AcDbPoint
 10
1084.510719473205
 20
1652.093561842789
 30
0.0
  0
POINT
  5
D6B
330
3C0
100
AcDbEntity
  8
Defpoints
 62
     0
100
AcDbPoint
 10
1344.510719473205
 20
1652.093561842789
 30
0.0
  0
POINT
  5
D6C
330
3C0
100
AcDbEntity
  8
Defpoints
 62
     0
100
AcDbPoint
 10
1344.510719473205
 20
1799.395076462493
 30
0.0
  0
ENDBLK
  5
3CB
330
3C0
100
AcDbEntity
  8
0
100
AcDbBlockEnd
  0
BLOCK
  5
47E
330
474
100
AcDbEntity
  8
0
100
AcDbBlockBegin
  2
*D19
 70
     1
 10
0.0
 20
0.0
 30
0.0
  3
*D19
  1

  0
LINE
  5
17C2
330
474
100
AcDbEntity
  8
0
 62
     0
370
    15
100
AcDbLine
 10
1294.010719473205
 20
379.5263667117398
 30
0.0
 11
1294.010719473205
 21
323.1318920137246
 31
0.0
  0
LINE
  5
17C3
330
474
100
AcDbEntity
  8
0
 62
     0
370
    15
100
AcDbLine
 10
1135.010719473205
 20
379.5263667117398
 30
0.0
 11
1135.010719473205
 21
323.1318920137246
 31
0.0
  0
LINE
  5
17C4
330
474
100
AcDbEntity
  8
0
 62
     0
370
    15
100
AcDbLine
 10
1294.010719473205
 20
323.1318920137246
 30
0.0
 11
1135.010719473205
 21
323.1318920137246
 31
0.0
  0
INSERT
  5
17C5
330
474
100
AcDbEntity
  8
0
 62
     0
370
    15
100
AcDbBlockReference
  2
_DotSmall
 10
1294.010719473205
 20
323.1318920137246
 30
0.0
 41
30.0
 42
30.0
 43
30.0
  0
INSERT
  5
17C6
330
474
100
AcDbEntity
  8
0
 62
     0
370
    15
100
AcDbBlockReference
  2
_DotSmall
 10
1135.010719473205
 20
323.1318920137246
 30
0.0
 41
30.0
 42
30.0
 43
30.0
 50
180.0
  0
MTEXT
  5
17C7
330
474
100
AcDbEntity
  8
0
 62
     0
100
AcDbMText
 10
1214.510719473205
 20
341.8818920137246
 30
0.0
 40
25.0
 41
0.0
 71
     5
 72
     1
  1
158
 73
     1
 44
1.0
1001
ACAD
1000
MTEXTBEGIN
1070
    73
1070
     1
1070
    44
1040
1.0
1070
    74
1070
     0
1000
MTEXTEND
  0
POINT
  5
17C8
330
474
100
AcDbEntity
  8
Defpoints
 62
     0
100
AcDbPoint
 10
1294.010719473205
 20
444.5263667117397
 30
0.0
  0
POINT
  5
17C9
330
474
100
AcDbEntity
  8
Defpoints
 62
     0
100
AcDbPoint
 10
1135.010719473205
 20
444.5263667117398
 30
0.0
  0
POINT
  5
17CA
330
474
100
AcDbEntity
  8
Defpoints
 62
     0
100
AcDbPoint
 10
1135.010719473205
 20
323.1318920137246
 30
0.0
  0
ENDBLK
  5
47F
330
474
100
AcDbEntity
  8
0
100
AcDbBlockEnd
  0
BLOCK
  5
48B
330
481
100
AcDbEntity
  8
0
100
AcDbBlockBegin
  2
*D20
 70
     1
 10
0.0
 20
0.0
 30
0.0
  3
*D20
  1

  0
LINE
  5
BBF
330
481
100
AcDbEntity
  8
0
 62
     0
370
    15
100
AcDbLine
 10
1305.010719473205
 20
517.5263667117397
 30
0.0
 11
1305.010719473205
 21
554.6793912497114
 31
0.0
  0
LINE
  5
BC0
330
481
100
AcDbEntity
  8
0
 62
     0
370
    15
100
AcDbLine
 10
1124.010719473205
 20
517.5263667117397
 30
0.0
 11
1124.010719473205
 21
554.6793912497114
 31
0.0
  0
LINE
  5
BC1
330
481
100
AcDbEntity
  8
0
 62
     0
370
    15
100
AcDbLine
 10
1305.010719473205
 20
554.6793912497114
 30
0.0
 11
1124.010719473205
 21
554.6793912497114
 31
0.0
  0
INSERT
  5
BC2
330
481
100
AcDbEntity
  8
0
 62
     0
370
    15
100
AcDbBlockReference
  2
_DotSmall
 10
1305.010719473205
 20
554.6793912497114
 30
0.0
 41
30.0
 42
30.0
 43
30.0
  0
INSERT
  5
BC3
330
481
100
AcDbEntity
  8
0
 62
     0
370
    15
100
AcDbBlockReference
  2
_DotSmall
 10
1124.010719473205
 20
554.6793912497114
 30
0.0
 41
30.0
 42
30.0
 43
30.0
 50
180.0
  0
MTEXT
  5
BC4
330
481
100
AcDbEntity
  8
0
 62
     0
100
AcDbMText
 10
1214.510719473205
 20
573.4293912497114
 30
0.0
 40
25.0
 41
0.0
 71
     5
 72
     1
  1
181
 73
     1
 44
1.0
1001
ACAD
1000
MTEXTBEGIN
1070
    73
1070
     1
1070
    44
1040
1.0
1070
    74
1070
     0
1000
MTEXTEND
  0
POINT
  5
BC5
330
481
100
AcDbEntity
  8
Defpoints
 62
     0
100
AcDbPoint
 10
1305.010719473205
 20
452.5263667117396
 30
0.0
  0
POINT
  5
BC6
330
481
100
AcDbEntity
  8
Defpoints
 62
     0
100
AcDbPoint
 10
1124.010719473205
 20
452.5263667117398
 30
0.0
  0
POINT
  5
BC7
330
481
100
AcDbEntity
  8
Defpoints
 62
     0
100
AcDbPoint
 10
1124.010719473205
 20
554.6793912497114
 30
0.0
  0
ENDBLK
  5
48C
330
481
100
AcDbEntity
  8
0
100
AcDbBlockEnd
  0
BLOCK
  5
593
330
587
100
AcDbEntity
  8
0
100
AcDbBlockBegin
  2
*D21
 70
     1
 10
0.0
 20
0.0
 30
0.0
  3
*D21
  1

  0
LINE
  5
DA8
330
587
100
AcDbEntity
  8
0
 62
     0
370
    15
100
AcDbLine
 10
1436.640882292465
 20
1555.093561842788
 30
0.0
 11
1436.319961785355
 21
1555.093561842788
 31
0.0
  0
LINE
  5
DA9
330
587
100
AcDbEntity
  8
0
 62
     0
370
    15
100
AcDbLine
 10
1344.510719473205
 20
1570.093561842788
 30
0.0
 11
1436.319961785355
 21
1570.093561842788
 31
0.0
  0
LINE
  5
DAA
330
587
100
AcDbEntity
  8
0
 62
     0
370
    15
100
AcDbLine
 10
1436.319961785355
 20
1555.093561842788
 30
0.0
 11
1436.319961785355
 21
1570.093561842788
 31
0.0
  0
MTEXT
  5
DAB
330
587
100
AcDbEntity
  8
0
 62
     0
100
AcDbMText
 10
1426.374463895841
 20
1522.587485159131
 30
0.0
 40
25.0
 41
0.0
 71
     5
 72
     1
  1
15
 11
0.0000000000000001
 21
1.0
 31
0.0
 73
     1
 44
1.0
1001
ACAD
1000
MTEXTBEGIN
1070
    73
1070
     1
1070
    44
1040
1.0
1070
    74
1070
     0
1000
MTEXTEND
  0
INSERT
  5
DAC
330
587
100
AcDbEntity
  8
0
 62
     0
370
    15
100
AcDbBlockReference
  2
_DotSmall
 10
1436.319961785355
 20
1555.093561842788
 30
0.0
 41
30.0
 42
30.0
 43
30.0
 50
270.0
  0
INSERT
  5
DAD
330
587
100
AcDbEntity
  8
0
 62
     0
370
    15
100
AcDbBlockReference
  2
_DotSmall
 10
1436.319961785355
 20
1570.093561842788
 30
0.0
 41
30.0
 42
30.0
 43
30.0
 50
90.0
  0
POINT
  5
DAE
330
587
100
AcDbEntity
  8
Defpoints
 62
     0
100
AcDbPoint
 10
1371.640882292465
 20
1555.093561842788
 30
0.0
  0
POINT
  5
DAF
330
587
100
AcDbEntity
  8
Defpoints
 62
     0
100
AcDbPoint
 10
1279.510719473205
 20
1570.093561842788
 30
0.0
  0
POINT
  5
DB0
330
587
100
AcDbEntity
  8
Defpoints
 62
     0
100
AcDbPoint
 10
1436.319961785355
 20
1570.093561842788
 30
0.0
  0
ENDBLK
  5
594
330
587
100
AcDbEntity
  8
0
100
AcDbBlockEnd
  0
BLOCK
  5
DE7
330
DE3
100
AcDbEntity
  8
0
100
AcDbBlockBegin
  2
A$C0655774D
 70
     0
 10
0.0
 20
0.0
 30
0.0
  3
A$C0655774D
  1

  0
HATCH
  5
DE4
330
DE3
100
AcDbEntity
  8
実形
 62
     0
100
AcDbHatch
 10
0.0
 20
0.0
 30
0.0
210
0.0
220
0.0
230
1.0
  2
SOLID
 70
     1
 71
     0
 91
        1
 92
        7
 72
     1
 73
     1
 93
        2
 10
4.552682973722539
 20
0.0000016847325242
 42
-1.0
 10
4.548727101171948
 20
9.101409440015231
 42
-1.0
 97
        0
 75
     0
 76
     1
 47
0.1166526434546944
 98
        1
 10
6.651064143657322
 20
3.151410098740825
  0
ENDBLK
  5
DE8
330
DE3
100
AcDbEntity
  8
0
100
AcDbBlockEnd
  0
BLOCK
  5
DEA
330
DE9
100
AcDbEntity
  8
0
100
AcDbBlockBegin
  2
_Dot
 70
     0
 10
0.0
 20
0.0
 30
0.0
  3
_Dot
  1

  0
LWPOLYLINE
  5
DEB
330
DE9
100
AcDbEntity
  8
0
 62
     0
100
AcDbPolyline
 90
        2
 70
     1
 43
0.5
 10
-0.25
 20
0.0
 42
1.0
 10
0.25
 20
0.0
 42
1.0
  0
LINE
  5
DEC
330
DE9
100
AcDbEntity
  8
0
 62
     0
370
    -2
100
AcDbLine
 10
-0.5
 20
0.0
 30
0.0
 11
-1.0
 21
0.0
 31
0.0
  0
ENDBLK
  5
DED
330
DE9
100
AcDbEntity
  8
0
100
AcDbBlockEnd
  0
BLOCK
  5
E84
330
E7A
100
AcDbEntity
  8
0
100
AcDbBlockBegin
  2
*D24
 70
     1
 10
0.0
 20
0.0
 30
0.0
  3
*D24
  1

  0
LINE
  5
ED2
330
E7A
100
AcDbEntity
  8
実形
 62
     0
370
    15
100
AcDbLine
 10
1104.010719473205
 20
516.7157443787114
 30
0.0
 11
1104.010719473205
 21
554.5770817450962
 31
0.0
  0
LINE
  5
ED3
330
E7A
100
AcDbEntity
  8
実形
 62
     0
370
    15
100
AcDbLine
 10
1325.010719473205
 20
517.3704268963724
 30
0.0
 11
1325.010719473205
 21
554.5770817450962
 31
0.0
  0
LINE
  5
ED4
330
E7A
100
AcDbEntity
  8
実形
 62
     0
370
    15
100
AcDbLine
 10
1104.010719473205
 20
554.5770817450962
 30
0.0
 11
1325.010719473205
 21
554.5770817450962
 31
0.0
  0
MTEXT
  5
ED5
330
E7A
100
AcDbEntity
  8
実形
 62
     0
100
AcDbMText
 10
1112.449773043137
 20
574.0205090514105
 30
0.0
 40
25.0
 41
0.0
 71
     5
 72
     1
  1
20
 73
     1
 44
1.0
1001
ACAD
1000
MTEXTBEGIN
1070
    73
1070
     1
1070
    44
1040
1.0
1070
    74
1070
     0
1000
MTEXTEND
  0
INSERT
  5
ED6
330
E7A
100
AcDbEntity
  8
実形
 62
     0
370
    15
100
AcDbBlockReference
  2
_DotSmall
 10
1104.010719473205
 20
554.5770817450962
 30
0.0
 41
30.0
 42
30.0
 43
30.0
 50
180.0
  0
INSERT
  5
ED7
330
E7A
100
AcDbEntity
  8
実形
 62
     0
370
    15
100
AcDbBlockReference
  2
_DotSmall
 10
1325.010719473205
 20
554.5770817450962
 30
0.0
 41
30.0
 42
30.0
 43
30.0
  0
POINT
  5
ED8
330
E7A
100
AcDbEntity
  8
Defpoints
 62
     0
100
AcDbPoint
 10
1104.010719473205
 20
451.7157443787113
 30
0.0
  0
POINT
  5
ED9
330
E7A
100
AcDbEntity
  8
Defpoints
 62
     0
100
AcDbPoint
 10
1325.010719473205
 20
452.3704268963724
 30
0.0
  0
POINT
  5
EDA
330
E7A
100
AcDbEntity
  8
Defpoints
 62
     0
100
AcDbPoint
 10
1325.010719473205
 20
554.5770817450962
 30
0.0
  0
ENDBLK
  5
E85
330
E7A
100
AcDbEntity
  8
0
100
AcDbBlockEnd
  0
BLOCK
  5
F43
330
F39
100
AcDbEntity
  8
0
100
AcDbBlockBegin
  2
*D25
 70
     1
 10
0.0
 20
0.0
 30
0.0
  3
*D25
  1

  0
LINE
  5
F45
330
F39
100
AcDbEntity
  8
0
 62
     0
370
    15
100
AcDbLine
 10
2235.940387275704
 20
774.7111593298432
 30
0.0
 11
2235.940387275704
 21
815.8881008520211
 31
0.0
  0
LINE
  5
F46
330
F39
100
AcDbEntity
  8
0
 62
     0
370
    15
100
AcDbLine
 10
2065.940387275704
 20
774.7111593298432
 30
0.0
 11
2065.940387275704
 21
815.8881008520211
 31
0.0
  0
LINE
  5
F47
330
F39
100
AcDbEntity
  8
0
 62
     0
370
    15
100
AcDbLine
 10
2235.940387275704
 20
815.8881008520211
 30
0.0
 11
2065.940387275704
 21
815.8881008520211
 31
0.0
  0
INSERT
  5
F48
330
F39
100
AcDbEntity
  8
0
 62
     0
370
    15
100
AcDbBlockReference
  2
_DotSmall
 10
2235.940387275704
 20
815.8881008520211
 30
0.0
 41
30.0
 42
30.0
 43
30.0
  0
INSERT
  5
F49
330
F39
100
AcDbEntity
  8
0
 62
     0
370
    15
100
AcDbBlockReference
  2
_DotSmall
 10
2065.940387275704
 20
815.8881008520211
 30
0.0
 41
30.0
 42
30.0
 43
30.0
 50
180.0
  0
MTEXT
  5
F4A
330
F39
100
AcDbEntity
  8
0
 62
     0
100
AcDbMText
 10
2150.940387275704
 20
834.6381008520211
 30
0.0
 40
25.0
 41
0.0
 71
     5
 72
     1
  1
17
 73
     1
 44
1.0
1001
ACAD
1000
MTEXTBEGIN
1070
    73
1070
     1
1070
    44
1040
1.0
1070
    74
1070
     0
1000
MTEXTEND
  0
POINT
  5
F4B
330
F39
100
AcDbEntity
  8
Defpoints
 62
     0
100
AcDbPoint
 10
2235.940387275704
 20
709.7111593298432
 30
0.0
  0
POINT
  5
F4C
330
F39
100
AcDbEntity
  8
Defpoints
 62
     0
100
AcDbPoint
 10
2065.940387275704
 20
709.7111593298432
 30
0.0
  0
POINT
  5
F4D
330
F39
100
AcDbEntity
  8
Defpoints
 62
     0
100
AcDbPoint
 10
2065.940387275704
 20
815.8881008520211
 30
0.0
  0
ENDBLK
  5
F44
330
F39
100
AcDbEntity
  8
0
100
AcDbBlockEnd
  0
BLOCK
  5
101A
330
1010
100
AcDbEntity
  8
0
100
AcDbBlockBegin
  2
*D26
 70
     1
 10
0.0
 20
0.0
 30
0.0
  3
*D26
  1

  0
LINE
  5
1034
330
1010
100
AcDbEntity
  8
0
 62
     0
370
    15
100
AcDbLine
 10
1960.30693421529
 20
1621.701055701369
 30
0.0
 11
1960.30693421529
 21
1659.24343834279
 31
0.0
  0
LINE
  5
1035
330
1010
100
AcDbEntity
  8
0
 62
     0
370
    15
100
AcDbLine
 10
1975.30693421529
 20
1621.701055701369
 30
0.0
 11
1975.30693421529
 21
1659.24343834279
 31
0.0
  0
LINE
  5
1036
330
1010
100
AcDbEntity
  8
0
 62
     0
370
    15
100
AcDbLine
 10
1960.30693421529
 20
1659.24343834279
 30
0.0
 11
1975.30693421529
 21
1659.24343834279
 31
0.0
  0
MTEXT
  5
1037
330
1010
100
AcDbEntity
  8
0
 62
     0
100
AcDbMText
 10
1938.831623667459
 20
1681.25493627379
 30
0.0
 40
25.0
 41
0.0
 71
     5
 72
     1
  1
15
 73
     1
 44
1.0
1001
ACAD
1000
MTEXTBEGIN
1070
    73
1070
     1
1070
    44
1040
1.0
1070
    74
1070
     0
1000
MTEXTEND
  0
INSERT
  5
1038
330
1010
100
AcDbEntity
  8
0
 62
     0
370
    15
100
AcDbBlockReference
  2
_DotSmall
 10
1960.30693421529
 20
1659.24343834279
 30
0.0
 41
30.0
 42
30.0
 43
30.0
 50
180.0
  0
INSERT
  5
1039
330
1010
100
AcDbEntity
  8
0
 62
     0
370
    15
100
AcDbBlockReference
  2
_DotSmall
 10
1975.30693421529
 20
1659.24343834279
 30
0.0
 41
30.0
 42
30.0
 43
30.0
  0
POINT
  5
103A
330
1010
100
AcDbEntity
  8
Defpoints
 62
     0
100
AcDbPoint
 10
1960.30693421529
 20
1556.701055701369
 30
0.0
  0
POINT
  5
103B
330
1010
100
AcDbEntity
  8
Defpoints
 62
     0
100
AcDbPoint
 10
1975.30693421529
 20
1556.701055701369
 30
0.0
  0
POINT
  5
103C
330
1010
100
AcDbEntity
  8
Defpoints
 62
     0
100
AcDbPoint
 10
1975.30693421529
 20
1659.24343834279
 30
0.0
  0
ENDBLK
  5
101B
330
1010
100
AcDbEntity
  8
0
100
AcDbBlockEnd
  0
BLOCK
  5
1026
330
101C
100
AcDbEntity
  8
0
100
AcDbBlockBegin
  2
*D27
 70
     1
 10
0.0
 20
0.0
 30
0.0
  3
*D27
  1

  0
LINE
  5
1697
330
101C
100
AcDbEntity
  8
0
 62
     0
370
    15
100
AcDbLine
 10
1975.30693421529
 20
1621.701055701369
 30
0.0
 11
1975.30693421529
 21
1659.24343834279
 31
0.0
  0
LINE
  5
1698
330
101C
100
AcDbEntity
  8
0
 62
     0
370
    15
100
AcDbLine
 10
2074.30693421529
 20
1621.701055701369
 30
0.0
 11
2074.30693421529
 21
1659.24343834279
 31
0.0
  0
LINE
  5
1699
330
101C
100
AcDbEntity
  8
0
 62
     0
370
    15
100
AcDbLine
 10
1975.30693421529
 20
1659.24343834279
 30
0.0
 11
2074.30693421529
 21
1659.24343834279
 31
0.0
  0
INSERT
  5
169A
330
101C
100
AcDbEntity
  8
0
 62
     0
370
    15
100
AcDbBlockReference
  2
_DotSmall
 10
1975.30693421529
 20
1659.24343834279
 30
0.0
 41
30.0
 42
30.0
 43
30.0
 50
180.0
  0
INSERT
  5
169B
330
101C
100
AcDbEntity
  8
0
 62
     0
370
    15
100
AcDbBlockReference
  2
_DotSmall
 10
2074.30693421529
 20
1659.24343834279
 30
0.0
 41
30.0
 42
30.0
 43
30.0
  0
MTEXT
  5
169C
330
101C
100
AcDbEntity
  8
0
 62
     0
100
AcDbMText
 10
2024.80693421529
 20
1677.99343834279
 30
0.0
 40
25.0
 41
0.0
 71
     5
 72
     1
  1
99
 73
     1
 44
1.0
1001
ACAD
1000
MTEXTBEGIN
1070
    73
1070
     1
1070
    44
1040
1.0
1070
    74
1070
     0
1000
MTEXTEND
  0
POINT
  5
169D
330
101C
100
AcDbEntity
  8
Defpoints
 62
     0
100
AcDbPoint
 10
1975.30693421529
 20
1556.701055701369
 30
0.0
  0
POINT
  5
169E
330
101C
100
AcDbEntity
  8
Defpoints
 62
     0
100
AcDbPoint
 10
2074.30693421529
 20
1556.701055701369
 30
0.0
  0
POINT
  5
169F
330
101C
100
AcDbEntity
  8
Defpoints
 62
     0
100
AcDbPoint
 10
2074.30693421529
 20
1659.24343834279
 30
0.0
  0
ENDBLK
  5
1027
330
101C
100
AcDbEntity
  8
0
100
AcDbBlockEnd
  0
BLOCK
  5
106E
330
106D
100
AcDbEntity
  8
0
100
AcDbBlockBegin
  2
*D28
 70
     1
 10
0.0
 20
0.0
 30
0.0
  3
*D28
  1

  0
LINE
  5
106F
330
106D
100
AcDbEntity
  8
0
 62
     0
370
    15
100
AcDbLine
 10
792.0406534737513
 20
1645.043089995703
 30
0.0
 11
792.0406534737513
 21
1672.989796808026
 31
0.0
  0
LINE
  5
1070
330
106D
100
AcDbEntity
  8
0
 62
     0
370
    15
100
AcDbLine
 10
832.0406534737513
 20
1645.043089995703
 30
0.0
 11
832.0406534737513
 21
1672.989796808026
 31
0.0
  0
LINE
  5
1071
330
106D
100
AcDbEntity
  8
0
 62
     0
370
    15
100
AcDbLine
 10
792.0406534737513
 20
1672.989796808026
 30
0.0
 11
832.0406534737513
 21
1672.989796808026
 31
0.0
  0
MTEXT
  5
1072
330
106D
100
AcDbEntity
  8
0
 62
     0
100
AcDbMText
 10
811.3004231402438
 20
1691.739796808026
 30
0.0
 40
25.0
 41
0.0
 71
     5
 72
     1
  1
40
 73
     1
 44
1.0
1001
ACAD
1000
MTEXTBEGIN
1070
    73
1070
     1
1070
    44
1040
1.0
1070
    74
1070
     0
1000
MTEXTEND
  0
INSERT
  5
1073
330
106D
100
AcDbEntity
  8
0
 62
     0
370
    15
100
AcDbBlockReference
  2
_DotSmall
 10
792.0406534737513
 20
1672.989796808026
 30
0.0
 41
30.0
 42
30.0
 43
30.0
 50
180.0
  0
INSERT
  5
1074
330
106D
100
AcDbEntity
  8
0
 62
     0
370
    15
100
AcDbBlockReference
  2
_DotSmall
 10
832.0406534737513
 20
1672.989796808026
 30
0.0
 41
30.0
 42
30.0
 43
30.0
  0
POINT
  5
1075
330
106D
100
AcDbEntity
  8
Defpoints
 62
     0
100
AcDbPoint
 10
792.0406534737513
 20
1580.043089995703
 30
0.0
  0
POINT
  5
1076
330
106D
100
AcDbEntity
  8
Defpoints
 62
     0
100
AcDbPoint
 10
832.0406534737513
 20
1580.043089995703
 30
0.0
  0
POINT
  5
1077
330
106D
100
AcDbEntity
  8
Defpoints
 62
     0
100
AcDbPoint
 10
832.0406534737513
 20
1672.989796808026
 30
0.0
  0
ENDBLK
  5
1078
330
106D
100
AcDbEntity
  8
0
100
AcDbBlockEnd
  0
BLOCK
  5
107A
330
1079
100
AcDbEntity
  8
0
100
AcDbBlockBegin
  2
*D29
 70
     1
 10
0.0
 20
0.0
 30
0.0
  3
*D29
  1

  0
LINE
  5
107B
330
1079
100
AcDbEntity
  8
0
 62
     0
370
    15
100
AcDbLine
 10
832.0406534737513
 20
1645.043089995703
 30
0.0
 11
832.0406534737513
 21
1672.989796808026
 31
0.0
  0
LINE
  5
107C
330
1079
100
AcDbEntity
  8
0
 62
     0
370
    15
100
AcDbLine
 10
1022.040653473751
 20
1645.043089995703
 30
0.0
 11
1022.040653473751
 21
1672.989796808026
 31
0.0
  0
LINE
  5
107D
330
1079
100
AcDbEntity
  8
0
 62
     0
370
    15
100
AcDbLine
 10
832.0406534737513
 20
1672.989796808026
 30
0.0
 11
1022.040653473751
 21
1672.989796808026
 31
0.0
  0
INSERT
  5
107E
330
1079
100
AcDbEntity
  8
0
 62
     0
370
    15
100
AcDbBlockReference
  2
_DotSmall
 10
832.0406534737513
 20
1672.989796808026
 30
0.0
 41
30.0
 42
30.0
 43
30.0
 50
180.0
  0
INSERT
  5
107F
330
1079
100
AcDbEntity
  8
0
 62
     0
370
    15
100
AcDbBlockReference
  2
_DotSmall
 10
1022.040653473751
 20
1672.989796808026
 30
0.0
 41
30.0
 42
30.0
 43
30.0
  0
MTEXT
  5
1080
330
1079
100
AcDbEntity
  8
0
 62
     0
100
AcDbMText
 10
927.0406534737514
 20
1691.739796808026
 30
0.0
 40
25.0
 41
0.0
 71
     5
 72
     1
  1
190
 73
     1
 44
1.0
1001
ACAD
1000
MTEXTBEGIN
1070
    73
1070
     1
1070
    44
1040
1.0
1070
    74
1070
     0
1000
MTEXTEND
  0
POINT
  5
1081
330
1079
100
AcDbEntity
  8
Defpoints
 62
     0
100
AcDbPoint
 10
832.0406534737513
 20
1580.043089995703
 30
0.0
  0
POINT
  5
1082
330
1079
100
AcDbEntity
  8
Defpoints
 62
     0
100
AcDbPoint
 10
1022.040653473751
 20
1580.043089995703
 30
0.0
  0
POINT
  5
1083
330
1079
100
AcDbEntity
  8
Defpoints
 62
     0
100
AcDbPoint
 10
1022.040653473751
 20
1672.989796808026
 30
0.0
  0
ENDBLK
  5
1084
330
1079
100
AcDbEntity
  8
0
100
AcDbBlockEnd
  0
BLOCK
  5
1086
330
1085
100
AcDbEntity
  8
0
100
AcDbBlockBegin
  2
*D30
 70
     1
 10
0.0
 20
0.0
 30
0.0
  3
*D30
  1

  0
LINE
  5
1087
330
1085
100
AcDbEntity
  8
0
 62
     0
370
    15
100
AcDbLine
 10
767.0406534737512
 20
1609.043089995703
 30
0.0
 11
739.3307164056722
 21
1609.043089995703
 31
0.0
  0
LINE
  5
1088
330
1085
100
AcDbEntity
  8
0
 62
     0
370
    15
100
AcDbLine
 10
767.0406534737513
 20
1614.543089995703
 30
0.0
 11
739.3307164056722
 21
1614.543089995703
 31
0.0
  0
LINE
  5
1089
330
1085
100
AcDbEntity
  8
0
 62
     0
370
    15
100
AcDbLine
 10
739.3307164056722
 20
1609.043089995703
 30
0.0
 11
739.3307164056722
 21
1579.043089995703
 31
0.0
  0
MTEXT
  5
108A
330
1085
100
AcDbEntity
  8
0
 62
     0
100
AcDbMText
 10
738.532904753436
 20
1654.539828866816
 30
0.0
 40
25.0
 41
0.0
 71
     5
 72
     1
  1
5.5
 11
0.0000000000000001
 21
1.0
 31
0.0
 73
     1
 44
1.0
1001
ACAD
1000
MTEXTBEGIN
1070
    73
1070
     1
1070
    44
1040
1.0
1070
    74
1070
     0
1000
MTEXTEND
  0
LINE
  5
108B
330
1085
100
AcDbEntity
  8
0
 62
     0
370
    15
100
AcDbLine
 10
739.3307164056722
 20
1609.043089995703
 30
0.0
 11
739.3307164056722
 21
1614.543089995703
 31
0.0
  0
INSERT
  5
108C
330
1085
100
AcDbEntity
  8
0
 62
     0
370
    15
100
AcDbBlockReference
  2
_DotSmall
 10
739.3307164056722
 20
1609.043089995703
 30
0.0
 41
30.0
 42
30.0
 43
30.0
 50
90.0
  0
POINT
  5
108D
330
1085
100
AcDbEntity
  8
Defpoints
 62
     0
100
AcDbPoint
 10
832.0406534737513
 20
1609.043089995703
 30
0.0
  0
POINT
  5
108E
330
1085
100
AcDbEntity
  8
Defpoints
 62
     0
100
AcDbPoint
 10
832.0406534737513
 20
1614.543089995703
 30
0.0
  0
POINT
  5
108F
330
1085
100
AcDbEntity
  8
Defpoints
 62
     0
100
AcDbPoint
 10
739.3307164056722
 20
1614.543089995703
 30
0.0
  0
ENDBLK
  5
1090
330
1085
100
AcDbEntity
  8
0
100
AcDbBlockEnd
  0
BLOCK
  5
10AC
330
1091
100
AcDbEntity
  8
0
 62
     1
100
AcDbBlockBegin
  2
A$C47360BBC
 70
     0
 10
0.0
 20
0.0
 30
0.0
  3
A$C47360BBC
  1

  0
LINE
  5
1092
330
1091
100
AcDbEntity
  8
0
 62
     1
100
AcDbLine
 10
806.0077516116336
 20
370.5000040859886
 30
0.0
 11
126.0077516116334
 21
370.5000040859888
 31
0.0
  0
LINE
  5
1093
330
1091
100
AcDbEntity
  8
0
 62
     1
100
AcDbLine
 10
201.0077516116335
 20
553.3692542970384
 30
0.0
 11
201.0077516116335
 21
0.0000040859886212
 31
0.0
  0
ARC
  5
1094
330
1091
100
AcDbEntity
  8
0
100
AcDbCircle
 10
276.0077516116335
 20
430.0000040859888
 30
0.0
 40
100.0
100
AcDbArc
 50
270.0
 51
327.133535260914
  0
LINE
  5
1095
330
1091
100
AcDbEntity
  8
0
100
AcDbLine
 10
276.0077516116335
 20
330.0000040859889
 30
0.0
 11
181.0077516116334
 21
330.0000040859889
 31
0.0
  0
ARC
  5
1096
330
1091
100
AcDbEntity
  8
0
100
AcDbCircle
 10
126.0077516116336
 20
345.0000040859888
 30
0.0
 40
60.0
100
AcDbArc
 50
90.0
 51
180.0
  0
ARC
  5
1097
330
1091
100
AcDbEntity
  8
0
100
AcDbCircle
 10
126.0077516116334
 20
345.0000040859888
 30
0.0
 40
77.0
100
AcDbArc
 50
90.0
 51
180.0
  0
LINE
  5
1098
330
1091
100
AcDbEntity
  8
Cen
100
AcDbLine
 10
336.0077516116334
 20
552.0000040859888
 30
0.0
 11
336.0077516116334
 21
358.0000040859888
 31
0.0
  0
CIRCLE
  5
1099
330
1091
100
AcDbEntity
  8
Cen
100
AcDbCircle
 10
336.0077516116334
 20
390.0000040859889
 30
0.0
 40
6.0
  0
LINE
  5
109A
330
1091
100
AcDbEntity
  8
Cen
100
AcDbLine
 10
316.9996012277343
 20
390.0000040859891
 30
0.0
 11
351.520322741967
 21
390.0000040859889
 31
0.0
  0
LINE
  5
109B
330
1091
100
AcDbEntity
  8
0
100
AcDbLine
 10
135.0077516116336
 20
399.5000040859888
 30
0.0
 11
267.0077516116336
 21
399.5000040859888
 31
0.0
  0
LINE
  5
109C
330
1091
100
AcDbEntity
  8
0
100
AcDbLine
 10
296.0077516116336
 20
370.5000040859891
 30
0.0
 11
296.0077516116337
 21
370.5000040859888
 31
0.0
  0
LINE
  5
109D
330
1091
100
AcDbEntity
  8
0
100
AcDbLine
 10
267.0077516116337
 20
341.5000040859888
 30
0.0
 11
135.0077516116336
 21
341.5000040859888
 31
0.0
  0
LINE
  5
109E
330
1091
100
AcDbEntity
  8
0
100
AcDbLine
 10
106.0077516116336
 20
370.5000040859888
 30
0.0
 11
106.0077516116336
 21
370.5000040859888
 31
0.0
  0
ARC
  5
109F
330
1091
100
AcDbEntity
  8
0
100
AcDbCircle
 10
135.0077516116336
 20
370.5000040859888
 30
0.0
 40
29.0
100
AcDbArc
 50
90.0
 51
180.0
  0
ARC
  5
10A0
330
1091
100
AcDbEntity
  8
0
100
AcDbCircle
 10
135.0077516116336
 20
370.5000040859888
 30
0.0
 40
29.0
100
AcDbArc
 50
180.0
 51
270.0
  0
ARC
  5
10A1
330
1091
100
AcDbEntity
  8
0
100
AcDbCircle
 10
267.0077516116337
 20
370.5000040859888
 30
0.0
 40
29.0
100
AcDbArc
 50
270.0
 51
0.0
  0
ARC
  5
10A2
330
1091
100
AcDbEntity
  8
0
100
AcDbCircle
 10
267.0077516116336
 20
370.5000040859888
 30
0.0
 40
29.0
100
AcDbArc
 50
0.0
 51
90.0
  0
DIMENSION
  5
10A3
330
1091
100
AcDbEntity
  8
0
100
AcDbDimension
  2
*D28
 10
106.0077516116336
 20
463.4467108983117
 30
0.0
 11
85.26752127812597
 21
463.4467108983117
 31
0.0
 12
-726.0329018621177
 22
-1209.543085909714
 32
0.0
 70
   128
 71
     5
 42
40.0
  3
ISO-25
100
AcDbAlignedDimension
 13
66.00775161163358
 23
370.5000040859888
 33
0.0
 14
106.0077516116336
 24
370.5000040859888
 34
0.0
100
AcDbRotatedDimension
1001
ACAD
1000
DSTYLE
1002
{
1070
   279
1070
     1
1002
}
  0
DIMENSION
  5
10A4
330
1091
100
AcDbEntity
  8
0
100
AcDbDimension
  2
*D29
 10
296.0077516116336
 20
463.4467108983117
 30
0.0
 11
201.0077516116336
 21
482.1967108983117
 31
0.0
 12
-726.0329018621177
 22
-1209.543085909714
 32
0.0
 71
     5
 42
190.0
  3
ISO-25
100
AcDbAlignedDimension
 13
106.0077516116336
 23
370.5000040859888
 33
0.0
 14
296.0077516116336
 24
370.5000040859888
 34
0.0
100
AcDbRotatedDimension
1001
ACAD
1000
DSTYLE
1002
{
1070
   279
1070
     1
1002
}
  0
DIMENSION
  5
10A5
330
1091
100
AcDbEntity
  8
0
100
AcDbDimension
  2
*D30
 10
13.29781454355452
 20
405.0000040859888
 30
0.0
 11
12.50000289131822
 21
444.9967429571016
 31
0.0
 12
-726.0329018621177
 22
-1209.543085909714
 32
0.0
 70
   128
 71
     5
 42
5.5
  3
ISO-25
100
AcDbAlignedDimension
 13
106.0077516116334
 23
399.5000040859888
 33
0.0
 14
106.0077516116336
 24
405.0000040859888
 34
0.0
 50
90.0
100
AcDbRotatedDimension
1001
ACAD
1000
DSTYLE
1002
{
1070
   282
1070
     1
1070
   279
1070
     2
1002
}
  0
CIRCLE
  5
10A6
330
1091
100
AcDbEntity
  8
0
100
AcDbCircle
 10
201.0077516116336
 20
370.5000040859891
 30
0.0
 40
21.99999999999977
  0
CIRCLE
  5
10A7
330
1091
100
AcDbEntity
  8
0
100
AcDbCircle
 10
201.0077516116336
 20
370.5000040859891
 30
0.0
 40
19.31162841867126
  0
CIRCLE
  5
10A8
102
{ACAD_REACTORS
330
10A9
102
}
330
1091
100
AcDbEntity
  8
0
370
    20
100
AcDbCircle
 10
13.29781454355452
 20
405.0000040859888
 30
0.0
 40
2.686192441042294
  0
HATCH
  5
10A9
330
1091
100
AcDbEntity
  8
0
100
AcDbHatch
 10
0.0
 20
0.0
 30
0.0
210
0.0
220
0.0
230
1.0
  2
SOLID
 70
     1
 71
     1
 91
        1
 92
        7
 72
     1
 73
     1
 93
        2
 10
15.98400698459682
 20
405.0000040859888
 42
1.0
 10
10.61162210251223
 20
405.0000040859888
 42
1.0
 97
        1
330
10A8
 75
     0
 76
     1
 47
0.4154898185022131
 98
        1
 10
14.43078773183697
 20
404.6988558753148
  0
ENDBLK
  5
10AD
330
1091
100
AcDbEntity
  8
0
 62
     1
100
AcDbBlockEnd
  0
BLOCK
  5
1117
330
110D
100
AcDbEntity
  8
0
 62
     1
100
AcDbBlockBegin
  2
*D32
 70
     1
 10
0.0
 20
0.0
 30
0.0
  3
*D32
  1

  0
LINE
  5
12EB
330
110D
100
AcDbEntity
  8
実形
 62
     0
370
    15
100
AcDbLine
 10
789.5107194732054
 20
1506.093561842789
 30
0.0
 11
768.0169661110421
 21
1506.093561842789
 31
0.0
  0
LINE
  5
12EC
330
110D
100
AcDbEntity
  8
実形
 62
     0
370
    15
100
AcDbLine
 10
790.8083000060242
 20
1570.093561842788
 30
0.0
 11
768.0169661110421
 21
1570.093561842788
 31
0.0
  0
LINE
  5
12ED
330
110D
100
AcDbEntity
  8
実形
 62
     0
370
    15
100
AcDbLine
 10
768.0169661110421
 20
1506.093561842789
 30
0.0
 11
768.0169661110421
 21
1570.093561842788
 31
0.0
  0
INSERT
  5
12EE
330
110D
100
AcDbEntity
  8
実形
 62
     0
370
    15
100
AcDbBlockReference
  2
_DotSmall
 10
768.0169661110421
 20
1506.093561842789
 30
0.0
 41
30.0
 42
30.0
 43
30.0
 50
270.0
  0
INSERT
  5
12EF
330
110D
100
AcDbEntity
  8
実形
 62
     0
370
    15
100
AcDbBlockReference
  2
_DotSmall
 10
768.0169661110421
 20
1570.093561842788
 30
0.0
 41
30.0
 42
30.0
 43
30.0
 50
90.0
  0
MTEXT
  5
12F0
330
110D
100
AcDbEntity
  8
実形
 62
     0
100
AcDbMText
 10
749.2669661110419
 20
1538.093561842789
 30
0.0
 40
25.0
 41
0.0
 71
     5
 72
     1
  1
59
 11
0.0000000000000001
 21
1.0
 31
0.0
 73
     1
 44
1.0
1001
ACAD
1000
MTEXTBEGIN
1070
    73
1070
     1
1070
    44
1040
1.0
1070
    74
1070
     0
1000
MTEXTEND
  0
POINT
  5
12F1
330
110D
100
AcDbEntity
  8
Defpoints
 62
     0
100
AcDbPoint
 10
854.5107194732054
 20
1506.093561842789
 30
0.0
  0
POINT
  5
12F2
330
110D
100
AcDbEntity
  8
Defpoints
 62
     0
100
AcDbPoint
 10
855.8083000060241
 20
1570.093561842788
 30
0.0
  0
POINT
  5
12F3
330
110D
100
AcDbEntity
  8
Defpoints
 62
     0
100
AcDbPoint
 10
768.0169661110421
 20
1570.093561842788
 30
0.0
  0
ENDBLK
  5
1118
330
110D
100
AcDbEntity
  8
0
 62
     1
100
AcDbBlockEnd
  0
BLOCK
  5
1124
330
111A
100
AcDbEntity
  8
0
 62
     1
100
AcDbBlockBegin
  2
*D33
 70
     1
 10
0.0
 20
0.0
 30
0.0
  3
*D33
  1

  0
LINE
  5
12F4
330
111A
100
AcDbEntity
  8
実形
 62
     0
370
    15
100
AcDbLine
 10
790.8083000060242
 20
1565.115581550285
 30
0.0
 11
768.0284551391633
 21
1565.115581550285
 31
0.0
  0
LINE
  5
12F5
330
111A
100
AcDbEntity
  8
実形
 62
     0
370
    15
100
AcDbLine
 10
791.8002594577147
 20
1506.115279819966
 30
0.0
 11
768.0284551391633
 21
1506.115279819966
 31
0.0
  0
LINE
  5
12F6
330
111A
100
AcDbEntity
  8
実形
 62
     0
370
    15
100
AcDbLine
 10
768.0284551391633
 20
1565.115581550285
 30
0.0
 11
768.0284551391633
 21
1506.115279819966
 31
0.0
  0
MTEXT
  5
12F7
330
111A
100
AcDbEntity
  8
実形
 62
     0
100
AcDbMText
 10
752.2460678666784
 20
1594.367829651794
 30
0.0
 40
25.0
 41
0.0
 71
     5
 72
     1
  1
5
 11
0.0000000000000001
 21
1.0
 31
0.0
 73
     1
 44
1.0
1001
ACAD
1000
MTEXTBEGIN
1070
    73
1070
     1
1070
    44
1040
1.0
1070
    74
1070
     0
1000
MTEXTEND
  0
INSERT
  5
12F8
330
111A
100
AcDbEntity
  8
実形
 62
     0
370
    15
100
AcDbBlockReference
  2
_DotSmall
 10
768.0284551391633
 20
1565.115581550285
 30
0.0
 41
30.0
 42
30.0
 43
30.0
 50
90.0
  0
INSERT
  5
12F9
330
111A
100
AcDbEntity
  8
実形
 62
     0
370
    15
100
AcDbBlockReference
  2
_DotSmall
 10
768.0284551391633
 20
1506.115279819966
 30
0.0
 41
30.0
 42
30.0
 43
30.0
 50
270.0
  0
POINT
  5
12FA
330
111A
100
AcDbEntity
  8
Defpoints
 62
     0
100
AcDbPoint
 10
855.8083000060241
 20
1565.115581550285
 30
0.0
  0
POINT
  5
12FB
330
111A
100
AcDbEntity
  8
Defpoints
 62
     0
100
AcDbPoint
 10
856.8002594577146
 20
1506.115279819966
 30
0.0
  0
POINT
  5
12FC
330
111A
100
AcDbEntity
  8
Defpoints
 62
     0
100
AcDbPoint
 10
768.0284551391633
 20
1506.115279819966
 30
0.0
  0
ENDBLK
  5
1125
330
111A
100
AcDbEntity
  8
0
 62
     1
100
AcDbBlockEnd
  0
BLOCK
  5
11D9
330
11CF
100
AcDbEntity
  8
0
 62
     1
100
AcDbBlockBegin
  2
*D34
 70
     1
 10
0.0
 20
0.0
 30
0.0
  3
*D34
  1

  0
LINE
  5
12FD
330
11CF
100
AcDbEntity
  8
実形
 62
     0
370
    15
100
AcDbLine
 10
814.5107194732053
 20
1602.079948238977
 30
0.0
 11
814.5107194732053
 21
1647.430241098054
 31
0.0
  0
LINE
  5
12FE
330
11CF
100
AcDbEntity
  8
実形
 62
     0
370
    15
100
AcDbLine
 10
1044.510719473205
 20
1636.077815984873
 30
0.0
 11
1044.510719473205
 21
1647.430241098054
 31
0.0
  0
LINE
  5
12FF
330
11CF
100
AcDbEntity
  8
実形
 62
     0
370
    15
100
AcDbLine
 10
814.5107194732053
 20
1647.430241098054
 30
0.0
 11
1044.510719473205
 21
1647.430241098054
 31
0.0
  0
MTEXT
  5
1300
330
11CF
100
AcDbEntity
  8
実形
 62
     0
100
AcDbMText
 10
814.5107194732053
 20
1666.180241098054
 30
0.0
 40
25.0
 41
0.0
 71
     5
 72
     1
  1
40
 73
     1
 44
1.0
1001
ACAD
1000
MTEXTBEGIN
1070
    73
1070
     1
1070
    44
1040
1.0
1070
    74
1070
     0
1000
MTEXTEND
  0
INSERT
  5
1301
330
11CF
100
AcDbEntity
  8
実形
 62
     0
370
    15
100
AcDbBlockReference
  2
_DotSmall
 10
814.5107194732053
 20
1647.430241098054
 30
0.0
 41
30.0
 42
30.0
 43
30.0
 50
180.0
  0
INSERT
  5
1302
330
11CF
100
AcDbEntity
  8
実形
 62
     0
370
    15
100
AcDbBlockReference
  2
_DotSmall
 10
1044.510719473205
 20
1647.430241098054
 30
0.0
 41
30.0
 42
30.0
 43
30.0
  0
POINT
  5
1303
330
11CF
100
AcDbEntity
  8
Defpoints
 62
     0
100
AcDbPoint
 10
814.5107194732053
 20
1537.079948238977
 30
0.0
  0
POINT
  5
1304
330
11CF
100
AcDbEntity
  8
Defpoints
 62
     0
100
AcDbPoint
 10
1044.510719473205
 20
1571.077815984873
 30
0.0
  0
POINT
  5
1305
330
11CF
100
AcDbEntity
  8
Defpoints
 62
     0
100
AcDbPoint
 10
1044.510719473205
 20
1647.430241098054
 30
0.0
  0
ENDBLK
  5
11DA
330
11CF
100
AcDbEntity
  8
0
 62
     1
100
AcDbBlockEnd
  0
BLOCK
  5
11E6
330
11DC
100
AcDbEntity
  8
0
 62
     1
100
AcDbBlockBegin
  2
*D35
 70
     1
 10
0.0
 20
0.0
 30
0.0
  3
*D35
  1

  0
LINE
  5
1306
330
11DC
100
AcDbEntity
  8
実形
 62
     0
370
    15
100
AcDbLine
 10
854.5107194732054
 20
1600.593561842789
 30
0.0
 11
854.5107194732054
 21
1647.430241098054
 31
0.0
  0
LINE
  5
1307
330
11DC
100
AcDbEntity
  8
実形
 62
     0
370
    15
100
AcDbLine
 10
1044.510719473205
 20
1600.593561842789
 30
0.0
 11
1044.510719473205
 21
1647.430241098054
 31
0.0
  0
LINE
  5
1308
330
11DC
100
AcDbEntity
  8
実形
 62
     0
370
    15
100
AcDbLine
 10
854.5107194732054
 20
1647.430241098054
 30
0.0
 11
1044.510719473205
 21
1647.430241098054
 31
0.0
  0
MTEXT
  5
1309
330
11DC
100
AcDbEntity
  8
実形
 62
     0
100
AcDbMText
 10
941.7268511175425
 20
1669.82008763395
 30
0.0
 40
25.0
 41
0.0
 71
     5
 72
     1
  1
190
 73
     1
 44
1.0
1001
ACAD
1000
MTEXTBEGIN
1070
    73
1070
     1
1070
    44
1040
1.0
1070
    74
1070
     0
1000
MTEXTEND
  0
INSERT
  5
130A
330
11DC
100
AcDbEntity
  8
実形
 62
     0
370
    15
100
AcDbBlockReference
  2
_DotSmall
 10
854.5107194732054
 20
1647.430241098054
 30
0.0
 41
30.0
 42
30.0
 43
30.0
 50
180.0
  0
INSERT
  5
130B
330
11DC
100
AcDbEntity
  8
実形
 62
     0
370
    15
100
AcDbBlockReference
  2
_DotSmall
 10
1044.510719473205
 20
1647.430241098054
 30
0.0
 41
30.0
 42
30.0
 43
30.0
  0
POINT
  5
130C
330
11DC
100
AcDbEntity
  8
Defpoints
 62
     0
100
AcDbPoint
 10
854.5107194732054
 20
1535.593561842788
 30
0.0
  0
POINT
  5
130D
330
11DC
100
AcDbEntity
  8
Defpoints
 62
     0
100
AcDbPoint
 10
1044.510719473205
 20
1535.593561842788
 30
0.0
  0
POINT
  5
130E
330
11DC
100
AcDbEntity
  8
Defpoints
 62
     0
100
AcDbPoint
 10
1044.510719473205
 20
1647.430241098054
 30
0.0
  0
ENDBLK
  5
11E7
330
11DC
100
AcDbEntity
  8
0
 62
     1
100
AcDbBlockEnd
  0
BLOCK
  5
12E3
330
12A6
100
AcDbEntity
  8
0
 62
     1
100
AcDbBlockBegin
  2
A$C12C95FB9
 70
     0
 10
0.0
 20
0.0
 30
0.0
  3
A$C12C95FB9
  1

  0
TEXT
  5
12A7
330
12A6
100
AcDbEntity
  8
0
100
AcDbText
 10
522.7848991929091
 20
152.964944261544
 30
0.0
 40
25.0
  1
12%%C
 72
     2
 11
581.1182325262425
 21
149.6316109282106
 31
0.0
100
AcDbText
 73
     1
  0
ARC
  5
12A8
330
12A6
100
AcDbEntity
  8
0
100
AcDbCircle
 10
160.5000006151301
 20
29.50000288445722
 30
0.0
 40
29.5
100
AcDbArc
 50
270.0
 51
0.0
  0
ARC
  5
12A9
330
12A6
100
AcDbEntity
  8
0
100
AcDbCircle
 10
160.5000006151301
 20
29.50000288445676
 30
0.0
 40
29.5
100
AcDbArc
 50
0.0
 51
90.0
  0
LINE
  5
12AA
330
12A6
100
AcDbEntity
  8
0
100
AcDbLine
 10
190.0000006151301
 20
29.50000288445722
 30
0.0
 11
190.0000006151301
 21
29.50000288445676
 31
0.0
  0
ARC
  5
12AB
330
12A6
100
AcDbEntity
  8
0
100
AcDbCircle
 10
29.50000061512992
 20
29.50000288445722
 30
0.0
 40
29.5
100
AcDbArc
 50
90.0
 51
180.0
  0
ARC
  5
12AC
330
12A6
100
AcDbEntity
  8
0
100
AcDbCircle
 10
29.5000006151297
 20
29.50000288445722
 30
0.0
 40
29.5
100
AcDbArc
 50
180.0
 51
270.0
  0
LINE
  5
12AD
330
12A6
100
AcDbEntity
  8
0
100
AcDbLine
 10
29.5000006151297
 20
0.0000028844572171
 30
0.0
 11
160.5000006151301
 21
0.0000028844572171
 31
0.0
  0
LINE
  5
12AE
330
12A6
100
AcDbEntity
  8
0
100
AcDbLine
 10
29.50000061513015
 20
59.00000288445721
 30
0.0
 11
160.5000006151301
 21
59.00000288445676
 31
0.0
  0
ARC
  5
12AF
330
12A6
100
AcDbEntity
  8
実形
370
    15
100
AcDbCircle
 10
95.00000061513004
 20
29.50000288445722
 30
0.0
 40
12.5
100
AcDbArc
 50
282.5558577985876
 51
347.4441422014174
  0
LINE
  5
12B0
330
12A6
100
AcDbEntity
  8
実形
370
    15
100
AcDbLine
 10
83.77502845480831
 20
31.00000288445722
 30
0.0
 11
92.50000061513004
 21
31.00000288445722
 31
0.0
  0
LINE
  5
12B1
330
12A6
100
AcDbEntity
  8
実形
370
    15
100
AcDbLine
 10
83.77502845480819
 20
28.00000288445722
 30
0.0
 11
92.50000061513004
 21
28.00000288445699
 31
0.0
  0
LINE
  5
12B2
330
12A6
100
AcDbEntity
  8
実形
370
    15
100
AcDbLine
 10
96.50000061513004
 20
40.72497504477905
 30
0.0
 11
96.50000061512992
 21
32.00000288445699
 31
0.0
  0
LINE
  5
12B3
330
12A6
100
AcDbEntity
  8
実形
370
    15
100
AcDbLine
 10
93.50000061513004
 20
40.72497504477905
 30
0.0
 11
93.50000061513004
 21
32.00000288445722
 31
0.0
  0
LINE
  5
12B4
330
12A6
100
AcDbEntity
  8
実形
370
    15
100
AcDbLine
 10
93.50000061513004
 20
27.00000288445699
 30
0.0
 11
93.50000061513004
 21
18.27503072413538
 31
0.0
  0
LINE
  5
12B5
330
12A6
100
AcDbEntity
  8
実形
370
    15
100
AcDbLine
 10
97.50000061512992
 20
31.00000288445699
 30
0.0
 11
106.224972775452
 21
31.00000288445745
 31
0.0
  0
LINE
  5
12B6
330
12A6
100
AcDbEntity
  8
実形
370
    15
100
AcDbLine
 10
96.50000061512992
 20
27.00000288445722
 30
0.0
 11
96.50000061513004
 21
18.27503072413538
 31
0.0
  0
LINE
  5
12B7
330
12A6
100
AcDbEntity
  8
実形
370
    15
100
AcDbLine
 10
97.50000061512992
 20
28.00000288445722
 30
0.0
 11
106.2249727754517
 21
28.00000288445722
 31
0.0
  0
ARC
  5
12B8
330
12A6
100
AcDbEntity
  8
実形
370
    15
100
AcDbCircle
 10
95.00000061513004
 20
29.50000288445722
 30
0.0
 40
12.5
100
AcDbArc
 50
192.5558577985826
 51
257.4441422014124
  0
ARC
  5
12B9
330
12A6
100
AcDbEntity
  8
実形
370
    15
100
AcDbCircle
 10
95.00000061513004
 20
29.50000288445722
 30
0.0
 40
12.5
100
AcDbArc
 50
102.5558577985876
 51
167.4441422014173
  0
ARC
  5
12BA
330
12A6
100
AcDbEntity
  8
実形
370
    15
100
AcDbCircle
 10
95.00000061513004
 20
29.50000288445722
 30
0.0
 40
12.5
100
AcDbArc
 50
12.55585779858264
 51
77.44414220141242
  0
ARC
  5
12BB
330
12A6
100
AcDbEntity
  8
実形
370
    15
100
AcDbCircle
 10
97.50000061513015
 20
40.72497504477905
 30
0.0
 40
1.0
100
AcDbArc
 50
77.44414220141242
 51
180.0
  0
ARC
  5
12BC
330
12A6
100
AcDbEntity
  8
実形
370
    15
100
AcDbCircle
 10
106.224972775452
 20
32.00000288445676
 30
0.0
 40
1.0
100
AcDbArc
 50
270.0
 51
12.55585779858264
  0
ARC
  5
12BD
330
12A6
100
AcDbEntity
  8
実形
370
    15
100
AcDbCircle
 10
106.2249727754517
 20
27.00000288445676
 30
0.0
 40
1.0
100
AcDbArc
 50
347.4441422014174
 51
90.0
  0
ARC
  5
12BE
330
12A6
100
AcDbEntity
  8
実形
370
    15
100
AcDbCircle
 10
97.50000061513004
 20
18.27503072413538
 30
0.0
 40
1.0
100
AcDbArc
 50
180.0
 51
282.5558577985876
  0
ARC
  5
12BF
330
12A6
100
AcDbEntity
  8
実形
370
    15
100
AcDbCircle
 10
92.50000061513004
 20
18.27503072413538
 30
0.0
 40
1.0
100
AcDbArc
 50
257.4441422014124
 51
0.0
  0
ARC
  5
12C0
330
12A6
100
AcDbEntity
  8
実形
370
    15
100
AcDbCircle
 10
83.77502845480819
 20
27.00000288445745
 30
0.0
 40
1.0
100
AcDbArc
 50
90.0
 51
192.5558577985812
  0
ARC
  5
12C1
330
12A6
100
AcDbEntity
  8
実形
370
    15
100
AcDbCircle
 10
83.77502845480831
 20
32.00000288445745
 30
0.0
 40
1.0
100
AcDbArc
 50
167.4441422014188
 51
270.0
  0
ARC
  5
12C2
330
12A6
100
AcDbEntity
  8
実形
370
    15
100
AcDbCircle
 10
92.50000061513004
 20
40.72497504477905
 30
0.0
 40
1.0
100
AcDbArc
 50
0.0
 51
102.5558577985876
  0
ARC
  5
12C3
330
12A6
100
AcDbEntity
  8
実形
370
    15
100
AcDbCircle
 10
92.50000061513004
 20
27.00000288445699
 30
0.0
 40
1.0
100
AcDbArc
 50
0.0
 51
90.0
  0
ARC
  5
12C4
330
12A6
100
AcDbEntity
  8
実形
370
    15
100
AcDbCircle
 10
97.50000061512992
 20
27.00000288445722
 30
0.0
 40
1.0
100
AcDbArc
 50
90.0
 51
180.0
  0
ARC
  5
12C5
330
12A6
100
AcDbEntity
  8
実形
370
    15
100
AcDbCircle
 10
97.50000061512992
 20
32.00000288445699
 30
0.0
 40
1.0
100
AcDbArc
 50
180.0
 51
270.0
  0
ARC
  5
12C6
330
12A6
100
AcDbEntity
  8
実形
370
    15
100
AcDbCircle
 10
92.50000061513004
 20
32.00000288445722
 30
0.0
 40
1.0
100
AcDbArc
 50
270.0
 51
0.0
  0
LINE
  5
12C7
330
12A6
100
AcDbEntity
  8
実形
370
    15
100
AcDbLine
 10
10.00000061513003
 20
29.50000288445699
 30
0.0
 11
10.00000061513003
 21
29.50000288445699
 31
0.0
  0
LINE
  5
12C8
330
12A6
100
AcDbEntity
  8
実形
370
    15
100
AcDbLine
 10
20.00000061513004
 20
19.50000288445699
 30
0.0
 11
60.00000061513003
 21
19.50000288445721
 31
0.0
  0
LINE
  5
12C9
330
12A6
100
AcDbEntity
  8
実形
370
    15
100
AcDbLine
 10
70.00000061513003
 20
29.50000288445722
 30
0.0
 11
70.00000061513003
 21
29.50000288445722
 31
0.0
  0
LINE
  5
12CA
330
12A6
100
AcDbEntity
  8
実形
370
    15
100
AcDbLine
 10
60.00000061513003
 20
39.50000288445722
 30
0.0
 11
20.00000061513004
 21
39.50000288445699
 31
0.0
  0
ARC
  5
12CB
330
12A6
100
AcDbEntity
  8
実形
370
    15
100
AcDbCircle
 10
60.00000061513003
 20
29.50000288445722
 30
0.0
 40
10.0
100
AcDbArc
 50
0.0
 51
90.0
  0
ARC
  5
12CC
330
12A6
100
AcDbEntity
  8
実形
370
    15
100
AcDbCircle
 10
60.00000061513003
 20
29.50000288445722
 30
0.0
 40
10.0
100
AcDbArc
 50
270.0
 51
0.0
  0
ARC
  5
12CD
330
12A6
100
AcDbEntity
  8
実形
370
    15
100
AcDbCircle
 10
20.00000061513004
 20
29.50000288445699
 30
0.0
 40
10.0
100
AcDbArc
 50
180.0
 51
270.0
  0
ARC
  5
12CE
330
12A6
100
AcDbEntity
  8
実形
370
    15
100
AcDbCircle
 10
20.00000061513004
 20
29.50000288445699
 30
0.0
 40
10.0
100
AcDbArc
 50
90.0
 51
180.0
  0
LINE
  5
12CF
330
12A6
100
AcDbEntity
  8
実形
370
    15
100
AcDbLine
 10
20.00000061513004
 20
24.50000288445699
 30
0.0
 11
60.00000061513003
 21
24.50000288445722
 31
0.0
  0
ARC
  5
12D0
330
12A6
100
AcDbEntity
  8
実形
370
    15
100
AcDbCircle
 10
20.00000061513004
 20
29.50000288445699
 30
0.0
 40
5.0
100
AcDbArc
 50
180.0
 51
270.0
  0
ARC
  5
12D1
330
12A6
100
AcDbEntity
  8
実形
370
    15
100
AcDbCircle
 10
20.00000061513004
 20
29.50000288445699
 30
0.0
 40
5.0
100
AcDbArc
 50
90.0
 51
180.0
  0
LINE
  5
12D2
330
12A6
100
AcDbEntity
  8
実形
370
    15
100
AcDbLine
 10
60.00000061513003
 20
34.50000288445722
 30
0.0
 11
20.00000061513004
 21
34.50000288445699
 31
0.0
  0
ARC
  5
12D3
330
12A6
100
AcDbEntity
  8
実形
370
    15
100
AcDbCircle
 10
60.00000061513003
 20
29.50000288445722
 30
0.0
 40
5.0
100
AcDbArc
 50
0.0
 51
90.0
  0
ARC
  5
12D4
330
12A6
100
AcDbEntity
  8
実形
370
    15
100
AcDbCircle
 10
60.00000061513003
 20
29.50000288445722
 30
0.0
 40
5.0
100
AcDbArc
 50
270.0
 51
0.0
  0
ARC
  5
12D5
330
12A6
100
AcDbEntity
  8
実形
370
    15
100
AcDbCircle
 10
130.0000006151302
 20
29.50000288445722
 30
0.0
 40
5.0
100
AcDbArc
 50
180.0
 51
270.0
  0
ARC
  5
12D6
330
12A6
100
AcDbEntity
  8
実形
370
    15
100
AcDbCircle
 10
130.0000006151302
 20
29.50000288445722
 30
0.0
 40
5.0
100
AcDbArc
 50
90.0
 51
180.0
  0
LINE
  5
12D7
330
12A6
100
AcDbEntity
  8
実形
370
    15
100
AcDbLine
 10
130.0000006151302
 20
34.50000288445722
 30
0.0
 11
170.0000006151302
 21
34.50000288445699
 31
0.0
  0
ARC
  5
12D8
330
12A6
100
AcDbEntity
  8
実形
370
    15
100
AcDbCircle
 10
170.0000006151302
 20
29.50000288445699
 30
0.0
 40
5.0
100
AcDbArc
 50
0.0
 51
90.0
  0
ARC
  5
12D9
330
12A6
100
AcDbEntity
  8
実形
370
    15
100
AcDbCircle
 10
170.0000006151302
 20
29.50000288445699
 30
0.0
 40
5.0
100
AcDbArc
 50
270.0
 51
0.0
  0
LINE
  5
12DA
330
12A6
100
AcDbEntity
  8
実形
370
    15
100
AcDbLine
 10
170.0000006151302
 20
24.50000288445699
 30
0.0
 11
130.0000006151302
 21
24.50000288445722
 31
0.0
  0
LINE
  5
12DB
330
12A6
100
AcDbEntity
  8
実形
370
    15
100
AcDbLine
 10
130.0000006151302
 20
39.50000288445722
 30
0.0
 11
170.0000006151302
 21
39.50000288445699
 31
0.0
  0
LINE
  5
12DC
330
12A6
100
AcDbEntity
  8
実形
370
    15
100
AcDbLine
 10
180.0000006151302
 20
29.50000288445699
 30
0.0
 11
180.0000006151302
 21
29.50000288445699
 31
0.0
  0
ARC
  5
12DD
330
12A6
100
AcDbEntity
  8
実形
370
    15
100
AcDbCircle
 10
170.0000006151302
 20
29.50000288445699
 30
0.0
 40
10.0
100
AcDbArc
 50
0.0
 51
90.0
  0
LINE
  5
12DE
330
12A6
100
AcDbEntity
  8
実形
370
    15
100
AcDbLine
 10
170.0000006151302
 20
19.50000288445699
 30
0.0
 11
130.0000006151302
 21
19.50000288445721
 31
0.0
  0
ARC
  5
12DF
330
12A6
100
AcDbEntity
  8
実形
370
    15
100
AcDbCircle
 10
170.0000006151302
 20
29.50000288445699
 30
0.0
 40
10.0
100
AcDbArc
 50
270.0
 51
0.0
  0
LINE
  5
12E0
330
12A6
100
AcDbEntity
  8
実形
370
    15
100
AcDbLine
 10
120.0000006151302
 20
29.50000288445722
 30
0.0
 11
120.0000006151302
 21
29.50000288445722
 31
0.0
  0
ARC
  5
12E1
330
12A6
100
AcDbEntity
  8
実形
370
    15
100
AcDbCircle
 10
130.0000006151302
 20
29.50000288445722
 30
0.0
 40
10.0
100
AcDbArc
 50
180.0
 51
270.0
  0
ARC
  5
12E2
330
12A6
100
AcDbEntity
  8
実形
370
    15
100
AcDbCircle
 10
130.0000006151302
 20
29.50000288445722
 30
0.0
 40
10.0
100
AcDbArc
 50
90.0
 51
180.0
  0
ENDBLK
  5
12E4
330
12A6
100
AcDbEntity
  8
0
 62
     1
100
AcDbBlockEnd
  0
BLOCK
  5
15C5
330
15C1
100
AcDbEntity
  8
0
 62
     1
100
AcDbBlockBegin
  2
_Open90
 70
     0
 10
0.0
 20
0.0
 30
0.0
  3
_Open90
  1

  0
LINE
  5
15C2
330
15C1
100
AcDbEntity
  8
0
  6
ByBlock
 62
     0
370
    -2
100
AcDbLine
 10
-0.5
 20
0.5
 30
0.0
 11
0.0
 21
0.0
 31
0.0
  0
LINE
  5
15C3
330
15C1
100
AcDbEntity
  8
0
  6
ByBlock
 62
     0
370
    -2
100
AcDbLine
 10
0.0
 20
0.0
 30
0.0
 11
-0.5
 21
-0.5
 31
0.0
  0
LINE
  5
15C4
330
15C1
100
AcDbEntity
  8
0
  6
ByBlock
 62
     0
370
    -2
100
AcDbLine
 10
0.0
 20
0.0
 30
0.0
 11
-1.0
 21
0.0
 31
0.0
  0
ENDBLK
  5
15C6
330
15C1
100
AcDbEntity
  8
0
 62
     1
100
AcDbBlockEnd
  0
BLOCK
  5
15F4
330
15EF
100
AcDbEntity
  8
0
 62
     1
100
AcDbBlockBegin
  2
_Closed
 70
     0
 10
0.0
 20
0.0
 30
0.0
  3
_Closed
  1

  0
LINE
  5
15F0
330
15EF
100
AcDbEntity
  8
0
  6
ByBlock
 62
     0
370
    -2
100
AcDbLine
 10
-1.0
 20
0.1666666666666666
 30
0.0
 11
0.0
 21
0.0
 31
0.0
  0
LINE
  5
15F1
330
15EF
100
AcDbEntity
  8
0
  6
ByBlock
 62
     0
370
    -2
100
AcDbLine
 10
0.0
 20
0.0
 30
0.0
 11
-1.0
 21
-0.1666666666666666
 31
0.0
  0
LINE
  5
15F2
330
15EF
100
AcDbEntity
  8
0
  6
ByBlock
 62
     0
370
    -2
100
AcDbLine
 10
-1.0
 20
0.1666666666666666
 30
0.0
 11
-1.0
 21
-0.1666666666666666
 31
0.0
  0
LINE
  5
15F3
330
15EF
100
AcDbEntity
  8
0
  6
ByBlock
 62
     0
370
    -2
100
AcDbLine
 10
0.0
 20
0.0
 30
0.0
 11
-1.0
 21
0.0
 31
0.0
  0
ENDBLK
  5
15F5
330
15EF
100
AcDbEntity
  8
0
 62
     1
100
AcDbBlockEnd
  0
BLOCK
  5
1639
330
162E
100
AcDbEntity
  8
0
 62
     1
100
AcDbBlockBegin
  2
*D39
 70
     1
 10
0.0
 20
0.0
 30
0.0
  3
*D39
  1

  0
ARC
  5
1656
330
162E
100
AcDbEntity
  8
実形
 62
     0
370
    15
100
AcDbCircle
 10
1156.542788059983
 20
1280.084007793423
 30
0.0
 40
120.8635876714233
100
AcDbArc
 50
150.1441113034861
 51
180.0
  0
INSERT
  5
1657
330
162E
100
AcDbEntity
  8
実形
 62
     0
370
    15
100
AcDbBlockReference
  2
_DotSmall
 10
1051.720182935574
 20
1340.252340658312
 30
0.0
 41
30.0
 42
30.0
 43
30.0
 50
60.1441113034861
  0
INSERT
  5
1658
330
162E
100
AcDbEntity
  8
実形
 62
     0
370
    15
100
AcDbBlockReference
  2
_DotSmall
 10
1035.67920038856
 20
1280.084007793423
 30
0.0
 41
30.0
 42
30.0
 43
30.0
 50
270.0
  0
MTEXT
  5
1659
330
162E
100
AcDbEntity
  8
実形
 62
     0
100
AcDbMText
 10
1015.731842736631
 20
1323.41504892501
 30
0.0
 40
25.0
 41
0.0
 71
     5
 72
     1
  1
30°
 11
0.2941143491398978
 21
0.9557702389329847
 31
0.0
 73
     1
 44
1.0
1001
ACAD
1000
MTEXTBEGIN
1070
    73
1070
     1
1070
    44
1040
1.0
1070
    74
1070
     0
1000
MTEXTEND
  0
POINT
  5
165A
330
162E
100
AcDbEntity
  8
Defpoints
 62
     0
100
AcDbPoint
 10
1037.497835460199
 20
1300.971948939523
 30
0.0
  0
POINT
  5
165B
330
162E
100
AcDbEntity
  8
Defpoints
 62
     0
100
AcDbPoint
 10
1119.66934960169
 20
1301.249416880503
 30
0.0
  0
POINT
  5
165C
330
162E
100
AcDbEntity
  8
Defpoints
 62
     0
100
AcDbPoint
 10
1214.510719473205
 20
1280.084007793423
 30
0.0
  0
POINT
  5
165D
330
162E
100
AcDbEntity
  8
Defpoints
 62
     0
100
AcDbPoint
 10
814.5107194732053
 20
1280.084007793423
 30
0.0
  0
POINT
  5
165E
330
162E
100
AcDbEntity
  8
Defpoints
 62
     0
100
AcDbPoint
 10
892.5308409902399
 20
1431.627262158703
 30
0.0
  0
ENDBLK
  5
163A
330
162E
100
AcDbEntity
  8
0
 62
     1
100
AcDbBlockEnd
  0
BLOCK
  5
16D3
330
16C9
100
AcDbEntity
  8
0
 62
     1
100
AcDbBlockBegin
  2
*D40
 70
     1
 10
0.0
 20
0.0
 30
0.0
  3
*D40
  1

  0
LINE
  5
1740
330
16C9
100
AcDbEntity
  8
実形
 62
     0
370
    15
100
AcDbLine
 10
2074.30693421529
 20
1621.701055701369
 30
0.0
 11
2074.30693421529
 21
1659.363410673775
 31
0.0
  0
LINE
  5
1741
330
16C9
100
AcDbEntity
  8
実形
 62
     0
370
    15
100
AcDbLine
 10
2094.30693421529
 20
1621.701055701369
 30
0.0
 11
2094.30693421529
 21
1659.363410673775
 31
0.0
  0
LINE
  5
1742
330
16C9
100
AcDbEntity
  8
実形
 62
     0
370
    15
100
AcDbLine
 10
2074.30693421529
 20
1659.363410673775
 30
0.0
 11
2094.30693421529
 21
1659.363410673775
 31
0.0
  0
MTEXT
  5
1743
330
16C9
100
AcDbEntity
  8
実形
 62
     0
100
AcDbMText
 10
2105.723851353604
 20
1679.101678131144
 30
0.0
 40
25.0
 41
0.0
 71
     5
 72
     1
  1
20
 73
     1
 44
1.0
1001
ACAD
1000
MTEXTBEGIN
1070
    73
1070
     1
1070
    44
1040
1.0
1070
    74
1070
     0
1000
MTEXTEND
  0
INSERT
  5
1744
330
16C9
100
AcDbEntity
  8
実形
 62
     0
370
    15
100
AcDbBlockReference
  2
_DotSmall
 10
2074.30693421529
 20
1659.363410673775
 30
0.0
 41
30.0
 42
30.0
 43
30.0
 50
180.0
  0
INSERT
  5
1745
330
16C9
100
AcDbEntity
  8
実形
 62
     0
370
    15
100
AcDbBlockReference
  2
_DotSmall
 10
2094.30693421529
 20
1659.363410673775
 30
0.0
 41
30.0
 42
30.0
 43
30.0
  0
POINT
  5
1746
330
16C9
100
AcDbEntity
  8
Defpoints
 62
     0
100
AcDbPoint
 10
2074.30693421529
 20
1556.701055701369
 30
0.0
  0
POINT
  5
1747
330
16C9
100
AcDbEntity
  8
Defpoints
 62
     0
100
AcDbPoint
 10
2094.30693421529
 20
1556.701055701369
 30
0.0
  0
POINT
  5
1748
330
16C9
100
AcDbEntity
  8
Defpoints
 62
     0
100
AcDbPoint
 10
2094.30693421529
 20
1659.363410673775
 30
0.0
  0
ENDBLK
  5
16D4
330
16C9
100
AcDbEntity
  8
0
 62
     1
100
AcDbBlockEnd
  0
BLOCK
  5
16EB
330
16DF
100
AcDbEntity
  8
0
 62
     1
100
AcDbBlockBegin
  2
*D41
 70
     1
 10
0.0
 20
0.0
 30
0.0
  3
*D41
  1

  0
LINE
  5
1749
330
16DF
100
AcDbEntity
  8
実形
 62
     0
370
    15
100
AcDbLine
 10
2159.30693421529
 20
1551.301055701369
 30
0.0
 11
2188.254479016414
 21
1551.301055701369
 31
0.0
  0
LINE
  5
174A
330
16DF
100
AcDbEntity
  8
実形
 62
     0
370
    15
100
AcDbLine
 10
2159.30693421529
 20
1518.101055701369
 30
0.0
 11
2188.254479016414
 21
1518.101055701369
 31
0.0
  0
LINE
  5
174B
330
16DF
100
AcDbEntity
  8
実形
 62
     0
370
    15
100
AcDbLine
 10
2188.254479016414
 20
1551.301055701369
 30
0.0
 11
2188.254479016414
 21
1518.101055701369
 31
0.0
  0
MTEXT
  5
174C
330
16DF
100
AcDbEntity
  8
実形
 62
     0
100
AcDbMText
 10
2214.956346109469
 20
1533.778115398679
 30
0.0
 40
25.0
 41
0.0
 71
     5
 72
     1
  1
33.2
 11
0.0000000000000001
 21
1.0
 31
0.0
 73
     1
 44
1.0
1001
ACAD
1000
MTEXTBEGIN
1070
    73
1070
     1
1070
    44
1040
1.0
1070
    74
1070
     0
1000
MTEXTEND
  0
INSERT
  5
174D
330
16DF
100
AcDbEntity
  8
実形
 62
     0
370
    15
100
AcDbBlockReference
  2
_DotSmall
 10
2188.254479016414
 20
1551.301055701369
 30
0.0
 41
30.0
 42
30.0
 43
30.0
 50
90.0
  0
INSERT
  5
174E
330
16DF
100
AcDbEntity
  8
実形
 62
     0
370
    15
100
AcDbBlockReference
  2
_DotSmall
 10
2188.254479016414
 20
1518.101055701369
 30
0.0
 41
30.0
 42
30.0
 43
30.0
 50
270.0
  0
POINT
  5
174F
330
16DF
100
AcDbEntity
  8
Defpoints
 62
     0
100
AcDbPoint
 10
2094.30693421529
 20
1551.301055701369
 30
0.0
  0
POINT
  5
1750
330
16DF
100
AcDbEntity
  8
Defpoints
 62
     0
100
AcDbPoint
 10
2094.30693421529
 20
1518.101055701369
 30
0.0
  0
POINT
  5
1751
330
16DF
100
AcDbEntity
  8
Defpoints
 62
     0
100
AcDbPoint
 10
2188.254479016414
 20
1518.101055701369
 30
0.0
  0
ENDBLK
  5
16EC
330
16DF
100
AcDbEntity
  8
0
 62
     1
100
AcDbBlockEnd
  0
BLOCK
  5
1813
330
1809
100
AcDbEntity
  8
0
 62
     1
100
AcDbBlockBegin
  2
*D42
 70
     1
 10
0.0
 20
0.0
 30
0.0
  3
*D42
  1

  0
LINE
  5
1839
330
1809
100
AcDbEntity
  8
実形
 62
     0
370
    15
100
AcDbLine
 10
749.5107194732057
 20
642.5263667117398
 30
0.0
 11
696.3900520167826
 21
642.5263667117398
 31
0.0
  0
LINE
  5
183A
330
1809
100
AcDbEntity
  8
実形
 62
     0
370
    15
100
AcDbLine
 10
749.5107194732058
 20
627.5263667117399
 30
0.0
 11
696.3900520167826
 21
627.5263667117399
 31
0.0
  0
LINE
  5
183B
330
1809
100
AcDbEntity
  8
実形
 62
     0
370
    15
100
AcDbLine
 10
696.3900520167826
 20
642.5263667117398
 30
0.0
 11
696.3900520167826
 21
627.5263667117399
 31
0.0
  0
MTEXT
  5
183C
330
1809
100
AcDbEntity
  8
実形
 62
     0
100
AcDbMText
 10
662.4925756056691
 20
675.8928637825411
 30
0.0
 40
25.0
 41
0.0
 71
     5
 72
     1
  1
15
 11
0.0000000000000001
 21
1.0
 31
0.0
 73
     1
 44
1.0
1001
ACAD
1000
MTEXTBEGIN
1070
    73
1070
     1
1070
    44
1040
1.0
1070
    74
1070
     0
1000
MTEXTEND
  0
INSERT
  5
183D
330
1809
100
AcDbEntity
  8
実形
 62
     0
370
    15
100
AcDbBlockReference
  2
_DotSmall
 10
696.3900520167826
 20
642.5263667117398
 30
0.0
 41
30.0
 42
30.0
 43
30.0
 50
90.0
  0
INSERT
  5
183E
330
1809
100
AcDbEntity
  8
実形
 62
     0
370
    15
100
AcDbBlockReference
  2
_DotSmall
 10
696.3900520167826
 20
627.5263667117399
 30
0.0
 41
30.0
 42
30.0
 43
30.0
 50
270.0
  0
POINT
  5
183F
330
1809
100
AcDbEntity
  8
Defpoints
 62
     0
100
AcDbPoint
 10
814.5107194732057
 20
642.5263667117397
 30
0.0
  0
POINT
  5
1840
330
1809
100
AcDbEntity
  8
Defpoints
 62
     0
100
AcDbPoint
 10
814.5107194732059
 20
627.5263667117398
 30
0.0
  0
POINT
  5
1841
330
1809
100
AcDbEntity
  8
Defpoints
 62
     0
100
AcDbPoint
 10
696.3900520167826
 20
627.5263667117399
 30
0.0
  0
ENDBLK
  5
1814
330
1809
100
AcDbEntity
  8
0
 62
     1
100
AcDbBlockEnd
  0
BLOCK
  5
181F
330
1815
100
AcDbEntity
  8
0
 62
     1
100
AcDbBlockBegin
  2
*D43
 70
     1
 10
0.0
 20
0.0
 30
0.0
  3
*D43
  1

  0
LINE
  5
1842
330
1815
100
AcDbEntity
  8
実形
 62
     0
370
    15
100
AcDbLine
 10
748.6928105560036
 20
472.5263667117397
 30
0.0
 11
696.3900520167826
 21
472.5263667117397
 31
0.0
  0
LINE
  5
1843
330
1815
100
AcDbEntity
  8
実形
 62
     0
370
    15
100
AcDbLine
 10
748.6928105560036
 20
452.5263667117398
 30
0.0
 11
696.3900520167826
 21
452.5263667117398
 31
0.0
  0
LINE
  5
1844
330
1815
100
AcDbEntity
  8
実形
 62
     0
370
    15
100
AcDbLine
 10
696.3900520167826
 20
472.5263667117397
 30
0.0
 11
696.3900520167826
 21
452.5263667117398
 31
0.0
  0
MTEXT
  5
1845
330
1815
100
AcDbEntity
  8
実形
 62
     0
100
AcDbMText
 10
662.9082688333873
 20
481.6497100006099
 30
0.0
 40
25.0
 41
0.0
 71
     5
 72
     1
  1
20
 11
0.0000000000000001
 21
1.0
 31
0.0
 73
     1
 44
1.0
1001
ACAD
1000
MTEXTBEGIN
1070
    73
1070
     1
1070
    44
1040
1.0
1070
    74
1070
     0
1000
MTEXTEND
  0
INSERT
  5
1846
330
1815
100
AcDbEntity
  8
実形
 62
     0
370
    15
100
AcDbBlockReference
  2
_DotSmall
 10
696.3900520167826
 20
472.5263667117397
 30
0.0
 41
30.0
 42
30.0
 43
30.0
 50
90.0
  0
INSERT
  5
1847
330
1815
100
AcDbEntity
  8
実形
 62
     0
370
    15
100
AcDbBlockReference
  2
_DotSmall
 10
696.3900520167826
 20
452.5263667117398
 30
0.0
 41
30.0
 42
30.0
 43
30.0
 50
270.0
  0
POINT
  5
1848
330
1815
100
AcDbEntity
  8
Defpoints
 62
     0
100
AcDbPoint
 10
813.6928105560036
 20
472.5263667117397
 30
0.0
  0
POINT
  5
1849
330
1815
100
AcDbEntity
  8
Defpoints
 62
     0
100
AcDbPoint
 10
813.6928105560036
 20
452.5263667117398
 30
0.0
  0
POINT
  5
184A
330
1815
100
AcDbEntity
  8
Defpoints
 62
     0
100
AcDbPoint
 10
696.3900520167826
 20
452.5263667117398
 30
0.0
  0
ENDBLK
  5
1820
330
1815
100
AcDbEntity
  8
0
 62
     1
100
AcDbBlockEnd
  0
BLOCK
  5
182B
330
1821
100
AcDbEntity
  8
0
 62
     1
100
AcDbBlockBegin
  2
*D44
 70
     1
 10
0.0
 20
0.0
 30
0.0
  3
*D44
  1

  0
LINE
  5
184B
330
1821
100
AcDbEntity
  8
実形
 62
     0
370
    15
100
AcDbLine
 10
749.0922363068785
 20
442.5263667117397
 30
0.0
 11
696.3900520167826
 21
442.5263667117397
 31
0.0
  0
LINE
  5
184C
330
1821
100
AcDbEntity
  8
実形
 62
     0
370
    15
100
AcDbLine
 10
720.3093081869155
 20
472.5263667117397
 30
0.0
 11
696.3900520167826
 21
472.5263667117397
 31
0.0
  0
LINE
  5
184D
330
1821
100
AcDbEntity
  8
実形
 62
     0
370
    15
100
AcDbLine
 10
696.3900520167826
 20
442.5263667117397
 30
0.0
 11
696.3900520167826
 21
472.5263667117397
 31
0.0
  0
MTEXT
  5
184E
330
1821
100
AcDbEntity
  8
実形
 62
     0
100
AcDbMText
 10
666.5866128187372
 20
440.3214551270821
 30
0.0
 40
25.0
 41
0.0
 71
     5
 72
     1
  1
7
 11
0.0000000000000001
 21
1.0
 31
0.0
 73
     1
 44
1.0
1001
ACAD
1000
MTEXTBEGIN
1070
    73
1070
     1
1070
    44
1040
1.0
1070
    74
1070
     0
1000
MTEXTEND
  0
INSERT
  5
184F
330
1821
100
AcDbEntity
  8
実形
 62
     0
370
    15
100
AcDbBlockReference
  2
_DotSmall
 10
696.3900520167826
 20
442.5263667117397
 30
0.0
 41
30.0
 42
30.0
 43
30.0
 50
270.0
  0
INSERT
  5
1850
330
1821
100
AcDbEntity
  8
実形
 62
     0
370
    15
100
AcDbBlockReference
  2
_DotSmall
 10
696.3900520167826
 20
472.5263667117397
 30
0.0
 41
30.0
 42
30.0
 43
30.0
 50
90.0
  0
POINT
  5
1851
330
1821
100
AcDbEntity
  8
Defpoints
 62
     0
100
AcDbPoint
 10
814.0922363068785
 20
442.5263667117397
 30
0.0
  0
POINT
  5
1852
330
1821
100
AcDbEntity
  8
Defpoints
 62
     0
100
AcDbPoint
 10
785.3093081869156
 20
472.5263667117397
 30
0.0
  0
POINT
  5
1853
330
1821
100
AcDbEntity
  8
Defpoints
 62
     0
100
AcDbPoint
 10
696.3900520167826
 20
472.5263667117397
 30
0.0
  0
ENDBLK
  5
182C
330
1821
100
AcDbEntity
  8
0
 62
     1
100
AcDbBlockEnd
  0
BLOCK
  5
1837
330
182D
100
AcDbEntity
  8
0
 62
     1
100
AcDbBlockBegin
  2
*D45
 70
     1
 10
0.0
 20
0.0
 30
0.0
  3
*D45
  1

  0
LINE
  5
1854
330
182D
100
AcDbEntity
  8
実形
 62
     0
370
    15
100
AcDbLine
 10
714.1345861443442
 20
642.5263667117398
 30
0.0
 11
609.849153578596
 21
642.5263667117398
 31
0.0
  0
LINE
  5
1855
330
182D
100
AcDbEntity
  8
実形
 62
     0
370
    15
100
AcDbLine
 10
714.1345861443442
 20
452.5263667117398
 30
0.0
 11
609.849153578596
 21
452.5263667117399
 31
0.0
  0
LINE
  5
1856
330
182D
100
AcDbEntity
  8
実形
 62
     0
370
    15
100
AcDbLine
 10
609.849153578596
 20
642.5263667117398
 30
0.0
 11
609.849153578596
 21
452.5263667117399
 31
0.0
  0
INSERT
  5
1857
330
182D
100
AcDbEntity
  8
実形
 62
     0
370
    15
100
AcDbBlockReference
  2
_DotSmall
 10
609.849153578596
 20
642.5263667117398
 30
0.0
 41
30.0
 42
30.0
 43
30.0
 50
90.0
  0
INSERT
  5
1858
330
182D
100
AcDbEntity
  8
実形
 62
     0
370
    15
100
AcDbBlockReference
  2
_DotSmall
 10
609.849153578596
 20
452.5263667117399
 30
0.0
 41
30.0
 42
30.0
 43
30.0
 50
270.0
  0
MTEXT
  5
1859
330
182D
100
AcDbEntity
  8
実形
 62
     0
100
AcDbMText
 10
591.0991535785959
 20
547.52636671174
 30
0.0
 40
25.0
 41
0.0
 71
     5
 72
     1
  1
190
 11
0.0000000000000001
 21
1.0
 31
0.0
 73
     1
 44
1.0
1001
ACAD
1000
MTEXTBEGIN
1070
    73
1070
     1
1070
    44
1040
1.0
1070
    74
1070
     0
1000
MTEXTEND
  0
POINT
  5
185A
330
182D
100
AcDbEntity
  8
Defpoints
 62
     0
100
AcDbPoint
 10
779.1345861443442
 20
642.5263667117397
 30
0.0
  0
POINT
  5
185B
330
182D
100
AcDbEntity
  8
Defpoints
 62
     0
100
AcDbPoint
 10
779.1345861443442
 20
452.5263667117398
 30
0.0
  0
POINT
  5
185C
330
182D
100
AcDbEntity
  8
Defpoints
 62
     0
100
AcDbPoint
 10
609.849153578596
 20
452.5263667117399
 30
0.0
  0
ENDBLK
  5
1838
330
182D
100
AcDbEntity
  8
0
 62
     1
100
AcDbBlockEnd
  0
ENDSEC
  0
SECTION
  2
ENTITIES
  0
LINE
  5
9C
330
1F
100
AcDbEntity
  8
補助
100
AcDbLine
 10
111.0
 20
4.0
 30
0.0
 11
2784.0
 21
4.0
 31
0.0
  0
LINE
  5
A0
330
1F
100
AcDbEntity
  8
補助
100
AcDbLine
 10
2784.0
 20
2024.0
 30
0.0
 11
111.0
 21
2024.0
 31
0.0
  0
LINE
  5
A5
330
1F
100
AcDbEntity
  8
補助
100
AcDbLine
 10
2784.0
 20
4.0
 30
0.0
 11
2784.0
 21
2024.0
 31
0.0
  0
LINE
  5
A8
330
1F
100
AcDbEntity
  8
補助
100
AcDbLine
 10
2184.0
 20
69.0
 30
0.0
 11
2184.0
 21
199.0
 31
0.0
  0
LINE
  5
A9
330
1F
100
AcDbEntity
  8
補助
100
AcDbLine
 10
2184.0
 20
69.0
 30
0.0
 11
2784.0
 21
69.0
 31
0.0
  0
LINE
  5
AA
330
1F
100
AcDbEntity
  8
補助
100
AcDbLine
 10
2064.0
 20
134.0
 30
0.0
 11
2784.0
 21
134.0
 31
0.0
  0
LINE
  5
AB
330
1F
100
AcDbEntity
  8
補助
100
AcDbLine
 10
2064.0
 20
199.0
 30
0.0
 11
2784.0
 21
199.0
 31
0.0
  0
LINE
  5
AD
330
1F
100
AcDbEntity
  8
補助
100
AcDbLine
 10
2784.0
 20
4.0
 30
0.0
 11
2784.0
 21
69.0
 31
0.0
  0
LINE
  5
25F
330
1F
100
AcDbEntity
  8
0
 62
     0
100
AcDbLine
 10
929.5107194732054
 20
1050.093561842788
 30
0.0
 11
1499.510719473205
 21
1050.093561842788
 31
0.0
  0
LINE
  5
260
330
1F
100
AcDbEntity
  8
0
 62
     0
100
AcDbLine
 10
1614.510719473205
 20
1180.093561842788
 30
0.0
 11
1614.510719473205
 21
1510.093561842788
 31
0.0
  0
LINE
  5
261
330
1F
100
AcDbEntity
  8
0
 62
     0
100
AcDbLine
 10
1554.510719473205
 20
1570.093561842788
 30
0.0
 11
874.5107194732055
 21
1570.093561842788
 31
0.0
  0
LINE
  5
262
330
1F
100
AcDbEntity
  8
0
 62
     0
100
AcDbLine
 10
814.5107194732053
 20
1510.093561842788
 30
0.0
 11
814.5107194732053
 21
1180.093561842788
 31
0.0
  0
LINE
  5
263
330
1F
100
AcDbEntity
  8
0
 62
     0
100
AcDbLine
 10
929.5107194732054
 20
1033.093561842788
 30
0.0
 11
1499.510719473205
 21
1033.093561842788
 31
0.0
  0
LINE
  5
264
330
1F
100
AcDbEntity
  8
0
 62
     0
100
AcDbLine
 10
1631.510719473205
 20
1165.093561842788
 30
0.0
 11
1631.510719473206
 21
1510.093561842788
 31
0.0
  0
LINE
  5
265
330
1F
100
AcDbEntity
  8
0
 62
     0
100
AcDbLine
 10
1554.510719473205
 20
1587.093561842788
 30
0.0
 11
874.5107194732055
 21
1587.093561842788
 31
0.0
  0
LINE
  5
266
330
1F
100
AcDbEntity
  8
0
 62
     0
100
AcDbLine
 10
797.5107194732054
 20
1510.093561842788
 30
0.0
 11
797.5107194732054
 21
1165.093561842788
 31
0.0
  0
LINE
  5
267
330
1F
100
AcDbEntity
  8
0
 62
     0
100
AcDbLine
 10
1499.510719473206
 20
1495.093561842788
 30
0.0
 11
1404.510719473205
 21
1495.093561842788
 31
0.0
  0
LINE
  5
26B
330
1F
100
AcDbEntity
  8
0
 62
     0
100
AcDbLine
 10
929.5107194732054
 20
1065.093561842788
 30
0.0
 11
1499.510719473205
 21
1065.093561842788
 31
0.0
  0
DIMENSION
  5
270
330
1F
100
AcDbEntity
  8
0
 62
     0
100
AcDbDimension
  2
*D4
 10
679.7602173563091
 20
1065.093561842788
 30
0.0
 11
661.010217356309
 21
1118.010228509455
 31
0.0
 70
    32
 71
     5
 42
15.0
  3
ISO-25
100
AcDbAlignedDimension
 13
797.5107194732054
 23
1050.093561842788
 33
0.0
 14
797.5107194732054
 24
1065.093561842788
 34
0.0
 50
90.0
100
AcDbRotatedDimension
  0
DIMENSION
  5
27E
330
1F
100
AcDbEntity
  8
0
 62
     0
100
AcDbDimension
  2
*D5
 10
679.7602173563092
 20
1495.093561842788
 30
0.0
 11
661.010217356309
 21
1280.093561842788
 31
0.0
 70
    32
 71
     5
 42
430.0
  3
ISO-25
100
AcDbAlignedDimension
 13
797.5107194732054
 23
1065.093561842788
 33
0.0
 14
797.5107194732055
 24
1495.093561842788
 34
0.0
 50
90.0
100
AcDbRotatedDimension
1001
ACAD
1000
DSTYLE
1002
{
1070
   279
1070
     1
1002
}
  0
DIMENSION
  5
28B
330
1F
100
AcDbEntity
  8
0
 62
     0
100
AcDbDimension
  2
*D6
 10
679.7602173563092
 20
1570.093561842788
 30
0.0
 11
661.010217356309
 21
1532.593561842788
 31
0.0
 70
    32
 71
     5
 42
75.0
  3
ISO-25
100
AcDbAlignedDimension
 13
797.5107194732055
 23
1495.093561842788
 33
0.0
 14
797.5107194732055
 24
1570.093561842788
 34
0.0
 50
90.0
100
AcDbRotatedDimension
1001
ACAD
1000
DSTYLE
1002
{
1070
   279
1070
     1
1002
}
  0
DIMENSION
  5
298
330
1F
100
AcDbEntity
  8
0
 62
     0
100
AcDbDimension
  2
*D7
 10
607.1317974531767
 20
1050.093561842788
 30
0.0
 11
607.1317974531766
 21
1103.010228509455
 31
0.0
 70
   160
 71
     5
 42
17.0
  3
ISO-25
100
AcDbAlignedDimension
 13
797.5107194732054
 23
1033.093561842788
 33
0.0
 14
797.5107194732054
 24
1050.093561842788
 34
0.0
 50
90.0
100
AcDbRotatedDimension
  0
DIMENSION
  5
2A6
330
1F
100
AcDbEntity
  8
0
 62
     0
100
AcDbDimension
  2
*D8
 10
607.1317974531767
 20
1570.093561842788
 30
0.0
 11
588.3817974531765
 21
1310.093561842788
 31
0.0
 70
    32
 71
     5
 42
520.0
  3
ISO-25
100
AcDbAlignedDimension
 13
797.5107194732054
 23
1050.093561842788
 33
0.0
 14
797.5107194732055
 24
1570.093561842788
 34
0.0
 50
90.0
100
AcDbRotatedDimension
1001
ACAD
1000
DSTYLE
1002
{
1070
   279
1070
     1
1002
}
  0
DIMENSION
  5
2B3
330
1F
100
AcDbEntity
  8
0
 62
     0
100
AcDbDimension
  2
*D9
 10
607.1317974531767
 20
1587.093561842788
 30
0.0
 11
589.4952507770713
 21
1555.523807371525
 31
0.0
 70
   160
 71
     5
 42
17.0
  3
ISO-25
100
AcDbAlignedDimension
 13
797.5107194732055
 23
1570.093561842788
 33
0.0
 14
797.5107194732054
 24
1587.093561842788
 34
0.0
 50
90.0
100
AcDbRotatedDimension
1001
ACAD
1000
DSTYLE
1002
{
1070
   279
1070
     1
1002
}
  0
DIMENSION
  5
2DC
330
1F
100
AcDbEntity
  8
0
 62
     0
100
AcDbDimension
  2
*D10
 10
537.6611450838627
 20
1587.093561842788
 30
0.0
 11
518.9111450838624
 21
1310.093561842788
 31
0.0
 70
    32
 71
     5
 42
554.0
  3
ISO-25
100
AcDbAlignedDimension
 13
797.5107194732054
 23
1033.093561842788
 33
0.0
 14
797.5107194732054
 24
1587.093561842788
 34
0.0
 50
90.0
100
AcDbRotatedDimension
  0
DIMENSION
  5
2E9
330
1F
100
AcDbEntity
  8
0
 62
     0
100
AcDbDimension
  2
*D11
 10
814.5107194732053
 20
916.1857900480718
 30
0.0
 11
867.427386139872
 21
934.9357900480718
 31
0.0
 70
    32
 71
     5
 42
17.0
  3
ISO-25
100
AcDbAlignedDimension
 13
797.5107194732054
 23
1033.093561842788
 33
0.0
 14
814.5107194732053
 24
1033.093561842788
 34
0.0
100
AcDbRotatedDimension
  0
DIMENSION
  5
2F7
330
1F
100
AcDbEntity
  8
0
 62
     0
100
AcDbDimension
  2
*D12
 10
1614.510719473205
 20
916.1857900480718
 30
0.0
 11
1214.510719473205
 21
934.9357900480718
 31
0.0
 70
    32
 71
     5
 42
800.0
  3
ISO-25
100
AcDbAlignedDimension
 13
814.5107194732053
 23
1033.093561842788
 33
0.0
 14
1614.510719473205
 24
1033.093561842788
 34
0.0
100
AcDbRotatedDimension
1001
ACAD
1000
DSTYLE
1002
{
1070
   279
1070
     1
1002
}
  0
DIMENSION
  5
304
330
1F
100
AcDbEntity
  8
0
 62
     0
100
AcDbDimension
  2
*D13
 10
1631.510719473205
 20
916.1857900480718
 30
0.0
 11
1571.052503888749
 21
916.1857900480718
 31
0.0
 70
   160
 71
     5
 42
17.0
  3
ISO-25
100
AcDbAlignedDimension
 13
1614.510719473205
 23
1033.093561842788
 33
0.0
 14
1631.510719473205
 24
1033.093561842788
 34
0.0
100
AcDbRotatedDimension
1001
ACAD
1000
DSTYLE
1002
{
1070
   279
1070
     1
1002
}
  0
DIMENSION
  5
31C
330
1F
100
AcDbEntity
  8
0
100
AcDbDimension
  2
*D14
 10
1631.510719473205
 20
845.8270180928648
 30
0.0
 11
1214.510719473205
 21
864.5770180928648
 31
0.0
 70
    32
 71
     5
 42
834.0
  3
ISO-25
100
AcDbAlignedDimension
 13
797.5107194732054
 23
1033.093561842788
 33
0.0
 14
1631.510719473205
 24
1033.093561842788
 34
0.0
100
AcDbRotatedDimension
  0
ARC
  5
32A
330
1F
100
AcDbEntity
  8
0
 62
     0
100
AcDbCircle
 10
929.5107194732054
 20
1180.093561842788
 30
0.0
 40
115.0
100
AcDbArc
 50
180.0
 51
270.0
  0
ARC
  5
32B
330
1F
100
AcDbEntity
  8
0
 62
     0
100
AcDbCircle
 10
1499.510719473205
 20
1180.093561842788
 30
0.0
 40
115.0
100
AcDbArc
 50
270.0
 51
0.0
  0
LINE
  5
32C
330
1F
100
AcDbEntity
  8
0
 62
     0
100
AcDbLine
 10
814.5107194732053
 20
1380.093561842788
 30
0.0
 11
814.5107194732053
 21
1165.093561842788
 31
0.0
  0
LINE
  5
32D
330
1F
100
AcDbEntity
  8
0
 62
     0
100
AcDbLine
 10
1614.510719473205
 20
1165.093561842788
 30
0.0
 11
1614.510719473205
 21
1380.093561842788
 31
0.0
  0
ARC
  5
32E
330
1F
100
AcDbEntity
  8
0
 62
     0
100
AcDbCircle
 10
929.5107194732054
 20
1165.093561842788
 30
0.0
 40
115.0
100
AcDbArc
 50
180.0
 51
270.0
  0
ARC
  5
32F
330
1F
100
AcDbEntity
  8
0
 62
     0
100
AcDbCircle
 10
1499.510719473205
 20
1165.093561842788
 30
0.0
 40
115.0
100
AcDbArc
 50
270.0
 51
0.0
  0
ARC
  5
330
330
1F
100
AcDbEntity
  8
0
 62
     0
100
AcDbCircle
 10
929.5107194732054
 20
1165.093561842788
 30
0.0
 40
132.0
100
AcDbArc
 50
180.0
 51
270.0
  0
ARC
  5
331
330
1F
100
AcDbEntity
  8
0
 62
     0
100
AcDbCircle
 10
1499.510719473205
 20
1165.093561842788
 30
0.0
 40
132.0
100
AcDbArc
 50
270.0
 51
0.0
  0
CIRCLE
  5
334
330
1F
100
AcDbEntity
  8
0
 62
     0
100
AcDbCircle
 10
1214.510719473205
 20
1400.093561842788
 30
0.0
 40
79.5
  0
CIRCLE
  5
335
330
1F
100
AcDbEntity
  8
0
 62
     0
100
AcDbCircle
 10
1214.510719473205
 20
1400.093561842788
 30
0.0
 40
90.5
  0
ARC
  5
339
330
1F
100
AcDbEntity
  8
0
 62
     0
100
AcDbCircle
 10
1499.510719473206
 20
1380.093561842788
 30
0.0
 40
115.0
100
AcDbArc
 50
0.0
 51
90.0
  0
ARC
  5
33A
330
1F
100
AcDbEntity
  8
0
 62
     0
100
AcDbCircle
 10
929.5107194732054
 20
1380.093561842788
 30
0.0
 40
115.0
100
AcDbArc
 50
90.00000000000003
 51
180.0
  0
ARC
  5
33C
330
1F
100
AcDbEntity
  8
0
 62
     0
100
AcDbCircle
 10
1404.510719473205
 20
1595.093561842788
 30
0.0
 40
100.0
100
AcDbArc
 50
212.8664647390864
 51
270.0
  0
ARC
  5
33E
330
1F
100
AcDbEntity
  8
0
 62
     0
100
AcDbCircle
 10
1024.510719473205
 20
1595.093561842788
 30
0.0
 40
100.0
100
AcDbArc
 50
270.0
 51
327.1335352609136
  0
ARC
  5
33F
330
1F
100
AcDbEntity
  8
0
 62
     0
100
AcDbCircle
 10
1162.260492612764
 20
1506.093561842788
 30
0.0
 40
64.0
100
AcDbArc
 50
90.0
 51
147.1335352609138
  0
ARC
  5
340
330
1F
100
AcDbEntity
  8
0
 62
     0
100
AcDbCircle
 10
1266.760946333646
 20
1506.093561842788
 30
0.0
 40
64.0
100
AcDbArc
 50
32.8664647390862
 51
90.0
  0
LINE
  5
341
330
1F
100
AcDbEntity
  8
0
 62
     0
100
AcDbLine
 10
1024.510719473205
 20
1495.093561842788
 30
0.0
 11
929.5107194732054
 21
1495.093561842788
 31
0.0
  0
ARC
  5
370
330
1F
100
AcDbEntity
  8
0
 62
     0
100
AcDbCircle
 10
874.5107194732055
 20
1510.093561842788
 30
0.0
 40
60.0
100
AcDbArc
 50
90.0
 51
180.0
  0
ARC
  5
371
330
1F
100
AcDbEntity
  8
0
 62
     0
100
AcDbCircle
 10
1554.510719473205
 20
1510.093561842788
 30
0.0
 40
60.0
100
AcDbArc
 50
0.0
 51
89.99999999999998
  0
ARC
  5
372
330
1F
100
AcDbEntity
  8
0
 62
     0
100
AcDbCircle
 10
874.5107194732055
 20
1510.093561842788
 30
0.0
 40
77.0
100
AcDbArc
 50
90.0
 51
180.0
  0
ARC
  5
373
330
1F
100
AcDbEntity
  8
0
 62
     0
100
AcDbCircle
 10
1554.510719473205
 20
1510.093561842788
 30
0.0
 40
77.0
100
AcDbArc
 50
0.0
 51
89.99999999999998
  0
DIMENSION
  5
376
330
1F
100
AcDbEntity
  8
0
 62
     0
100
AcDbDimension
  2
*D15
 10
814.5107194732053
 20
1202.556483900574
 30
0.0
 11
1014.510719473205
 21
1221.306483900574
 31
0.0
 70
    32
 71
     5
 42
400.0
  3
ISO-25
100
AcDbAlignedDimension
 13
1214.510719473205
 23
1309.593561842788
 33
0.0
 14
814.5107194732053
 24
1380.093561842788
 34
0.0
100
AcDbRotatedDimension
  0
DIMENSION
  5
384
330
1F
100
AcDbEntity
  8
0
 62
     0
100
AcDbDimension
  2
*D16
 10
1458.421072719255
 20
1570.093561842788
 30
0.0
 11
1458.421072719254
 21
1455.076764407947
 31
0.0
 70
   160
 71
     5
 42
170.0000000000002
  3
ISO-25
100
AcDbAlignedDimension
 13
1305.010719473205
 23
1400.093561842788
 33
0.0
 14
874.5107194732055
 24
1570.093561842788
 34
0.0
 50
90.0
100
AcDbRotatedDimension
  0
LINE
  5
39A
330
1F
100
AcDbEntity
  8
Cen
 62
     0
100
AcDbLine
 10
1370.010719473205
 20
1400.093561842788
 30
0.0
 11
1080.403157794127
 21
1400.093561842788
 31
0.0
  0
LINE
  5
39B
330
1F
100
AcDbEntity
  8
Cen
 62
     0
100
AcDbLine
 10
1214.510719473205
 20
1244.593561842788
 30
0.0
 11
1214.510719473205
 21
1513.570962753281
 31
0.0
  0
DIMENSION
  5
3B2
330
1F
100
AcDbEntity
  8
0
 62
     0
100
AcDbDimension
  2
*D17
 10
1279.510719473205
 20
1735.737145145187
 30
0.0
 11
1214.510719473205
 21
1754.487145145187
 31
0.0
 70
    32
 71
     5
 42
130.0
  3
ISO-25
100
AcDbAlignedDimension
 13
1149.510719473205
 23
1652.093561842789
 33
0.0
 14
1279.510719473205
 24
1652.093561842789
 34
0.0
100
AcDbRotatedDimension
  0
DIMENSION
  5
3BF
330
1F
100
AcDbEntity
  8
0
 62
     0
100
AcDbDimension
  2
*D18
 10
1344.510719473205
 20
1799.395076462493
 30
0.0
 11
1214.510719473205
 21
1818.145076462493
 31
0.0
 70
    32
 71
     5
 42
260.0
  3
ISO-25
100
AcDbAlignedDimension
 13
1084.510719473205
 23
1652.093561842789
 33
0.0
 14
1344.510719473205
 24
1652.093561842789
 34
0.0
100
AcDbRotatedDimension
  0
LINE
  5
3DD
330
1F
100
AcDbEntity
  8
Cen
 62
     0
100
AcDbLine
 10
1344.510719473205
 20
1717.093561842788
 30
0.0
 11
1344.510719473205
 21
1523.093561842788
 31
0.0
  0
LINE
  5
3DE
330
1F
100
AcDbEntity
  8
Cen
 62
     0
100
AcDbLine
 10
1084.510719473205
 20
1717.093561842788
 30
0.0
 11
1084.510719473205
 21
1523.093561842788
 31
0.0
  0
CIRCLE
  5
3DF
330
1F
100
AcDbEntity
  8
Cen
 62
     0
100
AcDbCircle
 10
1344.510719473205
 20
1555.093561842788
 30
0.0
 40
6.0
  0
CIRCLE
  5
3E0
330
1F
100
AcDbEntity
  8
Cen
 62
     0
100
AcDbCircle
 10
1084.510719473205
 20
1555.093561842789
 30
0.0
 40
6.0
  0
LINE
  5
3E3
330
1F
100
AcDbEntity
  8
Cen
 62
     0
100
AcDbLine
 10
1149.510719473205
 20
1717.093561842788
 30
0.0
 11
1149.510719473205
 21
1555.093561842788
 31
0.0
  0
LINE
  5
3E4
330
1F
100
AcDbEntity
  8
Cen
 62
     0
100
AcDbLine
 10
1279.510719473205
 20
1717.093561842788
 30
0.0
 11
1279.510719473205
 21
1555.093561842788
 31
0.0
  0
LINE
  5
407
330
1F
100
AcDbEntity
  8
0
100
AcDbLine
 10
797.5107194732054
 20
642.5263667117397
 30
0.0
 11
1631.510719473205
 21
642.5263667117397
 31
0.0
  0
LINE
  5
40A
330
1F
100
AcDbEntity
  8
0
100
AcDbLine
 10
814.5107194732057
 20
642.5263667117397
 30
0.0
 11
814.5107194732057
 21
502.5334606621454
 31
0.0
  0
LINE
  5
40D
330
1F
100
AcDbEntity
  8
0
100
AcDbLine
 10
814.5107194732059
 20
627.5263667117398
 30
0.0
 11
1614.510719473205
 21
627.5263667117396
 31
0.0
  0
LINE
  5
41E
330
1F
100
AcDbEntity
  8
0
100
AcDbLine
 10
1124.010719473205
 20
452.5263667117398
 30
0.0
 11
1305.010719473205
 21
452.5263667117396
 31
0.0
  0
DIMENSION
  5
473
330
1F
100
AcDbEntity
  8
0
100
AcDbDimension
  2
*D19
 10
1135.010719473205
 20
323.1318920137246
 30
0.0
 11
1214.510719473205
 21
341.8818920137246
 31
0.0
 70
    32
  1
158
 71
     5
 42
159.0000000000002
  3
ISO-25
100
AcDbAlignedDimension
 13
1294.010719473205
 23
444.5263667117397
 33
0.0
 14
1135.010719473205
 24
444.5263667117398
 34
0.0
100
AcDbRotatedDimension
  0
DIMENSION
  5
480
330
1F
100
AcDbEntity
  8
0
100
AcDbDimension
  2
*D20
 10
1124.010719473205
 20
554.6793912497114
 30
0.0
 11
1214.510719473205
 21
573.4293912497114
 31
0.0
 70
    32
 71
     5
 42
181.0
  3
ISO-25
100
AcDbAlignedDimension
 13
1305.010719473205
 23
452.5263667117396
 33
0.0
 14
1124.010719473205
 24
452.5263667117398
 34
0.0
100
AcDbRotatedDimension
  0
LINE
  5
48E
330
1F
100
AcDbEntity
  8
Cen
100
AcDbLine
 10
1214.510719473205
 20
535.8319586669749
 30
0.0
 11
1214.510719473205
 21
420.2718247666153
 31
0.0
  0
CIRCLE
  5
4AF
330
1F
100
AcDbEntity
  8
Cen
  6
HIDDEN2
 48
1.5
100
AcDbCircle
 10
1612.54105931778
 20
635.1483773395966
 30
0.0
 40
64.39211969241114
  0
ARC
  5
4B0
330
1F
100
AcDbEntity
  8
Cen
  6
Continuous
100
AcDbCircle
 10
1845.962478616853
 20
458.2099143352634
 30
0.0
 40
302.1247328958318
100
AcDbArc
 50
90.0
 51
130.5390852135428
  0
LINE
  5
4B4
330
1F
100
AcDbEntity
  8
Cen
100
AcDbLine
 10
1825.854767796907
 20
768.6801884038577
 30
0.0
 11
1845.962478616853
 21
760.3346472310952
 31
0.0
  0
LINE
  5
4B5
330
1F
100
AcDbEntity
  8
Cen
100
AcDbLine
 10
1845.962478616853
 20
760.3346472310952
 30
0.0
 11
1826.939826613696
 21
749.8873271991032
 31
0.0
  0
LEADER
  5
50F
330
1F
100
AcDbEntity
  8
0
 62
     0
100
AcDbLeader
  3
ISO-25
 40
25.0
 41
41.66666666666666
 76
     2
 10
1351.290166673487
 20
1562.774558248428
 30
0.0
 10
1442.243519416261
 20
1712.162159015922
 30
0.0
211
-0.9992793622178746
221
-0.0379572950226656
231
0.0
213
-0.4744661877833193
223
12.49099202772343
233
0.0
1001
ACAD
1000
DSTYLE
1002
{
1070
   147
1040
6.25
1070
    77
1070
     0
1070
    73
1070
     1
1070
    74
1070
     1
1070
   342
1005
DA
1002
}
  0
LEADER
  5
52C
330
1F
100
AcDbEntity
  8
0
 62
     0
100
AcDbLeader
  3
ISO-25
 40
33.33333333333333
 41
66.66666666666668
 76
     2
 10
1571.220466966208
 20
1055.35295273199
 30
0.0
 10
1487.642558047777
 20
1093.104907441788
 30
0.0
213
0.0
223
12.5
233
0.0
1001
ACAD
1000
DSTYLE
1002
{
1070
   147
1040
6.25
1070
    77
1070
     0
1070
    73
1070
     1
1070
    74
1070
     1
1070
   279
1070
     1
1070
   342
1005
DA
1002
}
  0
TEXT
  5
52E
330
1F
100
AcDbEntity
  8
0
 62
     0
100
AcDbText
 10
1397.43979989331
 20
1080.422260133395
 30
0.0
 40
25.0
  1
132R
 72
     2
 11
1480.773133226643
 21
1077.088926800062
 31
0.0
100
AcDbText
 73
     1
  0
MTEXT
  5
532
330
1F
100
AcDbEntity
  8
0
100
AcDbMText
 10
1469.226616777811
 20
1181.110374981098
 30
0.0
 40
25.0
 41
0.0
 71
     9
 72
     1
  1

 73
     1
 44
1.0
1001
ACAD
1000
MTEXTBEGIN
1070
    73
1070
     1
1070
    44
1040
1.0
1070
    74
1070
     0
1000
MTEXTEND
  0
LEADER
  5
533
330
1F
100
AcDbEntity
  8
0
 62
     0
100
AcDbLeader
  3
ISO-25
 40
25.0
 41
16.66666666666666
 76
     2
 10
1580.379697282782
 20
1085.096919501044
 30
0.0
 10
1489.932363543219
 20
1141.152854127202
 30
0.0
213
-97.31675022588753
223
44.53196128345098
233
0.0
1001
ACAD
1000
DSTYLE
1002
{
1070
   147
1040
6.25
1070
    77
1070
     0
1070
    73
1070
     1
1070
    74
1070
     1
1070
   279
1070
     1
1070
   342
1005
DA
1002
}
  0
TEXT
  5
537
330
1F
100
AcDbEntity
  8
0
 62
     0
100
AcDbText
 10
1404.628230478922
 20
1136.478199519792
 30
0.0
 40
25.0
  1
115R
 72
     2
 11
1479.628230478922
 21
1133.144866186459
 31
0.0
100
AcDbText
 73
     1
  0
LEADER
  5
53A
330
1F
100
AcDbEntity
  8
0
 62
     0
100
AcDbLeader
  3
ISO-25
 40
25.0
 41
16.66666666666666
 76
     2
 10
1596.408335750875
 20
1121.704874573524
 30
0.0
 10
1533.43867629142
 20
1181.192808111634
 30
0.0
213
0.0
223
12.5
233
0.0
1001
ACAD
1000
DSTYLE
1002
{
1070
   147
1040
6.25
1070
    77
1070
     0
1070
    73
1070
     1
1070
    74
1070
     1
1070
   279
1070
     1
1070
   342
1005
DA
1002
}
  0
TEXT
  5
53C
330
1F
100
AcDbEntity
  8
0
 62
     0
100
AcDbText
 10
1451.569251470284
 20
1179.950147655937
 30
0.0
 40
25.0
  1
115R
 72
     2
 11
1526.569251470284
 21
1176.616814322604
 31
0.0
100
AcDbText
 73
     1
  0
LEADER
  5
53D
330
1F
100
AcDbEntity
  8
0
 62
     0
100
AcDbLeader
  3
ISO-25
 40
25.0
 41
16.66666666666666
 76
     2
 10
1035.40588934996
 20
1066.792939584684
 30
0.0
 10
1092.65103507081
 20
1114.840886270099
 30
0.0
213
0.0
223
-12.5
233
0.0
1001
ACAD
1000
DSTYLE
1002
{
1070
   147
1040
6.25
1070
    77
1070
     0
1070
    73
1070
     1
1070
    74
1070
     1
1070
   279
1070
     1
1070
   342
1005
DA
1002
}
  0
TEXT
  5
53F
330
1F
100
AcDbEntity
  8
0
 62
     0
100
AcDbText
 10
1102.955168135107
 20
1107.878227627815
 30
0.0
 40
25.0
  1
10000R
 11
1102.955168135107
 21
1104.544894294482
 31
0.0
100
AcDbText
 73
     1
  0
LEADER
  5
540
330
1F
100
AcDbEntity
  8
0
 62
     0
100
AcDbLeader
  3
ISO-25
 76
     2
 10
1613.581876966687
 20
1303.600664579328
 30
0.0
 10
1517.410029488519
 20
1303.600664579328
 30
0.0
1001
ACAD
1000
DSTYLE
1002
{
1070
   147
1040
6.25
1070
    77
1070
     0
1070
    73
1070
     1
1070
    74
1070
     1
1070
   279
1070
     1
1070
   342
1005
DA
1002
}
  0
TEXT
  5
54B
330
1F
100
AcDbEntity
  8
0
 62
     0
100
AcDbText
 10
1402.939238092365
 20
1291.100664579327
 30
0.0
 40
25.0
  1
5000R
 72
     2
 11
1507.105904759031
 21
1303.600664579328
 31
0.0
100
AcDbText
 73
     2
  0
TEXT
  5
54E
330
1F
100
AcDbEntity
  8
0
 62
     0
100
AcDbText
 10
1520.354307933505
 20
1372.177862825466
 30
0.0
 40
25.0
  1
60R
 72
     2
 11
1582.854307933505
 21
1368.844529492133
 31
0.0
100
AcDbText
 73
     1
  0
LEADER
  5
558
330
1F
100
AcDbEntity
  8
0
 62
     0
100
AcDbLeader
  3
ISO-25
 40
25.0
 41
16.66666666666666
 76
     2
 10
1132.722639575848
 20
1561.000368764965
 30
0.0
 10
1186.533077053536
 20
1532.400401633227
 30
0.0
213
0.0
223
-12.5
233
0.0
1001
ACAD
1000
DSTYLE
1002
{
1070
   147
1040
6.25
1070
    77
1070
     0
1070
    73
1070
     1
1070
    74
1070
     1
1070
   279
1070
     1
1070
   342
1005
DA
1002
}
  0
TEXT
  5
55A
330
1F
100
AcDbEntity
  8
0
 62
     0
100
AcDbText
 10
1194.547396287582
 20
1519.816415143215
 30
0.0
 40
25.0
  1
64R
 11
1194.547396287582
 21
1516.483081809882
 31
0.0
100
AcDbText
 73
     1
  0
MTEXT
  5
55C
330
1F
100
AcDbEntity
  8
0
100
AcDbMText
 10
1010.02660136874
 20
1423.470120422065
 30
0.0
 40
25.0
 41
0.0
 71
     1
 72
     1
  1

 73
     1
 44
1.0
1001
ACAD
1000
MTEXTBEGIN
1070
    73
1070
     1
1070
    44
1040
1.0
1070
    74
1070
     0
1000
MTEXTEND
  0
LEADER
  5
55D
330
1F
100
AcDbEntity
  8
0
 62
     0
100
AcDbLeader
  3
ISO-25
 40
25.0
 41
16.66666666666666
 76
     2
 10
975.8709381336684
 20
1490.072453134399
 30
0.0
 10
999.9053774974926
 20
1434.05600491825
 30
0.0
213
0.0
223
-12.5
233
0.0
1001
ACAD
1000
DSTYLE
1002
{
1070
   147
1040
6.25
1070
    77
1070
     0
1070
    73
1070
     1
1070
    74
1070
     1
1070
   279
1070
     1
1070
   342
1005
DA
1002
}
  0
TEXT
  5
55F
330
1F
100
AcDbEntity
  8
0
 62
     0
100
AcDbText
 10
961.7152486450176
 20
1400.938137307472
 30
0.0
 40
23.0
  1
10000R
 11
961.7152486450176
 21
1423.938137307472
 31
0.0
100
AcDbText
 73
     3
  0
LEADER
  5
560
330
1F
100
AcDbEntity
  8
0
 62
     0
100
AcDbLeader
  3
ISO-25
 40
25.0
 41
16.66666666666666
 76
     2
 10
853.3663191231116
 20
1463.760480517058
 30
0.0
 10
873.9745769168967
 20
1372.240585695497
 30
0.0
213
0.0
223
-12.5
233
0.0
1001
ACAD
1000
DSTYLE
1002
{
1070
   147
1040
6.25
1070
    77
1070
     0
1070
    73
1070
     1
1070
    74
1070
     1
1070
   279
1070
     1
1070
   342
1005
DA
1002
}
  0
TEXT
  5
562
330
1F
100
AcDbEntity
  8
0
 62
     0
100
AcDbText
 10
872.8296741691757
 20
1334.656603965724
 30
0.0
 40
25.0
  1
115R
 11
872.8296741691757
 21
1359.656603965724
 31
0.0
100
AcDbText
 73
     3
  0
TEXT
  5
565
330
1F
100
AcDbEntity
  8
0
 62
     0
100
AcDbText
 10
1484.976620014735
 20
1504.629562765066
 30
0.0
 40
25.0
  1
77R
 11
1484.976620014735
 21
1529.629562765066
 31
0.0
100
AcDbText
 73
     3
  0
TEXT
  5
568
330
1F
100
AcDbEntity
  8
0
 62
     0
100
AcDbText
 10
1031.358647098898
 20
1440.273441734749
 30
0.0
 40
25.0
  1
100R
 11
1031.358647098898
 21
1436.940108401416
 31
0.0
100
AcDbText
 73
     1
  0
LINE
  5
56A
330
1F
100
AcDbEntity
  8
補助
100
AcDbLine
 10
2784.0
 20
134.0
 30
0.0
 11
2784.0
 21
199.0
 31
0.0
  0
TEXT
  5
56C
330
1F
100
AcDbEntity
  8
0
100
AcDbText
 10
2266.4
 20
149.4
 30
0.0
 40
35.0
  1
ENB800-520GRM-POL
  7
ms明朝
 72
     4
 11
2484.0
 21
166.5
 31
0.0
100
AcDbText
  0
DIMENSION
  5
586
330
1F
100
AcDbEntity
  8
0
 62
     0
100
AcDbDimension
  2
*D21
 10
1436.319961785355
 20
1570.093561842788
 30
0.0
 11
1426.374463895841
 21
1522.587485159131
 31
0.0
 70
   160
 71
     5
 42
15.00000000000023
  3
ISO-25
100
AcDbAlignedDimension
 13
1371.640882292465
 23
1555.093561842788
 33
0.0
 14
1279.510719473205
 24
1570.093561842788
 34
0.0
 50
90.0
100
AcDbRotatedDimension
1001
ACAD
1000
DSTYLE
1002
{
1070
   279
1070
     2
1002
}
  0
LINE
  5
59F
330
1F
100
AcDbEntity
  8
Cen
 62
     0
100
AcDbLine
 10
1065.502569089306
 20
1555.093561842789
 30
0.0
 11
1100.023290603539
 21
1555.093561842789
 31
0.0
  0
LINE
  5
5A0
330
1F
100
AcDbEntity
  8
Cen
 62
     0
100
AcDbLine
 10
1328.72305709126
 20
1555.093561842788
 30
0.0
 11
1361.625617049653
 21
1555.093561842788
 31
0.0
  0
LINE
  5
5A1
330
1F
100
AcDbEntity
  8
Cen
 62
     0
100
AcDbLine
 10
1328.183669905979
 20
1555.093561842788
 30
0.0
 11
1436.640882292465
 21
1555.093561842788
 31
0.0
  0
MTEXT
  5
5A9
330
1F
100
AcDbEntity
  8
Cen
100
AcDbMText
 10
1527.939315450184
 20
552.4831097022406
 30
0.0
 40
25.0
 41
0.0
 71
     9
 72
     1
  1

 73
     1
 44
1.0
1001
ACAD
1000
MTEXTBEGIN
1070
    73
1070
     1
1070
    44
1040
1.0
1070
    74
1070
     0
1000
MTEXTEND
  0
LEADER
  5
5AA
330
1F
100
AcDbEntity
  8
Cen
100
AcDbLeader
  3
ISO-25
 40
25.0
 41
16.66666666666666
 76
     2
 10
1595.09104334666
 20
485.4659101582133
 30
0.0
 10
1545.976078622126
 20
521.337991454221
 30
0.0
213
0.0
223
12.5
233
0.0
1001
ACAD
1000
DSTYLE
1002
{
1070
   147
1040
6.25
1070
    77
1070
     0
1070
   279
1070
     1
1002
}
  0
TEXT
  5
5AD
330
1F
100
AcDbEntity
  8
0
100
AcDbText
 10
1474.783935665672
 20
517.3859962349443
 30
0.0
 40
25.0
  1
30R
100
AcDbText
  0
LINE
  5
5D0
330
1F
100
AcDbEntity
  8
補助
100
AcDbLine
 10
2784.0
 20
69.0
 30
0.0
 11
2784.0
 21
134.0
 31
0.0
  0
TEXT
  5
5D2
330
1F
100
AcDbEntity
  8
0
100
AcDbText
 10
2420.0
 20
84.40000000000001
 30
0.0
 40
35.0
  1
1：10
  7
ms明朝
 72
     4
 11
2484.0
 21
101.5
 31
0.0
100
AcDbText
  0
TEXT
  5
5D8
330
1F
100
AcDbEntity
  8
0
100
AcDbText
 10
231.1659029702105
 20
53.51169987015055
 30
0.0
 40
25.0
  1
※実寸には製造上の誤差が多少生ずる場合があります。シンクの穴あけ加工は現物合わせにてお願いします。
  7
ms明朝
100
AcDbText
  0
TEXT
  5
5F4
330
1F
100
AcDbEntity
  8
補助
100
AcDbText
 10
2283.455774665347
 20
18.5
 30
0.0
 40
35.0
  1
中外交易株式会社
  7
ms明朝
 72
     4
 11
2488.255774665347
 21
36.5
 31
0.0
100
AcDbText
  0
LINE
  5
5F5
330
1F
100
AcDbEntity
  8
補助
100
AcDbLine
 10
2064.0
 20
69.0
 30
0.0
 11
2784.0
 21
69.0
 31
0.0
  0
HATCH
  5
5F6
330
1F
100
AcDbEntity
  8
補助
100
AcDbHatch
 10
0.0
 20
0.0
 30
0.0
210
0.0
220
0.0
230
1.0
  2
SOLID
 70
     1
 71
     1
 91
        3
 92
        1
 93
        4
 72
     2
 10
2257.166198313996
 20
36.5
 40
20.0
 50
11.6477236670766
 51
342.6561058784691
 73
     1
 72
     1
 10
2276.256852341323
 20
30.53787547858514
 11
2252.166198313995
 21
30.53787547858519
 72
     1
 10
2252.166198313995
 20
30.53787547858519
 11
2252.166198313995
 21
40.53787547858519
 72
     1
 10
2252.166198313995
 20
40.53787547858519
 11
2276.75434681301
 21
40.53787547858519
 97
        4
330
5F7
330
5F9
330
5FA
330
5FB
 92
        1
 93
        4
 72
     2
 10
2188.255774665348
 20
36.5
 40
20.0
 50
11.6477236670766
 51
342.6561058784691
 73
     1
 72
     1
 10
2207.346428692676
 20
30.53787547858514
 11
2183.255774665347
 21
30.53787547858519
 72
     1
 10
2183.255774665347
 20
30.53787547858519
 11
2183.255774665347
 21
40.53787547858519
 72
     1
 10
2183.255774665347
 20
40.53787547858519
 11
2207.843923164362
 21
40.53787547858519
 97
        4
330
5F8
330
601
330
602
330
603
 92
        1
 93
        5
 72
     1
 10
2245.64189404294
 20
56.5
 11
2210.641894042939
 21
56.5
 72
     1
 10
2210.641894042939
 20
56.5
 11
2210.641894042939
 21
16.5
 72
     1
 10
2210.641894042939
 20
16.5
 11
2245.64189404294
 21
16.5
 72
     1
 10
2245.64189404294
 20
16.5
 11
2210.641894042939
 21
36.5
 72
     1
 10
2210.641894042939
 20
36.5
 11
2245.64189404294
 21
56.5
 97
        5
330
5FC
330
600
330
5FF
330
5FE
330
5FD
 75
     0
 76
     1
 98
        1
 10
-60.0
 20
0.0
  0
ARC
  5
5F7
102
{ACAD_REACTORS
330
5F6
102
}
330
1F
100
AcDbEntity
  8
補助
370
     5
100
AcDbCircle
 10
2257.166198313996
 20
36.5
 30
0.0
 40
20.0
100
AcDbArc
 50
11.6477236670766
 51
342.6561058784691
  0
ARC
  5
5F8
102
{ACAD_REACTORS
330
5F6
102
}
330
1F
100
AcDbEntity
  8
補助
370
     5
100
AcDbCircle
 10
2188.255774665348
 20
36.5
 30
0.0
 40
20.0
100
AcDbArc
 50
11.6477236670766
 51
342.6561058784691
  0
LINE
  5
5F9
102
{ACAD_REACTORS
330
5F6
102
}
330
1F
100
AcDbEntity
  8
補助
370
     5
100
AcDbLine
 10
2252.166198313995
 20
30.53787547858519
 30
0.0
 11
2276.256852341323
 21
30.53787547858514
 31
0.0
  0
LINE
  5
5FA
102
{ACAD_REACTORS
330
5F6
102
}
330
1F
100
AcDbEntity
  8
補助
370
     5
100
AcDbLine
 10
2252.166198313995
 20
40.53787547858519
 30
0.0
 11
2252.166198313995
 21
30.53787547858519
 31
0.0
  0
LINE
  5
5FB
102
{ACAD_REACTORS
330
5F6
102
}
330
1F
100
AcDbEntity
  8
補助
370
     5
100
AcDbLine
 10
2276.75434681301
 20
40.53787547858519
 30
0.0
 11
2252.166198313995
 21
40.53787547858519
 31
0.0
  0
LINE
  5
5FC
102
{ACAD_REACTORS
330
5F6
102
}
330
1F
100
AcDbEntity
  8
補助
370
     5
100
AcDbLine
 10
2245.64189404294
 20
56.5
 30
0.0
 11
2210.641894042939
 21
56.5
 31
0.0
  0
LINE
  5
5FD
102
{ACAD_REACTORS
330
5F6
102
}
330
1F
100
AcDbEntity
  8
補助
370
     5
100
AcDbLine
 10
2210.641894042939
 20
36.5
 30
0.0
 11
2245.64189404294
 21
56.5
 31
0.0
  0
LINE
  5
5FE
102
{ACAD_REACTORS
330
5F6
102
}
330
1F
100
AcDbEntity
  8
補助
370
     5
100
AcDbLine
 10
2245.64189404294
 20
16.5
 30
0.0
 11
2210.641894042939
 21
36.5
 31
0.0
  0
LINE
  5
5FF
102
{ACAD_REACTORS
330
5F6
102
}
330
1F
100
AcDbEntity
  8
補助
370
     5
100
AcDbLine
 10
2210.641894042939
 20
16.5
 30
0.0
 11
2245.64189404294
 21
16.5
 31
0.0
  0
LINE
  5
600
102
{ACAD_REACTORS
330
5F6
102
}
330
1F
100
AcDbEntity
  8
補助
370
     5
100
AcDbLine
 10
2210.641894042939
 20
56.5
 30
0.0
 11
2210.641894042939
 21
16.5
 31
0.0
  0
LINE
  5
601
102
{ACAD_REACTORS
330
5F6
102
}
330
1F
100
AcDbEntity
  8
補助
370
     5
100
AcDbLine
 10
2183.255774665347
 20
30.53787547858519
 30
0.0
 11
2207.346428692676
 21
30.53787547858514
 31
0.0
  0
LINE
  5
602
102
{ACAD_REACTORS
330
5F6
102
}
330
1F
100
AcDbEntity
  8
補助
370
     5
100
AcDbLine
 10
2183.255774665347
 20
40.53787547858519
 30
0.0
 11
2183.255774665347
 21
30.53787547858519
 31
0.0
  0
LINE
  5
603
102
{ACAD_REACTORS
330
5F6
102
}
330
1F
100
AcDbEntity
  8
補助
370
     5
100
AcDbLine
 10
2207.843923164362
 20
40.53787547858519
 30
0.0
 11
2183.255774665347
 21
40.53787547858519
 31
0.0
  0
LINE
  5
A29
330
1F
100
AcDbEntity
  8
補助
100
AcDbLine
 10
2064.0
 20
4.0
 30
0.0
 11
2064.0
 21
199.0
 31
0.0
  0
TEXT
  5
A2C
330
1F
100
AcDbEntity
  8
補助
100
AcDbText
 10
2086.666666666667
 20
149.0
 30
0.0
 40
35.0
  1
品番
 72
     4
 11
2124.0
 21
166.5
 31
0.0
100
AcDbText
  0
TEXT
  5
A2D
330
1F
100
AcDbEntity
  8
補助
100
AcDbText
 10
2086.666666666667
 20
84.0
 30
0.0
 40
35.0
  1
尺度
 72
     4
 11
2124.0
 21
101.5
 31
0.0
100
AcDbText
  0
CIRCLE
  5
C46
330
1F
100
AcDbEntity
  8
0
 62
     0
100
AcDbCircle
 10
1214.510719473205
 20
1400.093561842788
 30
0.0
 40
110.5
  0
LINE
  5
C4E
330
1F
100
AcDbEntity
  8
実形
100
AcDbLine
 10
1124.010719473205
 20
452.5263667117398
 30
0.0
 11
842.3768625376627
 21
472.609445981982
 31
0.0
  0
ARC
  5
C50
330
1F
100
AcDbEntity
  8
実形
100
AcDbCircle
 10
844.5107194732056
 20
502.5334606621454
 30
0.0
 40
30.0
100
AcDbArc
 50
179.9999999999999
 51
265.9211892046446
  0
LINE
  5
CB1
330
1F
100
AcDbEntity
  8
0
100
AcDbLine
 10
1614.510719473205
 20
642.5263667117397
 30
0.0
 11
1614.510719473205
 21
502.5334606621454
 31
0.0
  0
ARC
  5
CB2
330
1F
100
AcDbEntity
  8
実形
100
AcDbCircle
 10
1584.510719473205
 20
502.5334606621454
 30
0.0
 40
30.0
100
AcDbArc
 50
274.0788107953554
 51
0.0000000000000579
  0
LINE
  5
CB3
330
1F
100
AcDbEntity
  8
実形
100
AcDbLine
 10
1305.010719473205
 20
452.5263667117398
 30
0.0
 11
1586.644576408748
 21
472.609445981982
 31
0.0
  0
LINE
  5
CBC
330
1F
100
AcDbEntity
  8
実形
 62
     0
100
AcDbLine
 10
1311.21126748002
 20
1303.067511487161
 30
0.0
 11
1535.834010181881
 21
1437.733424377966
 31
0.0
  0
ARC
  5
CD3
330
1F
100
AcDbEntity
  8
実形
 62
     0
100
AcDbCircle
 10
1214.510719473205
 20
1495.093561842788
 30
0.0
 40
215.0
100
AcDbArc
 50
270.0
 51
296.7511366344175
  0
ARC
  5
CDA
330
1F
100
AcDbEntity
  8
実形
 62
     0
100
AcDbCircle
 10
1214.510719473205
 20
1495.093561842788
 30
0.0
 40
210.0
100
AcDbArc
 50
270.0
 51
296.5613888603681
  0
LINE
  5
CDD
330
1F
100
AcDbEntity
  8
実形
 62
     0
100
AcDbLine
 10
1308.413568358043
 20
1307.257849127364
 30
0.0
 11
1535.834010181881
 21
1437.733424377966
 31
0.0
  0
LINE
  5
CE8
330
1F
100
AcDbEntity
  8
実形
 62
     0
100
AcDbLine
 10
1119.66934960169
 20
1301.249416880503
 30
0.0
 11
892.5308409902399
 21
1431.627262158703
 31
0.0
  0
ARC
  5
CE9
330
1F
100
AcDbEntity
  8
実形
 62
     0
100
AcDbCircle
 10
1212.707423049474
 20
1495.076445153457
 30
0.0
 40
215.0
100
AcDbArc
 50
244.3365210504766
 51
271.0876576848941
  0
ARC
  5
CEA
330
1F
100
AcDbEntity
  8
実形
 62
     0
100
AcDbCircle
 10
1212.707423049474
 20
1495.076445153457
 30
0.0
 40
210.0
100
AcDbArc
 50
244.526268824526
 51
271.0876576848941
  0
LINE
  5
CEB
330
1F
100
AcDbEntity
  8
実形
 62
     0
100
AcDbLine
 10
1122.387003373904
 20
1305.492105637693
 30
0.0
 11
892.5308409902399
 21
1431.627262158703
 31
0.0
  0
LINE
  5
DC4
330
1F
100
AcDbEntity
  8
実形
100
AcDbLine
 10
1305.010719473205
 20
517.5263667117397
 30
0.0
 11
1305.010719473205
 21
554.6793912497114
 31
0.0
  0
LINE
  5
E44
330
1F
100
AcDbEntity
  8
実形
100
AcDbLine
 10
1124.010719473205
 20
517.5263667117397
 30
0.0
 11
1124.010719473205
 21
552.8043912497114
 31
0.0
  0
DIMENSION
  5
E79
330
1F
100
AcDbEntity
  8
実形
100
AcDbDimension
  2
*D24
 10
1325.010719473205
 20
554.5770817450962
 30
0.0
 11
1112.449773043137
 21
555.2705090514105
 31
0.0
 70
   160
  1
20
 71
     5
 42
221.0
  3
ISO-25
100
AcDbAlignedDimension
 13
1104.010719473205
 23
451.7157443787113
 33
0.0
 14
1325.010719473205
 24
452.3704268963724
 34
0.0
100
AcDbRotatedDimension
1001
ACAD
1000
DSTYLE
1002
{
1070
   279
1070
     1
1002
}
  0
TEXT
  5
EDC
330
1F
100
AcDbEntity
  8
実形
100
AcDbText
 10
1294.864591692054
 20
562.9714614338904
 30
0.0
 40
25.0
  1
20
100
AcDbText
  0
LEADER
  5
EE7
330
1F
100
AcDbEntity
  8
0
 62
     0
100
AcDbLeader
  3
ISO-25
 40
25.0
 41
16.66666666666666
 76
     2
 10
929.5714851342635
 20
470.8682155088099
 30
0.0
 10
986.8166308551135
 20
518.9161621942248
 30
0.0
213
0.0
223
-12.5
233
0.0
1001
ACAD
1000
DSTYLE
1002
{
1070
   147
1040
6.25
1070
    77
1070
     0
1070
    73
1070
     1
1070
    74
1070
     1
1070
   279
1070
     1
1070
   342
1005
DA
1002
}
  0
TEXT
  5
EE8
330
1F
100
AcDbEntity
  8
0
 62
     0
100
AcDbText
 10
938.5158115063932
 20
526.0601011878442
 30
0.0
 40
25.0
  1
4500R
 11
938.5158115063932
 21
522.7267678545108
 31
0.0
100
AcDbText
 73
     1
  0
LINE
  5
F28
330
1F
100
AcDbEntity
  8
0
100
AcDbLine
 10
1913.919090329375
 20
709.7111593298434
 30
0.0
 11
2235.940387275704
 21
709.7111593298432
 31
0.0
  0
LINE
  5
F29
330
1F
100
AcDbEntity
  8
0
100
AcDbLine
 10
2065.940387275704
 20
679.7111593298433
 30
0.0
 11
2065.940387275704
 21
535.032962448703
 31
0.0
  0
DIMENSION
  5
F2A
330
1F
100
AcDbEntity
  8
0
100
AcDbDimension
  2
*D25
 10
2065.940387275704
 20
815.8881008520211
 30
0.0
 11
2150.940387275704
 21
834.6381008520211
 31
0.0
 70
    32
  1
17
 71
     5
 42
170.0
  3
ISO-25
100
AcDbAlignedDimension
 13
2235.940387275704
 23
709.7111593298432
 33
0.0
 14
2065.940387275704
 24
709.7111593298432
 34
0.0
100
AcDbRotatedDimension
  0
ARC
  5
F2B
330
1F
100
AcDbEntity
  8
0
100
AcDbCircle
 10
2095.940387275704
 20
679.7111593298433
 30
0.0
 40
30.0
100
AcDbArc
 50
90.0
 51
180.0
  0
LINE
  5
F2C
330
1F
100
AcDbEntity
  8
0
100
AcDbLine
 10
2095.940387275704
 20
699.7111593298433
 30
0.0
 11
2235.940387275704
 21
699.7111593298432
 31
0.0
  0
ARC
  5
F2D
330
1F
100
AcDbEntity
  8
0
100
AcDbCircle
 10
2095.940387275704
 20
679.7111593298433
 30
0.0
 40
20.0
100
AcDbArc
 50
90.0
 51
180.0
  0
LINE
  5
F2E
330
1F
100
AcDbEntity
  8
0
100
AcDbLine
 10
2075.940387275704
 20
679.7111593298433
 30
0.0
 11
2075.940387275704
 21
535.032962448703
 31
0.0
  0
LINE
  5
F2F
330
1F
100
AcDbEntity
  8
0
100
AcDbLine
 10
2235.940387275704
 20
709.7111593298432
 30
0.0
 11
2235.940387275704
 21
699.7111593298432
 31
0.0
  0
LEADER
  5
F30
330
1F
100
AcDbEntity
  8
Cen
100
AcDbLeader
  3
ISO-25
 40
25.0
 41
16.66666666666666
 76
     2
 10
2075.407559369812
 20
701.5835843939968
 30
0.0
 10
2130.096585977464
 20
633.0736500359507
 30
0.0
213
0.0
223
-12.5
233
0.0
1001
ACAD
1000
DSTYLE
1002
{
1070
    41
1040
25.0
1070
   147
1040
6.25
1070
    77
1070
     0
1070
   279
1070
     1
1002
}
  0
TEXT
  5
F31
330
1F
100
AcDbEntity
  8
0
100
AcDbText
 10
2137.479479876993
 20
608.8347444378132
 30
0.0
 40
25.0
  1
3R
100
AcDbText
  0
LINE
  5
F32
330
1F
100
AcDbEntity
  8
0
100
AcDbLine
 10
1913.919090329375
 20
559.7111593298433
 30
0.0
 11
2035.940387275704
 21
559.7111593298432
 31
0.0
  0
LINE
  5
F33
330
1F
100
AcDbEntity
  8
実形
100
AcDbLine
 10
2065.940387275704
 20
679.7111593298433
 30
0.0
 11
2065.940387275704
 21
589.7111593298432
 31
0.0
  0
ARC
  5
F34
330
1F
100
AcDbEntity
  8
実形
100
AcDbCircle
 10
2035.940387275704
 20
589.7111593298432
 30
0.0
 40
30.0
100
AcDbArc
 50
270.0
 51
0.0
  0
LINE
  5
F35
330
1F
100
AcDbEntity
  8
0
100
AcDbLine
 10
1913.919090329375
 20
549.7111593298433
 30
0.0
 11
2035.940387275704
 21
549.7111593298432
 31
0.0
  0
ARC
  5
F36
330
1F
100
AcDbEntity
  8
実形
100
AcDbCircle
 10
2035.940387275704
 20
589.7111593298432
 30
0.0
 40
40.0
100
AcDbArc
 50
270.0
 51
318.5903778907302
  0
LEADER
  5
F37
330
1F
100
AcDbEntity
  8
Cen
100
AcDbLeader
  3
ISO-25
 40
25.0
 41
16.66666666666666
 76
     2
 10
2050.481151880717
 20
576.0547302385222
 30
0.0
 10
2012.154276789472
 20
616.9359366054918
 30
0.0
213
0.0
223
-12.5
233
0.0
1001
ACAD
1000
DSTYLE
1002
{
1070
    41
1040
25.0
1070
   147
1040
6.25
1070
    77
1070
     0
1070
   279
1070
     1
1002
}
  0
TEXT
  5
F38
330
1F
100
AcDbEntity
  8
0
100
AcDbText
 10
1965.923186988399
 20
626.8360531626544
 30
0.0
 40
25.0
  1
3R
100
AcDbText
  0
LINE
  5
FE8
330
1F
100
AcDbEntity
  8
0
100
AcDbLine
 10
1960.30693421529
 20
1586.201055701369
 30
0.0
 11
1960.30693421529
 21
1032.201055701369
 31
0.0
  0
LINE
  5
FE9
330
1F
100
AcDbEntity
  8
0
100
AcDbLine
 10
1960.306934215291
 20
1569.201055701369
 30
0.0
 11
2113.844118160516
 21
1569.201055701369
 31
0.0
  0
LINE
  5
FEA
330
1F
100
AcDbEntity
  8
0
100
AcDbLine
 10
1978.30693421529
 20
1494.201055701369
 30
0.0
 11
2120.306934215291
 21
1494.201055701369
 31
0.0
  0
LINE
  5
FEB
330
1F
100
AcDbEntity
  8
0
100
AcDbLine
 10
1960.30693421529
 20
1049.201055701368
 30
0.0
 11
1972.30693421529
 21
1049.201055701368
 31
0.0
  0
LINE
  5
FEC
330
1F
100
AcDbEntity
  8
0
100
AcDbLine
 10
1978.30693421529
 20
1064.201055701369
 30
0.0
 11
2111.508846665863
 21
1064.201055701369
 31
0.0
  0
LINE
  5
FED
330
1F
100
AcDbEntity
  8
0
100
AcDbLine
 10
1975.30693421529
 20
1061.201055701368
 30
0.0
 11
1975.306934215289
 21
1052.201055701369
 31
0.0
  0
ARC
  5
FEE
330
1F
100
AcDbEntity
  8
0
100
AcDbCircle
 10
1972.30693421529
 20
1052.201055701369
 30
0.0
 40
3.0
100
AcDbArc
 50
270.0
 51
0.0
  0
ARC
  5
FEF
330
1F
100
AcDbEntity
  8
0
100
AcDbCircle
 10
1978.30693421529
 20
1061.201055701368
 30
0.0
 40
3.0
100
AcDbArc
 50
90.0
 51
180.0
  0
LINE
  5
FF0
330
1F
100
AcDbEntity
  8
0
100
AcDbLine
 10
1975.30693421529
 20
1569.201055701369
 30
0.0
 11
1975.30693421529
 21
1497.201055701369
 31
0.0
  0
ARC
  5
FF1
330
1F
100
AcDbEntity
  8
0
100
AcDbCircle
 10
1978.30693421529
 20
1497.201055701369
 30
0.0
 40
3.0
100
AcDbArc
 50
180.0
 51
270.0
  0
LINE
  5
FF2
330
1F
100
AcDbEntity
  8
0
100
AcDbLine
 10
1975.30693421529
 20
1497.201055701369
 30
0.0
 11
1975.306934215289
 21
1052.201055701369
 31
0.0
  0
LINE
  5
FF3
330
1F
100
AcDbEntity
  8
0
100
AcDbLine
 10
2150.306934215291
 20
1464.201055701369
 30
0.0
 11
2150.30693421529
 21
1308.701055701373
 31
0.0
  0
LINE
  5
FF7
330
1F
100
AcDbEntity
  8
0
100
AcDbLine
 10
2150.30693421529
 20
1308.70105570137
 30
0.0
 11
2141.483786203134
 21
1092.975086804139
 31
0.0
  0
ARC
  5
FF9
330
1F
100
AcDbEntity
  8
0
100
AcDbCircle
 10
2111.508846665863
 20
1094.201055701369
 30
0.0
 40
30.0
100
AcDbArc
 50
270.0
 51
357.6579196915294
  0
ARC
  5
FFA
330
1F
100
AcDbEntity
  8
0
100
AcDbCircle
 10
2120.306934215291
 20
1464.201055701369
 30
0.0
 40
30.0
100
AcDbArc
 50
0.0
 51
90.0
  0
LINE
  5
FFC
330
1F
100
AcDbEntity
  8
Cen
100
AcDbLine
 10
2055.713104435083
 20
1397.326055701369
 30
0.0
 11
2186.367516670405
 21
1397.326055701369
 31
0.0
  0
LINE
  5
FFD
330
1F
100
AcDbEntity
  8
0
  6
HIDDEN2
100
AcDbLine
 10
1975.30693421529
 20
1563.701055701369
 30
0.0
 11
2071.30693421529
 21
1563.701055701369
 31
0.0
  0
LINE
  5
FFE
330
1F
100
AcDbEntity
  8
0
  6
HIDDEN2
100
AcDbLine
 10
2074.30693421529
 20
1560.701055701369
 30
0.0
 11
2074.306934215291
 21
1508.70105570137
 31
0.0
  0
LINE
  5
FFF
330
1F
100
AcDbEntity
  8
0
  6
HIDDEN2
100
AcDbLine
 10
2071.306934215291
 20
1505.701055701369
 30
0.0
 11
1975.30693421529
 21
1505.701055701369
 31
0.0
  0
LINE
  5
1001
330
1F
100
AcDbEntity
  8
0
  6
HIDDEN2
100
AcDbLine
 10
2094.30693421529
 20
1551.301055701369
 30
0.0
 11
2094.30693421529
 21
1518.101055701369
 31
0.0
  0
ARC
  5
1003
330
1F
100
AcDbEntity
  8
0
  6
HIDDEN2
 48
0.5
100
AcDbCircle
 10
2071.30693421529
 20
1560.701055701369
 30
0.0
 40
3.0
100
AcDbArc
 50
0.0
 51
90.0
  0
ARC
  5
1004
330
1F
100
AcDbEntity
  8
0
  6
HIDDEN2
 48
0.5
100
AcDbCircle
 10
2071.306934215291
 20
1508.70105570137
 30
0.0
 40
3.0
100
AcDbArc
 50
270.0
 51
0.0
  0
DIMENSION
  5
1005
330
1F
100
AcDbEntity
  8
0
100
AcDbDimension
  2
*D26
 10
1975.30693421529
 20
1659.24343834279
 30
0.0
 11
1938.831623667459
 21
1662.50493627379
 31
0.0
 70
   160
 71
     5
 42
15.0
  3
ISO-25
100
AcDbAlignedDimension
 13
1960.30693421529
 23
1556.701055701369
 33
0.0
 14
1975.30693421529
 24
1556.701055701369
 34
0.0
100
AcDbRotatedDimension
1001
ACAD
1000
DSTYLE
1002
{
1070
   279
1070
     1
1002
}
  0
DIMENSION
  5
1006
330
1F
100
AcDbEntity
  8
0
100
AcDbDimension
  2
*D27
 10
2074.30693421529
 20
1659.24343834279
 30
0.0
 11
2024.80693421529
 21
1677.99343834279
 31
0.0
 70
    32
 71
     5
 42
99.0
  3
ISO-25
100
AcDbAlignedDimension
 13
1975.30693421529
 23
1556.701055701369
 33
0.0
 14
2074.30693421529
 24
1556.701055701369
 34
0.0
100
AcDbRotatedDimension
1001
ACAD
1000
DSTYLE
1002
{
1070
   279
1070
     1
1002
}
  0
LEADER
  5
1008
330
1F
100
AcDbEntity
  8
0
100
AcDbLeader
  3
ISO-25
 76
     2
 10
1976.656281947674
 20
1494.695991412491
 30
0.0
 10
1921.230267974478
 20
1455.269032458769
 30
0.0
1001
ACAD
1000
DSTYLE
1002
{
1070
   147
1040
6.25
1070
    77
1070
     0
1070
   279
1070
     1
1002
}
  0
LEADER
  5
1009
330
1F
100
AcDbEntity
  8
0
100
AcDbLeader
  3
ISO-25
 76
     2
 10
1976.970849844303
 20
1063.887108298323
 30
0.0
 10
2024.668304508087
 20
1007.885681666948
 30
0.0
1001
ACAD
1000
DSTYLE
1002
{
1070
   147
1040
6.25
1070
    77
1070
     0
1070
   279
1070
     1
1002
}
  0
LEADER
  5
100A
330
1F
100
AcDbEntity
  8
0
100
AcDbLeader
  3
ISO-25
 76
     2
 10
1974.941469382437
 20
1050.766055891937
 30
0.0
 10
1924.109147148053
 20
1092.479298327302
 30
0.0
1001
ACAD
1000
DSTYLE
1002
{
1070
   147
1040
6.25
1070
    77
1070
     0
1070
   279
1070
     1
1002
}
  0
TEXT
  5
100B
330
1F
100
AcDbEntity
  8
0
100
AcDbText
 10
1871.254301614829
 20
1424.689618649729
 30
0.0
 40
25.0
  1
3R
100
AcDbText
  0
TEXT
  5
100C
330
1F
100
AcDbEntity
  8
0
100
AcDbText
 10
1868.256731033753
 20
1084.734810853692
 30
0.0
 40
25.0
  1
3R
100
AcDbText
  0
TEXT
  5
100D
330
1F
100
AcDbEntity
  8
0
100
AcDbText
 10
2034.621539925768
 20
975.4101383438737
 30
0.0
 40
25.0
  1
3R
100
AcDbText
  0
LINE
  5
105B
330
1F
100
AcDbEntity
  8
実形
100
AcDbLine
 10
1076.524983685021
 20
1505.302533490409
 30
0.0
 11
1064.914404882038
 21
1468.372971191794
 31
0.0
  0
LINE
  5
105C
330
1F
100
AcDbEntity
  8
実形
100
AcDbLine
 10
1077.064048884495
 20
1505.276400640175
 30
0.0
 11
1060.593604713299
 21
1481.37122639292
 31
0.0
  0
LINE
  5
105D
330
1F
100
AcDbEntity
  8
実形
100
AcDbLine
 10
1077.143002780287
 20
1505.559235502606
 30
0.0
 11
1076.888205263659
 21
1477.378880124267
 31
0.0
  0
LINE
  5
105E
330
1F
100
AcDbEntity
  8
実形
100
AcDbLine
 10
1075.704582932129
 20
1469.036337491449
 30
0.0
 11
1075.41689766796
 21
1469.036337491449
 31
0.0
  0
LEADER
  5
1067
330
1F
100
AcDbEntity
  8
0
 62
     0
100
AcDbLeader
  3
ISO-25
 76
     2
 10
1593.270509084403
 20
1546.766478287105
 30
0.0
 10
1555.932177428489
 20
1403.3213749877
 30
0.0
1001
ACAD
1000
DSTYLE
1002
{
1070
   147
1040
6.25
1070
    77
1070
     0
1070
    73
1070
     1
1070
    74
1070
     1
1070
   279
1070
     1
1070
   342
1005
DA
1002
}
  0
DIMENSION
  5
110C
330
1F
100
AcDbEntity
  8
実形
100
AcDbDimension
  2
*D32
 10
768.0169661110421
 20
1570.093561842788
 30
0.0
 11
749.2669661110419
 21
1538.093561842789
 31
0.0
 70
    32
  1
59
 71
     5
 42
63.99999999999977
  3
ISO-25
100
AcDbAlignedDimension
 13
854.5107194732054
 23
1506.093561842789
 33
0.0
 14
855.8083000060241
 24
1570.093561842788
 34
0.0
 50
90.0
100
AcDbRotatedDimension
1001
ACAD
1000
DSTYLE
1002
{
1070
   279
1070
     1
1002
}
  0
DIMENSION
  5
1119
330
1F
100
AcDbEntity
  8
実形
100
AcDbDimension
  2
*D33
 10
768.0284551391633
 20
1506.115279819966
 30
0.0
 11
770.9960678666784
 21
1594.367829651794
 31
0.0
 70
   160
  1
5
 71
     5
 42
59.00030173031883
  3
ISO-25
100
AcDbAlignedDimension
 13
855.8083000060241
 23
1565.115581550285
 33
0.0
 14
856.8002594577146
 24
1506.115279819966
 34
0.0
 50
90.0
100
AcDbRotatedDimension
1001
ACAD
1000
DSTYLE
1002
{
1070
   279
1070
     1
1002
}
  0
DIMENSION
  5
11CE
330
1F
100
AcDbEntity
  8
実形
100
AcDbDimension
  2
*D34
 10
1044.510719473205
 20
1647.430241098054
 30
0.0
 11
814.5107194732053
 21
1647.430241098054
 31
0.0
 70
   160
  1
40
 71
     5
 42
230.0
  3
ISO-25
100
AcDbAlignedDimension
 13
814.5107194732053
 23
1537.079948238977
 33
0.0
 14
1044.510719473205
 24
1571.077815984873
 34
0.0
100
AcDbRotatedDimension
1001
ACAD
1000
DSTYLE
1002
{
1070
   279
1070
     1
1002
}
  0
DIMENSION
  5
11DB
330
1F
100
AcDbEntity
  8
実形
100
AcDbDimension
  2
*D35
 10
1044.510719473205
 20
1647.430241098054
 30
0.0
 11
941.7268511175425
 21
1651.07008763395
 31
0.0
 70
   160
 71
     5
 42
190.0
  3
ISO-25
100
AcDbAlignedDimension
 13
854.5107194732054
 23
1535.593561842788
 33
0.0
 14
1044.510719473205
 24
1535.593561842788
 34
0.0
100
AcDbRotatedDimension
1001
ACAD
1000
DSTYLE
1002
{
1070
   279
1070
     1
1002
}
  0
ARC
  5
124F
330
1F
100
AcDbEntity
  8
0
100
AcDbCircle
 10
1015.010720088335
 20
1535.593564727246
 30
0.0
 40
29.5
100
AcDbArc
 50
270.0
 51
0.0
  0
ARC
  5
1250
330
1F
100
AcDbEntity
  8
0
100
AcDbCircle
 10
1015.010720088335
 20
1535.593564727245
 30
0.0
 40
29.5
100
AcDbArc
 50
0.0
 51
90.0
  0
LINE
  5
1251
330
1F
100
AcDbEntity
  8
0
100
AcDbLine
 10
1044.510720088336
 20
1535.593564727246
 30
0.0
 11
1044.510720088336
 21
1535.593564727245
 31
0.0
  0
ARC
  5
1252
330
1F
100
AcDbEntity
  8
0
100
AcDbCircle
 10
884.0107200883354
 20
1535.593564727246
 30
0.0
 40
29.5
100
AcDbArc
 50
90.0
 51
180.0
  0
ARC
  5
1253
330
1F
100
AcDbEntity
  8
0
100
AcDbCircle
 10
884.0107200883352
 20
1535.593564727246
 30
0.0
 40
29.5
100
AcDbArc
 50
180.0
 51
270.0
  0
LINE
  5
1254
330
1F
100
AcDbEntity
  8
0
100
AcDbLine
 10
884.0107200883352
 20
1506.093564727246
 30
0.0
 11
1015.010720088335
 21
1506.093564727246
 31
0.0
  0
LINE
  5
1255
330
1F
100
AcDbEntity
  8
0
100
AcDbLine
 10
884.0107200883357
 20
1565.093564727246
 30
0.0
 11
1015.010720088335
 21
1565.093564727245
 31
0.0
  0
ARC
  5
1256
330
1F
100
AcDbEntity
  8
実形
370
    15
100
AcDbCircle
 10
949.5107200883355
 20
1535.593564727246
 30
0.0
 40
12.5
100
AcDbArc
 50
282.5558577985876
 51
347.4441422014174
  0
LINE
  5
1257
330
1F
100
AcDbEntity
  8
実形
370
    15
100
AcDbLine
 10
938.2857479280138
 20
1537.093564727246
 30
0.0
 11
947.0107200883356
 21
1537.093564727246
 31
0.0
  0
LINE
  5
1258
330
1F
100
AcDbEntity
  8
実形
370
    15
100
AcDbLine
 10
938.2857479280136
 20
1534.093564727246
 30
0.0
 11
947.0107200883356
 21
1534.093564727245
 31
0.0
  0
LINE
  5
1259
330
1F
100
AcDbEntity
  8
実形
370
    15
100
AcDbLine
 10
951.0107200883355
 20
1546.818536887568
 30
0.0
 11
951.0107200883354
 21
1538.093564727246
 31
0.0
  0
LINE
  5
125A
330
1F
100
AcDbEntity
  8
実形
370
    15
100
AcDbLine
 10
948.0107200883356
 20
1546.818536887568
 30
0.0
 11
948.0107200883356
 21
1538.093564727246
 31
0.0
  0
LINE
  5
125B
330
1F
100
AcDbEntity
  8
実形
370
    15
100
AcDbLine
 10
948.0107200883356
 20
1533.093564727245
 30
0.0
 11
948.0107200883356
 21
1524.368592566924
 31
0.0
  0
LINE
  5
125C
330
1F
100
AcDbEntity
  8
実形
370
    15
100
AcDbLine
 10
952.0107200883355
 20
1537.093564727246
 30
0.0
 11
960.7356922486575
 21
1537.093564727246
 31
0.0
  0
LINE
  5
125D
330
1F
100
AcDbEntity
  8
実形
370
    15
100
AcDbLine
 10
951.0107200883354
 20
1533.093564727246
 30
0.0
 11
951.0107200883355
 21
1524.368592566924
 31
0.0
  0
LINE
  5
125E
330
1F
100
AcDbEntity
  8
実形
370
    15
100
AcDbLine
 10
952.0107200883355
 20
1534.093564727246
 30
0.0
 11
960.7356922486573
 21
1534.093564727246
 31
0.0
  0
ARC
  5
125F
330
1F
100
AcDbEntity
  8
実形
370
    15
100
AcDbCircle
 10
949.5107200883355
 20
1535.593564727246
 30
0.0
 40
12.5
100
AcDbArc
 50
192.5558577985826
 51
257.4441422014124
  0
ARC
  5
1260
330
1F
100
AcDbEntity
  8
実形
370
    15
100
AcDbCircle
 10
949.5107200883355
 20
1535.593564727246
 30
0.0
 40
12.5
100
AcDbArc
 50
102.5558577985876
 51
167.4441422014173
  0
ARC
  5
1261
330
1F
100
AcDbEntity
  8
実形
370
    15
100
AcDbCircle
 10
949.5107200883355
 20
1535.593564727246
 30
0.0
 40
12.5
100
AcDbArc
 50
12.55585779858264
 51
77.44414220141242
  0
ARC
  5
1262
330
1F
100
AcDbEntity
  8
実形
370
    15
100
AcDbCircle
 10
952.0107200883357
 20
1546.818536887568
 30
0.0
 40
1.0
100
AcDbArc
 50
77.44414220141242
 51
180.0
  0
ARC
  5
1263
330
1F
100
AcDbEntity
  8
実形
370
    15
100
AcDbCircle
 10
960.7356922486575
 20
1538.093564727245
 30
0.0
 40
1.0
100
AcDbArc
 50
270.0
 51
12.55585779858264
  0
ARC
  5
1264
330
1F
100
AcDbEntity
  8
実形
370
    15
100
AcDbCircle
 10
960.7356922486573
 20
1533.093564727245
 30
0.0
 40
1.0
100
AcDbArc
 50
347.4441422014174
 51
90.0
  0
ARC
  5
1265
330
1F
100
AcDbEntity
  8
実形
370
    15
100
AcDbCircle
 10
952.0107200883355
 20
1524.368592566924
 30
0.0
 40
1.0
100
AcDbArc
 50
180.0
 51
282.5558577985876
  0
ARC
  5
1266
330
1F
100
AcDbEntity
  8
実形
370
    15
100
AcDbCircle
 10
947.0107200883356
 20
1524.368592566924
 30
0.0
 40
1.0
100
AcDbArc
 50
257.4441422014124
 51
0.0
  0
ARC
  5
1267
330
1F
100
AcDbEntity
  8
実形
370
    15
100
AcDbCircle
 10
938.2857479280136
 20
1533.093564727246
 30
0.0
 40
1.0
100
AcDbArc
 50
90.0
 51
192.5558577985812
  0
ARC
  5
1268
330
1F
100
AcDbEntity
  8
実形
370
    15
100
AcDbCircle
 10
938.2857479280138
 20
1538.093564727246
 30
0.0
 40
1.0
100
AcDbArc
 50
167.4441422014188
 51
270.0
  0
ARC
  5
1269
330
1F
100
AcDbEntity
  8
実形
370
    15
100
AcDbCircle
 10
947.0107200883356
 20
1546.818536887568
 30
0.0
 40
1.0
100
AcDbArc
 50
0.0
 51
102.5558577985876
  0
ARC
  5
126A
330
1F
100
AcDbEntity
  8
実形
370
    15
100
AcDbCircle
 10
947.0107200883356
 20
1533.093564727245
 30
0.0
 40
1.0
100
AcDbArc
 50
0.0
 51
90.0
  0
ARC
  5
126B
330
1F
100
AcDbEntity
  8
実形
370
    15
100
AcDbCircle
 10
952.0107200883355
 20
1533.093564727246
 30
0.0
 40
1.0
100
AcDbArc
 50
90.0
 51
180.0
  0
ARC
  5
126C
330
1F
100
AcDbEntity
  8
実形
370
    15
100
AcDbCircle
 10
952.0107200883355
 20
1538.093564727246
 30
0.0
 40
1.0
100
AcDbArc
 50
180.0
 51
270.0
  0
ARC
  5
126D
330
1F
100
AcDbEntity
  8
実形
370
    15
100
AcDbCircle
 10
947.0107200883356
 20
1538.093564727246
 30
0.0
 40
1.0
100
AcDbArc
 50
270.0
 51
0.0
  0
LINE
  5
126E
330
1F
100
AcDbEntity
  8
実形
370
    15
100
AcDbLine
 10
864.5107200883355
 20
1535.593564727246
 30
0.0
 11
864.5107200883355
 21
1535.593564727246
 31
0.0
  0
LINE
  5
126F
330
1F
100
AcDbEntity
  8
実形
370
    15
100
AcDbLine
 10
874.5107200883355
 20
1525.593564727246
 30
0.0
 11
914.5107200883355
 21
1525.593564727246
 31
0.0
  0
LINE
  5
1270
330
1F
100
AcDbEntity
  8
実形
370
    15
100
AcDbLine
 10
924.5107200883355
 20
1535.593564727246
 30
0.0
 11
924.5107200883355
 21
1535.593564727246
 31
0.0
  0
LINE
  5
1271
330
1F
100
AcDbEntity
  8
実形
370
    15
100
AcDbLine
 10
914.5107200883355
 20
1545.593564727246
 30
0.0
 11
874.5107200883355
 21
1545.593564727245
 31
0.0
  0
ARC
  5
1272
330
1F
100
AcDbEntity
  8
実形
370
    15
100
AcDbCircle
 10
914.5107200883355
 20
1535.593564727246
 30
0.0
 40
10.0
100
AcDbArc
 50
0.0
 51
90.0
  0
ARC
  5
1273
330
1F
100
AcDbEntity
  8
実形
370
    15
100
AcDbCircle
 10
914.5107200883355
 20
1535.593564727246
 30
0.0
 40
10.0
100
AcDbArc
 50
270.0
 51
0.0
  0
ARC
  5
1274
330
1F
100
AcDbEntity
  8
実形
370
    15
100
AcDbCircle
 10
874.5107200883355
 20
1535.593564727246
 30
0.0
 40
10.0
100
AcDbArc
 50
180.0
 51
270.0
  0
ARC
  5
1275
330
1F
100
AcDbEntity
  8
実形
370
    15
100
AcDbCircle
 10
874.5107200883355
 20
1535.593564727246
 30
0.0
 40
10.0
100
AcDbArc
 50
90.0
 51
180.0
  0
LINE
  5
1276
330
1F
100
AcDbEntity
  8
実形
370
    15
100
AcDbLine
 10
874.5107200883355
 20
1530.593564727245
 30
0.0
 11
914.5107200883355
 21
1530.593564727246
 31
0.0
  0
ARC
  5
1277
330
1F
100
AcDbEntity
  8
実形
370
    15
100
AcDbCircle
 10
874.5107200883355
 20
1535.593564727246
 30
0.0
 40
5.0
100
AcDbArc
 50
180.0
 51
270.0
  0
ARC
  5
1278
330
1F
100
AcDbEntity
  8
実形
370
    15
100
AcDbCircle
 10
874.5107200883355
 20
1535.593564727246
 30
0.0
 40
5.0
100
AcDbArc
 50
90.0
 51
180.0
  0
LINE
  5
1279
330
1F
100
AcDbEntity
  8
実形
370
    15
100
AcDbLine
 10
914.5107200883355
 20
1540.593564727246
 30
0.0
 11
874.5107200883355
 21
1540.593564727245
 31
0.0
  0
ARC
  5
127A
330
1F
100
AcDbEntity
  8
実形
370
    15
100
AcDbCircle
 10
914.5107200883355
 20
1535.593564727246
 30
0.0
 40
5.0
100
AcDbArc
 50
0.0
 51
90.0
  0
ARC
  5
127B
330
1F
100
AcDbEntity
  8
実形
370
    15
100
AcDbCircle
 10
914.5107200883355
 20
1535.593564727246
 30
0.0
 40
5.0
100
AcDbArc
 50
270.0
 51
0.0
  0
ARC
  5
127C
330
1F
100
AcDbEntity
  8
実形
370
    15
100
AcDbCircle
 10
984.5107200883358
 20
1535.593564727246
 30
0.0
 40
5.0
100
AcDbArc
 50
180.0
 51
270.0
  0
ARC
  5
127D
330
1F
100
AcDbEntity
  8
実形
370
    15
100
AcDbCircle
 10
984.5107200883358
 20
1535.593564727246
 30
0.0
 40
5.0
100
AcDbArc
 50
90.0
 51
180.0
  0
LINE
  5
127E
330
1F
100
AcDbEntity
  8
実形
370
    15
100
AcDbLine
 10
984.5107200883358
 20
1540.593564727246
 30
0.0
 11
1024.510720088336
 21
1540.593564727245
 31
0.0
  0
ARC
  5
127F
330
1F
100
AcDbEntity
  8
実形
370
    15
100
AcDbCircle
 10
1024.510720088336
 20
1535.593564727246
 30
0.0
 40
5.0
100
AcDbArc
 50
0.0
 51
90.0
  0
ARC
  5
1280
330
1F
100
AcDbEntity
  8
実形
370
    15
100
AcDbCircle
 10
1024.510720088336
 20
1535.593564727246
 30
0.0
 40
5.0
100
AcDbArc
 50
270.0
 51
0.0
  0
LINE
  5
1281
330
1F
100
AcDbEntity
  8
実形
370
    15
100
AcDbLine
 10
1024.510720088336
 20
1530.593564727245
 30
0.0
 11
984.5107200883358
 21
1530.593564727246
 31
0.0
  0
LINE
  5
1282
330
1F
100
AcDbEntity
  8
実形
370
    15
100
AcDbLine
 10
984.5107200883358
 20
1545.593564727246
 30
0.0
 11
1024.510720088336
 21
1545.593564727245
 31
0.0
  0
LINE
  5
1283
330
1F
100
AcDbEntity
  8
実形
370
    15
100
AcDbLine
 10
1034.510720088336
 20
1535.593564727246
 30
0.0
 11
1034.510720088336
 21
1535.593564727246
 31
0.0
  0
ARC
  5
1284
330
1F
100
AcDbEntity
  8
実形
370
    15
100
AcDbCircle
 10
1024.510720088336
 20
1535.593564727246
 30
0.0
 40
10.0
100
AcDbArc
 50
0.0
 51
90.0
  0
LINE
  5
1285
330
1F
100
AcDbEntity
  8
実形
370
    15
100
AcDbLine
 10
1024.510720088336
 20
1525.593564727246
 30
0.0
 11
984.5107200883358
 21
1525.593564727246
 31
0.0
  0
ARC
  5
1286
330
1F
100
AcDbEntity
  8
実形
370
    15
100
AcDbCircle
 10
1024.510720088336
 20
1535.593564727246
 30
0.0
 40
10.0
100
AcDbArc
 50
270.0
 51
0.0
  0
LINE
  5
1287
330
1F
100
AcDbEntity
  8
実形
370
    15
100
AcDbLine
 10
974.5107200883358
 20
1535.593564727246
 30
0.0
 11
974.5107200883358
 21
1535.593564727246
 31
0.0
  0
ARC
  5
1288
330
1F
100
AcDbEntity
  8
実形
370
    15
100
AcDbCircle
 10
984.5107200883358
 20
1535.593564727246
 30
0.0
 40
10.0
100
AcDbArc
 50
180.0
 51
270.0
  0
ARC
  5
1289
330
1F
100
AcDbEntity
  8
実形
370
    15
100
AcDbCircle
 10
984.5107200883358
 20
1535.593564727246
 30
0.0
 40
10.0
100
AcDbArc
 50
90.0
 51
180.0
  0
TEXT
  5
12EA
330
1F
100
AcDbEntity
  8
0
100
AcDbText
 10
1450.294299225596
 20
1719.907099477863
 30
0.0
 40
25.0
  1
12%%C
 72
     2
 11
1508.62763255893
 21
1716.57376614453
 31
0.0
100
AcDbText
 73
     1
  0
LEADER
  5
133D
330
1F
100
AcDbEntity
  8
0
 62
     0
100
AcDbLeader
  3
ISO-25
 40
25.0
 41
16.66666666666666
 76
     2
 10
1596.249170886443
 20
1569.779073888532
 30
0.0
 10
1537.549968172583
 20
1534.715257000042
 30
0.0
213
0.0
223
-12.5
233
0.0
1001
ACAD
1000
DSTYLE
1002
{
1070
   147
1040
6.25
1070
    77
1070
     0
1070
    73
1070
     1
1070
    74
1070
     1
1070
   279
1070
     1
1070
   342
1005
DA
1002
}
  0
LINE
  5
14CF
330
1F
100
AcDbEntity
  8
実形
 62
     1
100
AcDbLine
 10
1124.010719473205
 20
452.5263667117398
 30
0.0
 11
842.3768625376627
 21
472.609445981982
 31
0.0
  0
LINE
  5
14D0
330
1F
100
AcDbEntity
  8
実形
 62
     1
100
AcDbLine
 10
1124.010719473205
 20
452.5263667117398
 30
0.0
 11
842.3768625376627
 21
472.609445981982
 31
0.0
  0
LINE
  5
14D2
330
1F
100
AcDbEntity
  8
実形
 62
     1
100
AcDbLine
 10
1124.010719473205
 20
452.5263667117398
 30
0.0
 11
842.3768625376627
 21
472.609445981982
 31
0.0
  0
LINE
  5
14D5
330
1F
100
AcDbEntity
  8
実形
100
AcDbLine
 10
1124.010719473205
 20
452.5263667117398
 30
0.0
 11
842.3768625376627
 21
472.609445981982
 31
0.0
  0
LINE
  5
1597
330
1F
100
AcDbEntity
  8
実形
  6
ACAD_ISO08W100
 48
0.8
100
AcDbLine
 10
1214.510719473205
 20
1280.084007793423
 30
0.0
 11
931.5627136591562
 21
1280.084007793423
 31
0.0
  0
DIMENSION
  5
162D
330
1F
100
AcDbEntity
  8
実形
100
AcDbDimension
  2
*D39
 10
892.5308409902399
 20
1431.627262158703
 30
0.0
 11
1015.731842736631
 21
1323.41504892501
 31
0.0
 70
   162
 71
     5
 42
0.5210835588631254
  3
ISO-25
100
AcDb2LineAngularDimension
 13
1214.510719473205
 23
1280.084007793423
 33
0.0
 14
814.5107194732053
 24
1280.084007793423
 34
0.0
 15
1119.66934960169
 25
1301.249416880503
 35
0.0
 16
1037.497835460199
 26
1300.971948939523
 36
0.0
1001
ACAD
1000
DSTYLE
1002
{
1070
   279
1070
     2
1002
}
  0
LINE
  5
16B1
330
1F
100
AcDbEntity
  8
0
  6
HIDDEN2
 48
0.5
100
AcDbLine
 10
2074.30693421529
 20
1551.301055701369
 30
0.0
 11
2094.30693421529
 21
1551.301055701369
 31
0.0
  0
LINE
  5
16B2
330
1F
100
AcDbEntity
  8
0
  6
HIDDEN2
 48
0.5
100
AcDbLine
 10
2074.30693421529
 20
1518.101055701369
 30
0.0
 11
2094.30693421529
 21
1518.101055701369
 31
0.0
  0
DIMENSION
  5
16C8
330
1F
100
AcDbEntity
  8
実形
100
AcDbDimension
  2
*D40
 10
2094.30693421529
 20
1659.363410673775
 30
0.0
 11
2105.723851353604
 21
1660.351678131144
 31
0.0
 70
   160
 71
     5
 42
20.0
  3
ISO-25
100
AcDbAlignedDimension
 13
2074.30693421529
 23
1556.701055701369
 33
0.0
 14
2094.30693421529
 24
1556.701055701369
 34
0.0
100
AcDbRotatedDimension
1001
ACAD
1000
DSTYLE
1002
{
1070
   279
1070
     1
1002
}
  0
DIMENSION
  5
16DE
330
1F
100
AcDbEntity
  8
実形
100
AcDbDimension
  2
*D41
 10
2188.254479016414
 20
1518.101055701369
 30
0.0
 11
2214.956346109469
 21
1533.778115398679
 31
0.0
 70
   160
 71
     5
 42
33.19999999999982
  3
ISO-25
100
AcDbAlignedDimension
 13
2094.30693421529
 23
1551.301055701369
 33
0.0
 14
2094.30693421529
 24
1518.101055701369
 34
0.0
 50
90.0
100
AcDbRotatedDimension
1001
ACAD
1000
DSTYLE
1002
{
1070
   175
1070
     0
1070
   172
1070
     1
1070
    75
1070
     0
1070
   279
1070
     2
1002
}
  0
DIMENSION
  5
1805
330
1F
100
AcDbEntity
  8
実形
100
AcDbDimension
  2
*D42
 10
696.3900520167826
 20
627.5263667117399
 30
0.0
 11
681.2425756056691
 21
675.8928637825411
 31
0.0
 70
   160
 71
     5
 42
15.0
  3
ISO-25
100
AcDbAlignedDimension
 13
814.5107194732057
 23
642.5263667117397
 33
0.0
 14
814.5107194732059
 24
627.5263667117398
 34
0.0
 50
90.0
100
AcDbRotatedDimension
1001
ACAD
1000
DSTYLE
1002
{
1070
   279
1070
     1
1002
}
  0
DIMENSION
  5
1806
330
1F
100
AcDbEntity
  8
実形
100
AcDbDimension
  2
*D43
 10
696.3900520167826
 20
452.5263667117398
 30
0.0
 11
681.6582688333873
 21
481.6497100006099
 31
0.0
 70
   160
 71
     5
 42
19.99999999999994
  3
ISO-25
100
AcDbAlignedDimension
 13
813.6928105560036
 23
472.5263667117397
 33
0.0
 14
813.6928105560036
 24
452.5263667117398
 34
0.0
 50
90.0
100
AcDbRotatedDimension
1001
ACAD
1000
DSTYLE
1002
{
1070
   279
1070
     1
1002
}
  0
DIMENSION
  5
1807
330
1F
100
AcDbEntity
  8
実形
100
AcDbDimension
  2
*D44
 10
696.3900520167826
 20
472.5263667117397
 30
0.0
 11
685.3366128187372
 21
440.3214551270821
 31
0.0
 70
   160
  1
7
 71
     5
 42
30.0
  3
ISO-25
100
AcDbAlignedDimension
 13
814.0922363068785
 23
442.5263667117397
 33
0.0
 14
785.3093081869156
 24
472.5263667117397
 34
0.0
 50
90.0
100
AcDbRotatedDimension
1001
ACAD
1000
DSTYLE
1002
{
1070
   279
1070
     1
1002
}
  0
DIMENSION
  5
1808
330
1F
100
AcDbEntity
  8
実形
100
AcDbDimension
  2
*D45
 10
609.849153578596
 20
452.5263667117399
 30
0.0
 11
591.0991535785959
 21
547.52636671174
 31
0.0
 70
    32
 71
     5
 42
190.0
  3
ISO-25
100
AcDbAlignedDimension
 13
779.1345861443442
 23
642.5263667117397
 33
0.0
 14
779.1345861443442
 24
452.5263667117398
 34
0.0
 50
90.0
100
AcDbRotatedDimension
1001
ACAD
1000
DSTYLE
1002
{
1070
   279
1070
     1
1002
}
  0
LINE
  5
1866
330
1F
100
AcDbEntity
  8
0
100
AcDbLine
 10
1124.010719473205
 20
442.5263667117397
 30
0.0
 11
1305.010719473205
 21
442.5263667117397
 31
0.0
  0
LINE
  5
1867
330
1F
100
AcDbEntity
  8
実形
100
AcDbLine
 10
1124.010719473205
 20
452.5263667117398
 30
0.0
 11
1124.010719473206
 21
442.5263667117397
 31
0.0
  0
LINE
  5
1868
330
1F
100
AcDbEntity
  8
実形
100
AcDbLine
 10
1305.010719473205
 20
452.5263667117398
 30
0.0
 11
1305.010719473206
 21
442.5263667117396
 31
0.0
  0
LINE
  5
1875
330
1F
100
AcDbEntity
  8
0
100
AcDbLine
 10
2160.306934215292
 20
1489.701055701369
 30
0.0
 11
2160.30693421529
 21
1308.701055701373
 31
0.0
  0
LINE
  5
1876
330
1F
100
AcDbEntity
  8
0
100
AcDbLine
 10
2150.306934215291
 20
1489.701055701369
 30
0.0
 11
2150.306934215291
 21
1464.201055701369
 31
0.0
  0
LINE
  5
1877
330
1F
100
AcDbEntity
  8
実形
100
AcDbLine
 10
2150.306934215291
 20
1489.701055701369
 30
0.0
 11
2160.306934215292
 21
1489.701055701369
 31
0.0
  0
LINE
  5
1878
330
1F
100
AcDbEntity
  8
実形
100
AcDbLine
 10
2150.30693421529
 20
1308.701055701373
 30
0.0
 11
2160.306934215292
 21
1308.701055701373
 31
0.0
  0
ARC
  5
1879
330
1F
100
AcDbEntity
  8
実形
100
AcDbCircle
 10
2113.844118160516
 20
1539.20105570137
 30
0.0
 40
30.0
100
AcDbArc
 50
7.169362918618733
 51
90.0
  0
LINE
  5
187A
330
1F
100
AcDbEntity
  8
実形
100
AcDbLine
 10
2143.609565482691
 20
1542.945137125542
 30
0.0
 11
2150.306934215291
 21
1489.701055701369
 31
0.0
  0
LINE
  5
18CA
330
1F
100
AcDbEntity
  8
補助
100
AcDbLine
 10
2784.000000000001
 20
1829.0
 30
0.0
 11
2019.387286519283
 21
1829.0
 31
0.0
  0
LINE
  5
18CB
330
1F
100
AcDbEntity
  8
補助
100
AcDbLine
 10
2784.000000000001
 20
1959.0
 30
0.0
 11
2019.387286519283
 21
1959.0
 31
0.0
  0
LINE
  5
18CC
330
1F
100
AcDbEntity
  8
補助
100
AcDbLine
 10
2784.000000000001
 20
1894.0
 30
0.0
 11
2019.387286519283
 21
1894.0
 31
0.0
  0
LINE
  5
18CD
330
1F
100
AcDbEntity
  8
補助
100
AcDbLine
 10
2202.547653420927
 20
1829.0
 30
0.0
 11
2202.547653420927
 21
2024.0
 31
0.0
  0
LINE
  5
18CE
330
1F
100
AcDbEntity
  8
補助
100
AcDbLine
 10
2019.387286519283
 20
1829.0
 30
0.0
 11
2019.387286519283
 21
2024.0
 31
0.0
  0
TEXT
  5
18CF
330
1F
100
AcDbEntity
  8
実形
100
AcDbText
 10
2026.28495351493
 20
1845.557142857142
 30
0.0
 40
30.0
  1
ポケット
  7
明朝
 72
     4
 11
2114.056382086359
 21
1861.499999999999
 31
0.0
100
AcDbText
  0
TEXT
  5
18D0
330
1F
100
AcDbEntity
  8
補助
100
AcDbText
 10
2050.295698850121
 20
1976.328571428572
 30
0.0
 40
30.0
  1
部品名
  7
明朝
 72
     4
 11
2116.124270278692
 21
1991.5
 31
0.0
100
AcDbText
  0
TEXT
  5
18D1
330
1F
100
AcDbEntity
  8
実形
100
AcDbText
 10
2616.642857142858
 20
1846.842857142856
 30
0.0
 40
30.0
  1
3ｍｍ
  7
明朝
 72
     4
 11
2671.5
 21
1861.499999999999
 31
0.0
100
AcDbText
  0
TEXT
  5
18D2
330
1F
100
AcDbEntity
  8
補助
100
AcDbText
 10
2627.614285714287
 20
1976.071428571429
 30
0.0
 40
30.0
  1
厚さ
  7
明朝
 72
     4
 11
2671.5
 21
1991.5
 31
0.0
100
AcDbText
  0
LINE
  5
18D3
330
1F
100
AcDbEntity
  8
補助
100
AcDbLine
 10
2559.0
 20
1829.0
 30
0.0
 11
2559.000000000001
 21
2024.0
 31
0.0
  0
TEXT
  5
18D4
330
1F
100
AcDbEntity
  8
実形
100
AcDbText
 10
2282.959726250723
 20
1846.071428571428
 30
0.0
 40
30.0
  1
樹脂（PP）
  7
明朝
 72
     4
 11
2392.674011965008
 21
1861.499999999999
 31
0.0
100
AcDbText
  0
TEXT
  5
18D5
330
1F
100
AcDbEntity
  8
補助
100
AcDbText
 10
2338.490869919937
 20
1975.947979478154
 30
0.0
 40
30.0
  1
材質
  7
明朝
 72
     4
 11
2382.376584205651
 21
1991.119408049583
 31
0.0
100
AcDbText
  0
TEXT
  5
18D6
330
1F
100
AcDbEntity
  8
実形
100
AcDbText
 10
2048.227810657787
 20
1910.557142857143
 30
0.0
 40
30.0
  1
ボウル
  7
明朝
 72
     4
 11
2114.056382086359
 21
1926.5
 31
0.0
100
AcDbText
  0
TEXT
  5
18D7
330
1F
100
AcDbEntity
  8
実形
100
AcDbText
 10
2594.7
 20
1911.842857142856
 30
0.0
 40
30.0
  1
0.7ｍｍ
  7
明朝
 72
     4
 11
2671.5
 21
1926.5
 31
0.0
100
AcDbText
  0
TEXT
  5
18D8
330
1F
100
AcDbEntity
  8
実形
100
AcDbText
 10
2271.988297679294
 20
1910.728571428571
 30
0.0
 40
30.0
  1
SUS304（EB)
  7
明朝
 72
     4
 11
2392.674011965008
 21
1926.5
 31
0.0
100
AcDbText
  0
LINE
  5
18D9
330
1F
100
AcDbEntity
  8
補助
100
AcDbLine
 10
111.0
 20
2024.0
 30
0.0
 11
111.0
 21
4.0
 31
0.0
  0
VIEWPORT
  5
2E
102
{ACAD_XDICTIONARY
360
1909
102
}
330
1B
100
AcDbEntity
 67
     1
  8
0
100
AcDbViewport
 10
144.7270812988281
 20
101.2295806407928
 30
0.0
 40
411.6736216682419
 41
222.1517806396485
 68
     1
 69
     1
 12
144.7270812988281
 22
101.2295806407928
 13
0.0
 23
0.0
 14
10.0
 24
10.0
 15
10.0
 25
10.0
 16
0.0
 26
0.0
 36
1.0
 17
0.0
 27
0.0
 37
0.0
 42
50.0
 43
0.0
 44
0.0
 45
222.1517806396485
 50
0.0
 51
0.0
 72
   100
 90
    32800
  1

281
     0
 71
     1
 74
     0
110
0.0
120
0.0
130
0.0
111
1.0
121
0.0
131
0.0
112
0.0
122
1.0
132
0.0
 79
     0
146
0.0
  0
VIEWPORT
  5
30
102
{ACAD_XDICTIONARY
360
190B
102
}
330
1B
100
AcDbEntity
 67
     1
  8
0
100
AcDbViewport
 10
139.2237563133239
 20
101.2295821905136
 30
0.0
 40
222.7580101013184
 41
161.9673315048218
 68
     2
 69
     2
 12
210.0
 22
148.5
 13
0.0
 23
0.0
 14
10.0
 24
10.0
 15
10.0
 25
10.0
 16
0.0
 26
0.0
 36
1.0
 17
0.0
 27
0.0
 37
0.0
 42
50.0
 43
0.0
 44
0.0
 45
309.0686705647124
 50
0.0
 51
0.0
 72
   100
 90
    32864
  1

281
     0
 71
     1
 74
     0
110
0.0
120
0.0
130
0.0
111
1.0
121
0.0
131
0.0
112
0.0
122
1.0
132
0.0
 79
     0
146
0.0
  0
ENDSEC
  0
SECTION
  2
OBJECTS
  0
DICTIONARY
  5
C
330
0
100
AcDbDictionary
281
     1
  3
ACAD_COLOR
350
C13
  3
ACAD_GROUP
350
D
  3
ACAD_LAYOUT
350
1A
  3
ACAD_MATERIAL
350
C12
  3
ACAD_MLINESTYLE
350
17
  3
ACAD_PLOTSETTINGS
350
19
  3
ACAD_PLOTSTYLENAME
350
E
  3
ACAD_TABLESTYLE
350
C14
  3
AcadDim
350
5B1
  3
ACDBHEADERROUNDTRIPXREC
350
1902
  3
AcDbVariableDictionary
350
96D
  0
DICTIONARY
  5
DE1
330
2
100
AcDbDictionary
280
     1
281
     1
  3
ACAD_LAYERFILTERS
360
E0B
  3
ACAD_LAYERSTATES
360
DE2
  3
ACLYDICTIONARY
360
E0A
  0
DICTIONARY
  5
C47
330
1F
100
AcDbDictionary
280
     1
281
     1
  3
ACAD_SORTENTS
360
C48
  0
DICTIONARY
  5
DE5
330
DE3
100
AcDbDictionary
280
     1
281
     1
  3
ACAD_SORTENTS
360
DE6
  0
DICTIONARY
  5
10AA
330
1091
100
AcDbDictionary
280
     1
281
     1
  3
ACAD_SORTENTS
360
10AB
  0
DICTIONARY
  5
1909
330
2E
100
AcDbDictionary
280
     1
281
     1
  3
ACAD_XREC_ROUNDTRIP
360
190A
  0
DICTIONARY
  5
190B
330
30
100
AcDbDictionary
280
     1
281
     1
  3
ACAD_XREC_ROUNDTRIP
360
190C
  0
DICTIONARY
  5
C13
102
{ACAD_REACTORS
330
C
102
}
330
C
100
AcDbDictionary
281
     1
  0
DICTIONARY
  5
D
102
{ACAD_REACTORS
330
C
102
}
330
C
100
AcDbDictionary
281
     1
  0
DICTIONARY
  5
1A
102
{ACAD_REACTORS
330
C
102
}
330
C
100
AcDbDictionary
281
     1
  3
Model
350
22
  3
ﾚｲｱｳﾄ1
350
1E
  3
ﾚｲｱｳﾄ2
350
26
  0
DICTIONARY
  5
C12
102
{ACAD_REACTORS
330
C
102
}
330
C
100
AcDbDictionary
281
     1
  0
DICTIONARY
  5
17
102
{ACAD_REACTORS
330
C
102
}
330
C
100
AcDbDictionary
281
     1
  3
Standard
350
18
  0
DICTIONARY
  5
19
102
{ACAD_REACTORS
330
C
102
}
330
C
100
AcDbDictionary
281
     1
  0
ACDBDICTIONARYWDFLT
  5
E
102
{ACAD_REACTORS
330
C
102
}
330
C
100
AcDbDictionary
281
     1
  3
Normal
350
F
100
AcDbDictionaryWithDefault
340
F
  0
DICTIONARY
  5
C14
102
{ACAD_REACTORS
330
C
102
}
330
C
100
AcDbDictionary
281
     1
  3
Standard
350
C15
  0
XRECORD
  5
5B1
102
{ACAD_REACTORS
330
C
102
}
330
C
100
AcDbXrecord
280
     1
 90
   990106
  3

 60
     0
 61
     0
 62
     1
 63
     3
 64
     0
 65
     0
 66
     0
 67
     3
 68
     1
 69
     0
 70
     0
 71
     0
 72
     0
 40
5.637859010809637
170
     0
340
0
  0
DICTIONARY
  5
1902
102
{ACAD_REACTORS
330
C
102
}
330
C
100
AcDbDictionary
281
     1
  0
DICTIONARY
  5
96D
102
{ACAD_REACTORS
330
C
102
}
330
C
100
AcDbDictionary
281
     1
  3
CTABLESTYLE
350
C23
  3
DIMASSOC
350
18FF
  3
PROJECTNAME
350
1900
  3
SORTENTS
350
96E
  0
DICTIONARY
  5
E0B
102
{ACAD_REACTORS
330
DE1
102
}
330
DE1
100
AcDbDictionary
281
     1
  0
DICTIONARY
  5
DE2
102
{ACAD_REACTORS
330
DE1
102
}
330
DE1
100
AcDbDictionary
281
     1
  0
DICTIONARY
  5
E0A
102
{ACAD_REACTORS
330
DE1
102
}
330
DE1
100
AcDbDictionary
281
     1
1001
ACAD
1000
<All
  0
SORTENTSTABLE
  5
C48
102
{ACAD_REACTORS
330
C47
102
}
330
C47
100
AcDbSortentsTable
330
1F
331
F35
  5
FEC
331
5F4
  5
602
331
18D0
  5
18D1
331
CB2
  5
DC4
331
5FC
  5
A2F
331
18D8
  5
18D9
331
1260
  5
1266
331
105B
  5
11B0
331
FFC
  5
1009
331
1268
  5
126E
331
1004
  5
106A
331
1270
  5
1276
331
100C
  5
10B5
331
1278
  5
127E
331
3B2
  5
40B
331
304
  5
339
331
266
  5
304
331
373
  5
3E0
331
CDA
  5
EE7
331
5AD
  5
5FE
331
162D
  5
16C8
331
CEA
  5
F2D
331
1879
  5
187A
331
1280
  5
1286
331
1288
  5
137E
331
1251
  5
1257
331
1259
  5
125F
331
FED
  5
FFA
331
31C
  5
33A
331
540
  5
586
331
27E
  5
32C
331
32C
  5
33F
331
558
  5
5A1
331
334
  5
373
331
39B
  5
40A
331
40A
  5
4B4
331
560
  5
5B0
331
A2C
  5
C4C
331
F2E
  5
F91
331
F36
  5
FED
331
5F5
  5
603
331
18D1
  5
18D2
331
CB3
  5
E44
331
5FD
  5
A31
331
18D9
  5
A0
331
1261
  5
1267
331
105C
  5
11CE
331
FFD
  5
100A
331
1269
  5
126F
331
1005
  5
106B
331
1271
  5
1277
331
100D
  5
11AF
331
1279
  5
127F
331
33C
  5
3B2
331
568
  5
5F5
331
25F
  5
260
331
2A6
  5
32F
331
267
  5
31C
331
A0
  5
A5
331
CD3
  5
EDC
331
CEB
  5
F2E
331
EE7
  5
F33
331
187A
  5
18CA
331
1281
  5
1287
331
1289
  5
137F
331
1252
  5
1258
331
A8
  5
A9
331
FEE
  5
FFB
331
125A
  5
1260
331
14CF
  5
14D9
331
384
  5
3E4
331
3E3
  5
48E
331
32D
  5
340
331
335
  5
376
331
A2D
  5
CEB
331
F2F
  5
F93
331
18CA
  5
18CB
331
5F6
  5
96C
331
F37
  5
FF2
331
18D2
  5
18D3
331
5FE
  5
A34
331
1262
  5
1268
331
1597
  5
16B2
331
105D
  5
11DB
331
FFE
  5
100B
331
126A
  5
1270
331
11DB
  5
1254
331
1006
  5
10B0
331
1272
  5
1278
331
127A
  5
1280
331
260
  5
261
331
473
  5
53A
331
532
  5
55F
331
53A
  5
563
331
CBC
  5
E79
331
59F
  5
5F9
331
EE8
  5
F34
331
16DE
  5
1805
331
1805
  5
1806
331
1282
  5
1288
331
110C
  5
1251
331
1253
  5
1259
331
A9
  5
AA
331
270
  5
32B
331
14D0
  5
1597
331
FEF
  5
FFC
331
125B
  5
1261
331
3E4
  5
48F
331
55A
  5
5A9
331
32E
  5
341
331
562
  5
5D8
331
F28
  5
F35
331
F30
  5
F95
331
E79
  5
F31
331
5F7
  5
97A
331
F38
  5
FF4
331
18CB
  5
18CC
331
5FF
  5
A35
331
18D3
  5
18D4
331
FF7
  5
1005
331
1263
  5
1269
331
105E
  5
124F
331
FFF
  5
100E
331
126B
  5
1271
331
1273
  5
1279
331
298
  5
32E
331
127B
  5
1281
331
2F7
  5
335
331
33E
  5
3BF
331
56A
  5
5F6
331
261
  5
263
331
376
  5
3E3
331
533
  5
560
331
5A0
  5
5FA
331
CDD
  5
EE8
331
1806
  5
1807
331
1283
  5
1289
331
FE8
  5
FF5
331
1254
  5
125A
331
AA
  5
AB
331
125C
  5
1262
331
3DD
  5
41E
331
54B
  5
59F
331
32F
  5
370
331
40D
  5
52E
331
4B4
  5
54B
331
5D0
  5
5FF
331
F29
  5
F36
331
5D8
  5
601
331
C46
  5
384
331
F31
  5
FE8
331
C4E
  5
D94
331
5F8
  5
A29
331
18CC
  5
18CD
331
18D4
  5
18D5
331
FF0
  5
FFD
331
1264
  5
126A
331
12EA
  5
1446
331
126C
  5
1272
331
1067
  5
1250
331
1008
  5
10B1
331
1274
  5
127A
331
127C
  5
1282
331
33F
  5
3CC
331
262
  5
267
331
52C
  5
55C
331
53C
  5
565
331
600
  5
A3C
331
5A1
  5
5FB
331
5A9
  5
5FC
331
16C8
  5
16DE
331
1875
  5
1876
331
1807
  5
1808
331
1284
  5
12EA
331
FE9
  5
FF6
331
1255
  5
125B
331
AB
  5
AD
331
14D2
  5
16AF
331
125D
  5
1263
331
3DE
  5
44A
331
2E9
  5
334
331
330
  5
371
331
55C
  5
5AA
331
4B5
  5
54C
331
F2A
  5
F37
331
F32
  5
FE9
331
5F9
  5
A2C
331
18CD
  5
18CE
331
18D5
  5
18D6
331
FF1
  5
FFE
331
1866
  5
1867
331
16B1
  5
105B
331
FF9
  5
1006
331
1265
  5
126B
331
11CE
  5
1253
331
1001
  5
105E
331
126D
  5
1273
331
1009
  5
10B2
331
1275
  5
127B
331
127D
  5
1283
331
340
  5
3D9
331
41E
  5
537
331
56C
  5
5F7
331
263
  5
270
331
370
  5
3DD
331
3BF
  5
419
331
26B
  5
32A
331
53D
  5
568
331
9C
  5
9C
331
601
  5
A3D
331
DC4
  5
F2F
331
5AA
  5
5FD
331
1876
  5
1877
331
1808
  5
1866
331
1285
  5
133D
331
FEA
  5
FF7
331
1256
  5
125C
331
125E
  5
1264
331
3DF
  5
464
331
28B
  5
32D
331
48E
  5
53D
331
331
  5
372
331
407
  5
492
331
55D
  5
5AD
331
565
  5
5F4
331
5D2
  5
600
331
A29
  5
C46
331
F2B
  5
F38
331
F33
  5
FEA
331
C50
  5
4B5
331
E44
  5
F30
331
5FA
  5
A2D
331
18CE
  5
18CF
331
18D6
  5
18D7
331
FF2
  5
FFF
331
1867
  5
1868
331
16B2
  5
100F
331
FFA
  5
1008
331
1266
  5
126C
331
126E
  5
1274
331
100A
  5
10B3
331
1276
  5
127C
331
127E
  5
1284
331
339
  5
39A
331
341
  5
3DA
331
264
  5
27E
331
2B3
  5
330
331
371
  5
3DE
331
52E
  5
55D
331
A5
  5
A8
331
602
  5
A3F
331
EDC
  5
F32
331
CE8
  5
F28
331
1877
  5
1878
331
1286
  5
137C
331
124F
  5
1255
331
FEB
  5
FF8
331
1257
  5
125D
331
125F
  5
1265
331
AD
  5
25F
331
3E0
  5
473
331
32A
  5
33C
331
54E
  5
5A0
331
4AF
  5
53F
331
F2C
  5
F8F
331
F34
  5
FEB
331
CB1
  5
D95
331
5FB
  5
A2E
331
18CF
  5
18D0
331
18D7
  5
18D8
331
FF3
  5
1003
331
1267
  5
126D
331
1003
  5
1067
331
126F
  5
1275
331
100B
  5
10B4
331
1277
  5
127D
331
127F
  5
1285
331
33A
  5
39B
331
50F
  5
55A
331
265
  5
2A6
331
372
  5
3DF
331
586
  5
5F8
331
537
  5
562
331
53F
  5
56C
331
603
  5
A48
331
1868
  5
1875
331
CE9
  5
F29
331
1878
  5
1879
331
1287
  5
137D
331
1250
  5
1256
331
133D
  5
14D6
331
1119
  5
1252
331
FEC
  5
FF9
331
1258
  5
125E
331
14D5
  5
16B1
331
480
  5
53C
331
2DC
  5
331
331
32B
  5
33E
331
39A
  5
407
331
4B0
  5
540
331
55F
  5
5AE
331
F2D
  5
F90
  0
SORTENTSTABLE
  5
DE6
102
{ACAD_REACTORS
330
DE5
102
}
330
DE5
100
AcDbSortentsTable
330
DE3
  0
SORTENTSTABLE
  5
10AB
102
{ACAD_REACTORS
330
10AA
102
}
330
10AA
100
AcDbSortentsTable
330
1091
  0
XRECORD
  5
190A
102
{ACAD_REACTORS
330
1909
102
}
330
1909
100
AcDbXrecord
280
     1
102
SHADEPLOT
 70
     0
  0
XRECORD
  5
190C
102
{ACAD_REACTORS
330
190B
102
}
330
190B
100
AcDbXrecord
280
     1
102
SHADEPLOT
 70
     0
  0
LAYOUT
  5
22
102
{ACAD_XDICTIONARY
360
1905
102
}
102
{ACAD_REACTORS
330
1A
102
}
330
1A
100
AcDbPlotSettings
  1

  2
EPSON PM-800C
  4
A4
  6

 40
3.757083177566528
 41
14.7637300491333
 42
3.757080078125
 43
3.757080078125
 44
209.9733276367187
 45
296.9683227539062
 46
0.0
 47
0.0
 48
0.0
 49
0.0
140
0.0
141
0.0
142
1.0
143
10.0
 70
 11952
 72
     1
 73
     1
 74
     2
  7

 75
    20
147
0.1
148
0.0
149
0.0
100
AcDbLayout
  1
Model
 70
     1
 71
     0
 10
0.0
 20
0.0
 11
12.0
 21
9.0
 12
0.0
 22
0.0
 32
0.0
 14
0.0
 24
0.0
 34
0.0
 15
0.0
 25
0.0
 35
0.0
146
0.0
 13
0.0
 23
0.0
 33
0.0
 16
1.0
 26
0.0
 36
0.0
 17
0.0
 27
1.0
 37
0.0
 76
     0
330
1F
  0
LAYOUT
  5
1E
102
{ACAD_XDICTIONARY
360
1903
102
}
102
{ACAD_REACTORS
330
1A
102
}
330
1A
100
AcDbPlotSettings
  1

  2
EPSON PM-800C
  4
A4
  6

 40
3.757083177566528
 41
14.7637300491333
 42
3.757080078125
 43
3.757080078125
 44
209.9733276367187
 45
296.9683227539062
 46
0.0
 47
0.0
 48
0.0
 49
0.0
140
0.0
141
0.0
142
1.0
143
1.0
 70
   688
 72
     1
 73
     1
 74
     5
  7

 75
    16
147
1.0
148
0.0
149
0.0
100
AcDbLayout
  1
ﾚｲｱｳﾄ1
 70
     1
 71
     1
 10
-3.757080078125
 20
-3.757083177566528
 11
293.2112426757813
 21
206.2162444591522
 12
0.0
 22
0.0
 32
0.0
 14
27.8447512626648
 24
20.24591643810271
 34
0.0
 15
250.6027613639831
 25
182.2132479429245
 35
0.0
146
0.0
 13
0.0
 23
0.0
 33
0.0
 16
1.0
 26
0.0
 36
0.0
 17
0.0
 27
1.0
 37
0.0
 76
     0
330
1B
331
2E
  0
LAYOUT
  5
26
102
{ACAD_XDICTIONARY
360
1907
102
}
102
{ACAD_REACTORS
330
1A
102
}
330
1A
100
AcDbPlotSettings
  1

  2
EPSON PM-800C
  4

  6

 40
0.0
 41
0.0
 42
0.0
 43
0.0
 44
0.0
 45
0.0
 46
0.0
 47
0.0
 48
0.0
 49
0.0
140
0.0
141
0.0
142
1.0
143
1.0
 70
   688
 72
     0
 73
     0
 74
     5
  7

 75
    16
147
1.0
148
0.0
149
0.0
100
AcDbLayout
  1
ﾚｲｱｳﾄ2
 70
     1
 71
     2
 10
0.0
 20
0.0
 11
12.0
 21
9.0
 12
0.0
 22
0.0
 32
0.0
 14
0.0
 24
0.0
 34
0.0
 15
0.0
 25
0.0
 35
0.0
146
0.0
 13
0.0
 23
0.0
 33
0.0
 16
1.0
 26
0.0
 36
0.0
 17
0.0
 27
1.0
 37
0.0
 76
     0
330
23
  0
MLINESTYLE
  5
18
102
{ACAD_REACTORS
330
17
102
}
330
17
100
AcDbMlineStyle
  2
STANDARD
 70
     0
  3

 62
   256
 51
90.0
 52
90.0
 71
     2
 49
0.5
 62
   256
  6
BYLAYER
 49
-0.5
 62
   256
  6
BYLAYER
  0
ACDBPLACEHOLDER
  5
F
102
{ACAD_REACTORS
330
E
102
}
330
E
  0
TABLESTYLE
  5
C15
102
{ACAD_REACTORS
330
C14
102
}
330
C14
100
AcDbTableStyle
  3
Standard
 70
     0
 71
     0
 40
1.5
 41
1.5
280
     0
281
     0
  7
Standard
140
4.5
170
     2
 62
     0
 63
     7
283
     0
274
    -2
284
     1
 64
     0
275
    -2
285
     1
 65
     0
276
    -2
286
     1
 66
     0
277
    -2
287
     1
 67
     0
278
    -2
288
     1
 68
     0
279
    -2
289
     1
 69
     0
  7
Standard
140
6.0
170
     5
 62
     0
 63
     7
283
     0
274
    -2
284
     1
 64
     0
275
    -2
285
     1
 65
     0
276
    -2
286
     1
 66
     0
277
    -2
287
     1
 67
     0
278
    -2
288
     1
 68
     0
279
    -2
289
     1
 69
     0
  7
Standard
140
4.5
170
     5
 62
     0
 63
     7
283
     0
274
    -2
284
     1
 64
     0
275
    -2
285
     1
 65
     0
276
    -2
286
     1
 66
     0
277
    -2
287
     1
 67
     0
278
    -2
288
     1
 68
     0
279
    -2
289
     1
 69
     0
  0
DICTIONARYVAR
  5
C23
102
{ACAD_REACTORS
330
96D
102
}
330
96D
100
DictionaryVariables
280
     0
  1
STANDARD
  0
DICTIONARYVAR
  5
18FF
102
{ACAD_REACTORS
330
96D
102
}
330
96D
100
DictionaryVariables
280
     0
  1
1
  0
DICTIONARYVAR
  5
1900
102
{ACAD_REACTORS
330
96D
102
}
330
96D
100
DictionaryVariables
280
     0
  1

  0
DICTIONARYVAR
  5
96E
102
{ACAD_REACTORS
330
96D
102
}
330
96D
100
DictionaryVariables
280
     0
  1
96
  0
DICTIONARY
  5
1905
330
22
100
AcDbDictionary
280
     1
281
     1
  3
ACAD_XREC_ROUNDTRIP
360
1906
  0
DICTIONARY
  5
1903
330
1E
100
AcDbDictionary
280
     1
281
     1
  3
ACAD_XREC_ROUNDTRIP
360
1904
  0
DICTIONARY
  5
1907
330
26
100
AcDbDictionary
280
     1
281
     1
  3
ACAD_XREC_ROUNDTRIP
360
1908
  0
XRECORD
  5
1906
102
{ACAD_REACTORS
330
1905
102
}
330
1905
100
AcDbXrecord
280
     1
102
SHADEPLOT
 70
     0
102
SHADEPLOTRESLEVEL
 70
     2
102
SHADEPLOTCUSTOMDPI
 70
   300
  0
XRECORD
  5
1904
102
{ACAD_REACTORS
330
1903
102
}
330
1903
100
AcDbXrecord
280
     1
102
SHADEPLOT
 70
     0
102
SHADEPLOTRESLEVEL
 70
     2
102
SHADEPLOTCUSTOMDPI
 70
   300
  0
XRECORD
  5
1908
102
{ACAD_REACTORS
330
1907
102
}
330
1907
100
AcDbXrecord
280
     1
102
SHADEPLOT
 70
     0
102
SHADEPLOTRESLEVEL
 70
     2
102
SHADEPLOTCUSTOMDPI
 70
   300
  0
ENDSEC
  0
EOF
