  0
SECTION
  2
HEADER
  9
$ACADVER
  1
AC1015
  9
$ACADMAINTVER
 70
    20
  9
$DWGCODEPAGE
  3
ANSI_932
  9
$INSBASE
 10
0.0
 20
0.0
 30
0.0
  9
$EXTMIN
 10
111.0
 20
4.0
 30
0.0
  9
$EXTMAX
 10
2784.000000000001
 20
2024.0
 30
0.0
  9
$LIMMIN
 10
0.0
 20
0.0
  9
$LIMMAX
 10
29700.0
 20
21000.0
  9
$ORTHOMODE
 70
     1
  9
$REGENMODE
 70
     1
  9
$FILLMODE
 70
     1
  9
$QTEXTMODE
 70
     0
  9
$MIRRTEXT
 70
     1
  9
$LTSCALE
 40
4.0
  9
$ATTMODE
 70
     1
  9
$TEXTSIZE
 40
35.0
  9
$TRACEWID
 40
1.0
  9
$TEXTSTYLE
  7
Standard
  9
$CLAYER
  8
実形
  9
$CELTYPE
  6
ByLayer
  9
$CECOLOR
 62
   256
  9
$CELTSCALE
 40
1.0
  9
$DISPSILH
 70
     0
  9
$DIMSCALE
 40
1.0
  9
$DIMASZ
 40
30.0
  9
$DIMEXO
 40
65.0
  9
$DIMDLI
 40
3.75
  9
$DIMRND
 40
0.0
  9
$DIMDLE
 40
0.0
  9
$DIMEXE
 40
0.0
  9
$DIMTP
 40
0.0
  9
$DIMTM
 40
0.0
  9
$DIMTXT
 40
25.0
  9
$DIMCEN
 40
2.5
  9
$DIMTSZ
 40
0.0
  9
$DIMTOL
 70
     0
  9
$DIMLIM
 70
     0
  9
$DIMTIH
 70
     0
  9
$DIMTOH
 70
     0
  9
$DIMSE1
 70
     0
  9
$DIMSE2
 70
     0
  9
$DIMTAD
 70
     1
  9
$DIMZIN
 70
     8
  9
$DIMBLK
  1
DotSmall
  9
$DIMASO
 70
     1
  9
$DIMSHO
 70
     1
  9
$DIMPOST
  1

  9
$DIMAPOST
  1

  9
$DIMALT
 70
     0
  9
$DIMALTD
 70
     3
  9
$DIMALTF
 40
0.03937007874016
  9
$DIMLFAC
 40
1.0
  9
$DIMTOFL
 70
     1
  9
$DIMTVP
 40
0.0
  9
$DIMTIX
 70
     0
  9
$DIMSOXD
 70
     0
  9
$DIMSAH
 70
     0
  9
$DIMBLK1
  1

  9
$DIMBLK2
  1

  9
$DIMSTYLE
  2
ISO-25
  9
$DIMCLRD
 70
     0
  9
$DIMCLRE
 70
     0
  9
$DIMCLRT
 70
     0
  9
$DIMTFAC
 40
1.0
  9
$DIMGAP
 40
6.25
  9
$DIMJUST
 70
     0
  9
$DIMSD1
 70
     0
  9
$DIMSD2
 70
     0
  9
$DIMTOLJ
 70
     0
  9
$DIMTZIN
 70
     8
  9
$DIMALTZ
 70
     0
  9
$DIMALTTZ
 70
     0
  9
$DIMUPT
 70
     0
  9
$DIMDEC
 70
     2
  9
$DIMTDEC
 70
     2
  9
$DIMALTU
 70
     2
  9
$DIMALTTD
 70
     3
  9
$DIMTXSTY
  7
Standard
  9
$DIMAUNIT
 70
     0
  9
$DIMADEC
 70
     0
  9
$DIMALTRND
 40
0.0
  9
$DIMAZIN
 70
     0
  9
$DIMDSEP
 70
    46
  9
$DIMATFIT
 70
     3
  9
$DIMFRAC
 70
     0
  9
$DIMLDRBLK
  1
Open30
  9
$DIMLUNIT
 70
     2
  9
$DIMLWD
 70
    15
  9
$DIMLWE
 70
    15
  9
$DIMTMOVE
 70
     1
  9
$LUNITS
 70
     2
  9
$LUPREC
 70
     2
  9
$SKETCHINC
 40
1.0
  9
$FILLETRAD
 40
3.0
  9
$AUNITS
 70
     0
  9
$AUPREC
 70
     0
  9
$MENU
  1
.
  9
$ELEVATION
 40
0.0
  9
$PELEVATION
 40
0.0
  9
$THICKNESS
 40
0.0
  9
$LIMCHECK
 70
     1
  9
$CHAMFERA
 40
10.0
  9
$CHAMFERB
 40
10.0
  9
$CHAMFERC
 40
20.0
  9
$CHAMFERD
 40
0.0
  9
$SKPOLY
 70
     0
  9
$TDCREATE
 40
2451673.575802199
  9
$TDUCREATE
 40
2451673.200802199
  9
$TDUPDATE
 40
2458803.749814144
  9
$TDUUPDATE
 40
2458803.374814144
  9
$TDINDWG
 40
1.2460430093
  9
$TDUSRTIMER
 40
1.2460423148
  9
$USRTIMER
 70
     1
  9
$ANGBASE
 50
0.0
  9
$ANGDIR
 70
     0
  9
$PDMODE
 70
     0
  9
$PDSIZE
 40
0.0
  9
$PLINEWID
 40
0.0
  9
$SPLFRAME
 70
     0
  9
$SPLINETYPE
 70
     6
  9
$SPLINESEGS
 70
     8
  9
$HANDSEED
  5
253B
  9
$SURFTAB1
 70
     6
  9
$SURFTAB2
 70
     6
  9
$SURFTYPE
 70
     6
  9
$SURFU
 70
     6
  9
$SURFV
 70
     6
  9
$UCSBASE
  2

  9
$UCSNAME
  2

  9
$UCSORG
 10
0.0
 20
0.0
 30
0.0
  9
$UCSXDIR
 10
1.0
 20
0.0
 30
0.0
  9
$UCSYDIR
 10
0.0
 20
1.0
 30
0.0
  9
$UCSORTHOREF
  2

  9
$UCSORTHOVIEW
 70
     0
  9
$UCSORGTOP
 10
0.0
 20
0.0
 30
0.0
  9
$UCSORGBOTTOM
 10
0.0
 20
0.0
 30
0.0
  9
$UCSORGLEFT
 10
0.0
 20
0.0
 30
0.0
  9
$UCSORGRIGHT
 10
0.0
 20
0.0
 30
0.0
  9
$UCSORGFRONT
 10
0.0
 20
0.0
 30
0.0
  9
$UCSORGBACK
 10
0.0
 20
0.0
 30
0.0
  9
$PUCSBASE
  2

  9
$PUCSNAME
  2

  9
$PUCSORG
 10
0.0
 20
0.0
 30
0.0
  9
$PUCSXDIR
 10
1.0
 20
0.0
 30
0.0
  9
$PUCSYDIR
 10
0.0
 20
1.0
 30
0.0
  9
$PUCSORTHOREF
  2

  9
$PUCSORTHOVIEW
 70
     0
  9
$PUCSORGTOP
 10
0.0
 20
0.0
 30
0.0
  9
$PUCSORGBOTTOM
 10
0.0
 20
0.0
 30
0.0
  9
$PUCSORGLEFT
 10
0.0
 20
0.0
 30
0.0
  9
$PUCSORGRIGHT
 10
0.0
 20
0.0
 30
0.0
  9
$PUCSORGFRONT
 10
0.0
 20
0.0
 30
0.0
  9
$PUCSORGBACK
 10
0.0
 20
0.0
 30
0.0
  9
$USERI1
 70
     0
  9
$USERI2
 70
     0
  9
$USERI3
 70
     0
  9
$USERI4
 70
     0
  9
$USERI5
 70
     0
  9
$USERR1
 40
0.0
  9
$USERR2
 40
0.0
  9
$USERR3
 40
0.0
  9
$USERR4
 40
0.0
  9
$USERR5
 40
0.0
  9
$WORLDVIEW
 70
     1
  9
$SHADEDGE
 70
     3
  9
$SHADEDIF
 70
    70
  9
$TILEMODE
 70
     1
  9
$MAXACTVP
 70
    64
  9
$PINSBASE
 10
0.0
 20
0.0
 30
0.0
  9
$PLIMCHECK
 70
     0
  9
$PEXTMIN
 10
27.8447512626648
 20
20.24591643810271
 30
0.0
  9
$PEXTMAX
 10
250.6027613639831
 20
182.2132479429245
 30
0.0
  9
$PLIMMIN
 10
-3.757080078125
 20
-3.757083177566528
  9
$PLIMMAX
 10
293.2112426757813
 20
206.2162444591522
  9
$UNITMODE
 70
     0
  9
$VISRETAIN
 70
     1
  9
$PLINEGEN
 70
     0
  9
$PSLTSCALE
 70
     1
  9
$TREEDEPTH
 70
  3020
  9
$CMLSTYLE
  2
Standard
  9
$CMLJUST
 70
     0
  9
$CMLSCALE
 40
20.0
  9
$PROXYGRAPHICS
 70
     1
  9
$MEASUREMENT
 70
     1
  9
$CELWEIGHT
370
    -1
  9
$ENDCAPS
280
     0
  9
$JOINSTYLE
280
     0
  9
$LWDISPLAY
290
     0
  9
$INSUNITS
 70
     4
  9
$HYPERLINKBASE
  1

  9
$STYLESHEET
  1

  9
$XEDIT
290
     1
  9
$CEPSNTYPE
380
     0
  9
$PSTYLEMODE
290
     1
  9
$FINGERPRINTGUID
  2
{C8EA1F16-24C9-11D4-9416-CE0A3B32152F}
  9
$VERSIONGUID
  2
{A8B5E178-B02C-4242-AC7E-0CFFB0FEA1BD}
  9
$EXTNAMES
290
     1
  9
$PSVPSCALE
 40
0.0
  9
$OLESTARTUP
290
     0
  0
ENDSEC
  0
SECTION
  2
CLASSES
  0
CLASS
  1
ACDBDICTIONARYWDFLT
  2
AcDbDictionaryWithDefault
  3
ObjectDBX Classes
 90
        0
280
     0
281
     0
  0
CLASS
  1
ACDBPLACEHOLDER
  2
AcDbPlaceHolder
  3
ObjectDBX Classes
 90
        0
280
     0
281
     0
  0
CLASS
  1
LAYOUT
  2
AcDbLayout
  3
ObjectDBX Classes
 90
        0
280
     0
281
     0
  0
CLASS
  1
DICTIONARYVAR
  2
AcDbDictionaryVar
  3
ObjectDBX Classes
 90
        0
280
     0
281
     0
  0
CLASS
  1
TABLESTYLE
  2
AcDbTableStyle
  3
ObjectDBX Classes
 90
     2047
280
     0
281
     0
  0
CLASS
  1
SORTENTSTABLE
  2
AcDbSortentsTable
  3
ObjectDBX Classes
 90
        0
280
     0
281
     0
  0
ENDSEC
  0
SECTION
  2
TABLES
  0
TABLE
  2
VPORT
  5
8
330
0
100
AcDbSymbolTable
 70
     2
  0
VPORT
  5
252F
330
8
100
AcDbSymbolTableRecord
100
AcDbViewportTableRecord
  2
*Active
 70
     0
 10
0.0
 20
0.0
 11
1.0
 21
1.0
 12
1399.920849336826
 22
1021.690377344977
 13
0.0
 23
0.0
 14
10.0
 24
10.0
 15
10.0
 25
10.0
 16
0.0
 26
0.0
 36
1.0
 17
0.0
 27
0.0
 37
0.0
 40
2225.52834503669
 41
1.29038112522686
 42
50.0
 43
0.0
 44
0.0
 50
0.0
 51
0.0
 71
     0
 72
   100
 73
     1
 74
     3
 75
     0
 76
     0
 77
     0
 78
     0
281
     0
 65
     1
110
0.0
120
0.0
130
0.0
111
1.0
121
0.0
131
0.0
112
0.0
122
1.0
132
0.0
 79
     0
146
0.0
  0
ENDTAB
  0
TABLE
  2
LTYPE
  5
5
330
0
100
AcDbSymbolTable
 70
    46
  0
LTYPE
  5
14
330
5
100
AcDbSymbolTableRecord
100
AcDbLinetypeTableRecord
  2
ByBlock
 70
     0
  3

 72
    65
 73
     0
 40
0.0
  0
LTYPE
  5
15
330
5
100
AcDbSymbolTableRecord
100
AcDbLinetypeTableRecord
  2
ByLayer
 70
     0
  3

 72
    65
 73
     0
 40
0.0
  0
LTYPE
  5
16
330
5
100
AcDbSymbolTableRecord
100
AcDbLinetypeTableRecord
  2
Continuous
 70
     0
  3
Solid line
 72
    65
 73
     0
 40
0.0
  0
LTYPE
  5
34
330
5
100
AcDbSymbolTableRecord
100
AcDbLinetypeTableRecord
  2
ACAD_ISO02W100
 70
     0
  3
ISO dash __ __ __ __ __ __ __ __ __ __ __ __ __
 72
    65
 73
     2
 40
15.0
 49
12.0
 74
     0
 49
-3.0
 74
     0
  0
LTYPE
  5
35
330
5
100
AcDbSymbolTableRecord
100
AcDbLinetypeTableRecord
  2
ACAD_ISO03W100
 70
     0
  3
ISO dash space __    __    __    __    __    __
 72
    65
 73
     2
 40
30.0
 49
12.0
 74
     0
 49
-18.0
 74
     0
  0
LTYPE
  5
36
330
5
100
AcDbSymbolTableRecord
100
AcDbLinetypeTableRecord
  2
ACAD_ISO04W100
 70
     0
  3
ISO long-dash dot ____ . ____ . ____ . ____ . _
 72
    65
 73
     4
 40
30.0
 49
24.0
 74
     0
 49
-3.0
 74
     0
 49
0.0
 74
     0
 49
-3.0
 74
     0
  0
LTYPE
  5
37
330
5
100
AcDbSymbolTableRecord
100
AcDbLinetypeTableRecord
  2
ACAD_ISO05W100
 70
     0
  3
ISO long-dash double-dot ____ .. ____ .. ____ .
 72
    65
 73
     6
 40
34.0
 49
24.0
 74
     0
 49
-3.0
 74
     0
 49
0.5
 74
     0
 49
-3.0
 74
     0
 49
0.5
 74
     0
 49
-3.0
 74
     0
  0
LTYPE
  5
38
330
5
100
AcDbSymbolTableRecord
100
AcDbLinetypeTableRecord
  2
ACAD_ISO06W100
 70
     0
  3
ISO long-dash triple-dot ____ ... ____ ... ____
 72
    65
 73
     8
 40
37.5
 49
24.0
 74
     0
 49
-3.0
 74
     0
 49
0.5
 74
     0
 49
-3.0
 74
     0
 49
0.5
 74
     0
 49
-3.0
 74
     0
 49
0.5
 74
     0
 49
-3.0
 74
     0
  0
LTYPE
  5
39
330
5
100
AcDbSymbolTableRecord
100
AcDbLinetypeTableRecord
  2
ACAD_ISO07W100
 70
     0
  3
ISO dot . . . . . . . . . . . . . . . . . . . .
 72
    65
 73
     2
 40
3.0
 49
0.0
 74
     0
 49
-3.0
 74
     0
  0
LTYPE
  5
3A
330
5
100
AcDbSymbolTableRecord
100
AcDbLinetypeTableRecord
  2
ACAD_ISO08W100
 70
     0
  3
ISO long-dash short-dash ____ __ ____ __ ____ _
 72
    65
 73
     4
 40
36.0
 49
24.0
 74
     0
 49
-3.0
 74
     0
 49
6.0
 74
     0
 49
-3.0
 74
     0
  0
LTYPE
  5
3B
330
5
100
AcDbSymbolTableRecord
100
AcDbLinetypeTableRecord
  2
ACAD_ISO09W100
 70
     0
  3
ISO long-dash double-short-dash ____ __ __ ____
 72
    65
 73
     6
 40
45.0
 49
24.0
 74
     0
 49
-3.0
 74
     0
 49
6.0
 74
     0
 49
-3.0
 74
     0
 49
6.0
 74
     0
 49
-3.0
 74
     0
  0
LTYPE
  5
3C
330
5
100
AcDbSymbolTableRecord
100
AcDbLinetypeTableRecord
  2
ACAD_ISO10W100
 70
     0
  3
ISO dash dot __ . __ . __ . __ . __ . __ . __ .
 72
    65
 73
     4
 40
18.0
 49
12.0
 74
     0
 49
-3.0
 74
     0
 49
0.0
 74
     0
 49
-3.0
 74
     0
  0
LTYPE
  5
3D
330
5
100
AcDbSymbolTableRecord
100
AcDbLinetypeTableRecord
  2
ACAD_ISO11W100
 70
     0
  3
ISO double-dash dot __ __ . __ __ . __ __ . __ 
 72
    65
 73
     6
 40
33.0
 49
12.0
 74
     0
 49
-3.0
 74
     0
 49
12.0
 74
     0
 49
-3.0
 74
     0
 49
0.0
 74
     0
 49
-3.0
 74
     0
  0
LTYPE
  5
3E
330
5
100
AcDbSymbolTableRecord
100
AcDbLinetypeTableRecord
  2
ACAD_ISO12W100
 70
     0
  3
ISO dash double-dot __ . . __ . . __ . . __ . .
 72
    65
 73
     6
 40
21.0
 49
12.0
 74
     0
 49
-3.0
 74
     0
 49
0.0
 74
     0
 49
-3.0
 74
     0
 49
0.0
 74
     0
 49
-3.0
 74
     0
  0
LTYPE
  5
3F
330
5
100
AcDbSymbolTableRecord
100
AcDbLinetypeTableRecord
  2
ACAD_ISO13W100
 70
     0
  3
ISO double-dash double-dot __ __ . . __ __ . . 
 72
    65
 73
     8
 40
36.0
 49
12.0
 74
     0
 49
-3.0
 74
     0
 49
12.0
 74
     0
 49
-3.0
 74
     0
 49
0.0
 74
     0
 49
-3.0
 74
     0
 49
0.0
 74
     0
 49
-3.0
 74
     0
  0
LTYPE
  5
40
330
5
100
AcDbSymbolTableRecord
100
AcDbLinetypeTableRecord
  2
ACAD_ISO14W100
 70
     0
  3
ISO dash triple-dot __ . . . __ . . . __ . . . 
 72
    65
 73
     8
 40
24.0
 49
12.0
 74
     0
 49
-3.0
 74
     0
 49
0.0
 74
     0
 49
-3.0
 74
     0
 49
0.0
 74
     0
 49
-3.0
 74
     0
 49
0.0
 74
     0
 49
-3.0
 74
     0
  0
LTYPE
  5
41
330
5
100
AcDbSymbolTableRecord
100
AcDbLinetypeTableRecord
  2
ACAD_ISO15W100
 70
     0
  3
ISO double-dash triple-dot __ __ . . . __ __ . 
 72
    65
 73
    10
 40
39.0
 49
12.0
 74
     0
 49
-3.0
 74
     0
 49
12.0
 74
     0
 49
-3.0
 74
     0
 49
0.0
 74
     0
 49
-3.0
 74
     0
 49
0.0
 74
     0
 49
-3.0
 74
     0
 49
0.0
 74
     0
 49
-3.0
 74
     0
  0
LTYPE
  5
42
330
5
100
AcDbSymbolTableRecord
100
AcDbLinetypeTableRecord
  2
BATTING
 70
     0
  3
Batting SSSSSSSSSSSSSSSSSSSSSSSSSSSSSSSSSSSSSSS
 72
    65
 73
     4
 40
10.16254
 49
0.00254
 74
     0
 49
-2.54
 74
     4
 75
   134
340
33
 46
2.54
 50
0.0
 44
-2.54
 45
0.0
 49
-5.08
 74
     4
 75
   134
340
33
 46
2.54
 50
180.0
 44
2.54
 45
0.0
 49
-2.54
 74
     0
  0
LTYPE
  5
43
330
5
100
AcDbSymbolTableRecord
100
AcDbLinetypeTableRecord
  2
BORDER
 70
     0
  3
Border __ __ . __ __ . __ __ . __ __ . __ __ .
 72
    65
 73
     6
 40
44.45
 49
12.7
 74
     0
 49
-6.349999999999999
 74
     0
 49
12.7
 74
     0
 49
-6.349999999999999
 74
     0
 49
0.0
 74
     0
 49
-6.349999999999999
 74
     0
  0
LTYPE
  5
44
330
5
100
AcDbSymbolTableRecord
100
AcDbLinetypeTableRecord
  2
BORDER2
 70
     0
  3
Border (.5x) __.__.__.__.__.__.__.__.__.__.__.
 72
    65
 73
     6
 40
22.225
 49
6.349999999999999
 74
     0
 49
-3.174999999999999
 74
     0
 49
6.349999999999999
 74
     0
 49
-3.174999999999999
 74
     0
 49
0.0
 74
     0
 49
-3.174999999999999
 74
     0
  0
LTYPE
  5
45
330
5
100
AcDbSymbolTableRecord
100
AcDbLinetypeTableRecord
  2
BORDERX2
 70
     0
  3
Border (2x) ____  ____  .  ____  ____  .  ___
 72
    65
 73
     6
 40
88.9
 49
25.4
 74
     0
 49
-12.7
 74
     0
 49
25.4
 74
     0
 49
-12.7
 74
     0
 49
0.0
 74
     0
 49
-12.7
 74
     0
  0
LTYPE
  5
46
330
5
100
AcDbSymbolTableRecord
100
AcDbLinetypeTableRecord
  2
CENTER
 70
     0
  3
Center ____ _ ____ _ ____ _ ____ _ ____ _ ____
 72
    65
 73
     4
 40
50.8
 49
31.75
 74
     0
 49
-6.349999999999999
 74
     0
 49
6.349999999999999
 74
     0
 49
-6.349999999999999
 74
     0
  0
LTYPE
  5
47
330
5
100
AcDbSymbolTableRecord
100
AcDbLinetypeTableRecord
  2
CENTER2
 70
     0
  3
Center (.5x) ___ _ ___ _ ___ _ ___ _ ___ _ ___
 72
    65
 73
     4
 40
28.575
 49
19.05
 74
     0
 49
-3.174999999999999
 74
     0
 49
3.174999999999999
 74
     0
 49
-3.174999999999999
 74
     0
  0
LTYPE
  5
48
330
5
100
AcDbSymbolTableRecord
100
AcDbLinetypeTableRecord
  2
CENTERX2
 70
     0
  3
Center (2x) ________  __  ________  __  _____
 72
    65
 73
     4
 40
101.6
 49
63.5
 74
     0
 49
-12.7
 74
     0
 49
12.7
 74
     0
 49
-12.7
 74
     0
  0
LTYPE
  5
49
330
5
100
AcDbSymbolTableRecord
100
AcDbLinetypeTableRecord
  2
DASHDOT
 70
     0
  3
Dash dot __ . __ . __ . __ . __ . __ . __ . __
 72
    65
 73
     4
 40
25.4
 49
12.7
 74
     0
 49
-6.349999999999999
 74
     0
 49
0.0
 74
     0
 49
-6.349999999999999
 74
     0
  0
LTYPE
  5
4A
330
5
100
AcDbSymbolTableRecord
100
AcDbLinetypeTableRecord
  2
DASHDOT2
 70
     0
  3
Dash dot (.5x) _._._._._._._._._._._._._._._.
 72
    65
 73
     4
 40
12.7
 49
6.349999999999999
 74
     0
 49
-3.174999999999999
 74
     0
 49
0.0
 74
     0
 49
-3.174999999999999
 74
     0
  0
LTYPE
  5
4B
330
5
100
AcDbSymbolTableRecord
100
AcDbLinetypeTableRecord
  2
DASHDOTX2
 70
     0
  3
Dash dot (2x) ____  .  ____  .  ____  .  ___
 72
    65
 73
     4
 40
50.8
 49
25.4
 74
     0
 49
-12.7
 74
     0
 49
0.0
 74
     0
 49
-12.7
 74
     0
  0
LTYPE
  5
4C
330
5
100
AcDbSymbolTableRecord
100
AcDbLinetypeTableRecord
  2
DASHED
 70
     0
  3
Dashed __ __ __ __ __ __ __ __ __ __ __ __ __ _
 72
    65
 73
     2
 40
19.05
 49
12.7
 74
     0
 49
-6.349999999999999
 74
     0
  0
LTYPE
  5
4D
330
5
100
AcDbSymbolTableRecord
100
AcDbLinetypeTableRecord
  2
DASHED2
 70
     0
  3
Dashed (.5x) _ _ _ _ _ _ _ _ _ _ _ _ _ _ _ _ _
 72
    65
 73
     2
 40
9.524999999999998
 49
6.349999999999999
 74
     0
 49
-3.174999999999999
 74
     0
  0
LTYPE
  5
4E
330
5
100
AcDbSymbolTableRecord
100
AcDbLinetypeTableRecord
  2
DASHEDX2
 70
     0
  3
Dashed (2x) ____  ____  ____  ____  ____  ___
 72
    65
 73
     2
 40
38.1
 49
25.4
 74
     0
 49
-12.7
 74
     0
  0
LTYPE
  5
4F
330
5
100
AcDbSymbolTableRecord
100
AcDbLinetypeTableRecord
  2
DIVIDE
 70
     0
  3
Divide ____ . . ____ . . ____ . . ____ . . ____
 72
    65
 73
     6
 40
31.75
 49
12.7
 74
     0
 49
-6.349999999999999
 74
     0
 49
0.0
 74
     0
 49
-6.349999999999999
 74
     0
 49
0.0
 74
     0
 49
-6.349999999999999
 74
     0
  0
LTYPE
  5
50
330
5
100
AcDbSymbolTableRecord
100
AcDbLinetypeTableRecord
  2
DIVIDE2
 70
     0
  3
Divide (.5x) __..__..__..__..__..__..__..__.._
 72
    65
 73
     6
 40
15.875
 49
6.349999999999999
 74
     0
 49
-3.174999999999999
 74
     0
 49
0.0
 74
     0
 49
-3.174999999999999
 74
     0
 49
0.0
 74
     0
 49
-3.174999999999999
 74
     0
  0
LTYPE
  5
51
330
5
100
AcDbSymbolTableRecord
100
AcDbLinetypeTableRecord
  2
DIVIDEX2
 70
     0
  3
Divide (2x) ________  .  .  ________  .  .  _
 72
    65
 73
     6
 40
63.49999999999999
 49
25.4
 74
     0
 49
-12.7
 74
     0
 49
0.0
 74
     0
 49
-12.7
 74
     0
 49
0.0
 74
     0
 49
-12.7
 74
     0
  0
LTYPE
  5
52
330
5
100
AcDbSymbolTableRecord
100
AcDbLinetypeTableRecord
  2
DOT
 70
     0
  3
Dot . . . . . . . . . . . . . . . . . . . . . .
 72
    65
 73
     2
 40
6.349999999999999
 49
0.0
 74
     0
 49
-6.349999999999999
 74
     0
  0
LTYPE
  5
53
330
5
100
AcDbSymbolTableRecord
100
AcDbLinetypeTableRecord
  2
DOT2
 70
     0
  3
Dot (.5x) .....................................
 72
    65
 73
     2
 40
3.174999999999999
 49
0.0
 74
     0
 49
-3.174999999999999
 74
     0
  0
LTYPE
  5
54
330
5
100
AcDbSymbolTableRecord
100
AcDbLinetypeTableRecord
  2
DOTX2
 70
     0
  3
Dot (2x) .  .  .  .  .  .  .  .  .  .  .  .  . 
 72
    65
 73
     2
 40
12.7
 49
0.0
 74
     0
 49
-12.7
 74
     0
  0
LTYPE
  5
55
330
5
100
AcDbSymbolTableRecord
100
AcDbLinetypeTableRecord
  2
FENCELINE1
 70
     0
  3
Fenceline circle ----0-----0----0-----0----0---
 72
    65
 73
     4
 40
36.83
 49
6.349999999999999
 74
     0
 49
-2.54
 74
     4
 75
   133
340
33
 46
2.54
 50
0.0
 44
-2.54
 45
0.0
 49
-2.54
 74
     0
 49
25.4
 74
     0
  0
LTYPE
  5
56
330
5
100
AcDbSymbolTableRecord
100
AcDbLinetypeTableRecord
  2
FENCELINE2
 70
     0
  3
Fenceline square ----[]-----[]----[]-----[]----
 72
    65
 73
     4
 40
36.83
 49
6.349999999999999
 74
     0
 49
-2.54
 74
     4
 75
   132
340
33
 46
2.54
 50
0.0
 44
-2.54
 45
0.0
 49
-2.54
 74
     0
 49
25.4
 74
     0
  0
LTYPE
  5
57
330
5
100
AcDbSymbolTableRecord
100
AcDbLinetypeTableRecord
  2
GAS_LINE
 70
     0
  3
Gas line ----GAS----GAS----GAS----GAS----GAS---
 72
    65
 73
     3
 40
24.13
 49
12.7
 74
     0
 49
-5.08
 74
     2
 75
     0
340
11
 46
2.54
 50
0.0
 44
-2.54
 45
-1.27
  9
GAS
 49
-6.349999999999999
 74
     0
  0
LTYPE
  5
58
330
5
100
AcDbSymbolTableRecord
100
AcDbLinetypeTableRecord
  2
HIDDEN
 70
     0
  3
Hidden __ __ __ __ __ __ __ __ __ __ __ __ __ _
 72
    65
 73
     2
 40
9.524999999999998
 49
6.349999999999999
 74
     0
 49
-3.174999999999999
 74
     0
  0
LTYPE
  5
59
330
5
100
AcDbSymbolTableRecord
100
AcDbLinetypeTableRecord
  2
HIDDEN2
 70
     0
  3
Hidden (.5x) _ _ _ _ _ _ _ _ _ _ _ _ _ _ _ _ _
 72
    65
 73
     2
 40
4.762499999999999
 49
3.174999999999999
 74
     0
 49
-1.587499999999999
 74
     0
  0
LTYPE
  5
5A
330
5
100
AcDbSymbolTableRecord
100
AcDbLinetypeTableRecord
  2
HIDDENX2
 70
     0
  3
Hidden (2x) ____ ____ ____ ____ ____ ____ ____
 72
    65
 73
     2
 40
19.05
 49
12.7
 74
     0
 49
-6.349999999999999
 74
     0
  0
LTYPE
  5
5B
330
5
100
AcDbSymbolTableRecord
100
AcDbLinetypeTableRecord
  2
HOT_WATER_SUPPLY
 70
     0
  3
Hot water supply ---- HW ---- HW ---- HW ----
 72
    65
 73
     3
 40
22.86
 49
12.7
 74
     0
 49
-5.08
 74
     2
 75
     0
340
11
 46
2.54
 50
0.0
 44
-2.54
 45
-1.27
  9
HW
 49
-5.08
 74
     0
  0
LTYPE
  5
5C
330
5
100
AcDbSymbolTableRecord
100
AcDbLinetypeTableRecord
  2
PHANTOM
 70
     0
  3
Phantom ______  __  __  ______  __  __  ______
 72
    65
 73
     6
 40
63.5
 49
31.75
 74
     0
 49
-6.349999999999999
 74
     0
 49
6.349999999999999
 74
     0
 49
-6.349999999999999
 74
     0
 49
6.349999999999999
 74
     0
 49
-6.349999999999999
 74
     0
  0
LTYPE
  5
5D
330
5
100
AcDbSymbolTableRecord
100
AcDbLinetypeTableRecord
  2
PHANTOM2
 70
     0
  3
Phantom (.5x) ___ _ _ ___ _ _ ___ _ _ ___ _ _
 72
    65
 73
     6
 40
31.75
 49
15.875
 74
     0
 49
-3.174999999999999
 74
     0
 49
3.174999999999999
 74
     0
 49
-3.174999999999999
 74
     0
 49
3.174999999999999
 74
     0
 49
-3.174999999999999
 74
     0
  0
LTYPE
  5
5E
330
5
100
AcDbSymbolTableRecord
100
AcDbLinetypeTableRecord
  2
PHANTOMX2
 70
     0
  3
Phantom (2x) ____________    ____    ____   _
 72
    65
 73
     6
 40
127.0
 49
63.5
 74
     0
 49
-12.7
 74
     0
 49
12.7
 74
     0
 49
-12.7
 74
     0
 49
12.7
 74
     0
 49
-12.7
 74
     0
  0
LTYPE
  5
5F
330
5
100
AcDbSymbolTableRecord
100
AcDbLinetypeTableRecord
  2
TRACKS
 70
     0
  3
Tracks -|-|-|-|-|-|-|-|-|-|-|-|-|-|-|-|-|-|-|-|
 72
    65
 73
     2
 40
7.62
 49
3.81
 74
     4
 75
   130
340
33
 46
6.349999999999999
 50
0.0
 44
0.0
 45
0.0
 49
3.81
 74
     0
  0
LTYPE
  5
60
330
5
100
AcDbSymbolTableRecord
100
AcDbLinetypeTableRecord
  2
ZIGZAG
 70
     0
  3
Zig zag /\/\/\/\/\/\/\/\/\/\/\/\/\/\/\/\/\/\/\/
 72
    65
 73
     4
 40
20.32254
 49
0.00254
 74
     0
 49
-5.08
 74
     4
 75
   131
340
33
 46
5.08
 50
0.0
 44
-5.08
 45
0.0
 49
-10.16
 74
     4
 75
   131
340
33
 46
5.08
 50
180.0
 44
5.08
 45
0.0
 49
-5.08
 74
     0
  0
ENDTAB
  0
TABLE
  2
LAYER
  5
2
102
{ACAD_XDICTIONARY
360
1A37
102
}
330
0
100
AcDbSymbolTable
 70
     7
  0
LAYER
  5
10
330
2
100
AcDbSymbolTableRecord
100
AcDbLayerTableRecord
  2
0
 70
     0
 62
     7
  6
Continuous
370
    -3
390
F
  0
LAYER
  5
C3
330
2
100
AcDbSymbolTableRecord
100
AcDbLayerTableRecord
  2
Defpoints
 70
     0
 62
     7
  6
Continuous
290
     0
370
    -3
390
F
  0
LAYER
  5
256
330
2
100
AcDbSymbolTableRecord
100
AcDbLayerTableRecord
  2
Cen
 70
     0
 62
     7
  6
CENTER2
370
    15
390
F
  0
LAYER
  5
5DF
330
2
100
AcDbSymbolTableRecord
100
AcDbLayerTableRecord
  2
実形
 70
     0
 62
     7
  6
Continuous
370
    -3
390
F
  0
LAYER
  5
60C
330
2
100
AcDbSymbolTableRecord
100
AcDbLayerTableRecord
  2
補助
 70
     0
 62
     7
  6
Continuous
370
    -3
390
F
  0
LAYER
  5
619
330
2
100
AcDbSymbolTableRecord
100
AcDbLayerTableRecord
  2
センター
 70
     0
 62
     7
  6
CENTER2
370
    18
390
F
  0
LAYER
  5
61A
330
2
100
AcDbSymbolTableRecord
100
AcDbLayerTableRecord
  2
寸法
 70
     0
 62
     7
  6
Continuous
370
    18
390
F
  0
ENDTAB
  0
TABLE
  2
STYLE
  5
3
330
0
100
AcDbSymbolTable
 70
     4
  0
STYLE
  5
11
330
3
100
AcDbSymbolTableRecord
100
AcDbTextStyleTableRecord
  2
Standard
 70
     0
 40
0.0
 41
1.0
 50
0.0
 71
     0
 42
35.0
  3
txt.shx
  4
bigfont.shx
  0
STYLE
  5
33
330
3
100
AcDbSymbolTableRecord
100
AcDbTextStyleTableRecord
  2

 70
     1
 40
0.0
 41
1.0
 50
0.0
 71
     0
 42
2.5
  3
ltypeshp.shx
  4

  0
STYLE
  5
1BE6
330
3
100
AcDbSymbolTableRecord
100
AcDbTextStyleTableRecord
  2
ms明朝
 70
     0
 40
0.0
 41
1.0
 50
0.0
 71
     0
 42
25.0
  3
MS Mincho.ttf
  4

1001
ACAD
1000
MS Mincho
1071
    32785
  0
STYLE
  5
1BE7
330
3
100
AcDbSymbolTableRecord
100
AcDbTextStyleTableRecord
  2
明朝
 70
     0
 40
0.0
 41
1.0
 50
0.0
 71
     0
 42
25.0
  3
MS Mincho.ttf
  4

1001
ACAD
1000
MS Mincho
1071
    32785
  0
ENDTAB
  0
TABLE
  2
VIEW
  5
6
330
0
100
AcDbSymbolTable
 70
     0
  0
ENDTAB
  0
TABLE
  2
UCS
  5
7
330
0
100
AcDbSymbolTable
 70
     0
  0
ENDTAB
  0
TABLE
  2
APPID
  5
9
330
0
100
AcDbSymbolTable
 70
     1
  0
APPID
  5
12
330
9
100
AcDbSymbolTableRecord
100
AcDbRegAppTableRecord
  2
ACAD
 70
     0
  0
ENDTAB
  0
TABLE
  2
DIMSTYLE
  5
A
330
0
100
AcDbSymbolTable
 70
     1
100
AcDbDimStyleTable
 71
     1
340
27
  0
DIMSTYLE
105
27
102
{ACAD_REACTORS
330
473
330
480
330
586
330
4C1
330
E81
330
E8E
330
1A81
330
1A82
330
1A83
330
1A84
330
1EC5
330
1EE2
330
1F2C
330
1F4A
330
1F57
330
1F89
330
1FBA
330
204F
330
207F
330
2095
330
20D9
330
2121
330
212E
330
2175
330
384
330
3BF
330
229B
102
}
330
A
100
AcDbSymbolTableRecord
100
AcDbDimStyleTableRecord
  2
ISO-25
 70
     0
 41
30.0
 42
65.0
 43
3.75
 44
0.0
 73
     0
 74
     0
 77
     1
 78
     8
140
25.0
141
2.5
143
0.03937007874016
147
6.25
171
     3
172
     1
271
     2
272
     2
274
     3
283
     0
284
     8
340
11
341
DA
342
D0
371
    15
372
    15
  0
ENDTAB
  0
TABLE
  2
BLOCK_RECORD
  5
1
330
0
100
AcDbSymbolTable
 70
    34
  0
BLOCK_RECORD
  5
1F
102
{ACAD_XDICTIONARY
360
1C06
102
}
330
1
100
AcDbSymbolTableRecord
100
AcDbBlockTableRecord
  2
*Model_Space
340
22
  0
BLOCK_RECORD
  5
1B
330
1
100
AcDbSymbolTableRecord
100
AcDbBlockTableRecord
  2
*Paper_Space
340
1E
  0
BLOCK_RECORD
  5
23
330
1
100
AcDbSymbolTableRecord
100
AcDbBlockTableRecord
  2
*Paper_Space0
340
26
  0
BLOCK_RECORD
  5
D0
330
1
100
AcDbSymbolTableRecord
100
AcDbBlockTableRecord
  2
_DotSmall
340
0
102
{BLKREFS
331
1E04
331
1E05
331
1FEF
331
1FF0
331
1FF8
331
1FF9
331
2001
331
2002
331
2009
331
200A
331
2012
331
2013
331
201B
331
201C
331
202D
331
202E
331
23CC
331
23CD
331
23D6
331
23D7
331
23DF
331
23E0
331
23E8
331
23E9
331
240D
331
240E
331
2415
331
2416
331
241E
331
241F
331
242A
331
242B
331
2469
331
246A
331
2472
331
2473
331
247B
331
247C
331
24A0
331
24A1
331
24A8
331
24A9
331
24B2
331
24B3
331
24BA
331
24BB
331
24C3
331
24C4
331
24CD
331
24CE
331
24D6
331
24D7
331
24E9
331
24EA
331
2510
331
2511
102
}
  0
BLOCK_RECORD
  5
D4
330
1
100
AcDbSymbolTableRecord
100
AcDbBlockTableRecord
  2
_Origin2
340
0
  0
BLOCK_RECORD
  5
DA
330
1
100
AcDbSymbolTableRecord
100
AcDbBlockTableRecord
  2
_Open30
340
0
  0
BLOCK_RECORD
  5
385
330
1
100
AcDbSymbolTableRecord
100
AcDbBlockTableRecord
  2
*D4
340
0
  0
BLOCK_RECORD
  5
3C0
330
1
100
AcDbSymbolTableRecord
100
AcDbBlockTableRecord
  2
*D6
340
0
  0
BLOCK_RECORD
  5
474
330
1
100
AcDbSymbolTableRecord
100
AcDbBlockTableRecord
  2
*D7
340
0
  0
BLOCK_RECORD
  5
481
330
1
100
AcDbSymbolTableRecord
100
AcDbBlockTableRecord
  2
*D8
340
0
  0
BLOCK_RECORD
  5
4C2
330
1
100
AcDbSymbolTableRecord
100
AcDbBlockTableRecord
  2
*D9
340
0
  0
BLOCK_RECORD
  5
587
330
1
100
AcDbSymbolTableRecord
100
AcDbBlockTableRecord
  2
*D10
340
0
  0
BLOCK_RECORD
  5
E82
330
1
100
AcDbSymbolTableRecord
100
AcDbBlockTableRecord
  2
*D11
340
0
  0
BLOCK_RECORD
  5
E8F
330
1
100
AcDbSymbolTableRecord
100
AcDbBlockTableRecord
  2
*D12
340
0
  0
BLOCK_RECORD
  5
1A85
330
1
100
AcDbSymbolTableRecord
100
AcDbBlockTableRecord
  2
*D13
340
0
  0
BLOCK_RECORD
  5
1A91
330
1
100
AcDbSymbolTableRecord
100
AcDbBlockTableRecord
  2
*D14
340
0
  0
BLOCK_RECORD
  5
1A9D
330
1
100
AcDbSymbolTableRecord
100
AcDbBlockTableRecord
  2
*D15
340
0
  0
BLOCK_RECORD
  5
1AA9
330
1
100
AcDbSymbolTableRecord
100
AcDbBlockTableRecord
  2
*D16
340
0
  0
BLOCK_RECORD
  5
1BDA
330
1
100
AcDbSymbolTableRecord
100
AcDbBlockTableRecord
  2
_Dot
340
0
  0
BLOCK_RECORD
  5
1BDF
102
{ACAD_XDICTIONARY
360
1BE2
102
}
330
1
100
AcDbSymbolTableRecord
100
AcDbBlockTableRecord
  2
A$C6E975202
340
0
  0
BLOCK_RECORD
  5
1EC6
330
1
100
AcDbSymbolTableRecord
100
AcDbBlockTableRecord
  2
*D19
340
0
  0
BLOCK_RECORD
  5
1EE3
330
1
100
AcDbSymbolTableRecord
100
AcDbBlockTableRecord
  2
*D20
340
0
  0
BLOCK_RECORD
  5
1F2D
330
1
100
AcDbSymbolTableRecord
100
AcDbBlockTableRecord
  2
*D21
340
0
  0
BLOCK_RECORD
  5
1F4B
330
1
100
AcDbSymbolTableRecord
100
AcDbBlockTableRecord
  2
*D22
340
0
  0
BLOCK_RECORD
  5
1F58
330
1
100
AcDbSymbolTableRecord
100
AcDbBlockTableRecord
  2
*D23
340
0
  0
BLOCK_RECORD
  5
1F8A
330
1
100
AcDbSymbolTableRecord
100
AcDbBlockTableRecord
  2
*D24
340
0
  0
BLOCK_RECORD
  5
1FBB
330
1
100
AcDbSymbolTableRecord
100
AcDbBlockTableRecord
  2
*D25
340
0
  0
BLOCK_RECORD
  5
2050
330
1
100
AcDbSymbolTableRecord
100
AcDbBlockTableRecord
  2
*D26
340
0
  0
BLOCK_RECORD
  5
2080
330
1
100
AcDbSymbolTableRecord
100
AcDbBlockTableRecord
  2
*D27
340
0
  0
BLOCK_RECORD
  5
2096
330
1
100
AcDbSymbolTableRecord
100
AcDbBlockTableRecord
  2
*D28
340
0
  0
BLOCK_RECORD
  5
20DA
330
1
100
AcDbSymbolTableRecord
100
AcDbBlockTableRecord
  2
*D29
340
0
  0
BLOCK_RECORD
  5
2122
330
1
100
AcDbSymbolTableRecord
100
AcDbBlockTableRecord
  2
*D30
340
0
  0
BLOCK_RECORD
  5
212F
330
1
100
AcDbSymbolTableRecord
100
AcDbBlockTableRecord
  2
*D31
340
0
  0
BLOCK_RECORD
  5
2176
330
1
100
AcDbSymbolTableRecord
100
AcDbBlockTableRecord
  2
*D32
340
0
  0
BLOCK_RECORD
  5
229C
330
1
100
AcDbSymbolTableRecord
100
AcDbBlockTableRecord
  2
*D33
340
0
  0
ENDTAB
  0
ENDSEC
  0
SECTION
  2
BLOCKS
  0
BLOCK
  5
20
330
1F
100
AcDbEntity
  8
0
100
AcDbBlockBegin
  2
*Model_Space
 70
     0
 10
0.0
 20
0.0
 30
0.0
  3
*Model_Space
  1

  0
ENDBLK
  5
21
330
1F
100
AcDbEntity
  8
0
100
AcDbBlockEnd
  0
BLOCK
  5
1C
330
1B
100
AcDbEntity
 67
     1
  8
0
100
AcDbBlockBegin
  2
*Paper_Space
 70
     0
 10
0.0
 20
0.0
 30
0.0
  3
*Paper_Space
  1

  0
ENDBLK
  5
1D
330
1B
100
AcDbEntity
 67
     1
  8
0
100
AcDbBlockEnd
  0
BLOCK
  5
24
330
23
100
AcDbEntity
  8
0
100
AcDbBlockBegin
  2
*Paper_Space0
 70
     0
 10
0.0
 20
0.0
 30
0.0
  3
*Paper_Space0
  1

  0
ENDBLK
  5
25
330
23
100
AcDbEntity
  8
0
100
AcDbBlockEnd
  0
BLOCK
  5
D2
330
D0
100
AcDbEntity
  8
0
100
AcDbBlockBegin
  2
_DotSmall
 70
     0
 10
0.0
 20
0.0
 30
0.0
  3
_DotSmall
  1

  0
LWPOLYLINE
  5
D1
330
D0
100
AcDbEntity
  8
0
 62
     0
100
AcDbPolyline
 90
        2
 70
     1
 43
0.5
 10
-0.0625
 20
0.0
 42
1.0
 10
0.0625
 20
0.0
 42
1.0
  0
ENDBLK
  5
D3
330
D0
100
AcDbEntity
  8
0
100
AcDbBlockEnd
  0
BLOCK
  5
D8
330
D4
100
AcDbEntity
  8
0
100
AcDbBlockBegin
  2
_Origin2
 70
     0
 10
0.0
 20
0.0
 30
0.0
  3
_Origin2
  1

  0
CIRCLE
  5
D5
330
D4
100
AcDbEntity
  8
0
 62
     0
370
    -2
100
AcDbCircle
 10
0.0
 20
0.0
 30
0.0
 40
0.5
  0
CIRCLE
  5
D6
330
D4
100
AcDbEntity
  8
0
 62
     0
370
    -2
100
AcDbCircle
 10
0.0
 20
0.0
 30
0.0
 40
0.25
  0
LINE
  5
D7
330
D4
100
AcDbEntity
  8
0
 62
     0
370
    -2
100
AcDbLine
 10
-0.5
 20
0.0
 30
0.0
 11
-1.0
 21
0.0
 31
0.0
  0
ENDBLK
  5
D9
330
D4
100
AcDbEntity
  8
0
100
AcDbBlockEnd
  0
BLOCK
  5
DE
330
DA
100
AcDbEntity
  8
0
100
AcDbBlockBegin
  2
_Open30
 70
     0
 10
0.0
 20
0.0
 30
0.0
  3
_Open30
  1

  0
LINE
  5
DB
330
DA
100
AcDbEntity
  8
0
 62
     0
370
    -2
100
AcDbLine
 10
-1.0
 20
0.26794919
 30
0.0
 11
0.0
 21
0.0
 31
0.0
  0
LINE
  5
DC
330
DA
100
AcDbEntity
  8
0
 62
     0
370
    -2
100
AcDbLine
 10
0.0
 20
0.0
 30
0.0
 11
-1.0
 21
-0.26794919
 31
0.0
  0
LINE
  5
DD
330
DA
100
AcDbEntity
  8
0
 62
     0
370
    -2
100
AcDbLine
 10
0.0
 20
0.0
 30
0.0
 11
-1.0
 21
0.0
 31
0.0
  0
ENDBLK
  5
DF
330
DA
100
AcDbEntity
  8
0
100
AcDbBlockEnd
  0
BLOCK
  5
38F
330
385
100
AcDbEntity
  8
0
100
AcDbBlockBegin
  2
*D4
 70
     1
 10
0.0
 20
0.0
 30
0.0
  3
*D4
  1

  0
LINE
  5
250D
330
385
100
AcDbEntity
  8
0
 62
     0
370
    15
100
AcDbLine
 10
1087.896779836488
 20
1488.86010153411
 30
0.0
 11
1121.743998355242
 21
1488.86010153411
 31
0.0
  0
LINE
  5
250E
330
385
100
AcDbEntity
  8
0
 62
     0
370
    15
100
AcDbLine
 10
1044.040247218022
 20
1648.86010153411
 30
0.0
 11
1121.743998355242
 21
1648.86010153411
 31
0.0
  0
LINE
  5
250F
330
385
100
AcDbEntity
  8
0
 62
     0
370
    15
100
AcDbLine
 10
1121.743998355242
 20
1488.86010153411
 30
0.0
 11
1121.743998355242
 21
1648.86010153411
 31
0.0
  0
INSERT
  5
2510
330
385
100
AcDbEntity
  8
0
 62
     0
370
    15
100
AcDbBlockReference
  2
_DotSmall
 10
1121.743998355242
 20
1488.86010153411
 30
0.0
 41
30.0
 42
30.0
 43
30.0
 50
270.0
  0
INSERT
  5
2511
330
385
100
AcDbEntity
  8
0
 62
     0
370
    15
100
AcDbBlockReference
  2
_DotSmall
 10
1121.743998355242
 20
1648.86010153411
 30
0.0
 41
30.0
 42
30.0
 43
30.0
 50
90.0
  0
MTEXT
  5
2512
330
385
100
AcDbEntity
  8
0
 62
     0
100
AcDbMText
 10
1102.993998355241
 20
1533.410495785237
 30
0.0
 40
25.0
 41
0.0
 71
     5
 72
     1
  1
160
 11
0.0000000000000001
 21
1.0
 31
0.0
 73
     1
 44
1.0
1001
ACAD
1000
MTEXTBEGIN
1070
    73
1070
     1
1070
    44
1040
1.0
1070
    74
1070
     0
1000
MTEXTEND
  0
POINT
  5
2513
330
385
100
AcDbEntity
  8
Defpoints
 62
     0
100
AcDbPoint
 10
1022.896779836488
 20
1488.86010153411
 30
0.0
  0
POINT
  5
2514
330
385
100
AcDbEntity
  8
Defpoints
 62
     0
100
AcDbPoint
 10
979.0402472180225
 20
1648.86010153411
 30
0.0
  0
POINT
  5
2515
330
385
100
AcDbEntity
  8
Defpoints
 62
     0
100
AcDbPoint
 10
1121.743998355242
 20
1648.86010153411
 30
0.0
  0
ENDBLK
  5
390
330
385
100
AcDbEntity
  8
0
100
AcDbBlockEnd
  0
BLOCK
  5
3CA
330
3C0
100
AcDbEntity
  8
0
100
AcDbBlockBegin
  2
*D6
 70
     1
 10
0.0
 20
0.0
 30
0.0
  3
*D6
  1

  0
LINE
  5
2478
330
3C0
100
AcDbEntity
  8
0
 62
     0
370
    15
100
AcDbLine
 10
824.2194694065011
 20
1795.86010153411
 30
0.0
 11
824.2194694065011
 21
1812.371067448058
 31
0.0
  0
LINE
  5
2479
330
3C0
100
AcDbEntity
  8
0
 62
     0
370
    15
100
AcDbLine
 10
1084.219469406501
 20
1795.86010153411
 30
0.0
 11
1084.219469406501
 21
1812.371067448058
 31
0.0
  0
LINE
  5
247A
330
3C0
100
AcDbEntity
  8
0
 62
     0
370
    15
100
AcDbLine
 10
824.2194694065011
 20
1812.371067448058
 30
0.0
 11
1084.219469406501
 21
1812.371067448058
 31
0.0
  0
INSERT
  5
247B
330
3C0
100
AcDbEntity
  8
0
 62
     0
370
    15
100
AcDbBlockReference
  2
_DotSmall
 10
824.2194694065011
 20
1812.371067448058
 30
0.0
 41
30.0
 42
30.0
 43
30.0
 50
180.0
  0
INSERT
  5
247C
330
3C0
100
AcDbEntity
  8
0
 62
     0
370
    15
100
AcDbBlockReference
  2
_DotSmall
 10
1084.219469406501
 20
1812.371067448058
 30
0.0
 41
30.0
 42
30.0
 43
30.0
  0
MTEXT
  5
247D
330
3C0
100
AcDbEntity
  8
0
 62
     0
100
AcDbMText
 10
954.219469406501
 20
1831.121067448058
 30
0.0
 40
25.0
 41
0.0
 71
     5
 72
     1
  1
260
 73
     1
 44
1.0
1001
ACAD
1000
MTEXTBEGIN
1070
    73
1070
     1
1070
    44
1040
1.0
1070
    74
1070
     0
1000
MTEXTEND
  0
POINT
  5
247E
330
3C0
100
AcDbEntity
  8
Defpoints
 62
     0
100
AcDbPoint
 10
824.2194694065011
 20
1730.86010153411
 30
0.0
  0
POINT
  5
247F
330
3C0
100
AcDbEntity
  8
Defpoints
 62
     0
100
AcDbPoint
 10
1084.219469406501
 20
1730.86010153411
 30
0.0
  0
POINT
  5
2480
330
3C0
100
AcDbEntity
  8
Defpoints
 62
     0
100
AcDbPoint
 10
1084.219469406501
 20
1812.371067448058
 30
0.0
  0
ENDBLK
  5
3CB
330
3C0
100
AcDbEntity
  8
0
100
AcDbBlockEnd
  0
BLOCK
  5
47E
330
474
100
AcDbEntity
  8
0
100
AcDbBlockBegin
  2
*D7
 70
     1
 10
0.0
 20
0.0
 30
0.0
  3
*D7
  1

  0
LINE
  5
241B
330
474
100
AcDbEntity
  8
0
 62
     0
370
    15
100
AcDbLine
 10
1033.719469406501
 20
459.2929064030613
 30
0.0
 11
1033.719469406501
 21
402.8984317050462
 31
0.0
  0
LINE
  5
241C
330
474
100
AcDbEntity
  8
0
 62
     0
370
    15
100
AcDbLine
 10
874.7194694065008
 20
459.2929064030616
 30
0.0
 11
874.7194694065008
 21
402.8984317050462
 31
0.0
  0
LINE
  5
241D
330
474
100
AcDbEntity
  8
0
 62
     0
370
    15
100
AcDbLine
 10
1033.719469406501
 20
402.8984317050462
 30
0.0
 11
874.7194694065008
 21
402.8984317050462
 31
0.0
  0
INSERT
  5
241E
330
474
100
AcDbEntity
  8
0
 62
     0
370
    15
100
AcDbBlockReference
  2
_DotSmall
 10
1033.719469406501
 20
402.8984317050462
 30
0.0
 41
30.0
 42
30.0
 43
30.0
  0
INSERT
  5
241F
330
474
100
AcDbEntity
  8
0
 62
     0
370
    15
100
AcDbBlockReference
  2
_DotSmall
 10
874.7194694065008
 20
402.8984317050462
 30
0.0
 41
30.0
 42
30.0
 43
30.0
 50
180.0
  0
MTEXT
  5
2420
330
474
100
AcDbEntity
  8
0
 62
     0
100
AcDbMText
 10
954.219469406501
 20
421.6484317050462
 30
0.0
 40
25.0
 41
0.0
 71
     5
 72
     1
  1
158
 73
     1
 44
1.0
1001
ACAD
1000
MTEXTBEGIN
1070
    73
1070
     1
1070
    44
1040
1.0
1070
    74
1070
     0
1000
MTEXTEND
  0
POINT
  5
2421
330
474
100
AcDbEntity
  8
Defpoints
 62
     0
100
AcDbPoint
 10
1033.719469406501
 20
524.2929064030613
 30
0.0
  0
POINT
  5
2422
330
474
100
AcDbEntity
  8
Defpoints
 62
     0
100
AcDbPoint
 10
874.7194694065008
 20
524.2929064030615
 30
0.0
  0
POINT
  5
2423
330
474
100
AcDbEntity
  8
Defpoints
 62
     0
100
AcDbPoint
 10
874.7194694065008
 20
402.8984317050462
 30
0.0
  0
ENDBLK
  5
47F
330
474
100
AcDbEntity
  8
0
100
AcDbBlockEnd
  0
BLOCK
  5
48B
330
481
100
AcDbEntity
  8
0
100
AcDbBlockBegin
  2
*D8
 70
     1
 10
0.0
 20
0.0
 30
0.0
  3
*D8
  1

  0
LINE
  5
2412
330
481
100
AcDbEntity
  8
0
 62
     0
370
    15
100
AcDbLine
 10
1044.719469406501
 20
596.2929064030613
 30
0.0
 11
1044.719469406501
 21
633.445930941033
 31
0.0
  0
LINE
  5
2413
330
481
100
AcDbEntity
  8
0
 62
     0
370
    15
100
AcDbLine
 10
863.719469406501
 20
596.2929064030614
 30
0.0
 11
863.719469406501
 21
633.445930941033
 31
0.0
  0
LINE
  5
2414
330
481
100
AcDbEntity
  8
0
 62
     0
370
    15
100
AcDbLine
 10
1044.719469406501
 20
633.445930941033
 30
0.0
 11
863.719469406501
 21
633.445930941033
 31
0.0
  0
INSERT
  5
2415
330
481
100
AcDbEntity
  8
0
 62
     0
370
    15
100
AcDbBlockReference
  2
_DotSmall
 10
1044.719469406501
 20
633.445930941033
 30
0.0
 41
30.0
 42
30.0
 43
30.0
  0
INSERT
  5
2416
330
481
100
AcDbEntity
  8
0
 62
     0
370
    15
100
AcDbBlockReference
  2
_DotSmall
 10
863.719469406501
 20
633.445930941033
 30
0.0
 41
30.0
 42
30.0
 43
30.0
 50
180.0
  0
MTEXT
  5
2417
330
481
100
AcDbEntity
  8
0
 62
     0
100
AcDbMText
 10
954.219469406501
 20
652.195930941033
 30
0.0
 40
25.0
 41
0.0
 71
     5
 72
     1
  1
181
 73
     1
 44
1.0
1001
ACAD
1000
MTEXTBEGIN
1070
    73
1070
     1
1070
    44
1040
1.0
1070
    74
1070
     0
1000
MTEXTEND
  0
POINT
  5
2418
330
481
100
AcDbEntity
  8
Defpoints
 62
     0
100
AcDbPoint
 10
1044.719469406501
 20
531.2929064030613
 30
0.0
  0
POINT
  5
2419
330
481
100
AcDbEntity
  8
Defpoints
 62
     0
100
AcDbPoint
 10
863.719469406501
 20
531.2929064030615
 30
0.0
  0
POINT
  5
241A
330
481
100
AcDbEntity
  8
Defpoints
 62
     0
100
AcDbPoint
 10
863.719469406501
 20
633.445930941033
 30
0.0
  0
ENDBLK
  5
48C
330
481
100
AcDbEntity
  8
0
100
AcDbBlockEnd
  0
BLOCK
  5
4CC
330
4C2
100
AcDbEntity
  8
0
100
AcDbBlockBegin
  2
*D9
 70
     1
 10
0.0
 20
0.0
 30
0.0
  3
*D9
  1

  0
LINE
  5
2466
330
4C2
100
AcDbEntity
  8
0
 62
     0
370
    15
100
AcDbLine
 10
1893.512425656321
 20
857.062606137153
 30
0.0
 11
1893.512425656321
 21
898.239547659331
 31
0.0
  0
LINE
  5
2467
330
4C2
100
AcDbEntity
  8
0
 62
     0
370
    15
100
AcDbLine
 10
1723.512425656321
 20
857.062606137153
 30
0.0
 11
1723.512425656321
 21
898.239547659331
 31
0.0
  0
LINE
  5
2468
330
4C2
100
AcDbEntity
  8
0
 62
     0
370
    15
100
AcDbLine
 10
1893.512425656321
 20
898.239547659331
 30
0.0
 11
1723.512425656321
 21
898.239547659331
 31
0.0
  0
INSERT
  5
2469
330
4C2
100
AcDbEntity
  8
0
 62
     0
370
    15
100
AcDbBlockReference
  2
_DotSmall
 10
1893.512425656321
 20
898.239547659331
 30
0.0
 41
30.0
 42
30.0
 43
30.0
  0
INSERT
  5
246A
330
4C2
100
AcDbEntity
  8
0
 62
     0
370
    15
100
AcDbBlockReference
  2
_DotSmall
 10
1723.512425656321
 20
898.239547659331
 30
0.0
 41
30.0
 42
30.0
 43
30.0
 50
180.0
  0
MTEXT
  5
246B
330
4C2
100
AcDbEntity
  8
0
 62
     0
100
AcDbMText
 10
1808.512425656321
 20
916.989547659331
 30
0.0
 40
25.0
 41
0.0
 71
     5
 72
     1
  1
17
 73
     1
 44
1.0
1001
ACAD
1000
MTEXTBEGIN
1070
    73
1070
     1
1070
    44
1040
1.0
1070
    74
1070
     0
1000
MTEXTEND
  0
POINT
  5
246C
330
4C2
100
AcDbEntity
  8
Defpoints
 62
     0
100
AcDbPoint
 10
1893.512425656321
 20
792.0626061371531
 30
0.0
  0
POINT
  5
246D
330
4C2
100
AcDbEntity
  8
Defpoints
 62
     0
100
AcDbPoint
 10
1723.512425656321
 20
792.0626061371531
 30
0.0
  0
POINT
  5
246E
330
4C2
100
AcDbEntity
  8
Defpoints
 62
     0
100
AcDbPoint
 10
1723.512425656321
 20
898.239547659331
 30
0.0
  0
ENDBLK
  5
4CD
330
4C2
100
AcDbEntity
  8
0
100
AcDbBlockEnd
  0
BLOCK
  5
593
330
587
100
AcDbEntity
  8
0
100
AcDbBlockBegin
  2
*D10
 70
     1
 10
0.0
 20
0.0
 30
0.0
  3
*D10
  1

  0
LINE
  5
24E5
330
587
100
AcDbEntity
  8
0
 62
     0
370
    15
100
AcDbLine
 10
807.4744054304028
 20
1633.86010153411
 30
0.0
 11
796.4469088348606
 21
1633.86010153411
 31
0.0
  0
LINE
  5
24E6
330
587
100
AcDbEntity
  8
0
 62
     0
370
    15
100
AcDbLine
 10
824.2194694065011
 20
1648.86010153411
 30
0.0
 11
796.4469088348606
 21
1648.86010153411
 31
0.0
  0
LINE
  5
24E7
330
587
100
AcDbEntity
  8
0
 62
     0
370
    15
100
AcDbLine
 10
796.4469088348606
 20
1633.86010153411
 30
0.0
 11
796.4469088348606
 21
1648.86010153411
 31
0.0
  0
MTEXT
  5
24E8
330
587
100
AcDbEntity
  8
0
 62
     0
100
AcDbMText
 10
794.2038224101516
 20
1689.317960018182
 30
0.0
 40
25.0
 41
0.0
 71
     5
 72
     1
  1
16
 11
0.0000000000000001
 21
1.0
 31
0.0
 73
     1
 44
1.0
1001
ACAD
1000
MTEXTBEGIN
1070
    73
1070
     1
1070
    44
1040
1.0
1070
    74
1070
     0
1000
MTEXTEND
  0
INSERT
  5
24E9
330
587
100
AcDbEntity
  8
0
 62
     0
370
    15
100
AcDbBlockReference
  2
_DotSmall
 10
796.4469088348606
 20
1633.86010153411
 30
0.0
 41
30.0
 42
30.0
 43
30.0
 50
270.0
  0
INSERT
  5
24EA
330
587
100
AcDbEntity
  8
0
 62
     0
370
    15
100
AcDbBlockReference
  2
_DotSmall
 10
796.4469088348606
 20
1648.86010153411
 30
0.0
 41
30.0
 42
30.0
 43
30.0
 50
90.0
  0
POINT
  5
24EB
330
587
100
AcDbEntity
  8
Defpoints
 62
     0
100
AcDbPoint
 10
872.4744054304029
 20
1633.86010153411
 30
0.0
  0
POINT
  5
24EC
330
587
100
AcDbEntity
  8
Defpoints
 62
     0
100
AcDbPoint
 10
889.2194694065009
 20
1648.86010153411
 30
0.0
  0
POINT
  5
24ED
330
587
100
AcDbEntity
  8
Defpoints
 62
     0
100
AcDbPoint
 10
796.4469088348606
 20
1648.86010153411
 30
0.0
  0
ENDBLK
  5
594
330
587
100
AcDbEntity
  8
0
100
AcDbBlockEnd
  0
BLOCK
  5
E8C
330
E82
100
AcDbEntity
  8
0
100
AcDbBlockBegin
  2
*D11
 70
     1
 10
0.0
 20
0.0
 30
0.0
  3
*D11
  1

  0
LINE
  5
2424
330
E82
100
AcDbEntity
  8
実形
 62
     0
370
    15
100
AcDbLine
 10
1044.719469406501
 20
596.2929064030613
 30
0.0
 11
1044.719469406501
 21
633.445930941033
 31
0.0
  0
LINE
  5
2425
330
E82
100
AcDbEntity
  8
実形
 62
     0
370
    15
100
AcDbLine
 10
1054.219469406501
 20
596.2929064030616
 30
0.0
 11
1054.219469406501
 21
633.445930941033
 31
0.0
  0
LINE
  5
2426
330
E82
100
AcDbEntity
  8
実形
 62
     0
370
    15
100
AcDbLine
 10
1044.719469406501
 20
633.445930941033
 30
0.0
 11
1014.719469406501
 21
633.445930941033
 31
0.0
  0
LINE
  5
2427
330
E82
100
AcDbEntity
  8
実形
 62
     0
370
    15
100
AcDbLine
 10
1054.219469406501
 20
633.445930941033
 30
0.0
 11
1084.219469406501
 21
633.445930941033
 31
0.0
  0
MTEXT
  5
2428
330
E82
100
AcDbEntity
  8
実形
 62
     0
100
AcDbMText
 10
1054.269843785991
 20
656.7056199112134
 30
0.0
 40
25.0
 41
0.0
 71
     5
 72
     1
  1
9.5
 73
     1
 44
1.0
1001
ACAD
1000
MTEXTBEGIN
1070
    73
1070
     1
1070
    44
1040
1.0
1070
    74
1070
     0
1000
MTEXTEND
  0
LINE
  5
2429
330
E82
100
AcDbEntity
  8
実形
 62
     0
370
    15
100
AcDbLine
 10
1044.719469406501
 20
633.445930941033
 30
0.0
 11
1054.219469406501
 21
633.445930941033
 31
0.0
  0
INSERT
  5
242A
330
E82
100
AcDbEntity
  8
実形
 62
     0
370
    15
100
AcDbBlockReference
  2
_DotSmall
 10
1044.719469406501
 20
633.445930941033
 30
0.0
 41
30.0
 42
30.0
 43
30.0
  0
INSERT
  5
242B
330
E82
100
AcDbEntity
  8
実形
 62
     0
370
    15
100
AcDbBlockReference
  2
_DotSmall
 10
1054.219469406501
 20
633.445930941033
 30
0.0
 41
30.0
 42
30.0
 43
30.0
 50
180.0
  0
POINT
  5
242C
330
E82
100
AcDbEntity
  8
Defpoints
 62
     0
100
AcDbPoint
 10
1044.719469406501
 20
531.2929064030613
 30
0.0
  0
POINT
  5
242D
330
E82
100
AcDbEntity
  8
Defpoints
 62
     0
100
AcDbPoint
 10
1054.219469406501
 20
531.2929064030615
 30
0.0
  0
POINT
  5
242E
330
E82
100
AcDbEntity
  8
Defpoints
 62
     0
100
AcDbPoint
 10
1054.219469406501
 20
633.445930941033
 30
0.0
  0
ENDBLK
  5
E8D
330
E82
100
AcDbEntity
  8
0
100
AcDbBlockEnd
  0
BLOCK
  5
E99
330
E8F
100
AcDbEntity
  8
0
100
AcDbBlockBegin
  2
*D12
 70
     1
 10
0.0
 20
0.0
 30
0.0
  3
*D12
  1

  0
LINE
  5
2407
330
E8F
100
AcDbEntity
  8
実形
 62
     0
370
    15
100
AcDbLine
 10
863.719469406501
 20
596.2929064030614
 30
0.0
 11
863.719469406501
 21
633.445930941033
 31
0.0
  0
LINE
  5
2408
330
E8F
100
AcDbEntity
  8
実形
 62
     0
370
    15
100
AcDbLine
 10
854.219469406501
 20
597.6565427666978
 30
0.0
 11
854.219469406501
 21
633.445930941033
 31
0.0
  0
LINE
  5
2409
330
E8F
100
AcDbEntity
  8
実形
 62
     0
370
    15
100
AcDbLine
 10
863.719469406501
 20
633.445930941033
 30
0.0
 11
893.7194694065011
 21
633.445930941033
 31
0.0
  0
LINE
  5
240A
330
E8F
100
AcDbEntity
  8
実形
 62
     0
370
    15
100
AcDbLine
 10
854.219469406501
 20
633.445930941033
 30
0.0
 11
824.2194694065009
 21
633.445930941033
 31
0.0
  0
MTEXT
  5
240B
330
E8F
100
AcDbEntity
  8
実形
 62
     0
100
AcDbMText
 10
852.8797497513332
 20
657.3569396558855
 30
0.0
 40
25.0
 41
0.0
 71
     5
 72
     1
  1
9.5
 73
     1
 44
1.0
1001
ACAD
1000
MTEXTBEGIN
1070
    73
1070
     1
1070
    44
1040
1.0
1070
    74
1070
     0
1000
MTEXTEND
  0
LINE
  5
240C
330
E8F
100
AcDbEntity
  8
実形
 62
     0
370
    15
100
AcDbLine
 10
863.719469406501
 20
633.445930941033
 30
0.0
 11
854.219469406501
 21
633.445930941033
 31
0.0
  0
INSERT
  5
240D
330
E8F
100
AcDbEntity
  8
実形
 62
     0
370
    15
100
AcDbBlockReference
  2
_DotSmall
 10
863.719469406501
 20
633.445930941033
 30
0.0
 41
30.0
 42
30.0
 43
30.0
 50
180.0
  0
INSERT
  5
240E
330
E8F
100
AcDbEntity
  8
実形
 62
     0
370
    15
100
AcDbBlockReference
  2
_DotSmall
 10
854.219469406501
 20
633.445930941033
 30
0.0
 41
30.0
 42
30.0
 43
30.0
  0
POINT
  5
240F
330
E8F
100
AcDbEntity
  8
Defpoints
 62
     0
100
AcDbPoint
 10
863.719469406501
 20
531.2929064030615
 30
0.0
  0
POINT
  5
2410
330
E8F
100
AcDbEntity
  8
Defpoints
 62
     0
100
AcDbPoint
 10
854.219469406501
 20
532.6565427666978
 30
0.0
  0
POINT
  5
2411
330
E8F
100
AcDbEntity
  8
Defpoints
 62
     0
100
AcDbPoint
 10
854.219469406501
 20
633.445930941033
 30
0.0
  0
ENDBLK
  5
E9A
330
E8F
100
AcDbEntity
  8
0
100
AcDbBlockEnd
  0
BLOCK
  5
1A8F
330
1A85
100
AcDbEntity
  8
0
100
AcDbBlockBegin
  2
*D13
 70
     1
 10
0.0
 20
0.0
 30
0.0
  3
*D13
  1

  0
LINE
  5
23E4
330
1A85
100
AcDbEntity
  8
実形
 62
     0
370
    15
100
AcDbLine
 10
564.2194694065012
 20
721.2929064030613
 30
0.0
 11
511.0988019500783
 21
721.2929064030613
 31
0.0
  0
LINE
  5
23E5
330
1A85
100
AcDbEntity
  8
実形
 62
     0
370
    15
100
AcDbLine
 10
564.2194694065015
 20
706.2929064030613
 30
0.0
 11
511.0988019500783
 21
706.2929064030613
 31
0.0
  0
LINE
  5
23E6
330
1A85
100
AcDbEntity
  8
実形
 62
     0
370
    15
100
AcDbLine
 10
511.0988019500783
 20
721.2929064030613
 30
0.0
 11
511.0988019500783
 21
706.2929064030613
 31
0.0
  0
MTEXT
  5
23E7
330
1A85
100
AcDbEntity
  8
実形
 62
     0
100
AcDbMText
 10
477.2013255389647
 20
754.6594034738626
 30
0.0
 40
25.0
 41
0.0
 71
     5
 72
     1
  1
15
 11
0.0000000000000001
 21
1.0
 31
0.0
 73
     1
 44
1.0
1001
ACAD
1000
MTEXTBEGIN
1070
    73
1070
     1
1070
    44
1040
1.0
1070
    74
1070
     0
1000
MTEXTEND
  0
INSERT
  5
23E8
330
1A85
100
AcDbEntity
  8
実形
 62
     0
370
    15
100
AcDbBlockReference
  2
_DotSmall
 10
511.0988019500783
 20
721.2929064030613
 30
0.0
 41
30.0
 42
30.0
 43
30.0
 50
90.0
  0
INSERT
  5
23E9
330
1A85
100
AcDbEntity
  8
実形
 62
     0
370
    15
100
AcDbBlockReference
  2
_DotSmall
 10
511.0988019500783
 20
706.2929064030613
 30
0.0
 41
30.0
 42
30.0
 43
30.0
 50
270.0
  0
POINT
  5
23EA
330
1A85
100
AcDbEntity
  8
Defpoints
 62
     0
100
AcDbPoint
 10
629.2194694065012
 20
721.2929064030613
 30
0.0
  0
POINT
  5
23EB
330
1A85
100
AcDbEntity
  8
Defpoints
 62
     0
100
AcDbPoint
 10
629.2194694065015
 20
706.2929064030613
 30
0.0
  0
POINT
  5
23EC
330
1A85
100
AcDbEntity
  8
Defpoints
 62
     0
100
AcDbPoint
 10
511.0988019500783
 20
706.2929064030613
 30
0.0
  0
ENDBLK
  5
1A90
330
1A85
100
AcDbEntity
  8
0
100
AcDbBlockEnd
  0
BLOCK
  5
1A9B
330
1A91
100
AcDbEntity
  8
0
100
AcDbBlockBegin
  2
*D14
 70
     1
 10
0.0
 20
0.0
 30
0.0
  3
*D14
  1

  0
LINE
  5
23D2
330
1A91
100
AcDbEntity
  8
実形
 62
     0
370
    15
100
AcDbLine
 10
563.4249501627398
 20
546.6184532789382
 30
0.0
 11
511.0988019500783
 21
546.6184532789382
 31
0.0
  0
LINE
  5
23D3
330
1A91
100
AcDbEntity
  8
実形
 62
     0
370
    15
100
AcDbLine
 10
563.4015604892993
 20
531.2929064030615
 30
0.0
 11
511.0988019500783
 21
531.2929064030615
 31
0.0
  0
LINE
  5
23D4
330
1A91
100
AcDbEntity
  8
実形
 62
     0
370
    15
100
AcDbLine
 10
511.0988019500783
 20
546.6184532789382
 30
0.0
 11
511.0988019500783
 21
531.2929064030615
 31
0.0
  0
MTEXT
  5
23D5
330
1A91
100
AcDbEntity
  8
実形
 62
     0
100
AcDbMText
 10
485.376552689977
 20
555.5463705669508
 30
0.0
 40
25.0
 41
0.0
 71
     5
 72
     1
  1
15
 11
0.0000000000000001
 21
1.0
 31
0.0
 73
     1
 44
1.0
1001
ACAD
1000
MTEXTBEGIN
1070
    73
1070
     1
1070
    44
1040
1.0
1070
    74
1070
     0
1000
MTEXTEND
  0
INSERT
  5
23D6
330
1A91
100
AcDbEntity
  8
実形
 62
     0
370
    15
100
AcDbBlockReference
  2
_DotSmall
 10
511.0988019500783
 20
546.6184532789382
 30
0.0
 41
30.0
 42
30.0
 43
30.0
 50
90.0
  0
INSERT
  5
23D7
330
1A91
100
AcDbEntity
  8
実形
 62
     0
370
    15
100
AcDbBlockReference
  2
_DotSmall
 10
511.0988019500783
 20
531.2929064030615
 30
0.0
 41
30.0
 42
30.0
 43
30.0
 50
270.0
  0
POINT
  5
23D8
330
1A91
100
AcDbEntity
  8
Defpoints
 62
     0
100
AcDbPoint
 10
628.4249501627398
 20
546.6184532789382
 30
0.0
  0
POINT
  5
23D9
330
1A91
100
AcDbEntity
  8
Defpoints
 62
     0
100
AcDbPoint
 10
628.4015604892992
 20
531.2929064030615
 30
0.0
  0
POINT
  5
23DA
330
1A91
100
AcDbEntity
  8
Defpoints
 62
     0
100
AcDbPoint
 10
511.0988019500783
 20
531.2929064030615
 30
0.0
  0
ENDBLK
  5
1A9C
330
1A91
100
AcDbEntity
  8
0
100
AcDbBlockEnd
  0
BLOCK
  5
1AA7
330
1A9D
100
AcDbEntity
  8
0
100
AcDbBlockBegin
  2
*D15
 70
     1
 10
0.0
 20
0.0
 30
0.0
  3
*D15
  1

  0
LINE
  5
23DB
330
1A9D
100
AcDbEntity
  8
実形
 62
     0
370
    15
100
AcDbLine
 10
563.8009862401741
 20
521.2929064030613
 30
0.0
 11
511.0988019500783
 21
521.2929064030613
 31
0.0
  0
LINE
  5
23DC
330
1A9D
100
AcDbEntity
  8
実形
 62
     0
370
    15
100
AcDbLine
 10
535.0421584208235
 20
546.4764336217625
 30
0.0
 11
511.0988019500783
 21
546.4764336217625
 31
0.0
  0
LINE
  5
23DD
330
1A9D
100
AcDbEntity
  8
実形
 62
     0
370
    15
100
AcDbLine
 10
511.0988019500783
 20
521.2929064030613
 30
0.0
 11
511.0988019500783
 21
546.4764336217625
 31
0.0
  0
MTEXT
  5
23DE
330
1A9D
100
AcDbEntity
  8
実形
 62
     0
100
AcDbMText
 10
481.2953627520328
 20
507.0879948184036
 30
0.0
 40
25.0
 41
0.0
 71
     5
 72
     1
  1
7
 11
0.0000000000000001
 21
1.0
 31
0.0
 73
     1
 44
1.0
1001
ACAD
1000
MTEXTBEGIN
1070
    73
1070
     1
1070
    44
1040
1.0
1070
    74
1070
     0
1000
MTEXTEND
  0
INSERT
  5
23DF
330
1A9D
100
AcDbEntity
  8
実形
 62
     0
370
    15
100
AcDbBlockReference
  2
_DotSmall
 10
511.0988019500783
 20
521.2929064030613
 30
0.0
 41
30.0
 42
30.0
 43
30.0
 50
270.0
  0
INSERT
  5
23E0
330
1A9D
100
AcDbEntity
  8
実形
 62
     0
370
    15
100
AcDbBlockReference
  2
_DotSmall
 10
511.0988019500783
 20
546.4764336217625
 30
0.0
 41
30.0
 42
30.0
 43
30.0
 50
90.0
  0
POINT
  5
23E1
330
1A9D
100
AcDbEntity
  8
Defpoints
 62
     0
100
AcDbPoint
 10
628.800986240174
 20
521.2929064030613
 30
0.0
  0
POINT
  5
23E2
330
1A9D
100
AcDbEntity
  8
Defpoints
 62
     0
100
AcDbPoint
 10
600.0421584208234
 20
546.4764336217625
 30
0.0
  0
POINT
  5
23E3
330
1A9D
100
AcDbEntity
  8
Defpoints
 62
     0
100
AcDbPoint
 10
511.0988019500783
 20
546.4764336217625
 30
0.0
  0
ENDBLK
  5
1AA8
330
1A9D
100
AcDbEntity
  8
0
100
AcDbBlockEnd
  0
BLOCK
  5
1AB3
330
1AA9
100
AcDbEntity
  8
0
100
AcDbBlockBegin
  2
*D16
 70
     1
 10
0.0
 20
0.0
 30
0.0
  3
*D16
  1

  0
LINE
  5
23C9
330
1AA9
100
AcDbEntity
  8
実形
 62
     0
370
    15
100
AcDbLine
 10
528.8433360776398
 20
721.2929064030613
 30
0.0
 11
424.5579035118917
 21
721.2929064030613
 31
0.0
  0
LINE
  5
23CA
330
1AA9
100
AcDbEntity
  8
実形
 62
     0
370
    15
100
AcDbLine
 10
528.8433360776398
 20
531.2929064030615
 30
0.0
 11
424.5579035118916
 21
531.2929064030615
 31
0.0
  0
LINE
  5
23CB
330
1AA9
100
AcDbEntity
  8
実形
 62
     0
370
    15
100
AcDbLine
 10
424.5579035118917
 20
721.2929064030613
 30
0.0
 11
424.5579035118916
 21
531.2929064030615
 31
0.0
  0
INSERT
  5
23CC
330
1AA9
100
AcDbEntity
  8
実形
 62
     0
370
    15
100
AcDbBlockReference
  2
_DotSmall
 10
424.5579035118917
 20
721.2929064030613
 30
0.0
 41
30.0
 42
30.0
 43
30.0
 50
90.0
  0
INSERT
  5
23CD
330
1AA9
100
AcDbEntity
  8
実形
 62
     0
370
    15
100
AcDbBlockReference
  2
_DotSmall
 10
424.5579035118916
 20
531.2929064030615
 30
0.0
 41
30.0
 42
30.0
 43
30.0
 50
270.0
  0
MTEXT
  5
23CE
330
1AA9
100
AcDbEntity
  8
実形
 62
     0
100
AcDbMText
 10
405.8079035118916
 20
626.2929064030616
 30
0.0
 40
25.0
 41
0.0
 71
     5
 72
     1
  1
190
 11
0.0000000000000001
 21
1.0
 31
0.0
 73
     1
 44
1.0
1001
ACAD
1000
MTEXTBEGIN
1070
    73
1070
     1
1070
    44
1040
1.0
1070
    74
1070
     0
1000
MTEXTEND
  0
POINT
  5
23CF
330
1AA9
100
AcDbEntity
  8
Defpoints
 62
     0
100
AcDbPoint
 10
593.8433360776398
 20
721.2929064030613
 30
0.0
  0
POINT
  5
23D0
330
1AA9
100
AcDbEntity
  8
Defpoints
 62
     0
100
AcDbPoint
 10
593.8433360776398
 20
531.2929064030615
 30
0.0
  0
POINT
  5
23D1
330
1AA9
100
AcDbEntity
  8
Defpoints
 62
     0
100
AcDbPoint
 10
424.5579035118916
 20
531.2929064030615
 30
0.0
  0
ENDBLK
  5
1AB4
330
1AA9
100
AcDbEntity
  8
0
100
AcDbBlockEnd
  0
BLOCK
  5
1BDB
330
1BDA
100
AcDbEntity
  8
0
100
AcDbBlockBegin
  2
_Dot
 70
     0
 10
0.0
 20
0.0
 30
0.0
  3
_Dot
  1

  0
LWPOLYLINE
  5
1BDC
330
1BDA
100
AcDbEntity
  8
0
 62
     0
100
AcDbPolyline
 90
        2
 70
     1
 43
0.5
 10
-0.25
 20
0.0
 42
1.0
 10
0.25
 20
0.0
 42
1.0
  0
LINE
  5
1BDD
330
1BDA
100
AcDbEntity
  8
0
 62
     0
370
    -2
100
AcDbLine
 10
-0.5
 20
0.0
 30
0.0
 11
-1.0
 21
0.0
 31
0.0
  0
ENDBLK
  5
1BDE
330
1BDA
100
AcDbEntity
  8
0
100
AcDbBlockEnd
  0
BLOCK
  5
1BE4
330
1BDF
100
AcDbEntity
  8
0
100
AcDbBlockBegin
  2
A$C6E975202
 70
     0
 10
0.0
 20
0.0
 30
0.0
  3
A$C6E975202
  1

  0
TEXT
  5
1BE0
330
1BDF
100
AcDbEntity
  8
寸法
 62
     0
100
AcDbText
 10
-0.0000081959879021
 20
873.0585266975676
 30
0.0
 40
60.0
  1
36φ
 11
-0.0000081959879026
 21
865.0585266975676
 31
0.0
100
AcDbText
 73
     1
  0
TEXT
  5
1BE1
330
1BDF
100
AcDbEntity
  8
寸法
 62
     0
100
AcDbText
 10
242.8378485608664
 20
0.0000025042498537
 30
0.0
 40
55.0
  1
PRS800-520GRM-OFR
 11
242.8378485608664
 21
-7.333330829083479
 31
0.0
100
AcDbText
 73
     1
  0
ENDBLK
  5
1BE5
330
1BDF
100
AcDbEntity
  8
0
100
AcDbBlockEnd
  0
BLOCK
  5
1ED0
330
1EC6
100
AcDbEntity
  8
0
 62
     3
100
AcDbBlockBegin
  2
*D19
 70
     1
 10
0.0
 20
0.0
 30
0.0
  3
*D19
  1

  0
LINE
  5
2018
330
1EC6
100
AcDbEntity
  8
実形
 62
     0
370
    15
100
AcDbLine
 10
547.219469406501
 20
1665.86010153411
 30
0.0
 11
347.4131539938337
 21
1665.86010153411
 31
0.0
  0
LINE
  5
2019
330
1EC6
100
AcDbEntity
  8
実形
 62
     0
370
    15
100
AcDbLine
 10
547.219469406501
 20
1161.86010153411
 30
0.0
 11
347.4131539938335
 21
1161.86010153411
 31
0.0
  0
LINE
  5
201A
330
1EC6
100
AcDbEntity
  8
実形
 62
     0
370
    15
100
AcDbLine
 10
347.4131539938337
 20
1665.86010153411
 30
0.0
 11
347.4131539938335
 21
1161.86010153411
 31
0.0
  0
INSERT
  5
201B
330
1EC6
100
AcDbEntity
  8
実形
 62
     0
370
    15
100
AcDbBlockReference
  2
_DotSmall
 10
347.4131539938337
 20
1665.86010153411
 30
0.0
 41
30.0
 42
30.0
 43
30.0
 50
90.0
  0
INSERT
  5
201C
330
1EC6
100
AcDbEntity
  8
実形
 62
     0
370
    15
100
AcDbBlockReference
  2
_DotSmall
 10
347.4131539938335
 20
1161.86010153411
 30
0.0
 41
30.0
 42
30.0
 43
30.0
 50
270.0
  0
MTEXT
  5
201D
330
1EC6
100
AcDbEntity
  8
実形
 62
     0
100
AcDbMText
 10
328.6631539938334
 20
1413.86010153411
 30
0.0
 40
25.0
 41
0.0
 71
     5
 72
     1
  1
504
 11
0.0000000000000001
 21
1.0
 31
0.0
 73
     1
 44
1.0
1001
ACAD
1000
MTEXTBEGIN
1070
    73
1070
     1
1070
    44
1040
1.0
1070
    74
1070
     0
1000
MTEXTEND
  0
POINT
  5
201E
330
1EC6
100
AcDbEntity
  8
Defpoints
 62
     0
100
AcDbPoint
 10
612.219469406501
 20
1665.86010153411
 30
0.0
  0
POINT
  5
201F
330
1EC6
100
AcDbEntity
  8
Defpoints
 62
     0
100
AcDbPoint
 10
612.219469406501
 20
1161.86010153411
 30
0.0
  0
POINT
  5
2020
330
1EC6
100
AcDbEntity
  8
Defpoints
 62
     0
100
AcDbPoint
 10
347.4131539938335
 20
1161.86010153411
 30
0.0
  0
ENDBLK
  5
1ED1
330
1EC6
100
AcDbEntity
  8
0
 62
     3
100
AcDbBlockEnd
  0
BLOCK
  5
1EED
330
1EE3
100
AcDbEntity
  8
0
 62
     3
100
AcDbBlockBegin
  2
*D20
 70
     1
 10
0.0
 20
0.0
 30
0.0
  3
*D20
  1

  0
LINE
  5
202A
330
1EE3
100
AcDbEntity
  8
実形
 62
     0
370
    15
100
AcDbLine
 10
547.219469406501
 20
1648.86010153411
 30
0.0
 11
470.9795328742038
 21
1648.86010153411
 31
0.0
  0
LINE
  5
202B
330
1EE3
100
AcDbEntity
  8
実形
 62
     0
370
    15
100
AcDbLine
 10
547.2194694065011
 20
1568.86010153411
 30
0.0
 11
470.9795328742038
 21
1568.86010153411
 31
0.0
  0
LINE
  5
202C
330
1EE3
100
AcDbEntity
  8
実形
 62
     0
370
    15
100
AcDbLine
 10
470.9795328742038
 20
1648.86010153411
 30
0.0
 11
470.9795328742038
 21
1568.86010153411
 31
0.0
  0
INSERT
  5
202D
330
1EE3
100
AcDbEntity
  8
実形
 62
     0
370
    15
100
AcDbBlockReference
  2
_DotSmall
 10
470.9795328742038
 20
1648.86010153411
 30
0.0
 41
30.0
 42
30.0
 43
30.0
 50
90.0
  0
INSERT
  5
202E
330
1EE3
100
AcDbEntity
  8
実形
 62
     0
370
    15
100
AcDbBlockReference
  2
_DotSmall
 10
470.9795328742038
 20
1568.86010153411
 30
0.0
 41
30.0
 42
30.0
 43
30.0
 50
270.0
  0
MTEXT
  5
202F
330
1EE3
100
AcDbEntity
  8
実形
 62
     0
100
AcDbMText
 10
452.2295328742036
 20
1608.86010153411
 30
0.0
 40
25.0
 41
0.0
 71
     5
 72
     1
  1
80
 11
0.0000000000000001
 21
1.0
 31
0.0
 73
     1
 44
1.0
1001
ACAD
1000
MTEXTBEGIN
1070
    73
1070
     1
1070
    44
1040
1.0
1070
    74
1070
     0
1000
MTEXTEND
  0
POINT
  5
2030
330
1EE3
100
AcDbEntity
  8
Defpoints
 62
     0
100
AcDbPoint
 10
612.219469406501
 20
1648.86010153411
 30
0.0
  0
POINT
  5
2031
330
1EE3
100
AcDbEntity
  8
Defpoints
 62
     0
100
AcDbPoint
 10
612.2194694065012
 20
1568.86010153411
 30
0.0
  0
POINT
  5
2032
330
1EE3
100
AcDbEntity
  8
Defpoints
 62
     0
100
AcDbPoint
 10
470.9795328742038
 20
1568.86010153411
 30
0.0
  0
ENDBLK
  5
1EEE
330
1EE3
100
AcDbEntity
  8
0
 62
     3
100
AcDbBlockEnd
  0
BLOCK
  5
1F37
330
1F2D
100
AcDbEntity
  8
0
 62
     3
100
AcDbBlockBegin
  2
*D21
 70
     1
 10
0.0
 20
0.0
 30
0.0
  3
*D21
  1

  0
LINE
  5
200F
330
1F2D
100
AcDbEntity
  8
実形
 62
     0
370
    15
100
AcDbLine
 10
547.219469406501
 20
1568.86010153411
 30
0.0
 11
470.9795328742038
 21
1568.86010153411
 31
0.0
  0
LINE
  5
2010
330
1F2D
100
AcDbEntity
  8
実形
 62
     0
370
    15
100
AcDbLine
 10
547.219469406501
 20
1193.86010153411
 30
0.0
 11
470.9795328742038
 21
1193.86010153411
 31
0.0
  0
LINE
  5
2011
330
1F2D
100
AcDbEntity
  8
実形
 62
     0
370
    15
100
AcDbLine
 10
470.9795328742038
 20
1568.86010153411
 30
0.0
 11
470.9795328742038
 21
1193.86010153411
 31
0.0
  0
INSERT
  5
2012
330
1F2D
100
AcDbEntity
  8
実形
 62
     0
370
    15
100
AcDbBlockReference
  2
_DotSmall
 10
470.9795328742038
 20
1568.86010153411
 30
0.0
 41
30.0
 42
30.0
 43
30.0
 50
90.0
  0
INSERT
  5
2013
330
1F2D
100
AcDbEntity
  8
実形
 62
     0
370
    15
100
AcDbBlockReference
  2
_DotSmall
 10
470.9795328742038
 20
1193.86010153411
 30
0.0
 41
30.0
 42
30.0
 43
30.0
 50
270.0
  0
MTEXT
  5
2014
330
1F2D
100
AcDbEntity
  8
実形
 62
     0
100
AcDbMText
 10
452.2295328742035
 20
1381.360101534111
 30
0.0
 40
25.0
 41
0.0
 71
     5
 72
     1
  1
375
 11
0.0000000000000001
 21
1.0
 31
0.0
 73
     1
 44
1.0
1001
ACAD
1000
MTEXTBEGIN
1070
    73
1070
     1
1070
    44
1040
1.0
1070
    74
1070
     0
1000
MTEXTEND
  0
POINT
  5
2015
330
1F2D
100
AcDbEntity
  8
Defpoints
 62
     0
100
AcDbPoint
 10
612.219469406501
 20
1568.86010153411
 30
0.0
  0
POINT
  5
2016
330
1F2D
100
AcDbEntity
  8
Defpoints
 62
     0
100
AcDbPoint
 10
612.219469406501
 20
1193.86010153411
 30
0.0
  0
POINT
  5
2017
330
1F2D
100
AcDbEntity
  8
Defpoints
 62
     0
100
AcDbPoint
 10
470.9795328742038
 20
1193.86010153411
 30
0.0
  0
ENDBLK
  5
1F38
330
1F2D
100
AcDbEntity
  8
0
 62
     3
100
AcDbBlockEnd
  0
BLOCK
  5
1F55
330
1F4B
100
AcDbEntity
  8
0
 62
     3
100
AcDbBlockBegin
  2
*D22
 70
     1
 10
0.0
 20
0.0
 30
0.0
  3
*D22
  1

  0
LINE
  5
2006
330
1F4B
100
AcDbEntity
  8
実形
 62
     0
370
    15
100
AcDbLine
 10
547.219469406501
 20
1648.86010153411
 30
0.0
 11
414.0371556738019
 21
1648.86010153411
 31
0.0
  0
LINE
  5
2007
330
1F4B
100
AcDbEntity
  8
実形
 62
     0
370
    15
100
AcDbLine
 10
547.219469406501
 20
1178.86010153411
 30
0.0
 11
414.0371556738018
 21
1178.86010153411
 31
0.0
  0
LINE
  5
2008
330
1F4B
100
AcDbEntity
  8
実形
 62
     0
370
    15
100
AcDbLine
 10
414.0371556738019
 20
1648.86010153411
 30
0.0
 11
414.0371556738018
 21
1178.86010153411
 31
0.0
  0
INSERT
  5
2009
330
1F4B
100
AcDbEntity
  8
実形
 62
     0
370
    15
100
AcDbBlockReference
  2
_DotSmall
 10
414.0371556738019
 20
1648.86010153411
 30
0.0
 41
30.0
 42
30.0
 43
30.0
 50
90.0
  0
INSERT
  5
200A
330
1F4B
100
AcDbEntity
  8
実形
 62
     0
370
    15
100
AcDbBlockReference
  2
_DotSmall
 10
414.0371556738018
 20
1178.86010153411
 30
0.0
 41
30.0
 42
30.0
 43
30.0
 50
270.0
  0
MTEXT
  5
200B
330
1F4B
100
AcDbEntity
  8
実形
 62
     0
100
AcDbMText
 10
395.2871556738017
 20
1413.86010153411
 30
0.0
 40
25.0
 41
0.0
 71
     5
 72
     1
  1
470
 11
0.0000000000000001
 21
1.0
 31
0.0
 73
     1
 44
1.0
1001
ACAD
1000
MTEXTBEGIN
1070
    73
1070
     1
1070
    44
1040
1.0
1070
    74
1070
     0
1000
MTEXTEND
  0
POINT
  5
200C
330
1F4B
100
AcDbEntity
  8
Defpoints
 62
     0
100
AcDbPoint
 10
612.219469406501
 20
1648.86010153411
 30
0.0
  0
POINT
  5
200D
330
1F4B
100
AcDbEntity
  8
Defpoints
 62
     0
100
AcDbPoint
 10
612.219469406501
 20
1178.86010153411
 30
0.0
  0
POINT
  5
200E
330
1F4B
100
AcDbEntity
  8
Defpoints
 62
     0
100
AcDbPoint
 10
414.0371556738018
 20
1178.86010153411
 30
0.0
  0
ENDBLK
  5
1F56
330
1F4B
100
AcDbEntity
  8
0
 62
     3
100
AcDbBlockEnd
  0
BLOCK
  5
1F62
330
1F58
100
AcDbEntity
  8
0
 62
     3
100
AcDbBlockBegin
  2
*D23
 70
     1
 10
0.0
 20
0.0
 30
0.0
  3
*D23
  1

  0
LINE
  5
1FFD
330
1F58
100
AcDbEntity
  8
実形
 62
     0
370
    15
100
AcDbLine
 10
547.219469406501
 20
1665.86010153411
 30
0.0
 11
414.037155673802
 21
1665.86010153411
 31
0.0
  0
LINE
  5
1FFE
330
1F58
100
AcDbEntity
  8
実形
 62
     0
370
    15
100
AcDbLine
 10
547.219469406501
 20
1161.86010153411
 30
0.0
 11
414.0371556738018
 21
1161.86010153411
 31
0.0
  0
LINE
  5
1FFF
330
1F58
100
AcDbEntity
  8
実形
 62
     0
370
    15
100
AcDbLine
 10
414.037155673802
 20
1665.86010153411
 30
0.0
 11
414.0371556738018
 21
1161.86010153411
 31
0.0
  0
MTEXT
  5
2000
330
1F58
100
AcDbEntity
  8
実形
 62
     0
100
AcDbMText
 10
382.8063840058112
 20
1189.88664850401
 30
0.0
 40
25.0
 41
0.0
 71
     5
 72
     1
  1
17
 11
0.0000000000000001
 21
1.0
 31
0.0
 73
     1
 44
1.0
1001
ACAD
1000
MTEXTBEGIN
1070
    73
1070
     1
1070
    44
1040
1.0
1070
    74
1070
     0
1000
MTEXTEND
  0
INSERT
  5
2001
330
1F58
100
AcDbEntity
  8
実形
 62
     0
370
    15
100
AcDbBlockReference
  2
_DotSmall
 10
414.037155673802
 20
1665.86010153411
 30
0.0
 41
30.0
 42
30.0
 43
30.0
 50
90.0
  0
INSERT
  5
2002
330
1F58
100
AcDbEntity
  8
実形
 62
     0
370
    15
100
AcDbBlockReference
  2
_DotSmall
 10
414.0371556738018
 20
1161.86010153411
 30
0.0
 41
30.0
 42
30.0
 43
30.0
 50
270.0
  0
POINT
  5
2003
330
1F58
100
AcDbEntity
  8
Defpoints
 62
     0
100
AcDbPoint
 10
612.219469406501
 20
1665.86010153411
 30
0.0
  0
POINT
  5
2004
330
1F58
100
AcDbEntity
  8
Defpoints
 62
     0
100
AcDbPoint
 10
612.219469406501
 20
1161.86010153411
 30
0.0
  0
POINT
  5
2005
330
1F58
100
AcDbEntity
  8
Defpoints
 62
     0
100
AcDbPoint
 10
414.0371556738018
 20
1161.86010153411
 30
0.0
  0
ENDBLK
  5
1F63
330
1F58
100
AcDbEntity
  8
0
 62
     3
100
AcDbBlockEnd
  0
BLOCK
  5
1F94
330
1F8A
100
AcDbEntity
  8
0
 62
     3
100
AcDbBlockBegin
  2
*D24
 70
     1
 10
0.0
 20
0.0
 30
0.0
  3
*D24
  1

  0
LINE
  5
1FF4
330
1F8A
100
AcDbEntity
  8
実形
 62
     0
370
    15
100
AcDbLine
 10
547.219469406501
 20
1665.86010153411
 30
0.0
 11
414.037155673802
 21
1665.86010153411
 31
0.0
  0
LINE
  5
1FF5
330
1F8A
100
AcDbEntity
  8
実形
 62
     0
370
    15
100
AcDbLine
 10
547.219469406501
 20
1161.86010153411
 30
0.0
 11
414.0371556738019
 21
1161.86010153411
 31
0.0
  0
LINE
  5
1FF6
330
1F8A
100
AcDbEntity
  8
実形
 62
     0
370
    15
100
AcDbLine
 10
414.037155673802
 20
1665.86010153411
 30
0.0
 11
414.0371556738019
 21
1161.86010153411
 31
0.0
  0
MTEXT
  5
1FF7
330
1F8A
100
AcDbEntity
  8
実形
 62
     0
100
AcDbMText
 10
385.2197511541271
 20
1636.700922880827
 30
0.0
 40
25.0
 41
0.0
 71
     5
 72
     1
  1
17
 11
0.0000000000000001
 21
1.0
 31
0.0
 73
     1
 44
1.0
1001
ACAD
1000
MTEXTBEGIN
1070
    73
1070
     1
1070
    44
1040
1.0
1070
    74
1070
     0
1000
MTEXTEND
  0
INSERT
  5
1FF8
330
1F8A
100
AcDbEntity
  8
実形
 62
     0
370
    15
100
AcDbBlockReference
  2
_DotSmall
 10
414.037155673802
 20
1665.86010153411
 30
0.0
 41
30.0
 42
30.0
 43
30.0
 50
90.0
  0
INSERT
  5
1FF9
330
1F8A
100
AcDbEntity
  8
実形
 62
     0
370
    15
100
AcDbBlockReference
  2
_DotSmall
 10
414.0371556738019
 20
1161.86010153411
 30
0.0
 41
30.0
 42
30.0
 43
30.0
 50
270.0
  0
POINT
  5
1FFA
330
1F8A
100
AcDbEntity
  8
Defpoints
 62
     0
100
AcDbPoint
 10
612.219469406501
 20
1665.86010153411
 30
0.0
  0
POINT
  5
1FFB
330
1F8A
100
AcDbEntity
  8
Defpoints
 62
     0
100
AcDbPoint
 10
612.219469406501
 20
1161.86010153411
 30
0.0
  0
POINT
  5
1FFC
330
1F8A
100
AcDbEntity
  8
Defpoints
 62
     0
100
AcDbPoint
 10
414.0371556738019
 20
1161.86010153411
 30
0.0
  0
ENDBLK
  5
1F95
330
1F8A
100
AcDbEntity
  8
0
 62
     3
100
AcDbBlockEnd
  0
BLOCK
  5
1FC5
330
1FBB
100
AcDbEntity
  8
0
 62
     3
100
AcDbBlockBegin
  2
*D25
 70
     1
 10
0.0
 20
0.0
 30
0.0
  3
*D25
  1

  0
LINE
  5
1FEB
330
1FBB
100
AcDbEntity
  8
実形
 62
     0
370
    15
100
AcDbLine
 10
547.219469406501
 20
1648.86010153411
 30
0.0
 11
470.9795328742038
 21
1648.86010153411
 31
0.0
  0
LINE
  5
1FEC
330
1FBB
100
AcDbEntity
  8
実形
 62
     0
370
    15
100
AcDbLine
 10
547.219469406501
 20
1178.86010153411
 30
0.0
 11
470.9795328742038
 21
1178.86010153411
 31
0.0
  0
LINE
  5
1FED
330
1FBB
100
AcDbEntity
  8
実形
 62
     0
370
    15
100
AcDbLine
 10
470.9795328742038
 20
1648.86010153411
 30
0.0
 11
470.9795328742038
 21
1178.86010153411
 31
0.0
  0
MTEXT
  5
1FEE
330
1FBB
100
AcDbEntity
  8
実形
 62
     0
100
AcDbMText
 10
442.2649173593872
 20
1205.712909372276
 30
0.0
 40
25.0
 41
0.0
 71
     5
 72
     1
  1
15
 11
0.0000000000000001
 21
1.0
 31
0.0
 73
     1
 44
1.0
1001
ACAD
1000
MTEXTBEGIN
1070
    73
1070
     1
1070
    44
1040
1.0
1070
    74
1070
     0
1000
MTEXTEND
  0
INSERT
  5
1FEF
330
1FBB
100
AcDbEntity
  8
実形
 62
     0
370
    15
100
AcDbBlockReference
  2
_DotSmall
 10
470.9795328742038
 20
1648.86010153411
 30
0.0
 41
30.0
 42
30.0
 43
30.0
 50
90.0
  0
INSERT
  5
1FF0
330
1FBB
100
AcDbEntity
  8
実形
 62
     0
370
    15
100
AcDbBlockReference
  2
_DotSmall
 10
470.9795328742038
 20
1178.86010153411
 30
0.0
 41
30.0
 42
30.0
 43
30.0
 50
270.0
  0
POINT
  5
1FF1
330
1FBB
100
AcDbEntity
  8
Defpoints
 62
     0
100
AcDbPoint
 10
612.219469406501
 20
1648.86010153411
 30
0.0
  0
POINT
  5
1FF2
330
1FBB
100
AcDbEntity
  8
Defpoints
 62
     0
100
AcDbPoint
 10
612.219469406501
 20
1178.86010153411
 30
0.0
  0
POINT
  5
1FF3
330
1FBB
100
AcDbEntity
  8
Defpoints
 62
     0
100
AcDbPoint
 10
470.9795328742038
 20
1178.86010153411
 30
0.0
  0
ENDBLK
  5
1FC6
330
1FBB
100
AcDbEntity
  8
0
 62
     3
100
AcDbBlockEnd
  0
BLOCK
  5
205A
330
2050
100
AcDbEntity
  8
0
 62
     3
100
AcDbBlockBegin
  2
*D26
 70
     1
 10
0.0
 20
0.0
 30
0.0
  3
*D26
  1

  0
LINE
  5
249C
330
2050
100
AcDbEntity
  8
実形
 62
     0
370
    15
100
AcDbLine
 10
644.2194694065011
 20
1090.833394069355
 30
0.0
 11
644.2194694065011
 21
1036.807958926578
 31
0.0
  0
LINE
  5
249D
330
2050
100
AcDbEntity
  8
実形
 62
     0
370
    15
100
AcDbLine
 10
1264.219469406501
 20
1090.833394069355
 30
0.0
 11
1264.219469406501
 21
1036.807958926578
 31
0.0
  0
LINE
  5
249E
330
2050
100
AcDbEntity
  8
実形
 62
     0
370
    15
100
AcDbLine
 10
644.2194694065011
 20
1036.807958926578
 30
0.0
 11
1264.219469406501
 21
1036.807958926578
 31
0.0
  0
MTEXT
  5
249F
330
2050
100
AcDbEntity
  8
実形
 62
     0
100
AcDbMText
 10
671.87332431924
 20
1057.436532268721
 30
0.0
 40
25.0
 41
0.0
 71
     5
 72
     1
  1
15
 73
     1
 44
1.0
1001
ACAD
1000
MTEXTBEGIN
1070
    73
1070
     1
1070
    44
1040
1.0
1070
    74
1070
     0
1000
MTEXTEND
  0
INSERT
  5
24A0
330
2050
100
AcDbEntity
  8
実形
 62
     0
370
    15
100
AcDbBlockReference
  2
_DotSmall
 10
644.2194694065011
 20
1036.807958926578
 30
0.0
 41
30.0
 42
30.0
 43
30.0
 50
180.0
  0
INSERT
  5
24A1
330
2050
100
AcDbEntity
  8
実形
 62
     0
370
    15
100
AcDbBlockReference
  2
_DotSmall
 10
1264.219469406501
 20
1036.807958926578
 30
0.0
 41
30.0
 42
30.0
 43
30.0
  0
POINT
  5
24A2
330
2050
100
AcDbEntity
  8
Defpoints
 62
     0
100
AcDbPoint
 10
644.2194694065011
 20
1155.833394069355
 30
0.0
  0
POINT
  5
24A3
330
2050
100
AcDbEntity
  8
Defpoints
 62
     0
100
AcDbPoint
 10
1264.219469406501
 20
1155.833394069355
 30
0.0
  0
POINT
  5
24A4
330
2050
100
AcDbEntity
  8
Defpoints
 62
     0
100
AcDbPoint
 10
1264.219469406501
 20
1036.807958926578
 30
0.0
  0
ENDBLK
  5
205B
330
2050
100
AcDbEntity
  8
0
 62
     3
100
AcDbBlockEnd
  0
BLOCK
  5
208A
330
2080
100
AcDbEntity
  8
0
 62
     3
100
AcDbBlockBegin
  2
*D27
 70
     1
 10
0.0
 20
0.0
 30
0.0
  3
*D27
  1

  0
LINE
  5
24A5
330
2080
100
AcDbEntity
  8
実形
 62
     0
370
    15
100
AcDbLine
 10
629.219469406501
 20
1090.833394069355
 30
0.0
 11
629.219469406501
 21
978.3996316766378
 31
0.0
  0
LINE
  5
24A6
330
2080
100
AcDbEntity
  8
実形
 62
     0
370
    15
100
AcDbLine
 10
1279.219469406501
 20
1090.833394069355
 30
0.0
 11
1279.219469406501
 21
978.3996316766378
 31
0.0
  0
LINE
  5
24A7
330
2080
100
AcDbEntity
  8
実形
 62
     0
370
    15
100
AcDbLine
 10
629.219469406501
 20
978.3996316766378
 30
0.0
 11
1279.219469406501
 21
978.3996316766378
 31
0.0
  0
INSERT
  5
24A8
330
2080
100
AcDbEntity
  8
実形
 62
     0
370
    15
100
AcDbBlockReference
  2
_DotSmall
 10
629.219469406501
 20
978.3996316766378
 30
0.0
 41
30.0
 42
30.0
 43
30.0
 50
180.0
  0
INSERT
  5
24A9
330
2080
100
AcDbEntity
  8
実形
 62
     0
370
    15
100
AcDbBlockReference
  2
_DotSmall
 10
1279.219469406501
 20
978.3996316766378
 30
0.0
 41
30.0
 42
30.0
 43
30.0
  0
MTEXT
  5
24AA
330
2080
100
AcDbEntity
  8
実形
 62
     0
100
AcDbMText
 10
954.219469406501
 20
997.1496316766378
 30
0.0
 40
25.0
 41
0.0
 71
     5
 72
     1
  1
650
 73
     1
 44
1.0
1001
ACAD
1000
MTEXTBEGIN
1070
    73
1070
     1
1070
    44
1040
1.0
1070
    74
1070
     0
1000
MTEXTEND
  0
POINT
  5
24AB
330
2080
100
AcDbEntity
  8
Defpoints
 62
     0
100
AcDbPoint
 10
629.219469406501
 20
1155.833394069355
 30
0.0
  0
POINT
  5
24AC
330
2080
100
AcDbEntity
  8
Defpoints
 62
     0
100
AcDbPoint
 10
1279.219469406501
 20
1155.833394069355
 30
0.0
  0
POINT
  5
24AD
330
2080
100
AcDbEntity
  8
Defpoints
 62
     0
100
AcDbPoint
 10
1279.219469406501
 20
978.3996316766378
 30
0.0
  0
ENDBLK
  5
208B
330
2080
100
AcDbEntity
  8
0
 62
     3
100
AcDbBlockEnd
  0
BLOCK
  5
20A0
330
2096
100
AcDbEntity
  8
0
 62
     3
100
AcDbBlockBegin
  2
*D28
 70
     1
 10
0.0
 20
0.0
 30
0.0
  3
*D28
  1

  0
LINE
  5
24AE
330
2096
100
AcDbEntity
  8
実形
 62
     0
370
    15
100
AcDbLine
 10
629.219469406501
 20
1090.833394069355
 30
0.0
 11
629.219469406501
 21
1036.807958926578
 31
0.0
  0
LINE
  5
24AF
330
2096
100
AcDbEntity
  8
実形
 62
     0
370
    15
100
AcDbLine
 10
1279.219469406501
 20
1090.833394069355
 30
0.0
 11
1279.219469406501
 21
1036.807958926578
 31
0.0
  0
LINE
  5
24B0
330
2096
100
AcDbEntity
  8
実形
 62
     0
370
    15
100
AcDbLine
 10
629.219469406501
 20
1036.807958926578
 30
0.0
 11
1279.219469406501
 21
1036.807958926578
 31
0.0
  0
MTEXT
  5
24B1
330
2096
100
AcDbEntity
  8
実形
 62
     0
100
AcDbMText
 10
1240.719934199314
 20
1055.557958926578
 30
0.0
 40
25.0
 41
0.0
 71
     5
 72
     1
  1
15
 73
     1
 44
1.0
1001
ACAD
1000
MTEXTBEGIN
1070
    73
1070
     1
1070
    44
1040
1.0
1070
    74
1070
     0
1000
MTEXTEND
  0
INSERT
  5
24B2
330
2096
100
AcDbEntity
  8
実形
 62
     0
370
    15
100
AcDbBlockReference
  2
_DotSmall
 10
629.219469406501
 20
1036.807958926578
 30
0.0
 41
30.0
 42
30.0
 43
30.0
 50
180.0
  0
INSERT
  5
24B3
330
2096
100
AcDbEntity
  8
実形
 62
     0
370
    15
100
AcDbBlockReference
  2
_DotSmall
 10
1279.219469406501
 20
1036.807958926578
 30
0.0
 41
30.0
 42
30.0
 43
30.0
  0
POINT
  5
24B4
330
2096
100
AcDbEntity
  8
Defpoints
 62
     0
100
AcDbPoint
 10
629.219469406501
 20
1155.833394069355
 30
0.0
  0
POINT
  5
24B5
330
2096
100
AcDbEntity
  8
Defpoints
 62
     0
100
AcDbPoint
 10
1279.219469406501
 20
1155.833394069355
 30
0.0
  0
POINT
  5
24B6
330
2096
100
AcDbEntity
  8
Defpoints
 62
     0
100
AcDbPoint
 10
1279.219469406501
 20
1036.807958926578
 30
0.0
  0
ENDBLK
  5
20A1
330
2096
100
AcDbEntity
  8
0
 62
     3
100
AcDbBlockEnd
  0
BLOCK
  5
20E4
330
20DA
100
AcDbEntity
  8
0
100
AcDbBlockBegin
  2
*D29
 70
     1
 10
0.0
 20
0.0
 30
0.0
  3
*D29
  1

  0
LINE
  5
24B7
330
20DA
100
AcDbEntity
  8
実形
 62
     0
370
    15
100
AcDbLine
 10
629.219469406501
 20
1090.833394069355
 30
0.0
 11
629.219469406501
 21
1036.807958926578
 31
0.0
  0
LINE
  5
24B8
330
20DA
100
AcDbEntity
  8
実形
 62
     0
370
    15
100
AcDbLine
 10
1279.219469406501
 20
1090.833394069355
 30
0.0
 11
1279.219469406501
 21
1036.807958926578
 31
0.0
  0
LINE
  5
24B9
330
20DA
100
AcDbEntity
  8
実形
 62
     0
370
    15
100
AcDbLine
 10
629.219469406501
 20
1036.807958926578
 30
0.0
 11
1279.219469406501
 21
1036.807958926578
 31
0.0
  0
INSERT
  5
24BA
330
20DA
100
AcDbEntity
  8
実形
 62
     0
370
    15
100
AcDbBlockReference
  2
_DotSmall
 10
629.219469406501
 20
1036.807958926578
 30
0.0
 41
30.0
 42
30.0
 43
30.0
 50
180.0
  0
INSERT
  5
24BB
330
20DA
100
AcDbEntity
  8
実形
 62
     0
370
    15
100
AcDbBlockReference
  2
_DotSmall
 10
1279.219469406501
 20
1036.807958926578
 30
0.0
 41
30.0
 42
30.0
 43
30.0
  0
MTEXT
  5
24BC
330
20DA
100
AcDbEntity
  8
実形
 62
     0
100
AcDbMText
 10
954.219469406501
 20
1055.557958926578
 30
0.0
 40
25.0
 41
0.0
 71
     5
 72
     1
  1
620
 73
     1
 44
1.0
1001
ACAD
1000
MTEXTBEGIN
1070
    73
1070
     1
1070
    44
1040
1.0
1070
    74
1070
     0
1000
MTEXTEND
  0
POINT
  5
24BD
330
20DA
100
AcDbEntity
  8
Defpoints
 62
     0
100
AcDbPoint
 10
629.219469406501
 20
1155.833394069355
 30
0.0
  0
POINT
  5
24BE
330
20DA
100
AcDbEntity
  8
Defpoints
 62
     0
100
AcDbPoint
 10
1279.219469406501
 20
1155.833394069355
 30
0.0
  0
POINT
  5
24BF
330
20DA
100
AcDbEntity
  8
Defpoints
 62
     0
100
AcDbPoint
 10
1279.219469406501
 20
1036.807958926578
 30
0.0
  0
ENDBLK
  5
20E5
330
20DA
100
AcDbEntity
  8
0
100
AcDbBlockEnd
  0
BLOCK
  5
212C
330
2122
100
AcDbEntity
  8
0
100
AcDbBlockBegin
  2
*D30
 70
     1
 10
0.0
 20
0.0
 30
0.0
  3
*D30
  1

  0
LINE
  5
24C0
330
2122
100
AcDbEntity
  8
実形
 62
     0
370
    15
100
AcDbLine
 10
612.219469406501
 20
1090.833394069355
 30
0.0
 11
612.219469406501
 21
920.1151315116613
 31
0.0
  0
LINE
  5
24C1
330
2122
100
AcDbEntity
  8
実形
 62
     0
370
    15
100
AcDbLine
 10
1296.219469406501
 20
1090.833394069355
 30
0.0
 11
1296.219469406501
 21
920.1151315116613
 31
0.0
  0
LINE
  5
24C2
330
2122
100
AcDbEntity
  8
実形
 62
     0
370
    15
100
AcDbLine
 10
612.219469406501
 20
920.1151315116613
 30
0.0
 11
1296.219469406501
 21
920.1151315116613
 31
0.0
  0
INSERT
  5
24C3
330
2122
100
AcDbEntity
  8
実形
 62
     0
370
    15
100
AcDbBlockReference
  2
_DotSmall
 10
612.219469406501
 20
920.1151315116613
 30
0.0
 41
30.0
 42
30.0
 43
30.0
 50
180.0
  0
INSERT
  5
24C4
330
2122
100
AcDbEntity
  8
実形
 62
     0
370
    15
100
AcDbBlockReference
  2
_DotSmall
 10
1296.219469406501
 20
920.1151315116613
 30
0.0
 41
30.0
 42
30.0
 43
30.0
  0
MTEXT
  5
24C5
330
2122
100
AcDbEntity
  8
実形
 62
     0
100
AcDbMText
 10
954.219469406501
 20
938.8651315116613
 30
0.0
 40
25.0
 41
0.0
 71
     5
 72
     1
  1
684
 73
     1
 44
1.0
1001
ACAD
1000
MTEXTBEGIN
1070
    73
1070
     1
1070
    44
1040
1.0
1070
    74
1070
     0
1000
MTEXTEND
  0
POINT
  5
24C6
330
2122
100
AcDbEntity
  8
Defpoints
 62
     0
100
AcDbPoint
 10
612.219469406501
 20
1155.833394069355
 30
0.0
  0
POINT
  5
24C7
330
2122
100
AcDbEntity
  8
Defpoints
 62
     0
100
AcDbPoint
 10
1296.219469406501
 20
1155.833394069355
 30
0.0
  0
POINT
  5
24C8
330
2122
100
AcDbEntity
  8
Defpoints
 62
     0
100
AcDbPoint
 10
1296.219469406501
 20
920.1151315116613
 30
0.0
  0
ENDBLK
  5
212D
330
2122
100
AcDbEntity
  8
0
100
AcDbBlockEnd
  0
BLOCK
  5
2139
330
212F
100
AcDbEntity
  8
0
100
AcDbBlockBegin
  2
*D31
 70
     1
 10
0.0
 20
0.0
 30
0.0
  3
*D31
  1

  0
LINE
  5
24C9
330
212F
100
AcDbEntity
  8
実形
 62
     0
370
    15
100
AcDbLine
 10
612.219469406501
 20
1090.833394069355
 30
0.0
 11
612.219469406501
 21
978.3996316766378
 31
0.0
  0
LINE
  5
24CA
330
212F
100
AcDbEntity
  8
実形
 62
     0
370
    15
100
AcDbLine
 10
1296.219469406501
 20
1090.833394069355
 30
0.0
 11
1296.219469406501
 21
978.3996316766378
 31
0.0
  0
LINE
  5
24CB
330
212F
100
AcDbEntity
  8
実形
 62
     0
370
    15
100
AcDbLine
 10
612.219469406501
 20
978.3996316766378
 30
0.0
 11
1296.219469406501
 21
978.3996316766378
 31
0.0
  0
MTEXT
  5
24CC
330
212F
100
AcDbEntity
  8
実形
 62
     0
100
AcDbMText
 10
1245.731212093765
 20
1002.285437058329
 30
0.0
 40
25.0
 41
0.0
 71
     5
 72
     1
  1
17
 73
     1
 44
1.0
1001
ACAD
1000
MTEXTBEGIN
1070
    73
1070
     1
1070
    44
1040
1.0
1070
    74
1070
     0
1000
MTEXTEND
  0
INSERT
  5
24CD
330
212F
100
AcDbEntity
  8
実形
 62
     0
370
    15
100
AcDbBlockReference
  2
_DotSmall
 10
612.219469406501
 20
978.3996316766378
 30
0.0
 41
30.0
 42
30.0
 43
30.0
 50
180.0
  0
INSERT
  5
24CE
330
212F
100
AcDbEntity
  8
実形
 62
     0
370
    15
100
AcDbBlockReference
  2
_DotSmall
 10
1296.219469406501
 20
978.3996316766378
 30
0.0
 41
30.0
 42
30.0
 43
30.0
  0
POINT
  5
24CF
330
212F
100
AcDbEntity
  8
Defpoints
 62
     0
100
AcDbPoint
 10
612.219469406501
 20
1155.833394069355
 30
0.0
  0
POINT
  5
24D0
330
212F
100
AcDbEntity
  8
Defpoints
 62
     0
100
AcDbPoint
 10
1296.219469406501
 20
1155.833394069355
 30
0.0
  0
POINT
  5
24D1
330
212F
100
AcDbEntity
  8
Defpoints
 62
     0
100
AcDbPoint
 10
1296.219469406501
 20
978.3996316766378
 30
0.0
  0
ENDBLK
  5
213A
330
212F
100
AcDbEntity
  8
0
100
AcDbBlockEnd
  0
BLOCK
  5
2180
330
2176
100
AcDbEntity
  8
0
100
AcDbBlockBegin
  2
*D32
 70
     1
 10
0.0
 20
0.0
 30
0.0
  3
*D32
  1

  0
LINE
  5
24D2
330
2176
100
AcDbEntity
  8
実形
 62
     0
370
    15
100
AcDbLine
 10
612.219469406501
 20
1090.833394069355
 30
0.0
 11
612.219469406501
 21
978.3996316766378
 31
0.0
  0
LINE
  5
24D3
330
2176
100
AcDbEntity
  8
実形
 62
     0
370
    15
100
AcDbLine
 10
1296.219469406501
 20
1075.374773889132
 30
0.0
 11
1296.219469406501
 21
978.3996316766378
 31
0.0
  0
LINE
  5
24D4
330
2176
100
AcDbEntity
  8
実形
 62
     0
370
    15
100
AcDbLine
 10
612.219469406501
 20
978.3996316766378
 30
0.0
 11
1296.219469406501
 21
978.3996316766378
 31
0.0
  0
MTEXT
  5
24D5
330
2176
100
AcDbEntity
  8
実形
 62
     0
100
AcDbMText
 10
657.5021062038095
 20
1001.821025430189
 30
0.0
 40
25.0
 41
0.0
 71
     5
 72
     1
  1
17
 73
     1
 44
1.0
1001
ACAD
1000
MTEXTBEGIN
1070
    73
1070
     1
1070
    44
1040
1.0
1070
    74
1070
     0
1000
MTEXTEND
  0
INSERT
  5
24D6
330
2176
100
AcDbEntity
  8
実形
 62
     0
370
    15
100
AcDbBlockReference
  2
_DotSmall
 10
612.219469406501
 20
978.3996316766378
 30
0.0
 41
30.0
 42
30.0
 43
30.0
 50
180.0
  0
INSERT
  5
24D7
330
2176
100
AcDbEntity
  8
実形
 62
     0
370
    15
100
AcDbBlockReference
  2
_DotSmall
 10
1296.219469406501
 20
978.3996316766378
 30
0.0
 41
30.0
 42
30.0
 43
30.0
  0
POINT
  5
24D8
330
2176
100
AcDbEntity
  8
Defpoints
 62
     0
100
AcDbPoint
 10
612.219469406501
 20
1155.833394069355
 30
0.0
  0
POINT
  5
24D9
330
2176
100
AcDbEntity
  8
Defpoints
 62
     0
100
AcDbPoint
 10
1296.219469406501
 20
1140.374773889132
 30
0.0
  0
POINT
  5
24DA
330
2176
100
AcDbEntity
  8
Defpoints
 62
     0
100
AcDbPoint
 10
1296.219469406501
 20
978.3996316766378
 30
0.0
  0
ENDBLK
  5
2181
330
2176
100
AcDbEntity
  8
0
100
AcDbBlockEnd
  0
BLOCK
  5
22A6
330
229C
100
AcDbEntity
  8
0
 62
     3
100
AcDbBlockBegin
  2
*D33
 70
     1
 10
0.0
 20
0.0
 30
0.0
  3
*D33
  1

  0
LINE
  5
246F
330
229C
100
AcDbEntity
  8
実形
 62
     0
370
    15
100
AcDbLine
 10
1723.512425656321
 20
857.0626061371532
 30
0.0
 11
1723.512425656321
 21
898.239547659331
 31
0.0
  0
LINE
  5
2470
330
229C
100
AcDbEntity
  8
実形
 62
     0
370
    15
100
AcDbLine
 10
1573.512425656321
 20
857.0626061371532
 30
0.0
 11
1573.512425656321
 21
898.239547659331
 31
0.0
  0
LINE
  5
2471
330
229C
100
AcDbEntity
  8
実形
 62
     0
370
    15
100
AcDbLine
 10
1723.512425656321
 20
898.239547659331
 30
0.0
 11
1573.512425656321
 21
898.239547659331
 31
0.0
  0
INSERT
  5
2472
330
229C
100
AcDbEntity
  8
実形
 62
     0
370
    15
100
AcDbBlockReference
  2
_DotSmall
 10
1723.512425656321
 20
898.239547659331
 30
0.0
 41
30.0
 42
30.0
 43
30.0
  0
INSERT
  5
2473
330
229C
100
AcDbEntity
  8
実形
 62
     0
370
    15
100
AcDbBlockReference
  2
_DotSmall
 10
1573.512425656321
 20
898.239547659331
 30
0.0
 41
30.0
 42
30.0
 43
30.0
 50
180.0
  0
MTEXT
  5
2474
330
229C
100
AcDbEntity
  8
実形
 62
     0
100
AcDbMText
 10
1648.512425656321
 20
916.989547659331
 30
0.0
 40
25.0
 41
0.0
 71
     5
 72
     1
  1
15
 73
     1
 44
1.0
1001
ACAD
1000
MTEXTBEGIN
1070
    73
1070
     1
1070
    44
1040
1.0
1070
    74
1070
     0
1000
MTEXTEND
  0
POINT
  5
2475
330
229C
100
AcDbEntity
  8
Defpoints
 62
     0
100
AcDbPoint
 10
1723.512425656321
 20
792.0626061371532
 30
0.0
  0
POINT
  5
2476
330
229C
100
AcDbEntity
  8
Defpoints
 62
     0
100
AcDbPoint
 10
1573.512425656321
 20
792.0626061371532
 30
0.0
  0
POINT
  5
2477
330
229C
100
AcDbEntity
  8
Defpoints
 62
     0
100
AcDbPoint
 10
1573.512425656321
 20
898.239547659331
 30
0.0
  0
ENDBLK
  5
22A7
330
229C
100
AcDbEntity
  8
0
 62
     3
100
AcDbBlockEnd
  0
ENDSEC
  0
SECTION
  2
ENTITIES
  0
LINE
  5
9C
330
1F
100
AcDbEntity
  8
補助
100
AcDbLine
 10
111.0
 20
4.0
 30
0.0
 11
2784.0
 21
4.0
 31
0.0
  0
LINE
  5
A0
330
1F
100
AcDbEntity
  8
補助
100
AcDbLine
 10
2784.0
 20
2024.0
 30
0.0
 11
111.0
 21
2024.0
 31
0.0
  0
LINE
  5
A5
330
1F
100
AcDbEntity
  8
補助
100
AcDbLine
 10
2784.0
 20
4.0
 30
0.0
 11
2784.0
 21
2024.0
 31
0.0
  0
LINE
  5
A8
330
1F
100
AcDbEntity
  8
補助
100
AcDbLine
 10
2184.0
 20
69.0
 30
0.0
 11
2184.0
 21
199.0
 31
0.0
  0
LINE
  5
A9
330
1F
100
AcDbEntity
  8
補助
100
AcDbLine
 10
2184.0
 20
69.0
 30
0.0
 11
2784.0
 21
69.0
 31
0.0
  0
LINE
  5
AA
330
1F
100
AcDbEntity
  8
補助
100
AcDbLine
 10
2064.0
 20
134.0
 30
0.0
 11
2784.0
 21
134.0
 31
0.0
  0
LINE
  5
AB
330
1F
100
AcDbEntity
  8
補助
100
AcDbLine
 10
2064.0
 20
199.0
 30
0.0
 11
2784.0
 21
199.0
 31
0.0
  0
LINE
  5
AD
330
1F
100
AcDbEntity
  8
補助
100
AcDbLine
 10
2784.0
 20
4.0
 30
0.0
 11
2784.0
 21
69.0
 31
0.0
  0
LINE
  5
260
330
1F
100
AcDbEntity
  8
0
100
AcDbLine
 10
1279.219469406501
 20
1258.86010153411
 30
0.0
 11
1279.219469406501
 21
1568.86010153411
 31
0.0
  0
LINE
  5
262
330
1F
100
AcDbEntity
  8
0
100
AcDbLine
 10
629.2194694065009
 20
1503.860101534109
 30
0.0
 11
629.219469406501
 21
1258.86010153411
 31
0.0
  0
LINE
  5
32D
330
1F
100
AcDbEntity
  8
0
100
AcDbLine
 10
1279.219469406501
 20
1243.86010153411
 30
0.0
 11
1279.219469406501
 21
1458.86010153411
 31
0.0
  0
CIRCLE
  5
334
330
1F
100
AcDbEntity
  8
0
100
AcDbCircle
 10
954.219469406501
 20
1488.86010153411
 30
0.0
 40
79.0
  0
CIRCLE
  5
335
330
1F
100
AcDbEntity
  8
0
100
AcDbCircle
 10
954.219469406501
 20
1488.86010153411
 30
0.0
 40
90.5
  0
DIMENSION
  5
384
330
1F
100
AcDbEntity
  8
0
100
AcDbDimension
  2
*D4
 10
1121.743998355242
 20
1648.86010153411
 30
0.0
 11
1121.743998355241
 21
1533.410495785237
 31
0.0
 70
   160
 71
     5
 42
160.0
  3
ISO-25
100
AcDbAlignedDimension
 13
1022.896779836488
 23
1488.86010153411
 33
0.0
 14
979.0402472180225
 24
1648.86010153411
 34
0.0
 50
90.0
100
AcDbRotatedDimension
  0
LINE
  5
39A
330
1F
100
AcDbEntity
  8
Cen
 48
0.8
100
AcDbLine
 10
1088.327031085579
 20
1488.86010153411
 30
0.0
 11
820.1119077274224
 21
1488.86010153411
 31
0.0
  0
LINE
  5
39B
330
1F
100
AcDbEntity
  8
Cen
 48
0.8
100
AcDbLine
 10
954.219469406501
 20
1366.382700623617
 30
0.0
 11
954.219469406501
 21
1593.337502444603
 31
0.0
  0
DIMENSION
  5
3BF
330
1F
100
AcDbEntity
  8
0
100
AcDbDimension
  2
*D6
 10
1084.219469406501
 20
1812.371067448058
 30
0.0
 11
954.219469406501
 21
1831.121067448058
 31
0.0
 70
    32
 71
     5
 42
260.0
  3
ISO-25
100
AcDbAlignedDimension
 13
824.2194694065011
 23
1730.86010153411
 33
0.0
 14
1084.219469406501
 24
1730.86010153411
 34
0.0
100
AcDbRotatedDimension
  0
LINE
  5
3DD
330
1F
100
AcDbEntity
  8
Cen
100
AcDbLine
 10
1084.219469406501
 20
1795.86010153411
 30
0.0
 11
1084.219469406501
 21
1601.86010153411
 31
0.0
  0
LINE
  5
3DE
330
1F
100
AcDbEntity
  8
Cen
100
AcDbLine
 10
824.2194694065011
 20
1795.86010153411
 30
0.0
 11
824.2194694065011
 21
1601.86010153411
 31
0.0
  0
CIRCLE
  5
3DF
330
1F
100
AcDbEntity
  8
Cen
100
AcDbCircle
 10
1084.219469406501
 20
1633.86010153411
 30
0.0
 40
6.0
  0
CIRCLE
  5
3E0
330
1F
100
AcDbEntity
  8
Cen
100
AcDbCircle
 10
824.2194694065011
 20
1633.86010153411
 30
0.0
 40
6.0
  0
LINE
  5
407
330
1F
100
AcDbEntity
  8
0
100
AcDbLine
 10
1282.2194694065
 20
721.2929064030613
 30
0.0
 11
1296.219469406501
 21
721.2929064030613
 31
0.0
  0
LINE
  5
40A
330
1F
100
AcDbEntity
  8
0
100
AcDbLine
 10
629.2194694065011
 20
718.2929064030612
 30
0.0
 11
629.2194694065011
 21
709.2929064030613
 31
0.0
  0
LINE
  5
40B
330
1F
100
AcDbEntity
  8
0
100
AcDbLine
 10
1279.219469406501
 20
718.2929064030613
 30
0.0
 11
1279.219469406501
 21
709.2929064030612
 31
0.0
  0
DIMENSION
  5
473
330
1F
100
AcDbEntity
  8
0
100
AcDbDimension
  2
*D7
 10
874.7194694065008
 20
402.8984317050462
 30
0.0
 11
954.219469406501
 21
421.6484317050462
 31
0.0
 70
    32
  1
158
 71
     5
 42
159.0000000000002
  3
ISO-25
100
AcDbAlignedDimension
 13
1033.719469406501
 23
524.2929064030613
 33
0.0
 14
874.7194694065008
 24
524.2929064030615
 34
0.0
100
AcDbRotatedDimension
  0
DIMENSION
  5
480
330
1F
100
AcDbEntity
  8
0
100
AcDbDimension
  2
*D8
 10
863.719469406501
 20
633.445930941033
 30
0.0
 11
954.219469406501
 21
652.195930941033
 31
0.0
 70
    32
 71
     5
 42
181.0
  3
ISO-25
100
AcDbAlignedDimension
 13
1044.719469406501
 23
531.2929064030613
 33
0.0
 14
863.719469406501
 24
531.2929064030615
 34
0.0
100
AcDbRotatedDimension
  0
LINE
  5
48E
330
1F
100
AcDbEntity
  8
Cen
100
AcDbLine
 10
954.219469406501
 20
614.5984983582966
 30
0.0
 11
954.219469406501
 21
500.0383644579369
 31
0.0
  0
LINE
  5
48F
330
1F
100
AcDbEntity
  8
0
100
AcDbLine
 10
1623.676615367452
 20
1175.86010153411
 30
0.0
 11
1623.676615367452
 21
1161.86010153411
 31
0.0
  0
LINE
  5
492
330
1F
100
AcDbEntity
  8
0
100
AcDbLine
 10
1626.676615367452
 20
1648.86010153411
 30
0.0
 11
1635.676615367452
 21
1648.86010153411
 31
0.0
  0
LINE
  5
49D
330
1F
100
AcDbEntity
  8
0
100
AcDbLine
 10
1638.676615367452
 20
1190.86010153411
 30
0.0
 11
1638.676615367452
 21
1181.86010153411
 31
0.0
  0
LINE
  5
49E
330
1F
100
AcDbEntity
  8
0
100
AcDbLine
 10
1813.676615367453
 20
1538.860101534109
 30
0.0
 11
1813.676615367453
 21
1399.235101534114
 31
0.0
  0
LINE
  5
4AE
330
1F
100
AcDbEntity
  8
Cen
100
AcDbLine
 10
1719.082785587245
 20
1487.86010153411
 30
0.0
 11
1849.737197822567
 21
1487.86010153411
 31
0.0
  0
CIRCLE
  5
4AF
330
1F
100
AcDbEntity
  8
Cen
  6
HIDDEN2
 48
1.5
100
AcDbCircle
 10
1277.249809251076
 20
713.9149170309183
 30
0.0
 40
64.39211969241114
  0
ARC
  5
4B0
330
1F
100
AcDbEntity
  8
Cen
  6
Continuous
100
AcDbCircle
 10
1510.671228550149
 20
536.976454026585
 30
0.0
 40
302.1247328958318
100
AcDbArc
 50
90.0
 51
130.5390852135428
  0
LINE
  5
4B4
330
1F
100
AcDbEntity
  8
Cen
100
AcDbLine
 10
1490.563517730203
 20
847.4467280951794
 30
0.0
 11
1510.671228550149
 21
839.1011869224168
 31
0.0
  0
LINE
  5
4B5
330
1F
100
AcDbEntity
  8
Cen
100
AcDbLine
 10
1510.671228550149
 20
839.1011869224168
 30
0.0
 11
1491.648576546991
 21
828.6538668904249
 31
0.0
  0
LINE
  5
4B7
330
1F
100
AcDbEntity
  8
0
100
AcDbLine
 10
1571.491128709993
 20
792.0626061371534
 30
0.0
 11
1893.512425656321
 21
792.0626061371531
 31
0.0
  0
LINE
  5
4B8
330
1F
100
AcDbEntity
  8
0
100
AcDbLine
 10
1723.512425656321
 20
762.0626061371531
 30
0.0
 11
1723.512425656321
 21
682.0626061371531
 31
0.0
  0
DIMENSION
  5
4C1
330
1F
100
AcDbEntity
  8
0
100
AcDbDimension
  2
*D9
 10
1723.512425656321
 20
898.239547659331
 30
0.0
 11
1808.512425656321
 21
916.989547659331
 31
0.0
 70
    32
  1
17
 71
     5
 42
170.0
  3
ISO-25
100
AcDbAlignedDimension
 13
1893.512425656321
 23
792.0626061371531
 33
0.0
 14
1723.512425656321
 24
792.0626061371531
 34
0.0
100
AcDbRotatedDimension
  0
ARC
  5
4CE
330
1F
100
AcDbEntity
  8
0
100
AcDbCircle
 10
1753.512425656321
 20
762.0626061371531
 30
0.0
 40
30.0
100
AcDbArc
 50
90.0
 51
180.0
  0
LINE
  5
4CF
330
1F
100
AcDbEntity
  8
0
100
AcDbLine
 10
1753.512425656321
 20
782.0626061371531
 30
0.0
 11
1893.512425656321
 21
782.0626061371531
 31
0.0
  0
ARC
  5
4D0
330
1F
100
AcDbEntity
  8
0
100
AcDbCircle
 10
1753.512425656321
 20
762.0626061371531
 30
0.0
 40
20.0
100
AcDbArc
 50
90.0
 51
180.0
  0
LINE
  5
4D1
330
1F
100
AcDbEntity
  8
0
100
AcDbLine
 10
1733.512425656321
 20
762.0626061371531
 30
0.0
 11
1733.512425656321
 21
672.0626061371531
 31
0.0
  0
LINE
  5
4D2
330
1F
100
AcDbEntity
  8
0
100
AcDbLine
 10
1893.512425656321
 20
792.0626061371531
 30
0.0
 11
1893.512425656321
 21
782.0626061371531
 31
0.0
  0
LEADER
  5
50F
330
1F
100
AcDbEntity
  8
0
100
AcDbLeader
  3
ISO-25
 40
25.0
 41
41.66666666666666
 76
     2
 10
1091.730817186158
 20
1639.80634227478
 30
0.0
 10
1116.063845828514
 20
1725.216116655412
 30
0.0
211
-1.0
221
0.0
231
0.0
210
0.0
220
0.0
230
-1.0
213
0.0
223
12.5
233
0.0
1001
ACAD
1000
DSTYLE
1002
{
1070
    41
1040
25.0
1070
   147
1040
6.25
1070
    77
1070
     0
1070
    73
1070
     1
1070
    74
1070
     1
1070
   342
1005
DA
1002
}
  0
TEXT
  5
511
330
1F
100
AcDbEntity
  8
0
100
AcDbText
 10
1106.58433616996
 20
1737.825042911197
 30
0.0
 40
25.0
  1
12%%C
 72
     2
 11
1164.917669503294
 21
1734.491709577864
 31
0.0
100
AcDbText
 73
     1
  0
LEADER
  5
52C
330
1F
100
AcDbEntity
  8
0
100
AcDbLeader
  3
ISO-25
 40
33.33333333333333
 41
66.66666666666668
 76
     2
 10
1231.547398185988
 20
1171.349784572831
 30
0.0
 10
1147.969489267557
 20
1209.10173928263
 30
0.0
213
0.0
223
12.5
233
0.0
1001
ACAD
1000
DSTYLE
1002
{
1070
    41
1040
25.0
1070
   147
1040
6.25
1070
    77
1070
     0
1070
    73
1070
     1
1070
    74
1070
     1
1070
   279
1070
     1
1070
   342
1005
DA
1002
}
  0
TEXT
  5
52E
330
1F
100
AcDbEntity
  8
0
100
AcDbText
 10
1075.006753927831
 20
1205.015898327318
 30
0.0
 40
25.0
  1
97R
 72
     2
 11
1141.673420594497
 21
1201.682564993985
 31
0.0
100
AcDbText
 73
     1
  0
MTEXT
  5
532
330
1F
100
AcDbEntity
  8
0
100
AcDbMText
 10
1469.226616777811
 20
1181.110374981098
 30
0.0
 40
25.0
 41
0.0
 71
     9
 72
     1
  1

 73
     1
 44
1.0
1001
ACAD
1000
MTEXTBEGIN
1070
    73
1070
     1
1070
    44
1040
1.0
1070
    74
1070
     0
1000
MTEXTEND
  0
LEADER
  5
533
330
1F
100
AcDbEntity
  8
0
100
AcDbLeader
  3
ISO-25
 40
25.0
 41
16.66666666666666
 76
     2
 10
1247.807314091026
 20
1197.420589173032
 30
0.0
 10
1150.259294762999
 20
1257.149685968043
 30
0.0
213
-97.31675022588753
223
44.53196128345098
233
0.0
1001
ACAD
1000
DSTYLE
1002
{
1070
    41
1040
25.0
1070
   147
1040
6.25
1070
    77
1070
     0
1070
    73
1070
     1
1070
    74
1070
     1
1070
   279
1070
     1
1070
   342
1005
DA
1002
}
  0
TEXT
  5
537
330
1F
100
AcDbEntity
  8
0
100
AcDbText
 10
1077.455161698702
 20
1252.475031360634
 30
0.0
 40
25.0
  1
80R
 72
     2
 11
1139.955161698702
 21
1249.1416980273
 31
0.0
100
AcDbText
 73
     1
  0
LEADER
  5
53A
330
1F
100
AcDbEntity
  8
0
100
AcDbLeader
  3
ISO-25
 40
25.0
 41
16.66666666666666
 76
     2
 10
1247.164221704629
 20
1221.048703221139
 30
0.0
 10
1193.7656075112
 20
1297.189639952476
 30
0.0
213
0.0
223
12.5
233
0.0
1001
ACAD
1000
DSTYLE
1002
{
1070
    41
1040
25.0
1070
   147
1040
6.25
1070
    77
1070
     0
1070
    73
1070
     1
1070
    74
1070
     1
1070
   279
1070
     1
1070
   342
1005
DA
1002
}
  0
TEXT
  5
53C
330
1F
100
AcDbEntity
  8
0
100
AcDbText
 10
1120.229516023397
 20
1295.946979496779
 30
0.0
 40
25.0
  1
65R
 72
     2
 11
1186.896182690064
 21
1292.613646163446
 31
0.0
100
AcDbText
 73
     1
  0
LEADER
  5
53D
330
1F
100
AcDbEntity
  8
0
100
AcDbLeader
  3
ISO-25
 40
25.0
 41
16.66666666666666
 76
     2
 10
876.5102053579102
 20
1196.553318899198
 30
0.0
 10
902.2862354548296
 20
1243.387885852636
 30
0.0
213
0.0
223
-12.5
233
0.0
1001
ACAD
1000
DSTYLE
1002
{
1070
    41
1040
25.0
1070
   147
1040
6.25
1070
    77
1070
     0
1070
    73
1070
     1
1070
    74
1070
     1
1070
   279
1070
     1
1070
   342
1005
DA
1002
}
  0
TEXT
  5
53F
330
1F
100
AcDbEntity
  8
0
100
AcDbText
 10
877.0653372380857
 20
1258.013236762618
 30
0.0
 40
25.0
  1
10000R
 11
877.0653372380857
 21
1254.679903429285
 31
0.0
100
AcDbText
 73
     1
  0
LEADER
  5
540
330
1F
100
AcDbEntity
  8
0
100
AcDbLeader
  3
ISO-25
 76
     2
 10
1253.287255831114
 20
1355.069230630536
 30
0.0
 10
1181.16354931805
 20
1355.448738047424
 30
0.0
1001
ACAD
1000
DSTYLE
1002
{
1070
    41
1040
25.0
1070
   147
1040
6.25
1070
    77
1070
     0
1070
    73
1070
     1
1070
    74
1070
     1
1070
   279
1070
     1
1070
   342
1005
DA
1002
}
  0
TEXT
  5
54B
330
1F
100
AcDbEntity
  8
0
100
AcDbText
 10
1051.478385363675
 20
1343.884010478094
 30
0.0
 40
25.0
  1
10000R
 72
     2
 11
1168.145052030341
 21
1356.384010478094
 31
0.0
100
AcDbText
 73
     2
  0
LEADER
  5
54C
330
1F
100
AcDbEntity
  8
0
100
AcDbLeader
  3
ISO-25
 40
25.0
 41
16.66666666666666
 76
     2
 10
1255.567209293036
 20
1616.792650714483
 30
0.0
 10
1236.348696604697
 20
1511.514854585139
 30
0.0
213
0.0
223
12.5
233
0.0
1001
ACAD
1000
DSTYLE
1002
{
1070
    41
1040
25.0
1070
   147
1040
6.25
1070
    77
1070
     0
1070
    73
1070
     1
1070
    74
1070
     1
1070
   279
1070
     1
1070
   342
1005
DA
1002
}
  0
TEXT
  5
54E
330
1F
100
AcDbEntity
  8
0
100
AcDbText
 10
1193.467883108675
 20
1478.81932254299
 30
0.0
 40
25.0
  1
80R
 72
     2
 11
1255.967883108675
 21
1475.485989209656
 31
0.0
100
AcDbText
 73
     1
  0
LEADER
  5
558
330
1F
100
AcDbEntity
  8
0
100
AcDbLeader
  3
ISO-25
 40
25.0
 41
16.66666666666666
 76
     2
 10
873.5958322271626
 20
1622.794335427214
 30
0.0
 10
922.4019443800662
 20
1606.878319042653
 30
0.0
213
0.0
223
-12.5
233
0.0
1001
ACAD
1000
DSTYLE
1002
{
1070
    41
1040
25.0
1070
   147
1040
6.25
1070
    77
1070
     0
1070
    73
1070
     1
1070
    74
1070
     1
1070
   279
1070
     1
1070
   342
1005
DA
1002
}
  0
TEXT
  5
55A
330
1F
100
AcDbEntity
  8
0
100
AcDbText
 10
930.4162636141118
 20
1590.438781532761
 30
0.0
 40
25.0
  1
45R
 11
930.4162636141118
 21
1587.105448199428
 31
0.0
100
AcDbText
 73
     1
  0
MTEXT
  5
55C
330
1F
100
AcDbEntity
  8
0
100
AcDbMText
 10
1010.02660136874
 20
1423.470120422065
 30
0.0
 40
25.0
 41
0.0
 71
     1
 72
     1
  1

 73
     1
 44
1.0
1001
ACAD
1000
MTEXTBEGIN
1070
    73
1070
     1
1070
    44
1040
1.0
1070
    74
1070
     0
1000
MTEXTEND
  0
LEADER
  5
563
330
1F
100
AcDbEntity
  8
0
100
AcDbLeader
  3
ISO-25
 40
33.33333333333333
 41
16.66666666666667
 76
     2
 10
1260.927889463128
 20
1635.807414628702
 30
0.0
 10
1201.963825142464
 20
1594.358215892738
 30
0.0
211
-1.0
221
0.0
231
0.0
210
0.0
220
0.0
230
-1.0
213
0.0
223
-12.5
233
0.0
1001
ACAD
1000
DSTYLE
1002
{
1070
   147
1040
6.25
1070
    77
1070
     0
1070
    73
1070
     1
1070
    74
1070
     1
1070
   279
1070
     1
1070
   342
1005
DA
1002
}
  0
TEXT
  5
565
330
1F
100
AcDbEntity
  8
0
100
AcDbText
 10
1136.62467754052
 20
1585.564391327586
 30
0.0
 40
25.0
  1
97R
 11
1136.62467754052
 21
1610.564391327586
 31
0.0
100
AcDbText
 73
     3
  0
LINE
  5
56A
330
1F
100
AcDbEntity
  8
補助
100
AcDbLine
 10
2784.0
 20
134.0
 30
0.0
 11
2784.0
 21
199.0
 31
0.0
  0
TEXT
  5
56C
330
1F
100
AcDbEntity
  8
0
100
AcDbText
 10
2268.166666666667
 20
149.0
 30
0.0
 40
35.0
  1
PRS650-470GRM
 72
     4
 11
2484.0
 21
166.5
 31
0.0
100
AcDbText
  0
DIMENSION
  5
586
330
1F
100
AcDbEntity
  8
0
100
AcDbDimension
  2
*D10
 10
796.4469088348606
 20
1648.86010153411
 30
0.0
 11
794.2038224101516
 21
1689.317960018182
 31
0.0
 70
   160
  1
16
 71
     5
 42
15.00000000000023
  3
ISO-25
100
AcDbAlignedDimension
 13
872.4744054304029
 23
1633.86010153411
 33
0.0
 14
889.2194694065009
 24
1648.86010153411
 34
0.0
 50
90.0
100
AcDbRotatedDimension
1001
ACAD
1000
DSTYLE
1002
{
1070
   279
1070
     2
1002
}
  0
LINE
  5
59F
330
1F
100
AcDbEntity
  8
Cen
100
AcDbLine
 10
805.2113190226018
 20
1633.86010153411
 30
0.0
 11
839.7320405368345
 21
1633.86010153411
 31
0.0
  0
LINE
  5
5A0
330
1F
100
AcDbEntity
  8
Cen
100
AcDbLine
 10
1068.431807024556
 20
1633.86010153411
 30
0.0
 11
1101.334366982949
 21
1633.86010153411
 31
0.0
  0
LINE
  5
5A1
330
1F
100
AcDbEntity
  8
Cen
100
AcDbLine
 10
1067.892419839275
 20
1633.86010153411
 30
0.0
 11
1104.568844992143
 21
1633.316840743534
 31
0.0
  0
MTEXT
  5
5A9
330
1F
100
AcDbEntity
  8
Cen
100
AcDbMText
 10
1527.939315450184
 20
552.4831097022406
 30
0.0
 40
25.0
 41
0.0
 71
     9
 72
     1
  1

 73
     1
 44
1.0
1001
ACAD
1000
MTEXTBEGIN
1070
    73
1070
     1
1070
    44
1040
1.0
1070
    74
1070
     0
1000
MTEXTEND
  0
LEADER
  5
5AA
330
1F
100
AcDbEntity
  8
Cen
100
AcDbLeader
  3
ISO-25
 40
25.0
 41
16.66666666666666
 76
     2
 10
1245.326646729768
 20
557.8186372064733
 30
0.0
 10
1216.45023442774
 20
607.6631352539338
 30
0.0
213
0.0
223
12.5
233
0.0
1001
ACAD
1000
DSTYLE
1002
{
1070
    41
1040
25.0
1070
   147
1040
6.25
1070
    77
1070
     0
1070
   279
1070
     1
1002
}
  0
TEXT
  5
5AD
330
1F
100
AcDbEntity
  8
0
100
AcDbText
 10
1160.009969495365
 20
615.5333221265932
 30
0.0
 40
25.0
  1
30R
100
AcDbText
  0
LEADER
  5
5AE
330
1F
100
AcDbEntity
  8
Cen
100
AcDbLeader
  3
ISO-25
 40
25.0
 41
16.66666666666666
 76
     2
 10
1732.979597750429
 20
783.9350312013067
 30
0.0
 10
1787.668624358081
 20
715.4250968432607
 30
0.0
213
0.0
223
-12.5
233
0.0
1001
ACAD
1000
DSTYLE
1002
{
1070
    41
1040
25.0
1070
   147
1040
6.25
1070
    77
1070
     0
1070
   279
1070
     1
1002
}
  0
TEXT
  5
5B0
330
1F
100
AcDbEntity
  8
0
100
AcDbText
 10
1795.05151825761
 20
691.1861912451231
 30
0.0
 40
25.0
  1
3R
100
AcDbText
  0
LEADER
  5
5B2
330
1F
100
AcDbEntity
  8
Cen
100
AcDbLeader
  3
ISO-25
 40
25.0
 41
16.66666666666666
 76
     2
 10
1638.576944996574
 20
1568.298435912756
 30
0.0
 10
1584.984133594721
 20
1538.23913918315
 30
0.0
213
0.0
223
12.5
233
0.0
1001
ACAD
1000
DSTYLE
1002
{
1070
    41
1040
25.0
1070
   147
1040
6.25
1070
    77
1070
     0
1070
   279
1070
     1
1002
}
  0
LEADER
  5
5B4
330
1F
100
AcDbEntity
  8
Cen
100
AcDbLeader
  3
ISO-25
 76
     2
 10
1640.858384549867
 20
1191.169016711433
 30
0.0
 10
1696.654983598764
 20
1147.297099206247
 30
0.0
1001
ACAD
1000
DSTYLE
1002
{
1070
    41
1040
25.0
1070
   147
1040
6.25
1070
    77
1070
     0
1070
   279
1070
     1
1002
}
  0
TEXT
  5
5B7
330
1F
100
AcDbEntity
  8
0
100
AcDbText
 10
1700.574375221487
 20
1118.731184837909
 30
0.0
 40
25.0
  1
3R
100
AcDbText
  0
LEADER
  5
5B8
330
1F
100
AcDbEntity
  8
Cen
100
AcDbLeader
  3
ISO-25
 76
     2
 10
1637.324153332915
 20
1180.502380072366
 30
0.0
 10
1587.834272567004
 20
1213.643740411338
 30
0.0
1001
ACAD
1000
DSTYLE
1002
{
1070
    41
1040
25.0
1070
   147
1040
6.25
1070
    77
1070
     0
1070
   279
1070
     1
1002
}
  0
TEXT
  5
5B9
330
1F
100
AcDbEntity
  8
0
100
AcDbText
 10
1540.801581428239
 20
1203.737816650812
 30
0.0
 40
25.0
  1
3R
100
AcDbText
  0
TEXT
  5
5BA
330
1F
100
AcDbEntity
  8
0
100
AcDbText
 10
1537.018078962449
 20
1505.459683001173
 30
0.0
 40
25.0
  1
3R
100
AcDbText
  0
LINE
  5
5D0
330
1F
100
AcDbEntity
  8
補助
100
AcDbLine
 10
2784.0
 20
69.0
 30
0.0
 11
2784.0
 21
134.0
 31
0.0
  0
TEXT
  5
5D2
330
1F
100
AcDbEntity
  8
0
100
AcDbText
 10
2430.916666666667
 20
84.0
 30
0.0
 40
35.0
  1
1：10
 72
     4
 11
2484.0
 21
101.5
 31
0.0
100
AcDbText
  0
TEXT
  5
5D8
330
1F
100
AcDbEntity
  8
0
100
AcDbText
 10
231.1659029702105
 20
53.51169987015055
 30
0.0
 40
30.0
  1
※実寸には製造上の誤差が多少生ずる場合があります。シンクの穴あけ加工は現物合わせにてお願いします。
100
AcDbText
  0
TEXT
  5
5F4
330
1F
100
AcDbEntity
  8
補助
100
AcDbText
 10
2300.255774665348
 20
16.49999999999999
 30
0.0
 40
40.0
  1
中外交易株式会社
 72
     4
 11
2488.255774665347
 21
36.5
 31
0.0
100
AcDbText
  0
LINE
  5
5F5
330
1F
100
AcDbEntity
  8
補助
100
AcDbLine
 10
2064.0
 20
69.0
 30
0.0
 11
2784.0
 21
69.0
 31
0.0
  0
HATCH
  5
5F6
330
1F
100
AcDbEntity
  8
補助
100
AcDbHatch
 10
0.0
 20
0.0
 30
0.0
210
0.0
220
0.0
230
1.0
  2
SOLID
 70
     1
 71
     1
 91
        3
 92
        1
 93
        4
 72
     2
 10
2257.166198313996
 20
36.5
 40
20.0
 50
11.6477236670766
 51
342.6561058784691
 73
     1
 72
     1
 10
2276.256852341323
 20
30.53787547858514
 11
2252.166198313995
 21
30.53787547858519
 72
     1
 10
2252.166198313995
 20
30.53787547858519
 11
2252.166198313995
 21
40.53787547858519
 72
     1
 10
2252.166198313995
 20
40.53787547858519
 11
2276.75434681301
 21
40.53787547858519
 97
        4
330
5F7
330
5F9
330
5FA
330
5FB
 92
        1
 93
        4
 72
     2
 10
2188.255774665348
 20
36.5
 40
20.0
 50
11.6477236670766
 51
342.6561058784691
 73
     1
 72
     1
 10
2207.346428692676
 20
30.53787547858514
 11
2183.255774665347
 21
30.53787547858519
 72
     1
 10
2183.255774665347
 20
30.53787547858519
 11
2183.255774665347
 21
40.53787547858519
 72
     1
 10
2183.255774665347
 20
40.53787547858519
 11
2207.843923164362
 21
40.53787547858519
 97
        4
330
5F8
330
601
330
602
330
603
 92
        1
 93
        5
 72
     1
 10
2245.64189404294
 20
56.5
 11
2210.641894042939
 21
56.5
 72
     1
 10
2210.641894042939
 20
56.5
 11
2210.641894042939
 21
16.5
 72
     1
 10
2210.641894042939
 20
16.5
 11
2245.64189404294
 21
16.5
 72
     1
 10
2245.64189404294
 20
16.5
 11
2210.641894042939
 21
36.5
 72
     1
 10
2210.641894042939
 20
36.5
 11
2245.64189404294
 21
56.5
 97
        5
330
5FC
330
600
330
5FF
330
5FE
330
5FD
 75
     0
 76
     1
 98
        1
 10
-60.0
 20
0.0
  0
ARC
  5
5F7
102
{ACAD_REACTORS
330
5F6
102
}
330
1F
100
AcDbEntity
  8
補助
370
     5
100
AcDbCircle
 10
2257.166198313996
 20
36.5
 30
0.0
 40
20.0
100
AcDbArc
 50
11.6477236670766
 51
342.6561058784691
  0
ARC
  5
5F8
102
{ACAD_REACTORS
330
5F6
102
}
330
1F
100
AcDbEntity
  8
補助
370
     5
100
AcDbCircle
 10
2188.255774665348
 20
36.5
 30
0.0
 40
20.0
100
AcDbArc
 50
11.6477236670766
 51
342.6561058784691
  0
LINE
  5
5F9
102
{ACAD_REACTORS
330
5F6
102
}
330
1F
100
AcDbEntity
  8
補助
370
     5
100
AcDbLine
 10
2252.166198313995
 20
30.53787547858519
 30
0.0
 11
2276.256852341323
 21
30.53787547858514
 31
0.0
  0
LINE
  5
5FA
102
{ACAD_REACTORS
330
5F6
102
}
330
1F
100
AcDbEntity
  8
補助
370
     5
100
AcDbLine
 10
2252.166198313995
 20
40.53787547858519
 30
0.0
 11
2252.166198313995
 21
30.53787547858519
 31
0.0
  0
LINE
  5
5FB
102
{ACAD_REACTORS
330
5F6
102
}
330
1F
100
AcDbEntity
  8
補助
370
     5
100
AcDbLine
 10
2276.75434681301
 20
40.53787547858519
 30
0.0
 11
2252.166198313995
 21
40.53787547858519
 31
0.0
  0
LINE
  5
5FC
102
{ACAD_REACTORS
330
5F6
102
}
330
1F
100
AcDbEntity
  8
補助
370
     5
100
AcDbLine
 10
2245.64189404294
 20
56.5
 30
0.0
 11
2210.641894042939
 21
56.5
 31
0.0
  0
LINE
  5
5FD
102
{ACAD_REACTORS
330
5F6
102
}
330
1F
100
AcDbEntity
  8
補助
370
     5
100
AcDbLine
 10
2210.641894042939
 20
36.5
 30
0.0
 11
2245.64189404294
 21
56.5
 31
0.0
  0
LINE
  5
5FE
102
{ACAD_REACTORS
330
5F6
102
}
330
1F
100
AcDbEntity
  8
補助
370
     5
100
AcDbLine
 10
2245.64189404294
 20
16.5
 30
0.0
 11
2210.641894042939
 21
36.5
 31
0.0
  0
LINE
  5
5FF
102
{ACAD_REACTORS
330
5F6
102
}
330
1F
100
AcDbEntity
  8
補助
370
     5
100
AcDbLine
 10
2210.641894042939
 20
16.5
 30
0.0
 11
2245.64189404294
 21
16.5
 31
0.0
  0
LINE
  5
600
102
{ACAD_REACTORS
330
5F6
102
}
330
1F
100
AcDbEntity
  8
補助
370
     5
100
AcDbLine
 10
2210.641894042939
 20
56.5
 30
0.0
 11
2210.641894042939
 21
16.5
 31
0.0
  0
LINE
  5
601
102
{ACAD_REACTORS
330
5F6
102
}
330
1F
100
AcDbEntity
  8
補助
370
     5
100
AcDbLine
 10
2183.255774665347
 20
30.53787547858519
 30
0.0
 11
2207.346428692676
 21
30.53787547858514
 31
0.0
  0
LINE
  5
602
102
{ACAD_REACTORS
330
5F6
102
}
330
1F
100
AcDbEntity
  8
補助
370
     5
100
AcDbLine
 10
2183.255774665347
 20
40.53787547858519
 30
0.0
 11
2183.255774665347
 21
30.53787547858519
 31
0.0
  0
LINE
  5
603
102
{ACAD_REACTORS
330
5F6
102
}
330
1F
100
AcDbEntity
  8
補助
370
     5
100
AcDbLine
 10
2207.843923164362
 20
40.53787547858519
 30
0.0
 11
2183.255774665347
 21
40.53787547858519
 31
0.0
  0
LINE
  5
A29
330
1F
100
AcDbEntity
  8
補助
100
AcDbLine
 10
2064.0
 20
4.0
 30
0.0
 11
2064.0
 21
199.0
 31
0.0
  0
TEXT
  5
A2C
330
1F
100
AcDbEntity
  8
補助
100
AcDbText
 10
2086.666666666667
 20
149.0
 30
0.0
 40
35.0
  1
品番
 72
     4
 11
2124.0
 21
166.5
 31
0.0
100
AcDbText
  0
TEXT
  5
A2D
330
1F
100
AcDbEntity
  8
補助
100
AcDbText
 10
2086.666666666667
 20
84.0
 30
0.0
 40
35.0
  1
尺度
 72
     4
 11
2124.0
 21
101.5
 31
0.0
100
AcDbText
  0
CIRCLE
  5
C9F
330
1F
100
AcDbEntity
  8
0
370
    13
100
AcDbCircle
 10
954.219469406501
 20
1488.86010153411
 30
0.0
 40
100.0
  0
DIMENSION
  5
E81
330
1F
100
AcDbEntity
  8
実形
100
AcDbDimension
  2
*D11
 10
1054.219469406501
 20
633.445930941033
 30
0.0
 11
1054.269843785991
 21
637.9556199112134
 31
0.0
 70
   160
 71
     5
 42
9.5
  3
ISO-25
100
AcDbAlignedDimension
 13
1044.719469406501
 23
531.2929064030613
 33
0.0
 14
1054.219469406501
 24
531.2929064030615
 34
0.0
100
AcDbRotatedDimension
1001
ACAD
1000
DSTYLE
1002
{
1070
   279
1070
     1
1002
}
  0
DIMENSION
  5
E8E
330
1F
100
AcDbEntity
  8
実形
100
AcDbDimension
  2
*D12
 10
854.219469406501
 20
633.445930941033
 30
0.0
 11
852.8797497513332
 21
638.6069396558855
 31
0.0
 70
   160
 71
     5
 42
9.500000000000113
  3
ISO-25
100
AcDbAlignedDimension
 13
863.719469406501
 23
531.2929064030615
 33
0.0
 14
854.219469406501
 24
532.6565427666978
 34
0.0
100
AcDbRotatedDimension
1001
ACAD
1000
DSTYLE
1002
{
1070
   279
1070
     1
1002
}
  0
LINE
  5
ED9
330
1F
100
AcDbEntity
  8
0
100
AcDbLine
 10
1613.512425656321
 20
642.0626061371531
 30
0.0
 11
1693.512425656321
 21
642.0626061371531
 31
0.0
  0
LINE
  5
EDA
330
1F
100
AcDbEntity
  8
実形
100
AcDbLine
 10
1723.512425656321
 20
762.0626061371531
 30
0.0
 11
1723.512425656321
 21
672.0626061371532
 31
0.0
  0
LINE
  5
EDE
330
1F
100
AcDbEntity
  8
0
100
AcDbLine
 10
1603.512425656321
 20
642.0626061371531
 30
0.0
 11
1703.51242565632
 21
642.0626061371531
 31
0.0
  0
LEADER
  5
EE1
330
1F
100
AcDbEntity
  8
Cen
100
AcDbLeader
  3
ISO-25
 40
25.0
 41
16.66666666666666
 76
     2
 10
1708.053190261334
 20
658.4061770458321
 30
0.0
 10
1669.726315170089
 20
699.2873834128017
 30
0.0
213
0.0
223
-12.5
233
0.0
1001
ACAD
1000
DSTYLE
1002
{
1070
    41
1040
25.0
1070
   147
1040
6.25
1070
    77
1070
     0
1070
   279
1070
     1
1002
}
  0
TEXT
  5
EE2
330
1F
100
AcDbEntity
  8
0
100
AcDbText
 10
1623.495225369016
 20
709.1874999699643
 30
0.0
 40
25.0
  1
3R
100
AcDbText
  0
LINE
  5
1A44
330
1F
100
AcDbEntity
  8
0
100
AcDbLine
 10
1821.676615367452
 20
1580.23510153411
 30
0.0
 11
1821.676615367452
 21
1399.23510153411
 31
0.0
  0
LINE
  5
1A46
330
1F
100
AcDbEntity
  8
実形
100
AcDbLine
 10
1813.676615367453
 20
1580.23510153411
 30
0.0
 11
1821.676615367452
 21
1580.23510153411
 31
0.0
  0
LINE
  5
1A47
330
1F
100
AcDbEntity
  8
実形
100
AcDbLine
 10
1813.676615367452
 20
1399.23510153411
 30
0.0
 11
1821.676615367452
 21
1399.23510153411
 31
0.0
  0
DIMENSION
  5
1A81
330
1F
100
AcDbEntity
  8
実形
100
AcDbDimension
  2
*D13
 10
511.0988019500783
 20
706.2929064030613
 30
0.0
 11
495.9513255389647
 21
754.6594034738626
 31
0.0
 70
   160
 71
     5
 42
15.0
  3
ISO-25
100
AcDbAlignedDimension
 13
629.2194694065012
 23
721.2929064030613
 33
0.0
 14
629.2194694065015
 24
706.2929064030613
 34
0.0
 50
90.0
100
AcDbRotatedDimension
1001
ACAD
1000
DSTYLE
1002
{
1070
   279
1070
     1
1002
}
  0
DIMENSION
  5
1A82
330
1F
100
AcDbEntity
  8
実形
100
AcDbDimension
  2
*D14
 10
511.0988019500783
 20
531.2929064030615
 30
0.0
 11
504.126552689977
 21
555.5463705669508
 31
0.0
 70
   160
  1
15
 71
     5
 42
15.32554687587674
  3
ISO-25
100
AcDbAlignedDimension
 13
628.4249501627398
 23
546.6184532789382
 33
0.0
 14
628.4015604892992
 24
531.2929064030615
 34
0.0
 50
90.0
100
AcDbRotatedDimension
1001
ACAD
1000
DSTYLE
1002
{
1070
   279
1070
     1
1002
}
  0
DIMENSION
  5
1A83
330
1F
100
AcDbEntity
  8
実形
100
AcDbDimension
  2
*D15
 10
511.0988019500783
 20
546.4764336217625
 30
0.0
 11
500.0453627520328
 21
507.0879948184036
 31
0.0
 70
   160
  1
7
 71
     5
 42
25.18352721870122
  3
ISO-25
100
AcDbAlignedDimension
 13
628.800986240174
 23
521.2929064030613
 33
0.0
 14
600.0421584208234
 24
546.4764336217625
 34
0.0
 50
90.0
100
AcDbRotatedDimension
1001
ACAD
1000
DSTYLE
1002
{
1070
   279
1070
     1
1002
}
  0
DIMENSION
  5
1A84
330
1F
100
AcDbEntity
  8
実形
100
AcDbDimension
  2
*D16
 10
424.5579035118916
 20
531.2929064030615
 30
0.0
 11
405.8079035118916
 21
626.2929064030616
 31
0.0
 70
    32
 71
     5
 42
189.9999999999998
  3
ISO-25
100
AcDbAlignedDimension
 13
593.8433360776398
 23
721.2929064030613
 33
0.0
 14
593.8433360776398
 24
531.2929064030615
 34
0.0
 50
90.0
100
AcDbRotatedDimension
1001
ACAD
1000
DSTYLE
1002
{
1070
   279
1070
     1
1002
}
  0
LINE
  5
1BFA
330
1F
100
AcDbEntity
  8
補助
100
AcDbLine
 10
2784.000000000001
 20
1959.0
 30
0.0
 11
2019.387286519283
 21
1959.0
 31
0.0
  0
LINE
  5
1BFB
330
1F
100
AcDbEntity
  8
補助
100
AcDbLine
 10
2784.000000000001
 20
1894.0
 30
0.0
 11
2019.387286519283
 21
1894.0
 31
0.0
  0
LINE
  5
1BFC
330
1F
100
AcDbEntity
  8
補助
100
AcDbLine
 10
2202.547653420927
 20
1894.0
 30
0.0
 11
2202.547653420927
 21
2024.0
 31
0.0
  0
LINE
  5
1BFD
330
1F
100
AcDbEntity
  8
補助
100
AcDbLine
 10
2019.387286519283
 20
1894.0
 30
0.0
 11
2019.387286519283
 21
2024.0
 31
0.0
  0
TEXT
  5
1BFE
330
1F
100
AcDbEntity
  8
補助
100
AcDbText
 10
2050.295698850121
 20
1976.328571428572
 30
0.0
 40
30.0
  1
部品名
  7
明朝
 72
     4
 11
2116.124270278692
 21
1991.5
 31
0.0
100
AcDbText
  0
TEXT
  5
1BFF
330
1F
100
AcDbEntity
  8
補助
100
AcDbText
 10
2627.614285714287
 20
1976.071428571429
 30
0.0
 40
30.0
  1
厚さ
  7
明朝
 72
     4
 11
2671.5
 21
1991.5
 31
0.0
100
AcDbText
  0
LINE
  5
1C00
330
1F
100
AcDbEntity
  8
補助
100
AcDbLine
 10
2559.0
 20
1894.0
 30
0.0
 11
2559.000000000001
 21
2024.0
 31
0.0
  0
TEXT
  5
1C01
330
1F
100
AcDbEntity
  8
補助
100
AcDbText
 10
2338.490869919937
 20
1975.947979478154
 30
0.0
 40
30.0
  1
材質
  7
明朝
 72
     4
 11
2382.376584205651
 21
1991.119408049583
 31
0.0
100
AcDbText
  0
TEXT
  5
1C02
330
1F
100
AcDbEntity
  8
実形
100
AcDbText
 10
2048.227810657787
 20
1910.557142857143
 30
0.0
 40
30.0
  1
ボウル
  7
明朝
 72
     4
 11
2114.056382086359
 21
1926.5
 31
0.0
100
AcDbText
  0
TEXT
  5
1C03
330
1F
100
AcDbEntity
  8
実形
100
AcDbText
 10
2594.7
 20
1911.842857142856
 30
0.0
 40
30.0
  1
0.7ｍｍ
  7
明朝
 72
     4
 11
2671.5
 21
1926.5
 31
0.0
100
AcDbText
  0
TEXT
  5
1C04
330
1F
100
AcDbEntity
  8
実形
100
AcDbText
 10
2261.016869107866
 20
1910.728571428571
 30
0.0
 40
30.0
  1
SUS304（BA）
  7
明朝
 72
     4
 11
2392.674011965008
 21
1926.5
 31
0.0
100
AcDbText
  0
LINE
  5
1C05
330
1F
100
AcDbEntity
  8
補助
100
AcDbLine
 10
111.0
 20
2024.0
 30
0.0
 11
111.0
 21
4.0
 31
0.0
  0
LINE
  5
1DDB
330
1F
100
AcDbEntity
  8
実形
100
AcDbLine
 10
629.2194694065011
 20
1258.86010153411
 30
0.0
 11
629.2194694065011
 21
1568.86010153411
 31
0.0
  0
LINE
  5
1DFF
330
1F
100
AcDbEntity
  8
実形
100
AcDbLine
 10
884.2194694065009
 20
1648.86010153411
 30
0.0
 11
954.219469406501
 21
1648.86010153411
 31
0.0
  0
LEADER
  5
1E15
330
1F
100
AcDbEntity
  8
0
100
AcDbLeader
  3
ISO-25
 40
25.0
 41
16.66666666666666
 76
     2
 10
830.5523298026219
 20
1576.21689082849
 30
0.0
 10
819.605912954934
 20
1522.348831546739
 30
0.0
213
0.0
223
-12.5
233
0.0
1001
ACAD
1000
DSTYLE
1002
{
1070
    41
1040
25.0
1070
   147
1040
6.25
1070
    77
1070
     0
1070
    73
1070
     1
1070
    74
1070
     1
1070
   279
1070
     1
1070
   342
1005
DA
1002
}
  0
TEXT
  5
1E16
330
1F
100
AcDbEntity
  8
0
100
AcDbText
 10
774.3924685477414
 20
1488.879476417258
 30
0.0
 40
25.0
  1
60R
 11
774.3924685477414
 21
1485.546143083925
 31
0.0
100
AcDbText
 73
     1
  0
LEADER
  5
1E1F
330
1F
100
AcDbEntity
  8
0
100
AcDbLeader
  3
ISO-25
 40
25.0
 41
16.66666666666666
 76
     2
 10
668.4867172402355
 20
1547.625469269971
 30
0.0
 10
706.6661134048736
 20
1499.920676931537
 30
0.0
213
0.0
223
-12.5
233
0.0
1001
ACAD
1000
DSTYLE
1002
{
1070
    41
1040
25.0
1070
   147
1040
6.25
1070
    77
1070
     0
1070
    73
1070
     1
1070
    74
1070
     1
1070
   279
1070
     1
1070
   342
1005
DA
1002
}
  0
TEXT
  5
1E20
330
1F
100
AcDbEntity
  8
0
100
AcDbText
 10
695.9281550643518
 20
1458.178984863423
 30
0.0
 40
25.0
  1
65R
 11
695.9281550643518
 21
1454.84565153009
 31
0.0
100
AcDbText
 73
     1
  0
LINE
  5
1E23
330
1F
100
AcDbEntity
  8
実形
100
AcDbLine
 10
954.2194694065013
 20
1648.86010153411
 30
0.0
 11
709.2194694065011
 21
1648.86010153411
 31
0.0
  0
LINE
  5
1E24
330
1F
100
AcDbEntity
  8
実形
100
AcDbLine
 10
954.2194694065011
 20
1178.86010153411
 30
0.0
 11
709.2194694065011
 21
1178.86010153411
 31
0.0
  0
LINE
  5
1E4C
330
1F
100
AcDbEntity
  8
実形
100
AcDbLine
 10
954.219469406501
 20
1193.86010153411
 30
0.0
 11
709.2194694065011
 21
1193.86010153411
 31
0.0
  0
LINE
  5
1E4F
330
1F
100
AcDbEntity
  8
実形
100
AcDbLine
 10
644.2194694065011
 20
1258.86010153411
 30
0.0
 11
644.219469406501
 21
1503.860101534109
 31
0.0
  0
LINE
  5
1E52
330
1F
100
AcDbEntity
  8
実形
100
AcDbLine
 10
954.2194694065011
 20
1161.86010153411
 30
0.0
 11
709.219469406501
 21
1161.86010153411
 31
0.0
  0
LINE
  5
1E53
330
1F
100
AcDbEntity
  8
実形
100
AcDbLine
 10
612.219469406501
 20
1258.86010153411
 30
0.0
 11
612.219469406501
 21
1568.86010153411
 31
0.0
  0
LINE
  5
1E54
330
1F
100
AcDbEntity
  8
実形
100
AcDbLine
 10
954.2194694065013
 20
1665.86010153411
 30
0.0
 11
709.2194694065009
 21
1665.86010153411
 31
0.0
  0
DIMENSION
  5
1EC5
330
1F
100
AcDbEntity
  8
実形
100
AcDbDimension
  2
*D19
 10
347.4131539938335
 20
1161.86010153411
 30
0.0
 11
328.6631539938334
 21
1413.86010153411
 31
0.0
 70
    32
 71
     5
 42
503.9999999999998
  3
ISO-25
100
AcDbAlignedDimension
 13
612.219469406501
 23
1665.86010153411
 33
0.0
 14
612.219469406501
 24
1161.86010153411
 34
0.0
 50
90.0
100
AcDbRotatedDimension
1001
ACAD
1000
DSTYLE
1002
{
1070
   279
1070
     1
1002
}
  0
LINE
  5
1ED4
330
1F
100
AcDbEntity
  8
実形
100
AcDbLine
 10
954.2194694065011
 20
1632.86010153411
 30
0.0
 11
889.2194694065011
 21
1632.86010153411
 31
0.0
  0
DIMENSION
  5
1EE2
330
1F
100
AcDbEntity
  8
実形
100
AcDbDimension
  2
*D20
 10
470.9795328742038
 20
1568.86010153411
 30
0.0
 11
452.2295328742036
 21
1608.86010153411
 31
0.0
 70
    32
 71
     5
 42
79.99999999999932
  3
ISO-25
100
AcDbAlignedDimension
 13
612.219469406501
 23
1648.86010153411
 33
0.0
 14
612.2194694065012
 24
1568.86010153411
 34
0.0
 50
90.0
100
AcDbRotatedDimension
1001
ACAD
1000
DSTYLE
1002
{
1070
   279
1070
     1
1002
}
  0
DIMENSION
  5
1F2C
330
1F
100
AcDbEntity
  8
実形
100
AcDbDimension
  2
*D21
 10
470.9795328742038
 20
1193.86010153411
 30
0.0
 11
452.2295328742035
 21
1381.360101534111
 31
0.0
 70
    32
 71
     5
 42
375.0000000000002
  3
ISO-25
100
AcDbAlignedDimension
 13
612.219469406501
 23
1568.86010153411
 33
0.0
 14
612.219469406501
 24
1193.86010153411
 34
0.0
 50
90.0
100
AcDbRotatedDimension
1001
ACAD
1000
DSTYLE
1002
{
1070
   279
1070
     1
1002
}
  0
DIMENSION
  5
1F4A
330
1F
100
AcDbEntity
  8
実形
100
AcDbDimension
  2
*D22
 10
414.0371556738018
 20
1178.86010153411
 30
0.0
 11
395.2871556738017
 21
1413.86010153411
 31
0.0
 70
    32
 71
     5
 42
469.9999999999997
  3
ISO-25
100
AcDbAlignedDimension
 13
612.219469406501
 23
1648.86010153411
 33
0.0
 14
612.219469406501
 24
1178.86010153411
 34
0.0
 50
90.0
100
AcDbRotatedDimension
1001
ACAD
1000
DSTYLE
1002
{
1070
   279
1070
     1
1002
}
  0
DIMENSION
  5
1F57
330
1F
100
AcDbEntity
  8
実形
100
AcDbDimension
  2
*D23
 10
414.0371556738018
 20
1161.86010153411
 30
0.0
 11
401.5563840058112
 21
1189.88664850401
 31
0.0
 70
   160
  1
17
 71
     5
 42
503.9999999999998
  3
ISO-25
100
AcDbAlignedDimension
 13
612.219469406501
 23
1665.86010153411
 33
0.0
 14
612.219469406501
 24
1161.86010153411
 34
0.0
 50
90.0
100
AcDbRotatedDimension
1001
ACAD
1000
DSTYLE
1002
{
1070
   279
1070
     1
1002
}
  0
DIMENSION
  5
1F89
330
1F
100
AcDbEntity
  8
実形
100
AcDbDimension
  2
*D24
 10
414.0371556738019
 20
1161.86010153411
 30
0.0
 11
403.9697511541271
 21
1636.700922880827
 31
0.0
 70
   160
  1
17
 71
     5
 42
503.9999999999998
  3
ISO-25
100
AcDbAlignedDimension
 13
612.219469406501
 23
1665.86010153411
 33
0.0
 14
612.219469406501
 24
1161.86010153411
 34
0.0
 50
90.0
100
AcDbRotatedDimension
1001
ACAD
1000
DSTYLE
1002
{
1070
   279
1070
     1
1002
}
  0
DIMENSION
  5
1FBA
330
1F
100
AcDbEntity
  8
実形
100
AcDbDimension
  2
*D25
 10
470.9795328742038
 20
1178.86010153411
 30
0.0
 11
461.0149173593872
 21
1205.712909372276
 31
0.0
 70
   160
  1
15
 71
     5
 42
469.9999999999997
  3
ISO-25
100
AcDbAlignedDimension
 13
612.219469406501
 23
1648.86010153411
 33
0.0
 14
612.219469406501
 24
1178.86010153411
 34
0.0
 50
90.0
100
AcDbRotatedDimension
1001
ACAD
1000
DSTYLE
1002
{
1070
   279
1070
     1
1002
}
  0
ARC
  5
2033
330
1F
100
AcDbEntity
  8
実形
100
AcDbCircle
 10
889.2194694065011
 20
1587.86010153411
 30
0.0
 40
45.0
100
AcDbArc
 50
90.0
 51
160.8933140200214
  0
LINE
  5
2035
330
1F
100
AcDbEntity
  8
実形
100
AcDbLine
 10
709.219469406501
 20
1568.860101534109
 30
0.0
 11
792.5387505959707
 21
1568.860101534109
 31
0.0
  0
ARC
  5
2038
330
1F
100
AcDbEntity
  8
実形
100
AcDbCircle
 10
792.7552308031261
 20
1628.860101534109
 30
0.0
 40
60.0
100
AcDbArc
 50
270.0000000000003
 51
334.0340321821692
  0
ARC
  5
203D
330
1F
100
AcDbEntity
  8
実形
100
AcDbCircle
 10
709.219469406501
 20
1503.860101534109
 30
0.0
 40
65.0
100
AcDbArc
 50
90.0
 51
180.0
  0
ARC
  5
203E
330
1F
100
AcDbEntity
  8
実形
100
AcDbCircle
 10
709.2194694065011
 20
1258.86010153411
 30
0.0
 40
65.0
100
AcDbArc
 50
180.0
 51
270.0
  0
DIMENSION
  5
204F
330
1F
100
AcDbEntity
  8
実形
100
AcDbDimension
  2
*D26
 10
1264.219469406501
 20
1036.807958926578
 30
0.0
 11
671.87332431924
 21
1038.686532268721
 31
0.0
 70
   160
  1
15
 71
     5
 42
619.9999999999999
  3
ISO-25
100
AcDbAlignedDimension
 13
644.2194694065011
 23
1155.833394069355
 33
0.0
 14
1264.219469406501
 24
1155.833394069355
 34
0.0
100
AcDbRotatedDimension
1001
ACAD
1000
DSTYLE
1002
{
1070
   279
1070
     1
1002
}
  0
DIMENSION
  5
207F
330
1F
100
AcDbEntity
  8
実形
100
AcDbDimension
  2
*D27
 10
1279.219469406501
 20
978.3996316766378
 30
0.0
 11
954.219469406501
 21
997.1496316766378
 31
0.0
 70
    32
 71
     5
 42
650.0
  3
ISO-25
100
AcDbAlignedDimension
 13
629.219469406501
 23
1155.833394069355
 33
0.0
 14
1279.219469406501
 24
1155.833394069355
 34
0.0
100
AcDbRotatedDimension
1001
ACAD
1000
DSTYLE
1002
{
1070
   279
1070
     1
1002
}
  0
DIMENSION
  5
2095
330
1F
100
AcDbEntity
  8
実形
100
AcDbDimension
  2
*D28
 10
1279.219469406501
 20
1036.807958926578
 30
0.0
 11
1240.719934199314
 21
1036.807958926578
 31
0.0
 70
   160
  1
15
 71
     5
 42
650.0
  3
ISO-25
100
AcDbAlignedDimension
 13
629.219469406501
 23
1155.833394069355
 33
0.0
 14
1279.219469406501
 24
1155.833394069355
 34
0.0
100
AcDbRotatedDimension
1001
ACAD
1000
DSTYLE
1002
{
1070
   279
1070
     1
1002
}
  0
DIMENSION
  5
20D9
330
1F
100
AcDbEntity
  8
実形
100
AcDbDimension
  2
*D29
 10
1279.219469406501
 20
1036.807958926578
 30
0.0
 11
954.219469406501
 21
1055.557958926578
 31
0.0
 70
    32
  1
620
 71
     5
 42
650.0
  3
ISO-25
100
AcDbAlignedDimension
 13
629.219469406501
 23
1155.833394069355
 33
0.0
 14
1279.219469406501
 24
1155.833394069355
 34
0.0
100
AcDbRotatedDimension
1001
ACAD
1000
DSTYLE
1002
{
1070
   279
1070
     1
1002
}
  0
DIMENSION
  5
2121
330
1F
100
AcDbEntity
  8
実形
100
AcDbDimension
  2
*D30
 10
1296.219469406501
 20
920.1151315116613
 30
0.0
 11
954.219469406501
 21
938.8651315116613
 31
0.0
 70
    32
 71
     5
 42
684.0
  3
ISO-25
100
AcDbAlignedDimension
 13
612.219469406501
 23
1155.833394069355
 33
0.0
 14
1296.219469406501
 24
1155.833394069355
 34
0.0
100
AcDbRotatedDimension
1001
ACAD
1000
DSTYLE
1002
{
1070
   279
1070
     1
1002
}
  0
DIMENSION
  5
212E
330
1F
100
AcDbEntity
  8
実形
100
AcDbDimension
  2
*D31
 10
1296.219469406501
 20
978.3996316766378
 30
0.0
 11
1245.731212093765
 21
983.535437058329
 31
0.0
 70
   160
  1
17
 71
     5
 42
684.0
  3
ISO-25
100
AcDbAlignedDimension
 13
612.219469406501
 23
1155.833394069355
 33
0.0
 14
1296.219469406501
 24
1155.833394069355
 34
0.0
100
AcDbRotatedDimension
1001
ACAD
1000
DSTYLE
1002
{
1070
   279
1070
     1
1002
}
  0
DIMENSION
  5
2175
330
1F
100
AcDbEntity
  8
実形
100
AcDbDimension
  2
*D32
 10
1296.219469406501
 20
978.3996316766378
 30
0.0
 11
657.5021062038095
 21
983.0710254301893
 31
0.0
 70
   160
  1
17
 71
     5
 42
684.0
  3
ISO-25
100
AcDbAlignedDimension
 13
612.219469406501
 23
1155.833394069355
 33
0.0
 14
1296.219469406501
 24
1140.374773889132
 34
0.0
100
AcDbRotatedDimension
1001
ACAD
1000
DSTYLE
1002
{
1070
   279
1070
     1
1002
}
  0
ARC
  5
219F
330
1F
100
AcDbEntity
  8
実形
100
AcDbCircle
 10
709.219469406501
 20
1568.86010153411
 30
0.0
 40
97.0
100
AcDbArc
 50
90.00000000000003
 51
180.0
  0
ARC
  5
21A0
330
1F
100
AcDbEntity
  8
実形
100
AcDbCircle
 10
709.2194694065011
 20
1568.86010153411
 30
0.0
 40
80.0
100
AcDbArc
 50
90.0
 51
180.0
  0
ARC
  5
21A3
330
1F
100
AcDbEntity
  8
実形
100
AcDbCircle
 10
709.2194694065011
 20
1258.86010153411
 30
0.0
 40
80.0
100
AcDbArc
 50
180.0
 51
270.0
  0
ARC
  5
21A4
330
1F
100
AcDbEntity
  8
実形
100
AcDbCircle
 10
709.219469406501
 20
1258.86010153411
 30
0.0
 40
97.0
100
AcDbArc
 50
180.0
 51
270.0
  0
LINE
  5
21A5
330
1F
100
AcDbEntity
  8
0
100
AcDbLine
 10
1279.219469406502
 20
1503.860101534109
 30
0.0
 11
1279.219469406501
 21
1258.860101534109
 31
0.0
  0
ARC
  5
21A6
330
1F
100
AcDbEntity
  8
実形
100
AcDbCircle
 10
1019.219469406501
 20
1587.86010153411
 30
0.0
 40
45.0
100
AcDbArc
 50
19.10668597997854
 51
89.99999999999994
  0
LINE
  5
21A7
330
1F
100
AcDbEntity
  8
実形
100
AcDbLine
 10
1279.219469406501
 20
1258.86010153411
 30
0.0
 11
1279.219469406501
 21
1568.860101534109
 31
0.0
  0
ARC
  5
21A8
330
1F
100
AcDbEntity
  8
実形
100
AcDbCircle
 10
1199.219469406501
 20
1258.86010153411
 30
0.0
 40
80.0
100
AcDbArc
 50
269.9999999999999
 51
360.0
  0
LINE
  5
21A9
330
1F
100
AcDbEntity
  8
実形
100
AcDbLine
 10
1296.219469406501
 20
1258.860101534109
 30
0.0
 11
1296.219469406502
 21
1568.860101534109
 31
0.0
  0
ARC
  5
21AA
330
1F
100
AcDbEntity
  8
実形
100
AcDbCircle
 10
1199.219469406501
 20
1258.86010153411
 30
0.0
 40
97.0
100
AcDbArc
 50
269.9999999999999
 51
360.0
  0
LINE
  5
21AB
330
1F
100
AcDbEntity
  8
実形
100
AcDbLine
 10
1264.219469406501
 20
1258.86010153411
 30
0.0
 11
1264.219469406501
 21
1503.860101534109
 31
0.0
  0
ARC
  5
21AC
330
1F
100
AcDbEntity
  8
実形
100
AcDbCircle
 10
1199.219469406501
 20
1258.86010153411
 30
0.0
 40
65.0
100
AcDbArc
 50
269.9999999999999
 51
360.0
  0
LINE
  5
21AD
330
1F
100
AcDbEntity
  8
実形
100
AcDbLine
 10
954.2194694065013
 20
1648.86010153411
 30
0.0
 11
1199.219469406501
 21
1648.86010153411
 31
0.0
  0
ARC
  5
21AE
330
1F
100
AcDbEntity
  8
実形
100
AcDbCircle
 10
1199.219469406501
 20
1568.86010153411
 30
0.0
 40
80.0
100
AcDbArc
 50
360.0
 51
89.99999999999994
  0
LINE
  5
21AF
330
1F
100
AcDbEntity
  8
実形
100
AcDbLine
 10
954.2194694065015
 20
1632.86010153411
 30
0.0
 11
1019.219469406501
 21
1632.86010153411
 31
0.0
  0
LINE
  5
21B0
330
1F
100
AcDbEntity
  8
実形
100
AcDbLine
 10
954.2194694065013
 20
1665.86010153411
 30
0.0
 11
1199.219469406502
 21
1665.86010153411
 31
0.0
  0
ARC
  5
21B1
330
1F
100
AcDbEntity
  8
実形
100
AcDbCircle
 10
1199.219469406501
 20
1568.860101534109
 30
0.0
 40
97.0
100
AcDbArc
 50
360.0
 51
89.99999999999992
  0
LINE
  5
21B2
330
1F
100
AcDbEntity
  8
実形
100
AcDbLine
 10
954.219469406501
 20
1178.86010153411
 30
0.0
 11
1199.219469406501
 21
1178.86010153411
 31
0.0
  0
LINE
  5
21B3
330
1F
100
AcDbEntity
  8
実形
100
AcDbLine
 10
954.219469406501
 20
1161.86010153411
 30
0.0
 11
1199.219469406501
 21
1161.86010153411
 31
0.0
  0
LINE
  5
21B4
330
1F
100
AcDbEntity
  8
実形
100
AcDbLine
 10
954.2194694065011
 20
1193.86010153411
 30
0.0
 11
1199.219469406501
 21
1193.86010153411
 31
0.0
  0
LINE
  5
21B5
330
1F
100
AcDbEntity
  8
実形
100
AcDbLine
 10
1199.219469406501
 20
1568.860101534109
 30
0.0
 11
1115.900188217032
 21
1568.860101534109
 31
0.0
  0
ARC
  5
21B6
330
1F
100
AcDbEntity
  8
実形
100
AcDbCircle
 10
1199.219469406501
 20
1503.860101534109
 30
0.0
 40
65.0
100
AcDbArc
 50
360.0
 51
89.99999999999994
  0
ARC
  5
21B7
330
1F
100
AcDbEntity
  8
実形
100
AcDbCircle
 10
1115.683708009876
 20
1628.860101534109
 30
0.0
 40
60.0
100
AcDbArc
 50
205.9659678178308
 51
269.9999999999997
  0
LINE
  5
21C7
330
1F
100
AcDbEntity
  8
Cen
 48
0.8
100
AcDbLine
 10
1088.327031085579
 20
1488.86010153411
 30
0.0
 11
820.1119077274224
 21
1488.86010153411
 31
0.0
  0
LINE
  5
2254
330
1F
100
AcDbEntity
  8
実形
100
AcDbLine
 10
875.2194694065011
 20
531.2929064030615
 30
0.0
 11
1033.219469406501
 21
531.2929064030615
 31
0.0
  0
LINE
  5
2256
330
1F
100
AcDbEntity
  8
実形
100
AcDbLine
 10
875.2194694065011
 20
521.2929064030613
 30
0.0
 11
1033.219469406501
 21
521.2929064030613
 31
0.0
  0
LINE
  5
225B
330
1F
100
AcDbEntity
  8
実形
100
AcDbLine
 10
1267.2194694065
 20
706.2929064030615
 30
0.0
 11
1276.219469406501
 21
706.2929064030612
 31
0.0
  0
LINE
  5
226D
330
1F
100
AcDbEntity
  8
実形
100
AcDbLine
 10
1703.512425656321
 20
652.0626061371532
 30
0.0
 11
1603.512425656321
 21
652.0626061371531
 31
0.0
  0
LINE
  5
227C
330
1F
100
AcDbEntity
  8
0
100
AcDbLine
 10
1573.512425656321
 20
622.0626061371531
 30
0.0
 11
1573.512425656321
 21
427.0953392445281
 31
0.0
  0
LINE
  5
227E
330
1F
100
AcDbEntity
  8
0
100
AcDbLine
 10
1583.512425656321
 20
622.0626061371531
 30
0.0
 11
1583.512425656321
 21
427.0953392445281
 31
0.0
  0
ARC
  5
227F
330
1F
100
AcDbEntity
  8
0
100
AcDbCircle
 10
1703.51242565632
 20
672.0626061371531
 30
0.0
 40
30.0
100
AcDbArc
 50
270.0
 51
0.0
  0
ARC
  5
2282
330
1F
100
AcDbEntity
  8
実形
100
AcDbCircle
 10
1703.512425656321
 20
672.0626061371532
 30
0.0
 40
20.0
100
AcDbArc
 50
270.0
 51
0.0
  0
ARC
  5
2283
330
1F
100
AcDbEntity
  8
0
100
AcDbCircle
 10
1603.512425656321
 20
622.0626061371531
 30
0.0
 40
20.0
100
AcDbArc
 50
90.0
 51
180.0
  0
ARC
  5
2284
330
1F
100
AcDbEntity
  8
実形
100
AcDbCircle
 10
1603.512425656321
 20
622.0626061371531
 30
0.0
 40
30.0
100
AcDbArc
 50
90.00000000000005
 51
180.0
  0
DIMENSION
  5
229B
330
1F
100
AcDbEntity
  8
実形
100
AcDbDimension
  2
*D33
 10
1573.512425656321
 20
898.239547659331
 30
0.0
 11
1648.512425656321
 21
916.989547659331
 31
0.0
 70
    32
  1
15
 71
     5
 42
150.0000000000002
  3
ISO-25
100
AcDbAlignedDimension
 13
1723.512425656321
 23
792.0626061371532
 33
0.0
 14
1573.512425656321
 24
792.0626061371532
 34
0.0
100
AcDbRotatedDimension
1001
ACAD
1000
DSTYLE
1002
{
1070
   279
1070
     1
1002
}
  0
LINE
  5
22B3
330
1F
100
AcDbEntity
  8
0
100
AcDbLine
 10
1264.2194694065
 20
703.2929064030614
 30
0.0
 11
1264.2194694065
 21
574.4080363623242
 31
0.0
  0
LINE
  5
22B4
330
1F
100
AcDbEntity
  8
実形
100
AcDbLine
 10
1264.219469406501
 20
706.2929064030613
 30
0.0
 11
954.219469406501
 21
706.2929064030613
 31
0.0
  0
LINE
  5
22B9
330
1F
100
AcDbEntity
  8
実形
100
AcDbLine
 10
1044.719469406501
 20
531.2929064030615
 30
0.0
 11
1236.163427255731
 21
544.47108548418
 31
0.0
  0
ARC
  5
22BA
330
1F
100
AcDbEntity
  8
実形
100
AcDbCircle
 10
1234.2194694065
 20
574.4080363623242
 30
0.0
 40
30.0
100
AcDbArc
 50
273.7152891054288
 51
0.0000000000000254
  0
LINE
  5
22EB
330
1F
100
AcDbEntity
  8
0
100
AcDbLine
 10
626.2194694065011
 20
721.2929064030612
 30
0.0
 11
612.219469406501
 21
721.2929064030613
 31
0.0
  0
LINE
  5
22EC
330
1F
100
AcDbEntity
  8
0
100
AcDbLine
 10
644.2194694065014
 20
703.2929064030613
 30
0.0
 11
644.2194694065014
 21
574.4080363623242
 31
0.0
  0
ARC
  5
22ED
330
1F
100
AcDbEntity
  8
実形
100
AcDbCircle
 10
674.2194694065014
 20
574.4080363623242
 30
0.0
 40
30.0
100
AcDbArc
 50
180.0
 51
266.2847108945712
  0
LINE
  5
22F1
330
1F
100
AcDbEntity
  8
実形
100
AcDbLine
 10
1044.719469406501
 20
531.2929064030615
 30
0.0
 11
863.719469406501
 21
531.2929064030615
 31
0.0
  0
LINE
  5
22F2
330
1F
100
AcDbEntity
  8
実形
100
AcDbLine
 10
1044.719469406501
 20
521.2929064030613
 30
0.0
 11
863.719469406501
 21
521.2929064030613
 31
0.0
  0
LINE
  5
22F3
330
1F
100
AcDbEntity
  8
実形
100
AcDbLine
 10
641.2194694065013
 20
706.2929064030613
 30
0.0
 11
632.2194694065011
 21
706.2929064030613
 31
0.0
  0
LINE
  5
22F4
330
1F
100
AcDbEntity
  8
実形
100
AcDbLine
 10
641.2194694065013
 20
706.2929064030613
 30
0.0
 11
954.219469406501
 21
706.2929064030613
 31
0.0
  0
LINE
  5
22F5
330
1F
100
AcDbEntity
  8
実形
100
AcDbLine
 10
863.719469406501
 20
531.2929064030615
 30
0.0
 11
672.2755115572713
 21
544.47108548418
 31
0.0
  0
ARC
  5
2398
330
1F
100
AcDbEntity
  8
0
100
AcDbCircle
 10
626.2194694065011
 20
718.2929064030612
 30
0.0
 40
3.0
100
AcDbArc
 50
359.9999999999996
 51
90.0
  0
ARC
  5
2399
330
1F
100
AcDbEntity
  8
実形
100
AcDbCircle
 10
632.2194694065011
 20
709.2929064030613
 30
0.0
 40
3.0
100
AcDbArc
 50
180.0
 51
270.0000000000004
  0
ARC
  5
239A
330
1F
100
AcDbEntity
  8
実形
100
AcDbCircle
 10
641.2194694065013
 20
703.2929064030613
 30
0.0
 40
3.0
100
AcDbArc
 50
0.0
 51
90.0
  0
ARC
  5
239B
330
1F
100
AcDbEntity
  8
0
100
AcDbCircle
 10
1282.2194694065
 20
718.2929064030613
 30
0.0
 40
3.0
100
AcDbArc
 50
90.0
 51
180.0
  0
ARC
  5
239C
330
1F
100
AcDbEntity
  8
実形
100
AcDbCircle
 10
1276.219469406501
 20
709.2929064030612
 30
0.0
 40
3.0
100
AcDbArc
 50
269.9999999999996
 51
0.0
  0
ARC
  5
239D
330
1F
100
AcDbEntity
  8
実形
100
AcDbCircle
 10
1267.2194694065
 20
703.2929064030614
 30
0.0
 40
3.0
100
AcDbArc
 50
89.99999999999944
 51
180.0
  0
LINE
  5
239E
330
1F
100
AcDbEntity
  8
実形
100
AcDbLine
 10
612.219469406501
 20
721.2929064030613
 30
0.0
 11
1296.219469406501
 21
721.2929064030613
 31
0.0
  0
LINE
  5
23FE
330
1F
100
AcDbEntity
  8
実形
100
AcDbLine
 10
1641.676615367452
 20
1568.860101534109
 30
0.0
 11
1783.676615367453
 21
1568.860101534109
 31
0.0
  0
LINE
  5
2402
330
1F
100
AcDbEntity
  8
実形
100
AcDbLine
 10
1044.719469406501
 20
531.2929064030613
 30
0.0
 11
1044.719469406501
 21
521.2929064030612
 31
0.0
  0
LINE
  5
2405
330
1F
100
AcDbEntity
  8
実形
100
AcDbLine
 10
863.719469406501
 20
521.2929064030613
 30
0.0
 11
863.719469406501
 21
531.2929064030615
 31
0.0
  0
LINE
  5
243C
330
1F
100
AcDbEntity
  8
実形
100
AcDbLine
 10
1623.676615367452
 20
1665.86010153411
 30
0.0
 11
1623.676615367452
 21
1651.86010153411
 31
0.0
  0
LINE
  5
243D
330
1F
100
AcDbEntity
  8
実形
100
AcDbLine
 10
1626.676615367452
 20
1648.86010153411
 30
0.0
 11
1635.676615367452
 21
1648.86010153411
 31
0.0
  0
LINE
  5
243E
330
1F
100
AcDbEntity
  8
実形
100
AcDbLine
 10
1638.676615367452
 20
1645.86010153411
 30
0.0
 11
1638.676615367453
 21
1636.86010153411
 31
0.0
  0
LINE
  5
243F
330
1F
100
AcDbEntity
  8
実形
100
AcDbLine
 10
1641.676615367453
 20
1633.86010153411
 30
0.0
 11
1775.916673373918
 21
1633.86010153411
 31
0.0
  0
LINE
  5
2441
330
1F
100
AcDbEntity
  8
実形
100
AcDbLine
 10
1641.676615367453
 20
1633.860101534109
 30
0.0
 11
1775.916673373918
 21
1633.86010153411
 31
0.0
  0
LINE
  5
2443
330
1F
100
AcDbEntity
  8
実形
100
AcDbLine
 10
1813.676615367453
 20
1580.23510153411
 30
0.0
 11
1804.807691280662
 21
1611.941505144387
 31
0.0
  0
LINE
  5
2444
330
1F
100
AcDbEntity
  8
実形
100
AcDbLine
 10
1813.676615367452
 20
1399.23510153411
 30
0.0
 11
1800.708121665833
 21
1221.674808602771
 31
0.0
  0
LINE
  5
2445
330
1F
100
AcDbEntity
  8
実形
100
AcDbLine
 10
1623.676615367452
 20
1161.86010153411
 30
0.0
 11
1623.676615367452
 21
1178.86010153411
 31
0.0
  0
LINE
  5
2446
330
1F
100
AcDbEntity
  8
実形
100
AcDbLine
 10
1626.676615367452
 20
1178.86010153411
 30
0.0
 11
1635.676615367452
 21
1178.86010153411
 31
0.0
  0
LINE
  5
2447
330
1F
100
AcDbEntity
  8
実形
100
AcDbLine
 10
1638.676615367452
 20
1181.86010153411
 30
0.0
 11
1638.676615367452
 21
1190.86010153411
 31
0.0
  0
LINE
  5
2448
330
1F
100
AcDbEntity
  8
実形
100
AcDbLine
 10
1641.676615367452
 20
1193.86010153411
 30
0.0
 11
1770.787819280927
 21
1193.86010153411
 31
0.0
  0
LINE
  5
2449
330
1F
100
AcDbEntity
  8
実形
100
AcDbLine
 10
1641.676615367452
 20
1193.86010153411
 30
0.0
 11
1770.787819280927
 21
1193.86010153411
 31
0.0
  0
ARC
  5
244A
330
1F
100
AcDbEntity
  8
実形
100
AcDbCircle
 10
1775.916673373918
 20
1603.86010153411
 30
0.0
 40
30.0
100
AcDbArc
 50
15.62738373912136
 51
90.0
  0
ARC
  5
244C
330
1F
100
AcDbEntity
  8
実形
100
AcDbCircle
 10
1770.787819280927
 20
1223.86010153411
 30
0.0
 40
30.0
100
AcDbArc
 50
270.0
 51
355.8226981567738
  0
LEADER
  5
2455
330
1F
100
AcDbEntity
  8
Cen
100
AcDbLeader
  3
ISO-25
 76
     2
 10
1628.164839289251
 20
1172.394890990098
 30
0.0
 10
1692.239009567343
 20
1143.720816882045
 30
0.0
1001
ACAD
1000
DSTYLE
1002
{
1070
    41
1040
25.0
1070
   147
1040
6.25
1070
    77
1070
     0
1070
   279
1070
     1
1002
}
  0
ARC
  5
2457
330
1F
100
AcDbEntity
  8
実形
100
AcDbCircle
 10
1783.676615367453
 20
1538.860101534109
 30
0.0
 40
30.0
100
AcDbArc
 50
0.0
 51
90.0
  0
LINE
  5
2458
330
1F
100
AcDbEntity
  8
実形
100
AcDbLine
 10
1813.676615367453
 20
1538.860101534109
 30
0.0
 11
1813.676615367454
 21
1580.23510153411
 31
0.0
  0
ARC
  5
245A
330
1F
100
AcDbEntity
  8
実形
100
AcDbCircle
 10
1626.676615367452
 20
1175.86010153411
 30
0.0
 40
3.0
100
AcDbArc
 50
90.0
 51
180.0
  0
ARC
  5
245B
330
1F
100
AcDbEntity
  8
実形
100
AcDbCircle
 10
1635.676615367452
 20
1181.86010153411
 30
0.0
 40
3.0
100
AcDbArc
 50
269.9999999999989
 51
0.0
  0
ARC
  5
245C
330
1F
100
AcDbEntity
  8
実形
100
AcDbCircle
 10
1641.676615367452
 20
1190.86010153411
 30
0.0
 40
3.0
100
AcDbArc
 50
90.0
 51
179.9999999999999
  0
ARC
  5
245D
330
1F
100
AcDbEntity
  8
実形
100
AcDbCircle
 10
1626.676615367452
 20
1651.86010153411
 30
0.0
 40
3.0
100
AcDbArc
 50
180.0000000000007
 51
270.0
  0
ARC
  5
245E
330
1F
100
AcDbEntity
  8
実形
100
AcDbCircle
 10
1635.676615367452
 20
1645.86010153411
 30
0.0
 40
3.0
100
AcDbArc
 50
0.0
 51
90.00000000000111
  0
ARC
  5
245F
330
1F
100
AcDbEntity
  8
実形
100
AcDbCircle
 10
1641.676615367453
 20
1636.86010153411
 30
0.0
 40
3.0
100
AcDbArc
 50
180.0
 51
269.9999999999999
  0
LINE
  5
2461
330
1F
100
AcDbEntity
  8
実形
100
AcDbLine
 10
1623.676615367452
 20
1665.86010153411
 30
0.0
 11
1623.676615367452
 21
1161.86010153411
 31
0.0
  0
LINE
  5
2462
330
1F
100
AcDbEntity
  8
実形
100
AcDbLine
 10
1638.676615367453
 20
1571.86010153411
 30
0.0
 11
1638.676615367453
 21
1641.36010153411
 31
0.0
  0
ARC
  5
2463
330
1F
100
AcDbEntity
  8
実形
100
AcDbCircle
 10
1641.676615367452
 20
1571.86010153411
 30
0.0
 40
3.0
100
AcDbArc
 50
179.9999999999999
 51
270.0
  0
LINE
  5
2464
330
1F
100
AcDbEntity
  8
実形
100
AcDbLine
 10
1638.676615367453
 20
1606.61010153411
 30
0.0
 11
1638.676615367452
 21
1186.36010153411
 31
0.0
  0
VIEWPORT
  5
2E
102
{ACAD_XDICTIONARY
360
2537
102
}
330
1B
100
AcDbEntity
 67
     1
  8
0
100
AcDbViewport
 10
144.7270812988281
 20
101.2295806407928
 30
0.0
 40
411.6736216682419
 41
222.1517806396485
 68
     1
 69
     1
 12
144.7270812988281
 22
101.2295806407928
 13
0.0
 23
0.0
 14
10.0
 24
10.0
 15
10.0
 25
10.0
 16
0.0
 26
0.0
 36
1.0
 17
0.0
 27
0.0
 37
0.0
 42
50.0
 43
0.0
 44
0.0
 45
222.1517806396485
 50
0.0
 51
0.0
 72
   100
 90
    32800
  1

281
     0
 71
     1
 74
     0
110
0.0
120
0.0
130
0.0
111
1.0
121
0.0
131
0.0
112
0.0
122
1.0
132
0.0
 79
     0
146
0.0
  0
VIEWPORT
  5
30
102
{ACAD_XDICTIONARY
360
2539
102
}
330
1B
100
AcDbEntity
 67
     1
  8
0
100
AcDbViewport
 10
139.2237563133239
 20
101.2295821905136
 30
0.0
 40
222.7580101013184
 41
161.9673315048218
 68
     2
 69
     2
 12
210.0
 22
148.5
 13
0.0
 23
0.0
 14
10.0
 24
10.0
 15
10.0
 25
10.0
 16
0.0
 26
0.0
 36
1.0
 17
0.0
 27
0.0
 37
0.0
 42
50.0
 43
0.0
 44
0.0
 45
309.0686705647124
 50
0.0
 51
0.0
 72
   100
 90
    32864
  1

281
     0
 71
     1
 74
     0
110
0.0
120
0.0
130
0.0
111
1.0
121
0.0
131
0.0
112
0.0
122
1.0
132
0.0
 79
     0
146
0.0
  0
ENDSEC
  0
SECTION
  2
OBJECTS
  0
DICTIONARY
  5
C
330
0
100
AcDbDictionary
281
     1
  3
ACAD_COLOR
350
19F9
  3
ACAD_GROUP
350
D
  3
ACAD_LAYOUT
350
1A
  3
ACAD_MATERIAL
350
19F8
  3
ACAD_MLINESTYLE
350
17
  3
ACAD_PLOTSETTINGS
350
19
  3
ACAD_PLOTSTYLENAME
350
E
  3
ACAD_TABLESTYLE
350
19FA
  3
AcadDim
350
5B1
  3
ACDBHEADERROUNDTRIPXREC
350
2530
  3
AcDbVariableDictionary
350
96D
  0
DICTIONARY
  5
1A37
330
2
100
AcDbDictionary
280
     1
281
     1
  3
ACAD_LAYERFILTERS
360
1BD9
  3
ACAD_LAYERSTATES
360
1A38
  3
ACLYDICTIONARY
360
1BD8
  0
DICTIONARY
  5
1C06
330
1F
100
AcDbDictionary
280
     1
281
     1
  3
ACAD_SORTENTS
360
1C07
  0
DICTIONARY
  5
1BE2
330
1BDF
100
AcDbDictionary
280
     1
281
     1
  3
ACAD_SORTENTS
360
1BE3
  0
DICTIONARY
  5
2537
330
2E
100
AcDbDictionary
280
     1
281
     1
  3
ACAD_XREC_ROUNDTRIP
360
2538
  0
DICTIONARY
  5
2539
330
30
100
AcDbDictionary
280
     1
281
     1
  3
ACAD_XREC_ROUNDTRIP
360
253A
  0
DICTIONARY
  5
19F9
102
{ACAD_REACTORS
330
C
102
}
330
C
100
AcDbDictionary
281
     1
  0
DICTIONARY
  5
D
102
{ACAD_REACTORS
330
C
102
}
330
C
100
AcDbDictionary
281
     1
  0
DICTIONARY
  5
1A
102
{ACAD_REACTORS
330
C
102
}
330
C
100
AcDbDictionary
281
     1
  3
Model
350
22
  3
ﾚｲｱｳﾄ1
350
1E
  3
ﾚｲｱｳﾄ2
350
26
  0
DICTIONARY
  5
19F8
102
{ACAD_REACTORS
330
C
102
}
330
C
100
AcDbDictionary
281
     1
  0
DICTIONARY
  5
17
102
{ACAD_REACTORS
330
C
102
}
330
C
100
AcDbDictionary
281
     1
  3
Standard
350
18
  0
DICTIONARY
  5
19
102
{ACAD_REACTORS
330
C
102
}
330
C
100
AcDbDictionary
281
     1
  0
ACDBDICTIONARYWDFLT
  5
E
102
{ACAD_REACTORS
330
C
102
}
330
C
100
AcDbDictionary
281
     1
  3
Normal
350
F
100
AcDbDictionaryWithDefault
340
F
  0
DICTIONARY
  5
19FA
102
{ACAD_REACTORS
330
C
102
}
330
C
100
AcDbDictionary
281
     1
  3
Standard
350
19FB
  0
XRECORD
  5
5B1
102
{ACAD_REACTORS
330
C
102
}
330
C
100
AcDbXrecord
280
     1
 90
   990106
  3

 60
     0
 61
     0
 62
     1
 63
     3
 64
     0
 65
     0
 66
     0
 67
     3
 68
     1
 69
     0
 70
     0
 71
     0
 72
     0
 40
5.637859010809637
170
     0
340
0
  0
DICTIONARY
  5
2530
102
{ACAD_REACTORS
330
C
102
}
330
C
100
AcDbDictionary
281
     1
  0
DICTIONARY
  5
96D
102
{ACAD_REACTORS
330
C
102
}
330
C
100
AcDbDictionary
281
     1
  3
CTABLESTYLE
350
1A01
  3
DIMASSOC
350
252D
  3
PROJECTNAME
350
252E
  3
SORTENTS
350
96E
  0
DICTIONARY
  5
1BD9
102
{ACAD_REACTORS
330
1A37
102
}
330
1A37
100
AcDbDictionary
281
     1
  0
DICTIONARY
  5
1A38
102
{ACAD_REACTORS
330
1A37
102
}
330
1A37
100
AcDbDictionary
281
     1
  0
DICTIONARY
  5
1BD8
102
{ACAD_REACTORS
330
1A37
102
}
330
1A37
100
AcDbDictionary
281
     1
1001
ACAD
1000
<All
  0
SORTENTSTABLE
  5
1C07
102
{ACAD_REACTORS
330
1C06
102
}
330
1C06
100
AcDbSortentsTable
330
1F
331
207F
  5
21BA
331
5F8
  5
EDE
331
1F4A
  5
21AE
331
21B5
  5
22B5
331
2461
  5
2462
331
212E
  5
2254
331
22B4
  5
22F5
331
5A1
  5
5FD
331
600
  5
149B
331
5A9
  5
5FE
331
3DD
  5
3E3
331
55A
  5
5F4
331
1A46
  5
1E24
331
2038
  5
21B6
331
5B9
  5
C9F
331
56A
  5
5F8
331
22EC
  5
236E
331
1E24
  5
21A7
331
1BFD
  5
1F46
331
226D
  5
22F2
331
22F4
  5
23FA
331
239C
  5
49A
331
21A6
  5
2258
331
244A
  5
244C
331
4B4
  5
540
331
1E4C
  5
21A9
331
533
  5
5AE
331
1C05
  5
A0
331
1FBA
  5
21B1
331
1E54
  5
21A5
331
21AE
  5
227E
331
245A
  5
245B
331
5F9
  5
EDF
331
21B6
  5
22B7
331
2462
  5
2463
331
A8
  5
A9
331
54B
  5
5BA
331
601
  5
149C
331
5AA
  5
5FF
331
3DE
  5
3E4
331
1A47
  5
1E4C
331
1ED4
  5
21A4
331
5B2
  5
603
331
563
  5
5F6
331
49D
  5
532
331
1E15
  5
2175
331
2256
  5
22ED
331
5BA
  5
CB5
331
22ED
  5
2370
331
22F5
  5
243A
331
1BFE
  5
1F48
331
1F2C
  5
21AD
331
219F
  5
21A6
331
2443
  5
244A
331
227E
  5
586
331
21A7
  5
225B
331
239D
  5
22F1
331
A29
  5
1524
331
52C
  5
5A9
331
260
  5
261
331
4B5
  5
54B
331
5D2
  5
E80
331
3BF
  5
3E0
331
53C
  5
5B4
331
E81
  5
1A47
331
21AF
  5
227F
331
245B
  5
533
331
1EC5
  5
21AA
331
5FA
  5
EE1
331
21B7
  5
22EB
331
2463
  5
2464
331
21C7
  5
3BF
331
A9
  5
AA
331
602
  5
149D
331
54C
  5
5D0
331
48E
  5
4AA
331
3DF
  5
407
331
55C
  5
5F5
331
49E
  5
537
331
ED9
  5
1A83
331
1E16
  5
219E
331
EE1
  5
1DEE
331
56C
  5
5F9
331
407
  5
493
331
4AE
  5
53C
331
243C
  5
2444
331
1BFF
  5
1F4A
331
20D9
  5
2220
331
21A0
  5
21A3
331
2444
  5
2455
331
2405
  5
2442
331
227F
  5
566
331
239E
  5
243C
331
244C
  5
2457
331
21A8
  5
225C
331
21B0
  5
2280
331
53D
  5
5B7
331
2121
  5
222D
331
5FB
  5
EE2
331
1DFF
  5
20D9
331
245C
  5
245E
331
2464
  5
24FA
331
9C
  5
9C
331
AA
  5
AB
331
603
  5
149E
331
4CE
  5
55A
331
48F
  5
4AE
331
3E0
  5
40A
331
1A81
  5
1E4D
331
2033
  5
203A
331
5B4
  5
A29
331
565
  5
5F7
331
EDA
  5
1A84
331
1E1F
  5
219F
331
243D
  5
2445
331
4AF
  5
53D
331
EE2
  5
1E15
331
23FE
  5
243F
331
2445
  5
2458
331
52E
  5
5AA
331
262
  5
263
331
4B7
  5
54C
331
1C00
  5
1F57
331
1E4F
  5
207F
331
21A9
  5
225D
331
2455
  5
245F
331
5F4
  5
EB1
331
480
  5
4A7
331
21B1
  5
2281
331
5FC
  5
EFC
331
245D
  5
511
331
A5
  5
A8
331
AB
  5
AD
331
4CF
  5
55C
331
54E
  5
5D2
331
5AD
  5
600
331
1A82
  5
1E55
331
50F
  5
5A0
331
39A
  5
3B2
331
1E20
  5
21A0
331
243E
  5
2446
331
2398
  5
498
331
2446
  5
245A
331
4B0
  5
53F
331
A2C
  5
1525
331
586
  5
5FA
331
4B8
  5
54E
331
1C01
  5
1F89
331
537
  5
5B0
331
21AA
  5
225F
331
5F5
  5
EB2
331
53F
  5
5B8
331
21B2
  5
2282
331
5FD
  5
1422
331
245E
  5
2447
331
1F57
  5
21AF
331
4D0
  5
55D
331
5AE
  5
601
331
1A83
  5
1E96
331
2035
  5
21B2
331
22B9
  5
236C
331
39B
  5
3DE
331
203D
  5
21B4
331
1BFA
  5
1F0B
331
22F1
  5
239B
331
243F
  5
2448
331
2399
  5
496
331
21A3
  5
2040
331
2447
  5
245C
331
40A
  5
495
331
A2D
  5
15B6
331
1C02
  5
1FBA
331
2282
  5
1C05
331
4C1
  5
558
331
21AB
  5
226D
331
5F6
  5
EB6
331
59F
  5
5FB
331
540
  5
5B9
331
334
  5
339
331
21B3
  5
2283
331
2457
  5
53A
331
5FE
  5
1496
331
245F
  5
2449
331
AD
  5
25F
331
384
  5
39B
331
558
  5
5D8
331
492
  5
4D0
331
4D1
  5
55F
331
1A44
  5
1E23
331
1A84
  5
1EA4
331
22BA
  5
49D
331
5B7
  5
A2C
331
511
  5
5A1
331
203E
  5
2095
331
2095
  5
2202
331
225B
  5
22F0
331
1BFB
  5
1F2C
331
22F2
  5
239E
331
21A4
  5
204F
331
239A
  5
236F
331
2448
  5
245D
331
40B
  5
499
331
473
  5
49E
331
1C03
  5
2033
331
1E52
  5
21A8
331
32D
  5
32F
331
1DDB
  5
203E
331
21AC
  5
227B
331
2283
  5
1DDA
331
335
  5
33C
331
5F7
  5
EBB
331
21B4
  5
2284
331
229B
  5
22F4
331
2458
  5
2461
331
5FF
  5
1499
331
22B3
  5
49B
331
A0
  5
A5
331
5A0
  5
5FC
331
4D2
  5
59F
331
E8E
  5
1A48
331
5B0
  5
602
331
1EE2
  5
21AC
331
2175
  5
2256
331
2254
  5
22EC
331
1F89
  5
21B0
331
5B8
  5
A2D
331
EDE
  5
1D7E
331
22EB
  5
236D
331
1E23
  5
21A1
331
1BFC
  5
1F45
331
204F
  5
21B7
331
22F3
  5
23F9
331
2441
  5
243D
331
2402
  5
2441
331
21A5
  5
2257
331
227C
  5
56A
331
239B
  5
494
331
2449
  5
2443
331
5D0
  5
DCC
331
532
  5
5AD
331
5D8
  5
EAE
331
1C04
  5
2037
331
53A
  5
5B2
331
C9F
  5
1A46
331
1E53
  5
2041
331
21AD
  5
227C
331
2284
  5
22F3
  0
SORTENTSTABLE
  5
1BE3
102
{ACAD_REACTORS
330
1BE2
102
}
330
1BE2
100
AcDbSortentsTable
330
1BDF
  0
XRECORD
  5
2538
102
{ACAD_REACTORS
330
2537
102
}
330
2537
100
AcDbXrecord
280
     1
102
SHADEPLOT
 70
     0
  0
XRECORD
  5
253A
102
{ACAD_REACTORS
330
2539
102
}
330
2539
100
AcDbXrecord
280
     1
102
SHADEPLOT
 70
     0
  0
LAYOUT
  5
22
102
{ACAD_XDICTIONARY
360
2533
102
}
102
{ACAD_REACTORS
330
1A
102
}
330
1A
100
AcDbPlotSettings
  1

  2
EPSON PM-800C
  4
A4
  6

 40
3.757083177566528
 41
14.7637300491333
 42
3.757080078125
 43
3.757080078125
 44
209.9733276367187
 45
296.9683227539062
 46
0.0
 47
0.0
 48
0.0
 49
0.0
140
0.0
141
0.0
142
1.0
143
10.0
 70
 11952
 72
     1
 73
     1
 74
     2
  7

 75
    20
147
0.1
148
0.0
149
0.0
100
AcDbLayout
  1
Model
 70
     1
 71
     0
 10
0.0
 20
0.0
 11
12.0
 21
9.0
 12
0.0
 22
0.0
 32
0.0
 14
0.0
 24
0.0
 34
0.0
 15
0.0
 25
0.0
 35
0.0
146
0.0
 13
0.0
 23
0.0
 33
0.0
 16
1.0
 26
0.0
 36
0.0
 17
0.0
 27
1.0
 37
0.0
 76
     0
330
1F
  0
LAYOUT
  5
1E
102
{ACAD_XDICTIONARY
360
2531
102
}
102
{ACAD_REACTORS
330
1A
102
}
330
1A
100
AcDbPlotSettings
  1

  2
EPSON PM-800C
  4
A4
  6

 40
3.757083177566528
 41
14.7637300491333
 42
3.757080078125
 43
3.757080078125
 44
209.9733276367187
 45
296.9683227539062
 46
0.0
 47
0.0
 48
0.0
 49
0.0
140
0.0
141
0.0
142
1.0
143
1.0
 70
   688
 72
     1
 73
     1
 74
     5
  7

 75
    16
147
1.0
148
0.0
149
0.0
100
AcDbLayout
  1
ﾚｲｱｳﾄ1
 70
     1
 71
     1
 10
-3.757080078125
 20
-3.757083177566528
 11
293.2112426757813
 21
206.2162444591522
 12
0.0
 22
0.0
 32
0.0
 14
27.8447512626648
 24
20.24591643810271
 34
0.0
 15
250.6027613639831
 25
182.2132479429245
 35
0.0
146
0.0
 13
0.0
 23
0.0
 33
0.0
 16
1.0
 26
0.0
 36
0.0
 17
0.0
 27
1.0
 37
0.0
 76
     0
330
1B
331
2E
  0
LAYOUT
  5
26
102
{ACAD_XDICTIONARY
360
2535
102
}
102
{ACAD_REACTORS
330
1A
102
}
330
1A
100
AcDbPlotSettings
  1

  2
EPSON PM-800C
  4

  6

 40
0.0
 41
0.0
 42
0.0
 43
0.0
 44
0.0
 45
0.0
 46
0.0
 47
0.0
 48
0.0
 49
0.0
140
0.0
141
0.0
142
1.0
143
1.0
 70
   688
 72
     0
 73
     0
 74
     5
  7

 75
    16
147
1.0
148
0.0
149
0.0
100
AcDbLayout
  1
ﾚｲｱｳﾄ2
 70
     1
 71
     2
 10
0.0
 20
0.0
 11
12.0
 21
9.0
 12
0.0
 22
0.0
 32
0.0
 14
0.0
 24
0.0
 34
0.0
 15
0.0
 25
0.0
 35
0.0
146
0.0
 13
0.0
 23
0.0
 33
0.0
 16
1.0
 26
0.0
 36
0.0
 17
0.0
 27
1.0
 37
0.0
 76
     0
330
23
  0
MLINESTYLE
  5
18
102
{ACAD_REACTORS
330
17
102
}
330
17
100
AcDbMlineStyle
  2
STANDARD
 70
     0
  3

 62
   256
 51
90.0
 52
90.0
 71
     2
 49
0.5
 62
   256
  6
BYLAYER
 49
-0.5
 62
   256
  6
BYLAYER
  0
ACDBPLACEHOLDER
  5
F
102
{ACAD_REACTORS
330
E
102
}
330
E
  0
TABLESTYLE
  5
19FB
102
{ACAD_REACTORS
330
19FA
102
}
330
19FA
100
AcDbTableStyle
  3
Standard
 70
     0
 71
     0
 40
1.5
 41
1.5
280
     0
281
     0
  7
Standard
140
4.5
170
     2
 62
     0
 63
     7
283
     0
274
    -2
284
     1
 64
     0
275
    -2
285
     1
 65
     0
276
    -2
286
     1
 66
     0
277
    -2
287
     1
 67
     0
278
    -2
288
     1
 68
     0
279
    -2
289
     1
 69
     0
  7
Standard
140
6.0
170
     5
 62
     0
 63
     7
283
     0
274
    -2
284
     1
 64
     0
275
    -2
285
     1
 65
     0
276
    -2
286
     1
 66
     0
277
    -2
287
     1
 67
     0
278
    -2
288
     1
 68
     0
279
    -2
289
     1
 69
     0
  7
Standard
140
4.5
170
     5
 62
     0
 63
     7
283
     0
274
    -2
284
     1
 64
     0
275
    -2
285
     1
 65
     0
276
    -2
286
     1
 66
     0
277
    -2
287
     1
 67
     0
278
    -2
288
     1
 68
     0
279
    -2
289
     1
 69
     0
  0
DICTIONARYVAR
  5
1A01
102
{ACAD_REACTORS
330
96D
102
}
330
96D
100
DictionaryVariables
280
     0
  1
STANDARD
  0
DICTIONARYVAR
  5
252D
102
{ACAD_REACTORS
330
96D
102
}
330
96D
100
DictionaryVariables
280
     0
  1
1
  0
DICTIONARYVAR
  5
252E
102
{ACAD_REACTORS
330
96D
102
}
330
96D
100
DictionaryVariables
280
     0
  1

  0
DICTIONARYVAR
  5
96E
102
{ACAD_REACTORS
330
96D
102
}
330
96D
100
DictionaryVariables
280
     0
  1
96
  0
DICTIONARY
  5
2533
330
22
100
AcDbDictionary
280
     1
281
     1
  3
ACAD_XREC_ROUNDTRIP
360
2534
  0
DICTIONARY
  5
2531
330
1E
100
AcDbDictionary
280
     1
281
     1
  3
ACAD_XREC_ROUNDTRIP
360
2532
  0
DICTIONARY
  5
2535
330
26
100
AcDbDictionary
280
     1
281
     1
  3
ACAD_XREC_ROUNDTRIP
360
2536
  0
XRECORD
  5
2534
102
{ACAD_REACTORS
330
2533
102
}
330
2533
100
AcDbXrecord
280
     1
102
SHADEPLOT
 70
     0
102
SHADEPLOTRESLEVEL
 70
     2
102
SHADEPLOTCUSTOMDPI
 70
   300
  0
XRECORD
  5
2532
102
{ACAD_REACTORS
330
2531
102
}
330
2531
100
AcDbXrecord
280
     1
102
SHADEPLOT
 70
     0
102
SHADEPLOTRESLEVEL
 70
     2
102
SHADEPLOTCUSTOMDPI
 70
   300
  0
XRECORD
  5
2536
102
{ACAD_REACTORS
330
2535
102
}
330
2535
100
AcDbXrecord
280
     1
102
SHADEPLOT
 70
     0
102
SHADEPLOTRESLEVEL
 70
     2
102
SHADEPLOTCUSTOMDPI
 70
   300
  0
ENDSEC
  0
EOF
