  0
SECTION
  2
HEADER
  9
$ACADVER
  1
AC1015
  9
$ACADMAINTVER
 70
    20
  9
$DWGCODEPAGE
  3
ANSI_932
  9
$INSBASE
 10
0.0
 20
0.0
 30
0.0
  9
$EXTMIN
 10
111.0
 20
4.0
 30
0.0
  9
$EXTMAX
 10
2784.0
 20
2024.0
 30
0.0
  9
$LIMMIN
 10
0.0
 20
0.0
  9
$LIMMAX
 10
29700.0
 20
21000.0
  9
$ORTHOMODE
 70
     1
  9
$REGENMODE
 70
     1
  9
$FILLMODE
 70
     1
  9
$QTEXTMODE
 70
     0
  9
$MIRRTEXT
 70
     1
  9
$LTSCALE
 40
4.0
  9
$ATTMODE
 70
     1
  9
$TEXTSIZE
 40
35.0
  9
$TRACEWID
 40
1.0
  9
$TEXTSTYLE
  7
Standard
  9
$CLAYER
  8
実形
  9
$CELTYPE
  6
ByLayer
  9
$CECOLOR
 62
   256
  9
$CELTSCALE
 40
1.0
  9
$DISPSILH
 70
     0
  9
$DIMSCALE
 40
1.0
  9
$DIMASZ
 40
30.0
  9
$DIMEXO
 40
65.0
  9
$DIMDLI
 40
3.75
  9
$DIMRND
 40
0.0
  9
$DIMDLE
 40
0.0
  9
$DIMEXE
 40
0.0
  9
$DIMTP
 40
0.0
  9
$DIMTM
 40
0.0
  9
$DIMTXT
 40
25.0
  9
$DIMCEN
 40
2.5
  9
$DIMTSZ
 40
0.0
  9
$DIMTOL
 70
     0
  9
$DIMLIM
 70
     0
  9
$DIMTIH
 70
     0
  9
$DIMTOH
 70
     0
  9
$DIMSE1
 70
     0
  9
$DIMSE2
 70
     0
  9
$DIMTAD
 70
     1
  9
$DIMZIN
 70
     8
  9
$DIMBLK
  1
DotSmall
  9
$DIMASO
 70
     1
  9
$DIMSHO
 70
     1
  9
$DIMPOST
  1

  9
$DIMAPOST
  1

  9
$DIMALT
 70
     0
  9
$DIMALTD
 70
     3
  9
$DIMALTF
 40
0.03937007874016
  9
$DIMLFAC
 40
1.0
  9
$DIMTOFL
 70
     1
  9
$DIMTVP
 40
0.0
  9
$DIMTIX
 70
     0
  9
$DIMSOXD
 70
     0
  9
$DIMSAH
 70
     0
  9
$DIMBLK1
  1

  9
$DIMBLK2
  1

  9
$DIMSTYLE
  2
ISO-25
  9
$DIMCLRD
 70
     0
  9
$DIMCLRE
 70
     0
  9
$DIMCLRT
 70
     0
  9
$DIMTFAC
 40
1.0
  9
$DIMGAP
 40
6.25
  9
$DIMJUST
 70
     0
  9
$DIMSD1
 70
     0
  9
$DIMSD2
 70
     0
  9
$DIMTOLJ
 70
     0
  9
$DIMTZIN
 70
     8
  9
$DIMALTZ
 70
     0
  9
$DIMALTTZ
 70
     0
  9
$DIMUPT
 70
     0
  9
$DIMDEC
 70
     2
  9
$DIMTDEC
 70
     2
  9
$DIMALTU
 70
     2
  9
$DIMALTTD
 70
     3
  9
$DIMTXSTY
  7
Standard
  9
$DIMAUNIT
 70
     0
  9
$DIMADEC
 70
     0
  9
$DIMALTRND
 40
0.0
  9
$DIMAZIN
 70
     0
  9
$DIMDSEP
 70
    46
  9
$DIMATFIT
 70
     3
  9
$DIMFRAC
 70
     0
  9
$DIMLDRBLK
  1
Open30
  9
$DIMLUNIT
 70
     2
  9
$DIMLWD
 70
    15
  9
$DIMLWE
 70
    15
  9
$DIMTMOVE
 70
     1
  9
$LUNITS
 70
     2
  9
$LUPREC
 70
     2
  9
$SKETCHINC
 40
1.0
  9
$FILLETRAD
 40
30.0
  9
$AUNITS
 70
     0
  9
$AUPREC
 70
     0
  9
$MENU
  1
.
  9
$ELEVATION
 40
0.0
  9
$PELEVATION
 40
0.0
  9
$THICKNESS
 40
0.0
  9
$LIMCHECK
 70
     1
  9
$CHAMFERA
 40
10.0
  9
$CHAMFERB
 40
10.0
  9
$CHAMFERC
 40
20.0
  9
$CHAMFERD
 40
0.0
  9
$SKPOLY
 70
     0
  9
$TDCREATE
 40
2451673.575802199
  9
$TDUCREATE
 40
2451673.200802199
  9
$TDUPDATE
 40
2458803.795976470
  9
$TDUUPDATE
 40
2458803.420976470
  9
$TDINDWG
 40
0.9833154514
  9
$TDUSRTIMER
 40
0.9833147569
  9
$USRTIMER
 70
     1
  9
$ANGBASE
 50
0.0
  9
$ANGDIR
 70
     0
  9
$PDMODE
 70
     0
  9
$PDSIZE
 40
0.0
  9
$PLINEWID
 40
0.0
  9
$SPLFRAME
 70
     0
  9
$SPLINETYPE
 70
     6
  9
$SPLINESEGS
 70
     8
  9
$HANDSEED
  5
160E
  9
$SURFTAB1
 70
     6
  9
$SURFTAB2
 70
     6
  9
$SURFTYPE
 70
     6
  9
$SURFU
 70
     6
  9
$SURFV
 70
     6
  9
$UCSBASE
  2

  9
$UCSNAME
  2

  9
$UCSORG
 10
0.0
 20
0.0
 30
0.0
  9
$UCSXDIR
 10
1.0
 20
0.0
 30
0.0
  9
$UCSYDIR
 10
0.0
 20
1.0
 30
0.0
  9
$UCSORTHOREF
  2

  9
$UCSORTHOVIEW
 70
     0
  9
$UCSORGTOP
 10
0.0
 20
0.0
 30
0.0
  9
$UCSORGBOTTOM
 10
0.0
 20
0.0
 30
0.0
  9
$UCSORGLEFT
 10
0.0
 20
0.0
 30
0.0
  9
$UCSORGRIGHT
 10
0.0
 20
0.0
 30
0.0
  9
$UCSORGFRONT
 10
0.0
 20
0.0
 30
0.0
  9
$UCSORGBACK
 10
0.0
 20
0.0
 30
0.0
  9
$PUCSBASE
  2

  9
$PUCSNAME
  2

  9
$PUCSORG
 10
0.0
 20
0.0
 30
0.0
  9
$PUCSXDIR
 10
1.0
 20
0.0
 30
0.0
  9
$PUCSYDIR
 10
0.0
 20
1.0
 30
0.0
  9
$PUCSORTHOREF
  2

  9
$PUCSORTHOVIEW
 70
     0
  9
$PUCSORGTOP
 10
0.0
 20
0.0
 30
0.0
  9
$PUCSORGBOTTOM
 10
0.0
 20
0.0
 30
0.0
  9
$PUCSORGLEFT
 10
0.0
 20
0.0
 30
0.0
  9
$PUCSORGRIGHT
 10
0.0
 20
0.0
 30
0.0
  9
$PUCSORGFRONT
 10
0.0
 20
0.0
 30
0.0
  9
$PUCSORGBACK
 10
0.0
 20
0.0
 30
0.0
  9
$USERI1
 70
     0
  9
$USERI2
 70
     0
  9
$USERI3
 70
     0
  9
$USERI4
 70
     0
  9
$USERI5
 70
     0
  9
$USERR1
 40
0.0
  9
$USERR2
 40
0.0
  9
$USERR3
 40
0.0
  9
$USERR4
 40
0.0
  9
$USERR5
 40
0.0
  9
$WORLDVIEW
 70
     1
  9
$SHADEDGE
 70
     3
  9
$SHADEDIF
 70
    70
  9
$TILEMODE
 70
     1
  9
$MAXACTVP
 70
    64
  9
$PINSBASE
 10
0.0
 20
0.0
 30
0.0
  9
$PLIMCHECK
 70
     0
  9
$PEXTMIN
 10
27.8447512626648
 20
20.24591643810271
 30
0.0
  9
$PEXTMAX
 10
250.6027613639831
 20
182.2132479429245
 30
0.0
  9
$PLIMMIN
 10
-3.757080078125
 20
-3.757083177566528
  9
$PLIMMAX
 10
293.2112426757813
 20
206.2162444591522
  9
$UNITMODE
 70
     0
  9
$VISRETAIN
 70
     1
  9
$PLINEGEN
 70
     0
  9
$PSLTSCALE
 70
     1
  9
$TREEDEPTH
 70
  3020
  9
$CMLSTYLE
  2
Standard
  9
$CMLJUST
 70
     0
  9
$CMLSCALE
 40
20.0
  9
$PROXYGRAPHICS
 70
     1
  9
$MEASUREMENT
 70
     1
  9
$CELWEIGHT
370
    -1
  9
$ENDCAPS
280
     0
  9
$JOINSTYLE
280
     0
  9
$LWDISPLAY
290
     0
  9
$INSUNITS
 70
     4
  9
$HYPERLINKBASE
  1

  9
$STYLESHEET
  1

  9
$XEDIT
290
     1
  9
$CEPSNTYPE
380
     0
  9
$PSTYLEMODE
290
     1
  9
$FINGERPRINTGUID
  2
{C8EA1F16-24C9-11D4-9416-CE0A3B32152F}
  9
$VERSIONGUID
  2
{8F7EB992-7482-48FB-9F61-03A20DB11BAB}
  9
$EXTNAMES
290
     1
  9
$PSVPSCALE
 40
0.0
  9
$OLESTARTUP
290
     0
  0
ENDSEC
  0
SECTION
  2
CLASSES
  0
CLASS
  1
ACDBDICTIONARYWDFLT
  2
AcDbDictionaryWithDefault
  3
ObjectDBX Classes
 90
        0
280
     0
281
     0
  0
CLASS
  1
ACDBPLACEHOLDER
  2
AcDbPlaceHolder
  3
ObjectDBX Classes
 90
        0
280
     0
281
     0
  0
CLASS
  1
LAYOUT
  2
AcDbLayout
  3
ObjectDBX Classes
 90
        0
280
     0
281
     0
  0
CLASS
  1
DICTIONARYVAR
  2
AcDbDictionaryVar
  3
ObjectDBX Classes
 90
        0
280
     0
281
     0
  0
CLASS
  1
TABLESTYLE
  2
AcDbTableStyle
  3
ObjectDBX Classes
 90
     2047
280
     0
281
     0
  0
CLASS
  1
SORTENTSTABLE
  2
AcDbSortentsTable
  3
ObjectDBX Classes
 90
        0
280
     0
281
     0
  0
ENDSEC
  0
SECTION
  2
TABLES
  0
TABLE
  2
VPORT
  5
8
330
0
100
AcDbSymbolTable
 70
     2
  0
VPORT
  5
1602
330
8
100
AcDbSymbolTableRecord
100
AcDbViewportTableRecord
  2
*Active
 70
     0
 10
0.0
 20
0.0
 11
1.0
 21
1.0
 12
1533.699962467011
 22
1002.67003139178
 13
0.0
 23
0.0
 14
10.0
 24
10.0
 15
10.0
 25
10.0
 16
0.0
 26
0.0
 36
1.0
 17
0.0
 27
0.0
 37
0.0
 40
2475.662508621286
 41
1.29038112522686
 42
50.0
 43
0.0
 44
0.0
 50
0.0
 51
0.0
 71
     0
 72
   100
 73
     1
 74
     3
 75
     0
 76
     0
 77
     0
 78
     0
281
     0
 65
     1
110
0.0
120
0.0
130
0.0
111
1.0
121
0.0
131
0.0
112
0.0
122
1.0
132
0.0
 79
     0
146
0.0
  0
ENDTAB
  0
TABLE
  2
LTYPE
  5
5
330
0
100
AcDbSymbolTable
 70
    46
  0
LTYPE
  5
14
330
5
100
AcDbSymbolTableRecord
100
AcDbLinetypeTableRecord
  2
ByBlock
 70
     0
  3

 72
    65
 73
     0
 40
0.0
  0
LTYPE
  5
15
330
5
100
AcDbSymbolTableRecord
100
AcDbLinetypeTableRecord
  2
ByLayer
 70
     0
  3

 72
    65
 73
     0
 40
0.0
  0
LTYPE
  5
16
330
5
100
AcDbSymbolTableRecord
100
AcDbLinetypeTableRecord
  2
Continuous
 70
     0
  3
Solid line
 72
    65
 73
     0
 40
0.0
  0
LTYPE
  5
34
330
5
100
AcDbSymbolTableRecord
100
AcDbLinetypeTableRecord
  2
ACAD_ISO02W100
 70
     0
  3
ISO dash __ __ __ __ __ __ __ __ __ __ __ __ __
 72
    65
 73
     2
 40
15.0
 49
12.0
 74
     0
 49
-3.0
 74
     0
  0
LTYPE
  5
35
330
5
100
AcDbSymbolTableRecord
100
AcDbLinetypeTableRecord
  2
ACAD_ISO03W100
 70
     0
  3
ISO dash space __    __    __    __    __    __
 72
    65
 73
     2
 40
30.0
 49
12.0
 74
     0
 49
-18.0
 74
     0
  0
LTYPE
  5
36
330
5
100
AcDbSymbolTableRecord
100
AcDbLinetypeTableRecord
  2
ACAD_ISO04W100
 70
     0
  3
ISO long-dash dot ____ . ____ . ____ . ____ . _
 72
    65
 73
     4
 40
30.0
 49
24.0
 74
     0
 49
-3.0
 74
     0
 49
0.0
 74
     0
 49
-3.0
 74
     0
  0
LTYPE
  5
37
330
5
100
AcDbSymbolTableRecord
100
AcDbLinetypeTableRecord
  2
ACAD_ISO05W100
 70
     0
  3
ISO long-dash double-dot ____ .. ____ .. ____ .
 72
    65
 73
     6
 40
34.0
 49
24.0
 74
     0
 49
-3.0
 74
     0
 49
0.5
 74
     0
 49
-3.0
 74
     0
 49
0.5
 74
     0
 49
-3.0
 74
     0
  0
LTYPE
  5
38
330
5
100
AcDbSymbolTableRecord
100
AcDbLinetypeTableRecord
  2
ACAD_ISO06W100
 70
     0
  3
ISO long-dash triple-dot ____ ... ____ ... ____
 72
    65
 73
     8
 40
37.5
 49
24.0
 74
     0
 49
-3.0
 74
     0
 49
0.5
 74
     0
 49
-3.0
 74
     0
 49
0.5
 74
     0
 49
-3.0
 74
     0
 49
0.5
 74
     0
 49
-3.0
 74
     0
  0
LTYPE
  5
39
330
5
100
AcDbSymbolTableRecord
100
AcDbLinetypeTableRecord
  2
ACAD_ISO07W100
 70
     0
  3
ISO dot . . . . . . . . . . . . . . . . . . . .
 72
    65
 73
     2
 40
3.0
 49
0.0
 74
     0
 49
-3.0
 74
     0
  0
LTYPE
  5
3A
330
5
100
AcDbSymbolTableRecord
100
AcDbLinetypeTableRecord
  2
ACAD_ISO08W100
 70
     0
  3
ISO long-dash short-dash ____ __ ____ __ ____ _
 72
    65
 73
     4
 40
36.0
 49
24.0
 74
     0
 49
-3.0
 74
     0
 49
6.0
 74
     0
 49
-3.0
 74
     0
  0
LTYPE
  5
3B
330
5
100
AcDbSymbolTableRecord
100
AcDbLinetypeTableRecord
  2
ACAD_ISO09W100
 70
     0
  3
ISO long-dash double-short-dash ____ __ __ ____
 72
    65
 73
     6
 40
45.0
 49
24.0
 74
     0
 49
-3.0
 74
     0
 49
6.0
 74
     0
 49
-3.0
 74
     0
 49
6.0
 74
     0
 49
-3.0
 74
     0
  0
LTYPE
  5
3C
330
5
100
AcDbSymbolTableRecord
100
AcDbLinetypeTableRecord
  2
ACAD_ISO10W100
 70
     0
  3
ISO dash dot __ . __ . __ . __ . __ . __ . __ .
 72
    65
 73
     4
 40
18.0
 49
12.0
 74
     0
 49
-3.0
 74
     0
 49
0.0
 74
     0
 49
-3.0
 74
     0
  0
LTYPE
  5
3D
330
5
100
AcDbSymbolTableRecord
100
AcDbLinetypeTableRecord
  2
ACAD_ISO11W100
 70
     0
  3
ISO double-dash dot __ __ . __ __ . __ __ . __ 
 72
    65
 73
     6
 40
33.0
 49
12.0
 74
     0
 49
-3.0
 74
     0
 49
12.0
 74
     0
 49
-3.0
 74
     0
 49
0.0
 74
     0
 49
-3.0
 74
     0
  0
LTYPE
  5
3E
330
5
100
AcDbSymbolTableRecord
100
AcDbLinetypeTableRecord
  2
ACAD_ISO12W100
 70
     0
  3
ISO dash double-dot __ . . __ . . __ . . __ . .
 72
    65
 73
     6
 40
21.0
 49
12.0
 74
     0
 49
-3.0
 74
     0
 49
0.0
 74
     0
 49
-3.0
 74
     0
 49
0.0
 74
     0
 49
-3.0
 74
     0
  0
LTYPE
  5
3F
330
5
100
AcDbSymbolTableRecord
100
AcDbLinetypeTableRecord
  2
ACAD_ISO13W100
 70
     0
  3
ISO double-dash double-dot __ __ . . __ __ . . 
 72
    65
 73
     8
 40
36.0
 49
12.0
 74
     0
 49
-3.0
 74
     0
 49
12.0
 74
     0
 49
-3.0
 74
     0
 49
0.0
 74
     0
 49
-3.0
 74
     0
 49
0.0
 74
     0
 49
-3.0
 74
     0
  0
LTYPE
  5
40
330
5
100
AcDbSymbolTableRecord
100
AcDbLinetypeTableRecord
  2
ACAD_ISO14W100
 70
     0
  3
ISO dash triple-dot __ . . . __ . . . __ . . . 
 72
    65
 73
     8
 40
24.0
 49
12.0
 74
     0
 49
-3.0
 74
     0
 49
0.0
 74
     0
 49
-3.0
 74
     0
 49
0.0
 74
     0
 49
-3.0
 74
     0
 49
0.0
 74
     0
 49
-3.0
 74
     0
  0
LTYPE
  5
41
330
5
100
AcDbSymbolTableRecord
100
AcDbLinetypeTableRecord
  2
ACAD_ISO15W100
 70
     0
  3
ISO double-dash triple-dot __ __ . . . __ __ . 
 72
    65
 73
    10
 40
39.0
 49
12.0
 74
     0
 49
-3.0
 74
     0
 49
12.0
 74
     0
 49
-3.0
 74
     0
 49
0.0
 74
     0
 49
-3.0
 74
     0
 49
0.0
 74
     0
 49
-3.0
 74
     0
 49
0.0
 74
     0
 49
-3.0
 74
     0
  0
LTYPE
  5
42
330
5
100
AcDbSymbolTableRecord
100
AcDbLinetypeTableRecord
  2
BATTING
 70
     0
  3
Batting SSSSSSSSSSSSSSSSSSSSSSSSSSSSSSSSSSSSSSS
 72
    65
 73
     4
 40
10.16254
 49
0.00254
 74
     0
 49
-2.54
 74
     4
 75
   134
340
33
 46
2.54
 50
0.0
 44
-2.54
 45
0.0
 49
-5.08
 74
     4
 75
   134
340
33
 46
2.54
 50
180.0
 44
2.54
 45
0.0
 49
-2.54
 74
     0
  0
LTYPE
  5
43
330
5
100
AcDbSymbolTableRecord
100
AcDbLinetypeTableRecord
  2
BORDER
 70
     0
  3
Border __ __ . __ __ . __ __ . __ __ . __ __ .
 72
    65
 73
     6
 40
44.45
 49
12.7
 74
     0
 49
-6.349999999999999
 74
     0
 49
12.7
 74
     0
 49
-6.349999999999999
 74
     0
 49
0.0
 74
     0
 49
-6.349999999999999
 74
     0
  0
LTYPE
  5
44
330
5
100
AcDbSymbolTableRecord
100
AcDbLinetypeTableRecord
  2
BORDER2
 70
     0
  3
Border (.5x) __.__.__.__.__.__.__.__.__.__.__.
 72
    65
 73
     6
 40
22.225
 49
6.349999999999999
 74
     0
 49
-3.174999999999999
 74
     0
 49
6.349999999999999
 74
     0
 49
-3.174999999999999
 74
     0
 49
0.0
 74
     0
 49
-3.174999999999999
 74
     0
  0
LTYPE
  5
45
330
5
100
AcDbSymbolTableRecord
100
AcDbLinetypeTableRecord
  2
BORDERX2
 70
     0
  3
Border (2x) ____  ____  .  ____  ____  .  ___
 72
    65
 73
     6
 40
88.9
 49
25.4
 74
     0
 49
-12.7
 74
     0
 49
25.4
 74
     0
 49
-12.7
 74
     0
 49
0.0
 74
     0
 49
-12.7
 74
     0
  0
LTYPE
  5
46
330
5
100
AcDbSymbolTableRecord
100
AcDbLinetypeTableRecord
  2
CENTER
 70
     0
  3
Center ____ _ ____ _ ____ _ ____ _ ____ _ ____
 72
    65
 73
     4
 40
50.8
 49
31.75
 74
     0
 49
-6.349999999999999
 74
     0
 49
6.349999999999999
 74
     0
 49
-6.349999999999999
 74
     0
  0
LTYPE
  5
47
330
5
100
AcDbSymbolTableRecord
100
AcDbLinetypeTableRecord
  2
CENTER2
 70
     0
  3
Center (.5x) ___ _ ___ _ ___ _ ___ _ ___ _ ___
 72
    65
 73
     4
 40
28.575
 49
19.05
 74
     0
 49
-3.174999999999999
 74
     0
 49
3.174999999999999
 74
     0
 49
-3.174999999999999
 74
     0
  0
LTYPE
  5
48
330
5
100
AcDbSymbolTableRecord
100
AcDbLinetypeTableRecord
  2
CENTERX2
 70
     0
  3
Center (2x) ________  __  ________  __  _____
 72
    65
 73
     4
 40
101.6
 49
63.5
 74
     0
 49
-12.7
 74
     0
 49
12.7
 74
     0
 49
-12.7
 74
     0
  0
LTYPE
  5
49
330
5
100
AcDbSymbolTableRecord
100
AcDbLinetypeTableRecord
  2
DASHDOT
 70
     0
  3
Dash dot __ . __ . __ . __ . __ . __ . __ . __
 72
    65
 73
     4
 40
25.4
 49
12.7
 74
     0
 49
-6.349999999999999
 74
     0
 49
0.0
 74
     0
 49
-6.349999999999999
 74
     0
  0
LTYPE
  5
4A
330
5
100
AcDbSymbolTableRecord
100
AcDbLinetypeTableRecord
  2
DASHDOT2
 70
     0
  3
Dash dot (.5x) _._._._._._._._._._._._._._._.
 72
    65
 73
     4
 40
12.7
 49
6.349999999999999
 74
     0
 49
-3.174999999999999
 74
     0
 49
0.0
 74
     0
 49
-3.174999999999999
 74
     0
  0
LTYPE
  5
4B
330
5
100
AcDbSymbolTableRecord
100
AcDbLinetypeTableRecord
  2
DASHDOTX2
 70
     0
  3
Dash dot (2x) ____  .  ____  .  ____  .  ___
 72
    65
 73
     4
 40
50.8
 49
25.4
 74
     0
 49
-12.7
 74
     0
 49
0.0
 74
     0
 49
-12.7
 74
     0
  0
LTYPE
  5
4C
330
5
100
AcDbSymbolTableRecord
100
AcDbLinetypeTableRecord
  2
DASHED
 70
     0
  3
Dashed __ __ __ __ __ __ __ __ __ __ __ __ __ _
 72
    65
 73
     2
 40
19.05
 49
12.7
 74
     0
 49
-6.349999999999999
 74
     0
  0
LTYPE
  5
4D
330
5
100
AcDbSymbolTableRecord
100
AcDbLinetypeTableRecord
  2
DASHED2
 70
     0
  3
Dashed (.5x) _ _ _ _ _ _ _ _ _ _ _ _ _ _ _ _ _
 72
    65
 73
     2
 40
9.524999999999998
 49
6.349999999999999
 74
     0
 49
-3.174999999999999
 74
     0
  0
LTYPE
  5
4E
330
5
100
AcDbSymbolTableRecord
100
AcDbLinetypeTableRecord
  2
DASHEDX2
 70
     0
  3
Dashed (2x) ____  ____  ____  ____  ____  ___
 72
    65
 73
     2
 40
38.1
 49
25.4
 74
     0
 49
-12.7
 74
     0
  0
LTYPE
  5
4F
330
5
100
AcDbSymbolTableRecord
100
AcDbLinetypeTableRecord
  2
DIVIDE
 70
     0
  3
Divide ____ . . ____ . . ____ . . ____ . . ____
 72
    65
 73
     6
 40
31.75
 49
12.7
 74
     0
 49
-6.349999999999999
 74
     0
 49
0.0
 74
     0
 49
-6.349999999999999
 74
     0
 49
0.0
 74
     0
 49
-6.349999999999999
 74
     0
  0
LTYPE
  5
50
330
5
100
AcDbSymbolTableRecord
100
AcDbLinetypeTableRecord
  2
DIVIDE2
 70
     0
  3
Divide (.5x) __..__..__..__..__..__..__..__.._
 72
    65
 73
     6
 40
15.875
 49
6.349999999999999
 74
     0
 49
-3.174999999999999
 74
     0
 49
0.0
 74
     0
 49
-3.174999999999999
 74
     0
 49
0.0
 74
     0
 49
-3.174999999999999
 74
     0
  0
LTYPE
  5
51
330
5
100
AcDbSymbolTableRecord
100
AcDbLinetypeTableRecord
  2
DIVIDEX2
 70
     0
  3
Divide (2x) ________  .  .  ________  .  .  _
 72
    65
 73
     6
 40
63.49999999999999
 49
25.4
 74
     0
 49
-12.7
 74
     0
 49
0.0
 74
     0
 49
-12.7
 74
     0
 49
0.0
 74
     0
 49
-12.7
 74
     0
  0
LTYPE
  5
52
330
5
100
AcDbSymbolTableRecord
100
AcDbLinetypeTableRecord
  2
DOT
 70
     0
  3
Dot . . . . . . . . . . . . . . . . . . . . . .
 72
    65
 73
     2
 40
6.349999999999999
 49
0.0
 74
     0
 49
-6.349999999999999
 74
     0
  0
LTYPE
  5
53
330
5
100
AcDbSymbolTableRecord
100
AcDbLinetypeTableRecord
  2
DOT2
 70
     0
  3
Dot (.5x) .....................................
 72
    65
 73
     2
 40
3.174999999999999
 49
0.0
 74
     0
 49
-3.174999999999999
 74
     0
  0
LTYPE
  5
54
330
5
100
AcDbSymbolTableRecord
100
AcDbLinetypeTableRecord
  2
DOTX2
 70
     0
  3
Dot (2x) .  .  .  .  .  .  .  .  .  .  .  .  . 
 72
    65
 73
     2
 40
12.7
 49
0.0
 74
     0
 49
-12.7
 74
     0
  0
LTYPE
  5
55
330
5
100
AcDbSymbolTableRecord
100
AcDbLinetypeTableRecord
  2
FENCELINE1
 70
     0
  3
Fenceline circle ----0-----0----0-----0----0---
 72
    65
 73
     4
 40
36.83
 49
6.349999999999999
 74
     0
 49
-2.54
 74
     4
 75
   133
340
33
 46
2.54
 50
0.0
 44
-2.54
 45
0.0
 49
-2.54
 74
     0
 49
25.4
 74
     0
  0
LTYPE
  5
56
330
5
100
AcDbSymbolTableRecord
100
AcDbLinetypeTableRecord
  2
FENCELINE2
 70
     0
  3
Fenceline square ----[]-----[]----[]-----[]----
 72
    65
 73
     4
 40
36.83
 49
6.349999999999999
 74
     0
 49
-2.54
 74
     4
 75
   132
340
33
 46
2.54
 50
0.0
 44
-2.54
 45
0.0
 49
-2.54
 74
     0
 49
25.4
 74
     0
  0
LTYPE
  5
57
330
5
100
AcDbSymbolTableRecord
100
AcDbLinetypeTableRecord
  2
GAS_LINE
 70
     0
  3
Gas line ----GAS----GAS----GAS----GAS----GAS---
 72
    65
 73
     3
 40
24.13
 49
12.7
 74
     0
 49
-5.08
 74
     2
 75
     0
340
11
 46
2.54
 50
0.0
 44
-2.54
 45
-1.27
  9
GAS
 49
-6.349999999999999
 74
     0
  0
LTYPE
  5
58
330
5
100
AcDbSymbolTableRecord
100
AcDbLinetypeTableRecord
  2
HIDDEN
 70
     0
  3
Hidden __ __ __ __ __ __ __ __ __ __ __ __ __ _
 72
    65
 73
     2
 40
9.524999999999998
 49
6.349999999999999
 74
     0
 49
-3.174999999999999
 74
     0
  0
LTYPE
  5
59
330
5
100
AcDbSymbolTableRecord
100
AcDbLinetypeTableRecord
  2
HIDDEN2
 70
     0
  3
Hidden (.5x) _ _ _ _ _ _ _ _ _ _ _ _ _ _ _ _ _
 72
    65
 73
     2
 40
4.762499999999999
 49
3.174999999999999
 74
     0
 49
-1.587499999999999
 74
     0
  0
LTYPE
  5
5A
330
5
100
AcDbSymbolTableRecord
100
AcDbLinetypeTableRecord
  2
HIDDENX2
 70
     0
  3
Hidden (2x) ____ ____ ____ ____ ____ ____ ____
 72
    65
 73
     2
 40
19.05
 49
12.7
 74
     0
 49
-6.349999999999999
 74
     0
  0
LTYPE
  5
5B
330
5
100
AcDbSymbolTableRecord
100
AcDbLinetypeTableRecord
  2
HOT_WATER_SUPPLY
 70
     0
  3
Hot water supply ---- HW ---- HW ---- HW ----
 72
    65
 73
     3
 40
22.86
 49
12.7
 74
     0
 49
-5.08
 74
     2
 75
     0
340
11
 46
2.54
 50
0.0
 44
-2.54
 45
-1.27
  9
HW
 49
-5.08
 74
     0
  0
LTYPE
  5
5C
330
5
100
AcDbSymbolTableRecord
100
AcDbLinetypeTableRecord
  2
PHANTOM
 70
     0
  3
Phantom ______  __  __  ______  __  __  ______
 72
    65
 73
     6
 40
63.5
 49
31.75
 74
     0
 49
-6.349999999999999
 74
     0
 49
6.349999999999999
 74
     0
 49
-6.349999999999999
 74
     0
 49
6.349999999999999
 74
     0
 49
-6.349999999999999
 74
     0
  0
LTYPE
  5
5D
330
5
100
AcDbSymbolTableRecord
100
AcDbLinetypeTableRecord
  2
PHANTOM2
 70
     0
  3
Phantom (.5x) ___ _ _ ___ _ _ ___ _ _ ___ _ _
 72
    65
 73
     6
 40
31.75
 49
15.875
 74
     0
 49
-3.174999999999999
 74
     0
 49
3.174999999999999
 74
     0
 49
-3.174999999999999
 74
     0
 49
3.174999999999999
 74
     0
 49
-3.174999999999999
 74
     0
  0
LTYPE
  5
5E
330
5
100
AcDbSymbolTableRecord
100
AcDbLinetypeTableRecord
  2
PHANTOMX2
 70
     0
  3
Phantom (2x) ____________    ____    ____   _
 72
    65
 73
     6
 40
127.0
 49
63.5
 74
     0
 49
-12.7
 74
     0
 49
12.7
 74
     0
 49
-12.7
 74
     0
 49
12.7
 74
     0
 49
-12.7
 74
     0
  0
LTYPE
  5
5F
330
5
100
AcDbSymbolTableRecord
100
AcDbLinetypeTableRecord
  2
TRACKS
 70
     0
  3
Tracks -|-|-|-|-|-|-|-|-|-|-|-|-|-|-|-|-|-|-|-|
 72
    65
 73
     2
 40
7.62
 49
3.81
 74
     4
 75
   130
340
33
 46
6.349999999999999
 50
0.0
 44
0.0
 45
0.0
 49
3.81
 74
     0
  0
LTYPE
  5
60
330
5
100
AcDbSymbolTableRecord
100
AcDbLinetypeTableRecord
  2
ZIGZAG
 70
     0
  3
Zig zag /\/\/\/\/\/\/\/\/\/\/\/\/\/\/\/\/\/\/\/
 72
    65
 73
     4
 40
20.32254
 49
0.00254
 74
     0
 49
-5.08
 74
     4
 75
   131
340
33
 46
5.08
 50
0.0
 44
-5.08
 45
0.0
 49
-10.16
 74
     4
 75
   131
340
33
 46
5.08
 50
180.0
 44
5.08
 45
0.0
 49
-5.08
 74
     0
  0
ENDTAB
  0
TABLE
  2
LAYER
  5
2
102
{ACAD_XDICTIONARY
360
14E3
102
}
330
0
100
AcDbSymbolTable
 70
     7
  0
LAYER
  5
10
330
2
100
AcDbSymbolTableRecord
100
AcDbLayerTableRecord
  2
0
 70
     0
 62
     7
  6
Continuous
370
    -3
390
F
  0
LAYER
  5
C3
330
2
100
AcDbSymbolTableRecord
100
AcDbLayerTableRecord
  2
Defpoints
 70
     0
 62
     7
  6
Continuous
290
     0
370
    -3
390
F
  0
LAYER
  5
256
330
2
100
AcDbSymbolTableRecord
100
AcDbLayerTableRecord
  2
Cen
 70
     0
 62
     7
  6
CENTER2
370
    15
390
F
  0
LAYER
  5
5DF
330
2
100
AcDbSymbolTableRecord
100
AcDbLayerTableRecord
  2
実形
 70
     0
 62
     7
  6
Continuous
370
    -3
390
F
  0
LAYER
  5
60C
330
2
100
AcDbSymbolTableRecord
100
AcDbLayerTableRecord
  2
補助
 70
     0
 62
     7
  6
Continuous
370
    -3
390
F
  0
LAYER
  5
619
330
2
100
AcDbSymbolTableRecord
100
AcDbLayerTableRecord
  2
センター
 70
     0
 62
     7
  6
CENTER2
370
    18
390
F
  0
LAYER
  5
61A
330
2
100
AcDbSymbolTableRecord
100
AcDbLayerTableRecord
  2
寸法
 70
     0
 62
     7
  6
Continuous
370
    18
390
F
  0
ENDTAB
  0
TABLE
  2
STYLE
  5
3
330
0
100
AcDbSymbolTable
 70
     4
  0
STYLE
  5
11
330
3
100
AcDbSymbolTableRecord
100
AcDbTextStyleTableRecord
  2
Standard
 70
     0
 40
0.0
 41
1.0
 50
0.0
 71
     0
 42
35.0
  3
txt.shx
  4
bigfont.shx
  0
STYLE
  5
33
330
3
100
AcDbSymbolTableRecord
100
AcDbTextStyleTableRecord
  2

 70
     1
 40
0.0
 41
1.0
 50
0.0
 71
     0
 42
2.5
  3
ltypeshp.shx
  4

  0
STYLE
  5
14E2
330
3
100
AcDbSymbolTableRecord
100
AcDbTextStyleTableRecord
  2
ms明朝
 70
     0
 40
0.0
 41
1.0
 50
0.0
 71
     0
 42
25.0
  3
MS Mincho.ttf
  4

1001
ACAD
1000
MS Mincho
1071
    32785
  0
STYLE
  5
15B1
330
3
100
AcDbSymbolTableRecord
100
AcDbTextStyleTableRecord
  2
明朝
 70
     0
 40
0.0
 41
1.0
 50
0.0
 71
     0
 42
25.0
  3
MS Mincho.ttf
  4

1001
ACAD
1000
MS Mincho
1071
    32785
  0
ENDTAB
  0
TABLE
  2
VIEW
  5
6
330
0
100
AcDbSymbolTable
 70
     0
  0
ENDTAB
  0
TABLE
  2
UCS
  5
7
330
0
100
AcDbSymbolTable
 70
     0
  0
ENDTAB
  0
TABLE
  2
APPID
  5
9
330
0
100
AcDbSymbolTable
 70
     1
  0
APPID
  5
12
330
9
100
AcDbSymbolTableRecord
100
AcDbRegAppTableRecord
  2
ACAD
 70
     0
  0
ENDTAB
  0
TABLE
  2
DIMSTYLE
  5
A
330
0
100
AcDbSymbolTable
 70
     1
100
AcDbDimStyleTable
 71
     1
340
27
  0
DIMSTYLE
105
27
102
{ACAD_REACTORS
330
473
330
480
330
586
330
304
330
28B
330
2B3
330
270
330
376
330
2E9
330
298
330
2DC
330
2A6
330
27E
330
384
330
31C
330
2F7
330
3BF
330
3B2
330
4C1
330
E81
330
E8E
330
1422
330
14F0
330
14F1
330
14F2
330
14F3
102
}
330
A
100
AcDbSymbolTableRecord
100
AcDbDimStyleTableRecord
  2
ISO-25
 70
     0
 41
30.0
 42
65.0
 43
3.75
 44
0.0
 73
     0
 74
     0
 77
     1
 78
     8
140
25.0
141
2.5
143
0.03937007874016
147
6.25
171
     3
172
     1
271
     2
272
     2
274
     3
283
     0
284
     8
340
11
341
DA
342
D0
371
    15
372
    15
  0
ENDTAB
  0
TABLE
  2
BLOCK_RECORD
  5
1
330
0
100
AcDbSymbolTable
 70
    30
  0
BLOCK_RECORD
  5
1F
102
{ACAD_XDICTIONARY
360
15D1
102
}
330
1
100
AcDbSymbolTableRecord
100
AcDbBlockTableRecord
  2
*Model_Space
340
22
  0
BLOCK_RECORD
  5
1B
330
1
100
AcDbSymbolTableRecord
100
AcDbBlockTableRecord
  2
*Paper_Space
340
1E
  0
BLOCK_RECORD
  5
23
330
1
100
AcDbSymbolTableRecord
100
AcDbBlockTableRecord
  2
*Paper_Space0
340
26
  0
BLOCK_RECORD
  5
D0
330
1
100
AcDbSymbolTableRecord
100
AcDbBlockTableRecord
  2
_DotSmall
340
0
102
{BLKREFS
331
11CC
331
11CD
331
11DE
331
11DF
331
11E7
331
11E8
331
11F9
331
11FA
331
1202
331
1203
331
120B
331
120C
331
1215
331
1216
331
1242
331
1243
331
127B
331
127C
331
1284
331
1285
331
1296
331
1297
331
129E
331
129F
331
13C7
331
13C8
331
13DC
331
13DD
331
13E4
331
13E5
331
1401
331
1402
331
1409
331
140A
331
1412
331
1413
331
141C
331
141D
331
1427
331
1428
331
1432
331
1433
331
1528
331
1529
331
1531
331
1532
331
153A
331
153B
331
1542
331
1543
331
156E
331
156F
102
}
  0
BLOCK_RECORD
  5
D4
330
1
100
AcDbSymbolTableRecord
100
AcDbBlockTableRecord
  2
_Origin2
340
0
  0
BLOCK_RECORD
  5
DA
330
1
100
AcDbSymbolTableRecord
100
AcDbBlockTableRecord
  2
_Open30
340
0
  0
BLOCK_RECORD
  5
271
330
1
100
AcDbSymbolTableRecord
100
AcDbBlockTableRecord
  2
*D4
340
0
  0
BLOCK_RECORD
  5
27F
330
1
100
AcDbSymbolTableRecord
100
AcDbBlockTableRecord
  2
*D5
340
0
  0
BLOCK_RECORD
  5
28C
330
1
100
AcDbSymbolTableRecord
100
AcDbBlockTableRecord
  2
*D6
340
0
  0
BLOCK_RECORD
  5
299
330
1
100
AcDbSymbolTableRecord
100
AcDbBlockTableRecord
  2
*D7
340
0
  0
BLOCK_RECORD
  5
2A7
330
1
100
AcDbSymbolTableRecord
100
AcDbBlockTableRecord
  2
*D8
340
0
  0
BLOCK_RECORD
  5
2B4
330
1
100
AcDbSymbolTableRecord
100
AcDbBlockTableRecord
  2
*D9
340
0
  0
BLOCK_RECORD
  5
2DD
330
1
100
AcDbSymbolTableRecord
100
AcDbBlockTableRecord
  2
*D10
340
0
  0
BLOCK_RECORD
  5
2EA
330
1
100
AcDbSymbolTableRecord
100
AcDbBlockTableRecord
  2
*D11
340
0
  0
BLOCK_RECORD
  5
2F8
330
1
100
AcDbSymbolTableRecord
100
AcDbBlockTableRecord
  2
*D12
340
0
  0
BLOCK_RECORD
  5
305
330
1
100
AcDbSymbolTableRecord
100
AcDbBlockTableRecord
  2
*D13
340
0
  0
BLOCK_RECORD
  5
31D
330
1
100
AcDbSymbolTableRecord
100
AcDbBlockTableRecord
  2
*D14
340
0
  0
BLOCK_RECORD
  5
377
330
1
100
AcDbSymbolTableRecord
100
AcDbBlockTableRecord
  2
*D15
340
0
  0
BLOCK_RECORD
  5
385
330
1
100
AcDbSymbolTableRecord
100
AcDbBlockTableRecord
  2
*D16
340
0
  0
BLOCK_RECORD
  5
3B3
330
1
100
AcDbSymbolTableRecord
100
AcDbBlockTableRecord
  2
*D17
340
0
  0
BLOCK_RECORD
  5
3C0
330
1
100
AcDbSymbolTableRecord
100
AcDbBlockTableRecord
  2
*D18
340
0
  0
BLOCK_RECORD
  5
474
330
1
100
AcDbSymbolTableRecord
100
AcDbBlockTableRecord
  2
*D19
340
0
  0
BLOCK_RECORD
  5
481
330
1
100
AcDbSymbolTableRecord
100
AcDbBlockTableRecord
  2
*D20
340
0
  0
BLOCK_RECORD
  5
4C2
330
1
100
AcDbSymbolTableRecord
100
AcDbBlockTableRecord
  2
*D21
340
0
  0
BLOCK_RECORD
  5
587
330
1
100
AcDbSymbolTableRecord
100
AcDbBlockTableRecord
  2
*D22
340
0
  0
BLOCK_RECORD
  5
E82
330
1
100
AcDbSymbolTableRecord
100
AcDbBlockTableRecord
  2
*D23
340
0
  0
BLOCK_RECORD
  5
E8F
330
1
100
AcDbSymbolTableRecord
100
AcDbBlockTableRecord
  2
*D24
340
0
  0
BLOCK_RECORD
  5
1423
330
1
100
AcDbSymbolTableRecord
100
AcDbBlockTableRecord
  2
*D25
340
0
  0
BLOCK_RECORD
  5
14F4
330
1
100
AcDbSymbolTableRecord
100
AcDbBlockTableRecord
  2
*D26
340
0
  0
BLOCK_RECORD
  5
1500
330
1
100
AcDbSymbolTableRecord
100
AcDbBlockTableRecord
  2
*D27
340
0
  0
BLOCK_RECORD
  5
150C
330
1
100
AcDbSymbolTableRecord
100
AcDbBlockTableRecord
  2
*D28
340
0
  0
BLOCK_RECORD
  5
1518
330
1
100
AcDbSymbolTableRecord
100
AcDbBlockTableRecord
  2
*D29
340
0
  0
ENDTAB
  0
ENDSEC
  0
SECTION
  2
BLOCKS
  0
BLOCK
  5
20
330
1F
100
AcDbEntity
  8
0
100
AcDbBlockBegin
  2
*Model_Space
 70
     0
 10
0.0
 20
0.0
 30
0.0
  3
*Model_Space
  1

  0
ENDBLK
  5
21
330
1F
100
AcDbEntity
  8
0
100
AcDbBlockEnd
  0
BLOCK
  5
1C
330
1B
100
AcDbEntity
 67
     1
  8
0
100
AcDbBlockBegin
  2
*Paper_Space
 70
     0
 10
0.0
 20
0.0
 30
0.0
  3
*Paper_Space
  1

  0
ENDBLK
  5
1D
330
1B
100
AcDbEntity
 67
     1
  8
0
100
AcDbBlockEnd
  0
BLOCK
  5
24
330
23
100
AcDbEntity
  8
0
100
AcDbBlockBegin
  2
*Paper_Space0
 70
     0
 10
0.0
 20
0.0
 30
0.0
  3
*Paper_Space0
  1

  0
ENDBLK
  5
25
330
23
100
AcDbEntity
  8
0
100
AcDbBlockEnd
  0
BLOCK
  5
D2
330
D0
100
AcDbEntity
  8
0
100
AcDbBlockBegin
  2
_DotSmall
 70
     0
 10
0.0
 20
0.0
 30
0.0
  3
_DotSmall
  1

  0
LWPOLYLINE
  5
D1
330
D0
100
AcDbEntity
  8
0
 62
     0
100
AcDbPolyline
 90
        2
 70
     1
 43
0.5
 10
-0.0625
 20
0.0
 42
1.0
 10
0.0625
 20
0.0
 42
1.0
  0
ENDBLK
  5
D3
330
D0
100
AcDbEntity
  8
0
100
AcDbBlockEnd
  0
BLOCK
  5
D8
330
D4
100
AcDbEntity
  8
0
100
AcDbBlockBegin
  2
_Origin2
 70
     0
 10
0.0
 20
0.0
 30
0.0
  3
_Origin2
  1

  0
CIRCLE
  5
D5
330
D4
100
AcDbEntity
  8
0
 62
     0
370
    -2
100
AcDbCircle
 10
0.0
 20
0.0
 30
0.0
 40
0.5
  0
CIRCLE
  5
D6
330
D4
100
AcDbEntity
  8
0
 62
     0
370
    -2
100
AcDbCircle
 10
0.0
 20
0.0
 30
0.0
 40
0.25
  0
LINE
  5
D7
330
D4
100
AcDbEntity
  8
0
 62
     0
370
    -2
100
AcDbLine
 10
-0.5
 20
0.0
 30
0.0
 11
-1.0
 21
0.0
 31
0.0
  0
ENDBLK
  5
D9
330
D4
100
AcDbEntity
  8
0
100
AcDbBlockEnd
  0
BLOCK
  5
DE
330
DA
100
AcDbEntity
  8
0
100
AcDbBlockBegin
  2
_Open30
 70
     0
 10
0.0
 20
0.0
 30
0.0
  3
_Open30
  1

  0
LINE
  5
DB
330
DA
100
AcDbEntity
  8
0
 62
     0
370
    -2
100
AcDbLine
 10
-1.0
 20
0.26794919
 30
0.0
 11
0.0
 21
0.0
 31
0.0
  0
LINE
  5
DC
330
DA
100
AcDbEntity
  8
0
 62
     0
370
    -2
100
AcDbLine
 10
0.0
 20
0.0
 30
0.0
 11
-1.0
 21
-0.26794919
 31
0.0
  0
LINE
  5
DD
330
DA
100
AcDbEntity
  8
0
 62
     0
370
    -2
100
AcDbLine
 10
0.0
 20
0.0
 30
0.0
 11
-1.0
 21
0.0
 31
0.0
  0
ENDBLK
  5
DF
330
DA
100
AcDbEntity
  8
0
100
AcDbBlockEnd
  0
BLOCK
  5
27C
330
271
100
AcDbEntity
  8
0
100
AcDbBlockBegin
  2
*D4
 70
     1
 10
0.0
 20
0.0
 30
0.0
  3
*D4
  1

  0
LINE
  5
1418
330
271
100
AcDbEntity
  8
0
 62
     0
370
    15
100
AcDbLine
 10
702.4865340462574
 20
1149.54870917426
 30
0.0
 11
577.1069596569145
 21
1149.54870917426
 31
0.0
  0
LINE
  5
1419
330
271
100
AcDbEntity
  8
0
 62
     0
370
    15
100
AcDbLine
 10
702.4865340462574
 20
1164.548709174261
 30
0.0
 11
577.1069596569145
 21
1164.548709174261
 31
0.0
  0
LINE
  5
141A
330
271
100
AcDbEntity
  8
0
 62
     0
370
    15
100
AcDbLine
 10
577.1069596569145
 20
1149.54870917426
 30
0.0
 11
577.1069596569145
 21
1164.548709174261
 31
0.0
  0
LINE
  5
141B
330
271
100
AcDbEntity
  8
0
 62
     0
370
    15
100
AcDbLine
 10
577.1069596569145
 20
1164.548709174261
 30
0.0
 11
577.1069596569145
 21
1240.382042507594
 31
0.0
  0
INSERT
  5
141C
330
271
100
AcDbEntity
  8
0
 62
     0
370
    15
100
AcDbBlockReference
  2
_DotSmall
 10
577.1069596569145
 20
1149.54870917426
 30
0.0
 41
30.0
 42
30.0
 43
30.0
 50
270.0
  0
INSERT
  5
141D
330
271
100
AcDbEntity
  8
0
 62
     0
370
    15
100
AcDbBlockReference
  2
_DotSmall
 10
577.1069596569145
 20
1164.548709174261
 30
0.0
 41
30.0
 42
30.0
 43
30.0
 50
90.0
  0
MTEXT
  5
141E
330
271
100
AcDbEntity
  8
0
 62
     0
100
AcDbMText
 10
558.3569596569144
 20
1217.465375840928
 30
0.0
 40
25.0
 41
0.0
 71
     5
 72
     1
  1
15
 11
0.0000000000000001
 21
1.0
 31
0.0
 73
     1
 44
1.0
1001
ACAD
1000
MTEXTBEGIN
1070
    73
1070
     1
1070
    44
1040
1.0
1070
    74
1070
     0
1000
MTEXTEND
  0
POINT
  5
141F
330
271
100
AcDbEntity
  8
Defpoints
 62
     0
100
AcDbPoint
 10
767.4865340462575
 20
1149.54870917426
 30
0.0
  0
POINT
  5
1420
330
271
100
AcDbEntity
  8
Defpoints
 62
     0
100
AcDbPoint
 10
767.4865340462575
 20
1164.548709174261
 30
0.0
  0
POINT
  5
1421
330
271
100
AcDbEntity
  8
Defpoints
 62
     0
100
AcDbPoint
 10
577.1069596569145
 20
1164.548709174261
 30
0.0
  0
ENDBLK
  5
27D
330
271
100
AcDbEntity
  8
0
100
AcDbBlockEnd
  0
BLOCK
  5
289
330
27F
100
AcDbEntity
  8
0
100
AcDbBlockBegin
  2
*D5
 70
     1
 10
0.0
 20
0.0
 30
0.0
  3
*D5
  1

  0
LINE
  5
140F
330
27F
100
AcDbEntity
  8
0
 62
     0
370
    15
100
AcDbLine
 10
702.4865340462574
 20
1164.548709174261
 30
0.0
 11
577.1069596569144
 21
1164.548709174261
 31
0.0
  0
LINE
  5
1410
330
27F
100
AcDbEntity
  8
0
 62
     0
370
    15
100
AcDbLine
 10
702.4865340462575
 20
1594.548709174261
 30
0.0
 11
577.1069596569145
 21
1594.548709174261
 31
0.0
  0
LINE
  5
1411
330
27F
100
AcDbEntity
  8
0
 62
     0
370
    15
100
AcDbLine
 10
577.1069596569144
 20
1164.548709174261
 30
0.0
 11
577.1069596569145
 21
1594.548709174261
 31
0.0
  0
INSERT
  5
1412
330
27F
100
AcDbEntity
  8
0
 62
     0
370
    15
100
AcDbBlockReference
  2
_DotSmall
 10
577.1069596569144
 20
1164.548709174261
 30
0.0
 41
30.0
 42
30.0
 43
30.0
 50
270.0
  0
INSERT
  5
1413
330
27F
100
AcDbEntity
  8
0
 62
     0
370
    15
100
AcDbBlockReference
  2
_DotSmall
 10
577.1069596569145
 20
1594.548709174261
 30
0.0
 41
30.0
 42
30.0
 43
30.0
 50
90.0
  0
MTEXT
  5
1414
330
27F
100
AcDbEntity
  8
0
 62
     0
100
AcDbMText
 10
558.3569596569143
 20
1379.548709174261
 30
0.0
 40
25.0
 41
0.0
 71
     5
 72
     1
  1
430
 11
0.0000000000000001
 21
1.0
 31
0.0
 73
     1
 44
1.0
1001
ACAD
1000
MTEXTBEGIN
1070
    73
1070
     1
1070
    44
1040
1.0
1070
    74
1070
     0
1000
MTEXTEND
  0
POINT
  5
1415
330
27F
100
AcDbEntity
  8
Defpoints
 62
     0
100
AcDbPoint
 10
767.4865340462575
 20
1164.548709174261
 30
0.0
  0
POINT
  5
1416
330
27F
100
AcDbEntity
  8
Defpoints
 62
     0
100
AcDbPoint
 10
767.4865340462575
 20
1594.548709174261
 30
0.0
  0
POINT
  5
1417
330
27F
100
AcDbEntity
  8
Defpoints
 62
     0
100
AcDbPoint
 10
577.1069596569145
 20
1594.548709174261
 30
0.0
  0
ENDBLK
  5
28A
330
27F
100
AcDbEntity
  8
0
100
AcDbBlockEnd
  0
BLOCK
  5
296
330
28C
100
AcDbEntity
  8
0
100
AcDbBlockBegin
  2
*D6
 70
     1
 10
0.0
 20
0.0
 30
0.0
  3
*D6
  1

  0
LINE
  5
1406
330
28C
100
AcDbEntity
  8
0
 62
     0
370
    15
100
AcDbLine
 10
702.4865340462575
 20
1594.548709174261
 30
0.0
 11
577.1069596569145
 21
1594.548709174261
 31
0.0
  0
LINE
  5
1407
330
28C
100
AcDbEntity
  8
0
 62
     0
370
    15
100
AcDbLine
 10
702.4865340462575
 20
1669.54870917426
 30
0.0
 11
577.1069596569145
 21
1669.54870917426
 31
0.0
  0
LINE
  5
1408
330
28C
100
AcDbEntity
  8
0
 62
     0
370
    15
100
AcDbLine
 10
577.1069596569145
 20
1594.548709174261
 30
0.0
 11
577.1069596569145
 21
1669.54870917426
 31
0.0
  0
INSERT
  5
1409
330
28C
100
AcDbEntity
  8
0
 62
     0
370
    15
100
AcDbBlockReference
  2
_DotSmall
 10
577.1069596569145
 20
1594.548709174261
 30
0.0
 41
30.0
 42
30.0
 43
30.0
 50
270.0
  0
INSERT
  5
140A
330
28C
100
AcDbEntity
  8
0
 62
     0
370
    15
100
AcDbBlockReference
  2
_DotSmall
 10
577.1069596569145
 20
1669.54870917426
 30
0.0
 41
30.0
 42
30.0
 43
30.0
 50
90.0
  0
MTEXT
  5
140B
330
28C
100
AcDbEntity
  8
0
 62
     0
100
AcDbMText
 10
558.3569596569143
 20
1632.048709174261
 30
0.0
 40
25.0
 41
0.0
 71
     5
 72
     1
  1
75
 11
0.0000000000000001
 21
1.0
 31
0.0
 73
     1
 44
1.0
1001
ACAD
1000
MTEXTBEGIN
1070
    73
1070
     1
1070
    44
1040
1.0
1070
    74
1070
     0
1000
MTEXTEND
  0
POINT
  5
140C
330
28C
100
AcDbEntity
  8
Defpoints
 62
     0
100
AcDbPoint
 10
767.4865340462575
 20
1594.548709174261
 30
0.0
  0
POINT
  5
140D
330
28C
100
AcDbEntity
  8
Defpoints
 62
     0
100
AcDbPoint
 10
767.4865340462575
 20
1669.54870917426
 30
0.0
  0
POINT
  5
140E
330
28C
100
AcDbEntity
  8
Defpoints
 62
     0
100
AcDbPoint
 10
577.1069596569145
 20
1669.54870917426
 30
0.0
  0
ENDBLK
  5
297
330
28C
100
AcDbEntity
  8
0
100
AcDbBlockEnd
  0
BLOCK
  5
2A4
330
299
100
AcDbEntity
  8
0
100
AcDbBlockBegin
  2
*D7
 70
     1
 10
0.0
 20
0.0
 30
0.0
  3
*D7
  1

  0
LINE
  5
13FD
330
299
100
AcDbEntity
  8
0
 62
     0
370
    15
100
AcDbLine
 10
702.4865340462574
 20
1132.54870917426
 30
0.0
 11
507.6369596569146
 21
1132.548709174261
 31
0.0
  0
LINE
  5
13FE
330
299
100
AcDbEntity
  8
0
 62
     0
370
    15
100
AcDbLine
 10
702.4865340462574
 20
1149.54870917426
 30
0.0
 11
507.6369596569146
 21
1149.548709174261
 31
0.0
  0
LINE
  5
13FF
330
299
100
AcDbEntity
  8
0
 62
     0
370
    15
100
AcDbLine
 10
507.6369596569146
 20
1132.548709174261
 30
0.0
 11
507.6369596569146
 21
1149.548709174261
 31
0.0
  0
MTEXT
  5
1400
330
299
100
AcDbEntity
  8
0
 62
     0
100
AcDbMText
 10
480.9778783998062
 20
1158.111996254988
 30
0.0
 40
25.0
 41
0.0
 71
     5
 72
     1
  1
17
 11
0.0000000000000001
 21
1.0
 31
0.0
 73
     1
 44
1.0
1001
ACAD
1000
MTEXTBEGIN
1070
    73
1070
     1
1070
    44
1040
1.0
1070
    74
1070
     0
1000
MTEXTEND
  0
INSERT
  5
1401
330
299
100
AcDbEntity
  8
0
 62
     0
370
    15
100
AcDbBlockReference
  2
_DotSmall
 10
507.6369596569146
 20
1132.548709174261
 30
0.0
 41
30.0
 42
30.0
 43
30.0
 50
270.0
  0
INSERT
  5
1402
330
299
100
AcDbEntity
  8
0
 62
     0
370
    15
100
AcDbBlockReference
  2
_DotSmall
 10
507.6369596569146
 20
1149.548709174261
 30
0.0
 41
30.0
 42
30.0
 43
30.0
 50
90.0
  0
POINT
  5
1403
330
299
100
AcDbEntity
  8
Defpoints
 62
     0
100
AcDbPoint
 10
767.4865340462575
 20
1132.54870917426
 30
0.0
  0
POINT
  5
1404
330
299
100
AcDbEntity
  8
Defpoints
 62
     0
100
AcDbPoint
 10
767.4865340462575
 20
1149.54870917426
 30
0.0
  0
POINT
  5
1405
330
299
100
AcDbEntity
  8
Defpoints
 62
     0
100
AcDbPoint
 10
507.6369596569146
 20
1149.548709174261
 30
0.0
  0
ENDBLK
  5
2A5
330
299
100
AcDbEntity
  8
0
100
AcDbBlockEnd
  0
BLOCK
  5
2B1
330
2A7
100
AcDbEntity
  8
0
100
AcDbBlockBegin
  2
*D8
 70
     1
 10
0.0
 20
0.0
 30
0.0
  3
*D8
  1

  0
LINE
  5
13E1
330
2A7
100
AcDbEntity
  8
0
 62
     0
370
    15
100
AcDbLine
 10
702.4865340462574
 20
1149.54870917426
 30
0.0
 11
507.6369596569143
 21
1149.548709174261
 31
0.0
  0
LINE
  5
13E2
330
2A7
100
AcDbEntity
  8
0
 62
     0
370
    15
100
AcDbLine
 10
702.4865340462575
 20
1669.54870917426
 30
0.0
 11
507.6369596569145
 21
1669.548709174261
 31
0.0
  0
LINE
  5
13E3
330
2A7
100
AcDbEntity
  8
0
 62
     0
370
    15
100
AcDbLine
 10
507.6369596569143
 20
1149.548709174261
 30
0.0
 11
507.6369596569145
 21
1669.548709174261
 31
0.0
  0
INSERT
  5
13E4
330
2A7
100
AcDbEntity
  8
0
 62
     0
370
    15
100
AcDbBlockReference
  2
_DotSmall
 10
507.6369596569143
 20
1149.548709174261
 30
0.0
 41
30.0
 42
30.0
 43
30.0
 50
270.0
  0
INSERT
  5
13E5
330
2A7
100
AcDbEntity
  8
0
 62
     0
370
    15
100
AcDbBlockReference
  2
_DotSmall
 10
507.6369596569145
 20
1669.548709174261
 30
0.0
 41
30.0
 42
30.0
 43
30.0
 50
90.0
  0
MTEXT
  5
13E6
330
2A7
100
AcDbEntity
  8
0
 62
     0
100
AcDbMText
 10
488.8869596569143
 20
1409.548709174261
 30
0.0
 40
25.0
 41
0.0
 71
     5
 72
     1
  1
520
 11
0.0000000000000001
 21
1.0
 31
0.0
 73
     1
 44
1.0
1001
ACAD
1000
MTEXTBEGIN
1070
    73
1070
     1
1070
    44
1040
1.0
1070
    74
1070
     0
1000
MTEXTEND
  0
POINT
  5
13E7
330
2A7
100
AcDbEntity
  8
Defpoints
 62
     0
100
AcDbPoint
 10
767.4865340462575
 20
1149.54870917426
 30
0.0
  0
POINT
  5
13E8
330
2A7
100
AcDbEntity
  8
Defpoints
 62
     0
100
AcDbPoint
 10
767.4865340462575
 20
1669.54870917426
 30
0.0
  0
POINT
  5
13E9
330
2A7
100
AcDbEntity
  8
Defpoints
 62
     0
100
AcDbPoint
 10
507.6369596569145
 20
1669.548709174261
 30
0.0
  0
ENDBLK
  5
2B2
330
2A7
100
AcDbEntity
  8
0
100
AcDbBlockEnd
  0
BLOCK
  5
2BE
330
2B4
100
AcDbEntity
  8
0
100
AcDbBlockBegin
  2
*D9
 70
     1
 10
0.0
 20
0.0
 30
0.0
  3
*D9
  1

  0
LINE
  5
13D8
330
2B4
100
AcDbEntity
  8
0
 62
     0
370
    15
100
AcDbLine
 10
702.4865340462575
 20
1669.54870917426
 30
0.0
 11
507.6369596569145
 21
1669.548709174261
 31
0.0
  0
LINE
  5
13D9
330
2B4
100
AcDbEntity
  8
0
 62
     0
370
    15
100
AcDbLine
 10
702.4865340462574
 20
1686.54870917426
 30
0.0
 11
507.6369596569145
 21
1686.54870917426
 31
0.0
  0
LINE
  5
13DA
330
2B4
100
AcDbEntity
  8
0
 62
     0
370
    15
100
AcDbLine
 10
507.6369596569145
 20
1669.548709174261
 30
0.0
 11
507.6369596569145
 21
1686.54870917426
 31
0.0
  0
MTEXT
  5
13DB
330
2B4
100
AcDbEntity
  8
0
 62
     0
100
AcDbMText
 10
477.4068994551917
 20
1660.205731221666
 30
0.0
 40
25.0
 41
0.0
 71
     5
 72
     1
  1
17
 11
0.0000000000000001
 21
1.0
 31
0.0
 73
     1
 44
1.0
1001
ACAD
1000
MTEXTBEGIN
1070
    73
1070
     1
1070
    44
1040
1.0
1070
    74
1070
     0
1000
MTEXTEND
  0
INSERT
  5
13DC
330
2B4
100
AcDbEntity
  8
0
 62
     0
370
    15
100
AcDbBlockReference
  2
_DotSmall
 10
507.6369596569145
 20
1669.548709174261
 30
0.0
 41
30.0
 42
30.0
 43
30.0
 50
270.0
  0
INSERT
  5
13DD
330
2B4
100
AcDbEntity
  8
0
 62
     0
370
    15
100
AcDbBlockReference
  2
_DotSmall
 10
507.6369596569145
 20
1686.54870917426
 30
0.0
 41
30.0
 42
30.0
 43
30.0
 50
90.0
  0
POINT
  5
13DE
330
2B4
100
AcDbEntity
  8
Defpoints
 62
     0
100
AcDbPoint
 10
767.4865340462575
 20
1669.54870917426
 30
0.0
  0
POINT
  5
13DF
330
2B4
100
AcDbEntity
  8
Defpoints
 62
     0
100
AcDbPoint
 10
767.4865340462575
 20
1686.54870917426
 30
0.0
  0
POINT
  5
13E0
330
2B4
100
AcDbEntity
  8
Defpoints
 62
     0
100
AcDbPoint
 10
507.6369596569145
 20
1686.54870917426
 30
0.0
  0
ENDBLK
  5
2BF
330
2B4
100
AcDbEntity
  8
0
100
AcDbBlockEnd
  0
BLOCK
  5
2E7
330
2DD
100
AcDbEntity
  8
0
100
AcDbBlockBegin
  2
*D10
 70
     1
 10
0.0
 20
0.0
 30
0.0
  3
*D10
  1

  0
LINE
  5
13C4
330
2DD
100
AcDbEntity
  8
0
 62
     0
370
    15
100
AcDbLine
 10
702.4865340462574
 20
1132.54870917426
 30
0.0
 11
438.1669596569144
 21
1132.548709174261
 31
0.0
  0
LINE
  5
13C5
330
2DD
100
AcDbEntity
  8
0
 62
     0
370
    15
100
AcDbLine
 10
702.4865340462574
 20
1686.54870917426
 30
0.0
 11
438.1669596569146
 21
1686.54870917426
 31
0.0
  0
LINE
  5
13C6
330
2DD
100
AcDbEntity
  8
0
 62
     0
370
    15
100
AcDbLine
 10
438.1669596569144
 20
1132.548709174261
 30
0.0
 11
438.1669596569146
 21
1686.54870917426
 31
0.0
  0
INSERT
  5
13C7
330
2DD
100
AcDbEntity
  8
0
 62
     0
370
    15
100
AcDbBlockReference
  2
_DotSmall
 10
438.1669596569144
 20
1132.548709174261
 30
0.0
 41
30.0
 42
30.0
 43
30.0
 50
270.0
  0
INSERT
  5
13C8
330
2DD
100
AcDbEntity
  8
0
 62
     0
370
    15
100
AcDbBlockReference
  2
_DotSmall
 10
438.1669596569146
 20
1686.54870917426
 30
0.0
 41
30.0
 42
30.0
 43
30.0
 50
90.0
  0
MTEXT
  5
13C9
330
2DD
100
AcDbEntity
  8
0
 62
     0
100
AcDbMText
 10
419.4169596569143
 20
1409.548709174261
 30
0.0
 40
25.0
 41
0.0
 71
     5
 72
     1
  1
554
 11
0.0000000000000001
 21
1.0
 31
0.0
 73
     1
 44
1.0
1001
ACAD
1000
MTEXTBEGIN
1070
    73
1070
     1
1070
    44
1040
1.0
1070
    74
1070
     0
1000
MTEXTEND
  0
POINT
  5
13CA
330
2DD
100
AcDbEntity
  8
Defpoints
 62
     0
100
AcDbPoint
 10
767.4865340462575
 20
1132.54870917426
 30
0.0
  0
POINT
  5
13CB
330
2DD
100
AcDbEntity
  8
Defpoints
 62
     0
100
AcDbPoint
 10
767.4865340462575
 20
1686.54870917426
 30
0.0
  0
POINT
  5
13CC
330
2DD
100
AcDbEntity
  8
Defpoints
 62
     0
100
AcDbPoint
 10
438.1669596569146
 20
1686.54870917426
 30
0.0
  0
ENDBLK
  5
2E8
330
2DD
100
AcDbEntity
  8
0
100
AcDbBlockEnd
  0
BLOCK
  5
2F5
330
2EA
100
AcDbEntity
  8
0
100
AcDbBlockBegin
  2
*D11
 70
     1
 10
0.0
 20
0.0
 30
0.0
  3
*D11
  1

  0
LINE
  5
123E
330
2EA
100
AcDbEntity
  8
0
 62
     0
370
    15
100
AcDbLine
 10
767.4865340462575
 20
1067.548709174261
 30
0.0
 11
767.4865340462575
 21
1015.640937379544
 31
0.0
  0
LINE
  5
123F
330
2EA
100
AcDbEntity
  8
0
 62
     0
370
    15
100
AcDbLine
 10
784.4865340462574
 20
1067.548709174261
 30
0.0
 11
784.4865340462574
 21
1015.640937379544
 31
0.0
  0
LINE
  5
1240
330
2EA
100
AcDbEntity
  8
0
 62
     0
370
    15
100
AcDbLine
 10
767.4865340462575
 20
1015.640937379544
 30
0.0
 11
784.4865340462574
 21
1015.640937379544
 31
0.0
  0
LINE
  5
1241
330
2EA
100
AcDbEntity
  8
0
 62
     0
370
    15
100
AcDbLine
 10
784.4865340462574
 20
1015.640937379544
 30
0.0
 11
860.3198673795908
 21
1015.640937379544
 31
0.0
  0
INSERT
  5
1242
330
2EA
100
AcDbEntity
  8
0
 62
     0
370
    15
100
AcDbBlockReference
  2
_DotSmall
 10
767.4865340462575
 20
1015.640937379544
 30
0.0
 41
30.0
 42
30.0
 43
30.0
 50
180.0
  0
INSERT
  5
1243
330
2EA
100
AcDbEntity
  8
0
 62
     0
370
    15
100
AcDbBlockReference
  2
_DotSmall
 10
784.4865340462574
 20
1015.640937379544
 30
0.0
 41
30.0
 42
30.0
 43
30.0
  0
MTEXT
  5
1244
330
2EA
100
AcDbEntity
  8
0
 62
     0
100
AcDbMText
 10
837.403200712924
 20
1034.390937379544
 30
0.0
 40
25.0
 41
0.0
 71
     5
 72
     1
  1
17
 73
     1
 44
1.0
1001
ACAD
1000
MTEXTBEGIN
1070
    73
1070
     1
1070
    44
1040
1.0
1070
    74
1070
     0
1000
MTEXTEND
  0
POINT
  5
1245
330
2EA
100
AcDbEntity
  8
Defpoints
 62
     0
100
AcDbPoint
 10
767.4865340462575
 20
1132.54870917426
 30
0.0
  0
POINT
  5
1246
330
2EA
100
AcDbEntity
  8
Defpoints
 62
     0
100
AcDbPoint
 10
784.4865340462574
 20
1132.54870917426
 30
0.0
  0
POINT
  5
1247
330
2EA
100
AcDbEntity
  8
Defpoints
 62
     0
100
AcDbPoint
 10
784.4865340462574
 20
1015.640937379544
 30
0.0
  0
ENDBLK
  5
2F6
330
2EA
100
AcDbEntity
  8
0
100
AcDbBlockEnd
  0
BLOCK
  5
302
330
2F8
100
AcDbEntity
  8
0
100
AcDbBlockBegin
  2
*D12
 70
     1
 10
0.0
 20
0.0
 30
0.0
  3
*D12
  1

  0
LINE
  5
11FF
330
2F8
100
AcDbEntity
  8
0
 62
     0
370
    15
100
AcDbLine
 10
784.4865340462574
 20
1067.548709174261
 30
0.0
 11
784.4865340462574
 21
1015.640937379544
 31
0.0
  0
LINE
  5
1200
330
2F8
100
AcDbEntity
  8
0
 62
     0
370
    15
100
AcDbLine
 10
1434.486534046257
 20
1067.548709174261
 30
0.0
 11
1434.486534046257
 21
1015.640937379544
 31
0.0
  0
LINE
  5
1201
330
2F8
100
AcDbEntity
  8
0
 62
     0
370
    15
100
AcDbLine
 10
784.4865340462574
 20
1015.640937379544
 30
0.0
 11
1434.486534046257
 21
1015.640937379544
 31
0.0
  0
INSERT
  5
1202
330
2F8
100
AcDbEntity
  8
0
 62
     0
370
    15
100
AcDbBlockReference
  2
_DotSmall
 10
784.4865340462574
 20
1015.640937379544
 30
0.0
 41
30.0
 42
30.0
 43
30.0
 50
180.0
  0
INSERT
  5
1203
330
2F8
100
AcDbEntity
  8
0
 62
     0
370
    15
100
AcDbBlockReference
  2
_DotSmall
 10
1434.486534046257
 20
1015.640937379544
 30
0.0
 41
30.0
 42
30.0
 43
30.0
  0
MTEXT
  5
1204
330
2F8
100
AcDbEntity
  8
0
 62
     0
100
AcDbMText
 10
1109.486534046257
 20
1034.390937379544
 30
0.0
 40
25.0
 41
0.0
 71
     5
 72
     1
  1
650
 73
     1
 44
1.0
1001
ACAD
1000
MTEXTBEGIN
1070
    73
1070
     1
1070
    44
1040
1.0
1070
    74
1070
     0
1000
MTEXTEND
  0
POINT
  5
1205
330
2F8
100
AcDbEntity
  8
Defpoints
 62
     0
100
AcDbPoint
 10
784.4865340462574
 20
1132.54870917426
 30
0.0
  0
POINT
  5
1206
330
2F8
100
AcDbEntity
  8
Defpoints
 62
     0
100
AcDbPoint
 10
1434.486534046257
 20
1132.54870917426
 30
0.0
  0
POINT
  5
1207
330
2F8
100
AcDbEntity
  8
Defpoints
 62
     0
100
AcDbPoint
 10
1434.486534046257
 20
1015.640937379544
 30
0.0
  0
ENDBLK
  5
303
330
2F8
100
AcDbEntity
  8
0
100
AcDbBlockEnd
  0
BLOCK
  5
311
330
305
100
AcDbEntity
  8
0
100
AcDbBlockBegin
  2
*D13
 70
     1
 10
0.0
 20
0.0
 30
0.0
  3
*D13
  1

  0
LINE
  5
1292
330
305
100
AcDbEntity
  8
0
 62
     0
370
    15
100
AcDbLine
 10
1434.486534046257
 20
1067.548709174261
 30
0.0
 11
1434.486534046257
 21
1015.640937379544
 31
0.0
  0
LINE
  5
1293
330
305
100
AcDbEntity
  8
0
 62
     0
370
    15
100
AcDbLine
 10
1451.486534046257
 20
1067.548709174261
 30
0.0
 11
1451.486534046257
 21
1015.640937379544
 31
0.0
  0
LINE
  5
1294
330
305
100
AcDbEntity
  8
0
 62
     0
370
    15
100
AcDbLine
 10
1434.486534046257
 20
1015.640937379544
 30
0.0
 11
1451.486534046257
 21
1015.640937379544
 31
0.0
  0
MTEXT
  5
1295
330
305
100
AcDbEntity
  8
0
 62
     0
100
AcDbMText
 10
1391.028318461801
 20
1034.390937379544
 30
0.0
 40
25.0
 41
0.0
 71
     5
 72
     1
  1
17
 73
     1
 44
1.0
1001
ACAD
1000
MTEXTBEGIN
1070
    73
1070
     1
1070
    44
1040
1.0
1070
    74
1070
     0
1000
MTEXTEND
  0
INSERT
  5
1296
330
305
100
AcDbEntity
  8
0
 62
     0
370
    15
100
AcDbBlockReference
  2
_DotSmall
 10
1434.486534046257
 20
1015.640937379544
 30
0.0
 41
30.0
 42
30.0
 43
30.0
 50
180.0
  0
INSERT
  5
1297
330
305
100
AcDbEntity
  8
0
 62
     0
370
    15
100
AcDbBlockReference
  2
_DotSmall
 10
1451.486534046257
 20
1015.640937379544
 30
0.0
 41
30.0
 42
30.0
 43
30.0
  0
POINT
  5
1298
330
305
100
AcDbEntity
  8
Defpoints
 62
     0
100
AcDbPoint
 10
1434.486534046257
 20
1132.54870917426
 30
0.0
  0
POINT
  5
1299
330
305
100
AcDbEntity
  8
Defpoints
 62
     0
100
AcDbPoint
 10
1451.486534046257
 20
1132.54870917426
 30
0.0
  0
POINT
  5
129A
330
305
100
AcDbEntity
  8
Defpoints
 62
     0
100
AcDbPoint
 10
1451.486534046257
 20
1015.640937379544
 30
0.0
  0
ENDBLK
  5
312
330
305
100
AcDbEntity
  8
0
100
AcDbBlockEnd
  0
BLOCK
  5
327
330
31D
100
AcDbEntity
  8
0
100
AcDbBlockBegin
  2
*D14
 70
     1
 10
0.0
 20
0.0
 30
0.0
  3
*D14
  1

  0
LINE
  5
11F6
330
31D
100
AcDbEntity
  8
0
 62
     0
370
    15
100
AcDbLine
 10
767.4865340462575
 20
1067.548709174261
 30
0.0
 11
767.4865340462575
 21
945.282165424337
 31
0.0
  0
LINE
  5
11F7
330
31D
100
AcDbEntity
  8
0
 62
     0
370
    15
100
AcDbLine
 10
1451.486534046257
 20
1067.548709174261
 30
0.0
 11
1451.486534046257
 21
945.282165424337
 31
0.0
  0
LINE
  5
11F8
330
31D
100
AcDbEntity
  8
0
 62
     0
370
    15
100
AcDbLine
 10
767.4865340462575
 20
945.282165424337
 30
0.0
 11
1451.486534046257
 21
945.282165424337
 31
0.0
  0
INSERT
  5
11F9
330
31D
100
AcDbEntity
  8
0
 62
     0
370
    15
100
AcDbBlockReference
  2
_DotSmall
 10
767.4865340462575
 20
945.282165424337
 30
0.0
 41
30.0
 42
30.0
 43
30.0
 50
180.0
  0
INSERT
  5
11FA
330
31D
100
AcDbEntity
  8
0
 62
     0
370
    15
100
AcDbBlockReference
  2
_DotSmall
 10
1451.486534046257
 20
945.282165424337
 30
0.0
 41
30.0
 42
30.0
 43
30.0
  0
MTEXT
  5
11FB
330
31D
100
AcDbEntity
  8
0
 62
     0
100
AcDbMText
 10
1109.486534046257
 20
964.032165424337
 30
0.0
 40
25.0
 41
0.0
 71
     5
 72
     1
  1
684
 73
     1
 44
1.0
1001
ACAD
1000
MTEXTBEGIN
1070
    73
1070
     1
1070
    44
1040
1.0
1070
    74
1070
     0
1000
MTEXTEND
  0
POINT
  5
11FC
330
31D
100
AcDbEntity
  8
Defpoints
 62
     0
100
AcDbPoint
 10
767.4865340462575
 20
1132.54870917426
 30
0.0
  0
POINT
  5
11FD
330
31D
100
AcDbEntity
  8
Defpoints
 62
     0
100
AcDbPoint
 10
1451.486534046257
 20
1132.54870917426
 30
0.0
  0
POINT
  5
11FE
330
31D
100
AcDbEntity
  8
Defpoints
 62
     0
100
AcDbPoint
 10
1451.486534046257
 20
945.282165424337
 30
0.0
  0
ENDBLK
  5
328
330
31D
100
AcDbEntity
  8
0
100
AcDbBlockEnd
  0
BLOCK
  5
381
330
377
100
AcDbEntity
  8
0
100
AcDbBlockBegin
  2
*D15
 70
     1
 10
0.0
 20
0.0
 30
0.0
  3
*D15
  1

  0
LINE
  5
1208
330
377
100
AcDbEntity
  8
0
 62
     0
370
    15
100
AcDbLine
 10
1034.486534046257
 20
1396.291620983482
 30
0.0
 11
1034.486534046257
 21
1302.011631232046
 31
0.0
  0
LINE
  5
1209
330
377
100
AcDbEntity
  8
0
 62
     0
370
    15
100
AcDbLine
 10
784.4865340462574
 20
1414.548709174261
 30
0.0
 11
784.4865340462574
 21
1302.011631232046
 31
0.0
  0
LINE
  5
120A
330
377
100
AcDbEntity
  8
0
 62
     0
370
    15
100
AcDbLine
 10
1034.486534046257
 20
1302.011631232046
 30
0.0
 11
784.4865340462574
 21
1302.011631232046
 31
0.0
  0
INSERT
  5
120B
330
377
100
AcDbEntity
  8
0
 62
     0
370
    15
100
AcDbBlockReference
  2
_DotSmall
 10
1034.486534046257
 20
1302.011631232046
 30
0.0
 41
30.0
 42
30.0
 43
30.0
  0
INSERT
  5
120C
330
377
100
AcDbEntity
  8
0
 62
     0
370
    15
100
AcDbBlockReference
  2
_DotSmall
 10
784.4865340462574
 20
1302.011631232046
 30
0.0
 41
30.0
 42
30.0
 43
30.0
 50
180.0
  0
MTEXT
  5
120D
330
377
100
AcDbEntity
  8
0
 62
     0
100
AcDbMText
 10
909.4865340462574
 20
1320.761631232046
 30
0.0
 40
25.0
 41
0.0
 71
     5
 72
     1
  1
250
 73
     1
 44
1.0
1001
ACAD
1000
MTEXTBEGIN
1070
    73
1070
     1
1070
    44
1040
1.0
1070
    74
1070
     0
1000
MTEXTEND
  0
POINT
  5
120E
330
377
100
AcDbEntity
  8
Defpoints
 62
     0
100
AcDbPoint
 10
1034.486534046257
 20
1461.291620983482
 30
0.0
  0
POINT
  5
120F
330
377
100
AcDbEntity
  8
Defpoints
 62
     0
100
AcDbPoint
 10
784.4865340462574
 20
1479.548709174261
 30
0.0
  0
POINT
  5
1210
330
377
100
AcDbEntity
  8
Defpoints
 62
     0
100
AcDbPoint
 10
784.4865340462574
 20
1302.011631232046
 30
0.0
  0
ENDBLK
  5
382
330
377
100
AcDbEntity
  8
0
100
AcDbBlockEnd
  0
BLOCK
  5
38F
330
385
100
AcDbEntity
  8
0
100
AcDbBlockBegin
  2
*D16
 70
     1
 10
0.0
 20
0.0
 30
0.0
  3
*D16
  1

  0
LINE
  5
11DB
330
385
100
AcDbEntity
  8
0
 62
     0
370
    15
100
AcDbLine
 10
1161.046817801943
 20
1499.54870917426
 30
0.0
 11
1194.894036320696
 21
1499.54870917426
 31
0.0
  0
LINE
  5
11DC
330
385
100
AcDbEntity
  8
0
 62
     0
370
    15
100
AcDbLine
 10
909.4865340462574
 20
1669.548709174261
 30
0.0
 11
1194.894036320697
 21
1669.548709174261
 31
0.0
  0
LINE
  5
11DD
330
385
100
AcDbEntity
  8
0
 62
     0
370
    15
100
AcDbLine
 10
1194.894036320696
 20
1499.54870917426
 30
0.0
 11
1194.894036320697
 21
1669.548709174261
 31
0.0
  0
INSERT
  5
11DE
330
385
100
AcDbEntity
  8
0
 62
     0
370
    15
100
AcDbBlockReference
  2
_DotSmall
 10
1194.894036320696
 20
1499.54870917426
 30
0.0
 41
30.0
 42
30.0
 43
30.0
 50
270.0
  0
INSERT
  5
11DF
330
385
100
AcDbEntity
  8
0
 62
     0
370
    15
100
AcDbBlockReference
  2
_DotSmall
 10
1194.894036320697
 20
1669.548709174261
 30
0.0
 41
30.0
 42
30.0
 43
30.0
 50
90.0
  0
MTEXT
  5
11E0
330
385
100
AcDbEntity
  8
0
 62
     0
100
AcDbMText
 10
1176.144036320696
 20
1553.099103425388
 30
0.0
 40
25.0
 41
0.0
 71
     5
 72
     1
  1
170
 11
0.0000000000000001
 21
1.0
 31
0.0
 73
     1
 44
1.0
1001
ACAD
1000
MTEXTBEGIN
1070
    73
1070
     1
1070
    44
1040
1.0
1070
    74
1070
     0
1000
MTEXTEND
  0
POINT
  5
11E1
330
385
100
AcDbEntity
  8
Defpoints
 62
     0
100
AcDbPoint
 10
1096.046817801942
 20
1499.54870917426
 30
0.0
  0
POINT
  5
11E2
330
385
100
AcDbEntity
  8
Defpoints
 62
     0
100
AcDbPoint
 10
844.4865340462575
 20
1669.548709174261
 30
0.0
  0
POINT
  5
11E3
330
385
100
AcDbEntity
  8
Defpoints
 62
     0
100
AcDbPoint
 10
1194.894036320697
 20
1669.548709174261
 30
0.0
  0
ENDBLK
  5
390
330
385
100
AcDbEntity
  8
0
100
AcDbBlockEnd
  0
BLOCK
  5
3BD
330
3B3
100
AcDbEntity
  8
0
100
AcDbBlockBegin
  2
*D17
 70
     1
 10
0.0
 20
0.0
 30
0.0
  3
*D17
  1

  0
LINE
  5
11C9
330
3B3
100
AcDbEntity
  8
0
 62
     0
370
    15
100
AcDbLine
 10
969.4865340462575
 20
1751.548709174261
 30
0.0
 11
969.4865340462575
 21
1781.666665621423
 31
0.0
  0
LINE
  5
11CA
330
3B3
100
AcDbEntity
  8
0
 62
     0
370
    15
100
AcDbLine
 10
1099.486534046257
 20
1751.548709174261
 30
0.0
 11
1099.486534046257
 21
1781.666665621423
 31
0.0
  0
LINE
  5
11CB
330
3B3
100
AcDbEntity
  8
0
 62
     0
370
    15
100
AcDbLine
 10
969.4865340462575
 20
1781.666665621423
 30
0.0
 11
1099.486534046257
 21
1781.666665621423
 31
0.0
  0
INSERT
  5
11CC
330
3B3
100
AcDbEntity
  8
0
 62
     0
370
    15
100
AcDbBlockReference
  2
_DotSmall
 10
969.4865340462575
 20
1781.666665621423
 30
0.0
 41
30.0
 42
30.0
 43
30.0
 50
180.0
  0
INSERT
  5
11CD
330
3B3
100
AcDbEntity
  8
0
 62
     0
370
    15
100
AcDbBlockReference
  2
_DotSmall
 10
1099.486534046257
 20
1781.666665621423
 30
0.0
 41
30.0
 42
30.0
 43
30.0
  0
MTEXT
  5
11CE
330
3B3
100
AcDbEntity
  8
0
 62
     0
100
AcDbMText
 10
1034.486534046257
 20
1800.416665621423
 30
0.0
 40
25.0
 41
0.0
 71
     5
 72
     1
  1
130
 73
     1
 44
1.0
1001
ACAD
1000
MTEXTBEGIN
1070
    73
1070
     1
1070
    44
1040
1.0
1070
    74
1070
     0
1000
MTEXTEND
  0
POINT
  5
11CF
330
3B3
100
AcDbEntity
  8
Defpoints
 62
     0
100
AcDbPoint
 10
969.4865340462575
 20
1686.54870917426
 30
0.0
  0
POINT
  5
11D0
330
3B3
100
AcDbEntity
  8
Defpoints
 62
     0
100
AcDbPoint
 10
1099.486534046257
 20
1686.54870917426
 30
0.0
  0
POINT
  5
11D1
330
3B3
100
AcDbEntity
  8
Defpoints
 62
     0
100
AcDbPoint
 10
1099.486534046257
 20
1781.666665621423
 30
0.0
  0
ENDBLK
  5
3BE
330
3B3
100
AcDbEntity
  8
0
100
AcDbBlockEnd
  0
BLOCK
  5
3CA
330
3C0
100
AcDbEntity
  8
0
100
AcDbBlockBegin
  2
*D18
 70
     1
 10
0.0
 20
0.0
 30
0.0
  3
*D18
  1

  0
LINE
  5
142F
330
3C0
100
AcDbEntity
  8
0
 62
     0
370
    15
100
AcDbLine
 10
904.4865340462575
 20
1816.548709174261
 30
0.0
 11
904.4865340462575
 21
1833.059675088208
 31
0.0
  0
LINE
  5
1430
330
3C0
100
AcDbEntity
  8
0
 62
     0
370
    15
100
AcDbLine
 10
1164.486534046257
 20
1816.548709174261
 30
0.0
 11
1164.486534046257
 21
1833.059675088208
 31
0.0
  0
LINE
  5
1431
330
3C0
100
AcDbEntity
  8
0
 62
     0
370
    15
100
AcDbLine
 10
904.4865340462575
 20
1833.059675088208
 30
0.0
 11
1164.486534046257
 21
1833.059675088208
 31
0.0
  0
INSERT
  5
1432
330
3C0
100
AcDbEntity
  8
0
 62
     0
370
    15
100
AcDbBlockReference
  2
_DotSmall
 10
904.4865340462575
 20
1833.059675088208
 30
0.0
 41
30.0
 42
30.0
 43
30.0
 50
180.0
  0
INSERT
  5
1433
330
3C0
100
AcDbEntity
  8
0
 62
     0
370
    15
100
AcDbBlockReference
  2
_DotSmall
 10
1164.486534046257
 20
1833.059675088208
 30
0.0
 41
30.0
 42
30.0
 43
30.0
  0
MTEXT
  5
1434
330
3C0
100
AcDbEntity
  8
0
 62
     0
100
AcDbMText
 10
1034.486534046257
 20
1851.809675088208
 30
0.0
 40
25.0
 41
0.0
 71
     5
 72
     1
  1
260
 73
     1
 44
1.0
1001
ACAD
1000
MTEXTBEGIN
1070
    73
1070
     1
1070
    44
1040
1.0
1070
    74
1070
     0
1000
MTEXTEND
  0
POINT
  5
1435
330
3C0
100
AcDbEntity
  8
Defpoints
 62
     0
100
AcDbPoint
 10
904.4865340462575
 20
1751.548709174261
 30
0.0
  0
POINT
  5
1436
330
3C0
100
AcDbEntity
  8
Defpoints
 62
     0
100
AcDbPoint
 10
1164.486534046257
 20
1751.548709174261
 30
0.0
  0
POINT
  5
1437
330
3C0
100
AcDbEntity
  8
Defpoints
 62
     0
100
AcDbPoint
 10
1164.486534046257
 20
1833.059675088208
 30
0.0
  0
ENDBLK
  5
3CB
330
3C0
100
AcDbEntity
  8
0
100
AcDbBlockEnd
  0
BLOCK
  5
47E
330
474
100
AcDbEntity
  8
0
100
AcDbBlockBegin
  2
*D19
 70
     1
 10
0.0
 20
0.0
 30
0.0
  3
*D19
  1

  0
LINE
  5
156B
330
474
100
AcDbEntity
  8
0
 62
     0
370
    15
100
AcDbLine
 10
1113.986534046257
 20
479.9815140432119
 30
0.0
 11
1113.986534046257
 21
423.5870393451969
 31
0.0
  0
LINE
  5
156C
330
474
100
AcDbEntity
  8
0
 62
     0
370
    15
100
AcDbLine
 10
954.9865340462572
 20
479.9815140432122
 30
0.0
 11
954.9865340462572
 21
423.5870393451969
 31
0.0
  0
LINE
  5
156D
330
474
100
AcDbEntity
  8
0
 62
     0
370
    15
100
AcDbLine
 10
1113.986534046257
 20
423.5870393451969
 30
0.0
 11
954.9865340462572
 21
423.5870393451969
 31
0.0
  0
INSERT
  5
156E
330
474
100
AcDbEntity
  8
0
 62
     0
370
    15
100
AcDbBlockReference
  2
_DotSmall
 10
1113.986534046257
 20
423.5870393451969
 30
0.0
 41
30.0
 42
30.0
 43
30.0
  0
INSERT
  5
156F
330
474
100
AcDbEntity
  8
0
 62
     0
370
    15
100
AcDbBlockReference
  2
_DotSmall
 10
954.9865340462572
 20
423.5870393451969
 30
0.0
 41
30.0
 42
30.0
 43
30.0
 50
180.0
  0
MTEXT
  5
1570
330
474
100
AcDbEntity
  8
0
 62
     0
100
AcDbMText
 10
1034.486534046257
 20
442.3370393451969
 30
0.0
 40
25.0
 41
0.0
 71
     5
 72
     1
  1
158
 73
     1
 44
1.0
1001
ACAD
1000
MTEXTBEGIN
1070
    73
1070
     1
1070
    44
1040
1.0
1070
    74
1070
     0
1000
MTEXTEND
  0
POINT
  5
1571
330
474
100
AcDbEntity
  8
Defpoints
 62
     0
100
AcDbPoint
 10
1113.986534046257
 20
544.981514043212
 30
0.0
  0
POINT
  5
1572
330
474
100
AcDbEntity
  8
Defpoints
 62
     0
100
AcDbPoint
 10
954.9865340462572
 20
544.9815140432122
 30
0.0
  0
POINT
  5
1573
330
474
100
AcDbEntity
  8
Defpoints
 62
     0
100
AcDbPoint
 10
954.9865340462572
 20
423.5870393451969
 30
0.0
  0
ENDBLK
  5
47F
330
474
100
AcDbEntity
  8
0
100
AcDbBlockEnd
  0
BLOCK
  5
48B
330
481
100
AcDbEntity
  8
0
100
AcDbBlockBegin
  2
*D20
 70
     1
 10
0.0
 20
0.0
 30
0.0
  3
*D20
  1

  0
LINE
  5
11E4
330
481
100
AcDbEntity
  8
0
 62
     0
370
    15
100
AcDbLine
 10
1124.986534046257
 20
616.9815140432119
 30
0.0
 11
1124.986534046257
 21
654.1345385811837
 31
0.0
  0
LINE
  5
11E5
330
481
100
AcDbEntity
  8
0
 62
     0
370
    15
100
AcDbLine
 10
943.9865340462574
 20
616.981514043212
 30
0.0
 11
943.9865340462574
 21
654.1345385811837
 31
0.0
  0
LINE
  5
11E6
330
481
100
AcDbEntity
  8
0
 62
     0
370
    15
100
AcDbLine
 10
1124.986534046257
 20
654.1345385811837
 30
0.0
 11
943.9865340462574
 21
654.1345385811837
 31
0.0
  0
INSERT
  5
11E7
330
481
100
AcDbEntity
  8
0
 62
     0
370
    15
100
AcDbBlockReference
  2
_DotSmall
 10
1124.986534046257
 20
654.1345385811837
 30
0.0
 41
30.0
 42
30.0
 43
30.0
  0
INSERT
  5
11E8
330
481
100
AcDbEntity
  8
0
 62
     0
370
    15
100
AcDbBlockReference
  2
_DotSmall
 10
943.9865340462574
 20
654.1345385811837
 30
0.0
 41
30.0
 42
30.0
 43
30.0
 50
180.0
  0
MTEXT
  5
11E9
330
481
100
AcDbEntity
  8
0
 62
     0
100
AcDbMText
 10
1034.486534046257
 20
672.8845385811837
 30
0.0
 40
25.0
 41
0.0
 71
     5
 72
     1
  1
181
 73
     1
 44
1.0
1001
ACAD
1000
MTEXTBEGIN
1070
    73
1070
     1
1070
    44
1040
1.0
1070
    74
1070
     0
1000
MTEXTEND
  0
POINT
  5
11EA
330
481
100
AcDbEntity
  8
Defpoints
 62
     0
100
AcDbPoint
 10
1124.986534046257
 20
551.9815140432119
 30
0.0
  0
POINT
  5
11EB
330
481
100
AcDbEntity
  8
Defpoints
 62
     0
100
AcDbPoint
 10
943.9865340462574
 20
551.9815140432121
 30
0.0
  0
POINT
  5
11EC
330
481
100
AcDbEntity
  8
Defpoints
 62
     0
100
AcDbPoint
 10
943.9865340462574
 20
654.1345385811837
 30
0.0
  0
ENDBLK
  5
48C
330
481
100
AcDbEntity
  8
0
100
AcDbBlockEnd
  0
BLOCK
  5
4CC
330
4C2
100
AcDbEntity
  8
0
100
AcDbBlockBegin
  2
*D21
 70
     1
 10
0.0
 20
0.0
 30
0.0
  3
*D21
  1

  0
LINE
  5
129B
330
4C2
100
AcDbEntity
  8
0
 62
     0
370
    15
100
AcDbLine
 10
2048.779490296078
 20
877.7512137773037
 30
0.0
 11
2048.779490296078
 21
918.9281552994817
 31
0.0
  0
LINE
  5
129C
330
4C2
100
AcDbEntity
  8
0
 62
     0
370
    15
100
AcDbLine
 10
1878.779490296077
 20
877.7512137773037
 30
0.0
 11
1878.779490296077
 21
918.9281552994817
 31
0.0
  0
LINE
  5
129D
330
4C2
100
AcDbEntity
  8
0
 62
     0
370
    15
100
AcDbLine
 10
2048.779490296078
 20
918.9281552994817
 30
0.0
 11
1878.779490296077
 21
918.9281552994817
 31
0.0
  0
INSERT
  5
129E
330
4C2
100
AcDbEntity
  8
0
 62
     0
370
    15
100
AcDbBlockReference
  2
_DotSmall
 10
2048.779490296078
 20
918.9281552994817
 30
0.0
 41
30.0
 42
30.0
 43
30.0
  0
INSERT
  5
129F
330
4C2
100
AcDbEntity
  8
0
 62
     0
370
    15
100
AcDbBlockReference
  2
_DotSmall
 10
1878.779490296077
 20
918.9281552994817
 30
0.0
 41
30.0
 42
30.0
 43
30.0
 50
180.0
  0
MTEXT
  5
12A0
330
4C2
100
AcDbEntity
  8
0
 62
     0
100
AcDbMText
 10
1963.779490296078
 20
937.6781552994817
 30
0.0
 40
25.0
 41
0.0
 71
     5
 72
     1
  1
17
 73
     1
 44
1.0
1001
ACAD
1000
MTEXTBEGIN
1070
    73
1070
     1
1070
    44
1040
1.0
1070
    74
1070
     0
1000
MTEXTEND
  0
POINT
  5
12A1
330
4C2
100
AcDbEntity
  8
Defpoints
 62
     0
100
AcDbPoint
 10
2048.779490296078
 20
812.7512137773036
 30
0.0
  0
POINT
  5
12A2
330
4C2
100
AcDbEntity
  8
Defpoints
 62
     0
100
AcDbPoint
 10
1878.779490296077
 20
812.7512137773036
 30
0.0
  0
POINT
  5
12A3
330
4C2
100
AcDbEntity
  8
Defpoints
 62
     0
100
AcDbPoint
 10
1878.779490296077
 20
918.9281552994817
 30
0.0
  0
ENDBLK
  5
4CD
330
4C2
100
AcDbEntity
  8
0
100
AcDbBlockEnd
  0
BLOCK
  5
593
330
587
100
AcDbEntity
  8
0
100
AcDbBlockBegin
  2
*D22
 70
     1
 10
0.0
 20
0.0
 30
0.0
  3
*D22
  1

  0
LINE
  5
1277
330
587
100
AcDbEntity
  8
0
 62
     0
370
    15
100
AcDbLine
 10
887.7414700701592
 20
1654.54870917426
 30
0.0
 11
876.7139734746169
 21
1654.54870917426
 31
0.0
  0
LINE
  5
1278
330
587
100
AcDbEntity
  8
0
 62
     0
370
    15
100
AcDbLine
 10
904.4865340462575
 20
1669.548709174261
 30
0.0
 11
876.7139734746169
 21
1669.548709174261
 31
0.0
  0
LINE
  5
1279
330
587
100
AcDbEntity
  8
0
 62
     0
370
    15
100
AcDbLine
 10
876.7139734746169
 20
1654.54870917426
 30
0.0
 11
876.7139734746169
 21
1669.548709174261
 31
0.0
  0
MTEXT
  5
127A
330
587
100
AcDbEntity
  8
0
 62
     0
100
AcDbMText
 10
874.470887049908
 20
1710.006567658332
 30
0.0
 40
25.0
 41
0.0
 71
     5
 72
     1
  1
15
 11
0.0000000000000001
 21
1.0
 31
0.0
 73
     1
 44
1.0
1001
ACAD
1000
MTEXTBEGIN
1070
    73
1070
     1
1070
    44
1040
1.0
1070
    74
1070
     0
1000
MTEXTEND
  0
INSERT
  5
127B
330
587
100
AcDbEntity
  8
0
 62
     0
370
    15
100
AcDbBlockReference
  2
_DotSmall
 10
876.7139734746169
 20
1654.54870917426
 30
0.0
 41
30.0
 42
30.0
 43
30.0
 50
270.0
  0
INSERT
  5
127C
330
587
100
AcDbEntity
  8
0
 62
     0
370
    15
100
AcDbBlockReference
  2
_DotSmall
 10
876.7139734746169
 20
1669.548709174261
 30
0.0
 41
30.0
 42
30.0
 43
30.0
 50
90.0
  0
POINT
  5
127D
330
587
100
AcDbEntity
  8
Defpoints
 62
     0
100
AcDbPoint
 10
952.7414700701593
 20
1654.54870917426
 30
0.0
  0
POINT
  5
127E
330
587
100
AcDbEntity
  8
Defpoints
 62
     0
100
AcDbPoint
 10
969.4865340462575
 20
1669.548709174261
 30
0.0
  0
POINT
  5
127F
330
587
100
AcDbEntity
  8
Defpoints
 62
     0
100
AcDbPoint
 10
876.7139734746169
 20
1669.548709174261
 30
0.0
  0
ENDBLK
  5
594
330
587
100
AcDbEntity
  8
0
100
AcDbBlockEnd
  0
BLOCK
  5
E8C
330
E82
100
AcDbEntity
  8
0
100
AcDbBlockBegin
  2
*D23
 70
     1
 10
0.0
 20
0.0
 30
0.0
  3
*D23
  1

  0
LINE
  5
1280
330
E82
100
AcDbEntity
  8
実形
 62
     0
370
    15
100
AcDbLine
 10
1124.986534046257
 20
616.9815140432119
 30
0.0
 11
1124.986534046257
 21
654.1345385811837
 31
0.0
  0
LINE
  5
1281
330
E82
100
AcDbEntity
  8
実形
 62
     0
370
    15
100
AcDbLine
 10
1144.986534046257
 20
616.9815140432121
 30
0.0
 11
1144.986534046257
 21
654.1345385811837
 31
0.0
  0
LINE
  5
1282
330
E82
100
AcDbEntity
  8
実形
 62
     0
370
    15
100
AcDbLine
 10
1124.986534046257
 20
654.1345385811837
 30
0.0
 11
1144.986534046257
 21
654.1345385811837
 31
0.0
  0
MTEXT
  5
1283
330
E82
100
AcDbEntity
  8
実形
 62
     0
100
AcDbMText
 10
1134.536908425748
 20
677.3942275513641
 30
0.0
 40
25.0
 41
0.0
 71
     5
 72
     1
  1
20
 73
     1
 44
1.0
1001
ACAD
1000
MTEXTBEGIN
1070
    73
1070
     1
1070
    44
1040
1.0
1070
    74
1070
     0
1000
MTEXTEND
  0
INSERT
  5
1284
330
E82
100
AcDbEntity
  8
実形
 62
     0
370
    15
100
AcDbBlockReference
  2
_DotSmall
 10
1124.986534046257
 20
654.1345385811837
 30
0.0
 41
30.0
 42
30.0
 43
30.0
 50
180.0
  0
INSERT
  5
1285
330
E82
100
AcDbEntity
  8
実形
 62
     0
370
    15
100
AcDbBlockReference
  2
_DotSmall
 10
1144.986534046257
 20
654.1345385811837
 30
0.0
 41
30.0
 42
30.0
 43
30.0
  0
POINT
  5
1286
330
E82
100
AcDbEntity
  8
Defpoints
 62
     0
100
AcDbPoint
 10
1124.986534046257
 20
551.9815140432119
 30
0.0
  0
POINT
  5
1287
330
E82
100
AcDbEntity
  8
Defpoints
 62
     0
100
AcDbPoint
 10
1144.986534046257
 20
551.9815140432122
 30
0.0
  0
POINT
  5
1288
330
E82
100
AcDbEntity
  8
Defpoints
 62
     0
100
AcDbPoint
 10
1144.986534046257
 20
654.1345385811837
 30
0.0
  0
ENDBLK
  5
E8D
330
E82
100
AcDbEntity
  8
0
100
AcDbBlockEnd
  0
BLOCK
  5
E99
330
E8F
100
AcDbEntity
  8
0
100
AcDbBlockBegin
  2
*D24
 70
     1
 10
0.0
 20
0.0
 30
0.0
  3
*D24
  1

  0
LINE
  5
1211
330
E8F
100
AcDbEntity
  8
実形
 62
     0
370
    15
100
AcDbLine
 10
943.9865340462574
 20
616.981514043212
 30
0.0
 11
943.9865340462574
 21
654.1345385811837
 31
0.0
  0
LINE
  5
1212
330
E8F
100
AcDbEntity
  8
実形
 62
     0
370
    15
100
AcDbLine
 10
923.9865340462575
 20
616.9815140432121
 30
0.0
 11
923.9865340462575
 21
654.1345385811837
 31
0.0
  0
LINE
  5
1213
330
E8F
100
AcDbEntity
  8
実形
 62
     0
370
    15
100
AcDbLine
 10
943.9865340462574
 20
654.1345385811837
 30
0.0
 11
923.9865340462575
 21
654.1345385811837
 31
0.0
  0
MTEXT
  5
1214
330
E8F
100
AcDbEntity
  8
実形
 62
     0
100
AcDbMText
 10
933.1468143910896
 20
678.0455472960361
 30
0.0
 40
25.0
 41
0.0
 71
     5
 72
     1
  1
20
 73
     1
 44
1.0
1001
ACAD
1000
MTEXTBEGIN
1070
    73
1070
     1
1070
    44
1040
1.0
1070
    74
1070
     0
1000
MTEXTEND
  0
INSERT
  5
1215
330
E8F
100
AcDbEntity
  8
実形
 62
     0
370
    15
100
AcDbBlockReference
  2
_DotSmall
 10
943.9865340462574
 20
654.1345385811837
 30
0.0
 41
30.0
 42
30.0
 43
30.0
  0
INSERT
  5
1216
330
E8F
100
AcDbEntity
  8
実形
 62
     0
370
    15
100
AcDbBlockReference
  2
_DotSmall
 10
923.9865340462575
 20
654.1345385811837
 30
0.0
 41
30.0
 42
30.0
 43
30.0
 50
180.0
  0
POINT
  5
1217
330
E8F
100
AcDbEntity
  8
Defpoints
 62
     0
100
AcDbPoint
 10
943.9865340462574
 20
551.9815140432121
 30
0.0
  0
POINT
  5
1218
330
E8F
100
AcDbEntity
  8
Defpoints
 62
     0
100
AcDbPoint
 10
923.9865340462575
 20
551.9815140432122
 30
0.0
  0
POINT
  5
1219
330
E8F
100
AcDbEntity
  8
Defpoints
 62
     0
100
AcDbPoint
 10
923.9865340462575
 20
654.1345385811837
 30
0.0
  0
ENDBLK
  5
E9A
330
E8F
100
AcDbEntity
  8
0
100
AcDbBlockEnd
  0
BLOCK
  5
142D
330
1423
100
AcDbEntity
  8
0
100
AcDbBlockBegin
  2
*D25
 70
     1
 10
0.0
 20
0.0
 30
0.0
  3
*D25
  1

  0
LINE
  5
1424
330
1423
100
AcDbEntity
  8
実形
 62
     0
370
    15
100
AcDbLine
 10
702.4865340462573
 20
1594.548709174261
 30
0.0
 11
646.5769596569145
 21
1594.548709174261
 31
0.0
  0
LINE
  5
1425
330
1423
100
AcDbEntity
  8
実形
 62
     0
370
    15
100
AcDbLine
 10
702.4865340462574
 20
1379.548709174261
 30
0.0
 11
646.5769596569145
 21
1379.548709174261
 31
0.0
  0
LINE
  5
1426
330
1423
100
AcDbEntity
  8
実形
 62
     0
370
    15
100
AcDbLine
 10
646.5769596569145
 20
1594.548709174261
 30
0.0
 11
646.5769596569145
 21
1379.548709174261
 31
0.0
  0
INSERT
  5
1427
330
1423
100
AcDbEntity
  8
実形
 62
     0
370
    15
100
AcDbBlockReference
  2
_DotSmall
 10
646.5769596569145
 20
1594.548709174261
 30
0.0
 41
30.0
 42
30.0
 43
30.0
 50
90.0
  0
INSERT
  5
1428
330
1423
100
AcDbEntity
  8
実形
 62
     0
370
    15
100
AcDbBlockReference
  2
_DotSmall
 10
646.5769596569145
 20
1379.548709174261
 30
0.0
 41
30.0
 42
30.0
 43
30.0
 50
270.0
  0
MTEXT
  5
1429
330
1423
100
AcDbEntity
  8
実形
 62
     0
100
AcDbMText
 10
627.8269596569144
 20
1487.048709174261
 30
0.0
 40
25.0
 41
0.0
 71
     5
 72
     1
  1
215
 11
0.0000000000000001
 21
1.0
 31
0.0
 73
     1
 44
1.0
1001
ACAD
1000
MTEXTBEGIN
1070
    73
1070
     1
1070
    44
1040
1.0
1070
    74
1070
     0
1000
MTEXTEND
  0
POINT
  5
142A
330
1423
100
AcDbEntity
  8
Defpoints
 62
     0
100
AcDbPoint
 10
767.4865340462574
 20
1594.548709174261
 30
0.0
  0
POINT
  5
142B
330
1423
100
AcDbEntity
  8
Defpoints
 62
     0
100
AcDbPoint
 10
767.4865340462575
 20
1379.548709174261
 30
0.0
  0
POINT
  5
142C
330
1423
100
AcDbEntity
  8
Defpoints
 62
     0
100
AcDbPoint
 10
646.5769596569145
 20
1379.548709174261
 30
0.0
  0
ENDBLK
  5
142E
330
1423
100
AcDbEntity
  8
0
100
AcDbBlockEnd
  0
BLOCK
  5
14FE
330
14F4
100
AcDbEntity
  8
0
100
AcDbBlockBegin
  2
*D26
 70
     1
 10
0.0
 20
0.0
 30
0.0
  3
*D26
  1

  0
LINE
  5
1524
330
14F4
100
AcDbEntity
  8
実形
 62
     0
370
    15
100
AcDbLine
 10
719.4865340462577
 20
741.9815140432121
 30
0.0
 11
666.3658665898346
 21
741.9815140432121
 31
0.0
  0
LINE
  5
1525
330
14F4
100
AcDbEntity
  8
実形
 62
     0
370
    15
100
AcDbLine
 10
719.4865340462579
 20
726.9815140432122
 30
0.0
 11
666.3658665898346
 21
726.9815140432122
 31
0.0
  0
LINE
  5
1526
330
14F4
100
AcDbEntity
  8
実形
 62
     0
370
    15
100
AcDbLine
 10
666.3658665898346
 20
741.9815140432121
 30
0.0
 11
666.3658665898346
 21
726.9815140432122
 31
0.0
  0
MTEXT
  5
1527
330
14F4
100
AcDbEntity
  8
実形
 62
     0
100
AcDbMText
 10
632.4683901787211
 20
775.3480111140134
 30
0.0
 40
25.0
 41
0.0
 71
     5
 72
     1
  1
15
 11
0.0000000000000001
 21
1.0
 31
0.0
 73
     1
 44
1.0
1001
ACAD
1000
MTEXTBEGIN
1070
    73
1070
     1
1070
    44
1040
1.0
1070
    74
1070
     0
1000
MTEXTEND
  0
INSERT
  5
1528
330
14F4
100
AcDbEntity
  8
実形
 62
     0
370
    15
100
AcDbBlockReference
  2
_DotSmall
 10
666.3658665898346
 20
741.9815140432121
 30
0.0
 41
30.0
 42
30.0
 43
30.0
 50
90.0
  0
INSERT
  5
1529
330
14F4
100
AcDbEntity
  8
実形
 62
     0
370
    15
100
AcDbBlockReference
  2
_DotSmall
 10
666.3658665898346
 20
726.9815140432122
 30
0.0
 41
30.0
 42
30.0
 43
30.0
 50
270.0
  0
POINT
  5
152A
330
14F4
100
AcDbEntity
  8
Defpoints
 62
     0
100
AcDbPoint
 10
784.4865340462576
 20
741.981514043212
 30
0.0
  0
POINT
  5
152B
330
14F4
100
AcDbEntity
  8
Defpoints
 62
     0
100
AcDbPoint
 10
784.4865340462579
 20
726.9815140432121
 30
0.0
  0
POINT
  5
152C
330
14F4
100
AcDbEntity
  8
Defpoints
 62
     0
100
AcDbPoint
 10
666.3658665898346
 20
726.9815140432122
 30
0.0
  0
ENDBLK
  5
14FF
330
14F4
100
AcDbEntity
  8
0
100
AcDbBlockEnd
  0
BLOCK
  5
150A
330
1500
100
AcDbEntity
  8
0
100
AcDbBlockBegin
  2
*D27
 70
     1
 10
0.0
 20
0.0
 30
0.0
  3
*D27
  1

  0
LINE
  5
152D
330
1500
100
AcDbEntity
  8
実形
 62
     0
370
    15
100
AcDbLine
 10
718.6686251290557
 20
571.9815140432122
 30
0.0
 11
666.3658665898346
 21
571.9815140432122
 31
0.0
  0
LINE
  5
152E
330
1500
100
AcDbEntity
  8
実形
 62
     0
370
    15
100
AcDbLine
 10
718.6686251290557
 20
551.9815140432123
 30
0.0
 11
666.3658665898346
 21
551.9815140432123
 31
0.0
  0
LINE
  5
152F
330
1500
100
AcDbEntity
  8
実形
 62
     0
370
    15
100
AcDbLine
 10
666.3658665898346
 20
571.9815140432122
 30
0.0
 11
666.3658665898346
 21
551.9815140432123
 31
0.0
  0
MTEXT
  5
1530
330
1500
100
AcDbEntity
  8
実形
 62
     0
100
AcDbMText
 10
632.8840834064394
 20
581.1048573320822
 30
0.0
 40
25.0
 41
0.0
 71
     5
 72
     1
  1
20
 11
0.0000000000000001
 21
1.0
 31
0.0
 73
     1
 44
1.0
1001
ACAD
1000
MTEXTBEGIN
1070
    73
1070
     1
1070
    44
1040
1.0
1070
    74
1070
     0
1000
MTEXTEND
  0
INSERT
  5
1531
330
1500
100
AcDbEntity
  8
実形
 62
     0
370
    15
100
AcDbBlockReference
  2
_DotSmall
 10
666.3658665898346
 20
571.9815140432122
 30
0.0
 41
30.0
 42
30.0
 43
30.0
 50
90.0
  0
INSERT
  5
1532
330
1500
100
AcDbEntity
  8
実形
 62
     0
370
    15
100
AcDbBlockReference
  2
_DotSmall
 10
666.3658665898346
 20
551.9815140432123
 30
0.0
 41
30.0
 42
30.0
 43
30.0
 50
270.0
  0
POINT
  5
1533
330
1500
100
AcDbEntity
  8
Defpoints
 62
     0
100
AcDbPoint
 10
783.6686251290557
 20
571.981514043212
 30
0.0
  0
POINT
  5
1534
330
1500
100
AcDbEntity
  8
Defpoints
 62
     0
100
AcDbPoint
 10
783.6686251290557
 20
551.9815140432122
 30
0.0
  0
POINT
  5
1535
330
1500
100
AcDbEntity
  8
Defpoints
 62
     0
100
AcDbPoint
 10
666.3658665898346
 20
551.9815140432123
 30
0.0
  0
ENDBLK
  5
150B
330
1500
100
AcDbEntity
  8
0
100
AcDbBlockEnd
  0
BLOCK
  5
1516
330
150C
100
AcDbEntity
  8
0
100
AcDbBlockBegin
  2
*D28
 70
     1
 10
0.0
 20
0.0
 30
0.0
  3
*D28
  1

  0
LINE
  5
1536
330
150C
100
AcDbEntity
  8
実形
 62
     0
370
    15
100
AcDbLine
 10
719.0680508799305
 20
541.9815140432121
 30
0.0
 11
666.3658665898346
 21
541.9815140432121
 31
0.0
  0
LINE
  5
1537
330
150C
100
AcDbEntity
  8
実形
 62
     0
370
    15
100
AcDbLine
 10
690.2851227599676
 20
571.981514043212
 30
0.0
 11
666.3658665898346
 21
571.981514043212
 31
0.0
  0
LINE
  5
1538
330
150C
100
AcDbEntity
  8
実形
 62
     0
370
    15
100
AcDbLine
 10
666.3658665898346
 20
541.9815140432121
 30
0.0
 11
666.3658665898346
 21
571.981514043212
 31
0.0
  0
MTEXT
  5
1539
330
150C
100
AcDbEntity
  8
実形
 62
     0
100
AcDbMText
 10
636.5624273917892
 20
527.7766024585544
 30
0.0
 40
25.0
 41
0.0
 71
     5
 72
     1
  1
7
 11
0.0000000000000001
 21
1.0
 31
0.0
 73
     1
 44
1.0
1001
ACAD
1000
MTEXTBEGIN
1070
    73
1070
     1
1070
    44
1040
1.0
1070
    74
1070
     0
1000
MTEXTEND
  0
INSERT
  5
153A
330
150C
100
AcDbEntity
  8
実形
 62
     0
370
    15
100
AcDbBlockReference
  2
_DotSmall
 10
666.3658665898346
 20
541.9815140432121
 30
0.0
 41
30.0
 42
30.0
 43
30.0
 50
270.0
  0
INSERT
  5
153B
330
150C
100
AcDbEntity
  8
実形
 62
     0
370
    15
100
AcDbBlockReference
  2
_DotSmall
 10
666.3658665898346
 20
571.981514043212
 30
0.0
 41
30.0
 42
30.0
 43
30.0
 50
90.0
  0
POINT
  5
153C
330
150C
100
AcDbEntity
  8
Defpoints
 62
     0
100
AcDbPoint
 10
784.0680508799305
 20
541.981514043212
 30
0.0
  0
POINT
  5
153D
330
150C
100
AcDbEntity
  8
Defpoints
 62
     0
100
AcDbPoint
 10
755.2851227599676
 20
571.981514043212
 30
0.0
  0
POINT
  5
153E
330
150C
100
AcDbEntity
  8
Defpoints
 62
     0
100
AcDbPoint
 10
666.3658665898346
 20
571.981514043212
 30
0.0
  0
ENDBLK
  5
1517
330
150C
100
AcDbEntity
  8
0
100
AcDbBlockEnd
  0
BLOCK
  5
1522
330
1518
100
AcDbEntity
  8
0
100
AcDbBlockBegin
  2
*D29
 70
     1
 10
0.0
 20
0.0
 30
0.0
  3
*D29
  1

  0
LINE
  5
153F
330
1518
100
AcDbEntity
  8
実形
 62
     0
370
    15
100
AcDbLine
 10
684.1104007173962
 20
741.981514043212
 30
0.0
 11
579.8249681516481
 21
741.981514043212
 31
0.0
  0
LINE
  5
1540
330
1518
100
AcDbEntity
  8
実形
 62
     0
370
    15
100
AcDbLine
 10
684.1104007173962
 20
551.9815140432122
 30
0.0
 11
579.8249681516481
 21
551.9815140432122
 31
0.0
  0
LINE
  5
1541
330
1518
100
AcDbEntity
  8
実形
 62
     0
370
    15
100
AcDbLine
 10
579.8249681516481
 20
741.981514043212
 30
0.0
 11
579.8249681516481
 21
551.9815140432122
 31
0.0
  0
INSERT
  5
1542
330
1518
100
AcDbEntity
  8
実形
 62
     0
370
    15
100
AcDbBlockReference
  2
_DotSmall
 10
579.8249681516481
 20
741.981514043212
 30
0.0
 41
30.0
 42
30.0
 43
30.0
 50
90.0
  0
INSERT
  5
1543
330
1518
100
AcDbEntity
  8
実形
 62
     0
370
    15
100
AcDbBlockReference
  2
_DotSmall
 10
579.8249681516481
 20
551.9815140432122
 30
0.0
 41
30.0
 42
30.0
 43
30.0
 50
270.0
  0
MTEXT
  5
1544
330
1518
100
AcDbEntity
  8
実形
 62
     0
100
AcDbMText
 10
561.0749681516479
 20
646.9815140432122
 30
0.0
 40
25.0
 41
0.0
 71
     5
 72
     1
  1
190
 11
0.0000000000000001
 21
1.0
 31
0.0
 73
     1
 44
1.0
1001
ACAD
1000
MTEXTBEGIN
1070
    73
1070
     1
1070
    44
1040
1.0
1070
    74
1070
     0
1000
MTEXTEND
  0
POINT
  5
1545
330
1518
100
AcDbEntity
  8
Defpoints
 62
     0
100
AcDbPoint
 10
749.1104007173962
 20
741.981514043212
 30
0.0
  0
POINT
  5
1546
330
1518
100
AcDbEntity
  8
Defpoints
 62
     0
100
AcDbPoint
 10
749.1104007173962
 20
551.9815140432122
 30
0.0
  0
POINT
  5
1547
330
1518
100
AcDbEntity
  8
Defpoints
 62
     0
100
AcDbPoint
 10
579.8249681516481
 20
551.9815140432122
 30
0.0
  0
ENDBLK
  5
1523
330
1518
100
AcDbEntity
  8
0
100
AcDbBlockEnd
  0
ENDSEC
  0
SECTION
  2
ENTITIES
  0
LINE
  5
9C
330
1F
100
AcDbEntity
  8
補助
100
AcDbLine
 10
111.0
 20
4.0
 30
0.0
 11
2784.0
 21
4.0
 31
0.0
  0
LINE
  5
A0
330
1F
100
AcDbEntity
  8
補助
100
AcDbLine
 10
2784.0
 20
2024.0
 30
0.0
 11
111.0
 21
2024.0
 31
0.0
  0
LINE
  5
A5
330
1F
100
AcDbEntity
  8
補助
100
AcDbLine
 10
2784.0
 20
4.0
 30
0.0
 11
2784.0
 21
2024.0
 31
0.0
  0
LINE
  5
A8
330
1F
100
AcDbEntity
  8
補助
100
AcDbLine
 10
2184.0
 20
69.0
 30
0.0
 11
2184.0
 21
199.0
 31
0.0
  0
LINE
  5
A9
330
1F
100
AcDbEntity
  8
補助
100
AcDbLine
 10
2184.0
 20
69.0
 30
0.0
 11
2784.0
 21
69.0
 31
0.0
  0
LINE
  5
AA
330
1F
100
AcDbEntity
  8
補助
100
AcDbLine
 10
2064.0
 20
134.0
 30
0.0
 11
2784.0
 21
134.0
 31
0.0
  0
LINE
  5
AB
330
1F
100
AcDbEntity
  8
補助
100
AcDbLine
 10
2064.0
 20
199.0
 30
0.0
 11
2784.0
 21
199.0
 31
0.0
  0
LINE
  5
AD
330
1F
100
AcDbEntity
  8
補助
100
AcDbLine
 10
2784.0
 20
4.0
 30
0.0
 11
2784.0
 21
69.0
 31
0.0
  0
LINE
  5
25F
330
1F
100
AcDbEntity
  8
0
100
AcDbLine
 10
899.4865340462574
 20
1149.54870917426
 30
0.0
 11
1319.486534046257
 21
1149.54870917426
 31
0.0
  0
LINE
  5
260
330
1F
100
AcDbEntity
  8
0
100
AcDbLine
 10
1434.486534046257
 20
1279.548709174261
 30
0.0
 11
1434.486534046258
 21
1609.548709174261
 31
0.0
  0
LINE
  5
261
330
1F
100
AcDbEntity
  8
0
100
AcDbLine
 10
1374.486534046258
 20
1669.548709174261
 30
0.0
 11
844.4865340462575
 21
1669.548709174261
 31
0.0
  0
LINE
  5
262
330
1F
100
AcDbEntity
  8
0
100
AcDbLine
 10
784.4865340462574
 20
1609.548709174261
 30
0.0
 11
784.4865340462574
 21
1279.548709174261
 31
0.0
  0
LINE
  5
263
330
1F
100
AcDbEntity
  8
0
100
AcDbLine
 10
899.4865340462574
 20
1132.54870917426
 30
0.0
 11
1319.486534046257
 21
1132.54870917426
 31
0.0
  0
LINE
  5
264
330
1F
100
AcDbEntity
  8
0
100
AcDbLine
 10
1451.486534046257
 20
1264.548709174261
 30
0.0
 11
1451.486534046258
 21
1609.548709174261
 31
0.0
  0
LINE
  5
265
330
1F
100
AcDbEntity
  8
0
100
AcDbLine
 10
1374.486534046258
 20
1686.54870917426
 30
0.0
 11
844.4865340462575
 21
1686.54870917426
 31
0.0
  0
LINE
  5
266
330
1F
100
AcDbEntity
  8
0
100
AcDbLine
 10
767.4865340462575
 20
1609.548709174261
 30
0.0
 11
767.4865340462575
 21
1264.548709174261
 31
0.0
  0
LINE
  5
267
330
1F
100
AcDbEntity
  8
0
100
AcDbLine
 10
1319.486534046258
 20
1594.548709174261
 30
0.0
 11
1224.486534046257
 21
1594.548709174261
 31
0.0
  0
LINE
  5
26B
330
1F
100
AcDbEntity
  8
0
100
AcDbLine
 10
899.4865340462574
 20
1164.548709174261
 30
0.0
 11
1319.486534046257
 21
1164.548709174261
 31
0.0
  0
DIMENSION
  5
270
330
1F
100
AcDbEntity
  8
0
100
AcDbDimension
  2
*D4
 10
577.1069596569145
 20
1164.548709174261
 30
0.0
 11
558.3569596569144
 21
1217.465375840928
 31
0.0
 70
    32
 71
     5
 42
15.0
  3
ISO-25
100
AcDbAlignedDimension
 13
767.4865340462575
 23
1149.54870917426
 33
0.0
 14
767.4865340462575
 24
1164.548709174261
 34
0.0
 50
90.0
100
AcDbRotatedDimension
  0
DIMENSION
  5
27E
330
1F
100
AcDbEntity
  8
0
100
AcDbDimension
  2
*D5
 10
577.1069596569145
 20
1594.548709174261
 30
0.0
 11
558.3569596569143
 21
1379.548709174261
 31
0.0
 70
    32
 71
     5
 42
430.0
  3
ISO-25
100
AcDbAlignedDimension
 13
767.4865340462575
 23
1164.548709174261
 33
0.0
 14
767.4865340462575
 24
1594.548709174261
 34
0.0
 50
90.0
100
AcDbRotatedDimension
1001
ACAD
1000
DSTYLE
1002
{
1070
   279
1070
     1
1002
}
  0
DIMENSION
  5
28B
330
1F
100
AcDbEntity
  8
0
100
AcDbDimension
  2
*D6
 10
577.1069596569145
 20
1669.54870917426
 30
0.0
 11
558.3569596569143
 21
1632.048709174261
 31
0.0
 70
    32
 71
     5
 42
75.0
  3
ISO-25
100
AcDbAlignedDimension
 13
767.4865340462575
 23
1594.548709174261
 33
0.0
 14
767.4865340462575
 24
1669.54870917426
 34
0.0
 50
90.0
100
AcDbRotatedDimension
1001
ACAD
1000
DSTYLE
1002
{
1070
   279
1070
     1
1002
}
  0
DIMENSION
  5
298
330
1F
100
AcDbEntity
  8
0
100
AcDbDimension
  2
*D7
 10
507.6369596569146
 20
1149.548709174261
 30
0.0
 11
480.9778783998062
 21
1158.111996254988
 31
0.0
 70
   160
 71
     5
 42
17.0
  3
ISO-25
100
AcDbAlignedDimension
 13
767.4865340462575
 23
1132.54870917426
 33
0.0
 14
767.4865340462575
 24
1149.54870917426
 34
0.0
 50
90.0
100
AcDbRotatedDimension
1001
ACAD
1000
DSTYLE
1002
{
1070
   279
1070
     2
1002
}
  0
DIMENSION
  5
2A6
330
1F
100
AcDbEntity
  8
0
100
AcDbDimension
  2
*D8
 10
507.6369596569145
 20
1669.548709174261
 30
0.0
 11
488.8869596569143
 21
1409.548709174261
 31
0.0
 70
    32
 71
     5
 42
520.0
  3
ISO-25
100
AcDbAlignedDimension
 13
767.4865340462575
 23
1149.54870917426
 33
0.0
 14
767.4865340462575
 24
1669.54870917426
 34
0.0
 50
90.0
100
AcDbRotatedDimension
1001
ACAD
1000
DSTYLE
1002
{
1070
   279
1070
     1
1002
}
  0
DIMENSION
  5
2B3
330
1F
100
AcDbEntity
  8
0
100
AcDbDimension
  2
*D9
 10
507.6369596569145
 20
1686.54870917426
 30
0.0
 11
496.1568994551917
 21
1660.205731221666
 31
0.0
 70
   160
 71
     5
 42
17.0
  3
ISO-25
100
AcDbAlignedDimension
 13
767.4865340462575
 23
1669.54870917426
 33
0.0
 14
767.4865340462575
 24
1686.54870917426
 34
0.0
 50
90.0
100
AcDbRotatedDimension
1001
ACAD
1000
DSTYLE
1002
{
1070
   279
1070
     1
1002
}
  0
DIMENSION
  5
2DC
330
1F
100
AcDbEntity
  8
0
100
AcDbDimension
  2
*D10
 10
438.1669596569146
 20
1686.54870917426
 30
0.0
 11
419.4169596569143
 21
1409.548709174261
 31
0.0
 70
    32
 71
     5
 42
554.0
  3
ISO-25
100
AcDbAlignedDimension
 13
767.4865340462575
 23
1132.54870917426
 33
0.0
 14
767.4865340462575
 24
1686.54870917426
 34
0.0
 50
90.0
100
AcDbRotatedDimension
  0
DIMENSION
  5
2E9
330
1F
100
AcDbEntity
  8
0
100
AcDbDimension
  2
*D11
 10
784.4865340462574
 20
1015.640937379544
 30
0.0
 11
837.403200712924
 21
1034.390937379544
 31
0.0
 70
    32
 71
     5
 42
17.0
  3
ISO-25
100
AcDbAlignedDimension
 13
767.4865340462575
 23
1132.54870917426
 33
0.0
 14
784.4865340462574
 24
1132.54870917426
 34
0.0
100
AcDbRotatedDimension
  0
DIMENSION
  5
2F7
330
1F
100
AcDbEntity
  8
0
100
AcDbDimension
  2
*D12
 10
1434.486534046257
 20
1015.640937379544
 30
0.0
 11
1109.486534046257
 21
1034.390937379544
 31
0.0
 70
    32
 71
     5
 42
650.0
  3
ISO-25
100
AcDbAlignedDimension
 13
784.4865340462574
 23
1132.54870917426
 33
0.0
 14
1434.486534046257
 24
1132.54870917426
 34
0.0
100
AcDbRotatedDimension
1001
ACAD
1000
DSTYLE
1002
{
1070
   279
1070
     1
1002
}
  0
DIMENSION
  5
304
330
1F
100
AcDbEntity
  8
0
100
AcDbDimension
  2
*D13
 10
1451.486534046257
 20
1015.640937379544
 30
0.0
 11
1391.028318461801
 21
1015.640937379544
 31
0.0
 70
   160
 71
     5
 42
17.0
  3
ISO-25
100
AcDbAlignedDimension
 13
1434.486534046257
 23
1132.54870917426
 33
0.0
 14
1451.486534046257
 24
1132.54870917426
 34
0.0
100
AcDbRotatedDimension
1001
ACAD
1000
DSTYLE
1002
{
1070
   279
1070
     1
1002
}
  0
DIMENSION
  5
31C
330
1F
100
AcDbEntity
  8
0
100
AcDbDimension
  2
*D14
 10
1451.486534046257
 20
945.282165424337
 30
0.0
 11
1109.486534046257
 21
964.032165424337
 31
0.0
 70
    32
 71
     5
 42
684.0
  3
ISO-25
100
AcDbAlignedDimension
 13
767.4865340462575
 23
1132.54870917426
 33
0.0
 14
1451.486534046257
 24
1132.54870917426
 34
0.0
100
AcDbRotatedDimension
  0
ARC
  5
32A
330
1F
100
AcDbEntity
  8
0
100
AcDbCircle
 10
899.4865340462574
 20
1279.548709174261
 30
0.0
 40
115.0
100
AcDbArc
 50
180.0
 51
270.0
  0
ARC
  5
32B
330
1F
100
AcDbEntity
  8
0
100
AcDbCircle
 10
1319.486534046257
 20
1279.548709174261
 30
0.0
 40
115.0
100
AcDbArc
 50
270.0
 51
0.0
  0
LINE
  5
32C
330
1F
100
AcDbEntity
  8
0
100
AcDbLine
 10
784.4865340462574
 20
1479.548709174261
 30
0.0
 11
784.4865340462574
 21
1264.548709174261
 31
0.0
  0
LINE
  5
32D
330
1F
100
AcDbEntity
  8
0
100
AcDbLine
 10
1434.486534046257
 20
1264.54870917426
 30
0.0
 11
1434.486534046258
 21
1479.548709174261
 31
0.0
  0
ARC
  5
32E
330
1F
100
AcDbEntity
  8
0
100
AcDbCircle
 10
899.4865340462574
 20
1264.548709174261
 30
0.0
 40
115.0
100
AcDbArc
 50
180.0
 51
270.0
  0
ARC
  5
32F
330
1F
100
AcDbEntity
  8
0
100
AcDbCircle
 10
1319.486534046257
 20
1264.54870917426
 30
0.0
 40
115.0
100
AcDbArc
 50
270.0
 51
0.0
  0
ARC
  5
330
330
1F
100
AcDbEntity
  8
0
100
AcDbCircle
 10
899.4865340462574
 20
1264.548709174261
 30
0.0
 40
132.0
100
AcDbArc
 50
180.0
 51
270.0
  0
ARC
  5
331
330
1F
100
AcDbEntity
  8
0
100
AcDbCircle
 10
1319.486534046257
 20
1264.548709174261
 30
0.0
 40
132.0
100
AcDbArc
 50
270.0
 51
0.0
  0
CIRCLE
  5
334
330
1F
100
AcDbEntity
  8
0
100
AcDbCircle
 10
1034.486534046257
 20
1499.54870917426
 30
0.0
 40
79.5
  0
CIRCLE
  5
335
330
1F
100
AcDbEntity
  8
0
100
AcDbCircle
 10
1034.486534046257
 20
1499.54870917426
 30
0.0
 40
90.5
  0
ARC
  5
339
330
1F
100
AcDbEntity
  8
0
100
AcDbCircle
 10
1319.486534046258
 20
1479.548709174261
 30
0.0
 40
115.0
100
AcDbArc
 50
0.0
 51
90.0
  0
ARC
  5
33C
330
1F
100
AcDbEntity
  8
0
100
AcDbCircle
 10
1224.486534046257
 20
1694.548709174261
 30
0.0
 40
100.0
100
AcDbArc
 50
212.8664647390864
 51
270.0
  0
ARC
  5
340
330
1F
100
AcDbEntity
  8
0
100
AcDbCircle
 10
1086.736760906698
 20
1605.54870917426
 30
0.0
 40
64.0
100
AcDbArc
 50
32.8664647390862
 51
90.0
  0
ARC
  5
370
330
1F
100
AcDbEntity
  8
0
100
AcDbCircle
 10
844.4865340462575
 20
1609.548709174261
 30
0.0
 40
60.0
100
AcDbArc
 50
90.0
 51
180.0
  0
ARC
  5
371
330
1F
100
AcDbEntity
  8
0
100
AcDbCircle
 10
1374.486534046258
 20
1609.548709174261
 30
0.0
 40
60.0
100
AcDbArc
 50
0.0
 51
89.99999999999998
  0
ARC
  5
372
330
1F
100
AcDbEntity
  8
0
100
AcDbCircle
 10
844.4865340462575
 20
1609.548709174261
 30
0.0
 40
77.0
100
AcDbArc
 50
90.0
 51
180.0
  0
ARC
  5
373
330
1F
100
AcDbEntity
  8
0
100
AcDbCircle
 10
1374.486534046258
 20
1609.548709174261
 30
0.0
 40
77.0
100
AcDbArc
 50
0.0
 51
89.99999999999998
  0
DIMENSION
  5
376
330
1F
100
AcDbEntity
  8
0
100
AcDbDimension
  2
*D15
 10
784.4865340462574
 20
1302.011631232046
 30
0.0
 11
909.4865340462574
 21
1320.761631232046
 31
0.0
 70
    32
 71
     5
 42
250.0
  3
ISO-25
100
AcDbAlignedDimension
 13
1034.486534046257
 23
1461.291620983482
 33
0.0
 14
784.4865340462574
 24
1479.548709174261
 34
0.0
100
AcDbRotatedDimension
  0
DIMENSION
  5
384
330
1F
100
AcDbEntity
  8
0
100
AcDbDimension
  2
*D16
 10
1194.894036320697
 20
1669.548709174261
 30
0.0
 11
1194.894036320696
 21
1553.099103425388
 31
0.0
 70
   160
 71
     5
 42
170.0000000000002
  3
ISO-25
100
AcDbAlignedDimension
 13
1096.046817801942
 23
1499.54870917426
 33
0.0
 14
844.4865340462575
 24
1669.548709174261
 34
0.0
 50
90.0
100
AcDbRotatedDimension
  0
LINE
  5
39A
330
1F
100
AcDbEntity
  8
Cen
 48
0.8
100
AcDbLine
 10
1168.594095725336
 20
1499.54870917426
 30
0.0
 11
900.3789723671788
 21
1499.54870917426
 31
0.0
  0
LINE
  5
39B
330
1F
100
AcDbEntity
  8
Cen
 48
0.8
100
AcDbLine
 10
1034.486534046257
 20
1386.071308263767
 30
0.0
 11
1034.486534046257
 21
1613.026110084754
 31
0.0
  0
DIMENSION
  5
3B2
330
1F
100
AcDbEntity
  8
0
100
AcDbDimension
  2
*D17
 10
1099.486534046257
 20
1781.666665621423
 30
0.0
 11
1034.486534046257
 21
1800.416665621423
 31
0.0
 70
    32
 71
     5
 42
130.0
  3
ISO-25
100
AcDbAlignedDimension
 13
969.4865340462575
 23
1686.54870917426
 33
0.0
 14
1099.486534046257
 24
1686.54870917426
 34
0.0
100
AcDbRotatedDimension
  0
DIMENSION
  5
3BF
330
1F
100
AcDbEntity
  8
0
100
AcDbDimension
  2
*D18
 10
1164.486534046257
 20
1833.059675088208
 30
0.0
 11
1034.486534046257
 21
1851.809675088208
 31
0.0
 70
    32
 71
     5
 42
260.0
  3
ISO-25
100
AcDbAlignedDimension
 13
904.4865340462575
 23
1751.548709174261
 33
0.0
 14
1164.486534046257
 24
1751.548709174261
 34
0.0
100
AcDbRotatedDimension
  0
LINE
  5
3DD
330
1F
100
AcDbEntity
  8
Cen
100
AcDbLine
 10
1164.486534046257
 20
1816.548709174261
 30
0.0
 11
1164.486534046257
 21
1622.548709174261
 31
0.0
  0
LINE
  5
3DE
330
1F
100
AcDbEntity
  8
Cen
100
AcDbLine
 10
904.4865340462575
 20
1816.548709174261
 30
0.0
 11
904.4865340462575
 21
1622.548709174261
 31
0.0
  0
CIRCLE
  5
3DF
330
1F
100
AcDbEntity
  8
Cen
100
AcDbCircle
 10
1164.486534046257
 20
1654.54870917426
 30
0.0
 40
6.0
  0
CIRCLE
  5
3E0
330
1F
100
AcDbEntity
  8
Cen
100
AcDbCircle
 10
904.4865340462575
 20
1654.54870917426
 30
0.0
 40
6.0
  0
LINE
  5
3E3
330
1F
100
AcDbEntity
  8
Cen
100
AcDbLine
 10
969.4865340462577
 20
1781.666665621423
 30
0.0
 11
969.4865340462575
 21
1654.54870917426
 31
0.0
  0
LINE
  5
3E4
330
1F
100
AcDbEntity
  8
Cen
100
AcDbLine
 10
1099.486534046258
 20
1781.666665621423
 30
0.0
 11
1099.486534046257
 21
1654.54870917426
 31
0.0
  0
LINE
  5
407
330
1F
100
AcDbEntity
  8
0
100
AcDbLine
 10
767.4865340462575
 20
741.981514043212
 30
0.0
 11
1451.486534046257
 21
741.9815140432119
 31
0.0
  0
LINE
  5
40A
330
1F
100
AcDbEntity
  8
0
100
AcDbLine
 10
784.4865340462576
 20
741.981514043212
 30
0.0
 11
784.4865340462574
 21
591.0278638410659
 31
0.0
  0
LINE
  5
40B
330
1F
100
AcDbEntity
  8
0
100
AcDbLine
 10
1434.486534046257
 20
741.9815140432119
 30
0.0
 11
1434.486534046257
 21
600.1741612673685
 31
0.0
  0
LINE
  5
40D
330
1F
100
AcDbEntity
  8
0
100
AcDbLine
 10
784.4865340462579
 20
726.9815140432121
 30
0.0
 11
969.4865340462575
 21
726.9815140432119
 31
0.0
  0
LINE
  5
413
330
1F
100
AcDbEntity
  8
0
100
AcDbLine
 10
943.9865340462572
 20
544.9815140432122
 30
0.0
 11
953.9865340462572
 21
544.9815140432122
 31
0.0
  0
LINE
  5
414
330
1F
100
AcDbEntity
  8
0
100
AcDbLine
 10
943.9865340462574
 20
551.9815140432121
 30
0.0
 11
943.9865340462574
 21
544.981514043212
 31
0.0
  0
LINE
  5
415
330
1F
100
AcDbEntity
  8
0
100
AcDbLine
 10
1124.986534046257
 20
551.9815140432119
 30
0.0
 11
1124.986534046257
 21
544.981514043212
 31
0.0
  0
LINE
  5
419
330
1F
100
AcDbEntity
  8
0
100
AcDbLine
 10
813.517734271261
 20
561.0435108049244
 30
0.0
 11
923.9865340462575
 21
553.9815140432121
 31
0.0
  0
LINE
  5
41A
330
1F
100
AcDbEntity
  8
0
100
AcDbLine
 10
1406.34822396071
 20
570.231981809914
 30
0.0
 11
1287.492090807136
 21
562.8419631682409
 31
0.0
  0
LINE
  5
41E
330
1F
100
AcDbEntity
  8
0
100
AcDbLine
 10
943.9865340462574
 20
551.9815140432121
 30
0.0
 11
1124.986534046257
 21
551.9815140432119
 31
0.0
  0
ARC
  5
471
330
1F
100
AcDbEntity
  8
0
100
AcDbCircle
 10
814.4865340462574
 20
591.0278638410659
 30
0.0
 40
30.0
100
AcDbArc
 50
180.0
 51
268.1494069769925
  0
DIMENSION
  5
473
330
1F
100
AcDbEntity
  8
0
100
AcDbDimension
  2
*D19
 10
954.9865340462572
 20
423.5870393451969
 30
0.0
 11
1034.486534046257
 21
442.3370393451969
 31
0.0
 70
    32
  1
158
 71
     5
 42
159.0000000000002
  3
ISO-25
100
AcDbAlignedDimension
 13
1113.986534046257
 23
544.981514043212
 33
0.0
 14
954.9865340462572
 24
544.9815140432122
 34
0.0
100
AcDbRotatedDimension
  0
DIMENSION
  5
480
330
1F
100
AcDbEntity
  8
0
100
AcDbDimension
  2
*D20
 10
943.9865340462574
 20
654.1345385811837
 30
0.0
 11
1034.486534046257
 21
672.8845385811837
 31
0.0
 70
    32
 71
     5
 42
181.0
  3
ISO-25
100
AcDbAlignedDimension
 13
1124.986534046257
 23
551.9815140432119
 33
0.0
 14
943.9865340462574
 24
551.9815140432121
 34
0.0
100
AcDbRotatedDimension
  0
LINE
  5
48E
330
1F
100
AcDbEntity
  8
Cen
100
AcDbLine
 10
1034.486534046257
 20
635.2871059984472
 30
0.0
 11
1034.486534046257
 21
520.7269720980876
 31
0.0
  0
LINE
  5
48F
330
1F
100
AcDbEntity
  8
0
100
AcDbLine
 10
1778.943680007209
 20
1686.54870917426
 30
0.0
 11
1778.943680007209
 21
1132.54870917426
 31
0.0
  0
LINE
  5
492
330
1F
100
AcDbEntity
  8
0
100
AcDbLine
 10
1778.943680007209
 20
1669.548709174261
 30
0.0
 11
1932.480863952434
 21
1669.548709174261
 31
0.0
  0
LINE
  5
493
330
1F
100
AcDbEntity
  8
0
100
AcDbLine
 10
1796.943680007209
 20
1594.548709174261
 30
0.0
 11
1938.943680007209
 21
1594.548709174261
 31
0.0
  0
LINE
  5
494
330
1F
100
AcDbEntity
  8
0
100
AcDbLine
 10
1778.943680007208
 20
1149.54870917426
 30
0.0
 11
1790.943680007208
 21
1149.54870917426
 31
0.0
  0
LINE
  5
495
330
1F
100
AcDbEntity
  8
0
100
AcDbLine
 10
1796.943680007209
 20
1164.54870917426
 30
0.0
 11
1930.145592457782
 21
1164.54870917426
 31
0.0
  0
LINE
  5
496
330
1F
100
AcDbEntity
  8
0
100
AcDbLine
 10
1793.943680007209
 20
1161.54870917426
 30
0.0
 11
1793.943680007208
 21
1152.54870917426
 31
0.0
  0
ARC
  5
498
330
1F
100
AcDbEntity
  8
0
100
AcDbCircle
 10
1790.943680007208
 20
1152.54870917426
 30
0.0
 40
3.0
100
AcDbArc
 50
270.0
 51
360.0
  0
ARC
  5
499
330
1F
100
AcDbEntity
  8
0
100
AcDbCircle
 10
1796.943680007209
 20
1161.54870917426
 30
0.0
 40
3.0
100
AcDbArc
 50
90.00000000000005
 51
179.9999999999999
  0
LINE
  5
49A
330
1F
100
AcDbEntity
  8
0
100
AcDbLine
 10
1793.943680007209
 20
1669.54870917426
 30
0.0
 11
1793.943680007209
 21
1597.548709174261
 31
0.0
  0
ARC
  5
49B
330
1F
100
AcDbEntity
  8
0
100
AcDbCircle
 10
1796.943680007209
 20
1597.548709174261
 30
0.0
 40
3.0
100
AcDbArc
 50
179.9999999999999
 51
270.0
  0
LINE
  5
49D
330
1F
100
AcDbEntity
  8
0
100
AcDbLine
 10
1793.943680007209
 20
1597.548709174261
 30
0.0
 11
1793.943680007208
 21
1152.54870917426
 31
0.0
  0
LINE
  5
49E
330
1F
100
AcDbEntity
  8
0
100
AcDbLine
 10
1968.943680007209
 20
1564.548709174261
 30
0.0
 11
1968.943680007209
 21
1409.048709174265
 31
0.0
  0
LINE
  5
4A7
330
1F
100
AcDbEntity
  8
0
100
AcDbLine
 10
1968.943680007209
 20
1409.048709174261
 30
0.0
 11
1960.120531995052
 21
1193.322740277031
 31
0.0
  0
ARC
  5
4AA
330
1F
100
AcDbEntity
  8
0
100
AcDbCircle
 10
1930.145592457782
 20
1194.54870917426
 30
0.0
 40
30.0
100
AcDbArc
 50
270.0
 51
357.6579196915298
  0
ARC
  5
4AB
330
1F
100
AcDbEntity
  8
0
100
AcDbCircle
 10
1938.943680007209
 20
1564.548709174261
 30
0.0
 40
30.0
100
AcDbArc
 50
359.9999999999999
 51
89.99999999999992
  0
LINE
  5
4AE
330
1F
100
AcDbEntity
  8
Cen
100
AcDbLine
 10
1874.349850227001
 20
1497.67370917426
 30
0.0
 11
2005.004262462324
 21
1497.67370917426
 31
0.0
  0
CIRCLE
  5
4AF
330
1F
100
AcDbEntity
  8
Cen
  6
HIDDEN2
 48
1.5
100
AcDbCircle
 10
1432.516873890832
 20
734.6035246710689
 30
0.0
 40
64.39211969241114
  0
ARC
  5
4B0
330
1F
100
AcDbEntity
  8
Cen
  6
Continuous
100
AcDbCircle
 10
1665.938293189905
 20
557.6650616667357
 30
0.0
 40
302.1247328958318
100
AcDbArc
 50
90.0
 51
130.5390852135428
  0
LINE
  5
4B4
330
1F
100
AcDbEntity
  8
Cen
100
AcDbLine
 10
1645.830582369959
 20
868.13533573533
 30
0.0
 11
1665.938293189905
 21
859.7897945625675
 31
0.0
  0
LINE
  5
4B5
330
1F
100
AcDbEntity
  8
Cen
100
AcDbLine
 10
1665.938293189905
 20
859.7897945625675
 30
0.0
 11
1646.915641186748
 21
849.3424745305755
 31
0.0
  0
LINE
  5
4B7
330
1F
100
AcDbEntity
  8
0
100
AcDbLine
 10
1726.758193349749
 20
812.751213777304
 30
0.0
 11
2048.779490296078
 21
812.7512137773036
 31
0.0
  0
LINE
  5
4B8
330
1F
100
AcDbEntity
  8
0
100
AcDbLine
 10
1878.779490296077
 20
782.7512137773038
 30
0.0
 11
1878.779490296077
 21
638.0730168961636
 31
0.0
  0
DIMENSION
  5
4C1
330
1F
100
AcDbEntity
  8
0
100
AcDbDimension
  2
*D21
 10
1878.779490296077
 20
918.9281552994817
 30
0.0
 11
1963.779490296078
 21
937.6781552994817
 31
0.0
 70
    32
  1
17
 71
     5
 42
170.0
  3
ISO-25
100
AcDbAlignedDimension
 13
2048.779490296078
 23
812.7512137773036
 33
0.0
 14
1878.779490296077
 24
812.7512137773036
 34
0.0
100
AcDbRotatedDimension
  0
ARC
  5
4CE
330
1F
100
AcDbEntity
  8
0
100
AcDbCircle
 10
1908.779490296078
 20
782.7512137773038
 30
0.0
 40
30.0
100
AcDbArc
 50
90.0
 51
180.0
  0
LINE
  5
4CF
330
1F
100
AcDbEntity
  8
0
100
AcDbLine
 10
1908.779490296078
 20
802.7512137773038
 30
0.0
 11
2048.779490296078
 21
802.7512137773037
 31
0.0
  0
ARC
  5
4D0
330
1F
100
AcDbEntity
  8
0
100
AcDbCircle
 10
1908.779490296078
 20
782.7512137773038
 30
0.0
 40
20.0
100
AcDbArc
 50
90.0
 51
180.0
  0
LINE
  5
4D1
330
1F
100
AcDbEntity
  8
0
100
AcDbLine
 10
1888.779490296078
 20
782.7512137773038
 30
0.0
 11
1888.779490296078
 21
638.0730168961636
 31
0.0
  0
LINE
  5
4D2
330
1F
100
AcDbEntity
  8
0
100
AcDbLine
 10
2048.779490296078
 20
812.7512137773036
 30
0.0
 11
2048.779490296078
 21
802.7512137773037
 31
0.0
  0
LEADER
  5
50F
330
1F
100
AcDbEntity
  8
0
100
AcDbLeader
  3
ISO-25
 40
25.0
 41
41.66666666666666
 76
     2
 10
1171.997881825915
 20
1660.49494991493
 30
0.0
 10
1196.33091046827
 20
1745.904724295562
 30
0.0
211
-1.0
221
0.0
231
0.0
210
0.0
220
0.0
230
-1.0
213
0.0
223
12.5
233
0.0
1001
ACAD
1000
DSTYLE
1002
{
1070
    41
1040
25.0
1070
   147
1040
6.25
1070
    77
1070
     0
1070
    73
1070
     1
1070
    74
1070
     1
1070
   342
1005
DA
1002
}
  0
TEXT
  5
511
330
1F
100
AcDbEntity
  8
0
100
AcDbText
 10
1186.851400809717
 20
1758.513650551347
 30
0.0
 40
25.0
  1
12%%C
 72
     2
 11
1245.18473414305
 21
1755.180317218014
 31
0.0
100
AcDbText
 73
     1
  0
LEADER
  5
52C
330
1F
100
AcDbEntity
  8
0
100
AcDbLeader
  3
ISO-25
 40
33.33333333333333
 41
66.66666666666668
 76
     2
 10
1391.19628153926
 20
1154.808100063462
 30
0.0
 10
1307.618372620829
 20
1192.56005477326
 30
0.0
213
0.0
223
12.5
233
0.0
1001
ACAD
1000
DSTYLE
1002
{
1070
    41
1040
25.0
1070
   147
1040
6.25
1070
    77
1070
     0
1070
    73
1070
     1
1070
    74
1070
     1
1070
   279
1070
     1
1070
   342
1005
DA
1002
}
  0
TEXT
  5
52E
330
1F
100
AcDbEntity
  8
0
100
AcDbText
 10
1217.415614466362
 20
1179.877407464867
 30
0.0
 40
25.0
  1
132R
 72
     2
 11
1300.748947799695
 21
1176.544074131534
 31
0.0
100
AcDbText
 73
     1
  0
MTEXT
  5
532
330
1F
100
AcDbEntity
  8
0
100
AcDbMText
 10
1469.226616777811
 20
1181.110374981098
 30
0.0
 40
25.0
 41
0.0
 71
     9
 72
     1
  1

 73
     1
 44
1.0
1001
ACAD
1000
MTEXTBEGIN
1070
    73
1070
     1
1070
    44
1040
1.0
1070
    74
1070
     0
1000
MTEXTEND
  0
LEADER
  5
533
330
1F
100
AcDbEntity
  8
0
100
AcDbLeader
  3
ISO-25
 40
25.0
 41
16.66666666666666
 76
     2
 10
1400.355511855834
 20
1184.552066832516
 30
0.0
 10
1309.908178116271
 20
1240.608001458674
 30
0.0
213
-97.31675022588753
223
44.53196128345098
233
0.0
1001
ACAD
1000
DSTYLE
1002
{
1070
    41
1040
25.0
1070
   147
1040
6.25
1070
    77
1070
     0
1070
    73
1070
     1
1070
    74
1070
     1
1070
   279
1070
     1
1070
   342
1005
DA
1002
}
  0
TEXT
  5
537
330
1F
100
AcDbEntity
  8
0
100
AcDbText
 10
1224.604045051974
 20
1235.933346851264
 30
0.0
 40
25.0
  1
115R
 72
     2
 11
1299.604045051974
 21
1232.600013517931
 31
0.0
100
AcDbText
 73
     1
  0
LEADER
  5
53A
330
1F
100
AcDbEntity
  8
0
100
AcDbLeader
  3
ISO-25
 40
25.0
 41
16.66666666666666
 76
     2
 10
1416.384150323927
 20
1221.160021904997
 30
0.0
 10
1353.414490864472
 20
1280.647955443107
 30
0.0
213
0.0
223
12.5
233
0.0
1001
ACAD
1000
DSTYLE
1002
{
1070
    41
1040
25.0
1070
   147
1040
6.25
1070
    77
1070
     0
1070
    73
1070
     1
1070
    74
1070
     1
1070
   279
1070
     1
1070
   342
1005
DA
1002
}
  0
TEXT
  5
53C
330
1F
100
AcDbEntity
  8
0
100
AcDbText
 10
1271.545066043336
 20
1279.405294987409
 30
0.0
 40
25.0
  1
115R
 72
     2
 11
1346.545066043336
 21
1276.071961654076
 31
0.0
100
AcDbText
 73
     1
  0
LEADER
  5
53D
330
1F
100
AcDbEntity
  8
0
100
AcDbLeader
  3
ISO-25
 40
25.0
 41
16.66666666666666
 76
     2
 10
1023.009804760104
 20
1174.006731038388
 30
0.0
 10
1048.785834857023
 20
1220.841297991826
 30
0.0
213
0.0
223
-12.5
233
0.0
1001
ACAD
1000
DSTYLE
1002
{
1070
    41
1040
25.0
1070
   147
1040
6.25
1070
    77
1070
     0
1070
    73
1070
     1
1070
    74
1070
     1
1070
   279
1070
     1
1070
   342
1005
DA
1002
}
  0
TEXT
  5
53F
330
1F
100
AcDbEntity
  8
0
100
AcDbText
 10
1023.564936640279
 20
1235.466648901808
 30
0.0
 40
25.0
  1
10000R
 11
1023.564936640279
 21
1232.133315568475
 31
0.0
100
AcDbText
 73
     1
  0
LEADER
  5
540
330
1F
100
AcDbEntity
  8
0
100
AcDbLeader
  3
ISO-25
 76
     2
 10
1433.557691539739
 20
1376.125935677413
 30
0.0
 10
1337.385844061571
 20
1376.125935677413
 30
0.0
1001
ACAD
1000
DSTYLE
1002
{
1070
    41
1040
25.0
1070
   147
1040
6.25
1070
    77
1070
     0
1070
    73
1070
     1
1070
    74
1070
     1
1070
   279
1070
     1
1070
   342
1005
DA
1002
}
  0
TEXT
  5
54B
330
1F
100
AcDbEntity
  8
0
100
AcDbText
 10
1227.081719332083
 20
1363.625935677413
 30
0.0
 40
25.0
  1
1500R
 72
     2
 11
1327.081719332083
 21
1376.125935677413
 31
0.0
100
AcDbText
 73
     2
  0
LEADER
  5
54C
330
1F
100
AcDbEntity
  8
0
100
AcDbLeader
  3
ISO-25
 40
25.0
 41
16.66666666666666
 76
     2
 10
1422.108664062531
 20
1642.151536180077
 30
0.0
 10
1391.615761244453
 20
1532.203462225289
 30
0.0
213
0.0
223
12.5
233
0.0
1001
ACAD
1000
DSTYLE
1002
{
1070
    41
1040
25.0
1070
   147
1040
6.25
1070
    77
1070
     0
1070
    73
1070
     1
1070
    74
1070
     1
1070
   279
1070
     1
1070
   342
1005
DA
1002
}
  0
TEXT
  5
54E
330
1F
100
AcDbEntity
  8
0
100
AcDbText
 10
1348.734947748431
 20
1499.50793018314
 30
0.0
 40
25.0
  1
60R
 72
     2
 11
1411.234947748431
 21
1496.174596849807
 31
0.0
100
AcDbText
 73
     1
  0
LEADER
  5
558
330
1F
100
AcDbEntity
  8
0
100
AcDbLeader
  3
ISO-25
 40
25.0
 41
16.66666666666666
 76
     2
 10
951.5769522073105
 20
1654.88263359695
 30
0.0
 10
1006.508891626588
 20
1631.8555489647
 30
0.0
213
0.0
223
-12.5
233
0.0
1001
ACAD
1000
DSTYLE
1002
{
1070
    41
1040
25.0
1070
   147
1040
6.25
1070
    77
1070
     0
1070
    73
1070
     1
1070
    74
1070
     1
1070
   279
1070
     1
1070
   342
1005
DA
1002
}
  0
TEXT
  5
55A
330
1F
100
AcDbEntity
  8
0
100
AcDbText
 10
1014.523210860634
 20
1619.271562474688
 30
0.0
 40
25.0
  1
64R
 11
1014.523210860634
 21
1615.938229141354
 31
0.0
100
AcDbText
 73
     1
  0
MTEXT
  5
55C
330
1F
100
AcDbEntity
  8
0
100
AcDbMText
 10
1010.02660136874
 20
1423.470120422065
 30
0.0
 40
25.0
 41
0.0
 71
     1
 72
     1
  1

 73
     1
 44
1.0
1001
ACAD
1000
MTEXTBEGIN
1070
    73
1070
     1
1070
    44
1040
1.0
1070
    74
1070
     0
1000
MTEXTEND
  0
LEADER
  5
55D
330
1F
100
AcDbEntity
  8
0
100
AcDbLeader
  3
ISO-25
 40
25.0
 41
16.66666666666666
 76
     2
 10
1265.53883400893
 20
1588.492624590101
 30
0.0
 10
1297.173055548159
 20
1472.577077729633
 30
0.0
213
0.0
223
-12.5
233
0.0
1001
ACAD
1000
DSTYLE
1002
{
1070
    41
1040
25.0
1070
   147
1040
6.25
1070
    77
1070
     0
1070
    73
1070
     1
1070
    74
1070
     1
1070
   279
1070
     1
1070
   342
1005
DA
1002
}
  0
TEXT
  5
55F
330
1F
100
AcDbEntity
  8
0
100
AcDbText
 10
1249.796722251163
 20
1433.280831666226
 30
0.0
 40
25.0
  1
10000R
 11
1249.796722251163
 21
1458.280831666226
 31
0.0
100
AcDbText
 73
     3
  0
LEADER
  5
560
330
1F
100
AcDbEntity
  8
0
100
AcDbLeader
  3
ISO-25
 40
25.0
 41
16.66666666666666
 76
     2
 10
830.4266617472249
 20
1574.491961462351
 30
0.0
 10
869.1947565318386
 20
1542.529406204782
 30
0.0
213
0.0
223
-12.5
233
0.0
1001
ACAD
1000
DSTYLE
1002
{
1070
    41
1040
25.0
1070
   147
1040
6.25
1070
    77
1070
     0
1070
    73
1070
     1
1070
    74
1070
     1
1070
   279
1070
     1
1070
   342
1005
DA
1002
}
  0
TEXT
  5
562
330
1F
100
AcDbEntity
  8
0
100
AcDbText
 10
839.8978789538595
 20
1507.722489890919
 30
0.0
 40
25.0
  1
100R
 11
839.8978789538595
 21
1532.722489890919
 31
0.0
100
AcDbText
 73
     3
  0
LEADER
  5
563
330
1F
100
AcDbEntity
  8
0
100
AcDbLeader
  3
ISO-25
 40
33.33333333333333
 41
16.66666666666667
 76
     2
 10
1420.813106676967
 20
1663.37626321007
 30
0.0
 10
1347.824697036749
 20
1641.661242620921
 30
0.0
211
-1.0
221
0.0
231
0.0
210
0.0
220
0.0
230
-1.0
213
0.0
223
-12.5
233
0.0
1001
ACAD
1000
DSTYLE
1002
{
1070
   147
1040
6.25
1070
    77
1070
     0
1070
    73
1070
     1
1070
    74
1070
     1
1070
   279
1070
     1
1070
   342
1005
DA
1002
}
  0
TEXT
  5
565
330
1F
100
AcDbEntity
  8
0
100
AcDbText
 10
1271.685728626717
 20
1626.907026709743
 30
0.0
 40
25.0
  1
77R
 11
1271.685728626717
 21
1651.907026709743
 31
0.0
100
AcDbText
 73
     3
  0
LEADER
  5
566
330
1F
100
AcDbEntity
  8
0
100
AcDbLeader
  3
ISO-25
 40
25.0
 41
16.66666666666666
 76
     2
 10
899.2400296071254
 20
1602.580268310392
 30
0.0
 10
898.2708314481861
 20
1541.560847629784
 30
0.0
213
0.0
223
12.5
233
0.0
1001
ACAD
1000
DSTYLE
1002
{
1070
    41
1040
25.0
1070
   147
1040
6.25
1070
    77
1070
     0
1070
    73
1070
     1
1070
    74
1070
     1
1070
   279
1070
     1
1070
   342
1005
DA
1002
}
  0
LINE
  5
56A
330
1F
100
AcDbEntity
  8
補助
100
AcDbLine
 10
2784.0
 20
134.0
 30
0.0
 11
2784.0
 21
199.0
 31
0.0
  0
TEXT
  5
56C
330
1F
100
AcDbEntity
  8
0
100
AcDbText
 10
2233.166666666667
 20
149.0
 30
0.0
 40
35.0
  1
PRS650-520GRM-L
 72
     4
 11
2484.0
 21
166.5
 31
0.0
100
AcDbText
  0
DIMENSION
  5
586
330
1F
100
AcDbEntity
  8
0
100
AcDbDimension
  2
*D22
 10
876.7139734746169
 20
1669.548709174261
 30
0.0
 11
874.470887049908
 21
1710.006567658332
 31
0.0
 70
   160
 71
     5
 42
15.00000000000023
  3
ISO-25
100
AcDbAlignedDimension
 13
952.7414700701593
 23
1654.54870917426
 33
0.0
 14
969.4865340462575
 24
1669.548709174261
 34
0.0
 50
90.0
100
AcDbRotatedDimension
1001
ACAD
1000
DSTYLE
1002
{
1070
   279
1070
     2
1002
}
  0
LINE
  5
59F
330
1F
100
AcDbEntity
  8
Cen
100
AcDbLine
 10
885.4783836623582
 20
1654.548709174261
 30
0.0
 11
919.9991051765909
 21
1654.54870917426
 31
0.0
  0
LINE
  5
5A0
330
1F
100
AcDbEntity
  8
Cen
100
AcDbLine
 10
1148.698871664312
 20
1654.54870917426
 30
0.0
 11
1181.601431622705
 21
1654.54870917426
 31
0.0
  0
LINE
  5
5A1
330
1F
100
AcDbEntity
  8
Cen
100
AcDbLine
 10
1148.159484479031
 20
1654.54870917426
 30
0.0
 11
1184.8359096319
 21
1654.005448383684
 31
0.0
  0
MTEXT
  5
5A9
330
1F
100
AcDbEntity
  8
Cen
100
AcDbMText
 10
1527.939315450184
 20
552.4831097022406
 30
0.0
 40
25.0
 41
0.0
 71
     9
 72
     1
  1

 73
     1
 44
1.0
1001
ACAD
1000
MTEXTBEGIN
1070
    73
1070
     1
1070
    44
1040
1.0
1070
    74
1070
     0
1000
MTEXTEND
  0
LEADER
  5
5AA
330
1F
100
AcDbEntity
  8
Cen
100
AcDbLeader
  3
ISO-25
 40
25.0
 41
16.66666666666666
 76
     2
 10
1425.950825352492
 20
588.3188993555936
 30
0.0
 10
1397.074413050463
 20
638.1633974030542
 30
0.0
213
0.0
223
12.5
233
0.0
1001
ACAD
1000
DSTYLE
1002
{
1070
    41
1040
25.0
1070
   147
1040
6.25
1070
    77
1070
     0
1070
   279
1070
     1
1002
}
  0
TEXT
  5
5AD
330
1F
100
AcDbEntity
  8
0
100
AcDbText
 10
1340.634148118089
 20
646.0335842757135
 30
0.0
 40
25.0
  1
30R
100
AcDbText
  0
LEADER
  5
5AE
330
1F
100
AcDbEntity
  8
Cen
100
AcDbLeader
  3
ISO-25
 40
25.0
 41
16.66666666666666
 76
     2
 10
1888.246662390185
 20
804.6236388414573
 30
0.0
 10
1942.935688997838
 20
736.1137044834113
 30
0.0
213
0.0
223
-12.5
233
0.0
1001
ACAD
1000
DSTYLE
1002
{
1070
    41
1040
25.0
1070
   147
1040
6.25
1070
    77
1070
     0
1070
   279
1070
     1
1002
}
  0
TEXT
  5
5B0
330
1F
100
AcDbEntity
  8
0
100
AcDbText
 10
1950.318582897367
 20
711.8747988852738
 30
0.0
 40
25.0
  1
3R
100
AcDbText
  0
LEADER
  5
5B2
330
1F
100
AcDbEntity
  8
Cen
100
AcDbLeader
  3
ISO-25
 40
25.0
 41
16.66666666666666
 76
     2
 10
1795.424127006246
 20
1594.962020426602
 30
0.0
 10
1740.251198234477
 20
1558.9277468233
 30
0.0
213
0.0
223
12.5
233
0.0
1001
ACAD
1000
DSTYLE
1002
{
1070
    41
1040
25.0
1070
   147
1040
6.25
1070
    77
1070
     0
1070
   279
1070
     1
1002
}
  0
LEADER
  5
5B4
330
1F
100
AcDbEntity
  8
Cen
100
AcDbLeader
  3
ISO-25
 76
     2
 10
1795.034204868889
 20
1163.862559795225
 30
0.0
 10
1850.830803917787
 20
1119.990642290039
 30
0.0
1001
ACAD
1000
DSTYLE
1002
{
1070
    41
1040
25.0
1070
   147
1040
6.25
1070
    77
1070
     0
1070
   279
1070
     1
1002
}
  0
TEXT
  5
5B7
330
1F
100
AcDbEntity
  8
0
100
AcDbText
 10
1854.750195540511
 20
1091.424727921701
 30
0.0
 40
25.0
  1
3R
100
AcDbText
  0
LEADER
  5
5B8
330
1F
100
AcDbEntity
  8
Cen
100
AcDbLeader
  3
ISO-25
 76
     2
 10
1792.988819983706
 20
1150.353850983731
 30
0.0
 10
1742.010092886027
 20
1186.33728349513
 30
0.0
1001
ACAD
1000
DSTYLE
1002
{
1070
    41
1040
25.0
1070
   147
1040
6.25
1070
    77
1070
     0
1070
   279
1070
     1
1002
}
  0
TEXT
  5
5B9
330
1F
100
AcDbEntity
  8
0
100
AcDbText
 10
1694.977401747262
 20
1176.431359734604
 30
0.0
 40
25.0
  1
3R
100
AcDbText
  0
TEXT
  5
5BA
330
1F
100
AcDbEntity
  8
0
100
AcDbText
 10
1692.285143602205
 20
1526.148290641324
 30
0.0
 40
25.0
  1
3R
100
AcDbText
  0
LINE
  5
5D0
330
1F
100
AcDbEntity
  8
補助
100
AcDbLine
 10
2784.0
 20
69.0
 30
0.0
 11
2784.0
 21
134.0
 31
0.0
  0
TEXT
  5
5D2
330
1F
100
AcDbEntity
  8
0
100
AcDbText
 10
2430.916666666667
 20
84.0
 30
0.0
 40
35.0
  1
1：10
 72
     4
 11
2484.0
 21
101.5
 31
0.0
100
AcDbText
  0
TEXT
  5
5D8
330
1F
100
AcDbEntity
  8
0
100
AcDbText
 10
231.1659029702105
 20
53.51169987015055
 30
0.0
 40
30.0
  1
※実寸には製造上の誤差が多少生ずる場合があります。シンクの穴あけ加工は現物合わせにてお願いします。
100
AcDbText
  0
TEXT
  5
5F4
330
1F
100
AcDbEntity
  8
補助
100
AcDbText
 10
2300.255774665348
 20
16.49999999999999
 30
0.0
 40
40.0
  1
中外交易株式会社
 72
     4
 11
2488.255774665347
 21
36.5
 31
0.0
100
AcDbText
  0
LINE
  5
5F5
330
1F
100
AcDbEntity
  8
補助
100
AcDbLine
 10
2064.0
 20
69.0
 30
0.0
 11
2784.0
 21
69.0
 31
0.0
  0
HATCH
  5
5F6
330
1F
100
AcDbEntity
  8
補助
100
AcDbHatch
 10
0.0
 20
0.0
 30
0.0
210
0.0
220
0.0
230
1.0
  2
SOLID
 70
     1
 71
     1
 91
        3
 92
        1
 93
        4
 72
     2
 10
2257.166198313996
 20
36.5
 40
20.0
 50
11.6477236670766
 51
342.6561058784691
 73
     1
 72
     1
 10
2276.256852341323
 20
30.53787547858514
 11
2252.166198313995
 21
30.53787547858519
 72
     1
 10
2252.166198313995
 20
30.53787547858519
 11
2252.166198313995
 21
40.53787547858519
 72
     1
 10
2252.166198313995
 20
40.53787547858519
 11
2276.75434681301
 21
40.53787547858519
 97
        4
330
5F7
330
5F9
330
5FA
330
5FB
 92
        1
 93
        4
 72
     2
 10
2188.255774665348
 20
36.5
 40
20.0
 50
11.6477236670766
 51
342.6561058784691
 73
     1
 72
     1
 10
2207.346428692676
 20
30.53787547858514
 11
2183.255774665347
 21
30.53787547858519
 72
     1
 10
2183.255774665347
 20
30.53787547858519
 11
2183.255774665347
 21
40.53787547858519
 72
     1
 10
2183.255774665347
 20
40.53787547858519
 11
2207.843923164362
 21
40.53787547858519
 97
        4
330
5F8
330
601
330
602
330
603
 92
        1
 93
        5
 72
     1
 10
2245.64189404294
 20
56.5
 11
2210.641894042939
 21
56.5
 72
     1
 10
2210.641894042939
 20
56.5
 11
2210.641894042939
 21
16.5
 72
     1
 10
2210.641894042939
 20
16.5
 11
2245.64189404294
 21
16.5
 72
     1
 10
2245.64189404294
 20
16.5
 11
2210.641894042939
 21
36.5
 72
     1
 10
2210.641894042939
 20
36.5
 11
2245.64189404294
 21
56.5
 97
        5
330
5FC
330
600
330
5FF
330
5FE
330
5FD
 75
     0
 76
     1
 98
        1
 10
-60.0
 20
0.0
  0
ARC
  5
5F7
102
{ACAD_REACTORS
330
5F6
102
}
330
1F
100
AcDbEntity
  8
補助
370
     5
100
AcDbCircle
 10
2257.166198313996
 20
36.5
 30
0.0
 40
20.0
100
AcDbArc
 50
11.6477236670766
 51
342.6561058784691
  0
ARC
  5
5F8
102
{ACAD_REACTORS
330
5F6
102
}
330
1F
100
AcDbEntity
  8
補助
370
     5
100
AcDbCircle
 10
2188.255774665348
 20
36.5
 30
0.0
 40
20.0
100
AcDbArc
 50
11.6477236670766
 51
342.6561058784691
  0
LINE
  5
5F9
102
{ACAD_REACTORS
330
5F6
102
}
330
1F
100
AcDbEntity
  8
補助
370
     5
100
AcDbLine
 10
2252.166198313995
 20
30.53787547858519
 30
0.0
 11
2276.256852341323
 21
30.53787547858514
 31
0.0
  0
LINE
  5
5FA
102
{ACAD_REACTORS
330
5F6
102
}
330
1F
100
AcDbEntity
  8
補助
370
     5
100
AcDbLine
 10
2252.166198313995
 20
40.53787547858519
 30
0.0
 11
2252.166198313995
 21
30.53787547858519
 31
0.0
  0
LINE
  5
5FB
102
{ACAD_REACTORS
330
5F6
102
}
330
1F
100
AcDbEntity
  8
補助
370
     5
100
AcDbLine
 10
2276.75434681301
 20
40.53787547858519
 30
0.0
 11
2252.166198313995
 21
40.53787547858519
 31
0.0
  0
LINE
  5
5FC
102
{ACAD_REACTORS
330
5F6
102
}
330
1F
100
AcDbEntity
  8
補助
370
     5
100
AcDbLine
 10
2245.64189404294
 20
56.5
 30
0.0
 11
2210.641894042939
 21
56.5
 31
0.0
  0
LINE
  5
5FD
102
{ACAD_REACTORS
330
5F6
102
}
330
1F
100
AcDbEntity
  8
補助
370
     5
100
AcDbLine
 10
2210.641894042939
 20
36.5
 30
0.0
 11
2245.64189404294
 21
56.5
 31
0.0
  0
LINE
  5
5FE
102
{ACAD_REACTORS
330
5F6
102
}
330
1F
100
AcDbEntity
  8
補助
370
     5
100
AcDbLine
 10
2245.64189404294
 20
16.5
 30
0.0
 11
2210.641894042939
 21
36.5
 31
0.0
  0
LINE
  5
5FF
102
{ACAD_REACTORS
330
5F6
102
}
330
1F
100
AcDbEntity
  8
補助
370
     5
100
AcDbLine
 10
2210.641894042939
 20
16.5
 30
0.0
 11
2245.64189404294
 21
16.5
 31
0.0
  0
LINE
  5
600
102
{ACAD_REACTORS
330
5F6
102
}
330
1F
100
AcDbEntity
  8
補助
370
     5
100
AcDbLine
 10
2210.641894042939
 20
56.5
 30
0.0
 11
2210.641894042939
 21
16.5
 31
0.0
  0
LINE
  5
601
102
{ACAD_REACTORS
330
5F6
102
}
330
1F
100
AcDbEntity
  8
補助
370
     5
100
AcDbLine
 10
2183.255774665347
 20
30.53787547858519
 30
0.0
 11
2207.346428692676
 21
30.53787547858514
 31
0.0
  0
LINE
  5
602
102
{ACAD_REACTORS
330
5F6
102
}
330
1F
100
AcDbEntity
  8
補助
370
     5
100
AcDbLine
 10
2183.255774665347
 20
40.53787547858519
 30
0.0
 11
2183.255774665347
 21
30.53787547858519
 31
0.0
  0
LINE
  5
603
102
{ACAD_REACTORS
330
5F6
102
}
330
1F
100
AcDbEntity
  8
補助
370
     5
100
AcDbLine
 10
2207.843923164362
 20
40.53787547858519
 30
0.0
 11
2183.255774665347
 21
40.53787547858519
 31
0.0
  0
LINE
  5
A29
330
1F
100
AcDbEntity
  8
補助
100
AcDbLine
 10
2064.0
 20
4.0
 30
0.0
 11
2064.0
 21
199.0
 31
0.0
  0
TEXT
  5
A2C
330
1F
100
AcDbEntity
  8
補助
100
AcDbText
 10
2086.666666666667
 20
149.0
 30
0.0
 40
35.0
  1
品番
 72
     4
 11
2124.0
 21
166.5
 31
0.0
100
AcDbText
  0
TEXT
  5
A2D
330
1F
100
AcDbEntity
  8
補助
100
AcDbText
 10
2086.666666666667
 20
84.0
 30
0.0
 40
35.0
  1
尺度
 72
     4
 11
2124.0
 21
101.5
 31
0.0
100
AcDbText
  0
CIRCLE
  5
C9F
330
1F
100
AcDbEntity
  8
0
370
    13
100
AcDbCircle
 10
1034.486534046257
 20
1499.54870917426
 30
0.0
 40
110.5
  0
LINE
  5
CB5
330
1F
100
AcDbEntity
  8
実形
370
    13
100
AcDbLine
 10
1117.382924176091
 20
1401.653900078494
 30
0.0
 11
1365.050724490139
 21
1544.644971259412
 31
0.0
  0
ARC
  5
DCC
330
1F
100
AcDbEntity
  8
0
100
AcDbCircle
 10
982.2363071858164
 20
1605.54870917426
 30
0.0
 40
64.0
100
AcDbArc
 50
90.0
 51
147.1335352609138
  0
ARC
  5
DCD
330
1F
100
AcDbEntity
  8
0
100
AcDbCircle
 10
844.4865340462575
 20
1694.548709174261
 30
0.0
 40
100.0
100
AcDbArc
 50
281.5369590328155
 51
327.1335352609136
  0
ARC
  5
DCF
330
1F
100
AcDbEntity
  8
0
100
AcDbCircle
 10
884.4865340462574
 20
1498.589529751607
 30
0.0
 40
100.0
100
AcDbArc
 50
101.5369590328155
 51
180.0
  0
LINE
  5
DD0
330
1F
100
AcDbEntity
  8
実形
370
    13
100
AcDbLine
 10
807.9225455491757
 20
1485.058742201666
 30
0.0
 11
952.383969703769
 21
1401.653900078494
 31
0.0
  0
ARC
  5
DD1
330
1F
100
AcDbEntity
  8
実形
370
    13
100
AcDbCircle
 10
1034.88344693993
 20
1544.547186249397
 30
0.0
 40
164.9989544723223
100
AcDbArc
 50
239.9999999999999
 51
300.0000000000001
  0
ARC
  5
DE6
330
1F
100
AcDbEntity
  8
実形
370
    13
100
AcDbCircle
 10
1034.88344693993
 20
1544.547186249397
 30
0.0
 40
160.2489544723223
100
AcDbArc
 50
239.9999999999999
 51
300.0000000000001
  0
LINE
  5
DE7
330
1F
100
AcDbEntity
  8
実形
370
    13
100
AcDbLine
 10
1115.007924176091
 20
1405.76752074647
 30
0.0
 11
1365.050724490139
 21
1544.644971259412
 31
0.0
  0
LINE
  5
DE8
330
1F
100
AcDbEntity
  8
実形
370
    13
100
AcDbLine
 10
807.9225455491757
 20
1485.058742201666
 30
0.0
 11
954.758969703769
 21
1405.76752074647
 31
0.0
  0
LINE
  5
E77
330
1F
100
AcDbEntity
  8
0
100
AcDbLine
 10
1099.486534046257
 20
726.9815140432119
 30
0.0
 11
1434.486534046257
 21
726.9815140432119
 31
0.0
  0
LINE
  5
E7F
330
1F
100
AcDbEntity
  8
実形
100
AcDbLine
 10
1124.986534046257
 20
551.9815140432119
 30
0.0
 11
1144.986534046257
 21
553.9815140432121
 31
0.0
  0
LINE
  5
E80
330
1F
100
AcDbEntity
  8
実形
100
AcDbLine
 10
923.9865340462575
 20
553.9815140432121
 30
0.0
 11
943.9865340462574
 21
551.9815140432119
 31
0.0
  0
DIMENSION
  5
E81
330
1F
100
AcDbEntity
  8
実形
100
AcDbDimension
  2
*D23
 10
1144.986534046257
 20
654.1345385811837
 30
0.0
 11
1134.536908425748
 21
658.6442275513641
 31
0.0
 70
   160
 71
     5
 42
20.0
  3
ISO-25
100
AcDbAlignedDimension
 13
1124.986534046257
 23
551.9815140432119
 33
0.0
 14
1144.986534046257
 24
551.9815140432122
 34
0.0
100
AcDbRotatedDimension
1001
ACAD
1000
DSTYLE
1002
{
1070
   279
1070
     1
1002
}
  0
DIMENSION
  5
E8E
330
1F
100
AcDbEntity
  8
実形
100
AcDbDimension
  2
*D24
 10
923.9865340462575
 20
654.1345385811837
 30
0.0
 11
933.1468143910896
 21
659.2955472960361
 31
0.0
 70
   160
 71
     5
 42
20.0
  3
ISO-25
100
AcDbAlignedDimension
 13
943.9865340462574
 23
551.9815140432121
 33
0.0
 14
923.9865340462575
 24
551.9815140432122
 34
0.0
100
AcDbRotatedDimension
1001
ACAD
1000
DSTYLE
1002
{
1070
   279
1070
     1
1002
}
  0
LEADER
  5
EAD
330
1F
100
AcDbEntity
  8
Cen
100
AcDbLeader
  3
ISO-25
 40
25.0
 41
16.66666666666666
 76
     2
 10
863.2229763545337
 20
562.913934851384
 30
0.0
 10
840.5392746375
 20
622.1849232490257
 30
0.0
213
0.0
223
12.5
233
0.0
1001
ACAD
1000
DSTYLE
1002
{
1070
    41
1040
25.0
1070
   147
1040
6.25
1070
    77
1070
     0
1070
   279
1070
     1
1002
}
  0
TEXT
  5
EAE
330
1F
100
AcDbEntity
  8
0
100
AcDbText
 10
799.822414331531
 20
631.4743005323825
 30
0.0
 40
25.0
  1
4500R
100
AcDbText
  0
LINE
  5
EB1
330
1F
100
AcDbEntity
  8
実形
100
AcDbLine
 10
1144.986534046259
 20
553.9815140432124
 30
0.0
 11
1284.638296264173
 21
558.9302421448508
 31
0.0
  0
LINE
  5
EB2
330
1F
100
AcDbEntity
  8
実形
100
AcDbLine
 10
1286.085175302859
 20
560.4293012375717
 30
0.0
 11
1286.085175302859
 21
561.3448541953682
 31
0.0
  0
ARC
  5
EB6
330
1F
100
AcDbEntity
  8
実形
100
AcDbCircle
 10
1287.585175302859
 20
561.3448541953682
 30
0.0
 40
1.5
100
AcDbArc
 50
93.55785186611813
 51
180.0
  0
ARC
  5
EB7
330
1F
100
AcDbEntity
  8
実形
100
AcDbCircle
 10
1284.585175302859
 20
560.4293012375717
 30
0.0
 40
1.5
100
AcDbArc
 50
272.0294956239836
 51
0.0
  0
ARC
  5
EB8
330
1F
100
AcDbEntity
  8
0
100
AcDbCircle
 10
1404.486534046257
 20
600.1741612673685
 30
0.0
 40
30.0
100
AcDbArc
 50
273.5578518661181
 51
359.9999999999999
  0
TEXT
  5
EB9
330
1F
100
AcDbEntity
  8
0
100
AcDbText
 10
1189.689272938006
 20
638.1633974030542
 30
0.0
 40
25.0
  1
4500R
100
AcDbText
  0
LEADER
  5
EBA
330
1F
100
AcDbEntity
  8
Cen
100
AcDbLeader
  3
ISO-25
 40
25.0
 41
16.66666666666666
 76
     2
 10
1230.740947627709
 20
560.2905392271646
 30
0.0
 10
1242.191835888016
 20
625.0464239851339
 30
0.0
213
0.0
223
12.5
233
0.0
1001
ACAD
1000
DSTYLE
1002
{
1070
    41
1040
25.0
1070
   147
1040
6.25
1070
    77
1070
     0
1070
   279
1070
     1
1002
}
  0
LEADER
  5
EBB
330
1F
100
AcDbEntity
  8
Cen
100
AcDbLeader
  3
ISO-25
 40
25.0
 41
16.66666666666666
 76
     2
 10
1334.433521511825
 20
570.7841170208644
 30
0.0
 10
1282.881331169809
 20
623.7347261730242
 30
0.0
213
0.0
223
12.5
233
0.0
1001
ACAD
1000
DSTYLE
1002
{
1070
    41
1040
25.0
1070
   147
1040
6.25
1070
    77
1070
     0
1070
   279
1070
     1
1002
}
  0
LINE
  5
ED9
330
1F
100
AcDbEntity
  8
0
100
AcDbLine
 10
1726.758193349749
 20
662.7512137773038
 30
0.0
 11
1848.779490296078
 21
662.7512137773037
 31
0.0
  0
LINE
  5
EDA
330
1F
100
AcDbEntity
  8
実形
100
AcDbLine
 10
1878.779490296077
 20
782.7512137773038
 30
0.0
 11
1878.779490296077
 21
692.7512137773037
 31
0.0
  0
ARC
  5
EDC
330
1F
100
AcDbEntity
  8
実形
100
AcDbCircle
 10
1848.779490296078
 20
692.7512137773037
 30
0.0
 40
30.0
100
AcDbArc
 50
269.9999999999999
 51
0.0
  0
LINE
  5
EDE
330
1F
100
AcDbEntity
  8
0
100
AcDbLine
 10
1726.758193349749
 20
652.7512137773038
 30
0.0
 11
1848.779490296078
 21
652.7512137773037
 31
0.0
  0
ARC
  5
EDF
330
1F
100
AcDbEntity
  8
実形
100
AcDbCircle
 10
1848.779490296078
 20
692.7512137773037
 30
0.0
 40
40.0
100
AcDbArc
 50
269.9999999999999
 51
318.5903778907286
  0
LEADER
  5
EE1
330
1F
100
AcDbEntity
  8
Cen
100
AcDbLeader
  3
ISO-25
 40
25.0
 41
16.66666666666666
 76
     2
 10
1863.320254901091
 20
679.0947846859827
 30
0.0
 10
1824.993379809845
 20
719.9759910529524
 30
0.0
213
0.0
223
-12.5
233
0.0
1001
ACAD
1000
DSTYLE
1002
{
1070
    41
1040
25.0
1070
   147
1040
6.25
1070
    77
1070
     0
1070
   279
1070
     1
1002
}
  0
TEXT
  5
EE2
330
1F
100
AcDbEntity
  8
0
100
AcDbText
 10
1778.762290008772
 20
729.876107610115
 30
0.0
 40
25.0
  1
3R
100
AcDbText
  0
LINE
  5
EFC
330
1F
100
AcDbEntity
  8
0
100
AcDbLine
 10
955.9865340462572
 20
544.9815140432122
 30
0.0
 11
1112.986534046258
 21
544.981514043212
 31
0.0
  0
LINE
  5
F02
330
1F
100
AcDbEntity
  8
0
100
AcDbLine
 10
1114.986534046257
 20
544.981514043212
 30
0.0
 11
1124.986534046257
 21
544.981514043212
 31
0.0
  0
DIMENSION
  5
1422
330
1F
100
AcDbEntity
  8
実形
100
AcDbDimension
  2
*D25
 10
646.5769596569145
 20
1379.548709174261
 30
0.0
 11
627.8269596569144
 21
1487.048709174261
 31
0.0
 70
    32
 71
     5
 42
215.0
  3
ISO-25
100
AcDbAlignedDimension
 13
767.4865340462574
 23
1594.548709174261
 33
0.0
 14
767.4865340462575
 24
1379.548709174261
 34
0.0
 50
90.0
100
AcDbRotatedDimension
1001
ACAD
1000
DSTYLE
1002
{
1070
   279
1070
     1
1002
}
  0
DIMENSION
  5
14F0
330
1F
100
AcDbEntity
  8
実形
100
AcDbDimension
  2
*D26
 10
666.3658665898346
 20
726.9815140432122
 30
0.0
 11
651.2183901787211
 21
775.3480111140134
 31
0.0
 70
   160
 71
     5
 42
15.0
  3
ISO-25
100
AcDbAlignedDimension
 13
784.4865340462576
 23
741.981514043212
 33
0.0
 14
784.4865340462579
 24
726.9815140432121
 34
0.0
 50
90.0
100
AcDbRotatedDimension
1001
ACAD
1000
DSTYLE
1002
{
1070
   279
1070
     1
1002
}
  0
DIMENSION
  5
14F1
330
1F
100
AcDbEntity
  8
実形
100
AcDbDimension
  2
*D27
 10
666.3658665898346
 20
551.9815140432123
 30
0.0
 11
651.6340834064394
 21
581.1048573320822
 31
0.0
 70
   160
 71
     5
 42
19.99999999999988
  3
ISO-25
100
AcDbAlignedDimension
 13
783.6686251290557
 23
571.981514043212
 33
0.0
 14
783.6686251290557
 24
551.9815140432122
 34
0.0
 50
90.0
100
AcDbRotatedDimension
1001
ACAD
1000
DSTYLE
1002
{
1070
   279
1070
     1
1002
}
  0
DIMENSION
  5
14F2
330
1F
100
AcDbEntity
  8
実形
100
AcDbDimension
  2
*D28
 10
666.3658665898346
 20
571.981514043212
 30
0.0
 11
655.3124273917892
 21
527.7766024585544
 31
0.0
 70
   160
  1
7
 71
     5
 42
29.99999999999989
  3
ISO-25
100
AcDbAlignedDimension
 13
784.0680508799305
 23
541.981514043212
 33
0.0
 14
755.2851227599676
 24
571.981514043212
 34
0.0
 50
90.0
100
AcDbRotatedDimension
1001
ACAD
1000
DSTYLE
1002
{
1070
   279
1070
     1
1002
}
  0
DIMENSION
  5
14F3
330
1F
100
AcDbEntity
  8
実形
100
AcDbDimension
  2
*D29
 10
579.8249681516481
 20
551.9815140432122
 30
0.0
 11
561.0749681516479
 21
646.9815140432122
 31
0.0
 70
    32
 71
     5
 42
189.9999999999998
  3
ISO-25
100
AcDbAlignedDimension
 13
749.1104007173962
 23
741.981514043212
 33
0.0
 14
749.1104007173962
 24
551.9815140432122
 34
0.0
 50
90.0
100
AcDbRotatedDimension
1001
ACAD
1000
DSTYLE
1002
{
1070
   279
1070
     1
1002
}
  0
ARC
  5
1554
330
1F
100
AcDbEntity
  8
実形
100
AcDbCircle
 10
1932.480863952434
 20
1639.548709174261
 30
0.0
 40
30.0
100
AcDbArc
 50
7.16936291862036
 51
90.0
  0
LINE
  5
1555
330
1F
100
AcDbEntity
  8
0
100
AcDbLine
 10
1976.943680007208
 20
1590.04870917426
 30
0.0
 11
1976.943680007208
 21
1409.048709174261
 31
0.0
  0
LINE
  5
1556
330
1F
100
AcDbEntity
  8
0
100
AcDbLine
 10
1968.943680007209
 20
1590.04870917426
 30
0.0
 11
1968.943680007209
 21
1564.548709174261
 31
0.0
  0
LINE
  5
1557
330
1F
100
AcDbEntity
  8
実形
100
AcDbLine
 10
1968.943680007209
 20
1590.04870917426
 30
0.0
 11
1976.943680007208
 21
1590.04870917426
 31
0.0
  0
LINE
  5
1558
330
1F
100
AcDbEntity
  8
実形
100
AcDbLine
 10
1968.943680007208
 20
1409.048709174261
 30
0.0
 11
1976.943680007208
 21
1409.048709174261
 31
0.0
  0
LINE
  5
1559
330
1F
100
AcDbEntity
  8
実形
100
AcDbLine
 10
1962.246311274609
 20
1643.292790598434
 30
0.0
 11
1968.943680007209
 21
1590.04870917426
 31
0.0
  0
LINE
  5
15C4
330
1F
100
AcDbEntity
  8
実形
100
AcDbLine
 10
2784.0
 20
2024.0
 30
0.0
 11
2784.0
 21
1894.0
 31
0.0
  0
LINE
  5
15C5
330
1F
100
AcDbEntity
  8
補助
100
AcDbLine
 10
2784.0
 20
1959.0
 30
0.0
 11
2019.387286519283
 21
1959.000000000001
 31
0.0
  0
LINE
  5
15C6
330
1F
100
AcDbEntity
  8
補助
100
AcDbLine
 10
2784.0
 20
1894.0
 30
0.0
 11
2019.387286519283
 21
1894.0
 31
0.0
  0
LINE
  5
15C7
330
1F
100
AcDbEntity
  8
補助
100
AcDbLine
 10
2202.547653420927
 20
1894.0
 30
0.0
 11
2202.547653420927
 21
2024.0
 31
0.0
  0
LINE
  5
15C8
330
1F
100
AcDbEntity
  8
補助
100
AcDbLine
 10
2019.387286519283
 20
1894.0
 30
0.0
 11
2019.387286519283
 21
2024.0
 31
0.0
  0
TEXT
  5
15C9
330
1F
100
AcDbEntity
  8
補助
100
AcDbText
 10
2050.295698850121
 20
1976.328571428572
 30
0.0
 40
30.0
  1
部品名
  7
明朝
 72
     4
 11
2116.124270278692
 21
1991.5
 31
0.0
100
AcDbText
  0
TEXT
  5
15CA
330
1F
100
AcDbEntity
  8
補助
100
AcDbText
 10
2627.614285714286
 20
1976.071428571429
 30
0.0
 40
30.0
  1
厚さ
  7
明朝
 72
     4
 11
2671.5
 21
1991.5
 31
0.0
100
AcDbText
  0
LINE
  5
15CB
330
1F
100
AcDbEntity
  8
補助
100
AcDbLine
 10
2559.0
 20
1894.0
 30
0.0
 11
2559.0
 21
2024.0
 31
0.0
  0
TEXT
  5
15CC
330
1F
100
AcDbEntity
  8
補助
100
AcDbText
 10
2338.490869919937
 20
1975.947979478155
 30
0.0
 40
30.0
  1
材質
  7
明朝
 72
     4
 11
2382.376584205651
 21
1991.119408049583
 31
0.0
100
AcDbText
  0
TEXT
  5
15CD
330
1F
100
AcDbEntity
  8
実形
100
AcDbText
 10
2048.227810657788
 20
1910.557142857143
 30
0.0
 40
30.0
  1
ボウル
  7
明朝
 72
     4
 11
2114.056382086359
 21
1926.5
 31
0.0
100
AcDbText
  0
TEXT
  5
15CE
330
1F
100
AcDbEntity
  8
実形
100
AcDbText
 10
2594.700000000001
 20
1911.842857142857
 30
0.0
 40
30.0
  1
0.7ｍｍ
  7
明朝
 72
     4
 11
2671.500000000001
 21
1926.5
 31
0.0
100
AcDbText
  0
TEXT
  5
15CF
330
1F
100
AcDbEntity
  8
実形
100
AcDbText
 10
2261.016869107866
 20
1910.728571428572
 30
0.0
 40
30.0
  1
SUS304（BA）
  7
明朝
 72
     4
 11
2392.674011965008
 21
1926.5
 31
0.0
100
AcDbText
  0
LINE
  5
15D0
330
1F
100
AcDbEntity
  8
補助
100
AcDbLine
 10
111.0
 20
2024.0
 30
0.0
 11
111.0
 21
4.0
 31
0.0
  0
VIEWPORT
  5
2E
102
{ACAD_XDICTIONARY
360
160A
102
}
330
1B
100
AcDbEntity
 67
     1
  8
0
100
AcDbViewport
 10
144.7270812988281
 20
101.2295806407928
 30
0.0
 40
411.6736216682419
 41
222.1517806396485
 68
     1
 69
     1
 12
144.7270812988281
 22
101.2295806407928
 13
0.0
 23
0.0
 14
10.0
 24
10.0
 15
10.0
 25
10.0
 16
0.0
 26
0.0
 36
1.0
 17
0.0
 27
0.0
 37
0.0
 42
50.0
 43
0.0
 44
0.0
 45
222.1517806396485
 50
0.0
 51
0.0
 72
   100
 90
    32800
  1

281
     0
 71
     1
 74
     0
110
0.0
120
0.0
130
0.0
111
1.0
121
0.0
131
0.0
112
0.0
122
1.0
132
0.0
 79
     0
146
0.0
  0
VIEWPORT
  5
30
102
{ACAD_XDICTIONARY
360
160C
102
}
330
1B
100
AcDbEntity
 67
     1
  8
0
100
AcDbViewport
 10
139.2237563133239
 20
101.2295821905136
 30
0.0
 40
222.7580101013184
 41
161.9673315048218
 68
     2
 69
     2
 12
210.0
 22
148.5
 13
0.0
 23
0.0
 14
10.0
 24
10.0
 15
10.0
 25
10.0
 16
0.0
 26
0.0
 36
1.0
 17
0.0
 27
0.0
 37
0.0
 42
50.0
 43
0.0
 44
0.0
 45
309.0686705647124
 50
0.0
 51
0.0
 72
   100
 90
    32864
  1

281
     0
 71
     1
 74
     0
110
0.0
120
0.0
130
0.0
111
1.0
121
0.0
131
0.0
112
0.0
122
1.0
132
0.0
 79
     0
146
0.0
  0
ENDSEC
  0
SECTION
  2
OBJECTS
  0
DICTIONARY
  5
C
330
0
100
AcDbDictionary
281
     1
  3
ACAD_COLOR
350
146A
  3
ACAD_GROUP
350
D
  3
ACAD_LAYOUT
350
1A
  3
ACAD_MATERIAL
350
1469
  3
ACAD_MLINESTYLE
350
17
  3
ACAD_PLOTSETTINGS
350
19
  3
ACAD_PLOTSTYLENAME
350
E
  3
ACAD_TABLESTYLE
350
146B
  3
AcadDim
350
5B1
  3
ACDBHEADERROUNDTRIPXREC
350
1603
  3
AcDbVariableDictionary
350
96D
  0
DICTIONARY
  5
14E3
330
2
100
AcDbDictionary
280
     1
281
     1
  3
ACAD_LAYERFILTERS
360
15B0
  3
ACAD_LAYERSTATES
360
14E4
  3
ACLYDICTIONARY
360
15AF
  0
DICTIONARY
  5
15D1
330
1F
100
AcDbDictionary
280
     1
281
     1
  3
ACAD_SORTENTS
360
15D2
  0
DICTIONARY
  5
160A
330
2E
100
AcDbDictionary
280
     1
281
     1
  3
ACAD_XREC_ROUNDTRIP
360
160B
  0
DICTIONARY
  5
160C
330
30
100
AcDbDictionary
280
     1
281
     1
  3
ACAD_XREC_ROUNDTRIP
360
160D
  0
DICTIONARY
  5
146A
102
{ACAD_REACTORS
330
C
102
}
330
C
100
AcDbDictionary
281
     1
  0
DICTIONARY
  5
D
102
{ACAD_REACTORS
330
C
102
}
330
C
100
AcDbDictionary
281
     1
  0
DICTIONARY
  5
1A
102
{ACAD_REACTORS
330
C
102
}
330
C
100
AcDbDictionary
281
     1
  3
Model
350
22
  3
ﾚｲｱｳﾄ1
350
1E
  3
ﾚｲｱｳﾄ2
350
26
  0
DICTIONARY
  5
1469
102
{ACAD_REACTORS
330
C
102
}
330
C
100
AcDbDictionary
281
     1
  0
DICTIONARY
  5
17
102
{ACAD_REACTORS
330
C
102
}
330
C
100
AcDbDictionary
281
     1
  3
Standard
350
18
  0
DICTIONARY
  5
19
102
{ACAD_REACTORS
330
C
102
}
330
C
100
AcDbDictionary
281
     1
  0
ACDBDICTIONARYWDFLT
  5
E
102
{ACAD_REACTORS
330
C
102
}
330
C
100
AcDbDictionary
281
     1
  3
Normal
350
F
100
AcDbDictionaryWithDefault
340
F
  0
DICTIONARY
  5
146B
102
{ACAD_REACTORS
330
C
102
}
330
C
100
AcDbDictionary
281
     1
  3
Standard
350
146C
  0
XRECORD
  5
5B1
102
{ACAD_REACTORS
330
C
102
}
330
C
100
AcDbXrecord
280
     1
 90
   990106
  3

 60
     0
 61
     0
 62
     1
 63
     3
 64
     0
 65
     0
 66
     0
 67
     3
 68
     1
 69
     0
 70
     0
 71
     0
 72
     0
 40
5.637859010809637
170
     0
340
0
  0
DICTIONARY
  5
1603
102
{ACAD_REACTORS
330
C
102
}
330
C
100
AcDbDictionary
281
     1
  0
DICTIONARY
  5
96D
102
{ACAD_REACTORS
330
C
102
}
330
C
100
AcDbDictionary
281
     1
  3
CTABLESTYLE
350
1472
  3
DIMASSOC
350
1600
  3
PROJECTNAME
350
1601
  3
SORTENTS
350
96E
  0
DICTIONARY
  5
15B0
102
{ACAD_REACTORS
330
14E3
102
}
330
14E3
100
AcDbDictionary
281
     1
  0
DICTIONARY
  5
14E4
102
{ACAD_REACTORS
330
14E3
102
}
330
14E3
100
AcDbDictionary
281
     1
  0
DICTIONARY
  5
15AF
102
{ACAD_REACTORS
330
14E3
102
}
330
14E3
100
AcDbDictionary
281
     1
1001
ACAD
1000
<All
  0
SORTENTSTABLE
  5
15D2
102
{ACAD_REACTORS
330
15D1
102
}
330
15D1
100
AcDbSortentsTable
330
1F
331
566
  5
56A
331
EB2
  5
EB6
331
EBA
  5
EBB
331
EDA
  5
EDC
331
586
  5
59F
331
A2C
  5
A2D
331
15C4
  5
15C5
331
15CC
  5
15CD
331
1555
  5
1556
331
AD
  5
25F
331
3E0
  5
3E3
331
32A
  5
32B
331
EE2
  5
EFC
331
48F
  5
492
331
4CE
  5
4CF
331
537
  5
53A
331
53F
  5
540
331
5F5
  5
5F6
331
F02
  5
1422
331
5FD
  5
5FE
331
DCC
  5
DCD
331
5AE
  5
5B0
331
265
  5
266
331
372
  5
373
331
4A7
  5
4AA
331
4AF
  5
4B0
331
52E
  5
532
331
55F
  5
560
331
4B7
  5
4B8
331
EBB
  5
ED9
331
A2D
  5
C9F
331
15C5
  5
15C6
331
15CD
  5
15CE
331
1556
  5
1557
331
2DC
  5
2E9
331
480
  5
48E
331
32B
  5
32C
331
39A
  5
39B
331
4CF
  5
4D0
331
59F
  5
5A0
331
540
  5
54B
331
5F6
  5
5F7
331
CB5
  5
DCC
331
5FE
  5
5FF
331
DCD
  5
DCF
331
14F0
  5
14F1
331
498
  5
499
331
3B2
  5
3BF
331
419
  5
41A
331
50F
  5
511
331
558
  5
55A
331
471
  5
473
331
304
  5
31C
331
266
  5
267
331
373
  5
376
331
560
  5
562
331
5B7
  5
5B8
331
4B0
  5
4B4
331
EDC
  5
EDE
331
15C6
  5
15C7
331
15CE
  5
15CF
331
1557
  5
1558
331
4B8
  5
4C1
331
31C
  5
32A
331
27E
  5
28B
331
32C
  5
32D
331
4D0
  5
4D1
331
40A
  5
40B
331
334
  5
335
331
39B
  5
3B2
331
5A0
  5
5A1
331
5F7
  5
5F8
331
EFC
  5
F02
331
5FF
  5
600
331
14F1
  5
14F2
331
1422
  5
14F0
331
33C
  5
340
331
499
  5
49A
331
25F
  5
260
331
2A6
  5
2B3
331
41A
  5
41E
331
5B0
  5
5B2
331
267
  5
26B
331
DE6
  5
DE7
331
5B8
  5
5B9
331
EAD
  5
EAE
331
5D0
  5
5D2
331
9C
  5
9C
331
15C7
  5
15C8
331
15CF
  5
15D0
331
1558
  5
1559
331
A8
  5
A9
331
384
  5
39A
331
4C1
  5
4CE
331
3E3
  5
3E4
331
532
  5
533
331
5D8
  5
5F4
331
32D
  5
32E
331
53A
  5
53C
331
C9F
  5
CB5
331
492
  5
493
331
335
  5
339
331
40B
  5
40D
331
4D1
  5
4D2
331
5A1
  5
5A9
331
5F8
  5
5F9
331
E8E
  5
EAD
331
5A9
  5
5AA
331
600
  5
601
331
DCF
  5
DD0
331
14F2
  5
14F3
331
413
  5
414
331
49A
  5
49B
331
511
  5
52C
331
260
  5
261
331
55A
  5
55C
331
473
  5
480
331
4AA
  5
4AB
331
DE7
  5
DE8
331
562
  5
563
331
5B9
  5
5BA
331
EAE
  5
EB1
331
EB6
  5
EB7
331
56A
  5
56C
331
E77
  5
E7F
331
EDE
  5
EDF
331
A5
  5
A8
331
15C8
  5
15C9
331
1559
  5
15C4
331
15D0
  5
A0
331
270
  5
27E
331
A9
  5
AA
331
3E4
  5
407
331
533
  5
537
331
32E
  5
32F
331
E7F
  5
E80
331
4D2
  5
50F
331
493
  5
494
331
5F9
  5
5FA
331
601
  5
602
331
54B
  5
54C
331
5AA
  5
5AD
331
DD0
  5
DD1
331
14F3
  5
1554
331
298
  5
2A6
331
2F7
  5
304
331
414
  5
415
331
49B
  5
49D
331
261
  5
262
331
5B2
  5
5B4
331
376
  5
384
331
4AB
  5
4AE
331
DE8
  5
E77
331
5BA
  5
5D0
331
563
  5
565
331
5D2
  5
5D8
331
EB7
  5
EB8
331
A29
  5
A2C
331
EDF
  5
EE1
331
15C9
  5
15CA
331
AA
  5
AB
331
3DD
  5
3DE
331
32F
  5
330
331
53C
  5
53D
331
E80
  5
E81
331
494
  5
495
331
40D
  5
413
331
5FA
  5
5FB
331
DD1
  5
DE6
331
54C
  5
54E
331
602
  5
603
331
415
  5
419
331
262
  5
263
331
55C
  5
55D
331
4B4
  5
4B5
331
EB8
  5
EB9
331
56C
  5
586
331
15CA
  5
15CB
331
AB
  5
AD
331
3DE
  5
3DF
331
2E9
  5
2F7
331
330
  5
331
331
53D
  5
53F
331
E81
  5
E8E
331
495
  5
496
331
5FB
  5
5FC
331
603
  5
A29
331
49D
  5
49E
331
340
  5
370
331
263
  5
264
331
370
  5
371
331
3BF
  5
3DD
331
41E
  5
471
331
5B4
  5
5B7
331
55D
  5
55F
331
26B
  5
270
331
52C
  5
52E
331
565
  5
566
331
EB1
  5
EB2
331
4B5
  5
4B7
331
EB9
  5
EBA
331
ED9
  5
EDA
331
A0
  5
A5
331
15CB
  5
15CC
331
1554
  5
1555
331
3DF
  5
3E0
331
28B
  5
298
331
EE1
  5
EE2
331
48E
  5
48F
331
331
  5
334
331
407
  5
40A
331
5F4
  5
5F5
331
496
  5
498
331
5FC
  5
5FD
331
54E
  5
558
331
5AD
  5
5AE
331
339
  5
33C
331
49E
  5
4A7
331
2B3
  5
2DC
331
264
  5
265
331
371
  5
372
331
4AE
  5
4AF
  0
XRECORD
  5
160B
102
{ACAD_REACTORS
330
160A
102
}
330
160A
100
AcDbXrecord
280
     1
102
SHADEPLOT
 70
     0
  0
XRECORD
  5
160D
102
{ACAD_REACTORS
330
160C
102
}
330
160C
100
AcDbXrecord
280
     1
102
SHADEPLOT
 70
     0
  0
LAYOUT
  5
22
102
{ACAD_XDICTIONARY
360
1606
102
}
102
{ACAD_REACTORS
330
1A
102
}
330
1A
100
AcDbPlotSettings
  1

  2
EPSON PM-800C
  4
A4
  6

 40
3.757083177566528
 41
14.7637300491333
 42
3.757080078125
 43
3.757080078125
 44
209.9733276367187
 45
296.9683227539062
 46
0.0
 47
0.0
 48
0.0
 49
0.0
140
0.0
141
0.0
142
1.0
143
10.0
 70
 11952
 72
     1
 73
     1
 74
     2
  7

 75
    20
147
0.1
148
0.0
149
0.0
100
AcDbLayout
  1
Model
 70
     1
 71
     0
 10
0.0
 20
0.0
 11
12.0
 21
9.0
 12
0.0
 22
0.0
 32
0.0
 14
0.0
 24
0.0
 34
0.0
 15
0.0
 25
0.0
 35
0.0
146
0.0
 13
0.0
 23
0.0
 33
0.0
 16
1.0
 26
0.0
 36
0.0
 17
0.0
 27
1.0
 37
0.0
 76
     0
330
1F
  0
LAYOUT
  5
1E
102
{ACAD_XDICTIONARY
360
1604
102
}
102
{ACAD_REACTORS
330
1A
102
}
330
1A
100
AcDbPlotSettings
  1

  2
EPSON PM-800C
  4
A4
  6

 40
3.757083177566528
 41
14.7637300491333
 42
3.757080078125
 43
3.757080078125
 44
209.9733276367187
 45
296.9683227539062
 46
0.0
 47
0.0
 48
0.0
 49
0.0
140
0.0
141
0.0
142
1.0
143
1.0
 70
   688
 72
     1
 73
     1
 74
     5
  7

 75
    16
147
1.0
148
0.0
149
0.0
100
AcDbLayout
  1
ﾚｲｱｳﾄ1
 70
     1
 71
     1
 10
-3.757080078125
 20
-3.757083177566528
 11
293.2112426757813
 21
206.2162444591522
 12
0.0
 22
0.0
 32
0.0
 14
27.8447512626648
 24
20.24591643810271
 34
0.0
 15
250.6027613639831
 25
182.2132479429245
 35
0.0
146
0.0
 13
0.0
 23
0.0
 33
0.0
 16
1.0
 26
0.0
 36
0.0
 17
0.0
 27
1.0
 37
0.0
 76
     0
330
1B
331
2E
  0
LAYOUT
  5
26
102
{ACAD_XDICTIONARY
360
1608
102
}
102
{ACAD_REACTORS
330
1A
102
}
330
1A
100
AcDbPlotSettings
  1

  2
EPSON PM-800C
  4

  6

 40
0.0
 41
0.0
 42
0.0
 43
0.0
 44
0.0
 45
0.0
 46
0.0
 47
0.0
 48
0.0
 49
0.0
140
0.0
141
0.0
142
1.0
143
1.0
 70
   688
 72
     0
 73
     0
 74
     5
  7

 75
    16
147
1.0
148
0.0
149
0.0
100
AcDbLayout
  1
ﾚｲｱｳﾄ2
 70
     1
 71
     2
 10
0.0
 20
0.0
 11
12.0
 21
9.0
 12
0.0
 22
0.0
 32
0.0
 14
0.0
 24
0.0
 34
0.0
 15
0.0
 25
0.0
 35
0.0
146
0.0
 13
0.0
 23
0.0
 33
0.0
 16
1.0
 26
0.0
 36
0.0
 17
0.0
 27
1.0
 37
0.0
 76
     0
330
23
  0
MLINESTYLE
  5
18
102
{ACAD_REACTORS
330
17
102
}
330
17
100
AcDbMlineStyle
  2
STANDARD
 70
     0
  3

 62
   256
 51
90.0
 52
90.0
 71
     2
 49
0.5
 62
   256
  6
BYLAYER
 49
-0.5
 62
   256
  6
BYLAYER
  0
ACDBPLACEHOLDER
  5
F
102
{ACAD_REACTORS
330
E
102
}
330
E
  0
TABLESTYLE
  5
146C
102
{ACAD_REACTORS
330
146B
102
}
330
146B
100
AcDbTableStyle
  3
Standard
 70
     0
 71
     0
 40
1.5
 41
1.5
280
     0
281
     0
  7
Standard
140
4.5
170
     2
 62
     0
 63
     7
283
     0
274
    -2
284
     1
 64
     0
275
    -2
285
     1
 65
     0
276
    -2
286
     1
 66
     0
277
    -2
287
     1
 67
     0
278
    -2
288
     1
 68
     0
279
    -2
289
     1
 69
     0
  7
Standard
140
6.0
170
     5
 62
     0
 63
     7
283
     0
274
    -2
284
     1
 64
     0
275
    -2
285
     1
 65
     0
276
    -2
286
     1
 66
     0
277
    -2
287
     1
 67
     0
278
    -2
288
     1
 68
     0
279
    -2
289
     1
 69
     0
  7
Standard
140
4.5
170
     5
 62
     0
 63
     7
283
     0
274
    -2
284
     1
 64
     0
275
    -2
285
     1
 65
     0
276
    -2
286
     1
 66
     0
277
    -2
287
     1
 67
     0
278
    -2
288
     1
 68
     0
279
    -2
289
     1
 69
     0
  0
DICTIONARYVAR
  5
1472
102
{ACAD_REACTORS
330
96D
102
}
330
96D
100
DictionaryVariables
280
     0
  1
STANDARD
  0
DICTIONARYVAR
  5
1600
102
{ACAD_REACTORS
330
96D
102
}
330
96D
100
DictionaryVariables
280
     0
  1
1
  0
DICTIONARYVAR
  5
1601
102
{ACAD_REACTORS
330
96D
102
}
330
96D
100
DictionaryVariables
280
     0
  1

  0
DICTIONARYVAR
  5
96E
102
{ACAD_REACTORS
330
96D
102
}
330
96D
100
DictionaryVariables
280
     0
  1
96
  0
DICTIONARY
  5
1606
330
22
100
AcDbDictionary
280
     1
281
     1
  3
ACAD_XREC_ROUNDTRIP
360
1607
  0
DICTIONARY
  5
1604
330
1E
100
AcDbDictionary
280
     1
281
     1
  3
ACAD_XREC_ROUNDTRIP
360
1605
  0
DICTIONARY
  5
1608
330
26
100
AcDbDictionary
280
     1
281
     1
  3
ACAD_XREC_ROUNDTRIP
360
1609
  0
XRECORD
  5
1607
102
{ACAD_REACTORS
330
1606
102
}
330
1606
100
AcDbXrecord
280
     1
102
SHADEPLOT
 70
     0
102
SHADEPLOTRESLEVEL
 70
     2
102
SHADEPLOTCUSTOMDPI
 70
   300
  0
XRECORD
  5
1605
102
{ACAD_REACTORS
330
1604
102
}
330
1604
100
AcDbXrecord
280
     1
102
SHADEPLOT
 70
     0
102
SHADEPLOTRESLEVEL
 70
     2
102
SHADEPLOTCUSTOMDPI
 70
   300
  0
XRECORD
  5
1609
102
{ACAD_REACTORS
330
1608
102
}
330
1608
100
AcDbXrecord
280
     1
102
SHADEPLOT
 70
     0
102
SHADEPLOTRESLEVEL
 70
     2
102
SHADEPLOTCUSTOMDPI
 70
   300
  0
ENDSEC
  0
EOF
