  0
SECTION
  2
HEADER
  9
$ACADVER
  1
AC1015
  9
$ACADMAINTVER
 70
    20
  9
$DWGCODEPAGE
  3
ANSI_932
  9
$INSBASE
 10
0.0
 20
0.0
 30
0.0
  9
$EXTMIN
 10
111.0
 20
4.0
 30
0.0
  9
$EXTMAX
 10
2784.000000000001
 20
2024.0
 30
0.0
  9
$LIMMIN
 10
0.0
 20
0.0
  9
$LIMMAX
 10
29700.0
 20
21000.0
  9
$ORTHOMODE
 70
     0
  9
$REGENMODE
 70
     1
  9
$FILLMODE
 70
     1
  9
$QTEXTMODE
 70
     0
  9
$MIRRTEXT
 70
     1
  9
$LTSCALE
 40
4.0
  9
$ATTMODE
 70
     1
  9
$TEXTSIZE
 40
35.0
  9
$TRACEWID
 40
1.0
  9
$TEXTSTYLE
  7
Standard
  9
$CLAYER
  8
実形
  9
$CELTYPE
  6
ByLayer
  9
$CECOLOR
 62
   256
  9
$CELTSCALE
 40
1.0
  9
$DISPSILH
 70
     0
  9
$DIMSCALE
 40
1.0
  9
$DIMASZ
 40
30.0
  9
$DIMEXO
 40
65.0
  9
$DIMDLI
 40
3.75
  9
$DIMRND
 40
0.0
  9
$DIMDLE
 40
0.0
  9
$DIMEXE
 40
0.0
  9
$DIMTP
 40
0.0
  9
$DIMTM
 40
0.0
  9
$DIMTXT
 40
25.0
  9
$DIMCEN
 40
2.5
  9
$DIMTSZ
 40
0.0
  9
$DIMTOL
 70
     0
  9
$DIMLIM
 70
     0
  9
$DIMTIH
 70
     0
  9
$DIMTOH
 70
     0
  9
$DIMSE1
 70
     0
  9
$DIMSE2
 70
     0
  9
$DIMTAD
 70
     1
  9
$DIMZIN
 70
     8
  9
$DIMBLK
  1
DotSmall
  9
$DIMASO
 70
     1
  9
$DIMSHO
 70
     1
  9
$DIMPOST
  1

  9
$DIMAPOST
  1

  9
$DIMALT
 70
     0
  9
$DIMALTD
 70
     3
  9
$DIMALTF
 40
0.03937007874016
  9
$DIMLFAC
 40
1.0
  9
$DIMTOFL
 70
     1
  9
$DIMTVP
 40
0.0
  9
$DIMTIX
 70
     0
  9
$DIMSOXD
 70
     0
  9
$DIMSAH
 70
     0
  9
$DIMBLK1
  1

  9
$DIMBLK2
  1

  9
$DIMSTYLE
  2
ISO-25
  9
$DIMCLRD
 70
     0
  9
$DIMCLRE
 70
     0
  9
$DIMCLRT
 70
     0
  9
$DIMTFAC
 40
1.0
  9
$DIMGAP
 40
6.25
  9
$DIMJUST
 70
     0
  9
$DIMSD1
 70
     0
  9
$DIMSD2
 70
     0
  9
$DIMTOLJ
 70
     0
  9
$DIMTZIN
 70
     8
  9
$DIMALTZ
 70
     0
  9
$DIMALTTZ
 70
     0
  9
$DIMUPT
 70
     0
  9
$DIMDEC
 70
     2
  9
$DIMTDEC
 70
     2
  9
$DIMALTU
 70
     2
  9
$DIMALTTD
 70
     3
  9
$DIMTXSTY
  7
Standard
  9
$DIMAUNIT
 70
     0
  9
$DIMADEC
 70
     0
  9
$DIMALTRND
 40
0.0
  9
$DIMAZIN
 70
     0
  9
$DIMDSEP
 70
    46
  9
$DIMATFIT
 70
     3
  9
$DIMFRAC
 70
     0
  9
$DIMLDRBLK
  1
Open30
  9
$DIMLUNIT
 70
     2
  9
$DIMLWD
 70
    15
  9
$DIMLWE
 70
    15
  9
$DIMTMOVE
 70
     1
  9
$LUNITS
 70
     2
  9
$LUPREC
 70
     2
  9
$SKETCHINC
 40
1.0
  9
$FILLETRAD
 40
30.0
  9
$AUNITS
 70
     0
  9
$AUPREC
 70
     0
  9
$MENU
  1
.
  9
$ELEVATION
 40
0.0
  9
$PELEVATION
 40
0.0
  9
$THICKNESS
 40
0.0
  9
$LIMCHECK
 70
     1
  9
$CHAMFERA
 40
10.0
  9
$CHAMFERB
 40
10.0
  9
$CHAMFERC
 40
20.0
  9
$CHAMFERD
 40
0.0
  9
$SKPOLY
 70
     0
  9
$TDCREATE
 40
2451673.575802199
  9
$TDUCREATE
 40
2451673.200802199
  9
$TDUPDATE
 40
2458803.798666215
  9
$TDUUPDATE
 40
2458803.423666215
  9
$TDINDWG
 40
0.8642498032
  9
$TDUSRTIMER
 40
0.8642491088
  9
$USRTIMER
 70
     1
  9
$ANGBASE
 50
0.0
  9
$ANGDIR
 70
     0
  9
$PDMODE
 70
     0
  9
$PDSIZE
 40
0.0
  9
$PLINEWID
 40
0.0
  9
$SPLFRAME
 70
     0
  9
$SPLINETYPE
 70
     6
  9
$SPLINESEGS
 70
     8
  9
$HANDSEED
  5
1C54
  9
$SURFTAB1
 70
     6
  9
$SURFTAB2
 70
     6
  9
$SURFTYPE
 70
     6
  9
$SURFU
 70
     6
  9
$SURFV
 70
     6
  9
$UCSBASE
  2

  9
$UCSNAME
  2

  9
$UCSORG
 10
0.0
 20
0.0
 30
0.0
  9
$UCSXDIR
 10
1.0
 20
0.0
 30
0.0
  9
$UCSYDIR
 10
0.0
 20
1.0
 30
0.0
  9
$UCSORTHOREF
  2

  9
$UCSORTHOVIEW
 70
     0
  9
$UCSORGTOP
 10
0.0
 20
0.0
 30
0.0
  9
$UCSORGBOTTOM
 10
0.0
 20
0.0
 30
0.0
  9
$UCSORGLEFT
 10
0.0
 20
0.0
 30
0.0
  9
$UCSORGRIGHT
 10
0.0
 20
0.0
 30
0.0
  9
$UCSORGFRONT
 10
0.0
 20
0.0
 30
0.0
  9
$UCSORGBACK
 10
0.0
 20
0.0
 30
0.0
  9
$PUCSBASE
  2

  9
$PUCSNAME
  2

  9
$PUCSORG
 10
0.0
 20
0.0
 30
0.0
  9
$PUCSXDIR
 10
1.0
 20
0.0
 30
0.0
  9
$PUCSYDIR
 10
0.0
 20
1.0
 30
0.0
  9
$PUCSORTHOREF
  2

  9
$PUCSORTHOVIEW
 70
     0
  9
$PUCSORGTOP
 10
0.0
 20
0.0
 30
0.0
  9
$PUCSORGBOTTOM
 10
0.0
 20
0.0
 30
0.0
  9
$PUCSORGLEFT
 10
0.0
 20
0.0
 30
0.0
  9
$PUCSORGRIGHT
 10
0.0
 20
0.0
 30
0.0
  9
$PUCSORGFRONT
 10
0.0
 20
0.0
 30
0.0
  9
$PUCSORGBACK
 10
0.0
 20
0.0
 30
0.0
  9
$USERI1
 70
     0
  9
$USERI2
 70
     0
  9
$USERI3
 70
     0
  9
$USERI4
 70
     0
  9
$USERI5
 70
     0
  9
$USERR1
 40
0.0
  9
$USERR2
 40
0.0
  9
$USERR3
 40
0.0
  9
$USERR4
 40
0.0
  9
$USERR5
 40
0.0
  9
$WORLDVIEW
 70
     1
  9
$SHADEDGE
 70
     3
  9
$SHADEDIF
 70
    70
  9
$TILEMODE
 70
     1
  9
$MAXACTVP
 70
    64
  9
$PINSBASE
 10
0.0
 20
0.0
 30
0.0
  9
$PLIMCHECK
 70
     0
  9
$PEXTMIN
 10
27.8447512626648
 20
20.24591643810271
 30
0.0
  9
$PEXTMAX
 10
250.6027613639831
 20
182.2132479429245
 30
0.0
  9
$PLIMMIN
 10
-3.757080078125
 20
-3.757083177566528
  9
$PLIMMAX
 10
293.2112426757813
 20
206.2162444591522
  9
$UNITMODE
 70
     0
  9
$VISRETAIN
 70
     1
  9
$PLINEGEN
 70
     0
  9
$PSLTSCALE
 70
     1
  9
$TREEDEPTH
 70
  3020
  9
$CMLSTYLE
  2
Standard
  9
$CMLJUST
 70
     0
  9
$CMLSCALE
 40
20.0
  9
$PROXYGRAPHICS
 70
     1
  9
$MEASUREMENT
 70
     1
  9
$CELWEIGHT
370
    -1
  9
$ENDCAPS
280
     0
  9
$JOINSTYLE
280
     0
  9
$LWDISPLAY
290
     0
  9
$INSUNITS
 70
     4
  9
$HYPERLINKBASE
  1

  9
$STYLESHEET
  1

  9
$XEDIT
290
     1
  9
$CEPSNTYPE
380
     0
  9
$PSTYLEMODE
290
     1
  9
$FINGERPRINTGUID
  2
{C8EA1F16-24C9-11D4-9416-CE0A3B32152F}
  9
$VERSIONGUID
  2
{37C004C1-7BBC-47B6-97A2-373E0DC66147}
  9
$EXTNAMES
290
     1
  9
$PSVPSCALE
 40
0.0
  9
$OLESTARTUP
290
     0
  0
ENDSEC
  0
SECTION
  2
CLASSES
  0
CLASS
  1
ACDBDICTIONARYWDFLT
  2
AcDbDictionaryWithDefault
  3
ObjectDBX Classes
 90
        0
280
     0
281
     0
  0
CLASS
  1
ACDBPLACEHOLDER
  2
AcDbPlaceHolder
  3
ObjectDBX Classes
 90
        0
280
     0
281
     0
  0
CLASS
  1
LAYOUT
  2
AcDbLayout
  3
ObjectDBX Classes
 90
        0
280
     0
281
     0
  0
CLASS
  1
DICTIONARYVAR
  2
AcDbDictionaryVar
  3
ObjectDBX Classes
 90
        0
280
     0
281
     0
  0
CLASS
  1
TABLESTYLE
  2
AcDbTableStyle
  3
ObjectDBX Classes
 90
     2047
280
     0
281
     0
  0
CLASS
  1
SORTENTSTABLE
  2
AcDbSortentsTable
  3
ObjectDBX Classes
 90
        0
280
     0
281
     0
  0
ENDSEC
  0
SECTION
  2
TABLES
  0
TABLE
  2
VPORT
  5
8
330
0
100
AcDbSymbolTable
 70
     2
  0
VPORT
  5
1C48
330
8
100
AcDbSymbolTableRecord
100
AcDbViewportTableRecord
  2
*Active
 70
     0
 10
0.0
 20
0.0
 11
1.0
 21
1.0
 12
1336.176036122439
 22
979.4279685330108
 13
0.0
 23
0.0
 14
10.0
 24
10.0
 15
10.0
 25
10.0
 16
0.0
 26
0.0
 36
1.0
 17
0.0
 27
0.0
 37
0.0
 40
2507.456972644753
 41
1.29038112522686
 42
50.0
 43
0.0
 44
0.0
 50
0.0
 51
0.0
 71
     0
 72
   100
 73
     1
 74
     3
 75
     0
 76
     0
 77
     0
 78
     0
281
     0
 65
     1
110
0.0
120
0.0
130
0.0
111
1.0
121
0.0
131
0.0
112
0.0
122
1.0
132
0.0
 79
     0
146
0.0
  0
ENDTAB
  0
TABLE
  2
LTYPE
  5
5
330
0
100
AcDbSymbolTable
 70
    46
  0
LTYPE
  5
14
330
5
100
AcDbSymbolTableRecord
100
AcDbLinetypeTableRecord
  2
ByBlock
 70
     0
  3

 72
    65
 73
     0
 40
0.0
  0
LTYPE
  5
15
330
5
100
AcDbSymbolTableRecord
100
AcDbLinetypeTableRecord
  2
ByLayer
 70
     0
  3

 72
    65
 73
     0
 40
0.0
  0
LTYPE
  5
16
330
5
100
AcDbSymbolTableRecord
100
AcDbLinetypeTableRecord
  2
Continuous
 70
     0
  3
Solid line
 72
    65
 73
     0
 40
0.0
  0
LTYPE
  5
34
330
5
100
AcDbSymbolTableRecord
100
AcDbLinetypeTableRecord
  2
ACAD_ISO02W100
 70
     0
  3
ISO dash __ __ __ __ __ __ __ __ __ __ __ __ __
 72
    65
 73
     2
 40
15.0
 49
12.0
 74
     0
 49
-3.0
 74
     0
  0
LTYPE
  5
35
330
5
100
AcDbSymbolTableRecord
100
AcDbLinetypeTableRecord
  2
ACAD_ISO03W100
 70
     0
  3
ISO dash space __    __    __    __    __    __
 72
    65
 73
     2
 40
30.0
 49
12.0
 74
     0
 49
-18.0
 74
     0
  0
LTYPE
  5
36
330
5
100
AcDbSymbolTableRecord
100
AcDbLinetypeTableRecord
  2
ACAD_ISO04W100
 70
     0
  3
ISO long-dash dot ____ . ____ . ____ . ____ . _
 72
    65
 73
     4
 40
30.0
 49
24.0
 74
     0
 49
-3.0
 74
     0
 49
0.0
 74
     0
 49
-3.0
 74
     0
  0
LTYPE
  5
37
330
5
100
AcDbSymbolTableRecord
100
AcDbLinetypeTableRecord
  2
ACAD_ISO05W100
 70
     0
  3
ISO long-dash double-dot ____ .. ____ .. ____ .
 72
    65
 73
     6
 40
34.0
 49
24.0
 74
     0
 49
-3.0
 74
     0
 49
0.5
 74
     0
 49
-3.0
 74
     0
 49
0.5
 74
     0
 49
-3.0
 74
     0
  0
LTYPE
  5
38
330
5
100
AcDbSymbolTableRecord
100
AcDbLinetypeTableRecord
  2
ACAD_ISO06W100
 70
     0
  3
ISO long-dash triple-dot ____ ... ____ ... ____
 72
    65
 73
     8
 40
37.5
 49
24.0
 74
     0
 49
-3.0
 74
     0
 49
0.5
 74
     0
 49
-3.0
 74
     0
 49
0.5
 74
     0
 49
-3.0
 74
     0
 49
0.5
 74
     0
 49
-3.0
 74
     0
  0
LTYPE
  5
39
330
5
100
AcDbSymbolTableRecord
100
AcDbLinetypeTableRecord
  2
ACAD_ISO07W100
 70
     0
  3
ISO dot . . . . . . . . . . . . . . . . . . . .
 72
    65
 73
     2
 40
3.0
 49
0.0
 74
     0
 49
-3.0
 74
     0
  0
LTYPE
  5
3A
330
5
100
AcDbSymbolTableRecord
100
AcDbLinetypeTableRecord
  2
ACAD_ISO08W100
 70
     0
  3
ISO long-dash short-dash ____ __ ____ __ ____ _
 72
    65
 73
     4
 40
36.0
 49
24.0
 74
     0
 49
-3.0
 74
     0
 49
6.0
 74
     0
 49
-3.0
 74
     0
  0
LTYPE
  5
3B
330
5
100
AcDbSymbolTableRecord
100
AcDbLinetypeTableRecord
  2
ACAD_ISO09W100
 70
     0
  3
ISO long-dash double-short-dash ____ __ __ ____
 72
    65
 73
     6
 40
45.0
 49
24.0
 74
     0
 49
-3.0
 74
     0
 49
6.0
 74
     0
 49
-3.0
 74
     0
 49
6.0
 74
     0
 49
-3.0
 74
     0
  0
LTYPE
  5
3C
330
5
100
AcDbSymbolTableRecord
100
AcDbLinetypeTableRecord
  2
ACAD_ISO10W100
 70
     0
  3
ISO dash dot __ . __ . __ . __ . __ . __ . __ .
 72
    65
 73
     4
 40
18.0
 49
12.0
 74
     0
 49
-3.0
 74
     0
 49
0.0
 74
     0
 49
-3.0
 74
     0
  0
LTYPE
  5
3D
330
5
100
AcDbSymbolTableRecord
100
AcDbLinetypeTableRecord
  2
ACAD_ISO11W100
 70
     0
  3
ISO double-dash dot __ __ . __ __ . __ __ . __ 
 72
    65
 73
     6
 40
33.0
 49
12.0
 74
     0
 49
-3.0
 74
     0
 49
12.0
 74
     0
 49
-3.0
 74
     0
 49
0.0
 74
     0
 49
-3.0
 74
     0
  0
LTYPE
  5
3E
330
5
100
AcDbSymbolTableRecord
100
AcDbLinetypeTableRecord
  2
ACAD_ISO12W100
 70
     0
  3
ISO dash double-dot __ . . __ . . __ . . __ . .
 72
    65
 73
     6
 40
21.0
 49
12.0
 74
     0
 49
-3.0
 74
     0
 49
0.0
 74
     0
 49
-3.0
 74
     0
 49
0.0
 74
     0
 49
-3.0
 74
     0
  0
LTYPE
  5
3F
330
5
100
AcDbSymbolTableRecord
100
AcDbLinetypeTableRecord
  2
ACAD_ISO13W100
 70
     0
  3
ISO double-dash double-dot __ __ . . __ __ . . 
 72
    65
 73
     8
 40
36.0
 49
12.0
 74
     0
 49
-3.0
 74
     0
 49
12.0
 74
     0
 49
-3.0
 74
     0
 49
0.0
 74
     0
 49
-3.0
 74
     0
 49
0.0
 74
     0
 49
-3.0
 74
     0
  0
LTYPE
  5
40
330
5
100
AcDbSymbolTableRecord
100
AcDbLinetypeTableRecord
  2
ACAD_ISO14W100
 70
     0
  3
ISO dash triple-dot __ . . . __ . . . __ . . . 
 72
    65
 73
     8
 40
24.0
 49
12.0
 74
     0
 49
-3.0
 74
     0
 49
0.0
 74
     0
 49
-3.0
 74
     0
 49
0.0
 74
     0
 49
-3.0
 74
     0
 49
0.0
 74
     0
 49
-3.0
 74
     0
  0
LTYPE
  5
41
330
5
100
AcDbSymbolTableRecord
100
AcDbLinetypeTableRecord
  2
ACAD_ISO15W100
 70
     0
  3
ISO double-dash triple-dot __ __ . . . __ __ . 
 72
    65
 73
    10
 40
39.0
 49
12.0
 74
     0
 49
-3.0
 74
     0
 49
12.0
 74
     0
 49
-3.0
 74
     0
 49
0.0
 74
     0
 49
-3.0
 74
     0
 49
0.0
 74
     0
 49
-3.0
 74
     0
 49
0.0
 74
     0
 49
-3.0
 74
     0
  0
LTYPE
  5
42
330
5
100
AcDbSymbolTableRecord
100
AcDbLinetypeTableRecord
  2
BATTING
 70
     0
  3
Batting SSSSSSSSSSSSSSSSSSSSSSSSSSSSSSSSSSSSSSS
 72
    65
 73
     4
 40
10.16254
 49
0.00254
 74
     0
 49
-2.54
 74
     4
 75
   134
340
33
 46
2.54
 50
0.0
 44
-2.54
 45
0.0
 49
-5.08
 74
     4
 75
   134
340
33
 46
2.54
 50
180.0
 44
2.54
 45
0.0
 49
-2.54
 74
     0
  0
LTYPE
  5
43
330
5
100
AcDbSymbolTableRecord
100
AcDbLinetypeTableRecord
  2
BORDER
 70
     0
  3
Border __ __ . __ __ . __ __ . __ __ . __ __ .
 72
    65
 73
     6
 40
44.45
 49
12.7
 74
     0
 49
-6.349999999999999
 74
     0
 49
12.7
 74
     0
 49
-6.349999999999999
 74
     0
 49
0.0
 74
     0
 49
-6.349999999999999
 74
     0
  0
LTYPE
  5
44
330
5
100
AcDbSymbolTableRecord
100
AcDbLinetypeTableRecord
  2
BORDER2
 70
     0
  3
Border (.5x) __.__.__.__.__.__.__.__.__.__.__.
 72
    65
 73
     6
 40
22.225
 49
6.349999999999999
 74
     0
 49
-3.174999999999999
 74
     0
 49
6.349999999999999
 74
     0
 49
-3.174999999999999
 74
     0
 49
0.0
 74
     0
 49
-3.174999999999999
 74
     0
  0
LTYPE
  5
45
330
5
100
AcDbSymbolTableRecord
100
AcDbLinetypeTableRecord
  2
BORDERX2
 70
     0
  3
Border (2x) ____  ____  .  ____  ____  .  ___
 72
    65
 73
     6
 40
88.9
 49
25.4
 74
     0
 49
-12.7
 74
     0
 49
25.4
 74
     0
 49
-12.7
 74
     0
 49
0.0
 74
     0
 49
-12.7
 74
     0
  0
LTYPE
  5
46
330
5
100
AcDbSymbolTableRecord
100
AcDbLinetypeTableRecord
  2
CENTER
 70
     0
  3
Center ____ _ ____ _ ____ _ ____ _ ____ _ ____
 72
    65
 73
     4
 40
50.8
 49
31.75
 74
     0
 49
-6.349999999999999
 74
     0
 49
6.349999999999999
 74
     0
 49
-6.349999999999999
 74
     0
  0
LTYPE
  5
47
330
5
100
AcDbSymbolTableRecord
100
AcDbLinetypeTableRecord
  2
CENTER2
 70
     0
  3
Center (.5x) ___ _ ___ _ ___ _ ___ _ ___ _ ___
 72
    65
 73
     4
 40
28.575
 49
19.05
 74
     0
 49
-3.174999999999999
 74
     0
 49
3.174999999999999
 74
     0
 49
-3.174999999999999
 74
     0
  0
LTYPE
  5
48
330
5
100
AcDbSymbolTableRecord
100
AcDbLinetypeTableRecord
  2
CENTERX2
 70
     0
  3
Center (2x) ________  __  ________  __  _____
 72
    65
 73
     4
 40
101.6
 49
63.5
 74
     0
 49
-12.7
 74
     0
 49
12.7
 74
     0
 49
-12.7
 74
     0
  0
LTYPE
  5
49
330
5
100
AcDbSymbolTableRecord
100
AcDbLinetypeTableRecord
  2
DASHDOT
 70
     0
  3
Dash dot __ . __ . __ . __ . __ . __ . __ . __
 72
    65
 73
     4
 40
25.4
 49
12.7
 74
     0
 49
-6.349999999999999
 74
     0
 49
0.0
 74
     0
 49
-6.349999999999999
 74
     0
  0
LTYPE
  5
4A
330
5
100
AcDbSymbolTableRecord
100
AcDbLinetypeTableRecord
  2
DASHDOT2
 70
     0
  3
Dash dot (.5x) _._._._._._._._._._._._._._._.
 72
    65
 73
     4
 40
12.7
 49
6.349999999999999
 74
     0
 49
-3.174999999999999
 74
     0
 49
0.0
 74
     0
 49
-3.174999999999999
 74
     0
  0
LTYPE
  5
4B
330
5
100
AcDbSymbolTableRecord
100
AcDbLinetypeTableRecord
  2
DASHDOTX2
 70
     0
  3
Dash dot (2x) ____  .  ____  .  ____  .  ___
 72
    65
 73
     4
 40
50.8
 49
25.4
 74
     0
 49
-12.7
 74
     0
 49
0.0
 74
     0
 49
-12.7
 74
     0
  0
LTYPE
  5
4C
330
5
100
AcDbSymbolTableRecord
100
AcDbLinetypeTableRecord
  2
DASHED
 70
     0
  3
Dashed __ __ __ __ __ __ __ __ __ __ __ __ __ _
 72
    65
 73
     2
 40
19.05
 49
12.7
 74
     0
 49
-6.349999999999999
 74
     0
  0
LTYPE
  5
4D
330
5
100
AcDbSymbolTableRecord
100
AcDbLinetypeTableRecord
  2
DASHED2
 70
     0
  3
Dashed (.5x) _ _ _ _ _ _ _ _ _ _ _ _ _ _ _ _ _
 72
    65
 73
     2
 40
9.524999999999998
 49
6.349999999999999
 74
     0
 49
-3.174999999999999
 74
     0
  0
LTYPE
  5
4E
330
5
100
AcDbSymbolTableRecord
100
AcDbLinetypeTableRecord
  2
DASHEDX2
 70
     0
  3
Dashed (2x) ____  ____  ____  ____  ____  ___
 72
    65
 73
     2
 40
38.1
 49
25.4
 74
     0
 49
-12.7
 74
     0
  0
LTYPE
  5
4F
330
5
100
AcDbSymbolTableRecord
100
AcDbLinetypeTableRecord
  2
DIVIDE
 70
     0
  3
Divide ____ . . ____ . . ____ . . ____ . . ____
 72
    65
 73
     6
 40
31.75
 49
12.7
 74
     0
 49
-6.349999999999999
 74
     0
 49
0.0
 74
     0
 49
-6.349999999999999
 74
     0
 49
0.0
 74
     0
 49
-6.349999999999999
 74
     0
  0
LTYPE
  5
50
330
5
100
AcDbSymbolTableRecord
100
AcDbLinetypeTableRecord
  2
DIVIDE2
 70
     0
  3
Divide (.5x) __..__..__..__..__..__..__..__.._
 72
    65
 73
     6
 40
15.875
 49
6.349999999999999
 74
     0
 49
-3.174999999999999
 74
     0
 49
0.0
 74
     0
 49
-3.174999999999999
 74
     0
 49
0.0
 74
     0
 49
-3.174999999999999
 74
     0
  0
LTYPE
  5
51
330
5
100
AcDbSymbolTableRecord
100
AcDbLinetypeTableRecord
  2
DIVIDEX2
 70
     0
  3
Divide (2x) ________  .  .  ________  .  .  _
 72
    65
 73
     6
 40
63.49999999999999
 49
25.4
 74
     0
 49
-12.7
 74
     0
 49
0.0
 74
     0
 49
-12.7
 74
     0
 49
0.0
 74
     0
 49
-12.7
 74
     0
  0
LTYPE
  5
52
330
5
100
AcDbSymbolTableRecord
100
AcDbLinetypeTableRecord
  2
DOT
 70
     0
  3
Dot . . . . . . . . . . . . . . . . . . . . . .
 72
    65
 73
     2
 40
6.349999999999999
 49
0.0
 74
     0
 49
-6.349999999999999
 74
     0
  0
LTYPE
  5
53
330
5
100
AcDbSymbolTableRecord
100
AcDbLinetypeTableRecord
  2
DOT2
 70
     0
  3
Dot (.5x) .....................................
 72
    65
 73
     2
 40
3.174999999999999
 49
0.0
 74
     0
 49
-3.174999999999999
 74
     0
  0
LTYPE
  5
54
330
5
100
AcDbSymbolTableRecord
100
AcDbLinetypeTableRecord
  2
DOTX2
 70
     0
  3
Dot (2x) .  .  .  .  .  .  .  .  .  .  .  .  . 
 72
    65
 73
     2
 40
12.7
 49
0.0
 74
     0
 49
-12.7
 74
     0
  0
LTYPE
  5
55
330
5
100
AcDbSymbolTableRecord
100
AcDbLinetypeTableRecord
  2
FENCELINE1
 70
     0
  3
Fenceline circle ----0-----0----0-----0----0---
 72
    65
 73
     4
 40
36.83
 49
6.349999999999999
 74
     0
 49
-2.54
 74
     4
 75
   133
340
33
 46
2.54
 50
0.0
 44
-2.54
 45
0.0
 49
-2.54
 74
     0
 49
25.4
 74
     0
  0
LTYPE
  5
56
330
5
100
AcDbSymbolTableRecord
100
AcDbLinetypeTableRecord
  2
FENCELINE2
 70
     0
  3
Fenceline square ----[]-----[]----[]-----[]----
 72
    65
 73
     4
 40
36.83
 49
6.349999999999999
 74
     0
 49
-2.54
 74
     4
 75
   132
340
33
 46
2.54
 50
0.0
 44
-2.54
 45
0.0
 49
-2.54
 74
     0
 49
25.4
 74
     0
  0
LTYPE
  5
57
330
5
100
AcDbSymbolTableRecord
100
AcDbLinetypeTableRecord
  2
GAS_LINE
 70
     0
  3
Gas line ----GAS----GAS----GAS----GAS----GAS---
 72
    65
 73
     3
 40
24.13
 49
12.7
 74
     0
 49
-5.08
 74
     2
 75
     0
340
11
 46
2.54
 50
0.0
 44
-2.54
 45
-1.27
  9
GAS
 49
-6.349999999999999
 74
     0
  0
LTYPE
  5
58
330
5
100
AcDbSymbolTableRecord
100
AcDbLinetypeTableRecord
  2
HIDDEN
 70
     0
  3
Hidden __ __ __ __ __ __ __ __ __ __ __ __ __ _
 72
    65
 73
     2
 40
9.524999999999998
 49
6.349999999999999
 74
     0
 49
-3.174999999999999
 74
     0
  0
LTYPE
  5
59
330
5
100
AcDbSymbolTableRecord
100
AcDbLinetypeTableRecord
  2
HIDDEN2
 70
     0
  3
Hidden (.5x) _ _ _ _ _ _ _ _ _ _ _ _ _ _ _ _ _
 72
    65
 73
     2
 40
4.762499999999999
 49
3.174999999999999
 74
     0
 49
-1.587499999999999
 74
     0
  0
LTYPE
  5
5A
330
5
100
AcDbSymbolTableRecord
100
AcDbLinetypeTableRecord
  2
HIDDENX2
 70
     0
  3
Hidden (2x) ____ ____ ____ ____ ____ ____ ____
 72
    65
 73
     2
 40
19.05
 49
12.7
 74
     0
 49
-6.349999999999999
 74
     0
  0
LTYPE
  5
5B
330
5
100
AcDbSymbolTableRecord
100
AcDbLinetypeTableRecord
  2
HOT_WATER_SUPPLY
 70
     0
  3
Hot water supply ---- HW ---- HW ---- HW ----
 72
    65
 73
     3
 40
22.86
 49
12.7
 74
     0
 49
-5.08
 74
     2
 75
     0
340
11
 46
2.54
 50
0.0
 44
-2.54
 45
-1.27
  9
HW
 49
-5.08
 74
     0
  0
LTYPE
  5
5C
330
5
100
AcDbSymbolTableRecord
100
AcDbLinetypeTableRecord
  2
PHANTOM
 70
     0
  3
Phantom ______  __  __  ______  __  __  ______
 72
    65
 73
     6
 40
63.5
 49
31.75
 74
     0
 49
-6.349999999999999
 74
     0
 49
6.349999999999999
 74
     0
 49
-6.349999999999999
 74
     0
 49
6.349999999999999
 74
     0
 49
-6.349999999999999
 74
     0
  0
LTYPE
  5
5D
330
5
100
AcDbSymbolTableRecord
100
AcDbLinetypeTableRecord
  2
PHANTOM2
 70
     0
  3
Phantom (.5x) ___ _ _ ___ _ _ ___ _ _ ___ _ _
 72
    65
 73
     6
 40
31.75
 49
15.875
 74
     0
 49
-3.174999999999999
 74
     0
 49
3.174999999999999
 74
     0
 49
-3.174999999999999
 74
     0
 49
3.174999999999999
 74
     0
 49
-3.174999999999999
 74
     0
  0
LTYPE
  5
5E
330
5
100
AcDbSymbolTableRecord
100
AcDbLinetypeTableRecord
  2
PHANTOMX2
 70
     0
  3
Phantom (2x) ____________    ____    ____   _
 72
    65
 73
     6
 40
127.0
 49
63.5
 74
     0
 49
-12.7
 74
     0
 49
12.7
 74
     0
 49
-12.7
 74
     0
 49
12.7
 74
     0
 49
-12.7
 74
     0
  0
LTYPE
  5
5F
330
5
100
AcDbSymbolTableRecord
100
AcDbLinetypeTableRecord
  2
TRACKS
 70
     0
  3
Tracks -|-|-|-|-|-|-|-|-|-|-|-|-|-|-|-|-|-|-|-|
 72
    65
 73
     2
 40
7.62
 49
3.81
 74
     4
 75
   130
340
33
 46
6.349999999999999
 50
0.0
 44
0.0
 45
0.0
 49
3.81
 74
     0
  0
LTYPE
  5
60
330
5
100
AcDbSymbolTableRecord
100
AcDbLinetypeTableRecord
  2
ZIGZAG
 70
     0
  3
Zig zag /\/\/\/\/\/\/\/\/\/\/\/\/\/\/\/\/\/\/\/
 72
    65
 73
     4
 40
20.32254
 49
0.00254
 74
     0
 49
-5.08
 74
     4
 75
   131
340
33
 46
5.08
 50
0.0
 44
-5.08
 45
0.0
 49
-10.16
 74
     4
 75
   131
340
33
 46
5.08
 50
180.0
 44
5.08
 45
0.0
 49
-5.08
 74
     0
  0
ENDTAB
  0
TABLE
  2
LAYER
  5
2
102
{ACAD_XDICTIONARY
360
1A37
102
}
330
0
100
AcDbSymbolTable
 70
     7
  0
LAYER
  5
10
330
2
100
AcDbSymbolTableRecord
100
AcDbLayerTableRecord
  2
0
 70
     0
 62
     7
  6
Continuous
370
    -3
390
F
  0
LAYER
  5
C3
330
2
100
AcDbSymbolTableRecord
100
AcDbLayerTableRecord
  2
Defpoints
 70
     0
 62
     7
  6
Continuous
290
     0
370
    -3
390
F
  0
LAYER
  5
256
330
2
100
AcDbSymbolTableRecord
100
AcDbLayerTableRecord
  2
Cen
 70
     0
 62
     7
  6
CENTER2
370
    15
390
F
  0
LAYER
  5
5DF
330
2
100
AcDbSymbolTableRecord
100
AcDbLayerTableRecord
  2
実形
 70
     0
 62
     7
  6
Continuous
370
    -3
390
F
  0
LAYER
  5
60C
330
2
100
AcDbSymbolTableRecord
100
AcDbLayerTableRecord
  2
補助
 70
     0
 62
     7
  6
Continuous
370
    -3
390
F
  0
LAYER
  5
619
330
2
100
AcDbSymbolTableRecord
100
AcDbLayerTableRecord
  2
センター
 70
     0
 62
     7
  6
CENTER2
370
    18
390
F
  0
LAYER
  5
61A
330
2
100
AcDbSymbolTableRecord
100
AcDbLayerTableRecord
  2
寸法
 70
     0
 62
     7
  6
Continuous
370
    18
390
F
  0
ENDTAB
  0
TABLE
  2
STYLE
  5
3
330
0
100
AcDbSymbolTable
 70
     4
  0
STYLE
  5
11
330
3
100
AcDbSymbolTableRecord
100
AcDbTextStyleTableRecord
  2
Standard
 70
     0
 40
0.0
 41
1.0
 50
0.0
 71
     0
 42
35.0
  3
txt.shx
  4
bigfont.shx
  0
STYLE
  5
33
330
3
100
AcDbSymbolTableRecord
100
AcDbTextStyleTableRecord
  2

 70
     1
 40
0.0
 41
1.0
 50
0.0
 71
     0
 42
2.5
  3
ltypeshp.shx
  4

  0
STYLE
  5
1BE6
330
3
100
AcDbSymbolTableRecord
100
AcDbTextStyleTableRecord
  2
ms明朝
 70
     0
 40
0.0
 41
1.0
 50
0.0
 71
     0
 42
25.0
  3
MS Mincho.ttf
  4

1001
ACAD
1000
MS Mincho
1071
    32785
  0
STYLE
  5
1BE7
330
3
100
AcDbSymbolTableRecord
100
AcDbTextStyleTableRecord
  2
明朝
 70
     0
 40
0.0
 41
1.0
 50
0.0
 71
     0
 42
25.0
  3
MS Mincho.ttf
  4

1001
ACAD
1000
MS Mincho
1071
    32785
  0
ENDTAB
  0
TABLE
  2
VIEW
  5
6
330
0
100
AcDbSymbolTable
 70
     0
  0
ENDTAB
  0
TABLE
  2
UCS
  5
7
330
0
100
AcDbSymbolTable
 70
     0
  0
ENDTAB
  0
TABLE
  2
APPID
  5
9
330
0
100
AcDbSymbolTable
 70
     1
  0
APPID
  5
12
330
9
100
AcDbSymbolTableRecord
100
AcDbRegAppTableRecord
  2
ACAD
 70
     0
  0
ENDTAB
  0
TABLE
  2
DIMSTYLE
  5
A
330
0
100
AcDbSymbolTable
 70
     1
100
AcDbDimStyleTable
 71
     1
340
27
  0
DIMSTYLE
105
27
102
{ACAD_REACTORS
330
473
330
480
330
586
330
304
330
28B
330
2B3
330
270
330
376
330
2E9
330
298
330
2DC
330
2A6
330
27E
330
384
330
31C
330
2F7
330
3BF
330
3B2
330
4C1
330
E81
330
E8E
330
1422
330
149D
330
149E
330
15B5
330
15B6
330
15B7
330
15D1
330
15D2
330
1A81
330
1A82
330
1A83
330
1A84
102
}
330
A
100
AcDbSymbolTableRecord
100
AcDbDimStyleTableRecord
  2
ISO-25
 70
     0
 41
30.0
 42
65.0
 43
3.75
 44
0.0
 73
     0
 74
     0
 77
     1
 78
     8
140
25.0
141
2.5
143
0.03937007874016
147
6.25
171
     3
172
     1
271
     2
272
     2
274
     3
283
     0
284
     8
340
11
341
DA
342
D0
371
    15
372
    15
  0
ENDTAB
  0
TABLE
  2
BLOCK_RECORD
  5
1
330
0
100
AcDbSymbolTable
 70
    39
  0
BLOCK_RECORD
  5
1F
102
{ACAD_XDICTIONARY
360
1C06
102
}
330
1
100
AcDbSymbolTableRecord
100
AcDbBlockTableRecord
  2
*Model_Space
340
22
  0
BLOCK_RECORD
  5
1B
330
1
100
AcDbSymbolTableRecord
100
AcDbBlockTableRecord
  2
*Paper_Space
340
1E
  0
BLOCK_RECORD
  5
23
330
1
100
AcDbSymbolTableRecord
100
AcDbBlockTableRecord
  2
*Paper_Space0
340
26
  0
BLOCK_RECORD
  5
D0
330
1
100
AcDbSymbolTableRecord
100
AcDbBlockTableRecord
  2
_DotSmall
340
0
102
{BLKREFS
331
18A7
331
18A8
331
18B0
331
18B1
331
18B8
331
18B9
331
18C1
331
18C2
331
18CA
331
18CB
331
18D3
331
18D4
331
18EC
331
18ED
331
18F5
331
18F6
331
18FE
331
18FF
331
1907
331
1908
331
1911
331
1912
331
1924
331
1925
331
192D
331
192E
331
1937
331
1938
331
193F
331
1940
331
1949
331
194A
331
1951
331
1952
331
1964
331
1965
331
196C
331
196D
331
1975
331
1976
331
197E
331
197F
331
1999
331
199A
331
19A3
331
19A4
331
19AB
331
19AC
331
19B4
331
19B5
331
19BD
331
19BE
331
19C6
331
19C7
331
19DE
331
19DF
331
1A31
331
1A32
331
1AB9
331
1ABA
331
1AC2
331
1AC3
331
1ACB
331
1ACC
331
1AD3
331
1AD4
102
}
  0
BLOCK_RECORD
  5
D4
330
1
100
AcDbSymbolTableRecord
100
AcDbBlockTableRecord
  2
_Origin2
340
0
  0
BLOCK_RECORD
  5
DA
330
1
100
AcDbSymbolTableRecord
100
AcDbBlockTableRecord
  2
_Open30
340
0
  0
BLOCK_RECORD
  5
271
330
1
100
AcDbSymbolTableRecord
100
AcDbBlockTableRecord
  2
*D4
340
0
  0
BLOCK_RECORD
  5
27F
330
1
100
AcDbSymbolTableRecord
100
AcDbBlockTableRecord
  2
*D5
340
0
  0
BLOCK_RECORD
  5
28C
330
1
100
AcDbSymbolTableRecord
100
AcDbBlockTableRecord
  2
*D6
340
0
  0
BLOCK_RECORD
  5
299
330
1
100
AcDbSymbolTableRecord
100
AcDbBlockTableRecord
  2
*D7
340
0
  0
BLOCK_RECORD
  5
2A7
330
1
100
AcDbSymbolTableRecord
100
AcDbBlockTableRecord
  2
*D8
340
0
  0
BLOCK_RECORD
  5
2B4
330
1
100
AcDbSymbolTableRecord
100
AcDbBlockTableRecord
  2
*D9
340
0
  0
BLOCK_RECORD
  5
2DD
330
1
100
AcDbSymbolTableRecord
100
AcDbBlockTableRecord
  2
*D10
340
0
  0
BLOCK_RECORD
  5
2EA
330
1
100
AcDbSymbolTableRecord
100
AcDbBlockTableRecord
  2
*D11
340
0
  0
BLOCK_RECORD
  5
2F8
330
1
100
AcDbSymbolTableRecord
100
AcDbBlockTableRecord
  2
*D12
340
0
  0
BLOCK_RECORD
  5
305
330
1
100
AcDbSymbolTableRecord
100
AcDbBlockTableRecord
  2
*D13
340
0
  0
BLOCK_RECORD
  5
31D
330
1
100
AcDbSymbolTableRecord
100
AcDbBlockTableRecord
  2
*D14
340
0
  0
BLOCK_RECORD
  5
377
330
1
100
AcDbSymbolTableRecord
100
AcDbBlockTableRecord
  2
*D15
340
0
  0
BLOCK_RECORD
  5
385
330
1
100
AcDbSymbolTableRecord
100
AcDbBlockTableRecord
  2
*D16
340
0
  0
BLOCK_RECORD
  5
3B3
330
1
100
AcDbSymbolTableRecord
100
AcDbBlockTableRecord
  2
*D17
340
0
  0
BLOCK_RECORD
  5
3C0
330
1
100
AcDbSymbolTableRecord
100
AcDbBlockTableRecord
  2
*D18
340
0
  0
BLOCK_RECORD
  5
474
330
1
100
AcDbSymbolTableRecord
100
AcDbBlockTableRecord
  2
*D19
340
0
  0
BLOCK_RECORD
  5
481
330
1
100
AcDbSymbolTableRecord
100
AcDbBlockTableRecord
  2
*D20
340
0
  0
BLOCK_RECORD
  5
4C2
330
1
100
AcDbSymbolTableRecord
100
AcDbBlockTableRecord
  2
*D21
340
0
  0
BLOCK_RECORD
  5
587
330
1
100
AcDbSymbolTableRecord
100
AcDbBlockTableRecord
  2
*D22
340
0
  0
BLOCK_RECORD
  5
E82
330
1
100
AcDbSymbolTableRecord
100
AcDbBlockTableRecord
  2
*D23
340
0
  0
BLOCK_RECORD
  5
E8F
330
1
100
AcDbSymbolTableRecord
100
AcDbBlockTableRecord
  2
*D24
340
0
  0
BLOCK_RECORD
  5
1423
330
1
100
AcDbSymbolTableRecord
100
AcDbBlockTableRecord
  2
*D25
340
0
  0
BLOCK_RECORD
  5
149F
330
1
100
AcDbSymbolTableRecord
100
AcDbBlockTableRecord
  2
*D26
340
0
  0
BLOCK_RECORD
  5
14AB
330
1
100
AcDbSymbolTableRecord
100
AcDbBlockTableRecord
  2
*D27
340
0
  0
BLOCK_RECORD
  5
15D6
330
1
100
AcDbSymbolTableRecord
100
AcDbBlockTableRecord
  2
*D28
340
0
  0
BLOCK_RECORD
  5
15E2
330
1
100
AcDbSymbolTableRecord
100
AcDbBlockTableRecord
  2
*D29
340
0
  0
BLOCK_RECORD
  5
15EE
330
1
100
AcDbSymbolTableRecord
100
AcDbBlockTableRecord
  2
*D30
340
0
  0
BLOCK_RECORD
  5
15FA
330
1
100
AcDbSymbolTableRecord
100
AcDbBlockTableRecord
  2
*D31
340
0
  0
BLOCK_RECORD
  5
1606
330
1
100
AcDbSymbolTableRecord
100
AcDbBlockTableRecord
  2
*D32
340
0
  0
BLOCK_RECORD
  5
1A85
330
1
100
AcDbSymbolTableRecord
100
AcDbBlockTableRecord
  2
*D33
340
0
  0
BLOCK_RECORD
  5
1A91
330
1
100
AcDbSymbolTableRecord
100
AcDbBlockTableRecord
  2
*D34
340
0
  0
BLOCK_RECORD
  5
1A9D
330
1
100
AcDbSymbolTableRecord
100
AcDbBlockTableRecord
  2
*D35
340
0
  0
BLOCK_RECORD
  5
1AA9
330
1
100
AcDbSymbolTableRecord
100
AcDbBlockTableRecord
  2
*D36
340
0
  0
BLOCK_RECORD
  5
1BDA
330
1
100
AcDbSymbolTableRecord
100
AcDbBlockTableRecord
  2
_Dot
340
0
  0
BLOCK_RECORD
  5
1BDF
102
{ACAD_XDICTIONARY
360
1BE2
102
}
330
1
100
AcDbSymbolTableRecord
100
AcDbBlockTableRecord
  2
A$C6E975202
340
0
  0
ENDTAB
  0
ENDSEC
  0
SECTION
  2
BLOCKS
  0
BLOCK
  5
20
330
1F
100
AcDbEntity
  8
0
100
AcDbBlockBegin
  2
*Model_Space
 70
     0
 10
0.0
 20
0.0
 30
0.0
  3
*Model_Space
  1

  0
ENDBLK
  5
21
330
1F
100
AcDbEntity
  8
0
100
AcDbBlockEnd
  0
BLOCK
  5
1C
330
1B
100
AcDbEntity
 67
     1
  8
0
100
AcDbBlockBegin
  2
*Paper_Space
 70
     0
 10
0.0
 20
0.0
 30
0.0
  3
*Paper_Space
  1

  0
ENDBLK
  5
1D
330
1B
100
AcDbEntity
 67
     1
  8
0
100
AcDbBlockEnd
  0
BLOCK
  5
24
330
23
100
AcDbEntity
  8
0
100
AcDbBlockBegin
  2
*Paper_Space0
 70
     0
 10
0.0
 20
0.0
 30
0.0
  3
*Paper_Space0
  1

  0
ENDBLK
  5
25
330
23
100
AcDbEntity
  8
0
100
AcDbBlockEnd
  0
BLOCK
  5
D2
330
D0
100
AcDbEntity
  8
0
100
AcDbBlockBegin
  2
_DotSmall
 70
     0
 10
0.0
 20
0.0
 30
0.0
  3
_DotSmall
  1

  0
LWPOLYLINE
  5
D1
330
D0
100
AcDbEntity
  8
0
 62
     0
100
AcDbPolyline
 90
        2
 70
     1
 43
0.5
 10
-0.0625
 20
0.0
 42
1.0
 10
0.0625
 20
0.0
 42
1.0
  0
ENDBLK
  5
D3
330
D0
100
AcDbEntity
  8
0
100
AcDbBlockEnd
  0
BLOCK
  5
D8
330
D4
100
AcDbEntity
  8
0
100
AcDbBlockBegin
  2
_Origin2
 70
     0
 10
0.0
 20
0.0
 30
0.0
  3
_Origin2
  1

  0
CIRCLE
  5
D5
330
D4
100
AcDbEntity
  8
0
 62
     0
370
    -2
100
AcDbCircle
 10
0.0
 20
0.0
 30
0.0
 40
0.5
  0
CIRCLE
  5
D6
330
D4
100
AcDbEntity
  8
0
 62
     0
370
    -2
100
AcDbCircle
 10
0.0
 20
0.0
 30
0.0
 40
0.25
  0
LINE
  5
D7
330
D4
100
AcDbEntity
  8
0
 62
     0
370
    -2
100
AcDbLine
 10
-0.5
 20
0.0
 30
0.0
 11
-1.0
 21
0.0
 31
0.0
  0
ENDBLK
  5
D9
330
D4
100
AcDbEntity
  8
0
100
AcDbBlockEnd
  0
BLOCK
  5
DE
330
DA
100
AcDbEntity
  8
0
100
AcDbBlockBegin
  2
_Open30
 70
     0
 10
0.0
 20
0.0
 30
0.0
  3
_Open30
  1

  0
LINE
  5
DB
330
DA
100
AcDbEntity
  8
0
 62
     0
370
    -2
100
AcDbLine
 10
-1.0
 20
0.26794919
 30
0.0
 11
0.0
 21
0.0
 31
0.0
  0
LINE
  5
DC
330
DA
100
AcDbEntity
  8
0
 62
     0
370
    -2
100
AcDbLine
 10
0.0
 20
0.0
 30
0.0
 11
-1.0
 21
-0.26794919
 31
0.0
  0
LINE
  5
DD
330
DA
100
AcDbEntity
  8
0
 62
     0
370
    -2
100
AcDbLine
 10
0.0
 20
0.0
 30
0.0
 11
-1.0
 21
0.0
 31
0.0
  0
ENDBLK
  5
DF
330
DA
100
AcDbEntity
  8
0
100
AcDbBlockEnd
  0
BLOCK
  5
27C
330
271
100
AcDbEntity
  8
0
100
AcDbBlockBegin
  2
*D4
 70
     1
 10
0.0
 20
0.0
 30
0.0
  3
*D4
  1

  0
LINE
  5
1929
330
271
100
AcDbEntity
  8
0
 62
     0
370
    15
100
AcDbLine
 10
547.219469406501
 20
1128.86010153411
 30
0.0
 11
421.8398950171581
 21
1128.86010153411
 31
0.0
  0
LINE
  5
192A
330
271
100
AcDbEntity
  8
0
 62
     0
370
    15
100
AcDbLine
 10
547.219469406501
 20
1143.86010153411
 30
0.0
 11
421.8398950171581
 21
1143.86010153411
 31
0.0
  0
LINE
  5
192B
330
271
100
AcDbEntity
  8
0
 62
     0
370
    15
100
AcDbLine
 10
421.8398950171581
 20
1128.86010153411
 30
0.0
 11
421.8398950171581
 21
1143.86010153411
 31
0.0
  0
LINE
  5
192C
330
271
100
AcDbEntity
  8
0
 62
     0
370
    15
100
AcDbLine
 10
421.8398950171581
 20
1143.86010153411
 30
0.0
 11
421.8398950171581
 21
1219.693434867443
 31
0.0
  0
INSERT
  5
192D
330
271
100
AcDbEntity
  8
0
 62
     0
370
    15
100
AcDbBlockReference
  2
_DotSmall
 10
421.8398950171581
 20
1128.86010153411
 30
0.0
 41
30.0
 42
30.0
 43
30.0
 50
270.0
  0
INSERT
  5
192E
330
271
100
AcDbEntity
  8
0
 62
     0
370
    15
100
AcDbBlockReference
  2
_DotSmall
 10
421.8398950171581
 20
1143.86010153411
 30
0.0
 41
30.0
 42
30.0
 43
30.0
 50
90.0
  0
MTEXT
  5
192F
330
271
100
AcDbEntity
  8
0
 62
     0
100
AcDbMText
 10
403.089895017158
 20
1196.776768200777
 30
0.0
 40
25.0
 41
0.0
 71
     5
 72
     1
  1
15
 11
0.0000000000000001
 21
1.0
 31
0.0
 73
     1
 44
1.0
1001
ACAD
1000
MTEXTBEGIN
1070
    73
1070
     1
1070
    44
1040
1.0
1070
    74
1070
     0
1000
MTEXTEND
  0
POINT
  5
1930
330
271
100
AcDbEntity
  8
Defpoints
 62
     0
100
AcDbPoint
 10
612.219469406501
 20
1128.86010153411
 30
0.0
  0
POINT
  5
1931
330
271
100
AcDbEntity
  8
Defpoints
 62
     0
100
AcDbPoint
 10
612.219469406501
 20
1143.86010153411
 30
0.0
  0
POINT
  5
1932
330
271
100
AcDbEntity
  8
Defpoints
 62
     0
100
AcDbPoint
 10
421.8398950171581
 20
1143.86010153411
 30
0.0
  0
ENDBLK
  5
27D
330
271
100
AcDbEntity
  8
0
100
AcDbBlockEnd
  0
BLOCK
  5
289
330
27F
100
AcDbEntity
  8
0
100
AcDbBlockBegin
  2
*D5
 70
     1
 10
0.0
 20
0.0
 30
0.0
  3
*D5
  1

  0
LINE
  5
1904
330
27F
100
AcDbEntity
  8
0
 62
     0
370
    15
100
AcDbLine
 10
547.219469406501
 20
1143.86010153411
 30
0.0
 11
421.839895017158
 21
1143.86010153411
 31
0.0
  0
LINE
  5
1905
330
27F
100
AcDbEntity
  8
0
 62
     0
370
    15
100
AcDbLine
 10
547.2194694065011
 20
1573.86010153411
 30
0.0
 11
421.8398950171581
 21
1573.86010153411
 31
0.0
  0
LINE
  5
1906
330
27F
100
AcDbEntity
  8
0
 62
     0
370
    15
100
AcDbLine
 10
421.839895017158
 20
1143.86010153411
 30
0.0
 11
421.8398950171581
 21
1573.86010153411
 31
0.0
  0
INSERT
  5
1907
330
27F
100
AcDbEntity
  8
0
 62
     0
370
    15
100
AcDbBlockReference
  2
_DotSmall
 10
421.839895017158
 20
1143.86010153411
 30
0.0
 41
30.0
 42
30.0
 43
30.0
 50
270.0
  0
INSERT
  5
1908
330
27F
100
AcDbEntity
  8
0
 62
     0
370
    15
100
AcDbBlockReference
  2
_DotSmall
 10
421.8398950171581
 20
1573.86010153411
 30
0.0
 41
30.0
 42
30.0
 43
30.0
 50
90.0
  0
MTEXT
  5
1909
330
27F
100
AcDbEntity
  8
0
 62
     0
100
AcDbMText
 10
403.0898950171578
 20
1358.86010153411
 30
0.0
 40
25.0
 41
0.0
 71
     5
 72
     1
  1
430
 11
0.0000000000000001
 21
1.0
 31
0.0
 73
     1
 44
1.0
1001
ACAD
1000
MTEXTBEGIN
1070
    73
1070
     1
1070
    44
1040
1.0
1070
    74
1070
     0
1000
MTEXTEND
  0
POINT
  5
190A
330
27F
100
AcDbEntity
  8
Defpoints
 62
     0
100
AcDbPoint
 10
612.219469406501
 20
1143.86010153411
 30
0.0
  0
POINT
  5
190B
330
27F
100
AcDbEntity
  8
Defpoints
 62
     0
100
AcDbPoint
 10
612.2194694065012
 20
1573.86010153411
 30
0.0
  0
POINT
  5
190C
330
27F
100
AcDbEntity
  8
Defpoints
 62
     0
100
AcDbPoint
 10
421.8398950171581
 20
1573.86010153411
 30
0.0
  0
ENDBLK
  5
28A
330
27F
100
AcDbEntity
  8
0
100
AcDbBlockEnd
  0
BLOCK
  5
296
330
28C
100
AcDbEntity
  8
0
100
AcDbBlockBegin
  2
*D6
 70
     1
 10
0.0
 20
0.0
 30
0.0
  3
*D6
  1

  0
LINE
  5
193C
330
28C
100
AcDbEntity
  8
0
 62
     0
370
    15
100
AcDbLine
 10
547.2194694065011
 20
1573.86010153411
 30
0.0
 11
421.8398950171581
 21
1573.86010153411
 31
0.0
  0
LINE
  5
193D
330
28C
100
AcDbEntity
  8
0
 62
     0
370
    15
100
AcDbLine
 10
547.2194694065011
 20
1648.86010153411
 30
0.0
 11
421.8398950171581
 21
1648.86010153411
 31
0.0
  0
LINE
  5
193E
330
28C
100
AcDbEntity
  8
0
 62
     0
370
    15
100
AcDbLine
 10
421.8398950171581
 20
1573.86010153411
 30
0.0
 11
421.8398950171581
 21
1648.86010153411
 31
0.0
  0
INSERT
  5
193F
330
28C
100
AcDbEntity
  8
0
 62
     0
370
    15
100
AcDbBlockReference
  2
_DotSmall
 10
421.8398950171581
 20
1573.86010153411
 30
0.0
 41
30.0
 42
30.0
 43
30.0
 50
270.0
  0
INSERT
  5
1940
330
28C
100
AcDbEntity
  8
0
 62
     0
370
    15
100
AcDbBlockReference
  2
_DotSmall
 10
421.8398950171581
 20
1648.86010153411
 30
0.0
 41
30.0
 42
30.0
 43
30.0
 50
90.0
  0
MTEXT
  5
1941
330
28C
100
AcDbEntity
  8
0
 62
     0
100
AcDbMText
 10
403.0898950171579
 20
1611.36010153411
 30
0.0
 40
25.0
 41
0.0
 71
     5
 72
     1
  1
75
 11
0.0000000000000001
 21
1.0
 31
0.0
 73
     1
 44
1.0
1001
ACAD
1000
MTEXTBEGIN
1070
    73
1070
     1
1070
    44
1040
1.0
1070
    74
1070
     0
1000
MTEXTEND
  0
POINT
  5
1942
330
28C
100
AcDbEntity
  8
Defpoints
 62
     0
100
AcDbPoint
 10
612.2194694065012
 20
1573.86010153411
 30
0.0
  0
POINT
  5
1943
330
28C
100
AcDbEntity
  8
Defpoints
 62
     0
100
AcDbPoint
 10
612.2194694065012
 20
1648.86010153411
 30
0.0
  0
POINT
  5
1944
330
28C
100
AcDbEntity
  8
Defpoints
 62
     0
100
AcDbPoint
 10
421.8398950171581
 20
1648.86010153411
 30
0.0
  0
ENDBLK
  5
297
330
28C
100
AcDbEntity
  8
0
100
AcDbBlockEnd
  0
BLOCK
  5
2A4
330
299
100
AcDbEntity
  8
0
100
AcDbBlockBegin
  2
*D7
 70
     1
 10
0.0
 20
0.0
 30
0.0
  3
*D7
  1

  0
LINE
  5
1920
330
299
100
AcDbEntity
  8
0
 62
     0
370
    15
100
AcDbLine
 10
547.219469406501
 20
1111.86010153411
 30
0.0
 11
352.3698950171582
 21
1111.86010153411
 31
0.0
  0
LINE
  5
1921
330
299
100
AcDbEntity
  8
0
 62
     0
370
    15
100
AcDbLine
 10
547.219469406501
 20
1128.86010153411
 30
0.0
 11
352.3698950171582
 21
1128.86010153411
 31
0.0
  0
LINE
  5
1922
330
299
100
AcDbEntity
  8
0
 62
     0
370
    15
100
AcDbLine
 10
352.3698950171582
 20
1111.86010153411
 30
0.0
 11
352.3698950171582
 21
1128.86010153411
 31
0.0
  0
MTEXT
  5
1923
330
299
100
AcDbEntity
  8
0
 62
     0
100
AcDbMText
 10
325.7108137600499
 20
1137.423388614837
 30
0.0
 40
25.0
 41
0.0
 71
     5
 72
     1
  1
17
 11
0.0000000000000001
 21
1.0
 31
0.0
 73
     1
 44
1.0
1001
ACAD
1000
MTEXTBEGIN
1070
    73
1070
     1
1070
    44
1040
1.0
1070
    74
1070
     0
1000
MTEXTEND
  0
INSERT
  5
1924
330
299
100
AcDbEntity
  8
0
 62
     0
370
    15
100
AcDbBlockReference
  2
_DotSmall
 10
352.3698950171582
 20
1111.86010153411
 30
0.0
 41
30.0
 42
30.0
 43
30.0
 50
270.0
  0
INSERT
  5
1925
330
299
100
AcDbEntity
  8
0
 62
     0
370
    15
100
AcDbBlockReference
  2
_DotSmall
 10
352.3698950171582
 20
1128.86010153411
 30
0.0
 41
30.0
 42
30.0
 43
30.0
 50
90.0
  0
POINT
  5
1926
330
299
100
AcDbEntity
  8
Defpoints
 62
     0
100
AcDbPoint
 10
612.219469406501
 20
1111.86010153411
 30
0.0
  0
POINT
  5
1927
330
299
100
AcDbEntity
  8
Defpoints
 62
     0
100
AcDbPoint
 10
612.219469406501
 20
1128.86010153411
 30
0.0
  0
POINT
  5
1928
330
299
100
AcDbEntity
  8
Defpoints
 62
     0
100
AcDbPoint
 10
352.3698950171582
 20
1128.86010153411
 30
0.0
  0
ENDBLK
  5
2A5
330
299
100
AcDbEntity
  8
0
100
AcDbBlockEnd
  0
BLOCK
  5
2B1
330
2A7
100
AcDbEntity
  8
0
100
AcDbBlockBegin
  2
*D8
 70
     1
 10
0.0
 20
0.0
 30
0.0
  3
*D8
  1

  0
LINE
  5
18FB
330
2A7
100
AcDbEntity
  8
0
 62
     0
370
    15
100
AcDbLine
 10
547.219469406501
 20
1128.86010153411
 30
0.0
 11
352.369895017158
 21
1128.86010153411
 31
0.0
  0
LINE
  5
18FC
330
2A7
100
AcDbEntity
  8
0
 62
     0
370
    15
100
AcDbLine
 10
547.2194694065011
 20
1648.86010153411
 30
0.0
 11
352.3698950171582
 21
1648.86010153411
 31
0.0
  0
LINE
  5
18FD
330
2A7
100
AcDbEntity
  8
0
 62
     0
370
    15
100
AcDbLine
 10
352.369895017158
 20
1128.86010153411
 30
0.0
 11
352.3698950171582
 21
1648.86010153411
 31
0.0
  0
INSERT
  5
18FE
330
2A7
100
AcDbEntity
  8
0
 62
     0
370
    15
100
AcDbBlockReference
  2
_DotSmall
 10
352.369895017158
 20
1128.86010153411
 30
0.0
 41
30.0
 42
30.0
 43
30.0
 50
270.0
  0
INSERT
  5
18FF
330
2A7
100
AcDbEntity
  8
0
 62
     0
370
    15
100
AcDbBlockReference
  2
_DotSmall
 10
352.3698950171582
 20
1648.86010153411
 30
0.0
 41
30.0
 42
30.0
 43
30.0
 50
90.0
  0
MTEXT
  5
1900
330
2A7
100
AcDbEntity
  8
0
 62
     0
100
AcDbMText
 10
333.6198950171579
 20
1388.86010153411
 30
0.0
 40
25.0
 41
0.0
 71
     5
 72
     1
  1
520
 11
0.0000000000000001
 21
1.0
 31
0.0
 73
     1
 44
1.0
1001
ACAD
1000
MTEXTBEGIN
1070
    73
1070
     1
1070
    44
1040
1.0
1070
    74
1070
     0
1000
MTEXTEND
  0
POINT
  5
1901
330
2A7
100
AcDbEntity
  8
Defpoints
 62
     0
100
AcDbPoint
 10
612.219469406501
 20
1128.86010153411
 30
0.0
  0
POINT
  5
1902
330
2A7
100
AcDbEntity
  8
Defpoints
 62
     0
100
AcDbPoint
 10
612.2194694065012
 20
1648.86010153411
 30
0.0
  0
POINT
  5
1903
330
2A7
100
AcDbEntity
  8
Defpoints
 62
     0
100
AcDbPoint
 10
352.3698950171582
 20
1648.86010153411
 30
0.0
  0
ENDBLK
  5
2B2
330
2A7
100
AcDbEntity
  8
0
100
AcDbBlockEnd
  0
BLOCK
  5
2BE
330
2B4
100
AcDbEntity
  8
0
100
AcDbBlockBegin
  2
*D9
 70
     1
 10
0.0
 20
0.0
 30
0.0
  3
*D9
  1

  0
LINE
  5
1933
330
2B4
100
AcDbEntity
  8
0
 62
     0
370
    15
100
AcDbLine
 10
547.2194694065011
 20
1648.86010153411
 30
0.0
 11
352.3698950171581
 21
1648.86010153411
 31
0.0
  0
LINE
  5
1934
330
2B4
100
AcDbEntity
  8
0
 62
     0
370
    15
100
AcDbLine
 10
547.219469406501
 20
1665.86010153411
 30
0.0
 11
352.3698950171582
 21
1665.86010153411
 31
0.0
  0
LINE
  5
1935
330
2B4
100
AcDbEntity
  8
0
 62
     0
370
    15
100
AcDbLine
 10
352.3698950171581
 20
1648.86010153411
 30
0.0
 11
352.3698950171582
 21
1665.86010153411
 31
0.0
  0
MTEXT
  5
1936
330
2B4
100
AcDbEntity
  8
0
 62
     0
100
AcDbMText
 10
322.1398348154353
 20
1639.517123581515
 30
0.0
 40
25.0
 41
0.0
 71
     5
 72
     1
  1
17
 11
0.0000000000000001
 21
1.0
 31
0.0
 73
     1
 44
1.0
1001
ACAD
1000
MTEXTBEGIN
1070
    73
1070
     1
1070
    44
1040
1.0
1070
    74
1070
     0
1000
MTEXTEND
  0
INSERT
  5
1937
330
2B4
100
AcDbEntity
  8
0
 62
     0
370
    15
100
AcDbBlockReference
  2
_DotSmall
 10
352.3698950171581
 20
1648.86010153411
 30
0.0
 41
30.0
 42
30.0
 43
30.0
 50
270.0
  0
INSERT
  5
1938
330
2B4
100
AcDbEntity
  8
0
 62
     0
370
    15
100
AcDbBlockReference
  2
_DotSmall
 10
352.3698950171582
 20
1665.86010153411
 30
0.0
 41
30.0
 42
30.0
 43
30.0
 50
90.0
  0
POINT
  5
1939
330
2B4
100
AcDbEntity
  8
Defpoints
 62
     0
100
AcDbPoint
 10
612.2194694065012
 20
1648.86010153411
 30
0.0
  0
POINT
  5
193A
330
2B4
100
AcDbEntity
  8
Defpoints
 62
     0
100
AcDbPoint
 10
612.219469406501
 20
1665.86010153411
 30
0.0
  0
POINT
  5
193B
330
2B4
100
AcDbEntity
  8
Defpoints
 62
     0
100
AcDbPoint
 10
352.3698950171582
 20
1665.86010153411
 30
0.0
  0
ENDBLK
  5
2BF
330
2B4
100
AcDbEntity
  8
0
100
AcDbBlockEnd
  0
BLOCK
  5
2E7
330
2DD
100
AcDbEntity
  8
0
100
AcDbBlockBegin
  2
*D10
 70
     1
 10
0.0
 20
0.0
 30
0.0
  3
*D10
  1

  0
LINE
  5
18F2
330
2DD
100
AcDbEntity
  8
0
 62
     0
370
    15
100
AcDbLine
 10
547.219469406501
 20
1111.86010153411
 30
0.0
 11
282.899895017158
 21
1111.86010153411
 31
0.0
  0
LINE
  5
18F3
330
2DD
100
AcDbEntity
  8
0
 62
     0
370
    15
100
AcDbLine
 10
547.219469406501
 20
1665.86010153411
 30
0.0
 11
282.8998950171582
 21
1665.86010153411
 31
0.0
  0
LINE
  5
18F4
330
2DD
100
AcDbEntity
  8
0
 62
     0
370
    15
100
AcDbLine
 10
282.899895017158
 20
1111.86010153411
 30
0.0
 11
282.8998950171582
 21
1665.86010153411
 31
0.0
  0
INSERT
  5
18F5
330
2DD
100
AcDbEntity
  8
0
 62
     0
370
    15
100
AcDbBlockReference
  2
_DotSmall
 10
282.899895017158
 20
1111.86010153411
 30
0.0
 41
30.0
 42
30.0
 43
30.0
 50
270.0
  0
INSERT
  5
18F6
330
2DD
100
AcDbEntity
  8
0
 62
     0
370
    15
100
AcDbBlockReference
  2
_DotSmall
 10
282.8998950171582
 20
1665.86010153411
 30
0.0
 41
30.0
 42
30.0
 43
30.0
 50
90.0
  0
MTEXT
  5
18F7
330
2DD
100
AcDbEntity
  8
0
 62
     0
100
AcDbMText
 10
264.1498950171579
 20
1388.86010153411
 30
0.0
 40
25.0
 41
0.0
 71
     5
 72
     1
  1
554
 11
0.0000000000000001
 21
1.0
 31
0.0
 73
     1
 44
1.0
1001
ACAD
1000
MTEXTBEGIN
1070
    73
1070
     1
1070
    44
1040
1.0
1070
    74
1070
     0
1000
MTEXTEND
  0
POINT
  5
18F8
330
2DD
100
AcDbEntity
  8
Defpoints
 62
     0
100
AcDbPoint
 10
612.219469406501
 20
1111.86010153411
 30
0.0
  0
POINT
  5
18F9
330
2DD
100
AcDbEntity
  8
Defpoints
 62
     0
100
AcDbPoint
 10
612.219469406501
 20
1665.86010153411
 30
0.0
  0
POINT
  5
18FA
330
2DD
100
AcDbEntity
  8
Defpoints
 62
     0
100
AcDbPoint
 10
282.8998950171582
 20
1665.86010153411
 30
0.0
  0
ENDBLK
  5
2E8
330
2DD
100
AcDbEntity
  8
0
100
AcDbBlockEnd
  0
BLOCK
  5
2F5
330
2EA
100
AcDbEntity
  8
0
100
AcDbBlockBegin
  2
*D11
 70
     1
 10
0.0
 20
0.0
 30
0.0
  3
*D11
  1

  0
LINE
  5
190D
330
2EA
100
AcDbEntity
  8
0
 62
     0
370
    15
100
AcDbLine
 10
612.219469406501
 20
1046.86010153411
 30
0.0
 11
612.219469406501
 21
994.9523297393934
 31
0.0
  0
LINE
  5
190E
330
2EA
100
AcDbEntity
  8
0
 62
     0
370
    15
100
AcDbLine
 10
629.219469406501
 20
1046.86010153411
 30
0.0
 11
629.219469406501
 21
994.9523297393934
 31
0.0
  0
LINE
  5
190F
330
2EA
100
AcDbEntity
  8
0
 62
     0
370
    15
100
AcDbLine
 10
612.219469406501
 20
994.9523297393934
 30
0.0
 11
629.219469406501
 21
994.9523297393934
 31
0.0
  0
LINE
  5
1910
330
2EA
100
AcDbEntity
  8
0
 62
     0
370
    15
100
AcDbLine
 10
629.219469406501
 20
994.9523297393934
 30
0.0
 11
705.0528027398343
 21
994.9523297393934
 31
0.0
  0
INSERT
  5
1911
330
2EA
100
AcDbEntity
  8
0
 62
     0
370
    15
100
AcDbBlockReference
  2
_DotSmall
 10
612.219469406501
 20
994.9523297393934
 30
0.0
 41
30.0
 42
30.0
 43
30.0
 50
180.0
  0
INSERT
  5
1912
330
2EA
100
AcDbEntity
  8
0
 62
     0
370
    15
100
AcDbBlockReference
  2
_DotSmall
 10
629.219469406501
 20
994.9523297393934
 30
0.0
 41
30.0
 42
30.0
 43
30.0
  0
MTEXT
  5
1913
330
2EA
100
AcDbEntity
  8
0
 62
     0
100
AcDbMText
 10
682.1361360731676
 20
1013.702329739393
 30
0.0
 40
25.0
 41
0.0
 71
     5
 72
     1
  1
17
 73
     1
 44
1.0
1001
ACAD
1000
MTEXTBEGIN
1070
    73
1070
     1
1070
    44
1040
1.0
1070
    74
1070
     0
1000
MTEXTEND
  0
POINT
  5
1914
330
2EA
100
AcDbEntity
  8
Defpoints
 62
     0
100
AcDbPoint
 10
612.219469406501
 20
1111.86010153411
 30
0.0
  0
POINT
  5
1915
330
2EA
100
AcDbEntity
  8
Defpoints
 62
     0
100
AcDbPoint
 10
629.219469406501
 20
1111.86010153411
 30
0.0
  0
POINT
  5
1916
330
2EA
100
AcDbEntity
  8
Defpoints
 62
     0
100
AcDbPoint
 10
629.219469406501
 20
994.9523297393934
 30
0.0
  0
ENDBLK
  5
2F6
330
2EA
100
AcDbEntity
  8
0
100
AcDbBlockEnd
  0
BLOCK
  5
302
330
2F8
100
AcDbEntity
  8
0
100
AcDbBlockBegin
  2
*D12
 70
     1
 10
0.0
 20
0.0
 30
0.0
  3
*D12
  1

  0
LINE
  5
18C7
330
2F8
100
AcDbEntity
  8
0
 62
     0
370
    15
100
AcDbLine
 10
629.219469406501
 20
1046.86010153411
 30
0.0
 11
629.219469406501
 21
994.9523297393934
 31
0.0
  0
LINE
  5
18C8
330
2F8
100
AcDbEntity
  8
0
 62
     0
370
    15
100
AcDbLine
 10
1279.219469406501
 20
1046.86010153411
 30
0.0
 11
1279.219469406501
 21
994.9523297393934
 31
0.0
  0
LINE
  5
18C9
330
2F8
100
AcDbEntity
  8
0
 62
     0
370
    15
100
AcDbLine
 10
629.219469406501
 20
994.9523297393934
 30
0.0
 11
1279.219469406501
 21
994.9523297393934
 31
0.0
  0
INSERT
  5
18CA
330
2F8
100
AcDbEntity
  8
0
 62
     0
370
    15
100
AcDbBlockReference
  2
_DotSmall
 10
629.219469406501
 20
994.9523297393934
 30
0.0
 41
30.0
 42
30.0
 43
30.0
 50
180.0
  0
INSERT
  5
18CB
330
2F8
100
AcDbEntity
  8
0
 62
     0
370
    15
100
AcDbBlockReference
  2
_DotSmall
 10
1279.219469406501
 20
994.9523297393934
 30
0.0
 41
30.0
 42
30.0
 43
30.0
  0
MTEXT
  5
18CC
330
2F8
100
AcDbEntity
  8
0
 62
     0
100
AcDbMText
 10
954.219469406501
 20
1013.702329739393
 30
0.0
 40
25.0
 41
0.0
 71
     5
 72
     1
  1
650
 73
     1
 44
1.0
1001
ACAD
1000
MTEXTBEGIN
1070
    73
1070
     1
1070
    44
1040
1.0
1070
    74
1070
     0
1000
MTEXTEND
  0
POINT
  5
18CD
330
2F8
100
AcDbEntity
  8
Defpoints
 62
     0
100
AcDbPoint
 10
629.219469406501
 20
1111.86010153411
 30
0.0
  0
POINT
  5
18CE
330
2F8
100
AcDbEntity
  8
Defpoints
 62
     0
100
AcDbPoint
 10
1279.219469406501
 20
1111.86010153411
 30
0.0
  0
POINT
  5
18CF
330
2F8
100
AcDbEntity
  8
Defpoints
 62
     0
100
AcDbPoint
 10
1279.219469406501
 20
994.9523297393934
 30
0.0
  0
ENDBLK
  5
303
330
2F8
100
AcDbEntity
  8
0
100
AcDbBlockEnd
  0
BLOCK
  5
311
330
305
100
AcDbEntity
  8
0
100
AcDbBlockBegin
  2
*D13
 70
     1
 10
0.0
 20
0.0
 30
0.0
  3
*D13
  1

  0
LINE
  5
1960
330
305
100
AcDbEntity
  8
0
 62
     0
370
    15
100
AcDbLine
 10
1279.219469406501
 20
1046.86010153411
 30
0.0
 11
1279.219469406501
 21
994.9523297393934
 31
0.0
  0
LINE
  5
1961
330
305
100
AcDbEntity
  8
0
 62
     0
370
    15
100
AcDbLine
 10
1296.219469406501
 20
1046.86010153411
 30
0.0
 11
1296.219469406501
 21
994.9523297393934
 31
0.0
  0
LINE
  5
1962
330
305
100
AcDbEntity
  8
0
 62
     0
370
    15
100
AcDbLine
 10
1279.219469406501
 20
994.9523297393934
 30
0.0
 11
1296.219469406501
 21
994.9523297393934
 31
0.0
  0
MTEXT
  5
1963
330
305
100
AcDbEntity
  8
0
 62
     0
100
AcDbMText
 10
1235.761253822045
 20
1013.702329739393
 30
0.0
 40
25.0
 41
0.0
 71
     5
 72
     1
  1
17
 73
     1
 44
1.0
1001
ACAD
1000
MTEXTBEGIN
1070
    73
1070
     1
1070
    44
1040
1.0
1070
    74
1070
     0
1000
MTEXTEND
  0
INSERT
  5
1964
330
305
100
AcDbEntity
  8
0
 62
     0
370
    15
100
AcDbBlockReference
  2
_DotSmall
 10
1279.219469406501
 20
994.9523297393934
 30
0.0
 41
30.0
 42
30.0
 43
30.0
 50
180.0
  0
INSERT
  5
1965
330
305
100
AcDbEntity
  8
0
 62
     0
370
    15
100
AcDbBlockReference
  2
_DotSmall
 10
1296.219469406501
 20
994.9523297393934
 30
0.0
 41
30.0
 42
30.0
 43
30.0
  0
POINT
  5
1966
330
305
100
AcDbEntity
  8
Defpoints
 62
     0
100
AcDbPoint
 10
1279.219469406501
 20
1111.86010153411
 30
0.0
  0
POINT
  5
1967
330
305
100
AcDbEntity
  8
Defpoints
 62
     0
100
AcDbPoint
 10
1296.219469406501
 20
1111.86010153411
 30
0.0
  0
POINT
  5
1968
330
305
100
AcDbEntity
  8
Defpoints
 62
     0
100
AcDbPoint
 10
1296.219469406501
 20
994.9523297393934
 30
0.0
  0
ENDBLK
  5
312
330
305
100
AcDbEntity
  8
0
100
AcDbBlockEnd
  0
BLOCK
  5
327
330
31D
100
AcDbEntity
  8
0
100
AcDbBlockBegin
  2
*D14
 70
     1
 10
0.0
 20
0.0
 30
0.0
  3
*D14
  1

  0
LINE
  5
18BE
330
31D
100
AcDbEntity
  8
0
 62
     0
370
    15
100
AcDbLine
 10
612.219469406501
 20
1046.86010153411
 30
0.0
 11
612.219469406501
 21
924.5935577841864
 31
0.0
  0
LINE
  5
18BF
330
31D
100
AcDbEntity
  8
0
 62
     0
370
    15
100
AcDbLine
 10
1296.219469406501
 20
1046.86010153411
 30
0.0
 11
1296.219469406501
 21
924.5935577841864
 31
0.0
  0
LINE
  5
18C0
330
31D
100
AcDbEntity
  8
0
 62
     0
370
    15
100
AcDbLine
 10
612.219469406501
 20
924.5935577841864
 30
0.0
 11
1296.219469406501
 21
924.5935577841864
 31
0.0
  0
INSERT
  5
18C1
330
31D
100
AcDbEntity
  8
0
 62
     0
370
    15
100
AcDbBlockReference
  2
_DotSmall
 10
612.219469406501
 20
924.5935577841864
 30
0.0
 41
30.0
 42
30.0
 43
30.0
 50
180.0
  0
INSERT
  5
18C2
330
31D
100
AcDbEntity
  8
0
 62
     0
370
    15
100
AcDbBlockReference
  2
_DotSmall
 10
1296.219469406501
 20
924.5935577841864
 30
0.0
 41
30.0
 42
30.0
 43
30.0
  0
MTEXT
  5
18C3
330
31D
100
AcDbEntity
  8
0
 62
     0
100
AcDbMText
 10
954.219469406501
 20
943.3435577841864
 30
0.0
 40
25.0
 41
0.0
 71
     5
 72
     1
  1
684
 73
     1
 44
1.0
1001
ACAD
1000
MTEXTBEGIN
1070
    73
1070
     1
1070
    44
1040
1.0
1070
    74
1070
     0
1000
MTEXTEND
  0
POINT
  5
18C4
330
31D
100
AcDbEntity
  8
Defpoints
 62
     0
100
AcDbPoint
 10
612.219469406501
 20
1111.86010153411
 30
0.0
  0
POINT
  5
18C5
330
31D
100
AcDbEntity
  8
Defpoints
 62
     0
100
AcDbPoint
 10
1296.219469406501
 20
1111.86010153411
 30
0.0
  0
POINT
  5
18C6
330
31D
100
AcDbEntity
  8
Defpoints
 62
     0
100
AcDbPoint
 10
1296.219469406501
 20
924.5935577841864
 30
0.0
  0
ENDBLK
  5
328
330
31D
100
AcDbEntity
  8
0
100
AcDbBlockEnd
  0
BLOCK
  5
381
330
377
100
AcDbEntity
  8
0
100
AcDbBlockBegin
  2
*D15
 70
     1
 10
0.0
 20
0.0
 30
0.0
  3
*D15
  1

  0
LINE
  5
19DB
330
377
100
AcDbEntity
  8
0
 62
     0
370
    15
100
AcDbLine
 10
879.219469406501
 20
1375.603013343331
 30
0.0
 11
879.219469406501
 21
1284.971834221215
 31
0.0
  0
LINE
  5
19DC
330
377
100
AcDbEntity
  8
0
 62
     0
370
    15
100
AcDbLine
 10
629.219469406501
 20
1393.86010153411
 30
0.0
 11
629.219469406501
 21
1284.971834221215
 31
0.0
  0
LINE
  5
19DD
330
377
100
AcDbEntity
  8
0
 62
     0
370
    15
100
AcDbLine
 10
879.219469406501
 20
1284.971834221215
 30
0.0
 11
629.219469406501
 21
1284.971834221215
 31
0.0
  0
INSERT
  5
19DE
330
377
100
AcDbEntity
  8
0
 62
     0
370
    15
100
AcDbBlockReference
  2
_DotSmall
 10
879.219469406501
 20
1284.971834221215
 30
0.0
 41
30.0
 42
30.0
 43
30.0
  0
INSERT
  5
19DF
330
377
100
AcDbEntity
  8
0
 62
     0
370
    15
100
AcDbBlockReference
  2
_DotSmall
 10
629.219469406501
 20
1284.971834221215
 30
0.0
 41
30.0
 42
30.0
 43
30.0
 50
180.0
  0
MTEXT
  5
19E0
330
377
100
AcDbEntity
  8
0
 62
     0
100
AcDbMText
 10
754.219469406501
 20
1303.721834221215
 30
0.0
 40
25.0
 41
0.0
 71
     5
 72
     1
  1
250
 73
     1
 44
1.0
1001
ACAD
1000
MTEXTBEGIN
1070
    73
1070
     1
1070
    44
1040
1.0
1070
    74
1070
     0
1000
MTEXTEND
  0
POINT
  5
19E1
330
377
100
AcDbEntity
  8
Defpoints
 62
     0
100
AcDbPoint
 10
879.219469406501
 20
1440.603013343331
 30
0.0
  0
POINT
  5
19E2
330
377
100
AcDbEntity
  8
Defpoints
 62
     0
100
AcDbPoint
 10
629.219469406501
 20
1458.86010153411
 30
0.0
  0
POINT
  5
19E3
330
377
100
AcDbEntity
  8
Defpoints
 62
     0
100
AcDbPoint
 10
629.219469406501
 20
1284.971834221215
 30
0.0
  0
ENDBLK
  5
382
330
377
100
AcDbEntity
  8
0
100
AcDbBlockEnd
  0
BLOCK
  5
38F
330
385
100
AcDbEntity
  8
0
100
AcDbBlockBegin
  2
*D16
 70
     1
 10
0.0
 20
0.0
 30
0.0
  3
*D16
  1

  0
LINE
  5
18B5
330
385
100
AcDbEntity
  8
0
 62
     0
370
    15
100
AcDbLine
 10
1005.779753162186
 20
1478.86010153411
 30
0.0
 11
1039.62697168094
 21
1478.86010153411
 31
0.0
  0
LINE
  5
18B6
330
385
100
AcDbEntity
  8
0
 62
     0
370
    15
100
AcDbLine
 10
754.219469406501
 20
1648.86010153411
 30
0.0
 11
1039.62697168094
 21
1648.86010153411
 31
0.0
  0
LINE
  5
18B7
330
385
100
AcDbEntity
  8
0
 62
     0
370
    15
100
AcDbLine
 10
1039.62697168094
 20
1478.86010153411
 30
0.0
 11
1039.62697168094
 21
1648.86010153411
 31
0.0
  0
INSERT
  5
18B8
330
385
100
AcDbEntity
  8
0
 62
     0
370
    15
100
AcDbBlockReference
  2
_DotSmall
 10
1039.62697168094
 20
1478.86010153411
 30
0.0
 41
30.0
 42
30.0
 43
30.0
 50
270.0
  0
INSERT
  5
18B9
330
385
100
AcDbEntity
  8
0
 62
     0
370
    15
100
AcDbBlockReference
  2
_DotSmall
 10
1039.62697168094
 20
1648.86010153411
 30
0.0
 41
30.0
 42
30.0
 43
30.0
 50
90.0
  0
MTEXT
  5
18BA
330
385
100
AcDbEntity
  8
0
 62
     0
100
AcDbMText
 10
1020.87697168094
 20
1532.410495785237
 30
0.0
 40
25.0
 41
0.0
 71
     5
 72
     1
  1
170
 11
0.0000000000000001
 21
1.0
 31
0.0
 73
     1
 44
1.0
1001
ACAD
1000
MTEXTBEGIN
1070
    73
1070
     1
1070
    44
1040
1.0
1070
    74
1070
     0
1000
MTEXTEND
  0
POINT
  5
18BB
330
385
100
AcDbEntity
  8
Defpoints
 62
     0
100
AcDbPoint
 10
940.7797531621863
 20
1478.86010153411
 30
0.0
  0
POINT
  5
18BC
330
385
100
AcDbEntity
  8
Defpoints
 62
     0
100
AcDbPoint
 10
689.219469406501
 20
1648.86010153411
 30
0.0
  0
POINT
  5
18BD
330
385
100
AcDbEntity
  8
Defpoints
 62
     0
100
AcDbPoint
 10
1039.62697168094
 20
1648.86010153411
 30
0.0
  0
ENDBLK
  5
390
330
385
100
AcDbEntity
  8
0
100
AcDbBlockEnd
  0
BLOCK
  5
3BD
330
3B3
100
AcDbEntity
  8
0
100
AcDbBlockBegin
  2
*D17
 70
     1
 10
0.0
 20
0.0
 30
0.0
  3
*D17
  1

  0
LINE
  5
1969
330
3B3
100
AcDbEntity
  8
0
 62
     0
370
    15
100
AcDbLine
 10
814.2194694065009
 20
1730.86010153411
 30
0.0
 11
814.2194694065009
 21
1760.978057981272
 31
0.0
  0
LINE
  5
196A
330
3B3
100
AcDbEntity
  8
0
 62
     0
370
    15
100
AcDbLine
 10
944.219469406501
 20
1730.86010153411
 30
0.0
 11
944.219469406501
 21
1760.978057981272
 31
0.0
  0
LINE
  5
196B
330
3B3
100
AcDbEntity
  8
0
 62
     0
370
    15
100
AcDbLine
 10
814.2194694065009
 20
1760.978057981272
 30
0.0
 11
944.219469406501
 21
1760.978057981272
 31
0.0
  0
INSERT
  5
196C
330
3B3
100
AcDbEntity
  8
0
 62
     0
370
    15
100
AcDbBlockReference
  2
_DotSmall
 10
814.2194694065009
 20
1760.978057981272
 30
0.0
 41
30.0
 42
30.0
 43
30.0
 50
180.0
  0
INSERT
  5
196D
330
3B3
100
AcDbEntity
  8
0
 62
     0
370
    15
100
AcDbBlockReference
  2
_DotSmall
 10
944.219469406501
 20
1760.978057981272
 30
0.0
 41
30.0
 42
30.0
 43
30.0
  0
MTEXT
  5
196E
330
3B3
100
AcDbEntity
  8
0
 62
     0
100
AcDbMText
 10
879.219469406501
 20
1779.728057981272
 30
0.0
 40
25.0
 41
0.0
 71
     5
 72
     1
  1
130
 73
     1
 44
1.0
1001
ACAD
1000
MTEXTBEGIN
1070
    73
1070
     1
1070
    44
1040
1.0
1070
    74
1070
     0
1000
MTEXTEND
  0
POINT
  5
196F
330
3B3
100
AcDbEntity
  8
Defpoints
 62
     0
100
AcDbPoint
 10
814.2194694065009
 20
1665.86010153411
 30
0.0
  0
POINT
  5
1970
330
3B3
100
AcDbEntity
  8
Defpoints
 62
     0
100
AcDbPoint
 10
944.219469406501
 20
1665.86010153411
 30
0.0
  0
POINT
  5
1971
330
3B3
100
AcDbEntity
  8
Defpoints
 62
     0
100
AcDbPoint
 10
944.219469406501
 20
1760.978057981272
 30
0.0
  0
ENDBLK
  5
3BE
330
3B3
100
AcDbEntity
  8
0
100
AcDbBlockEnd
  0
BLOCK
  5
3CA
330
3C0
100
AcDbEntity
  8
0
100
AcDbBlockBegin
  2
*D18
 70
     1
 10
0.0
 20
0.0
 30
0.0
  3
*D18
  1

  0
LINE
  5
18D0
330
3C0
100
AcDbEntity
  8
0
 62
     0
370
    15
100
AcDbLine
 10
749.219469406501
 20
1795.86010153411
 30
0.0
 11
749.219469406501
 21
1812.371067448058
 31
0.0
  0
LINE
  5
18D1
330
3C0
100
AcDbEntity
  8
0
 62
     0
370
    15
100
AcDbLine
 10
1009.219469406501
 20
1795.86010153411
 30
0.0
 11
1009.219469406501
 21
1812.371067448058
 31
0.0
  0
LINE
  5
18D2
330
3C0
100
AcDbEntity
  8
0
 62
     0
370
    15
100
AcDbLine
 10
749.219469406501
 20
1812.371067448058
 30
0.0
 11
1009.219469406501
 21
1812.371067448058
 31
0.0
  0
INSERT
  5
18D3
330
3C0
100
AcDbEntity
  8
0
 62
     0
370
    15
100
AcDbBlockReference
  2
_DotSmall
 10
749.219469406501
 20
1812.371067448058
 30
0.0
 41
30.0
 42
30.0
 43
30.0
 50
180.0
  0
INSERT
  5
18D4
330
3C0
100
AcDbEntity
  8
0
 62
     0
370
    15
100
AcDbBlockReference
  2
_DotSmall
 10
1009.219469406501
 20
1812.371067448058
 30
0.0
 41
30.0
 42
30.0
 43
30.0
  0
MTEXT
  5
18D5
330
3C0
100
AcDbEntity
  8
0
 62
     0
100
AcDbMText
 10
879.219469406501
 20
1831.121067448058
 30
0.0
 40
25.0
 41
0.0
 71
     5
 72
     1
  1
260
 73
     1
 44
1.0
1001
ACAD
1000
MTEXTBEGIN
1070
    73
1070
     1
1070
    44
1040
1.0
1070
    74
1070
     0
1000
MTEXTEND
  0
POINT
  5
18D6
330
3C0
100
AcDbEntity
  8
Defpoints
 62
     0
100
AcDbPoint
 10
749.219469406501
 20
1730.86010153411
 30
0.0
  0
POINT
  5
18D7
330
3C0
100
AcDbEntity
  8
Defpoints
 62
     0
100
AcDbPoint
 10
1009.219469406501
 20
1730.86010153411
 30
0.0
  0
POINT
  5
18D8
330
3C0
100
AcDbEntity
  8
Defpoints
 62
     0
100
AcDbPoint
 10
1009.219469406501
 20
1812.371067448058
 30
0.0
  0
ENDBLK
  5
3CB
330
3C0
100
AcDbEntity
  8
0
100
AcDbBlockEnd
  0
BLOCK
  5
47E
330
474
100
AcDbEntity
  8
0
100
AcDbBlockBegin
  2
*D19
 70
     1
 10
0.0
 20
0.0
 30
0.0
  3
*D19
  1

  0
LINE
  5
1A2E
330
474
100
AcDbEntity
  8
0
 62
     0
370
    15
100
AcDbLine
 10
958.719469406501
 20
459.2929064030613
 30
0.0
 11
958.719469406501
 21
402.8984317050462
 31
0.0
  0
LINE
  5
1A2F
330
474
100
AcDbEntity
  8
0
 62
     0
370
    15
100
AcDbLine
 10
799.7194694065008
 20
459.2929064030616
 30
0.0
 11
799.7194694065008
 21
402.8984317050462
 31
0.0
  0
LINE
  5
1A30
330
474
100
AcDbEntity
  8
0
 62
     0
370
    15
100
AcDbLine
 10
958.719469406501
 20
402.8984317050462
 30
0.0
 11
799.7194694065008
 21
402.8984317050462
 31
0.0
  0
INSERT
  5
1A31
330
474
100
AcDbEntity
  8
0
 62
     0
370
    15
100
AcDbBlockReference
  2
_DotSmall
 10
958.719469406501
 20
402.8984317050462
 30
0.0
 41
30.0
 42
30.0
 43
30.0
  0
INSERT
  5
1A32
330
474
100
AcDbEntity
  8
0
 62
     0
370
    15
100
AcDbBlockReference
  2
_DotSmall
 10
799.7194694065008
 20
402.8984317050462
 30
0.0
 41
30.0
 42
30.0
 43
30.0
 50
180.0
  0
MTEXT
  5
1A33
330
474
100
AcDbEntity
  8
0
 62
     0
100
AcDbMText
 10
879.219469406501
 20
421.6484317050462
 30
0.0
 40
25.0
 41
0.0
 71
     5
 72
     1
  1
158
 73
     1
 44
1.0
1001
ACAD
1000
MTEXTBEGIN
1070
    73
1070
     1
1070
    44
1040
1.0
1070
    74
1070
     0
1000
MTEXTEND
  0
POINT
  5
1A34
330
474
100
AcDbEntity
  8
Defpoints
 62
     0
100
AcDbPoint
 10
958.719469406501
 20
524.2929064030613
 30
0.0
  0
POINT
  5
1A35
330
474
100
AcDbEntity
  8
Defpoints
 62
     0
100
AcDbPoint
 10
799.7194694065008
 20
524.2929064030615
 30
0.0
  0
POINT
  5
1A36
330
474
100
AcDbEntity
  8
Defpoints
 62
     0
100
AcDbPoint
 10
799.7194694065008
 20
402.8984317050462
 30
0.0
  0
ENDBLK
  5
47F
330
474
100
AcDbEntity
  8
0
100
AcDbBlockEnd
  0
BLOCK
  5
48B
330
481
100
AcDbEntity
  8
0
100
AcDbBlockBegin
  2
*D20
 70
     1
 10
0.0
 20
0.0
 30
0.0
  3
*D20
  1

  0
LINE
  5
194E
330
481
100
AcDbEntity
  8
0
 62
     0
370
    15
100
AcDbLine
 10
969.7194694065011
 20
596.2929064030613
 30
0.0
 11
969.7194694065011
 21
633.445930941033
 31
0.0
  0
LINE
  5
194F
330
481
100
AcDbEntity
  8
0
 62
     0
370
    15
100
AcDbLine
 10
788.719469406501
 20
596.2929064030614
 30
0.0
 11
788.719469406501
 21
633.445930941033
 31
0.0
  0
LINE
  5
1950
330
481
100
AcDbEntity
  8
0
 62
     0
370
    15
100
AcDbLine
 10
969.7194694065011
 20
633.445930941033
 30
0.0
 11
788.719469406501
 21
633.445930941033
 31
0.0
  0
INSERT
  5
1951
330
481
100
AcDbEntity
  8
0
 62
     0
370
    15
100
AcDbBlockReference
  2
_DotSmall
 10
969.7194694065011
 20
633.445930941033
 30
0.0
 41
30.0
 42
30.0
 43
30.0
  0
INSERT
  5
1952
330
481
100
AcDbEntity
  8
0
 62
     0
370
    15
100
AcDbBlockReference
  2
_DotSmall
 10
788.719469406501
 20
633.445930941033
 30
0.0
 41
30.0
 42
30.0
 43
30.0
 50
180.0
  0
MTEXT
  5
1953
330
481
100
AcDbEntity
  8
0
 62
     0
100
AcDbMText
 10
879.219469406501
 20
652.195930941033
 30
0.0
 40
25.0
 41
0.0
 71
     5
 72
     1
  1
181
 73
     1
 44
1.0
1001
ACAD
1000
MTEXTBEGIN
1070
    73
1070
     1
1070
    44
1040
1.0
1070
    74
1070
     0
1000
MTEXTEND
  0
POINT
  5
1954
330
481
100
AcDbEntity
  8
Defpoints
 62
     0
100
AcDbPoint
 10
969.7194694065011
 20
531.2929064030613
 30
0.0
  0
POINT
  5
1955
330
481
100
AcDbEntity
  8
Defpoints
 62
     0
100
AcDbPoint
 10
788.719469406501
 20
531.2929064030615
 30
0.0
  0
POINT
  5
1956
330
481
100
AcDbEntity
  8
Defpoints
 62
     0
100
AcDbPoint
 10
788.719469406501
 20
633.445930941033
 30
0.0
  0
ENDBLK
  5
48C
330
481
100
AcDbEntity
  8
0
100
AcDbBlockEnd
  0
BLOCK
  5
4CC
330
4C2
100
AcDbEntity
  8
0
100
AcDbBlockBegin
  2
*D21
 70
     1
 10
0.0
 20
0.0
 30
0.0
  3
*D21
  1

  0
LINE
  5
19A8
330
4C2
100
AcDbEntity
  8
0
 62
     0
370
    15
100
AcDbLine
 10
1893.512425656321
 20
857.062606137153
 30
0.0
 11
1893.512425656321
 21
898.239547659331
 31
0.0
  0
LINE
  5
19A9
330
4C2
100
AcDbEntity
  8
0
 62
     0
370
    15
100
AcDbLine
 10
1723.512425656321
 20
857.062606137153
 30
0.0
 11
1723.512425656321
 21
898.239547659331
 31
0.0
  0
LINE
  5
19AA
330
4C2
100
AcDbEntity
  8
0
 62
     0
370
    15
100
AcDbLine
 10
1893.512425656321
 20
898.239547659331
 30
0.0
 11
1723.512425656321
 21
898.239547659331
 31
0.0
  0
INSERT
  5
19AB
330
4C2
100
AcDbEntity
  8
0
 62
     0
370
    15
100
AcDbBlockReference
  2
_DotSmall
 10
1893.512425656321
 20
898.239547659331
 30
0.0
 41
30.0
 42
30.0
 43
30.0
  0
INSERT
  5
19AC
330
4C2
100
AcDbEntity
  8
0
 62
     0
370
    15
100
AcDbBlockReference
  2
_DotSmall
 10
1723.512425656321
 20
898.239547659331
 30
0.0
 41
30.0
 42
30.0
 43
30.0
 50
180.0
  0
MTEXT
  5
19AD
330
4C2
100
AcDbEntity
  8
0
 62
     0
100
AcDbMText
 10
1808.512425656321
 20
916.989547659331
 30
0.0
 40
25.0
 41
0.0
 71
     5
 72
     1
  1
17
 73
     1
 44
1.0
1001
ACAD
1000
MTEXTBEGIN
1070
    73
1070
     1
1070
    44
1040
1.0
1070
    74
1070
     0
1000
MTEXTEND
  0
POINT
  5
19AE
330
4C2
100
AcDbEntity
  8
Defpoints
 62
     0
100
AcDbPoint
 10
1893.512425656321
 20
792.0626061371531
 30
0.0
  0
POINT
  5
19AF
330
4C2
100
AcDbEntity
  8
Defpoints
 62
     0
100
AcDbPoint
 10
1723.512425656321
 20
792.0626061371531
 30
0.0
  0
POINT
  5
19B0
330
4C2
100
AcDbEntity
  8
Defpoints
 62
     0
100
AcDbPoint
 10
1723.512425656321
 20
898.239547659331
 30
0.0
  0
ENDBLK
  5
4CD
330
4C2
100
AcDbEntity
  8
0
100
AcDbBlockEnd
  0
BLOCK
  5
593
330
587
100
AcDbEntity
  8
0
100
AcDbBlockBegin
  2
*D22
 70
     1
 10
0.0
 20
0.0
 30
0.0
  3
*D22
  1

  0
LINE
  5
18AC
330
587
100
AcDbEntity
  8
0
 62
     0
370
    15
100
AcDbLine
 10
732.4744054304028
 20
1633.86010153411
 30
0.0
 11
721.4469088348606
 21
1633.86010153411
 31
0.0
  0
LINE
  5
18AD
330
587
100
AcDbEntity
  8
0
 62
     0
370
    15
100
AcDbLine
 10
749.219469406501
 20
1648.86010153411
 30
0.0
 11
721.4469088348606
 21
1648.86010153411
 31
0.0
  0
LINE
  5
18AE
330
587
100
AcDbEntity
  8
0
 62
     0
370
    15
100
AcDbLine
 10
721.4469088348606
 20
1633.86010153411
 30
0.0
 11
721.4469088348606
 21
1648.86010153411
 31
0.0
  0
MTEXT
  5
18AF
330
587
100
AcDbEntity
  8
0
 62
     0
100
AcDbMText
 10
719.2038224101516
 20
1689.317960018182
 30
0.0
 40
25.0
 41
0.0
 71
     5
 72
     1
  1
15
 11
0.0000000000000001
 21
1.0
 31
0.0
 73
     1
 44
1.0
1001
ACAD
1000
MTEXTBEGIN
1070
    73
1070
     1
1070
    44
1040
1.0
1070
    74
1070
     0
1000
MTEXTEND
  0
INSERT
  5
18B0
330
587
100
AcDbEntity
  8
0
 62
     0
370
    15
100
AcDbBlockReference
  2
_DotSmall
 10
721.4469088348606
 20
1633.86010153411
 30
0.0
 41
30.0
 42
30.0
 43
30.0
 50
270.0
  0
INSERT
  5
18B1
330
587
100
AcDbEntity
  8
0
 62
     0
370
    15
100
AcDbBlockReference
  2
_DotSmall
 10
721.4469088348606
 20
1648.86010153411
 30
0.0
 41
30.0
 42
30.0
 43
30.0
 50
90.0
  0
POINT
  5
18B2
330
587
100
AcDbEntity
  8
Defpoints
 62
     0
100
AcDbPoint
 10
797.4744054304028
 20
1633.86010153411
 30
0.0
  0
POINT
  5
18B3
330
587
100
AcDbEntity
  8
Defpoints
 62
     0
100
AcDbPoint
 10
814.2194694065009
 20
1648.86010153411
 30
0.0
  0
POINT
  5
18B4
330
587
100
AcDbEntity
  8
Defpoints
 62
     0
100
AcDbPoint
 10
721.4469088348606
 20
1648.86010153411
 30
0.0
  0
ENDBLK
  5
594
330
587
100
AcDbEntity
  8
0
100
AcDbBlockEnd
  0
BLOCK
  5
E8C
330
E82
100
AcDbEntity
  8
0
100
AcDbBlockBegin
  2
*D23
 70
     1
 10
0.0
 20
0.0
 30
0.0
  3
*D23
  1

  0
LINE
  5
1945
330
E82
100
AcDbEntity
  8
実形
 62
     0
370
    15
100
AcDbLine
 10
969.7194694065011
 20
596.2929064030613
 30
0.0
 11
969.7194694065011
 21
633.445930941033
 31
0.0
  0
LINE
  5
1946
330
E82
100
AcDbEntity
  8
実形
 62
     0
370
    15
100
AcDbLine
 10
989.719469406501
 20
596.2929064030616
 30
0.0
 11
989.719469406501
 21
633.445930941033
 31
0.0
  0
LINE
  5
1947
330
E82
100
AcDbEntity
  8
実形
 62
     0
370
    15
100
AcDbLine
 10
969.7194694065011
 20
633.445930941033
 30
0.0
 11
989.719469406501
 21
633.445930941033
 31
0.0
  0
MTEXT
  5
1948
330
E82
100
AcDbEntity
  8
実形
 62
     0
100
AcDbMText
 10
979.2698437859916
 20
656.7056199112134
 30
0.0
 40
25.0
 41
0.0
 71
     5
 72
     1
  1
20
 73
     1
 44
1.0
1001
ACAD
1000
MTEXTBEGIN
1070
    73
1070
     1
1070
    44
1040
1.0
1070
    74
1070
     0
1000
MTEXTEND
  0
INSERT
  5
1949
330
E82
100
AcDbEntity
  8
実形
 62
     0
370
    15
100
AcDbBlockReference
  2
_DotSmall
 10
969.7194694065011
 20
633.445930941033
 30
0.0
 41
30.0
 42
30.0
 43
30.0
 50
180.0
  0
INSERT
  5
194A
330
E82
100
AcDbEntity
  8
実形
 62
     0
370
    15
100
AcDbBlockReference
  2
_DotSmall
 10
989.719469406501
 20
633.445930941033
 30
0.0
 41
30.0
 42
30.0
 43
30.0
  0
POINT
  5
194B
330
E82
100
AcDbEntity
  8
Defpoints
 62
     0
100
AcDbPoint
 10
969.7194694065011
 20
531.2929064030613
 30
0.0
  0
POINT
  5
194C
330
E82
100
AcDbEntity
  8
Defpoints
 62
     0
100
AcDbPoint
 10
989.719469406501
 20
531.2929064030615
 30
0.0
  0
POINT
  5
194D
330
E82
100
AcDbEntity
  8
Defpoints
 62
     0
100
AcDbPoint
 10
989.719469406501
 20
633.445930941033
 30
0.0
  0
ENDBLK
  5
E8D
330
E82
100
AcDbEntity
  8
0
100
AcDbBlockEnd
  0
BLOCK
  5
E99
330
E8F
100
AcDbEntity
  8
0
100
AcDbBlockBegin
  2
*D24
 70
     1
 10
0.0
 20
0.0
 30
0.0
  3
*D24
  1

  0
LINE
  5
18A3
330
E8F
100
AcDbEntity
  8
実形
 62
     0
370
    15
100
AcDbLine
 10
788.719469406501
 20
596.2929064030614
 30
0.0
 11
788.719469406501
 21
633.445930941033
 31
0.0
  0
LINE
  5
18A4
330
E8F
100
AcDbEntity
  8
実形
 62
     0
370
    15
100
AcDbLine
 10
768.719469406501
 20
596.2929064030616
 30
0.0
 11
768.719469406501
 21
633.445930941033
 31
0.0
  0
LINE
  5
18A5
330
E8F
100
AcDbEntity
  8
実形
 62
     0
370
    15
100
AcDbLine
 10
788.719469406501
 20
633.445930941033
 30
0.0
 11
768.719469406501
 21
633.445930941033
 31
0.0
  0
MTEXT
  5
18A6
330
E8F
100
AcDbEntity
  8
実形
 62
     0
100
AcDbMText
 10
777.8797497513332
 20
657.3569396558855
 30
0.0
 40
25.0
 41
0.0
 71
     5
 72
     1
  1
20
 73
     1
 44
1.0
1001
ACAD
1000
MTEXTBEGIN
1070
    73
1070
     1
1070
    44
1040
1.0
1070
    74
1070
     0
1000
MTEXTEND
  0
INSERT
  5
18A7
330
E8F
100
AcDbEntity
  8
実形
 62
     0
370
    15
100
AcDbBlockReference
  2
_DotSmall
 10
788.719469406501
 20
633.445930941033
 30
0.0
 41
30.0
 42
30.0
 43
30.0
  0
INSERT
  5
18A8
330
E8F
100
AcDbEntity
  8
実形
 62
     0
370
    15
100
AcDbBlockReference
  2
_DotSmall
 10
768.719469406501
 20
633.445930941033
 30
0.0
 41
30.0
 42
30.0
 43
30.0
 50
180.0
  0
POINT
  5
18A9
330
E8F
100
AcDbEntity
  8
Defpoints
 62
     0
100
AcDbPoint
 10
788.719469406501
 20
531.2929064030615
 30
0.0
  0
POINT
  5
18AA
330
E8F
100
AcDbEntity
  8
Defpoints
 62
     0
100
AcDbPoint
 10
768.719469406501
 20
531.2929064030615
 30
0.0
  0
POINT
  5
18AB
330
E8F
100
AcDbEntity
  8
Defpoints
 62
     0
100
AcDbPoint
 10
768.719469406501
 20
633.445930941033
 30
0.0
  0
ENDBLK
  5
E9A
330
E8F
100
AcDbEntity
  8
0
100
AcDbBlockEnd
  0
BLOCK
  5
142D
330
1423
100
AcDbEntity
  8
0
100
AcDbBlockBegin
  2
*D25
 70
     1
 10
0.0
 20
0.0
 30
0.0
  3
*D25
  1

  0
LINE
  5
18E9
330
1423
100
AcDbEntity
  8
実形
 62
     0
370
    15
100
AcDbLine
 10
547.2194694065009
 20
1573.86010153411
 30
0.0
 11
491.3098950171582
 21
1573.86010153411
 31
0.0
  0
LINE
  5
18EA
330
1423
100
AcDbEntity
  8
実形
 62
     0
370
    15
100
AcDbLine
 10
547.219469406501
 20
1358.86010153411
 30
0.0
 11
491.3098950171582
 21
1358.86010153411
 31
0.0
  0
LINE
  5
18EB
330
1423
100
AcDbEntity
  8
実形
 62
     0
370
    15
100
AcDbLine
 10
491.3098950171582
 20
1573.86010153411
 30
0.0
 11
491.3098950171582
 21
1358.86010153411
 31
0.0
  0
INSERT
  5
18EC
330
1423
100
AcDbEntity
  8
実形
 62
     0
370
    15
100
AcDbBlockReference
  2
_DotSmall
 10
491.3098950171582
 20
1573.86010153411
 30
0.0
 41
30.0
 42
30.0
 43
30.0
 50
90.0
  0
INSERT
  5
18ED
330
1423
100
AcDbEntity
  8
実形
 62
     0
370
    15
100
AcDbBlockReference
  2
_DotSmall
 10
491.3098950171582
 20
1358.86010153411
 30
0.0
 41
30.0
 42
30.0
 43
30.0
 50
270.0
  0
MTEXT
  5
18EE
330
1423
100
AcDbEntity
  8
実形
 62
     0
100
AcDbMText
 10
472.559895017158
 20
1466.36010153411
 30
0.0
 40
25.0
 41
0.0
 71
     5
 72
     1
  1
215
 11
0.0000000000000001
 21
1.0
 31
0.0
 73
     1
 44
1.0
1001
ACAD
1000
MTEXTBEGIN
1070
    73
1070
     1
1070
    44
1040
1.0
1070
    74
1070
     0
1000
MTEXTEND
  0
POINT
  5
18EF
330
1423
100
AcDbEntity
  8
Defpoints
 62
     0
100
AcDbPoint
 10
612.2194694065009
 20
1573.86010153411
 30
0.0
  0
POINT
  5
18F0
330
1423
100
AcDbEntity
  8
Defpoints
 62
     0
100
AcDbPoint
 10
612.219469406501
 20
1358.86010153411
 30
0.0
  0
POINT
  5
18F1
330
1423
100
AcDbEntity
  8
Defpoints
 62
     0
100
AcDbPoint
 10
491.3098950171582
 20
1358.86010153411
 30
0.0
  0
ENDBLK
  5
142E
330
1423
100
AcDbEntity
  8
0
100
AcDbBlockEnd
  0
BLOCK
  5
14A9
330
149F
100
AcDbEntity
  8
0
100
AcDbBlockBegin
  2
*D26
 70
     1
 10
0.0
 20
0.0
 30
0.0
  3
*D26
  1

  0
LINE
  5
199F
330
149F
100
AcDbEntity
  8
寸法
 62
     0
370
    15
100
AcDbLine
 10
1623.676615367452
 20
1386.36010153411
 30
0.0
 11
1623.676615367452
 21
1457.879312780413
 31
0.0
  0
LINE
  5
19A0
330
149F
100
AcDbEntity
  8
寸法
 62
     0
370
    15
100
AcDbLine
 10
1673.676615367452
 20
1447.479690349655
 30
0.0
 11
1673.676615367452
 21
1457.879312780413
 31
0.0
  0
LINE
  5
19A1
330
149F
100
AcDbEntity
  8
寸法
 62
     0
370
    18
100
AcDbLine
 10
1623.676615367452
 20
1457.879312780413
 30
0.0
 11
1673.676615367452
 21
1457.879312780413
 31
0.0
  0
MTEXT
  5
19A2
330
149F
100
AcDbEntity
  8
寸法
 62
     0
100
AcDbMText
 10
1663.639139838013
 20
1487.724998541774
 30
0.0
 40
25.0
 41
0.0
 71
     5
 72
     1
  1
50
 73
     1
 44
1.0
1001
ACAD
1000
MTEXTBEGIN
1070
    73
1070
     1
1070
    44
1040
1.0
1070
    74
1070
     0
1000
MTEXTEND
  0
INSERT
  5
19A3
330
149F
100
AcDbEntity
  8
寸法
 62
     0
370
    18
100
AcDbBlockReference
  2
_DotSmall
 10
1623.676615367452
 20
1457.879312780413
 30
0.0
 41
30.0
 42
30.0
 43
30.0
 50
180.0
  0
INSERT
  5
19A4
330
149F
100
AcDbEntity
  8
寸法
 62
     0
370
    18
100
AcDbBlockReference
  2
_DotSmall
 10
1673.676615367452
 20
1457.879312780413
 30
0.0
 41
30.0
 42
30.0
 43
30.0
  0
POINT
  5
19A5
330
149F
100
AcDbEntity
  8
Defpoints
 62
     0
100
AcDbPoint
 10
1623.676615367452
 20
1321.36010153411
 30
0.0
  0
POINT
  5
19A6
330
149F
100
AcDbEntity
  8
Defpoints
 62
     0
100
AcDbPoint
 10
1673.676615367452
 20
1382.479690349655
 30
0.0
  0
POINT
  5
19A7
330
149F
100
AcDbEntity
  8
Defpoints
 62
     0
100
AcDbPoint
 10
1673.676615367452
 20
1457.879312780413
 30
0.0
  0
ENDBLK
  5
14AA
330
149F
100
AcDbEntity
  8
0
100
AcDbBlockEnd
  0
BLOCK
  5
14B5
330
14AB
100
AcDbEntity
  8
0
100
AcDbBlockBegin
  2
*D27
 70
     1
 10
0.0
 20
0.0
 30
0.0
  3
*D27
  1

  0
LINE
  5
1996
330
14AB
100
AcDbEntity
  8
0
 62
     0
370
    15
100
AcDbLine
 10
1753.676615367453
 20
1358.86010153411
 30
0.0
 11
1908.871031503211
 21
1358.86010153411
 31
0.0
  0
LINE
  5
1997
330
14AB
100
AcDbEntity
  8
0
 62
     0
370
    15
100
AcDbLine
 10
1848.676615367453
 20
1573.86010153411
 30
0.0
 11
1908.871031503211
 21
1573.86010153411
 31
0.0
  0
LINE
  5
1998
330
14AB
100
AcDbEntity
  8
0
 62
     0
370
    15
100
AcDbLine
 10
1908.871031503211
 20
1358.86010153411
 30
0.0
 11
1908.871031503211
 21
1573.86010153411
 31
0.0
  0
INSERT
  5
1999
330
14AB
100
AcDbEntity
  8
0
 62
     0
370
    15
100
AcDbBlockReference
  2
_DotSmall
 10
1908.871031503211
 20
1358.86010153411
 30
0.0
 41
30.0
 42
30.0
 43
30.0
 50
270.0
  0
INSERT
  5
199A
330
14AB
100
AcDbEntity
  8
0
 62
     0
370
    15
100
AcDbBlockReference
  2
_DotSmall
 10
1908.871031503211
 20
1573.86010153411
 30
0.0
 41
30.0
 42
30.0
 43
30.0
 50
90.0
  0
MTEXT
  5
199B
330
14AB
100
AcDbEntity
  8
0
 62
     0
100
AcDbMText
 10
1890.121031503211
 20
1466.36010153411
 30
0.0
 40
25.0
 41
0.0
 71
     5
 72
     1
  1
215
 11
0.0000000000000001
 21
1.0
 31
0.0
 73
     1
 44
1.0
1001
ACAD
1000
MTEXTBEGIN
1070
    73
1070
     1
1070
    44
1040
1.0
1070
    74
1070
     0
1000
MTEXTEND
  0
POINT
  5
199C
330
14AB
100
AcDbEntity
  8
Defpoints
 62
     0
100
AcDbPoint
 10
1688.676615367452
 20
1358.86010153411
 30
0.0
  0
POINT
  5
199D
330
14AB
100
AcDbEntity
  8
Defpoints
 62
     0
100
AcDbPoint
 10
1783.676615367453
 20
1573.86010153411
 30
0.0
  0
POINT
  5
199E
330
14AB
100
AcDbEntity
  8
Defpoints
 62
     0
100
AcDbPoint
 10
1908.871031503211
 20
1573.86010153411
 30
0.0
  0
ENDBLK
  5
14B6
330
14AB
100
AcDbEntity
  8
0
100
AcDbBlockEnd
  0
BLOCK
  5
15E0
330
15D6
100
AcDbEntity
  8
0
100
AcDbBlockBegin
  2
*D28
 70
     1
 10
0.0
 20
0.0
 30
0.0
  3
*D28
  1

  0
LINE
  5
19C3
330
15D6
100
AcDbEntity
  8
寸法
 62
     0
370
    18
100
AcDbLine
 10
2198.809056420901
 20
726.8839376052966
 30
0.0
 11
2198.809056420901
 21
760.7678348786058
 31
0.0
  0
LINE
  5
19C4
330
15D6
100
AcDbEntity
  8
寸法
 62
     0
370
    18
100
AcDbLine
 10
2448.809056420902
 20
726.8839376052966
 30
0.0
 11
2448.809056420902
 21
760.7678348786058
 31
0.0
  0
LINE
  5
19C5
330
15D6
100
AcDbEntity
  8
寸法
 62
     0
370
    18
100
AcDbLine
 10
2198.809056420901
 20
760.7678348786058
 30
0.0
 11
2448.809056420902
 21
760.7678348786058
 31
0.0
  0
INSERT
  5
19C6
330
15D6
100
AcDbEntity
  8
寸法
 62
     0
370
    18
100
AcDbBlockReference
  2
_DotSmall
 10
2198.809056420901
 20
760.7678348786058
 30
0.0
 41
30.0
 42
30.0
 43
30.0
 50
180.0
  0
INSERT
  5
19C7
330
15D6
100
AcDbEntity
  8
寸法
 62
     0
370
    18
100
AcDbBlockReference
  2
_DotSmall
 10
2448.809056420902
 20
760.7678348786058
 30
0.0
 41
30.0
 42
30.0
 43
30.0
  0
MTEXT
  5
19C8
330
15D6
100
AcDbEntity
  8
寸法
 62
     0
100
AcDbMText
 10
2323.809056420901
 20
779.5178348786058
 30
0.0
 40
25.0
 41
0.0
 71
     5
 72
     1
  1
50
 73
     1
 44
1.0
1001
ACAD
1000
MTEXTBEGIN
1070
    73
1070
     1
1070
    44
1040
1.0
1070
    74
1070
     0
1000
MTEXTEND
  0
POINT
  5
19C9
330
15D6
100
AcDbEntity
  8
Defpoints
 62
     0
100
AcDbPoint
 10
2198.809056420901
 20
661.8839376052966
 30
0.0
  0
POINT
  5
19CA
330
15D6
100
AcDbEntity
  8
Defpoints
 62
     0
100
AcDbPoint
 10
2448.809056420902
 20
661.8839376052966
 30
0.0
  0
POINT
  5
19CB
330
15D6
100
AcDbEntity
  8
Defpoints
 62
     0
100
AcDbPoint
 10
2448.809056420902
 20
760.7678348786058
 30
0.0
  0
ENDBLK
  5
15E1
330
15D6
100
AcDbEntity
  8
0
100
AcDbBlockEnd
  0
BLOCK
  5
15EC
330
15E2
100
AcDbEntity
  8
0
100
AcDbBlockBegin
  2
*D29
 70
     1
 10
0.0
 20
0.0
 30
0.0
  3
*D29
  1

  0
LINE
  5
19BA
330
15E2
100
AcDbEntity
  8
寸法
 62
     0
370
    18
100
AcDbLine
 10
2483.809056420902
 20
726.8839376052966
 30
0.0
 11
2483.809056420902
 21
811.8026743438869
 31
0.0
  0
LINE
  5
19BB
330
15E2
100
AcDbEntity
  8
寸法
 62
     0
370
    18
100
AcDbLine
 10
2163.809056420902
 20
726.8839376052966
 30
0.0
 11
2163.809056420902
 21
811.8026743438869
 31
0.0
  0
LINE
  5
19BC
330
15E2
100
AcDbEntity
  8
寸法
 62
     0
370
    18
100
AcDbLine
 10
2483.809056420902
 20
811.8026743438869
 30
0.0
 11
2163.809056420902
 21
811.8026743438869
 31
0.0
  0
INSERT
  5
19BD
330
15E2
100
AcDbEntity
  8
寸法
 62
     0
370
    18
100
AcDbBlockReference
  2
_DotSmall
 10
2483.809056420902
 20
811.8026743438869
 30
0.0
 41
30.0
 42
30.0
 43
30.0
  0
INSERT
  5
19BE
330
15E2
100
AcDbEntity
  8
寸法
 62
     0
370
    18
100
AcDbBlockReference
  2
_DotSmall
 10
2163.809056420902
 20
811.8026743438869
 30
0.0
 41
30.0
 42
30.0
 43
30.0
 50
180.0
  0
MTEXT
  5
19BF
330
15E2
100
AcDbEntity
  8
寸法
 62
     0
100
AcDbMText
 10
2323.809056420901
 20
830.5526743438869
 30
0.0
 40
25.0
 41
0.0
 71
     5
 72
     1
  1
64
 73
     1
 44
1.0
1001
ACAD
1000
MTEXTBEGIN
1070
    73
1070
     1
1070
    44
1040
1.0
1070
    74
1070
     0
1000
MTEXTEND
  0
POINT
  5
19C0
330
15E2
100
AcDbEntity
  8
Defpoints
 62
     0
100
AcDbPoint
 10
2483.809056420902
 20
661.8839376052966
 30
0.0
  0
POINT
  5
19C1
330
15E2
100
AcDbEntity
  8
Defpoints
 62
     0
100
AcDbPoint
 10
2163.809056420902
 20
661.8839376052966
 30
0.0
  0
POINT
  5
19C2
330
15E2
100
AcDbEntity
  8
Defpoints
 62
     0
100
AcDbPoint
 10
2163.809056420902
 20
811.8026743438869
 30
0.0
  0
ENDBLK
  5
15ED
330
15E2
100
AcDbEntity
  8
0
100
AcDbBlockEnd
  0
BLOCK
  5
15F8
330
15EE
100
AcDbEntity
  8
0
100
AcDbBlockBegin
  2
*D30
 70
     1
 10
0.0
 20
0.0
 30
0.0
  3
*D30
  1

  0
LINE
  5
19B1
330
15EE
100
AcDbEntity
  8
寸法
 62
     0
370
    18
100
AcDbLine
 10
2136.309056420901
 20
726.8839376052966
 30
0.0
 11
2136.309056420901
 21
859.0099009682772
 31
0.0
  0
LINE
  5
19B2
330
15EE
100
AcDbEntity
  8
寸法
 62
     0
370
    18
100
AcDbLine
 10
2511.309056420902
 20
726.8839376052966
 30
0.0
 11
2511.309056420902
 21
859.0099009682772
 31
0.0
  0
LINE
  5
19B3
330
15EE
100
AcDbEntity
  8
寸法
 62
     0
370
    18
100
AcDbLine
 10
2136.309056420901
 20
859.0099009682772
 30
0.0
 11
2511.309056420902
 21
859.0099009682772
 31
0.0
  0
INSERT
  5
19B4
330
15EE
100
AcDbEntity
  8
寸法
 62
     0
370
    18
100
AcDbBlockReference
  2
_DotSmall
 10
2136.309056420901
 20
859.0099009682772
 30
0.0
 41
30.0
 42
30.0
 43
30.0
 50
180.0
  0
INSERT
  5
19B5
330
15EE
100
AcDbEntity
  8
寸法
 62
     0
370
    18
100
AcDbBlockReference
  2
_DotSmall
 10
2511.309056420902
 20
859.0099009682772
 30
0.0
 41
30.0
 42
30.0
 43
30.0
  0
MTEXT
  5
19B6
330
15EE
100
AcDbEntity
  8
寸法
 62
     0
100
AcDbMText
 10
2323.809056420901
 20
877.7599009682772
 30
0.0
 40
25.0
 41
0.0
 71
     5
 72
     1
  1
75
 73
     1
 44
1.0
1001
ACAD
1000
MTEXTBEGIN
1070
    73
1070
     1
1070
    44
1040
1.0
1070
    74
1070
     0
1000
MTEXTEND
  0
POINT
  5
19B7
330
15EE
100
AcDbEntity
  8
Defpoints
 62
     0
100
AcDbPoint
 10
2136.309056420901
 20
661.8839376052966
 30
0.0
  0
POINT
  5
19B8
330
15EE
100
AcDbEntity
  8
Defpoints
 62
     0
100
AcDbPoint
 10
2511.309056420902
 20
661.8839376052966
 30
0.0
  0
POINT
  5
19B9
330
15EE
100
AcDbEntity
  8
Defpoints
 62
     0
100
AcDbPoint
 10
2511.309056420902
 20
859.0099009682772
 30
0.0
  0
ENDBLK
  5
15F9
330
15EE
100
AcDbEntity
  8
0
100
AcDbBlockEnd
  0
BLOCK
  5
1604
330
15FA
100
AcDbEntity
  8
0
100
AcDbBlockBegin
  2
*D31
 70
     1
 10
0.0
 20
0.0
 30
0.0
  3
*D31
  1

  0
LINE
  5
197B
330
15FA
100
AcDbEntity
  8
寸法
 62
     0
370
    18
100
AcDbLine
 10
2576.309056420902
 20
661.8839376052966
 30
0.0
 11
2612.762069191493
 21
661.8839376052966
 31
0.0
  0
LINE
  5
197C
330
15FA
100
AcDbEntity
  8
寸法
 62
     0
370
    18
100
AcDbLine
 10
2576.309056420902
 20
561.8839376052966
 30
0.0
 11
2612.762069191493
 21
561.8839376052966
 31
0.0
  0
LINE
  5
197D
330
15FA
100
AcDbEntity
  8
寸法
 62
     0
370
    18
100
AcDbLine
 10
2612.762069191493
 20
661.8839376052966
 30
0.0
 11
2612.762069191493
 21
561.8839376052966
 31
0.0
  0
INSERT
  5
197E
330
15FA
100
AcDbEntity
  8
寸法
 62
     0
370
    18
100
AcDbBlockReference
  2
_DotSmall
 10
2612.762069191493
 20
661.8839376052966
 30
0.0
 41
30.0
 42
30.0
 43
30.0
 50
90.0
  0
INSERT
  5
197F
330
15FA
100
AcDbEntity
  8
寸法
 62
     0
370
    18
100
AcDbBlockReference
  2
_DotSmall
 10
2612.762069191493
 20
561.8839376052966
 30
0.0
 41
30.0
 42
30.0
 43
30.0
 50
270.0
  0
MTEXT
  5
1980
330
15FA
100
AcDbEntity
  8
寸法
 62
     0
100
AcDbMText
 10
2594.012069191494
 20
611.8839376052971
 30
0.0
 40
25.0
 41
0.0
 71
     5
 72
     1
  1
20
 11
0.0000000000000001
 21
1.0
 31
0.0
 73
     1
 44
1.0
1001
ACAD
1000
MTEXTBEGIN
1070
    73
1070
     1
1070
    44
1040
1.0
1070
    74
1070
     0
1000
MTEXTEND
  0
POINT
  5
1981
330
15FA
100
AcDbEntity
  8
Defpoints
 62
     0
100
AcDbPoint
 10
2511.309056420902
 20
661.8839376052966
 30
0.0
  0
POINT
  5
1982
330
15FA
100
AcDbEntity
  8
Defpoints
 62
     0
100
AcDbPoint
 10
2511.309056420902
 20
561.8839376052966
 30
0.0
  0
POINT
  5
1983
330
15FA
100
AcDbEntity
  8
Defpoints
 62
     0
100
AcDbPoint
 10
2612.762069191493
 20
561.8839376052966
 30
0.0
  0
ENDBLK
  5
1605
330
15FA
100
AcDbEntity
  8
0
100
AcDbBlockEnd
  0
BLOCK
  5
1610
330
1606
100
AcDbEntity
  8
0
100
AcDbBlockBegin
  2
*D32
 70
     1
 10
0.0
 20
0.0
 30
0.0
  3
*D32
  1

  0
LINE
  5
1972
330
1606
100
AcDbEntity
  8
寸法
 62
     0
370
    18
100
AcDbLine
 10
2576.309056420902
 20
687.3839376052966
 30
0.0
 11
2658.729734480604
 21
687.3839376052966
 31
0.0
  0
LINE
  5
1973
330
1606
100
AcDbEntity
  8
寸法
 62
     0
370
    18
100
AcDbLine
 10
2576.309056420902
 20
536.3839376052966
 30
0.0
 11
2658.729734480604
 21
536.3839376052966
 31
0.0
  0
LINE
  5
1974
330
1606
100
AcDbEntity
  8
寸法
 62
     0
370
    18
100
AcDbLine
 10
2658.729734480604
 20
687.3839376052966
 30
0.0
 11
2658.729734480604
 21
536.3839376052966
 31
0.0
  0
INSERT
  5
1975
330
1606
100
AcDbEntity
  8
寸法
 62
     0
370
    18
100
AcDbBlockReference
  2
_DotSmall
 10
2658.729734480604
 20
687.3839376052966
 30
0.0
 41
30.0
 42
30.0
 43
30.0
 50
90.0
  0
INSERT
  5
1976
330
1606
100
AcDbEntity
  8
寸法
 62
     0
370
    18
100
AcDbBlockReference
  2
_DotSmall
 10
2658.729734480604
 20
536.3839376052966
 30
0.0
 41
30.0
 42
30.0
 43
30.0
 50
270.0
  0
MTEXT
  5
1977
330
1606
100
AcDbEntity
  8
寸法
 62
     0
100
AcDbMText
 10
2639.979734480604
 20
611.8839376052971
 30
0.0
 40
25.0
 41
0.0
 71
     5
 72
     1
  1
31
 11
0.0000000000000001
 21
1.0
 31
0.0
 73
     1
 44
1.0
1001
ACAD
1000
MTEXTBEGIN
1070
    73
1070
     1
1070
    44
1040
1.0
1070
    74
1070
     0
1000
MTEXTEND
  0
POINT
  5
1978
330
1606
100
AcDbEntity
  8
Defpoints
 62
     0
100
AcDbPoint
 10
2511.309056420902
 20
687.3839376052966
 30
0.0
  0
POINT
  5
1979
330
1606
100
AcDbEntity
  8
Defpoints
 62
     0
100
AcDbPoint
 10
2511.309056420902
 20
536.3839376052966
 30
0.0
  0
POINT
  5
197A
330
1606
100
AcDbEntity
  8
Defpoints
 62
     0
100
AcDbPoint
 10
2658.729734480604
 20
536.3839376052966
 30
0.0
  0
ENDBLK
  5
1611
330
1606
100
AcDbEntity
  8
0
100
AcDbBlockEnd
  0
BLOCK
  5
1A8F
330
1A85
100
AcDbEntity
  8
0
100
AcDbBlockBegin
  2
*D33
 70
     1
 10
0.0
 20
0.0
 30
0.0
  3
*D33
  1

  0
LINE
  5
1AB5
330
1A85
100
AcDbEntity
  8
実形
 62
     0
370
    15
100
AcDbLine
 10
564.2194694065012
 20
721.2929064030613
 30
0.0
 11
511.0988019500783
 21
721.2929064030613
 31
0.0
  0
LINE
  5
1AB6
330
1A85
100
AcDbEntity
  8
実形
 62
     0
370
    15
100
AcDbLine
 10
564.2194694065015
 20
706.2929064030613
 30
0.0
 11
511.0988019500783
 21
706.2929064030613
 31
0.0
  0
LINE
  5
1AB7
330
1A85
100
AcDbEntity
  8
実形
 62
     0
370
    15
100
AcDbLine
 10
511.0988019500783
 20
721.2929064030613
 30
0.0
 11
511.0988019500783
 21
706.2929064030613
 31
0.0
  0
MTEXT
  5
1AB8
330
1A85
100
AcDbEntity
  8
実形
 62
     0
100
AcDbMText
 10
477.2013255389647
 20
754.6594034738626
 30
0.0
 40
25.0
 41
0.0
 71
     5
 72
     1
  1
15
 11
0.0000000000000001
 21
1.0
 31
0.0
 73
     1
 44
1.0
1001
ACAD
1000
MTEXTBEGIN
1070
    73
1070
     1
1070
    44
1040
1.0
1070
    74
1070
     0
1000
MTEXTEND
  0
INSERT
  5
1AB9
330
1A85
100
AcDbEntity
  8
実形
 62
     0
370
    15
100
AcDbBlockReference
  2
_DotSmall
 10
511.0988019500783
 20
721.2929064030613
 30
0.0
 41
30.0
 42
30.0
 43
30.0
 50
90.0
  0
INSERT
  5
1ABA
330
1A85
100
AcDbEntity
  8
実形
 62
     0
370
    15
100
AcDbBlockReference
  2
_DotSmall
 10
511.0988019500783
 20
706.2929064030613
 30
0.0
 41
30.0
 42
30.0
 43
30.0
 50
270.0
  0
POINT
  5
1ABB
330
1A85
100
AcDbEntity
  8
Defpoints
 62
     0
100
AcDbPoint
 10
629.2194694065012
 20
721.2929064030613
 30
0.0
  0
POINT
  5
1ABC
330
1A85
100
AcDbEntity
  8
Defpoints
 62
     0
100
AcDbPoint
 10
629.2194694065015
 20
706.2929064030613
 30
0.0
  0
POINT
  5
1ABD
330
1A85
100
AcDbEntity
  8
Defpoints
 62
     0
100
AcDbPoint
 10
511.0988019500783
 20
706.2929064030613
 30
0.0
  0
ENDBLK
  5
1A90
330
1A85
100
AcDbEntity
  8
0
100
AcDbBlockEnd
  0
BLOCK
  5
1A9B
330
1A91
100
AcDbEntity
  8
0
100
AcDbBlockBegin
  2
*D34
 70
     1
 10
0.0
 20
0.0
 30
0.0
  3
*D34
  1

  0
LINE
  5
1ABE
330
1A91
100
AcDbEntity
  8
実形
 62
     0
370
    15
100
AcDbLine
 10
563.4015604892993
 20
551.2929064030613
 30
0.0
 11
511.0988019500783
 21
551.2929064030613
 31
0.0
  0
LINE
  5
1ABF
330
1A91
100
AcDbEntity
  8
実形
 62
     0
370
    15
100
AcDbLine
 10
563.4015604892993
 20
531.2929064030615
 30
0.0
 11
511.0988019500783
 21
531.2929064030615
 31
0.0
  0
LINE
  5
1AC0
330
1A91
100
AcDbEntity
  8
実形
 62
     0
370
    15
100
AcDbLine
 10
511.0988019500783
 20
551.2929064030613
 30
0.0
 11
511.0988019500783
 21
531.2929064030615
 31
0.0
  0
MTEXT
  5
1AC1
330
1A91
100
AcDbEntity
  8
実形
 62
     0
100
AcDbMText
 10
477.617018766683
 20
560.4162496919315
 30
0.0
 40
25.0
 41
0.0
 71
     5
 72
     1
  1
20
 11
0.0000000000000001
 21
1.0
 31
0.0
 73
     1
 44
1.0
1001
ACAD
1000
MTEXTBEGIN
1070
    73
1070
     1
1070
    44
1040
1.0
1070
    74
1070
     0
1000
MTEXTEND
  0
INSERT
  5
1AC2
330
1A91
100
AcDbEntity
  8
実形
 62
     0
370
    15
100
AcDbBlockReference
  2
_DotSmall
 10
511.0988019500783
 20
551.2929064030613
 30
0.0
 41
30.0
 42
30.0
 43
30.0
 50
90.0
  0
INSERT
  5
1AC3
330
1A91
100
AcDbEntity
  8
実形
 62
     0
370
    15
100
AcDbBlockReference
  2
_DotSmall
 10
511.0988019500783
 20
531.2929064030615
 30
0.0
 41
30.0
 42
30.0
 43
30.0
 50
270.0
  0
POINT
  5
1AC4
330
1A91
100
AcDbEntity
  8
Defpoints
 62
     0
100
AcDbPoint
 10
628.4015604892992
 20
551.2929064030613
 30
0.0
  0
POINT
  5
1AC5
330
1A91
100
AcDbEntity
  8
Defpoints
 62
     0
100
AcDbPoint
 10
628.4015604892992
 20
531.2929064030615
 30
0.0
  0
POINT
  5
1AC6
330
1A91
100
AcDbEntity
  8
Defpoints
 62
     0
100
AcDbPoint
 10
511.0988019500783
 20
531.2929064030615
 30
0.0
  0
ENDBLK
  5
1A9C
330
1A91
100
AcDbEntity
  8
0
100
AcDbBlockEnd
  0
BLOCK
  5
1AA7
330
1A9D
100
AcDbEntity
  8
0
100
AcDbBlockBegin
  2
*D35
 70
     1
 10
0.0
 20
0.0
 30
0.0
  3
*D35
  1

  0
LINE
  5
1AC7
330
1A9D
100
AcDbEntity
  8
実形
 62
     0
370
    15
100
AcDbLine
 10
563.8009862401741
 20
521.2929064030613
 30
0.0
 11
511.0988019500783
 21
521.2929064030613
 31
0.0
  0
LINE
  5
1AC8
330
1A9D
100
AcDbEntity
  8
実形
 62
     0
370
    15
100
AcDbLine
 10
535.0180581202112
 20
551.2929064030613
 30
0.0
 11
511.0988019500783
 21
551.2929064030613
 31
0.0
  0
LINE
  5
1AC9
330
1A9D
100
AcDbEntity
  8
実形
 62
     0
370
    15
100
AcDbLine
 10
511.0988019500783
 20
521.2929064030613
 30
0.0
 11
511.0988019500783
 21
551.2929064030613
 31
0.0
  0
MTEXT
  5
1ACA
330
1A9D
100
AcDbEntity
  8
実形
 62
     0
100
AcDbMText
 10
481.2953627520328
 20
507.0879948184036
 30
0.0
 40
25.0
 41
0.0
 71
     5
 72
     1
  1
7
 11
0.0000000000000001
 21
1.0
 31
0.0
 73
     1
 44
1.0
1001
ACAD
1000
MTEXTBEGIN
1070
    73
1070
     1
1070
    44
1040
1.0
1070
    74
1070
     0
1000
MTEXTEND
  0
INSERT
  5
1ACB
330
1A9D
100
AcDbEntity
  8
実形
 62
     0
370
    15
100
AcDbBlockReference
  2
_DotSmall
 10
511.0988019500783
 20
521.2929064030613
 30
0.0
 41
30.0
 42
30.0
 43
30.0
 50
270.0
  0
INSERT
  5
1ACC
330
1A9D
100
AcDbEntity
  8
実形
 62
     0
370
    15
100
AcDbBlockReference
  2
_DotSmall
 10
511.0988019500783
 20
551.2929064030613
 30
0.0
 41
30.0
 42
30.0
 43
30.0
 50
90.0
  0
POINT
  5
1ACD
330
1A9D
100
AcDbEntity
  8
Defpoints
 62
     0
100
AcDbPoint
 10
628.800986240174
 20
521.2929064030613
 30
0.0
  0
POINT
  5
1ACE
330
1A9D
100
AcDbEntity
  8
Defpoints
 62
     0
100
AcDbPoint
 10
600.0180581202112
 20
551.2929064030613
 30
0.0
  0
POINT
  5
1ACF
330
1A9D
100
AcDbEntity
  8
Defpoints
 62
     0
100
AcDbPoint
 10
511.0988019500783
 20
551.2929064030613
 30
0.0
  0
ENDBLK
  5
1AA8
330
1A9D
100
AcDbEntity
  8
0
100
AcDbBlockEnd
  0
BLOCK
  5
1AB3
330
1AA9
100
AcDbEntity
  8
0
100
AcDbBlockBegin
  2
*D36
 70
     1
 10
0.0
 20
0.0
 30
0.0
  3
*D36
  1

  0
LINE
  5
1AD0
330
1AA9
100
AcDbEntity
  8
実形
 62
     0
370
    15
100
AcDbLine
 10
528.8433360776398
 20
721.2929064030613
 30
0.0
 11
424.5579035118917
 21
721.2929064030613
 31
0.0
  0
LINE
  5
1AD1
330
1AA9
100
AcDbEntity
  8
実形
 62
     0
370
    15
100
AcDbLine
 10
528.8433360776398
 20
531.2929064030615
 30
0.0
 11
424.5579035118916
 21
531.2929064030615
 31
0.0
  0
LINE
  5
1AD2
330
1AA9
100
AcDbEntity
  8
実形
 62
     0
370
    15
100
AcDbLine
 10
424.5579035118917
 20
721.2929064030613
 30
0.0
 11
424.5579035118916
 21
531.2929064030615
 31
0.0
  0
INSERT
  5
1AD3
330
1AA9
100
AcDbEntity
  8
実形
 62
     0
370
    15
100
AcDbBlockReference
  2
_DotSmall
 10
424.5579035118917
 20
721.2929064030613
 30
0.0
 41
30.0
 42
30.0
 43
30.0
 50
90.0
  0
INSERT
  5
1AD4
330
1AA9
100
AcDbEntity
  8
実形
 62
     0
370
    15
100
AcDbBlockReference
  2
_DotSmall
 10
424.5579035118916
 20
531.2929064030615
 30
0.0
 41
30.0
 42
30.0
 43
30.0
 50
270.0
  0
MTEXT
  5
1AD5
330
1AA9
100
AcDbEntity
  8
実形
 62
     0
100
AcDbMText
 10
405.8079035118916
 20
626.2929064030616
 30
0.0
 40
25.0
 41
0.0
 71
     5
 72
     1
  1
190
 11
0.0000000000000001
 21
1.0
 31
0.0
 73
     1
 44
1.0
1001
ACAD
1000
MTEXTBEGIN
1070
    73
1070
     1
1070
    44
1040
1.0
1070
    74
1070
     0
1000
MTEXTEND
  0
POINT
  5
1AD6
330
1AA9
100
AcDbEntity
  8
Defpoints
 62
     0
100
AcDbPoint
 10
593.8433360776398
 20
721.2929064030613
 30
0.0
  0
POINT
  5
1AD7
330
1AA9
100
AcDbEntity
  8
Defpoints
 62
     0
100
AcDbPoint
 10
593.8433360776398
 20
531.2929064030615
 30
0.0
  0
POINT
  5
1AD8
330
1AA9
100
AcDbEntity
  8
Defpoints
 62
     0
100
AcDbPoint
 10
424.5579035118916
 20
531.2929064030615
 30
0.0
  0
ENDBLK
  5
1AB4
330
1AA9
100
AcDbEntity
  8
0
100
AcDbBlockEnd
  0
BLOCK
  5
1BDB
330
1BDA
100
AcDbEntity
  8
0
100
AcDbBlockBegin
  2
_Dot
 70
     0
 10
0.0
 20
0.0
 30
0.0
  3
_Dot
  1

  0
LWPOLYLINE
  5
1BDC
330
1BDA
100
AcDbEntity
  8
0
 62
     0
100
AcDbPolyline
 90
        2
 70
     1
 43
0.5
 10
-0.25
 20
0.0
 42
1.0
 10
0.25
 20
0.0
 42
1.0
  0
LINE
  5
1BDD
330
1BDA
100
AcDbEntity
  8
0
 62
     0
370
    -2
100
AcDbLine
 10
-0.5
 20
0.0
 30
0.0
 11
-1.0
 21
0.0
 31
0.0
  0
ENDBLK
  5
1BDE
330
1BDA
100
AcDbEntity
  8
0
100
AcDbBlockEnd
  0
BLOCK
  5
1BE4
330
1BDF
100
AcDbEntity
  8
0
100
AcDbBlockBegin
  2
A$C6E975202
 70
     0
 10
0.0
 20
0.0
 30
0.0
  3
A$C6E975202
  1

  0
TEXT
  5
1BE0
330
1BDF
100
AcDbEntity
  8
寸法
 62
     0
100
AcDbText
 10
-0.0000081959879021
 20
873.0585266975676
 30
0.0
 40
60.0
  1
36φ
 11
-0.0000081959879026
 21
865.0585266975676
 31
0.0
100
AcDbText
 73
     1
  0
TEXT
  5
1BE1
330
1BDF
100
AcDbEntity
  8
寸法
 62
     0
100
AcDbText
 10
242.8378485608664
 20
0.0000025042498537
 30
0.0
 40
55.0
  1
PRS800-520GRM-OFR
 11
242.8378485608664
 21
-7.333330829083479
 31
0.0
100
AcDbText
 73
     1
  0
ENDBLK
  5
1BE5
330
1BDF
100
AcDbEntity
  8
0
100
AcDbBlockEnd
  0
ENDSEC
  0
SECTION
  2
ENTITIES
  0
LINE
  5
9C
330
1F
100
AcDbEntity
  8
補助
100
AcDbLine
 10
111.0
 20
4.0
 30
0.0
 11
2784.0
 21
4.0
 31
0.0
  0
LINE
  5
A0
330
1F
100
AcDbEntity
  8
補助
100
AcDbLine
 10
2784.0
 20
2024.0
 30
0.0
 11
111.0
 21
2024.0
 31
0.0
  0
LINE
  5
A5
330
1F
100
AcDbEntity
  8
補助
100
AcDbLine
 10
2784.0
 20
4.0
 30
0.0
 11
2784.0
 21
2024.0
 31
0.0
  0
LINE
  5
A8
330
1F
100
AcDbEntity
  8
補助
100
AcDbLine
 10
2184.0
 20
69.0
 30
0.0
 11
2184.0
 21
199.0
 31
0.0
  0
LINE
  5
A9
330
1F
100
AcDbEntity
  8
補助
100
AcDbLine
 10
2184.0
 20
69.0
 30
0.0
 11
2784.0
 21
69.0
 31
0.0
  0
LINE
  5
AA
330
1F
100
AcDbEntity
  8
補助
100
AcDbLine
 10
2064.0
 20
134.0
 30
0.0
 11
2784.0
 21
134.0
 31
0.0
  0
LINE
  5
AB
330
1F
100
AcDbEntity
  8
補助
100
AcDbLine
 10
2064.0
 20
199.0
 30
0.0
 11
2784.0
 21
199.0
 31
0.0
  0
LINE
  5
AD
330
1F
100
AcDbEntity
  8
補助
100
AcDbLine
 10
2784.0
 20
4.0
 30
0.0
 11
2784.0
 21
69.0
 31
0.0
  0
LINE
  5
25F
330
1F
100
AcDbEntity
  8
0
100
AcDbLine
 10
744.219469406501
 20
1128.86010153411
 30
0.0
 11
1164.219469406501
 21
1128.86010153411
 31
0.0
  0
LINE
  5
260
330
1F
100
AcDbEntity
  8
0
100
AcDbLine
 10
1279.219469406501
 20
1258.86010153411
 30
0.0
 11
1279.219469406501
 21
1588.86010153411
 31
0.0
  0
LINE
  5
261
330
1F
100
AcDbEntity
  8
0
100
AcDbLine
 10
1219.219469406501
 20
1648.86010153411
 30
0.0
 11
689.219469406501
 21
1648.86010153411
 31
0.0
  0
LINE
  5
262
330
1F
100
AcDbEntity
  8
0
100
AcDbLine
 10
629.219469406501
 20
1588.86010153411
 30
0.0
 11
629.219469406501
 21
1258.86010153411
 31
0.0
  0
LINE
  5
263
330
1F
100
AcDbEntity
  8
0
100
AcDbLine
 10
744.219469406501
 20
1111.86010153411
 30
0.0
 11
1164.219469406501
 21
1111.86010153411
 31
0.0
  0
LINE
  5
264
330
1F
100
AcDbEntity
  8
0
100
AcDbLine
 10
1296.219469406501
 20
1243.86010153411
 30
0.0
 11
1296.219469406501
 21
1588.86010153411
 31
0.0
  0
LINE
  5
265
330
1F
100
AcDbEntity
  8
0
100
AcDbLine
 10
1219.219469406501
 20
1665.86010153411
 30
0.0
 11
689.219469406501
 21
1665.86010153411
 31
0.0
  0
LINE
  5
266
330
1F
100
AcDbEntity
  8
0
100
AcDbLine
 10
612.219469406501
 20
1588.86010153411
 30
0.0
 11
612.219469406501
 21
1243.86010153411
 31
0.0
  0
LINE
  5
267
330
1F
100
AcDbEntity
  8
0
100
AcDbLine
 10
1164.219469406501
 20
1573.86010153411
 30
0.0
 11
1069.219469406501
 21
1573.86010153411
 31
0.0
  0
LINE
  5
26B
330
1F
100
AcDbEntity
  8
0
100
AcDbLine
 10
744.219469406501
 20
1143.86010153411
 30
0.0
 11
1164.219469406501
 21
1143.86010153411
 31
0.0
  0
DIMENSION
  5
270
330
1F
100
AcDbEntity
  8
0
100
AcDbDimension
  2
*D4
 10
421.8398950171581
 20
1143.86010153411
 30
0.0
 11
403.089895017158
 21
1196.776768200777
 31
0.0
 70
    32
 71
     5
 42
15.0
  3
ISO-25
100
AcDbAlignedDimension
 13
612.219469406501
 23
1128.86010153411
 33
0.0
 14
612.219469406501
 24
1143.86010153411
 34
0.0
 50
90.0
100
AcDbRotatedDimension
  0
DIMENSION
  5
27E
330
1F
100
AcDbEntity
  8
0
100
AcDbDimension
  2
*D5
 10
421.8398950171581
 20
1573.86010153411
 30
0.0
 11
403.0898950171578
 21
1358.86010153411
 31
0.0
 70
    32
 71
     5
 42
430.0
  3
ISO-25
100
AcDbAlignedDimension
 13
612.219469406501
 23
1143.86010153411
 33
0.0
 14
612.2194694065012
 24
1573.86010153411
 34
0.0
 50
90.0
100
AcDbRotatedDimension
1001
ACAD
1000
DSTYLE
1002
{
1070
   279
1070
     1
1002
}
  0
DIMENSION
  5
28B
330
1F
100
AcDbEntity
  8
0
100
AcDbDimension
  2
*D6
 10
421.8398950171581
 20
1648.86010153411
 30
0.0
 11
403.0898950171579
 21
1611.36010153411
 31
0.0
 70
    32
 71
     5
 42
75.0
  3
ISO-25
100
AcDbAlignedDimension
 13
612.2194694065012
 23
1573.86010153411
 33
0.0
 14
612.2194694065012
 24
1648.86010153411
 34
0.0
 50
90.0
100
AcDbRotatedDimension
1001
ACAD
1000
DSTYLE
1002
{
1070
   279
1070
     1
1002
}
  0
DIMENSION
  5
298
330
1F
100
AcDbEntity
  8
0
100
AcDbDimension
  2
*D7
 10
352.3698950171582
 20
1128.86010153411
 30
0.0
 11
325.7108137600499
 21
1137.423388614837
 31
0.0
 70
   160
 71
     5
 42
17.0
  3
ISO-25
100
AcDbAlignedDimension
 13
612.219469406501
 23
1111.86010153411
 33
0.0
 14
612.219469406501
 24
1128.86010153411
 34
0.0
 50
90.0
100
AcDbRotatedDimension
1001
ACAD
1000
DSTYLE
1002
{
1070
   279
1070
     2
1002
}
  0
DIMENSION
  5
2A6
330
1F
100
AcDbEntity
  8
0
100
AcDbDimension
  2
*D8
 10
352.3698950171582
 20
1648.86010153411
 30
0.0
 11
333.6198950171579
 21
1388.86010153411
 31
0.0
 70
    32
 71
     5
 42
520.0
  3
ISO-25
100
AcDbAlignedDimension
 13
612.219469406501
 23
1128.86010153411
 33
0.0
 14
612.2194694065012
 24
1648.86010153411
 34
0.0
 50
90.0
100
AcDbRotatedDimension
1001
ACAD
1000
DSTYLE
1002
{
1070
   279
1070
     1
1002
}
  0
DIMENSION
  5
2B3
330
1F
100
AcDbEntity
  8
0
100
AcDbDimension
  2
*D9
 10
352.3698950171582
 20
1665.86010153411
 30
0.0
 11
340.8898348154353
 21
1639.517123581515
 31
0.0
 70
   160
 71
     5
 42
17.0
  3
ISO-25
100
AcDbAlignedDimension
 13
612.2194694065012
 23
1648.86010153411
 33
0.0
 14
612.219469406501
 24
1665.86010153411
 34
0.0
 50
90.0
100
AcDbRotatedDimension
1001
ACAD
1000
DSTYLE
1002
{
1070
   279
1070
     1
1002
}
  0
DIMENSION
  5
2DC
330
1F
100
AcDbEntity
  8
0
100
AcDbDimension
  2
*D10
 10
282.8998950171582
 20
1665.86010153411
 30
0.0
 11
264.1498950171579
 21
1388.86010153411
 31
0.0
 70
    32
 71
     5
 42
554.0
  3
ISO-25
100
AcDbAlignedDimension
 13
612.219469406501
 23
1111.86010153411
 33
0.0
 14
612.219469406501
 24
1665.86010153411
 34
0.0
 50
90.0
100
AcDbRotatedDimension
  0
DIMENSION
  5
2E9
330
1F
100
AcDbEntity
  8
0
100
AcDbDimension
  2
*D11
 10
629.219469406501
 20
994.9523297393934
 30
0.0
 11
682.1361360731676
 21
1013.702329739393
 31
0.0
 70
    32
 71
     5
 42
17.0
  3
ISO-25
100
AcDbAlignedDimension
 13
612.219469406501
 23
1111.86010153411
 33
0.0
 14
629.219469406501
 24
1111.86010153411
 34
0.0
100
AcDbRotatedDimension
  0
DIMENSION
  5
2F7
330
1F
100
AcDbEntity
  8
0
100
AcDbDimension
  2
*D12
 10
1279.219469406501
 20
994.9523297393934
 30
0.0
 11
954.219469406501
 21
1013.702329739393
 31
0.0
 70
    32
 71
     5
 42
650.0
  3
ISO-25
100
AcDbAlignedDimension
 13
629.219469406501
 23
1111.86010153411
 33
0.0
 14
1279.219469406501
 24
1111.86010153411
 34
0.0
100
AcDbRotatedDimension
1001
ACAD
1000
DSTYLE
1002
{
1070
   279
1070
     1
1002
}
  0
DIMENSION
  5
304
330
1F
100
AcDbEntity
  8
0
100
AcDbDimension
  2
*D13
 10
1296.219469406501
 20
994.9523297393934
 30
0.0
 11
1235.761253822045
 21
994.9523297393934
 31
0.0
 70
   160
 71
     5
 42
17.0
  3
ISO-25
100
AcDbAlignedDimension
 13
1279.219469406501
 23
1111.86010153411
 33
0.0
 14
1296.219469406501
 24
1111.86010153411
 34
0.0
100
AcDbRotatedDimension
1001
ACAD
1000
DSTYLE
1002
{
1070
   279
1070
     1
1002
}
  0
DIMENSION
  5
31C
330
1F
100
AcDbEntity
  8
0
100
AcDbDimension
  2
*D14
 10
1296.219469406501
 20
924.5935577841864
 30
0.0
 11
954.219469406501
 21
943.3435577841864
 31
0.0
 70
    32
 71
     5
 42
684.0
  3
ISO-25
100
AcDbAlignedDimension
 13
612.219469406501
 23
1111.86010153411
 33
0.0
 14
1296.219469406501
 24
1111.86010153411
 34
0.0
100
AcDbRotatedDimension
  0
ARC
  5
32A
330
1F
100
AcDbEntity
  8
0
100
AcDbCircle
 10
744.219469406501
 20
1258.86010153411
 30
0.0
 40
115.0
100
AcDbArc
 50
180.0
 51
270.0
  0
ARC
  5
32B
330
1F
100
AcDbEntity
  8
0
100
AcDbCircle
 10
1164.219469406501
 20
1258.86010153411
 30
0.0
 40
115.0
100
AcDbArc
 50
270.0
 51
0.0
  0
LINE
  5
32C
330
1F
100
AcDbEntity
  8
0
100
AcDbLine
 10
629.219469406501
 20
1458.86010153411
 30
0.0
 11
629.219469406501
 21
1243.86010153411
 31
0.0
  0
LINE
  5
32D
330
1F
100
AcDbEntity
  8
0
100
AcDbLine
 10
1279.219469406501
 20
1243.86010153411
 30
0.0
 11
1279.219469406501
 21
1458.86010153411
 31
0.0
  0
ARC
  5
32E
330
1F
100
AcDbEntity
  8
0
100
AcDbCircle
 10
744.219469406501
 20
1243.86010153411
 30
0.0
 40
115.0
100
AcDbArc
 50
180.0
 51
270.0
  0
ARC
  5
32F
330
1F
100
AcDbEntity
  8
0
100
AcDbCircle
 10
1164.219469406501
 20
1243.86010153411
 30
0.0
 40
115.0
100
AcDbArc
 50
270.0
 51
0.0
  0
ARC
  5
330
330
1F
100
AcDbEntity
  8
0
100
AcDbCircle
 10
744.219469406501
 20
1243.86010153411
 30
0.0
 40
132.0
100
AcDbArc
 50
180.0
 51
270.0
  0
ARC
  5
331
330
1F
100
AcDbEntity
  8
0
100
AcDbCircle
 10
1164.219469406501
 20
1243.86010153411
 30
0.0
 40
132.0
100
AcDbArc
 50
270.0
 51
0.0
  0
CIRCLE
  5
334
330
1F
100
AcDbEntity
  8
0
100
AcDbCircle
 10
879.219469406501
 20
1478.86010153411
 30
0.0
 40
79.5
  0
CIRCLE
  5
335
330
1F
100
AcDbEntity
  8
0
100
AcDbCircle
 10
879.219469406501
 20
1478.86010153411
 30
0.0
 40
90.5
  0
ARC
  5
339
330
1F
100
AcDbEntity
  8
0
100
AcDbCircle
 10
1164.219469406501
 20
1458.86010153411
 30
0.0
 40
115.0
100
AcDbArc
 50
0.0
 51
90.0
  0
ARC
  5
33C
330
1F
100
AcDbEntity
  8
0
100
AcDbCircle
 10
1069.219469406501
 20
1673.86010153411
 30
0.0
 40
100.0
100
AcDbArc
 50
212.8664647390864
 51
270.0
  0
ARC
  5
340
330
1F
100
AcDbEntity
  8
0
100
AcDbCircle
 10
931.4696962669421
 20
1584.86010153411
 30
0.0
 40
64.0
100
AcDbArc
 50
32.8664647390862
 51
90.0
  0
ARC
  5
370
330
1F
100
AcDbEntity
  8
0
100
AcDbCircle
 10
689.219469406501
 20
1588.86010153411
 30
0.0
 40
60.0
100
AcDbArc
 50
90.0
 51
180.0
  0
ARC
  5
371
330
1F
100
AcDbEntity
  8
0
100
AcDbCircle
 10
1219.219469406501
 20
1588.86010153411
 30
0.0
 40
60.0
100
AcDbArc
 50
0.0
 51
89.99999999999998
  0
ARC
  5
372
330
1F
100
AcDbEntity
  8
0
100
AcDbCircle
 10
689.219469406501
 20
1588.86010153411
 30
0.0
 40
77.0
100
AcDbArc
 50
90.0
 51
180.0
  0
ARC
  5
373
330
1F
100
AcDbEntity
  8
0
100
AcDbCircle
 10
1219.219469406501
 20
1588.86010153411
 30
0.0
 40
77.0
100
AcDbArc
 50
0.0
 51
89.99999999999998
  0
DIMENSION
  5
376
330
1F
100
AcDbEntity
  8
0
100
AcDbDimension
  2
*D15
 10
629.219469406501
 20
1284.971834221215
 30
0.0
 11
754.219469406501
 21
1303.721834221215
 31
0.0
 70
    32
 71
     5
 42
250.0
  3
ISO-25
100
AcDbAlignedDimension
 13
879.219469406501
 23
1440.603013343331
 33
0.0
 14
629.219469406501
 24
1458.86010153411
 34
0.0
100
AcDbRotatedDimension
  0
DIMENSION
  5
384
330
1F
100
AcDbEntity
  8
0
100
AcDbDimension
  2
*D16
 10
1039.62697168094
 20
1648.86010153411
 30
0.0
 11
1039.62697168094
 21
1532.410495785237
 31
0.0
 70
   160
 71
     5
 42
170.0000000000002
  3
ISO-25
100
AcDbAlignedDimension
 13
940.7797531621863
 23
1478.86010153411
 33
0.0
 14
689.219469406501
 24
1648.86010153411
 34
0.0
 50
90.0
100
AcDbRotatedDimension
  0
LINE
  5
39A
330
1F
100
AcDbEntity
  8
Cen
 48
0.8
100
AcDbLine
 10
1013.327031085579
 20
1478.86010153411
 30
0.0
 11
745.1119077274224
 21
1478.86010153411
 31
0.0
  0
LINE
  5
39B
330
1F
100
AcDbEntity
  8
Cen
 48
0.8
100
AcDbLine
 10
879.219469406501
 20
1365.382700623617
 30
0.0
 11
879.219469406501
 21
1592.337502444603
 31
0.0
  0
DIMENSION
  5
3B2
330
1F
100
AcDbEntity
  8
0
100
AcDbDimension
  2
*D17
 10
944.219469406501
 20
1760.978057981272
 30
0.0
 11
879.219469406501
 21
1779.728057981272
 31
0.0
 70
    32
 71
     5
 42
130.0
  3
ISO-25
100
AcDbAlignedDimension
 13
814.2194694065009
 23
1665.86010153411
 33
0.0
 14
944.219469406501
 24
1665.86010153411
 34
0.0
100
AcDbRotatedDimension
  0
DIMENSION
  5
3BF
330
1F
100
AcDbEntity
  8
0
100
AcDbDimension
  2
*D18
 10
1009.219469406501
 20
1812.371067448058
 30
0.0
 11
879.219469406501
 21
1831.121067448058
 31
0.0
 70
    32
 71
     5
 42
260.0
  3
ISO-25
100
AcDbAlignedDimension
 13
749.219469406501
 23
1730.86010153411
 33
0.0
 14
1009.219469406501
 24
1730.86010153411
 34
0.0
100
AcDbRotatedDimension
  0
LINE
  5
3DD
330
1F
100
AcDbEntity
  8
Cen
100
AcDbLine
 10
1009.219469406501
 20
1795.86010153411
 30
0.0
 11
1009.219469406501
 21
1601.86010153411
 31
0.0
  0
LINE
  5
3DE
330
1F
100
AcDbEntity
  8
Cen
100
AcDbLine
 10
749.219469406501
 20
1795.86010153411
 30
0.0
 11
749.219469406501
 21
1601.86010153411
 31
0.0
  0
CIRCLE
  5
3DF
330
1F
100
AcDbEntity
  8
Cen
100
AcDbCircle
 10
1009.219469406501
 20
1633.86010153411
 30
0.0
 40
6.0
  0
CIRCLE
  5
3E0
330
1F
100
AcDbEntity
  8
Cen
100
AcDbCircle
 10
749.219469406501
 20
1633.86010153411
 30
0.0
 40
6.0
  0
LINE
  5
3E3
330
1F
100
AcDbEntity
  8
Cen
100
AcDbLine
 10
814.2194694065013
 20
1760.978057981272
 30
0.0
 11
814.2194694065009
 21
1633.86010153411
 31
0.0
  0
LINE
  5
3E4
330
1F
100
AcDbEntity
  8
Cen
100
AcDbLine
 10
944.2194694065012
 20
1760.978057981272
 30
0.0
 11
944.219469406501
 21
1633.86010153411
 31
0.0
  0
LINE
  5
407
330
1F
100
AcDbEntity
  8
0
100
AcDbLine
 10
612.219469406501
 20
721.2929064030613
 30
0.0
 11
1296.219469406501
 21
721.2929064030613
 31
0.0
  0
LINE
  5
40A
330
1F
100
AcDbEntity
  8
0
100
AcDbLine
 10
629.2194694065012
 20
721.2929064030613
 30
0.0
 11
629.219469406501
 21
570.3392562009153
 31
0.0
  0
LINE
  5
40B
330
1F
100
AcDbEntity
  8
0
100
AcDbLine
 10
1279.219469406501
 20
721.2929064030613
 30
0.0
 11
1279.219469406501
 21
579.4855536272179
 31
0.0
  0
LINE
  5
40D
330
1F
100
AcDbEntity
  8
0
100
AcDbLine
 10
629.2194694065015
 20
706.2929064030613
 30
0.0
 11
814.2194694065009
 21
706.2929064030613
 31
0.0
  0
LINE
  5
413
330
1F
100
AcDbEntity
  8
0
100
AcDbLine
 10
788.7194694065008
 20
524.2929064030615
 30
0.0
 11
798.7194694065008
 21
524.2929064030615
 31
0.0
  0
LINE
  5
414
330
1F
100
AcDbEntity
  8
0
100
AcDbLine
 10
788.719469406501
 20
531.2929064030613
 30
0.0
 11
788.719469406501
 21
524.2929064030613
 31
0.0
  0
LINE
  5
415
330
1F
100
AcDbEntity
  8
0
100
AcDbLine
 10
969.7194694065011
 20
531.2929064030613
 30
0.0
 11
969.7194694065011
 21
524.2929064030613
 31
0.0
  0
LINE
  5
419
330
1F
100
AcDbEntity
  8
0
100
AcDbLine
 10
658.2506696315046
 20
540.3549031647737
 30
0.0
 11
768.719469406501
 21
533.2929064030615
 31
0.0
  0
LINE
  5
41A
330
1F
100
AcDbEntity
  8
0
100
AcDbLine
 10
1251.081159320954
 20
549.5433741697634
 30
0.0
 11
1132.22502616738
 21
542.1533555280903
 31
0.0
  0
LINE
  5
41E
330
1F
100
AcDbEntity
  8
0
100
AcDbLine
 10
788.719469406501
 20
531.2929064030613
 30
0.0
 11
969.7194694065011
 21
531.2929064030613
 31
0.0
  0
ARC
  5
471
330
1F
100
AcDbEntity
  8
0
100
AcDbCircle
 10
659.219469406501
 20
570.3392562009153
 30
0.0
 40
30.0
100
AcDbArc
 50
180.0
 51
268.1494069769925
  0
DIMENSION
  5
473
330
1F
100
AcDbEntity
  8
0
100
AcDbDimension
  2
*D19
 10
799.7194694065008
 20
402.8984317050462
 30
0.0
 11
879.219469406501
 21
421.6484317050462
 31
0.0
 70
    32
  1
158
 71
     5
 42
159.0000000000002
  3
ISO-25
100
AcDbAlignedDimension
 13
958.719469406501
 23
524.2929064030613
 33
0.0
 14
799.7194694065008
 24
524.2929064030615
 34
0.0
100
AcDbRotatedDimension
  0
DIMENSION
  5
480
330
1F
100
AcDbEntity
  8
0
100
AcDbDimension
  2
*D20
 10
788.719469406501
 20
633.445930941033
 30
0.0
 11
879.219469406501
 21
652.195930941033
 31
0.0
 70
    32
 71
     5
 42
181.0
  3
ISO-25
100
AcDbAlignedDimension
 13
969.7194694065011
 23
531.2929064030613
 33
0.0
 14
788.719469406501
 24
531.2929064030615
 34
0.0
100
AcDbRotatedDimension
  0
LINE
  5
48E
330
1F
100
AcDbEntity
  8
Cen
100
AcDbLine
 10
879.219469406501
 20
614.5984983582966
 30
0.0
 11
879.219469406501
 21
500.0383644579369
 31
0.0
  0
LINE
  5
48F
330
1F
100
AcDbEntity
  8
0
100
AcDbLine
 10
1623.676615367452
 20
1665.86010153411
 30
0.0
 11
1623.676615367452
 21
1111.86010153411
 31
0.0
  0
LINE
  5
492
330
1F
100
AcDbEntity
  8
0
100
AcDbLine
 10
1623.676615367452
 20
1648.86010153411
 30
0.0
 11
1777.213799312677
 21
1648.86010153411
 31
0.0
  0
LINE
  5
493
330
1F
100
AcDbEntity
  8
0
100
AcDbLine
 10
1641.676615367452
 20
1573.86010153411
 30
0.0
 11
1783.676615367453
 21
1573.86010153411
 31
0.0
  0
LINE
  5
494
330
1F
100
AcDbEntity
  8
0
100
AcDbLine
 10
1623.676615367452
 20
1128.860101534109
 30
0.0
 11
1635.676615367452
 21
1128.860101534109
 31
0.0
  0
LINE
  5
495
330
1F
100
AcDbEntity
  8
0
100
AcDbLine
 10
1641.676615367452
 20
1143.860101534109
 30
0.0
 11
1774.878527818025
 21
1143.86010153411
 31
0.0
  0
LINE
  5
496
330
1F
100
AcDbEntity
  8
0
100
AcDbLine
 10
1638.676615367452
 20
1140.860101534109
 30
0.0
 11
1638.676615367452
 21
1131.860101534109
 31
0.0
  0
ARC
  5
498
330
1F
100
AcDbEntity
  8
0
100
AcDbCircle
 10
1635.676615367452
 20
1131.860101534109
 30
0.0
 40
3.0
100
AcDbArc
 50
270.0
 51
360.0
  0
ARC
  5
499
330
1F
100
AcDbEntity
  8
0
100
AcDbCircle
 10
1641.676615367452
 20
1140.860101534109
 30
0.0
 40
3.0
100
AcDbArc
 50
90.00000000000005
 51
179.9999999999999
  0
LINE
  5
49A
330
1F
100
AcDbEntity
  8
0
100
AcDbLine
 10
1638.676615367452
 20
1648.86010153411
 30
0.0
 11
1638.676615367452
 21
1576.86010153411
 31
0.0
  0
ARC
  5
49B
330
1F
100
AcDbEntity
  8
0
100
AcDbCircle
 10
1641.676615367452
 20
1576.86010153411
 30
0.0
 40
3.0
100
AcDbArc
 50
179.9999999999999
 51
270.0
  0
LINE
  5
49D
330
1F
100
AcDbEntity
  8
0
100
AcDbLine
 10
1638.676615367452
 20
1576.86010153411
 30
0.0
 11
1638.676615367452
 21
1131.860101534109
 31
0.0
  0
LINE
  5
49E
330
1F
100
AcDbEntity
  8
0
100
AcDbLine
 10
1813.676615367453
 20
1543.86010153411
 30
0.0
 11
1813.676615367452
 21
1388.360101534114
 31
0.0
  0
LINE
  5
4A7
330
1F
100
AcDbEntity
  8
0
100
AcDbLine
 10
1813.676615367452
 20
1388.36010153411
 30
0.0
 11
1804.853467355296
 21
1172.63413263688
 31
0.0
  0
ARC
  5
4AA
330
1F
100
AcDbEntity
  8
0
100
AcDbCircle
 10
1774.878527818025
 20
1173.86010153411
 30
0.0
 40
30.0
100
AcDbArc
 50
270.0
 51
357.6579196915298
  0
ARC
  5
4AB
330
1F
100
AcDbEntity
  8
0
100
AcDbCircle
 10
1783.676615367453
 20
1543.86010153411
 30
0.0
 40
30.0
100
AcDbArc
 50
359.9999999999999
 51
89.99999999999992
  0
LINE
  5
4AE
330
1F
100
AcDbEntity
  8
Cen
100
AcDbLine
 10
1719.082785587245
 20
1476.98510153411
 30
0.0
 11
1849.737197822567
 21
1476.98510153411
 31
0.0
  0
CIRCLE
  5
4AF
330
1F
100
AcDbEntity
  8
Cen
  6
HIDDEN2
 48
1.5
100
AcDbCircle
 10
1277.249809251076
 20
713.9149170309183
 30
0.0
 40
64.39211969241114
  0
ARC
  5
4B0
330
1F
100
AcDbEntity
  8
Cen
  6
Continuous
100
AcDbCircle
 10
1510.671228550149
 20
536.976454026585
 30
0.0
 40
302.1247328958318
100
AcDbArc
 50
90.0
 51
130.5390852135428
  0
LINE
  5
4B4
330
1F
100
AcDbEntity
  8
Cen
100
AcDbLine
 10
1490.563517730203
 20
847.4467280951794
 30
0.0
 11
1510.671228550149
 21
839.1011869224168
 31
0.0
  0
LINE
  5
4B5
330
1F
100
AcDbEntity
  8
Cen
100
AcDbLine
 10
1510.671228550149
 20
839.1011869224168
 30
0.0
 11
1491.648576546991
 21
828.6538668904249
 31
0.0
  0
LINE
  5
4B7
330
1F
100
AcDbEntity
  8
0
100
AcDbLine
 10
1571.491128709993
 20
792.0626061371534
 30
0.0
 11
1893.512425656321
 21
792.0626061371531
 31
0.0
  0
LINE
  5
4B8
330
1F
100
AcDbEntity
  8
0
100
AcDbLine
 10
1723.512425656321
 20
762.0626061371531
 30
0.0
 11
1723.512425656321
 21
617.384409256013
 31
0.0
  0
DIMENSION
  5
4C1
330
1F
100
AcDbEntity
  8
0
100
AcDbDimension
  2
*D21
 10
1723.512425656321
 20
898.239547659331
 30
0.0
 11
1808.512425656321
 21
916.989547659331
 31
0.0
 70
    32
  1
17
 71
     5
 42
170.0
  3
ISO-25
100
AcDbAlignedDimension
 13
1893.512425656321
 23
792.0626061371531
 33
0.0
 14
1723.512425656321
 24
792.0626061371531
 34
0.0
100
AcDbRotatedDimension
  0
ARC
  5
4CE
330
1F
100
AcDbEntity
  8
0
100
AcDbCircle
 10
1753.512425656321
 20
762.0626061371531
 30
0.0
 40
30.0
100
AcDbArc
 50
90.0
 51
180.0
  0
LINE
  5
4CF
330
1F
100
AcDbEntity
  8
0
100
AcDbLine
 10
1753.512425656321
 20
782.0626061371531
 30
0.0
 11
1893.512425656321
 21
782.0626061371531
 31
0.0
  0
ARC
  5
4D0
330
1F
100
AcDbEntity
  8
0
100
AcDbCircle
 10
1753.512425656321
 20
762.0626061371531
 30
0.0
 40
20.0
100
AcDbArc
 50
90.0
 51
180.0
  0
LINE
  5
4D1
330
1F
100
AcDbEntity
  8
0
100
AcDbLine
 10
1733.512425656321
 20
762.0626061371531
 30
0.0
 11
1733.512425656321
 21
617.384409256013
 31
0.0
  0
LINE
  5
4D2
330
1F
100
AcDbEntity
  8
0
100
AcDbLine
 10
1893.512425656321
 20
792.0626061371531
 30
0.0
 11
1893.512425656321
 21
782.0626061371531
 31
0.0
  0
LEADER
  5
50F
330
1F
100
AcDbEntity
  8
0
100
AcDbLeader
  3
ISO-25
 40
25.0
 41
41.66666666666666
 76
     2
 10
1016.730817186158
 20
1639.80634227478
 30
0.0
 10
1041.063845828514
 20
1725.216116655412
 30
0.0
211
-1.0
221
0.0
231
0.0
210
0.0
220
0.0
230
-1.0
213
0.0
223
12.5
233
0.0
1001
ACAD
1000
DSTYLE
1002
{
1070
    41
1040
25.0
1070
   147
1040
6.25
1070
    77
1070
     0
1070
    73
1070
     1
1070
    74
1070
     1
1070
   342
1005
DA
1002
}
  0
TEXT
  5
511
330
1F
100
AcDbEntity
  8
0
100
AcDbText
 10
1031.58433616996
 20
1737.825042911197
 30
0.0
 40
25.0
  1
12%%C
 72
     2
 11
1089.917669503294
 21
1734.491709577864
 31
0.0
100
AcDbText
 73
     1
  0
LEADER
  5
52C
330
1F
100
AcDbEntity
  8
0
100
AcDbLeader
  3
ISO-25
 40
33.33333333333333
 41
66.66666666666668
 76
     2
 10
1235.929216899503
 20
1134.119492423311
 30
0.0
 10
1152.351307981072
 20
1171.871447133109
 30
0.0
213
0.0
223
12.5
233
0.0
1001
ACAD
1000
DSTYLE
1002
{
1070
    41
1040
25.0
1070
   147
1040
6.25
1070
    77
1070
     0
1070
    73
1070
     1
1070
    74
1070
     1
1070
   279
1070
     1
1070
   342
1005
DA
1002
}
  0
TEXT
  5
52E
330
1F
100
AcDbEntity
  8
0
100
AcDbText
 10
1062.148549826605
 20
1159.188799824717
 30
0.0
 40
25.0
  1
132R
 72
     2
 11
1145.481883159938
 21
1155.855466491384
 31
0.0
100
AcDbText
 73
     1
  0
MTEXT
  5
532
330
1F
100
AcDbEntity
  8
0
100
AcDbMText
 10
1469.226616777811
 20
1181.110374981098
 30
0.0
 40
25.0
 41
0.0
 71
     9
 72
     1
  1

 73
     1
 44
1.0
1001
ACAD
1000
MTEXTBEGIN
1070
    73
1070
     1
1070
    44
1040
1.0
1070
    74
1070
     0
1000
MTEXTEND
  0
LEADER
  5
533
330
1F
100
AcDbEntity
  8
0
100
AcDbLeader
  3
ISO-25
 40
25.0
 41
16.66666666666666
 76
     2
 10
1245.088447216078
 20
1163.863459192366
 30
0.0
 10
1154.641113476515
 20
1219.919393818523
 30
0.0
213
-97.31675022588753
223
44.53196128345098
233
0.0
1001
ACAD
1000
DSTYLE
1002
{
1070
    41
1040
25.0
1070
   147
1040
6.25
1070
    77
1070
     0
1070
    73
1070
     1
1070
    74
1070
     1
1070
   279
1070
     1
1070
   342
1005
DA
1002
}
  0
TEXT
  5
537
330
1F
100
AcDbEntity
  8
0
100
AcDbText
 10
1069.336980412217
 20
1215.244739211114
 30
0.0
 40
25.0
  1
115R
 72
     2
 11
1144.336980412217
 21
1211.91140587778
 31
0.0
100
AcDbText
 73
     1
  0
LEADER
  5
53A
330
1F
100
AcDbEntity
  8
0
100
AcDbLeader
  3
ISO-25
 40
25.0
 41
16.66666666666666
 76
     2
 10
1261.117085684171
 20
1200.471414264846
 30
0.0
 10
1198.147426224716
 20
1259.959347802956
 30
0.0
213
0.0
223
12.5
233
0.0
1001
ACAD
1000
DSTYLE
1002
{
1070
    41
1040
25.0
1070
   147
1040
6.25
1070
    77
1070
     0
1070
    73
1070
     1
1070
    74
1070
     1
1070
   279
1070
     1
1070
   342
1005
DA
1002
}
  0
TEXT
  5
53C
330
1F
100
AcDbEntity
  8
0
100
AcDbText
 10
1116.27800140358
 20
1258.716687347259
 30
0.0
 40
25.0
  1
115R
 72
     2
 11
1191.278001403579
 21
1255.383354013926
 31
0.0
100
AcDbText
 73
     1
  0
LEADER
  5
53D
330
1F
100
AcDbEntity
  8
0
100
AcDbLeader
  3
ISO-25
 40
25.0
 41
16.66666666666666
 76
     2
 10
867.7427401203477
 20
1153.318123398237
 30
0.0
 10
893.5187702172671
 20
1200.152690351675
 30
0.0
213
0.0
223
-12.5
233
0.0
1001
ACAD
1000
DSTYLE
1002
{
1070
    41
1040
25.0
1070
   147
1040
6.25
1070
    77
1070
     0
1070
    73
1070
     1
1070
    74
1070
     1
1070
   279
1070
     1
1070
   342
1005
DA
1002
}
  0
TEXT
  5
53F
330
1F
100
AcDbEntity
  8
0
100
AcDbText
 10
868.297872000523
 20
1214.778041261658
 30
0.0
 40
25.0
  1
10000R
 11
868.297872000523
 21
1211.444707928324
 31
0.0
100
AcDbText
 73
     1
  0
LEADER
  5
540
330
1F
100
AcDbEntity
  8
0
100
AcDbLeader
  3
ISO-25
 76
     2
 10
1274.1276287421
 20
1354.490570106966
 30
0.0
 10
1202.003922229036
 20
1354.870077523854
 30
0.0
1001
ACAD
1000
DSTYLE
1002
{
1070
    41
1040
25.0
1070
   147
1040
6.25
1070
    77
1070
     0
1070
    73
1070
     1
1070
    74
1070
     1
1070
   279
1070
     1
1070
   342
1005
DA
1002
}
  0
TEXT
  5
54B
330
1F
100
AcDbEntity
  8
0
100
AcDbText
 10
1088.985424941327
 20
1343.305349954524
 30
0.0
 40
25.0
  1
1500R
 72
     2
 11
1188.985424941327
 21
1355.805349954524
 31
0.0
100
AcDbText
 73
     2
  0
LEADER
  5
54C
330
1F
100
AcDbEntity
  8
0
100
AcDbLeader
  3
ISO-25
 40
25.0
 41
16.66666666666666
 76
     2
 10
1266.841599422774
 20
1621.462928539927
 30
0.0
 10
1236.348696604697
 20
1511.514854585139
 30
0.0
213
0.0
223
12.5
233
0.0
1001
ACAD
1000
DSTYLE
1002
{
1070
    41
1040
25.0
1070
   147
1040
6.25
1070
    77
1070
     0
1070
    73
1070
     1
1070
    74
1070
     1
1070
   279
1070
     1
1070
   342
1005
DA
1002
}
  0
TEXT
  5
54E
330
1F
100
AcDbEntity
  8
0
100
AcDbText
 10
1193.467883108675
 20
1478.81932254299
 30
0.0
 40
25.0
  1
60R
 72
     2
 11
1255.967883108675
 21
1475.485989209656
 31
0.0
100
AcDbText
 73
     1
  0
LEADER
  5
558
330
1F
100
AcDbEntity
  8
0
100
AcDbLeader
  3
ISO-25
 40
25.0
 41
16.66666666666666
 76
     2
 10
796.3098875675541
 20
1634.194025956799
 30
0.0
 10
851.2418269868321
 20
1611.166941324549
 30
0.0
213
0.0
223
-12.5
233
0.0
1001
ACAD
1000
DSTYLE
1002
{
1070
    41
1040
25.0
1070
   147
1040
6.25
1070
    77
1070
     0
1070
    73
1070
     1
1070
    74
1070
     1
1070
   279
1070
     1
1070
   342
1005
DA
1002
}
  0
TEXT
  5
55A
330
1F
100
AcDbEntity
  8
0
100
AcDbText
 10
859.2561462208777
 20
1598.582954834537
 30
0.0
 40
25.0
  1
64R
 11
859.2561462208777
 21
1595.249621501204
 31
0.0
100
AcDbText
 73
     1
  0
MTEXT
  5
55C
330
1F
100
AcDbEntity
  8
0
100
AcDbMText
 10
1010.02660136874
 20
1423.470120422065
 30
0.0
 40
25.0
 41
0.0
 71
     1
 72
     1
  1

 73
     1
 44
1.0
1001
ACAD
1000
MTEXTBEGIN
1070
    73
1070
     1
1070
    44
1040
1.0
1070
    74
1070
     0
1000
MTEXTEND
  0
LEADER
  5
55D
330
1F
100
AcDbEntity
  8
0
100
AcDbLeader
  3
ISO-25
 40
25.0
 41
16.66666666666666
 76
     2
 10
1110.271769369174
 20
1567.80401694995
 30
0.0
 10
1141.905990908402
 20
1451.888470089483
 30
0.0
213
0.0
223
-12.5
233
0.0
1001
ACAD
1000
DSTYLE
1002
{
1070
    41
1040
25.0
1070
   147
1040
6.25
1070
    77
1070
     0
1070
    73
1070
     1
1070
    74
1070
     1
1070
   279
1070
     1
1070
   342
1005
DA
1002
}
  0
TEXT
  5
55F
330
1F
100
AcDbEntity
  8
0
100
AcDbText
 10
1094.529657611407
 20
1412.592224026075
 30
0.0
 40
25.0
  1
10000R
 11
1094.529657611407
 21
1437.592224026075
 31
0.0
100
AcDbText
 73
     3
  0
LEADER
  5
560
330
1F
100
AcDbEntity
  8
0
100
AcDbLeader
  3
ISO-25
 40
25.0
 41
16.66666666666666
 76
     2
 10
675.1595971074684
 20
1553.8033538222
 30
0.0
 10
713.9276918920822
 20
1521.840798564631
 30
0.0
213
0.0
223
-12.5
233
0.0
1001
ACAD
1000
DSTYLE
1002
{
1070
    41
1040
25.0
1070
   147
1040
6.25
1070
    77
1070
     0
1070
    73
1070
     1
1070
    74
1070
     1
1070
   279
1070
     1
1070
   342
1005
DA
1002
}
  0
TEXT
  5
562
330
1F
100
AcDbEntity
  8
0
100
AcDbText
 10
684.6308143141031
 20
1487.033882250768
 30
0.0
 40
25.0
  1
100R
 11
684.6308143141031
 21
1512.033882250768
 31
0.0
100
AcDbText
 73
     3
  0
LEADER
  5
563
330
1F
100
AcDbEntity
  8
0
100
AcDbLeader
  3
ISO-25
 40
33.33333333333333
 41
16.66666666666667
 76
     2
 10
1265.546042037211
 20
1642.687655569919
 30
0.0
 10
1192.557632396992
 20
1620.97263498077
 30
0.0
211
-1.0
221
0.0
231
0.0
210
0.0
220
0.0
230
-1.0
213
0.0
223
-12.5
233
0.0
1001
ACAD
1000
DSTYLE
1002
{
1070
   147
1040
6.25
1070
    77
1070
     0
1070
    73
1070
     1
1070
    74
1070
     1
1070
   279
1070
     1
1070
   342
1005
DA
1002
}
  0
TEXT
  5
565
330
1F
100
AcDbEntity
  8
0
100
AcDbText
 10
1116.41866398696
 20
1606.218419069592
 30
0.0
 40
25.0
  1
77R
 11
1116.41866398696
 21
1631.218419069593
 31
0.0
100
AcDbText
 73
     3
  0
LEADER
  5
566
330
1F
100
AcDbEntity
  8
0
100
AcDbLeader
  3
ISO-25
 40
25.0
 41
16.66666666666666
 76
     2
 10
743.972964967369
 20
1581.891660670242
 30
0.0
 10
743.0037668084296
 20
1520.872239989634
 30
0.0
213
0.0
223
12.5
233
0.0
1001
ACAD
1000
DSTYLE
1002
{
1070
    41
1040
25.0
1070
   147
1040
6.25
1070
    77
1070
     0
1070
    73
1070
     1
1070
    74
1070
     1
1070
   279
1070
     1
1070
   342
1005
DA
1002
}
  0
LINE
  5
56A
330
1F
100
AcDbEntity
  8
補助
100
AcDbLine
 10
2784.0
 20
134.0
 30
0.0
 11
2784.0
 21
199.0
 31
0.0
  0
TEXT
  5
56C
330
1F
100
AcDbEntity
  8
0
100
AcDbText
 10
2198.166666666667
 20
149.0
 30
0.0
 40
35.0
  1
PRS650-520GRM-OFL
 72
     4
 11
2484.0
 21
166.5
 31
0.0
100
AcDbText
  0
DIMENSION
  5
586
330
1F
100
AcDbEntity
  8
0
100
AcDbDimension
  2
*D22
 10
721.4469088348606
 20
1648.86010153411
 30
0.0
 11
719.2038224101516
 21
1689.317960018182
 31
0.0
 70
   160
 71
     5
 42
15.00000000000023
  3
ISO-25
100
AcDbAlignedDimension
 13
797.4744054304028
 23
1633.86010153411
 33
0.0
 14
814.2194694065009
 24
1648.86010153411
 34
0.0
 50
90.0
100
AcDbRotatedDimension
1001
ACAD
1000
DSTYLE
1002
{
1070
   279
1070
     2
1002
}
  0
LINE
  5
59F
330
1F
100
AcDbEntity
  8
Cen
100
AcDbLine
 10
730.2113190226018
 20
1633.86010153411
 30
0.0
 11
764.7320405368345
 21
1633.86010153411
 31
0.0
  0
LINE
  5
5A0
330
1F
100
AcDbEntity
  8
Cen
100
AcDbLine
 10
993.4318070245563
 20
1633.86010153411
 30
0.0
 11
1026.334366982949
 21
1633.86010153411
 31
0.0
  0
LINE
  5
5A1
330
1F
100
AcDbEntity
  8
Cen
100
AcDbLine
 10
992.8924198392751
 20
1633.86010153411
 30
0.0
 11
1029.568844992143
 21
1633.316840743534
 31
0.0
  0
MTEXT
  5
5A9
330
1F
100
AcDbEntity
  8
Cen
100
AcDbMText
 10
1527.939315450184
 20
552.4831097022406
 30
0.0
 40
25.0
 41
0.0
 71
     9
 72
     1
  1

 73
     1
 44
1.0
1001
ACAD
1000
MTEXTBEGIN
1070
    73
1070
     1
1070
    44
1040
1.0
1070
    74
1070
     0
1000
MTEXTEND
  0
LEADER
  5
5AA
330
1F
100
AcDbEntity
  8
Cen
100
AcDbLeader
  3
ISO-25
 40
25.0
 41
16.66666666666666
 76
     2
 10
1270.683760712735
 20
567.630291715443
 30
0.0
 10
1241.807348410707
 20
617.4747897629035
 30
0.0
213
0.0
223
12.5
233
0.0
1001
ACAD
1000
DSTYLE
1002
{
1070
    41
1040
25.0
1070
   147
1040
6.25
1070
    77
1070
     0
1070
   279
1070
     1
1002
}
  0
TEXT
  5
5AD
330
1F
100
AcDbEntity
  8
0
100
AcDbText
 10
1185.367083478332
 20
625.3449766355629
 30
0.0
 40
25.0
  1
30R
100
AcDbText
  0
LEADER
  5
5AE
330
1F
100
AcDbEntity
  8
Cen
100
AcDbLeader
  3
ISO-25
 40
25.0
 41
16.66666666666666
 76
     2
 10
1732.979597750429
 20
783.9350312013067
 30
0.0
 10
1787.668624358081
 20
715.4250968432607
 30
0.0
213
0.0
223
-12.5
233
0.0
1001
ACAD
1000
DSTYLE
1002
{
1070
    41
1040
25.0
1070
   147
1040
6.25
1070
    77
1070
     0
1070
   279
1070
     1
1002
}
  0
TEXT
  5
5B0
330
1F
100
AcDbEntity
  8
0
100
AcDbText
 10
1795.05151825761
 20
691.1861912451231
 30
0.0
 40
25.0
  1
3R
100
AcDbText
  0
LEADER
  5
5B2
330
1F
100
AcDbEntity
  8
Cen
100
AcDbLeader
  3
ISO-25
 40
25.0
 41
16.66666666666666
 76
     2
 10
1640.157062366489
 20
1574.273412786452
 30
0.0
 10
1584.984133594721
 20
1538.23913918315
 30
0.0
213
0.0
223
12.5
233
0.0
1001
ACAD
1000
DSTYLE
1002
{
1070
    41
1040
25.0
1070
   147
1040
6.25
1070
    77
1070
     0
1070
   279
1070
     1
1002
}
  0
LEADER
  5
5B4
330
1F
100
AcDbEntity
  8
Cen
100
AcDbLeader
  3
ISO-25
 76
     2
 10
1639.767140229133
 20
1143.173952155074
 30
0.0
 10
1695.563739278031
 20
1099.302034649888
 30
0.0
1001
ACAD
1000
DSTYLE
1002
{
1070
    41
1040
25.0
1070
   147
1040
6.25
1070
    77
1070
     0
1070
   279
1070
     1
1002
}
  0
TEXT
  5
5B7
330
1F
100
AcDbEntity
  8
0
100
AcDbText
 10
1699.483130900754
 20
1070.736120281551
 30
0.0
 40
25.0
  1
3R
100
AcDbText
  0
LEADER
  5
5B8
330
1F
100
AcDbEntity
  8
Cen
100
AcDbLeader
  3
ISO-25
 76
     2
 10
1637.721755343949
 20
1129.66524334358
 30
0.0
 10
1586.743028246271
 20
1165.648675854979
 30
0.0
1001
ACAD
1000
DSTYLE
1002
{
1070
    41
1040
25.0
1070
   147
1040
6.25
1070
    77
1070
     0
1070
   279
1070
     1
1002
}
  0
TEXT
  5
5B9
330
1F
100
AcDbEntity
  8
0
100
AcDbText
 10
1539.710337107505
 20
1155.742752094454
 30
0.0
 40
25.0
  1
3R
100
AcDbText
  0
TEXT
  5
5BA
330
1F
100
AcDbEntity
  8
0
100
AcDbText
 10
1537.018078962449
 20
1505.459683001173
 30
0.0
 40
25.0
  1
3R
100
AcDbText
  0
LINE
  5
5D0
330
1F
100
AcDbEntity
  8
補助
100
AcDbLine
 10
2784.0
 20
69.0
 30
0.0
 11
2784.0
 21
134.0
 31
0.0
  0
TEXT
  5
5D2
330
1F
100
AcDbEntity
  8
0
100
AcDbText
 10
2430.916666666667
 20
84.0
 30
0.0
 40
35.0
  1
1：10
 72
     4
 11
2484.0
 21
101.5
 31
0.0
100
AcDbText
  0
TEXT
  5
5D8
330
1F
100
AcDbEntity
  8
0
100
AcDbText
 10
231.1659029702105
 20
53.51169987015055
 30
0.0
 40
30.0
  1
※実寸には製造上の誤差が多少生ずる場合があります。シンクの穴あけ加工は現物合わせにてお願いします。
100
AcDbText
  0
TEXT
  5
5F4
330
1F
100
AcDbEntity
  8
補助
100
AcDbText
 10
2300.255774665348
 20
16.49999999999999
 30
0.0
 40
40.0
  1
中外交易株式会社
 72
     4
 11
2488.255774665347
 21
36.5
 31
0.0
100
AcDbText
  0
LINE
  5
5F5
330
1F
100
AcDbEntity
  8
補助
100
AcDbLine
 10
2064.0
 20
69.0
 30
0.0
 11
2784.0
 21
69.0
 31
0.0
  0
HATCH
  5
5F6
330
1F
100
AcDbEntity
  8
補助
100
AcDbHatch
 10
0.0
 20
0.0
 30
0.0
210
0.0
220
0.0
230
1.0
  2
SOLID
 70
     1
 71
     1
 91
        3
 92
        1
 93
        4
 72
     2
 10
2257.166198313996
 20
36.5
 40
20.0
 50
11.6477236670766
 51
342.6561058784691
 73
     1
 72
     1
 10
2276.256852341323
 20
30.53787547858514
 11
2252.166198313995
 21
30.53787547858519
 72
     1
 10
2252.166198313995
 20
30.53787547858519
 11
2252.166198313995
 21
40.53787547858519
 72
     1
 10
2252.166198313995
 20
40.53787547858519
 11
2276.75434681301
 21
40.53787547858519
 97
        4
330
5F7
330
5F9
330
5FA
330
5FB
 92
        1
 93
        4
 72
     2
 10
2188.255774665348
 20
36.5
 40
20.0
 50
11.6477236670766
 51
342.6561058784691
 73
     1
 72
     1
 10
2207.346428692676
 20
30.53787547858514
 11
2183.255774665347
 21
30.53787547858519
 72
     1
 10
2183.255774665347
 20
30.53787547858519
 11
2183.255774665347
 21
40.53787547858519
 72
     1
 10
2183.255774665347
 20
40.53787547858519
 11
2207.843923164362
 21
40.53787547858519
 97
        4
330
5F8
330
601
330
602
330
603
 92
        1
 93
        5
 72
     1
 10
2245.64189404294
 20
56.5
 11
2210.641894042939
 21
56.5
 72
     1
 10
2210.641894042939
 20
56.5
 11
2210.641894042939
 21
16.5
 72
     1
 10
2210.641894042939
 20
16.5
 11
2245.64189404294
 21
16.5
 72
     1
 10
2245.64189404294
 20
16.5
 11
2210.641894042939
 21
36.5
 72
     1
 10
2210.641894042939
 20
36.5
 11
2245.64189404294
 21
56.5
 97
        5
330
5FC
330
600
330
5FF
330
5FE
330
5FD
 75
     0
 76
     1
 98
        1
 10
-60.0
 20
0.0
  0
ARC
  5
5F7
102
{ACAD_REACTORS
330
5F6
102
}
330
1F
100
AcDbEntity
  8
補助
370
     5
100
AcDbCircle
 10
2257.166198313996
 20
36.5
 30
0.0
 40
20.0
100
AcDbArc
 50
11.6477236670766
 51
342.6561058784691
  0
ARC
  5
5F8
102
{ACAD_REACTORS
330
5F6
102
}
330
1F
100
AcDbEntity
  8
補助
370
     5
100
AcDbCircle
 10
2188.255774665348
 20
36.5
 30
0.0
 40
20.0
100
AcDbArc
 50
11.6477236670766
 51
342.6561058784691
  0
LINE
  5
5F9
102
{ACAD_REACTORS
330
5F6
102
}
330
1F
100
AcDbEntity
  8
補助
370
     5
100
AcDbLine
 10
2252.166198313995
 20
30.53787547858519
 30
0.0
 11
2276.256852341323
 21
30.53787547858514
 31
0.0
  0
LINE
  5
5FA
102
{ACAD_REACTORS
330
5F6
102
}
330
1F
100
AcDbEntity
  8
補助
370
     5
100
AcDbLine
 10
2252.166198313995
 20
40.53787547858519
 30
0.0
 11
2252.166198313995
 21
30.53787547858519
 31
0.0
  0
LINE
  5
5FB
102
{ACAD_REACTORS
330
5F6
102
}
330
1F
100
AcDbEntity
  8
補助
370
     5
100
AcDbLine
 10
2276.75434681301
 20
40.53787547858519
 30
0.0
 11
2252.166198313995
 21
40.53787547858519
 31
0.0
  0
LINE
  5
5FC
102
{ACAD_REACTORS
330
5F6
102
}
330
1F
100
AcDbEntity
  8
補助
370
     5
100
AcDbLine
 10
2245.64189404294
 20
56.5
 30
0.0
 11
2210.641894042939
 21
56.5
 31
0.0
  0
LINE
  5
5FD
102
{ACAD_REACTORS
330
5F6
102
}
330
1F
100
AcDbEntity
  8
補助
370
     5
100
AcDbLine
 10
2210.641894042939
 20
36.5
 30
0.0
 11
2245.64189404294
 21
56.5
 31
0.0
  0
LINE
  5
5FE
102
{ACAD_REACTORS
330
5F6
102
}
330
1F
100
AcDbEntity
  8
補助
370
     5
100
AcDbLine
 10
2245.64189404294
 20
16.5
 30
0.0
 11
2210.641894042939
 21
36.5
 31
0.0
  0
LINE
  5
5FF
102
{ACAD_REACTORS
330
5F6
102
}
330
1F
100
AcDbEntity
  8
補助
370
     5
100
AcDbLine
 10
2210.641894042939
 20
16.5
 30
0.0
 11
2245.64189404294
 21
16.5
 31
0.0
  0
LINE
  5
600
102
{ACAD_REACTORS
330
5F6
102
}
330
1F
100
AcDbEntity
  8
補助
370
     5
100
AcDbLine
 10
2210.641894042939
 20
56.5
 30
0.0
 11
2210.641894042939
 21
16.5
 31
0.0
  0
LINE
  5
601
102
{ACAD_REACTORS
330
5F6
102
}
330
1F
100
AcDbEntity
  8
補助
370
     5
100
AcDbLine
 10
2183.255774665347
 20
30.53787547858519
 30
0.0
 11
2207.346428692676
 21
30.53787547858514
 31
0.0
  0
LINE
  5
602
102
{ACAD_REACTORS
330
5F6
102
}
330
1F
100
AcDbEntity
  8
補助
370
     5
100
AcDbLine
 10
2183.255774665347
 20
40.53787547858519
 30
0.0
 11
2183.255774665347
 21
30.53787547858519
 31
0.0
  0
LINE
  5
603
102
{ACAD_REACTORS
330
5F6
102
}
330
1F
100
AcDbEntity
  8
補助
370
     5
100
AcDbLine
 10
2207.843923164362
 20
40.53787547858519
 30
0.0
 11
2183.255774665347
 21
40.53787547858519
 31
0.0
  0
LINE
  5
A29
330
1F
100
AcDbEntity
  8
補助
100
AcDbLine
 10
2064.0
 20
4.0
 30
0.0
 11
2064.0
 21
199.0
 31
0.0
  0
TEXT
  5
A2C
330
1F
100
AcDbEntity
  8
補助
100
AcDbText
 10
2086.666666666667
 20
149.0
 30
0.0
 40
35.0
  1
品番
 72
     4
 11
2124.0
 21
166.5
 31
0.0
100
AcDbText
  0
TEXT
  5
A2D
330
1F
100
AcDbEntity
  8
補助
100
AcDbText
 10
2086.666666666667
 20
84.0
 30
0.0
 40
35.0
  1
尺度
 72
     4
 11
2124.0
 21
101.5
 31
0.0
100
AcDbText
  0
CIRCLE
  5
C9F
330
1F
100
AcDbEntity
  8
0
370
    13
100
AcDbCircle
 10
879.219469406501
 20
1478.86010153411
 30
0.0
 40
110.5
  0
LINE
  5
CB5
330
1F
100
AcDbEntity
  8
実形
370
    13
100
AcDbLine
 10
962.1158595363352
 20
1380.965292438343
 30
0.0
 11
1209.783659850383
 21
1523.956363619261
 31
0.0
  0
ARC
  5
DCC
330
1F
100
AcDbEntity
  8
0
100
AcDbCircle
 10
826.9692425460601
 20
1584.86010153411
 30
0.0
 40
64.0
100
AcDbArc
 50
90.0
 51
147.1335352609138
  0
ARC
  5
DCD
330
1F
100
AcDbEntity
  8
0
100
AcDbCircle
 10
689.219469406501
 20
1673.86010153411
 30
0.0
 40
100.0
100
AcDbArc
 50
281.5369590328155
 51
327.1335352609136
  0
ARC
  5
DCF
330
1F
100
AcDbEntity
  8
0
100
AcDbCircle
 10
729.219469406501
 20
1477.900922111456
 30
0.0
 40
100.0
100
AcDbArc
 50
101.5369590328155
 51
180.0
  0
LINE
  5
DD0
330
1F
100
AcDbEntity
  8
実形
370
    13
100
AcDbLine
 10
652.6554809094191
 20
1464.370134561515
 30
0.0
 11
797.1169050640126
 21
1380.965292438343
 31
0.0
  0
ARC
  5
DD1
330
1F
100
AcDbEntity
  8
実形
370
    13
100
AcDbCircle
 10
879.6163823001739
 20
1523.858578609246
 30
0.0
 40
164.9989544723223
100
AcDbArc
 50
239.9999999999999
 51
300.0000000000001
  0
ARC
  5
DE6
330
1F
100
AcDbEntity
  8
実形
370
    13
100
AcDbCircle
 10
879.6163823001739
 20
1523.858578609246
 30
0.0
 40
160.2489544723223
100
AcDbArc
 50
239.9999999999999
 51
300.0000000000001
  0
LINE
  5
DE7
330
1F
100
AcDbEntity
  8
実形
370
    13
100
AcDbLine
 10
959.7408595363351
 20
1385.078913106319
 30
0.0
 11
1209.783659850383
 21
1523.956363619261
 31
0.0
  0
LINE
  5
DE8
330
1F
100
AcDbEntity
  8
実形
370
    13
100
AcDbLine
 10
652.6554809094191
 20
1464.370134561515
 30
0.0
 11
799.4919050640126
 21
1385.07891310632
 31
0.0
  0
LINE
  5
E77
330
1F
100
AcDbEntity
  8
0
100
AcDbLine
 10
944.219469406501
 20
706.2929064030613
 30
0.0
 11
1279.2194694065
 21
706.2929064030613
 31
0.0
  0
LINE
  5
E7F
330
1F
100
AcDbEntity
  8
実形
100
AcDbLine
 10
969.7194694065011
 20
531.2929064030613
 30
0.0
 11
989.719469406501
 21
533.2929064030615
 31
0.0
  0
LINE
  5
E80
330
1F
100
AcDbEntity
  8
実形
100
AcDbLine
 10
768.719469406501
 20
533.2929064030615
 30
0.0
 11
788.719469406501
 21
531.2929064030613
 31
0.0
  0
DIMENSION
  5
E81
330
1F
100
AcDbEntity
  8
実形
100
AcDbDimension
  2
*D23
 10
989.719469406501
 20
633.445930941033
 30
0.0
 11
979.2698437859916
 21
637.9556199112134
 31
0.0
 70
   160
 71
     5
 42
20.0
  3
ISO-25
100
AcDbAlignedDimension
 13
969.7194694065011
 23
531.2929064030613
 33
0.0
 14
989.719469406501
 24
531.2929064030615
 34
0.0
100
AcDbRotatedDimension
1001
ACAD
1000
DSTYLE
1002
{
1070
   279
1070
     1
1002
}
  0
DIMENSION
  5
E8E
330
1F
100
AcDbEntity
  8
実形
100
AcDbDimension
  2
*D24
 10
768.719469406501
 20
633.445930941033
 30
0.0
 11
777.8797497513332
 21
638.6069396558855
 31
0.0
 70
   160
 71
     5
 42
20.0
  3
ISO-25
100
AcDbAlignedDimension
 13
788.719469406501
 23
531.2929064030615
 33
0.0
 14
768.719469406501
 24
531.2929064030615
 34
0.0
100
AcDbRotatedDimension
1001
ACAD
1000
DSTYLE
1002
{
1070
   279
1070
     1
1002
}
  0
LEADER
  5
EAD
330
1F
100
AcDbEntity
  8
Cen
100
AcDbLeader
  3
ISO-25
 40
25.0
 41
16.66666666666666
 76
     2
 10
707.9559117147773
 20
542.2253272112334
 30
0.0
 10
685.2722099977436
 20
601.4963156088752
 30
0.0
213
0.0
223
12.5
233
0.0
1001
ACAD
1000
DSTYLE
1002
{
1070
    41
1040
25.0
1070
   147
1040
6.25
1070
    77
1070
     0
1070
   279
1070
     1
1002
}
  0
TEXT
  5
EAE
330
1F
100
AcDbEntity
  8
0
100
AcDbText
 10
644.5553496917746
 20
610.7856928922319
 30
0.0
 40
25.0
  1
4500R
100
AcDbText
  0
LINE
  5
EB1
330
1F
100
AcDbEntity
  8
実形
100
AcDbLine
 10
989.7194694065026
 20
533.2929064030618
 30
0.0
 11
1129.371231624416
 21
538.2416345047004
 31
0.0
  0
LINE
  5
EB2
330
1F
100
AcDbEntity
  8
実形
100
AcDbLine
 10
1130.818110663103
 20
539.7406935974211
 30
0.0
 11
1130.818110663103
 21
540.6562465552176
 31
0.0
  0
ARC
  5
EB6
330
1F
100
AcDbEntity
  8
実形
100
AcDbCircle
 10
1132.318110663103
 20
540.6562465552176
 30
0.0
 40
1.5
100
AcDbArc
 50
93.55785186611813
 51
180.0
  0
ARC
  5
EB7
330
1F
100
AcDbEntity
  8
実形
100
AcDbCircle
 10
1129.318110663103
 20
539.7406935974211
 30
0.0
 40
1.5
100
AcDbArc
 50
272.0294956239836
 51
0.0
  0
ARC
  5
EB8
330
1F
100
AcDbEntity
  8
0
100
AcDbCircle
 10
1249.219469406501
 20
579.4855536272179
 30
0.0
 40
30.0
100
AcDbArc
 50
273.5578518661181
 51
359.9999999999999
  0
TEXT
  5
EB9
330
1F
100
AcDbEntity
  8
0
100
AcDbText
 10
1034.422208298249
 20
617.4747897629035
 30
0.0
 40
25.0
  1
4500R
100
AcDbText
  0
LEADER
  5
EBA
330
1F
100
AcDbEntity
  8
Cen
100
AcDbLeader
  3
ISO-25
 40
25.0
 41
16.66666666666666
 76
     2
 10
1075.473882987952
 20
539.6019315870139
 30
0.0
 10
1086.92477124826
 20
604.3578163449833
 30
0.0
213
0.0
223
12.5
233
0.0
1001
ACAD
1000
DSTYLE
1002
{
1070
    41
1040
25.0
1070
   147
1040
6.25
1070
    77
1070
     0
1070
   279
1070
     1
1002
}
  0
LEADER
  5
EBB
330
1F
100
AcDbEntity
  8
Cen
100
AcDbLeader
  3
ISO-25
 40
25.0
 41
16.66666666666666
 76
     2
 10
1179.166456872069
 20
550.0955093807138
 30
0.0
 10
1127.614266530053
 20
603.0461185328736
 30
0.0
213
0.0
223
12.5
233
0.0
1001
ACAD
1000
DSTYLE
1002
{
1070
    41
1040
25.0
1070
   147
1040
6.25
1070
    77
1070
     0
1070
   279
1070
     1
1002
}
  0
LINE
  5
ED9
330
1F
100
AcDbEntity
  8
0
100
AcDbLine
 10
1571.491128709993
 20
642.0626061371531
 30
0.0
 11
1693.512425656321
 21
642.0626061371531
 31
0.0
  0
LINE
  5
EDA
330
1F
100
AcDbEntity
  8
実形
100
AcDbLine
 10
1723.512425656321
 20
762.0626061371531
 30
0.0
 11
1723.512425656321
 21
672.0626061371531
 31
0.0
  0
ARC
  5
EDC
330
1F
100
AcDbEntity
  8
実形
100
AcDbCircle
 10
1693.512425656321
 20
672.0626061371531
 30
0.0
 40
30.0
100
AcDbArc
 50
269.9999999999999
 51
0.0
  0
LINE
  5
EDE
330
1F
100
AcDbEntity
  8
0
100
AcDbLine
 10
1571.491128709993
 20
632.0626061371531
 30
0.0
 11
1693.512425656321
 21
632.0626061371531
 31
0.0
  0
ARC
  5
EDF
330
1F
100
AcDbEntity
  8
実形
100
AcDbCircle
 10
1693.512425656321
 20
672.0626061371531
 30
0.0
 40
40.0
100
AcDbArc
 50
269.9999999999999
 51
318.5903778907286
  0
LEADER
  5
EE1
330
1F
100
AcDbEntity
  8
Cen
100
AcDbLeader
  3
ISO-25
 40
25.0
 41
16.66666666666666
 76
     2
 10
1708.053190261334
 20
658.4061770458321
 30
0.0
 10
1669.726315170089
 20
699.2873834128017
 30
0.0
213
0.0
223
-12.5
233
0.0
1001
ACAD
1000
DSTYLE
1002
{
1070
    41
1040
25.0
1070
   147
1040
6.25
1070
    77
1070
     0
1070
   279
1070
     1
1002
}
  0
TEXT
  5
EE2
330
1F
100
AcDbEntity
  8
0
100
AcDbText
 10
1623.495225369016
 20
709.1874999699643
 30
0.0
 40
25.0
  1
3R
100
AcDbText
  0
LINE
  5
EFC
330
1F
100
AcDbEntity
  8
0
100
AcDbLine
 10
800.7194694065008
 20
524.2929064030615
 30
0.0
 11
957.7194694065012
 21
524.2929064030613
 31
0.0
  0
LINE
  5
F02
330
1F
100
AcDbEntity
  8
0
100
AcDbLine
 10
959.7194694065009
 20
524.2929064030613
 30
0.0
 11
969.7194694065011
 21
524.2929064030613
 31
0.0
  0
DIMENSION
  5
1422
330
1F
100
AcDbEntity
  8
実形
100
AcDbDimension
  2
*D25
 10
491.3098950171582
 20
1358.86010153411
 30
0.0
 11
472.559895017158
 21
1466.36010153411
 31
0.0
 70
    32
 71
     5
 42
215.0
  3
ISO-25
100
AcDbAlignedDimension
 13
612.2194694065009
 23
1573.86010153411
 33
0.0
 14
612.219469406501
 24
1358.86010153411
 34
0.0
 50
90.0
100
AcDbRotatedDimension
1001
ACAD
1000
DSTYLE
1002
{
1070
   279
1070
     1
1002
}
  0
LINE
  5
1493
330
1F
100
AcDbEntity
  8
センター
 48
0.4
370
    15
100
AcDbLine
 10
1673.676615367452
 20
1449.713051566635
 30
0.0
 11
1673.676615367452
 21
1266.38206482117
 31
0.0
  0
LINE
  5
1494
330
1F
100
AcDbEntity
  8
センター
 48
0.7
370
    15
100
AcDbLine
 10
1572.24966628805
 20
1358.86010153411
 30
0.0
 11
1871.496064215102
 21
1358.86010153411
 31
0.0
  0
LINE
  5
1495
330
1F
100
AcDbEntity
  8
実形
100
AcDbLine
 10
1658.676615367452
 20
1381.36010153411
 30
0.0
 11
1658.676615367452
 21
1336.36010153411
 31
0.0
  0
LINE
  5
1496
330
1F
100
AcDbEntity
  8
実形
100
AcDbLine
 10
1673.676615367451
 20
1321.36010153411
 30
0.0
 11
1673.676615367452
 21
1321.36010153411
 31
0.0
  0
LINE
  5
1497
330
1F
100
AcDbEntity
  8
実形
100
AcDbLine
 10
1688.676615367452
 20
1336.36010153411
 30
0.0
 11
1688.676615367452
 21
1381.36010153411
 31
0.0
  0
LINE
  5
1498
330
1F
100
AcDbEntity
  8
実形
100
AcDbLine
 10
1673.676615367452
 20
1396.36010153411
 30
0.0
 11
1673.676615367452
 21
1396.36010153411
 31
0.0
  0
ARC
  5
1499
330
1F
100
AcDbEntity
  8
実形
100
AcDbCircle
 10
1673.676615367452
 20
1381.36010153411
 30
0.0
 40
15.0
100
AcDbArc
 50
0.0
 51
90.0
  0
ARC
  5
149A
330
1F
100
AcDbEntity
  8
実形
100
AcDbCircle
 10
1673.676615367452
 20
1381.36010153411
 30
0.0
 40
15.0
100
AcDbArc
 50
90.0
 51
180.0
  0
ARC
  5
149B
330
1F
100
AcDbEntity
  8
実形
100
AcDbCircle
 10
1673.676615367452
 20
1336.36010153411
 30
0.0
 40
15.0
100
AcDbArc
 50
270.0
 51
0.0
  0
ARC
  5
149C
330
1F
100
AcDbEntity
  8
実形
100
AcDbCircle
 10
1673.676615367452
 20
1336.36010153411
 30
0.0
 40
15.0
100
AcDbArc
 50
180.0
 51
270.0
  0
DIMENSION
  5
149D
330
1F
100
AcDbEntity
  8
寸法
100
AcDbDimension
  2
*D26
 10
1673.676615367452
 20
1457.879312780413
 30
0.0
 11
1663.639139838013
 21
1487.724998541774
 31
0.0
 70
   160
 71
     5
 42
50.0
  3
ISO-25
100
AcDbAlignedDimension
 13
1623.676615367452
 23
1321.36010153411
 33
0.0
 14
1673.676615367452
 24
1382.479690349655
 34
0.0
100
AcDbRotatedDimension
1001
ACAD
1000
DSTYLE
1002
{
1070
   279
1070
     2
1070
   371
1070
    18
1002
}
  0
DIMENSION
  5
149E
330
1F
100
AcDbEntity
  8
0
100
AcDbDimension
  2
*D27
 10
1908.871031503211
 20
1573.86010153411
 30
0.0
 11
1890.121031503211
 21
1466.36010153411
 31
0.0
 70
    32
 71
     5
 42
215.0
  3
ISO-25
100
AcDbAlignedDimension
 13
1688.676615367452
 23
1358.86010153411
 33
0.0
 14
1783.676615367453
 24
1573.86010153411
 34
0.0
 50
90.0
100
AcDbRotatedDimension
1001
ACAD
1000
DSTYLE
1002
{
1070
   279
1070
     1
1002
}
  0
LINE
  5
1524
330
1F
100
AcDbEntity
  8
実形
  6
HIDDEN2
100
AcDbLine
 10
639.219469406501
 20
1321.36010153411
 30
0.0
 11
629.219469406501
 21
1321.36010153411
 31
0.0
  0
LINE
  5
1525
330
1F
100
AcDbEntity
  8
実形
  6
HIDDEN2
100
AcDbLine
 10
639.219469406501
 20
1396.36010153411
 30
0.0
 11
639.219469406501
 21
1321.36010153411
 31
0.0
  0
LINE
  5
1526
330
1F
100
AcDbEntity
  8
実形
  6
HIDDEN2
100
AcDbLine
 10
629.219469406501
 20
1396.36010153411
 30
0.0
 11
639.219469406501
 21
1396.36010153411
 31
0.0
  0
LINE
  5
15B4
330
1F
100
AcDbEntity
  8
センター
 48
0.5
100
AcDbLine
 10
2323.809056420901
 20
718.6284519842351
 30
0.0
 11
2323.809056420901
 21
505.139423226358
 31
0.0
  0
DIMENSION
  5
15B5
330
1F
100
AcDbEntity
  8
寸法
100
AcDbDimension
  2
*D28
 10
2448.809056420902
 20
760.7678348786058
 30
0.0
 11
2323.809056420901
 21
779.5178348786058
 31
0.0
 70
    32
  1
50
 71
     5
 42
250.0
  3
ISO-25
100
AcDbAlignedDimension
 13
2198.809056420901
 23
661.8839376052966
 33
0.0
 14
2448.809056420902
 24
661.8839376052966
 34
0.0
100
AcDbRotatedDimension
1001
ACAD
1000
DSTYLE
1002
{
1070
   371
1070
    18
1070
   372
1070
    18
1002
}
  0
DIMENSION
  5
15B6
330
1F
100
AcDbEntity
  8
寸法
100
AcDbDimension
  2
*D29
 10
2163.809056420902
 20
811.8026743438869
 30
0.0
 11
2323.809056420901
 21
830.5526743438869
 31
0.0
 70
    32
  1
64
 71
     5
 42
320.0
  3
ISO-25
100
AcDbAlignedDimension
 13
2483.809056420902
 23
661.8839376052966
 33
0.0
 14
2163.809056420902
 24
661.8839376052966
 34
0.0
100
AcDbRotatedDimension
1001
ACAD
1000
DSTYLE
1002
{
1070
   371
1070
    18
1070
   372
1070
    18
1002
}
  0
DIMENSION
  5
15B7
330
1F
100
AcDbEntity
  8
寸法
100
AcDbDimension
  2
*D30
 10
2511.309056420902
 20
859.0099009682772
 30
0.0
 11
2323.809056420901
 21
877.7599009682772
 31
0.0
 70
    32
  1
75
 71
     5
 42
375.0
  3
ISO-25
100
AcDbAlignedDimension
 13
2136.309056420901
 23
661.8839376052966
 33
0.0
 14
2511.309056420902
 24
661.8839376052966
 34
0.0
100
AcDbRotatedDimension
1001
ACAD
1000
DSTYLE
1002
{
1070
   371
1070
    18
1070
   372
1070
    18
1002
}
  0
ARC
  5
15B8
330
1F
100
AcDbEntity
  8
実形
100
AcDbCircle
 10
2211.809056420902
 20
611.8839376052965
 30
0.0
 40
75.5
100
AcDbArc
 50
180.0
 51
270.0
  0
ARC
  5
15B9
330
1F
100
AcDbEntity
  8
実形
100
AcDbCircle
 10
2211.809056420902
 20
611.8839376052965
 30
0.0
 40
75.5
100
AcDbArc
 50
90.0
 51
180.0
  0
ARC
  5
15BA
330
1F
100
AcDbEntity
  8
実形
100
AcDbCircle
 10
2211.809056420902
 20
611.8839376052965
 30
0.0
 40
70.5
100
AcDbArc
 50
180.0
 51
270.0
  0
ARC
  5
15BB
330
1F
100
AcDbEntity
  8
実形
100
AcDbCircle
 10
2211.809056420902
 20
611.8839376052965
 30
0.0
 40
70.5
100
AcDbArc
 50
90.0
 51
180.0
  0
LINE
  5
15BC
330
1F
100
AcDbEntity
  8
センター
 48
0.5
100
AcDbLine
 10
2112.952587659522
 20
611.8839376052965
 30
0.0
 11
2534.665525182282
 21
611.8839376052965
 31
0.0
  0
LINE
  5
15BD
330
1F
100
AcDbEntity
  8
実形
100
AcDbLine
 10
2136.309056420901
 20
611.8839376052965
 30
0.0
 11
2136.309056420901
 21
611.8839376052965
 31
0.0
  0
ARC
  5
15BE
330
1F
100
AcDbEntity
  8
実形
100
AcDbCircle
 10
2435.809056420902
 20
611.8839376052965
 30
0.0
 40
75.5
100
AcDbArc
 50
0.0
 51
90.0
  0
ARC
  5
15BF
330
1F
100
AcDbEntity
  8
実形
100
AcDbCircle
 10
2435.809056420902
 20
611.8839376052965
 30
0.0
 40
75.5
100
AcDbArc
 50
270.0
 51
0.0
  0
ARC
  5
15C0
330
1F
100
AcDbEntity
  8
実形
100
AcDbCircle
 10
2435.809056420902
 20
611.8839376052965
 30
0.0
 40
70.5
100
AcDbArc
 50
0.0
 51
90.0
  0
ARC
  5
15C1
330
1F
100
AcDbEntity
  8
実形
100
AcDbCircle
 10
2435.809056420902
 20
611.8839376052965
 30
0.0
 40
70.5
100
AcDbArc
 50
270.0
 51
0.0
  0
ARC
  5
15C2
330
1F
100
AcDbEntity
  8
実形
100
AcDbCircle
 10
2398.809056420902
 20
611.8839376052965
 30
0.0
 40
50.0
100
AcDbArc
 50
0.0
 51
90.0
  0
ARC
  5
15C3
330
1F
100
AcDbEntity
  8
実形
100
AcDbCircle
 10
2398.809056420902
 20
611.8839376052965
 30
0.0
 40
50.0
100
AcDbArc
 50
270.0
 51
0.0
  0
LINE
  5
15C4
330
1F
100
AcDbEntity
  8
実形
100
AcDbLine
 10
2198.809056420901
 20
611.8839376052965
 30
0.0
 11
2198.809056420901
 21
611.8839376052965
 31
0.0
  0
ARC
  5
15C5
330
1F
100
AcDbEntity
  8
実形
100
AcDbCircle
 10
2248.809056420901
 20
611.8839376052965
 30
0.0
 40
50.0
100
AcDbArc
 50
180.0
 51
270.0
  0
ARC
  5
15C6
330
1F
100
AcDbEntity
  8
実形
100
AcDbCircle
 10
2248.809056420901
 20
611.8839376052965
 30
0.0
 40
50.0
100
AcDbArc
 50
90.0
 51
180.0
  0
CIRCLE
  5
15C7
330
1F
100
AcDbEntity
  8
実形
100
AcDbCircle
 10
2163.809056420902
 20
611.8839376052965
 30
0.0
 40
8.966055913162964
  0
LINE
  5
15C8
330
1F
100
AcDbEntity
  8
実形
100
AcDbLine
 10
2211.809056420902
 20
536.3839376052965
 30
0.0
 11
2435.809056420902
 21
536.3839376052965
 31
0.0
  0
LINE
  5
15C9
330
1F
100
AcDbEntity
  8
実形
100
AcDbLine
 10
2435.809056420902
 20
687.3839376052965
 30
0.0
 11
2211.809056420902
 21
687.3839376052965
 31
0.0
  0
LINE
  5
15CA
330
1F
100
AcDbEntity
  8
実形
100
AcDbLine
 10
2248.809056420901
 20
561.8839376052965
 30
0.0
 11
2398.809056420902
 21
561.8839376052965
 31
0.0
  0
LINE
  5
15CB
330
1F
100
AcDbEntity
  8
実形
100
AcDbLine
 10
2398.809056420902
 20
661.8839376052965
 30
0.0
 11
2248.809056420901
 21
661.8839376052965
 31
0.0
  0
LINE
  5
15CC
330
1F
100
AcDbEntity
  8
実形
100
AcDbLine
 10
2435.809056420902
 20
682.3839376052965
 30
0.0
 11
2211.809056420902
 21
682.3839376052965
 31
0.0
  0
LINE
  5
15CD
330
1F
100
AcDbEntity
  8
実形
100
AcDbLine
 10
2211.809056420902
 20
541.3839376052965
 30
0.0
 11
2435.809056420902
 21
541.3839376052965
 31
0.0
  0
LINE
  5
15CE
330
1F
100
AcDbEntity
  8
実形
100
AcDbLine
 10
2511.309056420902
 20
611.8839376052965
 30
0.0
 11
2511.309056420902
 21
611.8839376052965
 31
0.0
  0
LINE
  5
15CF
330
1F
100
AcDbEntity
  8
実形
100
AcDbLine
 10
2448.809056420902
 20
611.8839376052965
 30
0.0
 11
2448.809056420902
 21
611.8839376052965
 31
0.0
  0
CIRCLE
  5
15D0
330
1F
100
AcDbEntity
  8
実形
100
AcDbCircle
 10
2483.809056420902
 20
611.8839376052965
 30
0.0
 40
8.966055913162964
  0
DIMENSION
  5
15D1
330
1F
100
AcDbEntity
  8
寸法
100
AcDbDimension
  2
*D31
 10
2612.762069191493
 20
561.8839376052966
 30
0.0
 11
2594.012069191494
 21
611.8839376052971
 31
0.0
 70
    32
  1
20
 71
     5
 42
100.0
  3
ISO-25
100
AcDbAlignedDimension
 13
2511.309056420902
 23
661.8839376052966
 33
0.0
 14
2511.309056420902
 24
561.8839376052966
 34
0.0
 50
90.0
100
AcDbRotatedDimension
1001
ACAD
1000
DSTYLE
1002
{
1070
   371
1070
    18
1070
   372
1070
    18
1002
}
  0
DIMENSION
  5
15D2
330
1F
100
AcDbEntity
  8
寸法
100
AcDbDimension
  2
*D32
 10
2658.729734480604
 20
536.3839376052966
 30
0.0
 11
2639.979734480604
 21
611.8839376052971
 31
0.0
 70
    32
  1
31
 71
     5
 42
151.0
  3
ISO-25
100
AcDbAlignedDimension
 13
2511.309056420902
 23
687.3839376052966
 33
0.0
 14
2511.309056420902
 24
536.3839376052966
 34
0.0
 50
90.0
100
AcDbRotatedDimension
1001
ACAD
1000
DSTYLE
1002
{
1070
   371
1070
    18
1070
   372
1070
    18
1002
}
  0
TEXT
  5
15D3
330
1F
100
AcDbEntity
  8
0
100
AcDbText
 10
2166.641875310272
 20
970.0245494502878
 30
0.0
 40
30.0
  1
オーバーフロー詳細
100
AcDbText
  0
LINE
  5
15D4
330
1F
100
AcDbEntity
  8
実形
100
AcDbLine
 10
2151.569147788523
 20
958.7289311209215
 30
0.0
 11
2502.010114761752
 21
958.7289311209215
 31
0.0
  0
LINE
  5
15D5
330
1F
100
AcDbEntity
  8
実形
100
AcDbLine
 10
2151.569147788523
 20
951.7289311209214
 30
0.0
 11
2502.010114761752
 21
951.7289311209214
 31
0.0
  0
ARC
  5
1A43
330
1F
100
AcDbEntity
  8
実形
100
AcDbCircle
 10
1777.213799312677
 20
1618.86010153411
 30
0.0
 40
30.0
100
AcDbArc
 50
7.16936291862036
 51
90.0
  0
LINE
  5
1A44
330
1F
100
AcDbEntity
  8
0
100
AcDbLine
 10
1821.676615367452
 20
1569.36010153411
 30
0.0
 11
1821.676615367452
 21
1388.36010153411
 31
0.0
  0
LINE
  5
1A45
330
1F
100
AcDbEntity
  8
0
100
AcDbLine
 10
1813.676615367452
 20
1569.36010153411
 30
0.0
 11
1813.676615367452
 21
1543.86010153411
 31
0.0
  0
LINE
  5
1A46
330
1F
100
AcDbEntity
  8
実形
100
AcDbLine
 10
1813.676615367452
 20
1569.36010153411
 30
0.0
 11
1821.676615367452
 21
1569.36010153411
 31
0.0
  0
LINE
  5
1A47
330
1F
100
AcDbEntity
  8
実形
100
AcDbLine
 10
1813.676615367452
 20
1388.36010153411
 30
0.0
 11
1821.676615367452
 21
1388.36010153411
 31
0.0
  0
LINE
  5
1A48
330
1F
100
AcDbEntity
  8
実形
100
AcDbLine
 10
1806.979246634852
 20
1622.604182958284
 30
0.0
 11
1813.676615367452
 21
1569.36010153411
 31
0.0
  0
DIMENSION
  5
1A81
330
1F
100
AcDbEntity
  8
実形
100
AcDbDimension
  2
*D33
 10
511.0988019500783
 20
706.2929064030613
 30
0.0
 11
495.9513255389647
 21
754.6594034738626
 31
0.0
 70
   160
 71
     5
 42
15.0
  3
ISO-25
100
AcDbAlignedDimension
 13
629.2194694065012
 23
721.2929064030613
 33
0.0
 14
629.2194694065015
 24
706.2929064030613
 34
0.0
 50
90.0
100
AcDbRotatedDimension
1001
ACAD
1000
DSTYLE
1002
{
1070
   279
1070
     1
1002
}
  0
DIMENSION
  5
1A82
330
1F
100
AcDbEntity
  8
実形
100
AcDbDimension
  2
*D34
 10
511.0988019500783
 20
531.2929064030615
 30
0.0
 11
496.367018766683
 21
560.4162496919315
 31
0.0
 70
   160
 71
     5
 42
19.99999999999988
  3
ISO-25
100
AcDbAlignedDimension
 13
628.4015604892992
 23
551.2929064030613
 33
0.0
 14
628.4015604892992
 24
531.2929064030615
 34
0.0
 50
90.0
100
AcDbRotatedDimension
1001
ACAD
1000
DSTYLE
1002
{
1070
   279
1070
     1
1002
}
  0
DIMENSION
  5
1A83
330
1F
100
AcDbEntity
  8
実形
100
AcDbDimension
  2
*D35
 10
511.0988019500783
 20
551.2929064030613
 30
0.0
 11
500.0453627520328
 21
507.0879948184036
 31
0.0
 70
   160
  1
7
 71
     5
 42
30.0
  3
ISO-25
100
AcDbAlignedDimension
 13
628.800986240174
 23
521.2929064030613
 33
0.0
 14
600.0180581202112
 24
551.2929064030613
 34
0.0
 50
90.0
100
AcDbRotatedDimension
1001
ACAD
1000
DSTYLE
1002
{
1070
   279
1070
     1
1002
}
  0
DIMENSION
  5
1A84
330
1F
100
AcDbEntity
  8
実形
100
AcDbDimension
  2
*D36
 10
424.5579035118916
 20
531.2929064030615
 30
0.0
 11
405.8079035118916
 21
626.2929064030616
 31
0.0
 70
    32
 71
     5
 42
189.9999999999998
  3
ISO-25
100
AcDbAlignedDimension
 13
593.8433360776398
 23
721.2929064030613
 33
0.0
 14
593.8433360776398
 24
531.2929064030615
 34
0.0
 50
90.0
100
AcDbRotatedDimension
1001
ACAD
1000
DSTYLE
1002
{
1070
   279
1070
     1
1002
}
  0
LINE
  5
1BFA
330
1F
100
AcDbEntity
  8
補助
100
AcDbLine
 10
2784.000000000001
 20
1959.0
 30
0.0
 11
2019.387286519283
 21
1959.0
 31
0.0
  0
LINE
  5
1BFB
330
1F
100
AcDbEntity
  8
補助
100
AcDbLine
 10
2784.000000000001
 20
1894.0
 30
0.0
 11
2019.387286519283
 21
1894.0
 31
0.0
  0
LINE
  5
1BFC
330
1F
100
AcDbEntity
  8
補助
100
AcDbLine
 10
2202.547653420927
 20
1894.0
 30
0.0
 11
2202.547653420927
 21
2024.0
 31
0.0
  0
LINE
  5
1BFD
330
1F
100
AcDbEntity
  8
補助
100
AcDbLine
 10
2019.387286519283
 20
1894.0
 30
0.0
 11
2019.387286519283
 21
2024.0
 31
0.0
  0
TEXT
  5
1BFE
330
1F
100
AcDbEntity
  8
補助
100
AcDbText
 10
2050.295698850121
 20
1976.328571428572
 30
0.0
 40
30.0
  1
部品名
  7
明朝
 72
     4
 11
2116.124270278692
 21
1991.5
 31
0.0
100
AcDbText
  0
TEXT
  5
1BFF
330
1F
100
AcDbEntity
  8
補助
100
AcDbText
 10
2627.614285714287
 20
1976.071428571429
 30
0.0
 40
30.0
  1
厚さ
  7
明朝
 72
     4
 11
2671.5
 21
1991.5
 31
0.0
100
AcDbText
  0
LINE
  5
1C00
330
1F
100
AcDbEntity
  8
補助
100
AcDbLine
 10
2559.0
 20
1894.0
 30
0.0
 11
2559.000000000001
 21
2024.0
 31
0.0
  0
TEXT
  5
1C01
330
1F
100
AcDbEntity
  8
補助
100
AcDbText
 10
2338.490869919937
 20
1975.947979478154
 30
0.0
 40
30.0
  1
材質
  7
明朝
 72
     4
 11
2382.376584205651
 21
1991.119408049583
 31
0.0
100
AcDbText
  0
TEXT
  5
1C02
330
1F
100
AcDbEntity
  8
実形
100
AcDbText
 10
2048.227810657787
 20
1910.557142857143
 30
0.0
 40
30.0
  1
ボウル
  7
明朝
 72
     4
 11
2114.056382086359
 21
1926.5
 31
0.0
100
AcDbText
  0
TEXT
  5
1C03
330
1F
100
AcDbEntity
  8
実形
100
AcDbText
 10
2594.7
 20
1911.842857142856
 30
0.0
 40
30.0
  1
0.7ｍｍ
  7
明朝
 72
     4
 11
2671.5
 21
1926.5
 31
0.0
100
AcDbText
  0
TEXT
  5
1C04
330
1F
100
AcDbEntity
  8
実形
100
AcDbText
 10
2261.016869107866
 20
1910.728571428571
 30
0.0
 40
30.0
  1
SUS304（BA）
  7
明朝
 72
     4
 11
2392.674011965008
 21
1926.5
 31
0.0
100
AcDbText
  0
LINE
  5
1C05
330
1F
100
AcDbEntity
  8
補助
100
AcDbLine
 10
111.0
 20
2024.0
 30
0.0
 11
111.0
 21
4.0
 31
0.0
  0
VIEWPORT
  5
2E
102
{ACAD_XDICTIONARY
360
1C50
102
}
330
1B
100
AcDbEntity
 67
     1
  8
0
100
AcDbViewport
 10
144.7270812988281
 20
101.2295806407928
 30
0.0
 40
411.6736216682419
 41
222.1517806396485
 68
     1
 69
     1
 12
144.7270812988281
 22
101.2295806407928
 13
0.0
 23
0.0
 14
10.0
 24
10.0
 15
10.0
 25
10.0
 16
0.0
 26
0.0
 36
1.0
 17
0.0
 27
0.0
 37
0.0
 42
50.0
 43
0.0
 44
0.0
 45
222.1517806396485
 50
0.0
 51
0.0
 72
   100
 90
    32800
  1

281
     0
 71
     1
 74
     0
110
0.0
120
0.0
130
0.0
111
1.0
121
0.0
131
0.0
112
0.0
122
1.0
132
0.0
 79
     0
146
0.0
  0
VIEWPORT
  5
30
102
{ACAD_XDICTIONARY
360
1C52
102
}
330
1B
100
AcDbEntity
 67
     1
  8
0
100
AcDbViewport
 10
139.2237563133239
 20
101.2295821905136
 30
0.0
 40
222.7580101013184
 41
161.9673315048218
 68
     2
 69
     2
 12
210.0
 22
148.5
 13
0.0
 23
0.0
 14
10.0
 24
10.0
 15
10.0
 25
10.0
 16
0.0
 26
0.0
 36
1.0
 17
0.0
 27
0.0
 37
0.0
 42
50.0
 43
0.0
 44
0.0
 45
309.0686705647124
 50
0.0
 51
0.0
 72
   100
 90
    32864
  1

281
     0
 71
     1
 74
     0
110
0.0
120
0.0
130
0.0
111
1.0
121
0.0
131
0.0
112
0.0
122
1.0
132
0.0
 79
     0
146
0.0
  0
ENDSEC
  0
SECTION
  2
OBJECTS
  0
DICTIONARY
  5
C
330
0
100
AcDbDictionary
281
     1
  3
ACAD_COLOR
350
19F9
  3
ACAD_GROUP
350
D
  3
ACAD_LAYOUT
350
1A
  3
ACAD_MATERIAL
350
19F8
  3
ACAD_MLINESTYLE
350
17
  3
ACAD_PLOTSETTINGS
350
19
  3
ACAD_PLOTSTYLENAME
350
E
  3
ACAD_TABLESTYLE
350
19FA
  3
AcadDim
350
5B1
  3
ACDBHEADERROUNDTRIPXREC
350
1C49
  3
AcDbVariableDictionary
350
96D
  0
DICTIONARY
  5
1A37
330
2
100
AcDbDictionary
280
     1
281
     1
  3
ACAD_LAYERFILTERS
360
1BD9
  3
ACAD_LAYERSTATES
360
1A38
  3
ACLYDICTIONARY
360
1BD8
  0
DICTIONARY
  5
1C06
330
1F
100
AcDbDictionary
280
     1
281
     1
  3
ACAD_SORTENTS
360
1C07
  0
DICTIONARY
  5
1BE2
330
1BDF
100
AcDbDictionary
280
     1
281
     1
  3
ACAD_SORTENTS
360
1BE3
  0
DICTIONARY
  5
1C50
330
2E
100
AcDbDictionary
280
     1
281
     1
  3
ACAD_XREC_ROUNDTRIP
360
1C51
  0
DICTIONARY
  5
1C52
330
30
100
AcDbDictionary
280
     1
281
     1
  3
ACAD_XREC_ROUNDTRIP
360
1C53
  0
DICTIONARY
  5
19F9
102
{ACAD_REACTORS
330
C
102
}
330
C
100
AcDbDictionary
281
     1
  0
DICTIONARY
  5
D
102
{ACAD_REACTORS
330
C
102
}
330
C
100
AcDbDictionary
281
     1
  0
DICTIONARY
  5
1A
102
{ACAD_REACTORS
330
C
102
}
330
C
100
AcDbDictionary
281
     1
  3
Model
350
22
  3
ﾚｲｱｳﾄ1
350
1E
  3
ﾚｲｱｳﾄ2
350
26
  0
DICTIONARY
  5
19F8
102
{ACAD_REACTORS
330
C
102
}
330
C
100
AcDbDictionary
281
     1
  0
DICTIONARY
  5
17
102
{ACAD_REACTORS
330
C
102
}
330
C
100
AcDbDictionary
281
     1
  3
Standard
350
18
  0
DICTIONARY
  5
19
102
{ACAD_REACTORS
330
C
102
}
330
C
100
AcDbDictionary
281
     1
  0
ACDBDICTIONARYWDFLT
  5
E
102
{ACAD_REACTORS
330
C
102
}
330
C
100
AcDbDictionary
281
     1
  3
Normal
350
F
100
AcDbDictionaryWithDefault
340
F
  0
DICTIONARY
  5
19FA
102
{ACAD_REACTORS
330
C
102
}
330
C
100
AcDbDictionary
281
     1
  3
Standard
350
19FB
  0
XRECORD
  5
5B1
102
{ACAD_REACTORS
330
C
102
}
330
C
100
AcDbXrecord
280
     1
 90
   990106
  3

 60
     0
 61
     0
 62
     1
 63
     3
 64
     0
 65
     0
 66
     0
 67
     3
 68
     1
 69
     0
 70
     0
 71
     0
 72
     0
 40
5.637859010809637
170
     0
340
0
  0
DICTIONARY
  5
1C49
102
{ACAD_REACTORS
330
C
102
}
330
C
100
AcDbDictionary
281
     1
  0
DICTIONARY
  5
96D
102
{ACAD_REACTORS
330
C
102
}
330
C
100
AcDbDictionary
281
     1
  3
CTABLESTYLE
350
1A01
  3
DIMASSOC
350
1C46
  3
PROJECTNAME
350
1C47
  3
SORTENTS
350
96E
  0
DICTIONARY
  5
1BD9
102
{ACAD_REACTORS
330
1A37
102
}
330
1A37
100
AcDbDictionary
281
     1
  0
DICTIONARY
  5
1A38
102
{ACAD_REACTORS
330
1A37
102
}
330
1A37
100
AcDbDictionary
281
     1
  0
DICTIONARY
  5
1BD8
102
{ACAD_REACTORS
330
1A37
102
}
330
1A37
100
AcDbDictionary
281
     1
1001
ACAD
1000
<All
  0
SORTENTSTABLE
  5
1C07
102
{ACAD_REACTORS
330
1C06
102
}
330
1C06
100
AcDbSortentsTable
330
1F
331
55C
  5
55D
331
15BE
  5
15BF
331
15C6
  5
15C7
331
EB8
  5
EB9
331
56C
  5
586
331
1497
  5
1498
331
15CE
  5
15CF
331
498
  5
499
331
3B2
  5
3BF
331
419
  5
41A
331
50F
  5
511
331
471
  5
473
331
304
  5
31C
331
266
  5
267
331
373
  5
376
331
4B0
  5
4B4
331
53D
  5
53F
331
E81
  5
E8E
331
5FB
  5
5FC
331
603
  5
A29
331
4B8
  5
4C1
331
31C
  5
32A
331
15B7
  5
15B8
331
27E
  5
28B
331
32C
  5
32D
331
40A
  5
40B
331
39B
  5
3B2
331
334
  5
335
331
4D0
  5
4D1
331
1A46
  5
1A47
331
1BFC
  5
1BFD
331
1C04
  5
1C05
331
5B4
  5
5B7
331
55D
  5
55F
331
15BF
  5
15C0
331
565
  5
566
331
EB1
  5
EB2
331
A0
  5
A5
331
15C7
  5
15C8
331
EB9
  5
EBA
331
1498
  5
1499
331
ED9
  5
EDA
331
15CF
  5
15D0
331
499
  5
49A
331
33C
  5
340
331
2A6
  5
2B3
331
25F
  5
260
331
41A
  5
41E
331
267
  5
26B
331
EE1
  5
EE2
331
5F4
  5
5F5
331
5FC
  5
5FD
331
A8
  5
A9
331
5AD
  5
5AE
331
54E
  5
558
331
384
  5
39A
331
3E3
  5
3E4
331
4C1
  5
4CE
331
32D
  5
32E
331
4D1
  5
4D2
331
492
  5
493
331
335
  5
339
331
40B
  5
40D
331
1A47
  5
1A48
331
1BFD
  5
1BFE
331
1C05
  5
A0
331
15B8
  5
15B9
331
566
  5
56A
331
EB2
  5
EB6
331
15C0
  5
15C1
331
15C8
  5
15C9
331
EBA
  5
EBB
331
1499
  5
149A
331
15D0
  5
15D1
331
EDA
  5
EDC
331
586
  5
59F
331
A2C
  5
A2D
331
49A
  5
49B
331
413
  5
414
331
260
  5
261
331
511
  5
52C
331
473
  5
480
331
4AA
  5
4AB
331
EE2
  5
EFC
331
537
  5
53A
331
53F
  5
540
331
5F5
  5
5F6
331
F02
  5
1422
331
5FD
  5
5FE
331
DCC
  5
DCD
331
270
  5
27E
331
A9
  5
AA
331
5AE
  5
5B0
331
1422
  5
1493
331
3E4
  5
407
331
32E
  5
32F
331
4D2
  5
50F
331
493
  5
494
331
1A48
  5
1A81
331
1BFE
  5
1BFF
331
15B9
  5
15BA
331
55F
  5
560
331
15C1
  5
15C2
331
15C9
  5
15CA
331
EBB
  5
ED9
331
149A
  5
149B
331
298
  5
2A6
331
A2D
  5
C9F
331
15D1
  5
15D2
331
49B
  5
49D
331
2F7
  5
304
331
414
  5
415
331
261
  5
262
331
4AB
  5
4AE
331
376
  5
384
331
5F6
  5
5F7
331
540
  5
54B
331
59F
  5
5A0
331
CB5
  5
DCC
331
5FE
  5
5FF
331
DCD
  5
DCF
331
AA
  5
AB
331
3DD
  5
3DE
331
32F
  5
330
331
494
  5
495
331
40D
  5
413
331
1BFF
  5
1C00
331
1A81
  5
1A82
331
558
  5
55A
331
15BA
  5
15BB
331
560
  5
562
331
5B7
  5
5B8
331
15C2
  5
15C3
331
1493
  5
1494
331
15CA
  5
15CB
331
149B
  5
149C
331
15D2
  5
15D3
331
EDC
  5
EDE
331
415
  5
419
331
262
  5
263
331
4B4
  5
4B5
331
EFC
  5
F02
331
5A0
  5
5A1
331
5F7
  5
5F8
331
5FF
  5
600
331
AB
  5
AD
331
3DE
  5
3DF
331
330
  5
331
331
2E9
  5
2F7
331
495
  5
496
331
1C00
  5
1C01
331
1A82
  5
1A83
331
5B0
  5
5B2
331
15BB
  5
15BC
331
DE6
  5
DE7
331
5B8
  5
5B9
331
EAD
  5
EAE
331
9C
  5
9C
331
1494
  5
1495
331
5D0
  5
5D2
331
15C3
  5
15C4
331
15CB
  5
15CC
331
149C
  5
149D
331
15D3
  5
15D4
331
49D
  5
49E
331
340
  5
370
331
3BF
  5
3DD
331
370
  5
371
331
263
  5
264
331
41E
  5
471
331
26B
  5
270
331
52C
  5
52E
331
4B5
  5
4B7
331
532
  5
533
331
5D8
  5
5F4
331
53A
  5
53C
331
C9F
  5
CB5
331
5F8
  5
5F9
331
5A1
  5
5A9
331
1524
  5
1525
331
600
  5
601
331
5A9
  5
5AA
331
DCF
  5
DD0
331
E8E
  5
EAD
331
15B4
  5
15B5
331
3DF
  5
3E0
331
28B
  5
298
331
48E
  5
48F
331
331
  5
334
331
407
  5
40A
331
1A43
  5
1A44
331
496
  5
498
331
1C01
  5
1C02
331
1A83
  5
1A84
331
55A
  5
55C
331
EAE
  5
EB1
331
DE7
  5
DE8
331
562
  5
563
331
5B9
  5
5BA
331
15BC
  5
15BD
331
15C4
  5
15C5
331
56A
  5
56C
331
EB6
  5
EB7
331
1495
  5
1496
331
A5
  5
A8
331
15CC
  5
15CD
331
E77
  5
E7F
331
149D
  5
149E
331
339
  5
33C
331
EDE
  5
EDF
331
15D4
  5
15D5
331
49E
  5
4A7
331
2B3
  5
2DC
331
264
  5
265
331
371
  5
372
331
4AE
  5
4AF
331
533
  5
537
331
E7F
  5
E80
331
5F9
  5
5FA
331
1525
  5
1526
331
601
  5
602
331
54B
  5
54C
331
5AA
  5
5AD
331
DD0
  5
DD1
331
AD
  5
25F
331
15B5
  5
15B6
331
3E0
  5
3E3
331
32A
  5
32B
331
4CE
  5
4CF
331
48F
  5
492
331
1A44
  5
1A45
331
1BFA
  5
1BFB
331
1C02
  5
1C03
331
1A84
  5
1BFA
331
5B2
  5
5B4
331
15BD
  5
15BE
331
5BA
  5
5D0
331
563
  5
565
331
DE8
  5
E77
331
1496
  5
1497
331
5D2
  5
5D8
331
EB7
  5
EB8
331
15C5
  5
15C6
331
15CD
  5
15CE
331
A29
  5
A2C
331
149E
  5
1524
331
EDF
  5
EE1
331
15D5
  5
1A43
331
4A7
  5
4AA
331
372
  5
373
331
265
  5
266
331
4AF
  5
4B0
331
52E
  5
532
331
4B7
  5
4B8
331
53C
  5
53D
331
E80
  5
E81
331
5FA
  5
5FB
331
1526
  5
15B4
331
DD1
  5
DE6
331
54C
  5
54E
331
602
  5
603
331
15B6
  5
15B7
331
2DC
  5
2E9
331
480
  5
48E
331
32B
  5
32C
331
4CF
  5
4D0
331
39A
  5
39B
331
1A45
  5
1A46
331
1BFB
  5
1BFC
331
1C03
  5
1C04
  0
SORTENTSTABLE
  5
1BE3
102
{ACAD_REACTORS
330
1BE2
102
}
330
1BE2
100
AcDbSortentsTable
330
1BDF
  0
XRECORD
  5
1C51
102
{ACAD_REACTORS
330
1C50
102
}
330
1C50
100
AcDbXrecord
280
     1
102
SHADEPLOT
 70
     0
  0
XRECORD
  5
1C53
102
{ACAD_REACTORS
330
1C52
102
}
330
1C52
100
AcDbXrecord
280
     1
102
SHADEPLOT
 70
     0
  0
LAYOUT
  5
22
102
{ACAD_XDICTIONARY
360
1C4C
102
}
102
{ACAD_REACTORS
330
1A
102
}
330
1A
100
AcDbPlotSettings
  1

  2
EPSON PM-800C
  4
A4
  6

 40
3.757083177566528
 41
14.7637300491333
 42
3.757080078125
 43
3.757080078125
 44
209.9733276367187
 45
296.9683227539062
 46
0.0
 47
0.0
 48
0.0
 49
0.0
140
0.0
141
0.0
142
1.0
143
10.0
 70
 11952
 72
     1
 73
     1
 74
     2
  7

 75
    20
147
0.1
148
0.0
149
0.0
100
AcDbLayout
  1
Model
 70
     1
 71
     0
 10
0.0
 20
0.0
 11
12.0
 21
9.0
 12
0.0
 22
0.0
 32
0.0
 14
0.0
 24
0.0
 34
0.0
 15
0.0
 25
0.0
 35
0.0
146
0.0
 13
0.0
 23
0.0
 33
0.0
 16
1.0
 26
0.0
 36
0.0
 17
0.0
 27
1.0
 37
0.0
 76
     0
330
1F
  0
LAYOUT
  5
1E
102
{ACAD_XDICTIONARY
360
1C4A
102
}
102
{ACAD_REACTORS
330
1A
102
}
330
1A
100
AcDbPlotSettings
  1

  2
EPSON PM-800C
  4
A4
  6

 40
3.757083177566528
 41
14.7637300491333
 42
3.757080078125
 43
3.757080078125
 44
209.9733276367187
 45
296.9683227539062
 46
0.0
 47
0.0
 48
0.0
 49
0.0
140
0.0
141
0.0
142
1.0
143
1.0
 70
   688
 72
     1
 73
     1
 74
     5
  7

 75
    16
147
1.0
148
0.0
149
0.0
100
AcDbLayout
  1
ﾚｲｱｳﾄ1
 70
     1
 71
     1
 10
-3.757080078125
 20
-3.757083177566528
 11
293.2112426757813
 21
206.2162444591522
 12
0.0
 22
0.0
 32
0.0
 14
27.8447512626648
 24
20.24591643810271
 34
0.0
 15
250.6027613639831
 25
182.2132479429245
 35
0.0
146
0.0
 13
0.0
 23
0.0
 33
0.0
 16
1.0
 26
0.0
 36
0.0
 17
0.0
 27
1.0
 37
0.0
 76
     0
330
1B
331
2E
  0
LAYOUT
  5
26
102
{ACAD_XDICTIONARY
360
1C4E
102
}
102
{ACAD_REACTORS
330
1A
102
}
330
1A
100
AcDbPlotSettings
  1

  2
EPSON PM-800C
  4

  6

 40
0.0
 41
0.0
 42
0.0
 43
0.0
 44
0.0
 45
0.0
 46
0.0
 47
0.0
 48
0.0
 49
0.0
140
0.0
141
0.0
142
1.0
143
1.0
 70
   688
 72
     0
 73
     0
 74
     5
  7

 75
    16
147
1.0
148
0.0
149
0.0
100
AcDbLayout
  1
ﾚｲｱｳﾄ2
 70
     1
 71
     2
 10
0.0
 20
0.0
 11
12.0
 21
9.0
 12
0.0
 22
0.0
 32
0.0
 14
0.0
 24
0.0
 34
0.0
 15
0.0
 25
0.0
 35
0.0
146
0.0
 13
0.0
 23
0.0
 33
0.0
 16
1.0
 26
0.0
 36
0.0
 17
0.0
 27
1.0
 37
0.0
 76
     0
330
23
  0
MLINESTYLE
  5
18
102
{ACAD_REACTORS
330
17
102
}
330
17
100
AcDbMlineStyle
  2
STANDARD
 70
     0
  3

 62
   256
 51
90.0
 52
90.0
 71
     2
 49
0.5
 62
   256
  6
BYLAYER
 49
-0.5
 62
   256
  6
BYLAYER
  0
ACDBPLACEHOLDER
  5
F
102
{ACAD_REACTORS
330
E
102
}
330
E
  0
TABLESTYLE
  5
19FB
102
{ACAD_REACTORS
330
19FA
102
}
330
19FA
100
AcDbTableStyle
  3
Standard
 70
     0
 71
     0
 40
1.5
 41
1.5
280
     0
281
     0
  7
Standard
140
4.5
170
     2
 62
     0
 63
     7
283
     0
274
    -2
284
     1
 64
     0
275
    -2
285
     1
 65
     0
276
    -2
286
     1
 66
     0
277
    -2
287
     1
 67
     0
278
    -2
288
     1
 68
     0
279
    -2
289
     1
 69
     0
  7
Standard
140
6.0
170
     5
 62
     0
 63
     7
283
     0
274
    -2
284
     1
 64
     0
275
    -2
285
     1
 65
     0
276
    -2
286
     1
 66
     0
277
    -2
287
     1
 67
     0
278
    -2
288
     1
 68
     0
279
    -2
289
     1
 69
     0
  7
Standard
140
4.5
170
     5
 62
     0
 63
     7
283
     0
274
    -2
284
     1
 64
     0
275
    -2
285
     1
 65
     0
276
    -2
286
     1
 66
     0
277
    -2
287
     1
 67
     0
278
    -2
288
     1
 68
     0
279
    -2
289
     1
 69
     0
  0
DICTIONARYVAR
  5
1A01
102
{ACAD_REACTORS
330
96D
102
}
330
96D
100
DictionaryVariables
280
     0
  1
STANDARD
  0
DICTIONARYVAR
  5
1C46
102
{ACAD_REACTORS
330
96D
102
}
330
96D
100
DictionaryVariables
280
     0
  1
1
  0
DICTIONARYVAR
  5
1C47
102
{ACAD_REACTORS
330
96D
102
}
330
96D
100
DictionaryVariables
280
     0
  1

  0
DICTIONARYVAR
  5
96E
102
{ACAD_REACTORS
330
96D
102
}
330
96D
100
DictionaryVariables
280
     0
  1
96
  0
DICTIONARY
  5
1C4C
330
22
100
AcDbDictionary
280
     1
281
     1
  3
ACAD_XREC_ROUNDTRIP
360
1C4D
  0
DICTIONARY
  5
1C4A
330
1E
100
AcDbDictionary
280
     1
281
     1
  3
ACAD_XREC_ROUNDTRIP
360
1C4B
  0
DICTIONARY
  5
1C4E
330
26
100
AcDbDictionary
280
     1
281
     1
  3
ACAD_XREC_ROUNDTRIP
360
1C4F
  0
XRECORD
  5
1C4D
102
{ACAD_REACTORS
330
1C4C
102
}
330
1C4C
100
AcDbXrecord
280
     1
102
SHADEPLOT
 70
     0
102
SHADEPLOTRESLEVEL
 70
     2
102
SHADEPLOTCUSTOMDPI
 70
   300
  0
XRECORD
  5
1C4B
102
{ACAD_REACTORS
330
1C4A
102
}
330
1C4A
100
AcDbXrecord
280
     1
102
SHADEPLOT
 70
     0
102
SHADEPLOTRESLEVEL
 70
     2
102
SHADEPLOTCUSTOMDPI
 70
   300
  0
XRECORD
  5
1C4F
102
{ACAD_REACTORS
330
1C4E
102
}
330
1C4E
100
AcDbXrecord
280
     1
102
SHADEPLOT
 70
     0
102
SHADEPLOTRESLEVEL
 70
     2
102
SHADEPLOTCUSTOMDPI
 70
   300
  0
ENDSEC
  0
EOF
