  0
SECTION
  2
HEADER
  9
$ACADVER
  1
AC1015
  9
$ACADMAINTVER
 70
    20
  9
$DWGCODEPAGE
  3
ANSI_932
  9
$INSBASE
 10
0.0
 20
0.0
 30
0.0
  9
$EXTMIN
 10
111.0
 20
4.0
 30
0.0
  9
$EXTMAX
 10
2784.000000000001
 20
2024.0
 30
0.0
  9
$LIMMIN
 10
0.0
 20
0.0
  9
$LIMMAX
 10
29700.0
 20
21000.0
  9
$ORTHOMODE
 70
     0
  9
$REGENMODE
 70
     1
  9
$FILLMODE
 70
     1
  9
$QTEXTMODE
 70
     0
  9
$MIRRTEXT
 70
     1
  9
$LTSCALE
 40
4.0
  9
$ATTMODE
 70
     1
  9
$TEXTSIZE
 40
35.0
  9
$TRACEWID
 40
1.0
  9
$TEXTSTYLE
  7
Standard
  9
$CLAYER
  8
実形
  9
$CELTYPE
  6
ByLayer
  9
$CECOLOR
 62
   256
  9
$CELTSCALE
 40
1.0
  9
$DISPSILH
 70
     0
  9
$DIMSCALE
 40
1.0
  9
$DIMASZ
 40
30.0
  9
$DIMEXO
 40
65.0
  9
$DIMDLI
 40
3.75
  9
$DIMRND
 40
0.0
  9
$DIMDLE
 40
0.0
  9
$DIMEXE
 40
0.0
  9
$DIMTP
 40
0.0
  9
$DIMTM
 40
0.0
  9
$DIMTXT
 40
25.0
  9
$DIMCEN
 40
2.5
  9
$DIMTSZ
 40
0.0
  9
$DIMTOL
 70
     0
  9
$DIMLIM
 70
     0
  9
$DIMTIH
 70
     0
  9
$DIMTOH
 70
     0
  9
$DIMSE1
 70
     0
  9
$DIMSE2
 70
     0
  9
$DIMTAD
 70
     1
  9
$DIMZIN
 70
     8
  9
$DIMBLK
  1
DotSmall
  9
$DIMASO
 70
     1
  9
$DIMSHO
 70
     1
  9
$DIMPOST
  1

  9
$DIMAPOST
  1

  9
$DIMALT
 70
     0
  9
$DIMALTD
 70
     3
  9
$DIMALTF
 40
0.03937007874016
  9
$DIMLFAC
 40
1.0
  9
$DIMTOFL
 70
     1
  9
$DIMTVP
 40
0.0
  9
$DIMTIX
 70
     0
  9
$DIMSOXD
 70
     0
  9
$DIMSAH
 70
     0
  9
$DIMBLK1
  1

  9
$DIMBLK2
  1

  9
$DIMSTYLE
  2
ISO-25
  9
$DIMCLRD
 70
     0
  9
$DIMCLRE
 70
     0
  9
$DIMCLRT
 70
     0
  9
$DIMTFAC
 40
1.0
  9
$DIMGAP
 40
6.25
  9
$DIMJUST
 70
     0
  9
$DIMSD1
 70
     0
  9
$DIMSD2
 70
     0
  9
$DIMTOLJ
 70
     0
  9
$DIMTZIN
 70
     8
  9
$DIMALTZ
 70
     0
  9
$DIMALTTZ
 70
     0
  9
$DIMUPT
 70
     0
  9
$DIMDEC
 70
     2
  9
$DIMTDEC
 70
     2
  9
$DIMALTU
 70
     2
  9
$DIMALTTD
 70
     3
  9
$DIMTXSTY
  7
Standard
  9
$DIMAUNIT
 70
     0
  9
$DIMADEC
 70
     0
  9
$DIMALTRND
 40
0.0
  9
$DIMAZIN
 70
     0
  9
$DIMDSEP
 70
    46
  9
$DIMATFIT
 70
     3
  9
$DIMFRAC
 70
     0
  9
$DIMLDRBLK
  1
Open30
  9
$DIMLUNIT
 70
     2
  9
$DIMLWD
 70
    15
  9
$DIMLWE
 70
    15
  9
$DIMTMOVE
 70
     1
  9
$LUNITS
 70
     2
  9
$LUPREC
 70
     2
  9
$SKETCHINC
 40
1.0
  9
$FILLETRAD
 40
30.0
  9
$AUNITS
 70
     0
  9
$AUPREC
 70
     0
  9
$MENU
  1
.
  9
$ELEVATION
 40
0.0
  9
$PELEVATION
 40
0.0
  9
$THICKNESS
 40
0.0
  9
$LIMCHECK
 70
     1
  9
$CHAMFERA
 40
10.0
  9
$CHAMFERB
 40
10.0
  9
$CHAMFERC
 40
20.0
  9
$CHAMFERD
 40
0.0
  9
$SKPOLY
 70
     0
  9
$TDCREATE
 40
2451673.575802199
  9
$TDUCREATE
 40
2451673.200802199
  9
$TDUPDATE
 40
2458803.799578866
  9
$TDUUPDATE
 40
2458803.424578866
  9
$TDINDWG
 40
0.9946856481
  9
$TDUSRTIMER
 40
0.9946849537
  9
$USRTIMER
 70
     1
  9
$ANGBASE
 50
0.0
  9
$ANGDIR
 70
     0
  9
$PDMODE
 70
     0
  9
$PDSIZE
 40
0.0
  9
$PLINEWID
 40
0.0
  9
$SPLFRAME
 70
     0
  9
$SPLINETYPE
 70
     6
  9
$SPLINESEGS
 70
     8
  9
$HANDSEED
  5
19AF
  9
$SURFTAB1
 70
     6
  9
$SURFTAB2
 70
     6
  9
$SURFTYPE
 70
     6
  9
$SURFU
 70
     6
  9
$SURFV
 70
     6
  9
$UCSBASE
  2

  9
$UCSNAME
  2

  9
$UCSORG
 10
0.0
 20
0.0
 30
0.0
  9
$UCSXDIR
 10
1.0
 20
0.0
 30
0.0
  9
$UCSYDIR
 10
0.0
 20
1.0
 30
0.0
  9
$UCSORTHOREF
  2

  9
$UCSORTHOVIEW
 70
     0
  9
$UCSORGTOP
 10
0.0
 20
0.0
 30
0.0
  9
$UCSORGBOTTOM
 10
0.0
 20
0.0
 30
0.0
  9
$UCSORGLEFT
 10
0.0
 20
0.0
 30
0.0
  9
$UCSORGRIGHT
 10
0.0
 20
0.0
 30
0.0
  9
$UCSORGFRONT
 10
0.0
 20
0.0
 30
0.0
  9
$UCSORGBACK
 10
0.0
 20
0.0
 30
0.0
  9
$PUCSBASE
  2

  9
$PUCSNAME
  2

  9
$PUCSORG
 10
0.0
 20
0.0
 30
0.0
  9
$PUCSXDIR
 10
1.0
 20
0.0
 30
0.0
  9
$PUCSYDIR
 10
0.0
 20
1.0
 30
0.0
  9
$PUCSORTHOREF
  2

  9
$PUCSORTHOVIEW
 70
     0
  9
$PUCSORGTOP
 10
0.0
 20
0.0
 30
0.0
  9
$PUCSORGBOTTOM
 10
0.0
 20
0.0
 30
0.0
  9
$PUCSORGLEFT
 10
0.0
 20
0.0
 30
0.0
  9
$PUCSORGRIGHT
 10
0.0
 20
0.0
 30
0.0
  9
$PUCSORGFRONT
 10
0.0
 20
0.0
 30
0.0
  9
$PUCSORGBACK
 10
0.0
 20
0.0
 30
0.0
  9
$USERI1
 70
     0
  9
$USERI2
 70
     0
  9
$USERI3
 70
     0
  9
$USERI4
 70
     0
  9
$USERI5
 70
     0
  9
$USERR1
 40
0.0
  9
$USERR2
 40
0.0
  9
$USERR3
 40
0.0
  9
$USERR4
 40
0.0
  9
$USERR5
 40
0.0
  9
$WORLDVIEW
 70
     1
  9
$SHADEDGE
 70
     3
  9
$SHADEDIF
 70
    70
  9
$TILEMODE
 70
     1
  9
$MAXACTVP
 70
    64
  9
$PINSBASE
 10
0.0
 20
0.0
 30
0.0
  9
$PLIMCHECK
 70
     0
  9
$PEXTMIN
 10
27.8447512626648
 20
20.24591643810271
 30
0.0
  9
$PEXTMAX
 10
250.6027613639831
 20
182.2132479429245
 30
0.0
  9
$PLIMMIN
 10
-3.757080078125
 20
-3.757083177566528
  9
$PLIMMAX
 10
293.2112426757813
 20
206.2162444591522
  9
$UNITMODE
 70
     0
  9
$VISRETAIN
 70
     1
  9
$PLINEGEN
 70
     0
  9
$PSLTSCALE
 70
     1
  9
$TREEDEPTH
 70
  3020
  9
$CMLSTYLE
  2
Standard
  9
$CMLJUST
 70
     0
  9
$CMLSCALE
 40
20.0
  9
$PROXYGRAPHICS
 70
     1
  9
$MEASUREMENT
 70
     1
  9
$CELWEIGHT
370
    -1
  9
$ENDCAPS
280
     0
  9
$JOINSTYLE
280
     0
  9
$LWDISPLAY
290
     0
  9
$INSUNITS
 70
     4
  9
$HYPERLINKBASE
  1

  9
$STYLESHEET
  1

  9
$XEDIT
290
     1
  9
$CEPSNTYPE
380
     0
  9
$PSTYLEMODE
290
     1
  9
$FINGERPRINTGUID
  2
{C8EA1F16-24C9-11D4-9416-CE0A3B32152F}
  9
$VERSIONGUID
  2
{7F60FCAD-C9AB-4E04-A153-3397CD54B907}
  9
$EXTNAMES
290
     1
  9
$PSVPSCALE
 40
0.0
  9
$OLESTARTUP
290
     0
  0
ENDSEC
  0
SECTION
  2
CLASSES
  0
CLASS
  1
ACDBDICTIONARYWDFLT
  2
AcDbDictionaryWithDefault
  3
ObjectDBX Classes
 90
        0
280
     0
281
     0
  0
CLASS
  1
ACDBPLACEHOLDER
  2
AcDbPlaceHolder
  3
ObjectDBX Classes
 90
        0
280
     0
281
     0
  0
CLASS
  1
LAYOUT
  2
AcDbLayout
  3
ObjectDBX Classes
 90
        0
280
     0
281
     0
  0
CLASS
  1
DICTIONARYVAR
  2
AcDbDictionaryVar
  3
ObjectDBX Classes
 90
        0
280
     0
281
     0
  0
CLASS
  1
TABLESTYLE
  2
AcDbTableStyle
  3
ObjectDBX Classes
 90
     2047
280
     0
281
     0
  0
CLASS
  1
SORTENTSTABLE
  2
AcDbSortentsTable
  3
ObjectDBX Classes
 90
        0
280
     0
281
     0
  0
ENDSEC
  0
SECTION
  2
TABLES
  0
TABLE
  2
VPORT
  5
8
330
0
100
AcDbSymbolTable
 70
     2
  0
VPORT
  5
19A3
330
8
100
AcDbSymbolTableRecord
100
AcDbViewportTableRecord
  2
*Active
 70
     0
 10
0.0
 20
0.0
 11
1.0
 21
1.0
 12
1506.635395409099
 22
992.6050661335425
 13
0.0
 23
0.0
 14
10.0
 24
10.0
 15
10.0
 25
10.0
 16
0.0
 26
0.0
 36
1.0
 17
0.0
 27
0.0
 37
0.0
 40
2593.363509942293
 41
1.29038112522686
 42
50.0
 43
0.0
 44
0.0
 50
0.0
 51
0.0
 71
     0
 72
   100
 73
     1
 74
     3
 75
     0
 76
     0
 77
     0
 78
     0
281
     0
 65
     1
110
0.0
120
0.0
130
0.0
111
1.0
121
0.0
131
0.0
112
0.0
122
1.0
132
0.0
 79
     0
146
0.0
  0
ENDTAB
  0
TABLE
  2
LTYPE
  5
5
330
0
100
AcDbSymbolTable
 70
    46
  0
LTYPE
  5
14
330
5
100
AcDbSymbolTableRecord
100
AcDbLinetypeTableRecord
  2
ByBlock
 70
     0
  3

 72
    65
 73
     0
 40
0.0
  0
LTYPE
  5
15
330
5
100
AcDbSymbolTableRecord
100
AcDbLinetypeTableRecord
  2
ByLayer
 70
     0
  3

 72
    65
 73
     0
 40
0.0
  0
LTYPE
  5
16
330
5
100
AcDbSymbolTableRecord
100
AcDbLinetypeTableRecord
  2
Continuous
 70
     0
  3
Solid line
 72
    65
 73
     0
 40
0.0
  0
LTYPE
  5
34
330
5
100
AcDbSymbolTableRecord
100
AcDbLinetypeTableRecord
  2
ACAD_ISO02W100
 70
     0
  3
ISO dash __ __ __ __ __ __ __ __ __ __ __ __ __
 72
    65
 73
     2
 40
15.0
 49
12.0
 74
     0
 49
-3.0
 74
     0
  0
LTYPE
  5
35
330
5
100
AcDbSymbolTableRecord
100
AcDbLinetypeTableRecord
  2
ACAD_ISO03W100
 70
     0
  3
ISO dash space __    __    __    __    __    __
 72
    65
 73
     2
 40
30.0
 49
12.0
 74
     0
 49
-18.0
 74
     0
  0
LTYPE
  5
36
330
5
100
AcDbSymbolTableRecord
100
AcDbLinetypeTableRecord
  2
ACAD_ISO04W100
 70
     0
  3
ISO long-dash dot ____ . ____ . ____ . ____ . _
 72
    65
 73
     4
 40
30.0
 49
24.0
 74
     0
 49
-3.0
 74
     0
 49
0.0
 74
     0
 49
-3.0
 74
     0
  0
LTYPE
  5
37
330
5
100
AcDbSymbolTableRecord
100
AcDbLinetypeTableRecord
  2
ACAD_ISO05W100
 70
     0
  3
ISO long-dash double-dot ____ .. ____ .. ____ .
 72
    65
 73
     6
 40
34.0
 49
24.0
 74
     0
 49
-3.0
 74
     0
 49
0.5
 74
     0
 49
-3.0
 74
     0
 49
0.5
 74
     0
 49
-3.0
 74
     0
  0
LTYPE
  5
38
330
5
100
AcDbSymbolTableRecord
100
AcDbLinetypeTableRecord
  2
ACAD_ISO06W100
 70
     0
  3
ISO long-dash triple-dot ____ ... ____ ... ____
 72
    65
 73
     8
 40
37.5
 49
24.0
 74
     0
 49
-3.0
 74
     0
 49
0.5
 74
     0
 49
-3.0
 74
     0
 49
0.5
 74
     0
 49
-3.0
 74
     0
 49
0.5
 74
     0
 49
-3.0
 74
     0
  0
LTYPE
  5
39
330
5
100
AcDbSymbolTableRecord
100
AcDbLinetypeTableRecord
  2
ACAD_ISO07W100
 70
     0
  3
ISO dot . . . . . . . . . . . . . . . . . . . .
 72
    65
 73
     2
 40
3.0
 49
0.0
 74
     0
 49
-3.0
 74
     0
  0
LTYPE
  5
3A
330
5
100
AcDbSymbolTableRecord
100
AcDbLinetypeTableRecord
  2
ACAD_ISO08W100
 70
     0
  3
ISO long-dash short-dash ____ __ ____ __ ____ _
 72
    65
 73
     4
 40
36.0
 49
24.0
 74
     0
 49
-3.0
 74
     0
 49
6.0
 74
     0
 49
-3.0
 74
     0
  0
LTYPE
  5
3B
330
5
100
AcDbSymbolTableRecord
100
AcDbLinetypeTableRecord
  2
ACAD_ISO09W100
 70
     0
  3
ISO long-dash double-short-dash ____ __ __ ____
 72
    65
 73
     6
 40
45.0
 49
24.0
 74
     0
 49
-3.0
 74
     0
 49
6.0
 74
     0
 49
-3.0
 74
     0
 49
6.0
 74
     0
 49
-3.0
 74
     0
  0
LTYPE
  5
3C
330
5
100
AcDbSymbolTableRecord
100
AcDbLinetypeTableRecord
  2
ACAD_ISO10W100
 70
     0
  3
ISO dash dot __ . __ . __ . __ . __ . __ . __ .
 72
    65
 73
     4
 40
18.0
 49
12.0
 74
     0
 49
-3.0
 74
     0
 49
0.0
 74
     0
 49
-3.0
 74
     0
  0
LTYPE
  5
3D
330
5
100
AcDbSymbolTableRecord
100
AcDbLinetypeTableRecord
  2
ACAD_ISO11W100
 70
     0
  3
ISO double-dash dot __ __ . __ __ . __ __ . __ 
 72
    65
 73
     6
 40
33.0
 49
12.0
 74
     0
 49
-3.0
 74
     0
 49
12.0
 74
     0
 49
-3.0
 74
     0
 49
0.0
 74
     0
 49
-3.0
 74
     0
  0
LTYPE
  5
3E
330
5
100
AcDbSymbolTableRecord
100
AcDbLinetypeTableRecord
  2
ACAD_ISO12W100
 70
     0
  3
ISO dash double-dot __ . . __ . . __ . . __ . .
 72
    65
 73
     6
 40
21.0
 49
12.0
 74
     0
 49
-3.0
 74
     0
 49
0.0
 74
     0
 49
-3.0
 74
     0
 49
0.0
 74
     0
 49
-3.0
 74
     0
  0
LTYPE
  5
3F
330
5
100
AcDbSymbolTableRecord
100
AcDbLinetypeTableRecord
  2
ACAD_ISO13W100
 70
     0
  3
ISO double-dash double-dot __ __ . . __ __ . . 
 72
    65
 73
     8
 40
36.0
 49
12.0
 74
     0
 49
-3.0
 74
     0
 49
12.0
 74
     0
 49
-3.0
 74
     0
 49
0.0
 74
     0
 49
-3.0
 74
     0
 49
0.0
 74
     0
 49
-3.0
 74
     0
  0
LTYPE
  5
40
330
5
100
AcDbSymbolTableRecord
100
AcDbLinetypeTableRecord
  2
ACAD_ISO14W100
 70
     0
  3
ISO dash triple-dot __ . . . __ . . . __ . . . 
 72
    65
 73
     8
 40
24.0
 49
12.0
 74
     0
 49
-3.0
 74
     0
 49
0.0
 74
     0
 49
-3.0
 74
     0
 49
0.0
 74
     0
 49
-3.0
 74
     0
 49
0.0
 74
     0
 49
-3.0
 74
     0
  0
LTYPE
  5
41
330
5
100
AcDbSymbolTableRecord
100
AcDbLinetypeTableRecord
  2
ACAD_ISO15W100
 70
     0
  3
ISO double-dash triple-dot __ __ . . . __ __ . 
 72
    65
 73
    10
 40
39.0
 49
12.0
 74
     0
 49
-3.0
 74
     0
 49
12.0
 74
     0
 49
-3.0
 74
     0
 49
0.0
 74
     0
 49
-3.0
 74
     0
 49
0.0
 74
     0
 49
-3.0
 74
     0
 49
0.0
 74
     0
 49
-3.0
 74
     0
  0
LTYPE
  5
42
330
5
100
AcDbSymbolTableRecord
100
AcDbLinetypeTableRecord
  2
BATTING
 70
     0
  3
Batting SSSSSSSSSSSSSSSSSSSSSSSSSSSSSSSSSSSSSSS
 72
    65
 73
     4
 40
10.16254
 49
0.00254
 74
     0
 49
-2.54
 74
     4
 75
   134
340
33
 46
2.54
 50
0.0
 44
-2.54
 45
0.0
 49
-5.08
 74
     4
 75
   134
340
33
 46
2.54
 50
180.0
 44
2.54
 45
0.0
 49
-2.54
 74
     0
  0
LTYPE
  5
43
330
5
100
AcDbSymbolTableRecord
100
AcDbLinetypeTableRecord
  2
BORDER
 70
     0
  3
Border __ __ . __ __ . __ __ . __ __ . __ __ .
 72
    65
 73
     6
 40
44.45
 49
12.7
 74
     0
 49
-6.349999999999999
 74
     0
 49
12.7
 74
     0
 49
-6.349999999999999
 74
     0
 49
0.0
 74
     0
 49
-6.349999999999999
 74
     0
  0
LTYPE
  5
44
330
5
100
AcDbSymbolTableRecord
100
AcDbLinetypeTableRecord
  2
BORDER2
 70
     0
  3
Border (.5x) __.__.__.__.__.__.__.__.__.__.__.
 72
    65
 73
     6
 40
22.225
 49
6.349999999999999
 74
     0
 49
-3.174999999999999
 74
     0
 49
6.349999999999999
 74
     0
 49
-3.174999999999999
 74
     0
 49
0.0
 74
     0
 49
-3.174999999999999
 74
     0
  0
LTYPE
  5
45
330
5
100
AcDbSymbolTableRecord
100
AcDbLinetypeTableRecord
  2
BORDERX2
 70
     0
  3
Border (2x) ____  ____  .  ____  ____  .  ___
 72
    65
 73
     6
 40
88.9
 49
25.4
 74
     0
 49
-12.7
 74
     0
 49
25.4
 74
     0
 49
-12.7
 74
     0
 49
0.0
 74
     0
 49
-12.7
 74
     0
  0
LTYPE
  5
46
330
5
100
AcDbSymbolTableRecord
100
AcDbLinetypeTableRecord
  2
CENTER
 70
     0
  3
Center ____ _ ____ _ ____ _ ____ _ ____ _ ____
 72
    65
 73
     4
 40
50.8
 49
31.75
 74
     0
 49
-6.349999999999999
 74
     0
 49
6.349999999999999
 74
     0
 49
-6.349999999999999
 74
     0
  0
LTYPE
  5
47
330
5
100
AcDbSymbolTableRecord
100
AcDbLinetypeTableRecord
  2
CENTER2
 70
     0
  3
Center (.5x) ___ _ ___ _ ___ _ ___ _ ___ _ ___
 72
    65
 73
     4
 40
28.575
 49
19.05
 74
     0
 49
-3.174999999999999
 74
     0
 49
3.174999999999999
 74
     0
 49
-3.174999999999999
 74
     0
  0
LTYPE
  5
48
330
5
100
AcDbSymbolTableRecord
100
AcDbLinetypeTableRecord
  2
CENTERX2
 70
     0
  3
Center (2x) ________  __  ________  __  _____
 72
    65
 73
     4
 40
101.6
 49
63.5
 74
     0
 49
-12.7
 74
     0
 49
12.7
 74
     0
 49
-12.7
 74
     0
  0
LTYPE
  5
49
330
5
100
AcDbSymbolTableRecord
100
AcDbLinetypeTableRecord
  2
DASHDOT
 70
     0
  3
Dash dot __ . __ . __ . __ . __ . __ . __ . __
 72
    65
 73
     4
 40
25.4
 49
12.7
 74
     0
 49
-6.349999999999999
 74
     0
 49
0.0
 74
     0
 49
-6.349999999999999
 74
     0
  0
LTYPE
  5
4A
330
5
100
AcDbSymbolTableRecord
100
AcDbLinetypeTableRecord
  2
DASHDOT2
 70
     0
  3
Dash dot (.5x) _._._._._._._._._._._._._._._.
 72
    65
 73
     4
 40
12.7
 49
6.349999999999999
 74
     0
 49
-3.174999999999999
 74
     0
 49
0.0
 74
     0
 49
-3.174999999999999
 74
     0
  0
LTYPE
  5
4B
330
5
100
AcDbSymbolTableRecord
100
AcDbLinetypeTableRecord
  2
DASHDOTX2
 70
     0
  3
Dash dot (2x) ____  .  ____  .  ____  .  ___
 72
    65
 73
     4
 40
50.8
 49
25.4
 74
     0
 49
-12.7
 74
     0
 49
0.0
 74
     0
 49
-12.7
 74
     0
  0
LTYPE
  5
4C
330
5
100
AcDbSymbolTableRecord
100
AcDbLinetypeTableRecord
  2
DASHED
 70
     0
  3
Dashed __ __ __ __ __ __ __ __ __ __ __ __ __ _
 72
    65
 73
     2
 40
19.05
 49
12.7
 74
     0
 49
-6.349999999999999
 74
     0
  0
LTYPE
  5
4D
330
5
100
AcDbSymbolTableRecord
100
AcDbLinetypeTableRecord
  2
DASHED2
 70
     0
  3
Dashed (.5x) _ _ _ _ _ _ _ _ _ _ _ _ _ _ _ _ _
 72
    65
 73
     2
 40
9.524999999999998
 49
6.349999999999999
 74
     0
 49
-3.174999999999999
 74
     0
  0
LTYPE
  5
4E
330
5
100
AcDbSymbolTableRecord
100
AcDbLinetypeTableRecord
  2
DASHEDX2
 70
     0
  3
Dashed (2x) ____  ____  ____  ____  ____  ___
 72
    65
 73
     2
 40
38.1
 49
25.4
 74
     0
 49
-12.7
 74
     0
  0
LTYPE
  5
4F
330
5
100
AcDbSymbolTableRecord
100
AcDbLinetypeTableRecord
  2
DIVIDE
 70
     0
  3
Divide ____ . . ____ . . ____ . . ____ . . ____
 72
    65
 73
     6
 40
31.75
 49
12.7
 74
     0
 49
-6.349999999999999
 74
     0
 49
0.0
 74
     0
 49
-6.349999999999999
 74
     0
 49
0.0
 74
     0
 49
-6.349999999999999
 74
     0
  0
LTYPE
  5
50
330
5
100
AcDbSymbolTableRecord
100
AcDbLinetypeTableRecord
  2
DIVIDE2
 70
     0
  3
Divide (.5x) __..__..__..__..__..__..__..__.._
 72
    65
 73
     6
 40
15.875
 49
6.349999999999999
 74
     0
 49
-3.174999999999999
 74
     0
 49
0.0
 74
     0
 49
-3.174999999999999
 74
     0
 49
0.0
 74
     0
 49
-3.174999999999999
 74
     0
  0
LTYPE
  5
51
330
5
100
AcDbSymbolTableRecord
100
AcDbLinetypeTableRecord
  2
DIVIDEX2
 70
     0
  3
Divide (2x) ________  .  .  ________  .  .  _
 72
    65
 73
     6
 40
63.49999999999999
 49
25.4
 74
     0
 49
-12.7
 74
     0
 49
0.0
 74
     0
 49
-12.7
 74
     0
 49
0.0
 74
     0
 49
-12.7
 74
     0
  0
LTYPE
  5
52
330
5
100
AcDbSymbolTableRecord
100
AcDbLinetypeTableRecord
  2
DOT
 70
     0
  3
Dot . . . . . . . . . . . . . . . . . . . . . .
 72
    65
 73
     2
 40
6.349999999999999
 49
0.0
 74
     0
 49
-6.349999999999999
 74
     0
  0
LTYPE
  5
53
330
5
100
AcDbSymbolTableRecord
100
AcDbLinetypeTableRecord
  2
DOT2
 70
     0
  3
Dot (.5x) .....................................
 72
    65
 73
     2
 40
3.174999999999999
 49
0.0
 74
     0
 49
-3.174999999999999
 74
     0
  0
LTYPE
  5
54
330
5
100
AcDbSymbolTableRecord
100
AcDbLinetypeTableRecord
  2
DOTX2
 70
     0
  3
Dot (2x) .  .  .  .  .  .  .  .  .  .  .  .  . 
 72
    65
 73
     2
 40
12.7
 49
0.0
 74
     0
 49
-12.7
 74
     0
  0
LTYPE
  5
55
330
5
100
AcDbSymbolTableRecord
100
AcDbLinetypeTableRecord
  2
FENCELINE1
 70
     0
  3
Fenceline circle ----0-----0----0-----0----0---
 72
    65
 73
     4
 40
36.83
 49
6.349999999999999
 74
     0
 49
-2.54
 74
     4
 75
   133
340
33
 46
2.54
 50
0.0
 44
-2.54
 45
0.0
 49
-2.54
 74
     0
 49
25.4
 74
     0
  0
LTYPE
  5
56
330
5
100
AcDbSymbolTableRecord
100
AcDbLinetypeTableRecord
  2
FENCELINE2
 70
     0
  3
Fenceline square ----[]-----[]----[]-----[]----
 72
    65
 73
     4
 40
36.83
 49
6.349999999999999
 74
     0
 49
-2.54
 74
     4
 75
   132
340
33
 46
2.54
 50
0.0
 44
-2.54
 45
0.0
 49
-2.54
 74
     0
 49
25.4
 74
     0
  0
LTYPE
  5
57
330
5
100
AcDbSymbolTableRecord
100
AcDbLinetypeTableRecord
  2
GAS_LINE
 70
     0
  3
Gas line ----GAS----GAS----GAS----GAS----GAS---
 72
    65
 73
     3
 40
24.13
 49
12.7
 74
     0
 49
-5.08
 74
     2
 75
     0
340
11
 46
2.54
 50
0.0
 44
-2.54
 45
-1.27
  9
GAS
 49
-6.349999999999999
 74
     0
  0
LTYPE
  5
58
330
5
100
AcDbSymbolTableRecord
100
AcDbLinetypeTableRecord
  2
HIDDEN
 70
     0
  3
Hidden __ __ __ __ __ __ __ __ __ __ __ __ __ _
 72
    65
 73
     2
 40
9.524999999999998
 49
6.349999999999999
 74
     0
 49
-3.174999999999999
 74
     0
  0
LTYPE
  5
59
330
5
100
AcDbSymbolTableRecord
100
AcDbLinetypeTableRecord
  2
HIDDEN2
 70
     0
  3
Hidden (.5x) _ _ _ _ _ _ _ _ _ _ _ _ _ _ _ _ _
 72
    65
 73
     2
 40
4.762499999999999
 49
3.174999999999999
 74
     0
 49
-1.587499999999999
 74
     0
  0
LTYPE
  5
5A
330
5
100
AcDbSymbolTableRecord
100
AcDbLinetypeTableRecord
  2
HIDDENX2
 70
     0
  3
Hidden (2x) ____ ____ ____ ____ ____ ____ ____
 72
    65
 73
     2
 40
19.05
 49
12.7
 74
     0
 49
-6.349999999999999
 74
     0
  0
LTYPE
  5
5B
330
5
100
AcDbSymbolTableRecord
100
AcDbLinetypeTableRecord
  2
HOT_WATER_SUPPLY
 70
     0
  3
Hot water supply ---- HW ---- HW ---- HW ----
 72
    65
 73
     3
 40
22.86
 49
12.7
 74
     0
 49
-5.08
 74
     2
 75
     0
340
11
 46
2.54
 50
0.0
 44
-2.54
 45
-1.27
  9
HW
 49
-5.08
 74
     0
  0
LTYPE
  5
5C
330
5
100
AcDbSymbolTableRecord
100
AcDbLinetypeTableRecord
  2
PHANTOM
 70
     0
  3
Phantom ______  __  __  ______  __  __  ______
 72
    65
 73
     6
 40
63.5
 49
31.75
 74
     0
 49
-6.349999999999999
 74
     0
 49
6.349999999999999
 74
     0
 49
-6.349999999999999
 74
     0
 49
6.349999999999999
 74
     0
 49
-6.349999999999999
 74
     0
  0
LTYPE
  5
5D
330
5
100
AcDbSymbolTableRecord
100
AcDbLinetypeTableRecord
  2
PHANTOM2
 70
     0
  3
Phantom (.5x) ___ _ _ ___ _ _ ___ _ _ ___ _ _
 72
    65
 73
     6
 40
31.75
 49
15.875
 74
     0
 49
-3.174999999999999
 74
     0
 49
3.174999999999999
 74
     0
 49
-3.174999999999999
 74
     0
 49
3.174999999999999
 74
     0
 49
-3.174999999999999
 74
     0
  0
LTYPE
  5
5E
330
5
100
AcDbSymbolTableRecord
100
AcDbLinetypeTableRecord
  2
PHANTOMX2
 70
     0
  3
Phantom (2x) ____________    ____    ____   _
 72
    65
 73
     6
 40
127.0
 49
63.5
 74
     0
 49
-12.7
 74
     0
 49
12.7
 74
     0
 49
-12.7
 74
     0
 49
12.7
 74
     0
 49
-12.7
 74
     0
  0
LTYPE
  5
5F
330
5
100
AcDbSymbolTableRecord
100
AcDbLinetypeTableRecord
  2
TRACKS
 70
     0
  3
Tracks -|-|-|-|-|-|-|-|-|-|-|-|-|-|-|-|-|-|-|-|
 72
    65
 73
     2
 40
7.62
 49
3.81
 74
     4
 75
   130
340
33
 46
6.349999999999999
 50
0.0
 44
0.0
 45
0.0
 49
3.81
 74
     0
  0
LTYPE
  5
60
330
5
100
AcDbSymbolTableRecord
100
AcDbLinetypeTableRecord
  2
ZIGZAG
 70
     0
  3
Zig zag /\/\/\/\/\/\/\/\/\/\/\/\/\/\/\/\/\/\/\/
 72
    65
 73
     4
 40
20.32254
 49
0.00254
 74
     0
 49
-5.08
 74
     4
 75
   131
340
33
 46
5.08
 50
0.0
 44
-5.08
 45
0.0
 49
-10.16
 74
     4
 75
   131
340
33
 46
5.08
 50
180.0
 44
5.08
 45
0.0
 49
-5.08
 74
     0
  0
ENDTAB
  0
TABLE
  2
LAYER
  5
2
102
{ACAD_XDICTIONARY
360
1870
102
}
330
0
100
AcDbSymbolTable
 70
     7
  0
LAYER
  5
10
330
2
100
AcDbSymbolTableRecord
100
AcDbLayerTableRecord
  2
0
 70
     0
 62
     7
  6
Continuous
370
    -3
390
F
  0
LAYER
  5
C3
330
2
100
AcDbSymbolTableRecord
100
AcDbLayerTableRecord
  2
Defpoints
 70
     0
 62
     7
  6
Continuous
290
     0
370
    -3
390
F
  0
LAYER
  5
256
330
2
100
AcDbSymbolTableRecord
100
AcDbLayerTableRecord
  2
Cen
 70
     0
 62
     7
  6
CENTER2
370
    15
390
F
  0
LAYER
  5
5DF
330
2
100
AcDbSymbolTableRecord
100
AcDbLayerTableRecord
  2
実形
 70
     0
 62
     7
  6
Continuous
370
    -3
390
F
  0
LAYER
  5
60C
330
2
100
AcDbSymbolTableRecord
100
AcDbLayerTableRecord
  2
補助
 70
     0
 62
     7
  6
Continuous
370
    -3
390
F
  0
LAYER
  5
619
330
2
100
AcDbSymbolTableRecord
100
AcDbLayerTableRecord
  2
センター
 70
     0
 62
     7
  6
CENTER2
370
    18
390
F
  0
LAYER
  5
61A
330
2
100
AcDbSymbolTableRecord
100
AcDbLayerTableRecord
  2
寸法
 70
     0
 62
     7
  6
Continuous
370
    18
390
F
  0
ENDTAB
  0
TABLE
  2
STYLE
  5
3
330
0
100
AcDbSymbolTable
 70
     3
  0
STYLE
  5
11
330
3
100
AcDbSymbolTableRecord
100
AcDbTextStyleTableRecord
  2
Standard
 70
     0
 40
0.0
 41
1.0
 50
0.0
 71
     0
 42
35.0
  3
txt.shx
  4
bigfont.shx
  0
STYLE
  5
33
330
3
100
AcDbSymbolTableRecord
100
AcDbTextStyleTableRecord
  2

 70
     1
 40
0.0
 41
1.0
 50
0.0
 71
     0
 42
2.5
  3
ltypeshp.shx
  4

  0
STYLE
  5
1961
330
3
100
AcDbSymbolTableRecord
100
AcDbTextStyleTableRecord
  2
明朝
 70
     0
 40
0.0
 41
1.0
 50
0.0
 71
     0
 42
25.0
  3
MS Mincho.ttf
  4

1001
ACAD
1000
MS Mincho
1071
    32785
  0
ENDTAB
  0
TABLE
  2
VIEW
  5
6
330
0
100
AcDbSymbolTable
 70
     0
  0
ENDTAB
  0
TABLE
  2
UCS
  5
7
330
0
100
AcDbSymbolTable
 70
     0
  0
ENDTAB
  0
TABLE
  2
APPID
  5
9
330
0
100
AcDbSymbolTable
 70
     1
  0
APPID
  5
12
330
9
100
AcDbSymbolTableRecord
100
AcDbRegAppTableRecord
  2
ACAD
 70
     0
  0
ENDTAB
  0
TABLE
  2
DIMSTYLE
  5
A
330
0
100
AcDbSymbolTable
 70
     1
100
AcDbDimStyleTable
 71
     1
340
27
  0
DIMSTYLE
105
27
102
{ACAD_REACTORS
330
473
330
480
330
586
330
304
330
376
330
2E9
330
384
330
31C
330
2F7
330
3BF
330
3B2
330
4C1
330
E81
330
E8E
330
13DD
330
13E1
330
13DF
330
13E2
330
13DC
330
13DE
330
13E0
330
13E3
330
160B
330
160C
330
160D
330
160E
330
1626
330
1628
330
162A
330
18BA
330
18BB
330
18BC
330
18BD
102
}
330
A
100
AcDbSymbolTableRecord
100
AcDbDimStyleTableRecord
  2
ISO-25
 70
     0
 41
30.0
 42
65.0
 43
3.75
 44
0.0
 73
     0
 74
     0
 77
     1
 78
     8
140
25.0
141
2.5
143
0.03937007874016
147
6.25
171
     3
172
     1
271
     2
272
     2
274
     3
283
     0
284
     8
340
11
341
DA
342
D0
371
    15
372
    15
  0
ENDTAB
  0
TABLE
  2
BLOCK_RECORD
  5
1
330
0
100
AcDbSymbolTable
 70
    37
  0
BLOCK_RECORD
  5
1F
102
{ACAD_XDICTIONARY
360
1980
102
}
330
1
100
AcDbSymbolTableRecord
100
AcDbBlockTableRecord
  2
*Model_Space
340
22
  0
BLOCK_RECORD
  5
1B
330
1
100
AcDbSymbolTableRecord
100
AcDbBlockTableRecord
  2
*Paper_Space
340
1E
  0
BLOCK_RECORD
  5
23
330
1
100
AcDbSymbolTableRecord
100
AcDbBlockTableRecord
  2
*Paper_Space0
340
26
  0
BLOCK_RECORD
  5
D0
330
1
100
AcDbSymbolTableRecord
100
AcDbBlockTableRecord
  2
_DotSmall
340
0
102
{BLKREFS
331
1713
331
1714
331
171C
331
171D
331
1740
331
1741
331
1749
331
174A
331
1752
331
1753
331
175B
331
175C
331
1765
331
1766
331
1777
331
1778
331
1781
331
1782
331
1789
331
178A
331
1793
331
1794
331
179C
331
179D
331
17A5
331
17A6
331
17AD
331
17AE
331
17BF
331
17C0
331
17C9
331
17CA
331
17D2
331
17D3
331
17DB
331
17DC
331
17E4
331
17E5
331
17EE
331
17EF
331
17F6
331
17F7
331
17FF
331
1800
331
1808
331
1809
331
1812
331
1813
331
181A
331
181B
331
1823
331
1824
331
182C
331
182D
331
1835
331
1836
331
186A
331
186B
331
18F2
331
18F3
331
18FB
331
18FC
331
1904
331
1905
331
190C
331
190D
102
}
  0
BLOCK_RECORD
  5
D4
330
1
100
AcDbSymbolTableRecord
100
AcDbBlockTableRecord
  2
_Origin2
340
0
  0
BLOCK_RECORD
  5
DA
330
1
100
AcDbSymbolTableRecord
100
AcDbBlockTableRecord
  2
_Open30
340
0
  0
BLOCK_RECORD
  5
2EA
330
1
100
AcDbSymbolTableRecord
100
AcDbBlockTableRecord
  2
*D4
340
0
  0
BLOCK_RECORD
  5
2F8
330
1
100
AcDbSymbolTableRecord
100
AcDbBlockTableRecord
  2
*D5
340
0
  0
BLOCK_RECORD
  5
305
330
1
100
AcDbSymbolTableRecord
100
AcDbBlockTableRecord
  2
*D6
340
0
  0
BLOCK_RECORD
  5
31D
330
1
100
AcDbSymbolTableRecord
100
AcDbBlockTableRecord
  2
*D7
340
0
  0
BLOCK_RECORD
  5
377
330
1
100
AcDbSymbolTableRecord
100
AcDbBlockTableRecord
  2
*D8
340
0
  0
BLOCK_RECORD
  5
385
330
1
100
AcDbSymbolTableRecord
100
AcDbBlockTableRecord
  2
*D9
340
0
  0
BLOCK_RECORD
  5
3B3
330
1
100
AcDbSymbolTableRecord
100
AcDbBlockTableRecord
  2
*D10
340
0
  0
BLOCK_RECORD
  5
3C0
330
1
100
AcDbSymbolTableRecord
100
AcDbBlockTableRecord
  2
*D11
340
0
  0
BLOCK_RECORD
  5
474
330
1
100
AcDbSymbolTableRecord
100
AcDbBlockTableRecord
  2
*D12
340
0
  0
BLOCK_RECORD
  5
481
330
1
100
AcDbSymbolTableRecord
100
AcDbBlockTableRecord
  2
*D13
340
0
  0
BLOCK_RECORD
  5
4C2
330
1
100
AcDbSymbolTableRecord
100
AcDbBlockTableRecord
  2
*D14
340
0
  0
BLOCK_RECORD
  5
587
330
1
100
AcDbSymbolTableRecord
100
AcDbBlockTableRecord
  2
*D15
340
0
  0
BLOCK_RECORD
  5
E82
330
1
100
AcDbSymbolTableRecord
100
AcDbBlockTableRecord
  2
*D16
340
0
  0
BLOCK_RECORD
  5
E8F
330
1
100
AcDbSymbolTableRecord
100
AcDbBlockTableRecord
  2
*D17
340
0
  0
BLOCK_RECORD
  5
13EA
330
1
100
AcDbSymbolTableRecord
100
AcDbBlockTableRecord
  2
*D18
340
0
  0
BLOCK_RECORD
  5
13F6
330
1
100
AcDbSymbolTableRecord
100
AcDbBlockTableRecord
  2
*D19
340
0
  0
BLOCK_RECORD
  5
1402
330
1
100
AcDbSymbolTableRecord
100
AcDbBlockTableRecord
  2
*D20
340
0
  0
BLOCK_RECORD
  5
140E
330
1
100
AcDbSymbolTableRecord
100
AcDbBlockTableRecord
  2
*D21
340
0
  0
BLOCK_RECORD
  5
141A
330
1
100
AcDbSymbolTableRecord
100
AcDbBlockTableRecord
  2
*D22
340
0
  0
BLOCK_RECORD
  5
1426
330
1
100
AcDbSymbolTableRecord
100
AcDbBlockTableRecord
  2
*D23
340
0
  0
BLOCK_RECORD
  5
1432
330
1
100
AcDbSymbolTableRecord
100
AcDbBlockTableRecord
  2
*D24
340
0
  0
BLOCK_RECORD
  5
143F
330
1
100
AcDbSymbolTableRecord
100
AcDbBlockTableRecord
  2
*D25
340
0
  0
BLOCK_RECORD
  5
163C
330
1
100
AcDbSymbolTableRecord
100
AcDbBlockTableRecord
  2
*D26
340
0
  0
BLOCK_RECORD
  5
1648
330
1
100
AcDbSymbolTableRecord
100
AcDbBlockTableRecord
  2
*D27
340
0
  0
BLOCK_RECORD
  5
1654
330
1
100
AcDbSymbolTableRecord
100
AcDbBlockTableRecord
  2
*D28
340
0
  0
BLOCK_RECORD
  5
1660
330
1
100
AcDbSymbolTableRecord
100
AcDbBlockTableRecord
  2
*D29
340
0
  0
BLOCK_RECORD
  5
166C
330
1
100
AcDbSymbolTableRecord
100
AcDbBlockTableRecord
  2
*D30
340
0
  0
BLOCK_RECORD
  5
1678
330
1
100
AcDbSymbolTableRecord
100
AcDbBlockTableRecord
  2
*D31
340
0
  0
BLOCK_RECORD
  5
1684
330
1
100
AcDbSymbolTableRecord
100
AcDbBlockTableRecord
  2
*D32
340
0
  0
BLOCK_RECORD
  5
18BE
330
1
100
AcDbSymbolTableRecord
100
AcDbBlockTableRecord
  2
*D33
340
0
  0
BLOCK_RECORD
  5
18CA
330
1
100
AcDbSymbolTableRecord
100
AcDbBlockTableRecord
  2
*D34
340
0
  0
BLOCK_RECORD
  5
18D6
330
1
100
AcDbSymbolTableRecord
100
AcDbBlockTableRecord
  2
*D35
340
0
  0
BLOCK_RECORD
  5
18E2
330
1
100
AcDbSymbolTableRecord
100
AcDbBlockTableRecord
  2
*D36
340
0
  0
ENDTAB
  0
ENDSEC
  0
SECTION
  2
BLOCKS
  0
BLOCK
  5
20
330
1F
100
AcDbEntity
  8
0
100
AcDbBlockBegin
  2
*Model_Space
 70
     0
 10
0.0
 20
0.0
 30
0.0
  3
*Model_Space
  1

  0
ENDBLK
  5
21
330
1F
100
AcDbEntity
  8
0
100
AcDbBlockEnd
  0
BLOCK
  5
1C
330
1B
100
AcDbEntity
 67
     1
  8
0
100
AcDbBlockBegin
  2
*Paper_Space
 70
     0
 10
0.0
 20
0.0
 30
0.0
  3
*Paper_Space
  1

  0
ENDBLK
  5
1D
330
1B
100
AcDbEntity
 67
     1
  8
0
100
AcDbBlockEnd
  0
BLOCK
  5
24
330
23
100
AcDbEntity
  8
0
100
AcDbBlockBegin
  2
*Paper_Space0
 70
     0
 10
0.0
 20
0.0
 30
0.0
  3
*Paper_Space0
  1

  0
ENDBLK
  5
25
330
23
100
AcDbEntity
  8
0
100
AcDbBlockEnd
  0
BLOCK
  5
D2
330
D0
100
AcDbEntity
  8
0
100
AcDbBlockBegin
  2
_DotSmall
 70
     0
 10
0.0
 20
0.0
 30
0.0
  3
_DotSmall
  1

  0
LWPOLYLINE
  5
D1
330
D0
100
AcDbEntity
  8
0
 62
     0
100
AcDbPolyline
 90
        2
 70
     1
 43
0.5
 10
-0.0625
 20
0.0
 42
1.0
 10
0.0625
 20
0.0
 42
1.0
  0
ENDBLK
  5
D3
330
D0
100
AcDbEntity
  8
0
100
AcDbBlockEnd
  0
BLOCK
  5
D8
330
D4
100
AcDbEntity
  8
0
100
AcDbBlockBegin
  2
_Origin2
 70
     0
 10
0.0
 20
0.0
 30
0.0
  3
_Origin2
  1

  0
CIRCLE
  5
D5
330
D4
100
AcDbEntity
  8
0
 62
     0
370
    -2
100
AcDbCircle
 10
0.0
 20
0.0
 30
0.0
 40
0.5
  0
CIRCLE
  5
D6
330
D4
100
AcDbEntity
  8
0
 62
     0
370
    -2
100
AcDbCircle
 10
0.0
 20
0.0
 30
0.0
 40
0.25
  0
LINE
  5
D7
330
D4
100
AcDbEntity
  8
0
 62
     0
370
    -2
100
AcDbLine
 10
-0.5
 20
0.0
 30
0.0
 11
-1.0
 21
0.0
 31
0.0
  0
ENDBLK
  5
D9
330
D4
100
AcDbEntity
  8
0
100
AcDbBlockEnd
  0
BLOCK
  5
DE
330
DA
100
AcDbEntity
  8
0
100
AcDbBlockBegin
  2
_Open30
 70
     0
 10
0.0
 20
0.0
 30
0.0
  3
_Open30
  1

  0
LINE
  5
DB
330
DA
100
AcDbEntity
  8
0
 62
     0
370
    -2
100
AcDbLine
 10
-1.0
 20
0.26794919
 30
0.0
 11
0.0
 21
0.0
 31
0.0
  0
LINE
  5
DC
330
DA
100
AcDbEntity
  8
0
 62
     0
370
    -2
100
AcDbLine
 10
0.0
 20
0.0
 30
0.0
 11
-1.0
 21
-0.26794919
 31
0.0
  0
LINE
  5
DD
330
DA
100
AcDbEntity
  8
0
 62
     0
370
    -2
100
AcDbLine
 10
0.0
 20
0.0
 30
0.0
 11
-1.0
 21
0.0
 31
0.0
  0
ENDBLK
  5
DF
330
DA
100
AcDbEntity
  8
0
100
AcDbBlockEnd
  0
BLOCK
  5
2F5
330
2EA
100
AcDbEntity
  8
0
100
AcDbBlockBegin
  2
*D4
 70
     1
 10
0.0
 20
0.0
 30
0.0
  3
*D4
  1

  0
LINE
  5
17C5
330
2EA
100
AcDbEntity
  8
0
 62
     0
370
    15
100
AcDbLine
 10
1278.631644792499
 20
1024.363527071863
 30
0.0
 11
1278.631644792499
 21
972.4557552771466
 31
0.0
  0
LINE
  5
17C6
330
2EA
100
AcDbEntity
  8
0
 62
     0
370
    15
100
AcDbLine
 10
1261.631644792499
 20
1024.363527071863
 30
0.0
 11
1261.631644792499
 21
972.4557552771466
 31
0.0
  0
LINE
  5
17C7
330
2EA
100
AcDbEntity
  8
0
 62
     0
370
    15
100
AcDbLine
 10
1278.631644792499
 20
972.4557552771466
 30
0.0
 11
1261.631644792499
 21
972.4557552771466
 31
0.0
  0
LINE
  5
17C8
330
2EA
100
AcDbEntity
  8
0
 62
     0
370
    15
100
AcDbLine
 10
1261.631644792499
 20
972.4557552771466
 30
0.0
 11
1185.798311459166
 21
972.4557552771466
 31
0.0
  0
INSERT
  5
17C9
330
2EA
100
AcDbEntity
  8
0
 62
     0
370
    15
100
AcDbBlockReference
  2
_DotSmall
 10
1278.631644792499
 20
972.4557552771466
 30
0.0
 41
30.0
 42
30.0
 43
30.0
  0
INSERT
  5
17CA
330
2EA
100
AcDbEntity
  8
0
 62
     0
370
    15
100
AcDbBlockReference
  2
_DotSmall
 10
1261.631644792499
 20
972.4557552771466
 30
0.0
 41
30.0
 42
30.0
 43
30.0
 50
180.0
  0
MTEXT
  5
17CB
330
2EA
100
AcDbEntity
  8
0
 62
     0
100
AcDbMText
 10
1208.714978125832
 20
991.2057552771466
 30
0.0
 40
25.0
 41
0.0
 71
     5
 72
     1
  1
17
 73
     1
 44
1.0
1001
ACAD
1000
MTEXTBEGIN
1070
    73
1070
     1
1070
    44
1040
1.0
1070
    74
1070
     0
1000
MTEXTEND
  0
POINT
  5
17CC
330
2EA
100
AcDbEntity
  8
Defpoints
 62
     0
100
AcDbPoint
 10
1278.631644792499
 20
1089.363527071863
 30
0.0
  0
POINT
  5
17CD
330
2EA
100
AcDbEntity
  8
Defpoints
 62
     0
100
AcDbPoint
 10
1261.631644792499
 20
1089.363527071863
 30
0.0
  0
POINT
  5
17CE
330
2EA
100
AcDbEntity
  8
Defpoints
 62
     0
100
AcDbPoint
 10
1261.631644792499
 20
972.4557552771466
 30
0.0
  0
ENDBLK
  5
2F6
330
2EA
100
AcDbEntity
  8
0
100
AcDbBlockEnd
  0
BLOCK
  5
302
330
2F8
100
AcDbEntity
  8
0
100
AcDbBlockBegin
  2
*D5
 70
     1
 10
0.0
 20
0.0
 30
0.0
  3
*D5
  1

  0
LINE
  5
1719
330
2F8
100
AcDbEntity
  8
0
 62
     0
370
    15
100
AcDbLine
 10
1261.631644792499
 20
1024.363527071863
 30
0.0
 11
1261.631644792499
 21
972.4557552771466
 31
0.0
  0
LINE
  5
171A
330
2F8
100
AcDbEntity
  8
0
 62
     0
370
    15
100
AcDbLine
 10
611.6316447924991
 20
1024.363527071863
 30
0.0
 11
611.6316447924991
 21
972.4557552771466
 31
0.0
  0
LINE
  5
171B
330
2F8
100
AcDbEntity
  8
0
 62
     0
370
    15
100
AcDbLine
 10
1261.631644792499
 20
972.4557552771466
 30
0.0
 11
611.6316447924991
 21
972.4557552771466
 31
0.0
  0
INSERT
  5
171C
330
2F8
100
AcDbEntity
  8
0
 62
     0
370
    15
100
AcDbBlockReference
  2
_DotSmall
 10
1261.631644792499
 20
972.4557552771466
 30
0.0
 41
30.0
 42
30.0
 43
30.0
  0
INSERT
  5
171D
330
2F8
100
AcDbEntity
  8
0
 62
     0
370
    15
100
AcDbBlockReference
  2
_DotSmall
 10
611.6316447924991
 20
972.4557552771466
 30
0.0
 41
30.0
 42
30.0
 43
30.0
 50
180.0
  0
MTEXT
  5
171E
330
2F8
100
AcDbEntity
  8
0
 62
     0
100
AcDbMText
 10
936.6316447924992
 20
991.2057552771466
 30
0.0
 40
25.0
 41
0.0
 71
     5
 72
     1
  1
650
 73
     1
 44
1.0
1001
ACAD
1000
MTEXTBEGIN
1070
    73
1070
     1
1070
    44
1040
1.0
1070
    74
1070
     0
1000
MTEXTEND
  0
POINT
  5
171F
330
2F8
100
AcDbEntity
  8
Defpoints
 62
     0
100
AcDbPoint
 10
1261.631644792499
 20
1089.363527071863
 30
0.0
  0
POINT
  5
1720
330
2F8
100
AcDbEntity
  8
Defpoints
 62
     0
100
AcDbPoint
 10
611.6316447924991
 20
1089.363527071863
 30
0.0
  0
POINT
  5
1721
330
2F8
100
AcDbEntity
  8
Defpoints
 62
     0
100
AcDbPoint
 10
611.6316447924991
 20
972.4557552771466
 30
0.0
  0
ENDBLK
  5
303
330
2F8
100
AcDbEntity
  8
0
100
AcDbBlockEnd
  0
BLOCK
  5
311
330
305
100
AcDbEntity
  8
0
100
AcDbBlockBegin
  2
*D6
 70
     1
 10
0.0
 20
0.0
 30
0.0
  3
*D6
  1

  0
LINE
  5
1761
330
305
100
AcDbEntity
  8
0
 62
     0
370
    15
100
AcDbLine
 10
611.6316447924991
 20
1024.363527071863
 30
0.0
 11
611.6316447924991
 21
972.4557552771466
 31
0.0
  0
LINE
  5
1762
330
305
100
AcDbEntity
  8
0
 62
     0
370
    15
100
AcDbLine
 10
594.6316447924991
 20
1024.363527071863
 30
0.0
 11
594.6316447924991
 21
972.4557552771466
 31
0.0
  0
LINE
  5
1763
330
305
100
AcDbEntity
  8
0
 62
     0
370
    15
100
AcDbLine
 10
611.6316447924991
 20
972.4557552771466
 30
0.0
 11
594.6316447924991
 21
972.4557552771466
 31
0.0
  0
MTEXT
  5
1764
330
305
100
AcDbEntity
  8
0
 62
     0
100
AcDbMText
 10
655.0898603769556
 20
991.2057552771466
 30
0.0
 40
25.0
 41
0.0
 71
     5
 72
     1
  1
17
 73
     1
 44
1.0
1001
ACAD
1000
MTEXTBEGIN
1070
    73
1070
     1
1070
    44
1040
1.0
1070
    74
1070
     0
1000
MTEXTEND
  0
INSERT
  5
1765
330
305
100
AcDbEntity
  8
0
 62
     0
370
    15
100
AcDbBlockReference
  2
_DotSmall
 10
611.6316447924991
 20
972.4557552771466
 30
0.0
 41
30.0
 42
30.0
 43
30.0
  0
INSERT
  5
1766
330
305
100
AcDbEntity
  8
0
 62
     0
370
    15
100
AcDbBlockReference
  2
_DotSmall
 10
594.6316447924991
 20
972.4557552771466
 30
0.0
 41
30.0
 42
30.0
 43
30.0
 50
180.0
  0
POINT
  5
1767
330
305
100
AcDbEntity
  8
Defpoints
 62
     0
100
AcDbPoint
 10
611.6316447924991
 20
1089.363527071863
 30
0.0
  0
POINT
  5
1768
330
305
100
AcDbEntity
  8
Defpoints
 62
     0
100
AcDbPoint
 10
594.6316447924991
 20
1089.363527071863
 30
0.0
  0
POINT
  5
1769
330
305
100
AcDbEntity
  8
Defpoints
 62
     0
100
AcDbPoint
 10
594.6316447924991
 20
972.4557552771466
 30
0.0
  0
ENDBLK
  5
312
330
305
100
AcDbEntity
  8
0
100
AcDbBlockEnd
  0
BLOCK
  5
327
330
31D
100
AcDbEntity
  8
0
100
AcDbBlockBegin
  2
*D7
 70
     1
 10
0.0
 20
0.0
 30
0.0
  3
*D7
  1

  0
LINE
  5
1710
330
31D
100
AcDbEntity
  8
0
 62
     0
370
    15
100
AcDbLine
 10
1278.631644792499
 20
1024.363527071863
 30
0.0
 11
1278.631644792499
 21
902.0969833219396
 31
0.0
  0
LINE
  5
1711
330
31D
100
AcDbEntity
  8
0
 62
     0
370
    15
100
AcDbLine
 10
594.6316447924991
 20
1024.363527071863
 30
0.0
 11
594.6316447924991
 21
902.0969833219396
 31
0.0
  0
LINE
  5
1712
330
31D
100
AcDbEntity
  8
0
 62
     0
370
    15
100
AcDbLine
 10
1278.631644792499
 20
902.0969833219396
 30
0.0
 11
594.6316447924991
 21
902.0969833219396
 31
0.0
  0
INSERT
  5
1713
330
31D
100
AcDbEntity
  8
0
 62
     0
370
    15
100
AcDbBlockReference
  2
_DotSmall
 10
1278.631644792499
 20
902.0969833219396
 30
0.0
 41
30.0
 42
30.0
 43
30.0
  0
INSERT
  5
1714
330
31D
100
AcDbEntity
  8
0
 62
     0
370
    15
100
AcDbBlockReference
  2
_DotSmall
 10
594.6316447924991
 20
902.0969833219396
 30
0.0
 41
30.0
 42
30.0
 43
30.0
 50
180.0
  0
MTEXT
  5
1715
330
31D
100
AcDbEntity
  8
0
 62
     0
100
AcDbMText
 10
936.6316447924992
 20
920.8469833219396
 30
0.0
 40
25.0
 41
0.0
 71
     5
 72
     1
  1
684
 73
     1
 44
1.0
1001
ACAD
1000
MTEXTBEGIN
1070
    73
1070
     1
1070
    44
1040
1.0
1070
    74
1070
     0
1000
MTEXTEND
  0
POINT
  5
1716
330
31D
100
AcDbEntity
  8
Defpoints
 62
     0
100
AcDbPoint
 10
1278.631644792499
 20
1089.363527071863
 30
0.0
  0
POINT
  5
1717
330
31D
100
AcDbEntity
  8
Defpoints
 62
     0
100
AcDbPoint
 10
594.6316447924991
 20
1089.363527071863
 30
0.0
  0
POINT
  5
1718
330
31D
100
AcDbEntity
  8
Defpoints
 62
     0
100
AcDbPoint
 10
594.6316447924991
 20
902.0969833219396
 30
0.0
  0
ENDBLK
  5
328
330
31D
100
AcDbEntity
  8
0
100
AcDbBlockEnd
  0
BLOCK
  5
381
330
377
100
AcDbEntity
  8
0
100
AcDbBlockBegin
  2
*D8
 70
     1
 10
0.0
 20
0.0
 30
0.0
  3
*D8
  1

  0
LINE
  5
17BC
330
377
100
AcDbEntity
  8
0
 62
     0
370
    15
100
AcDbLine
 10
1011.631644792499
 20
1353.106438881084
 30
0.0
 11
1011.631644792499
 21
1258.826449129649
 31
0.0
  0
LINE
  5
17BD
330
377
100
AcDbEntity
  8
0
 62
     0
370
    15
100
AcDbLine
 10
1261.631644792499
 20
1371.363527071863
 30
0.0
 11
1261.631644792499
 21
1258.826449129649
 31
0.0
  0
LINE
  5
17BE
330
377
100
AcDbEntity
  8
0
 62
     0
370
    15
100
AcDbLine
 10
1011.631644792499
 20
1258.826449129649
 30
0.0
 11
1261.631644792499
 21
1258.826449129649
 31
0.0
  0
INSERT
  5
17BF
330
377
100
AcDbEntity
  8
0
 62
     0
370
    15
100
AcDbBlockReference
  2
_DotSmall
 10
1011.631644792499
 20
1258.826449129649
 30
0.0
 41
30.0
 42
30.0
 43
30.0
 50
180.0
  0
INSERT
  5
17C0
330
377
100
AcDbEntity
  8
0
 62
     0
370
    15
100
AcDbBlockReference
  2
_DotSmall
 10
1261.631644792499
 20
1258.826449129649
 30
0.0
 41
30.0
 42
30.0
 43
30.0
  0
MTEXT
  5
17C1
330
377
100
AcDbEntity
  8
0
 62
     0
100
AcDbMText
 10
1136.631644792499
 20
1277.576449129649
 30
0.0
 40
25.0
 41
0.0
 71
     5
 72
     1
  1
250
 73
     1
 44
1.0
1001
ACAD
1000
MTEXTBEGIN
1070
    73
1070
     1
1070
    44
1040
1.0
1070
    74
1070
     0
1000
MTEXTEND
  0
POINT
  5
17C2
330
377
100
AcDbEntity
  8
Defpoints
 62
     0
100
AcDbPoint
 10
1011.631644792499
 20
1418.106438881084
 30
0.0
  0
POINT
  5
17C3
330
377
100
AcDbEntity
  8
Defpoints
 62
     0
100
AcDbPoint
 10
1261.631644792499
 20
1436.363527071863
 30
0.0
  0
POINT
  5
17C4
330
377
100
AcDbEntity
  8
Defpoints
 62
     0
100
AcDbPoint
 10
1261.631644792499
 20
1258.826449129649
 30
0.0
  0
ENDBLK
  5
382
330
377
100
AcDbEntity
  8
0
100
AcDbBlockEnd
  0
BLOCK
  5
38F
330
385
100
AcDbEntity
  8
0
100
AcDbBlockBegin
  2
*D9
 70
     1
 10
0.0
 20
0.0
 30
0.0
  3
*D9
  1

  0
LINE
  5
17E1
330
385
100
AcDbEntity
  8
0
 62
     0
370
    15
100
AcDbLine
 10
885.0713610368138
 20
1456.363527071863
 30
0.0
 11
851.2241425180606
 21
1456.363527071863
 31
0.0
  0
LINE
  5
17E2
330
385
100
AcDbEntity
  8
0
 62
     0
370
    15
100
AcDbLine
 10
1136.631644792499
 20
1626.363527071863
 30
0.0
 11
851.2241425180606
 21
1626.363527071863
 31
0.0
  0
LINE
  5
17E3
330
385
100
AcDbEntity
  8
0
 62
     0
370
    15
100
AcDbLine
 10
851.2241425180606
 20
1456.363527071863
 30
0.0
 11
851.2241425180606
 21
1626.363527071863
 31
0.0
  0
INSERT
  5
17E4
330
385
100
AcDbEntity
  8
0
 62
     0
370
    15
100
AcDbBlockReference
  2
_DotSmall
 10
851.2241425180606
 20
1456.363527071863
 30
0.0
 41
30.0
 42
30.0
 43
30.0
 50
270.0
  0
INSERT
  5
17E5
330
385
100
AcDbEntity
  8
0
 62
     0
370
    15
100
AcDbBlockReference
  2
_DotSmall
 10
851.2241425180606
 20
1626.363527071863
 30
0.0
 41
30.0
 42
30.0
 43
30.0
 50
90.0
  0
MTEXT
  5
17E6
330
385
100
AcDbEntity
  8
0
 62
     0
100
AcDbMText
 10
832.4741425180604
 20
1509.91392132299
 30
0.0
 40
25.0
 41
0.0
 71
     5
 72
     1
  1
170
 11
0.0000000000000001
 21
1.0
 31
0.0
 73
     1
 44
1.0
1001
ACAD
1000
MTEXTBEGIN
1070
    73
1070
     1
1070
    44
1040
1.0
1070
    74
1070
     0
1000
MTEXTEND
  0
POINT
  5
17E7
330
385
100
AcDbEntity
  8
Defpoints
 62
     0
100
AcDbPoint
 10
950.0713610368139
 20
1456.363527071863
 30
0.0
  0
POINT
  5
17E8
330
385
100
AcDbEntity
  8
Defpoints
 62
     0
100
AcDbPoint
 10
1201.631644792499
 20
1626.363527071863
 30
0.0
  0
POINT
  5
17E9
330
385
100
AcDbEntity
  8
Defpoints
 62
     0
100
AcDbPoint
 10
851.2241425180606
 20
1626.363527071863
 30
0.0
  0
ENDBLK
  5
390
330
385
100
AcDbEntity
  8
0
100
AcDbBlockEnd
  0
BLOCK
  5
3BD
330
3B3
100
AcDbEntity
  8
0
100
AcDbBlockBegin
  2
*D10
 70
     1
 10
0.0
 20
0.0
 30
0.0
  3
*D10
  1

  0
LINE
  5
17D8
330
3B3
100
AcDbEntity
  8
0
 62
     0
370
    15
100
AcDbLine
 10
1076.631644792499
 20
1708.363527071863
 30
0.0
 11
1076.631644792499
 21
1738.481483519025
 31
0.0
  0
LINE
  5
17D9
330
3B3
100
AcDbEntity
  8
0
 62
     0
370
    15
100
AcDbLine
 10
946.6316447924992
 20
1708.363527071863
 30
0.0
 11
946.6316447924992
 21
1738.481483519025
 31
0.0
  0
LINE
  5
17DA
330
3B3
100
AcDbEntity
  8
0
 62
     0
370
    15
100
AcDbLine
 10
1076.631644792499
 20
1738.481483519025
 30
0.0
 11
946.6316447924992
 21
1738.481483519025
 31
0.0
  0
INSERT
  5
17DB
330
3B3
100
AcDbEntity
  8
0
 62
     0
370
    15
100
AcDbBlockReference
  2
_DotSmall
 10
1076.631644792499
 20
1738.481483519025
 30
0.0
 41
30.0
 42
30.0
 43
30.0
  0
INSERT
  5
17DC
330
3B3
100
AcDbEntity
  8
0
 62
     0
370
    15
100
AcDbBlockReference
  2
_DotSmall
 10
946.6316447924992
 20
1738.481483519025
 30
0.0
 41
30.0
 42
30.0
 43
30.0
 50
180.0
  0
MTEXT
  5
17DD
330
3B3
100
AcDbEntity
  8
0
 62
     0
100
AcDbMText
 10
1011.631644792499
 20
1757.231483519025
 30
0.0
 40
25.0
 41
0.0
 71
     5
 72
     1
  1
130
 73
     1
 44
1.0
1001
ACAD
1000
MTEXTBEGIN
1070
    73
1070
     1
1070
    44
1040
1.0
1070
    74
1070
     0
1000
MTEXTEND
  0
POINT
  5
17DE
330
3B3
100
AcDbEntity
  8
Defpoints
 62
     0
100
AcDbPoint
 10
1076.631644792499
 20
1643.363527071863
 30
0.0
  0
POINT
  5
17DF
330
3B3
100
AcDbEntity
  8
Defpoints
 62
     0
100
AcDbPoint
 10
946.6316447924992
 20
1643.363527071863
 30
0.0
  0
POINT
  5
17E0
330
3B3
100
AcDbEntity
  8
Defpoints
 62
     0
100
AcDbPoint
 10
946.6316447924992
 20
1738.481483519025
 30
0.0
  0
ENDBLK
  5
3BE
330
3B3
100
AcDbEntity
  8
0
100
AcDbBlockEnd
  0
BLOCK
  5
3CA
330
3C0
100
AcDbEntity
  8
0
100
AcDbBlockBegin
  2
*D11
 70
     1
 10
0.0
 20
0.0
 30
0.0
  3
*D11
  1

  0
LINE
  5
17CF
330
3C0
100
AcDbEntity
  8
0
 62
     0
370
    15
100
AcDbLine
 10
1141.631644792499
 20
1773.363527071863
 30
0.0
 11
1141.631644792499
 21
1792.981374834383
 31
0.0
  0
LINE
  5
17D0
330
3C0
100
AcDbEntity
  8
0
 62
     0
370
    15
100
AcDbLine
 10
881.6316447924991
 20
1773.363527071863
 30
0.0
 11
881.6316447924991
 21
1792.981374834383
 31
0.0
  0
LINE
  5
17D1
330
3C0
100
AcDbEntity
  8
0
 62
     0
370
    15
100
AcDbLine
 10
1141.631644792499
 20
1792.981374834383
 30
0.0
 11
881.6316447924991
 21
1792.981374834383
 31
0.0
  0
INSERT
  5
17D2
330
3C0
100
AcDbEntity
  8
0
 62
     0
370
    15
100
AcDbBlockReference
  2
_DotSmall
 10
1141.631644792499
 20
1792.981374834383
 30
0.0
 41
30.0
 42
30.0
 43
30.0
  0
INSERT
  5
17D3
330
3C0
100
AcDbEntity
  8
0
 62
     0
370
    15
100
AcDbBlockReference
  2
_DotSmall
 10
881.6316447924991
 20
1792.981374834383
 30
0.0
 41
30.0
 42
30.0
 43
30.0
 50
180.0
  0
MTEXT
  5
17D4
330
3C0
100
AcDbEntity
  8
0
 62
     0
100
AcDbMText
 10
1011.631644792499
 20
1811.731374834383
 30
0.0
 40
25.0
 41
0.0
 71
     5
 72
     1
  1
260
 73
     1
 44
1.0
1001
ACAD
1000
MTEXTBEGIN
1070
    73
1070
     1
1070
    44
1040
1.0
1070
    74
1070
     0
1000
MTEXTEND
  0
POINT
  5
17D5
330
3C0
100
AcDbEntity
  8
Defpoints
 62
     0
100
AcDbPoint
 10
1141.631644792499
 20
1708.363527071863
 30
0.0
  0
POINT
  5
17D6
330
3C0
100
AcDbEntity
  8
Defpoints
 62
     0
100
AcDbPoint
 10
881.6316447924991
 20
1708.363527071863
 30
0.0
  0
POINT
  5
17D7
330
3C0
100
AcDbEntity
  8
Defpoints
 62
     0
100
AcDbPoint
 10
881.6316447924991
 20
1792.981374834383
 30
0.0
  0
ENDBLK
  5
3CB
330
3C0
100
AcDbEntity
  8
0
100
AcDbBlockEnd
  0
BLOCK
  5
47E
330
474
100
AcDbEntity
  8
0
100
AcDbBlockBegin
  2
*D12
 70
     1
 10
0.0
 20
0.0
 30
0.0
  3
*D12
  1

  0
LINE
  5
1867
330
474
100
AcDbEntity
  8
0
 62
     0
370
    15
100
AcDbLine
 10
932.1316447924992
 20
436.7963319408145
 30
0.0
 11
932.1316447924992
 21
380.4018572427994
 31
0.0
  0
LINE
  5
1868
330
474
100
AcDbEntity
  8
0
 62
     0
370
    15
100
AcDbLine
 10
1091.131644792499
 20
436.7963319408147
 30
0.0
 11
1091.131644792499
 21
380.4018572427994
 31
0.0
  0
LINE
  5
1869
330
474
100
AcDbEntity
  8
0
 62
     0
370
    15
100
AcDbLine
 10
932.1316447924992
 20
380.4018572427994
 30
0.0
 11
1091.131644792499
 21
380.4018572427994
 31
0.0
  0
INSERT
  5
186A
330
474
100
AcDbEntity
  8
0
 62
     0
370
    15
100
AcDbBlockReference
  2
_DotSmall
 10
932.1316447924992
 20
380.4018572427994
 30
0.0
 41
30.0
 42
30.0
 43
30.0
 50
180.0
  0
INSERT
  5
186B
330
474
100
AcDbEntity
  8
0
 62
     0
370
    15
100
AcDbBlockReference
  2
_DotSmall
 10
1091.131644792499
 20
380.4018572427994
 30
0.0
 41
30.0
 42
30.0
 43
30.0
  0
MTEXT
  5
186C
330
474
100
AcDbEntity
  8
0
 62
     0
100
AcDbMText
 10
1011.631644792499
 20
399.1518572427994
 30
0.0
 40
25.0
 41
0.0
 71
     5
 72
     1
  1
158
 73
     1
 44
1.0
1001
ACAD
1000
MTEXTBEGIN
1070
    73
1070
     1
1070
    44
1040
1.0
1070
    74
1070
     0
1000
MTEXTEND
  0
POINT
  5
186D
330
474
100
AcDbEntity
  8
Defpoints
 62
     0
100
AcDbPoint
 10
932.1316447924992
 20
501.7963319408145
 30
0.0
  0
POINT
  5
186E
330
474
100
AcDbEntity
  8
Defpoints
 62
     0
100
AcDbPoint
 10
1091.131644792499
 20
501.7963319408147
 30
0.0
  0
POINT
  5
186F
330
474
100
AcDbEntity
  8
Defpoints
 62
     0
100
AcDbPoint
 10
1091.131644792499
 20
380.4018572427994
 30
0.0
  0
ENDBLK
  5
47F
330
474
100
AcDbEntity
  8
0
100
AcDbBlockEnd
  0
BLOCK
  5
48B
330
481
100
AcDbEntity
  8
0
100
AcDbBlockBegin
  2
*D13
 70
     1
 10
0.0
 20
0.0
 30
0.0
  3
*D13
  1

  0
LINE
  5
17AA
330
481
100
AcDbEntity
  8
0
 62
     0
370
    15
100
AcDbLine
 10
921.1316447924991
 20
573.7963319408144
 30
0.0
 11
921.1316447924991
 21
610.9493564787863
 31
0.0
  0
LINE
  5
17AB
330
481
100
AcDbEntity
  8
0
 62
     0
370
    15
100
AcDbLine
 10
1102.131644792499
 20
573.7963319408146
 30
0.0
 11
1102.131644792499
 21
610.9493564787863
 31
0.0
  0
LINE
  5
17AC
330
481
100
AcDbEntity
  8
0
 62
     0
370
    15
100
AcDbLine
 10
921.1316447924991
 20
610.9493564787863
 30
0.0
 11
1102.131644792499
 21
610.9493564787863
 31
0.0
  0
INSERT
  5
17AD
330
481
100
AcDbEntity
  8
0
 62
     0
370
    15
100
AcDbBlockReference
  2
_DotSmall
 10
921.1316447924991
 20
610.9493564787863
 30
0.0
 41
30.0
 42
30.0
 43
30.0
 50
180.0
  0
INSERT
  5
17AE
330
481
100
AcDbEntity
  8
0
 62
     0
370
    15
100
AcDbBlockReference
  2
_DotSmall
 10
1102.131644792499
 20
610.9493564787863
 30
0.0
 41
30.0
 42
30.0
 43
30.0
  0
MTEXT
  5
17AF
330
481
100
AcDbEntity
  8
0
 62
     0
100
AcDbMText
 10
1011.631644792499
 20
629.6993564787863
 30
0.0
 40
25.0
 41
0.0
 71
     5
 72
     1
  1
181
 73
     1
 44
1.0
1001
ACAD
1000
MTEXTBEGIN
1070
    73
1070
     1
1070
    44
1040
1.0
1070
    74
1070
     0
1000
MTEXTEND
  0
POINT
  5
17B0
330
481
100
AcDbEntity
  8
Defpoints
 62
     0
100
AcDbPoint
 10
921.1316447924991
 20
508.7963319408145
 30
0.0
  0
POINT
  5
17B1
330
481
100
AcDbEntity
  8
Defpoints
 62
     0
100
AcDbPoint
 10
1102.131644792499
 20
508.7963319408146
 30
0.0
  0
POINT
  5
17B2
330
481
100
AcDbEntity
  8
Defpoints
 62
     0
100
AcDbPoint
 10
1102.131644792499
 20
610.9493564787863
 30
0.0
  0
ENDBLK
  5
48C
330
481
100
AcDbEntity
  8
0
100
AcDbBlockEnd
  0
BLOCK
  5
4CC
330
4C2
100
AcDbEntity
  8
0
100
AcDbBlockBegin
  2
*D14
 70
     1
 10
0.0
 20
0.0
 30
0.0
  3
*D14
  1

  0
LINE
  5
1817
330
4C2
100
AcDbEntity
  8
0
 62
     0
370
    15
100
AcDbLine
 10
1875.924601042319
 20
834.5660316749063
 30
0.0
 11
1875.924601042319
 21
875.7429731970843
 31
0.0
  0
LINE
  5
1818
330
4C2
100
AcDbEntity
  8
0
 62
     0
370
    15
100
AcDbLine
 10
1705.924601042319
 20
834.5660316749063
 30
0.0
 11
1705.924601042319
 21
875.7429731970843
 31
0.0
  0
LINE
  5
1819
330
4C2
100
AcDbEntity
  8
0
 62
     0
370
    15
100
AcDbLine
 10
1875.924601042319
 20
875.7429731970843
 30
0.0
 11
1705.924601042319
 21
875.7429731970843
 31
0.0
  0
INSERT
  5
181A
330
4C2
100
AcDbEntity
  8
0
 62
     0
370
    15
100
AcDbBlockReference
  2
_DotSmall
 10
1875.924601042319
 20
875.7429731970843
 30
0.0
 41
30.0
 42
30.0
 43
30.0
  0
INSERT
  5
181B
330
4C2
100
AcDbEntity
  8
0
 62
     0
370
    15
100
AcDbBlockReference
  2
_DotSmall
 10
1705.924601042319
 20
875.7429731970843
 30
0.0
 41
30.0
 42
30.0
 43
30.0
 50
180.0
  0
MTEXT
  5
181C
330
4C2
100
AcDbEntity
  8
0
 62
     0
100
AcDbMText
 10
1790.924601042319
 20
894.4929731970843
 30
0.0
 40
25.0
 41
0.0
 71
     5
 72
     1
  1
17
 73
     1
 44
1.0
1001
ACAD
1000
MTEXTBEGIN
1070
    73
1070
     1
1070
    44
1040
1.0
1070
    74
1070
     0
1000
MTEXTEND
  0
POINT
  5
181D
330
4C2
100
AcDbEntity
  8
Defpoints
 62
     0
100
AcDbPoint
 10
1875.924601042319
 20
769.5660316749063
 30
0.0
  0
POINT
  5
181E
330
4C2
100
AcDbEntity
  8
Defpoints
 62
     0
100
AcDbPoint
 10
1705.924601042319
 20
769.5660316749063
 30
0.0
  0
POINT
  5
181F
330
4C2
100
AcDbEntity
  8
Defpoints
 62
     0
100
AcDbPoint
 10
1705.924601042319
 20
875.7429731970843
 30
0.0
  0
ENDBLK
  5
4CD
330
4C2
100
AcDbEntity
  8
0
100
AcDbBlockEnd
  0
BLOCK
  5
593
330
587
100
AcDbEntity
  8
0
100
AcDbBlockBegin
  2
*D15
 70
     1
 10
0.0
 20
0.0
 30
0.0
  3
*D15
  1

  0
LINE
  5
17EA
330
587
100
AcDbEntity
  8
0
 62
     0
370
    15
100
AcDbLine
 10
1158.376708768597
 20
1611.363527071863
 30
0.0
 11
1169.40420536414
 21
1611.363527071863
 31
0.0
  0
LINE
  5
17EB
330
587
100
AcDbEntity
  8
0
 62
     0
370
    15
100
AcDbLine
 10
1141.631644792499
 20
1626.363527071863
 30
0.0
 11
1169.40420536414
 21
1626.363527071863
 31
0.0
  0
LINE
  5
17EC
330
587
100
AcDbEntity
  8
0
 62
     0
370
    15
100
AcDbLine
 10
1169.40420536414
 20
1611.363527071863
 30
0.0
 11
1169.40420536414
 21
1626.363527071863
 31
0.0
  0
MTEXT
  5
17ED
330
587
100
AcDbEntity
  8
0
 62
     0
100
AcDbMText
 10
1171.647291788848
 20
1666.821385555935
 30
0.0
 40
25.0
 41
0.0
 71
     5
 72
     1
  1
15
 11
0.0000000000000001
 21
1.0
 31
0.0
 73
     1
 44
1.0
1001
ACAD
1000
MTEXTBEGIN
1070
    73
1070
     1
1070
    44
1040
1.0
1070
    74
1070
     0
1000
MTEXTEND
  0
INSERT
  5
17EE
330
587
100
AcDbEntity
  8
0
 62
     0
370
    15
100
AcDbBlockReference
  2
_DotSmall
 10
1169.40420536414
 20
1611.363527071863
 30
0.0
 41
30.0
 42
30.0
 43
30.0
 50
270.0
  0
INSERT
  5
17EF
330
587
100
AcDbEntity
  8
0
 62
     0
370
    15
100
AcDbBlockReference
  2
_DotSmall
 10
1169.40420536414
 20
1626.363527071863
 30
0.0
 41
30.0
 42
30.0
 43
30.0
 50
90.0
  0
POINT
  5
17F0
330
587
100
AcDbEntity
  8
Defpoints
 62
     0
100
AcDbPoint
 10
1093.376708768597
 20
1611.363527071863
 30
0.0
  0
POINT
  5
17F1
330
587
100
AcDbEntity
  8
Defpoints
 62
     0
100
AcDbPoint
 10
1076.631644792499
 20
1626.363527071863
 30
0.0
  0
POINT
  5
17F2
330
587
100
AcDbEntity
  8
Defpoints
 62
     0
100
AcDbPoint
 10
1169.40420536414
 20
1626.363527071863
 30
0.0
  0
ENDBLK
  5
594
330
587
100
AcDbEntity
  8
0
100
AcDbBlockEnd
  0
BLOCK
  5
E8C
330
E82
100
AcDbEntity
  8
0
100
AcDbBlockBegin
  2
*D16
 70
     1
 10
0.0
 20
0.0
 30
0.0
  3
*D16
  1

  0
LINE
  5
17A1
330
E82
100
AcDbEntity
  8
実形
 62
     0
370
    15
100
AcDbLine
 10
921.1316447924991
 20
573.7963319408144
 30
0.0
 11
921.1316447924991
 21
610.9493564787863
 31
0.0
  0
LINE
  5
17A2
330
E82
100
AcDbEntity
  8
実形
 62
     0
370
    15
100
AcDbLine
 10
901.1316447924992
 20
573.7963319408147
 30
0.0
 11
901.1316447924992
 21
610.9493564787863
 31
0.0
  0
LINE
  5
17A3
330
E82
100
AcDbEntity
  8
実形
 62
     0
370
    15
100
AcDbLine
 10
921.1316447924991
 20
610.9493564787863
 30
0.0
 11
901.1316447924992
 21
610.9493564787863
 31
0.0
  0
MTEXT
  5
17A4
330
E82
100
AcDbEntity
  8
実形
 62
     0
100
AcDbMText
 10
911.5812704130085
 20
634.2090454489667
 30
0.0
 40
25.0
 41
0.0
 71
     5
 72
     1
  1
20
 73
     1
 44
1.0
1001
ACAD
1000
MTEXTBEGIN
1070
    73
1070
     1
1070
    44
1040
1.0
1070
    74
1070
     0
1000
MTEXTEND
  0
INSERT
  5
17A5
330
E82
100
AcDbEntity
  8
実形
 62
     0
370
    15
100
AcDbBlockReference
  2
_DotSmall
 10
921.1316447924991
 20
610.9493564787863
 30
0.0
 41
30.0
 42
30.0
 43
30.0
  0
INSERT
  5
17A6
330
E82
100
AcDbEntity
  8
実形
 62
     0
370
    15
100
AcDbBlockReference
  2
_DotSmall
 10
901.1316447924992
 20
610.9493564787863
 30
0.0
 41
30.0
 42
30.0
 43
30.0
 50
180.0
  0
POINT
  5
17A7
330
E82
100
AcDbEntity
  8
Defpoints
 62
     0
100
AcDbPoint
 10
921.1316447924991
 20
508.7963319408145
 30
0.0
  0
POINT
  5
17A8
330
E82
100
AcDbEntity
  8
Defpoints
 62
     0
100
AcDbPoint
 10
901.1316447924992
 20
508.7963319408147
 30
0.0
  0
POINT
  5
17A9
330
E82
100
AcDbEntity
  8
Defpoints
 62
     0
100
AcDbPoint
 10
901.1316447924992
 20
610.9493564787863
 30
0.0
  0
ENDBLK
  5
E8D
330
E82
100
AcDbEntity
  8
0
100
AcDbBlockEnd
  0
BLOCK
  5
E99
330
E8F
100
AcDbEntity
  8
0
100
AcDbBlockBegin
  2
*D17
 70
     1
 10
0.0
 20
0.0
 30
0.0
  3
*D17
  1

  0
LINE
  5
1798
330
E8F
100
AcDbEntity
  8
実形
 62
     0
370
    15
100
AcDbLine
 10
1102.131644792499
 20
573.7963319408146
 30
0.0
 11
1102.131644792499
 21
610.9493564787863
 31
0.0
  0
LINE
  5
1799
330
E8F
100
AcDbEntity
  8
実形
 62
     0
370
    15
100
AcDbLine
 10
1122.131644792499
 20
573.7963319408147
 30
0.0
 11
1122.131644792499
 21
610.9493564787863
 31
0.0
  0
LINE
  5
179A
330
E8F
100
AcDbEntity
  8
実形
 62
     0
370
    15
100
AcDbLine
 10
1102.131644792499
 20
610.9493564787863
 30
0.0
 11
1122.131644792499
 21
610.9493564787863
 31
0.0
  0
MTEXT
  5
179B
330
E8F
100
AcDbEntity
  8
実形
 62
     0
100
AcDbMText
 10
1112.971364447667
 20
634.8603651936387
 30
0.0
 40
25.0
 41
0.0
 71
     5
 72
     1
  1
20
 73
     1
 44
1.0
1001
ACAD
1000
MTEXTBEGIN
1070
    73
1070
     1
1070
    44
1040
1.0
1070
    74
1070
     0
1000
MTEXTEND
  0
INSERT
  5
179C
330
E8F
100
AcDbEntity
  8
実形
 62
     0
370
    15
100
AcDbBlockReference
  2
_DotSmall
 10
1102.131644792499
 20
610.9493564787863
 30
0.0
 41
30.0
 42
30.0
 43
30.0
 50
180.0
  0
INSERT
  5
179D
330
E8F
100
AcDbEntity
  8
実形
 62
     0
370
    15
100
AcDbBlockReference
  2
_DotSmall
 10
1122.131644792499
 20
610.9493564787863
 30
0.0
 41
30.0
 42
30.0
 43
30.0
  0
POINT
  5
179E
330
E8F
100
AcDbEntity
  8
Defpoints
 62
     0
100
AcDbPoint
 10
1102.131644792499
 20
508.7963319408146
 30
0.0
  0
POINT
  5
179F
330
E8F
100
AcDbEntity
  8
Defpoints
 62
     0
100
AcDbPoint
 10
1122.131644792499
 20
508.7963319408147
 30
0.0
  0
POINT
  5
17A0
330
E8F
100
AcDbEntity
  8
Defpoints
 62
     0
100
AcDbPoint
 10
1122.131644792499
 20
610.9493564787863
 30
0.0
  0
ENDBLK
  5
E9A
330
E8F
100
AcDbEntity
  8
0
100
AcDbBlockEnd
  0
BLOCK
  5
13F4
330
13EA
100
AcDbEntity
  8
0
100
AcDbBlockBegin
  2
*D18
 70
     1
 10
0.0
 20
0.0
 30
0.0
  3
*D18
  1

  0
LINE
  5
1758
330
13EA
100
AcDbEntity
  8
0
 62
     0
370
    15
100
AcDbLine
 10
529.6316447924994
 20
1089.363527071863
 30
0.0
 11
265.3120704031564
 21
1089.363527071863
 31
0.0
  0
LINE
  5
1759
330
13EA
100
AcDbEntity
  8
0
 62
     0
370
    15
100
AcDbLine
 10
529.6316447924994
 20
1643.363527071863
 30
0.0
 11
265.3120704031565
 21
1643.363527071863
 31
0.0
  0
LINE
  5
175A
330
13EA
100
AcDbEntity
  8
0
 62
     0
370
    15
100
AcDbLine
 10
265.3120704031564
 20
1089.363527071863
 30
0.0
 11
265.3120704031565
 21
1643.363527071863
 31
0.0
  0
INSERT
  5
175B
330
13EA
100
AcDbEntity
  8
0
 62
     0
370
    15
100
AcDbBlockReference
  2
_DotSmall
 10
265.3120704031564
 20
1089.363527071863
 30
0.0
 41
30.0
 42
30.0
 43
30.0
 50
270.0
  0
INSERT
  5
175C
330
13EA
100
AcDbEntity
  8
0
 62
     0
370
    15
100
AcDbBlockReference
  2
_DotSmall
 10
265.3120704031565
 20
1643.363527071863
 30
0.0
 41
30.0
 42
30.0
 43
30.0
 50
90.0
  0
MTEXT
  5
175D
330
13EA
100
AcDbEntity
  8
0
 62
     0
100
AcDbMText
 10
246.5620704031563
 20
1366.363527071863
 30
0.0
 40
25.0
 41
0.0
 71
     5
 72
     1
  1
554
 11
0.0000000000000001
 21
1.0
 31
0.0
 73
     1
 44
1.0
1001
ACAD
1000
MTEXTBEGIN
1070
    73
1070
     1
1070
    44
1040
1.0
1070
    74
1070
     0
1000
MTEXTEND
  0
POINT
  5
175E
330
13EA
100
AcDbEntity
  8
Defpoints
 62
     0
100
AcDbPoint
 10
594.6316447924994
 20
1089.363527071863
 30
0.0
  0
POINT
  5
175F
330
13EA
100
AcDbEntity
  8
Defpoints
 62
     0
100
AcDbPoint
 10
594.6316447924994
 20
1643.363527071863
 30
0.0
  0
POINT
  5
1760
330
13EA
100
AcDbEntity
  8
Defpoints
 62
     0
100
AcDbPoint
 10
265.3120704031565
 20
1643.363527071863
 30
0.0
  0
ENDBLK
  5
13F5
330
13EA
100
AcDbEntity
  8
0
100
AcDbBlockEnd
  0
BLOCK
  5
1400
330
13F6
100
AcDbEntity
  8
0
100
AcDbBlockBegin
  2
*D19
 70
     1
 10
0.0
 20
0.0
 30
0.0
  3
*D19
  1

  0
LINE
  5
178F
330
13F6
100
AcDbEntity
  8
0
 62
     0
370
    15
100
AcDbLine
 10
529.6316447924994
 20
1626.363527071863
 30
0.0
 11
334.7820704031565
 21
1626.363527071863
 31
0.0
  0
LINE
  5
1790
330
13F6
100
AcDbEntity
  8
0
 62
     0
370
    15
100
AcDbLine
 10
529.6316447924994
 20
1643.363527071863
 30
0.0
 11
334.7820704031565
 21
1643.363527071863
 31
0.0
  0
LINE
  5
1791
330
13F6
100
AcDbEntity
  8
0
 62
     0
370
    15
100
AcDbLine
 10
334.7820704031565
 20
1626.363527071863
 30
0.0
 11
334.7820704031565
 21
1643.363527071863
 31
0.0
  0
MTEXT
  5
1792
330
13F6
100
AcDbEntity
  8
0
 62
     0
100
AcDbMText
 10
304.5520102014336
 20
1617.020549119268
 30
0.0
 40
25.0
 41
0.0
 71
     5
 72
     1
  1
17
 11
0.0000000000000001
 21
1.0
 31
0.0
 73
     1
 44
1.0
1001
ACAD
1000
MTEXTBEGIN
1070
    73
1070
     1
1070
    44
1040
1.0
1070
    74
1070
     0
1000
MTEXTEND
  0
INSERT
  5
1793
330
13F6
100
AcDbEntity
  8
0
 62
     0
370
    15
100
AcDbBlockReference
  2
_DotSmall
 10
334.7820704031565
 20
1626.363527071863
 30
0.0
 41
30.0
 42
30.0
 43
30.0
 50
270.0
  0
INSERT
  5
1794
330
13F6
100
AcDbEntity
  8
0
 62
     0
370
    15
100
AcDbBlockReference
  2
_DotSmall
 10
334.7820704031565
 20
1643.363527071863
 30
0.0
 41
30.0
 42
30.0
 43
30.0
 50
90.0
  0
POINT
  5
1795
330
13F6
100
AcDbEntity
  8
Defpoints
 62
     0
100
AcDbPoint
 10
594.6316447924995
 20
1626.363527071863
 30
0.0
  0
POINT
  5
1796
330
13F6
100
AcDbEntity
  8
Defpoints
 62
     0
100
AcDbPoint
 10
594.6316447924994
 20
1643.363527071863
 30
0.0
  0
POINT
  5
1797
330
13F6
100
AcDbEntity
  8
Defpoints
 62
     0
100
AcDbPoint
 10
334.7820704031565
 20
1643.363527071863
 30
0.0
  0
ENDBLK
  5
1401
330
13F6
100
AcDbEntity
  8
0
100
AcDbBlockEnd
  0
BLOCK
  5
140C
330
1402
100
AcDbEntity
  8
0
100
AcDbBlockBegin
  2
*D20
 70
     1
 10
0.0
 20
0.0
 30
0.0
  3
*D20
  1

  0
LINE
  5
174F
330
1402
100
AcDbEntity
  8
0
 62
     0
370
    15
100
AcDbLine
 10
529.6316447924994
 20
1106.363527071863
 30
0.0
 11
334.7820704031564
 21
1106.363527071863
 31
0.0
  0
LINE
  5
1750
330
1402
100
AcDbEntity
  8
0
 62
     0
370
    15
100
AcDbLine
 10
529.6316447924994
 20
1626.363527071863
 30
0.0
 11
334.7820704031565
 21
1626.363527071863
 31
0.0
  0
LINE
  5
1751
330
1402
100
AcDbEntity
  8
0
 62
     0
370
    15
100
AcDbLine
 10
334.7820704031564
 20
1106.363527071863
 30
0.0
 11
334.7820704031565
 21
1626.363527071863
 31
0.0
  0
INSERT
  5
1752
330
1402
100
AcDbEntity
  8
0
 62
     0
370
    15
100
AcDbBlockReference
  2
_DotSmall
 10
334.7820704031564
 20
1106.363527071863
 30
0.0
 41
30.0
 42
30.0
 43
30.0
 50
270.0
  0
INSERT
  5
1753
330
1402
100
AcDbEntity
  8
0
 62
     0
370
    15
100
AcDbBlockReference
  2
_DotSmall
 10
334.7820704031565
 20
1626.363527071863
 30
0.0
 41
30.0
 42
30.0
 43
30.0
 50
90.0
  0
MTEXT
  5
1754
330
1402
100
AcDbEntity
  8
0
 62
     0
100
AcDbMText
 10
316.0320704031562
 20
1366.363527071863
 30
0.0
 40
25.0
 41
0.0
 71
     5
 72
     1
  1
520
 11
0.0000000000000001
 21
1.0
 31
0.0
 73
     1
 44
1.0
1001
ACAD
1000
MTEXTBEGIN
1070
    73
1070
     1
1070
    44
1040
1.0
1070
    74
1070
     0
1000
MTEXTEND
  0
POINT
  5
1755
330
1402
100
AcDbEntity
  8
Defpoints
 62
     0
100
AcDbPoint
 10
594.6316447924994
 20
1106.363527071863
 30
0.0
  0
POINT
  5
1756
330
1402
100
AcDbEntity
  8
Defpoints
 62
     0
100
AcDbPoint
 10
594.6316447924995
 20
1626.363527071863
 30
0.0
  0
POINT
  5
1757
330
1402
100
AcDbEntity
  8
Defpoints
 62
     0
100
AcDbPoint
 10
334.7820704031565
 20
1626.363527071863
 30
0.0
  0
ENDBLK
  5
140D
330
1402
100
AcDbEntity
  8
0
100
AcDbBlockEnd
  0
BLOCK
  5
1418
330
140E
100
AcDbEntity
  8
0
100
AcDbBlockBegin
  2
*D21
 70
     1
 10
0.0
 20
0.0
 30
0.0
  3
*D21
  1

  0
LINE
  5
177D
330
140E
100
AcDbEntity
  8
0
 62
     0
370
    15
100
AcDbLine
 10
529.6316447924994
 20
1089.363527071863
 30
0.0
 11
334.7820704031566
 21
1089.363527071863
 31
0.0
  0
LINE
  5
177E
330
140E
100
AcDbEntity
  8
0
 62
     0
370
    15
100
AcDbLine
 10
529.6316447924994
 20
1106.363527071863
 30
0.0
 11
334.7820704031566
 21
1106.363527071863
 31
0.0
  0
LINE
  5
177F
330
140E
100
AcDbEntity
  8
0
 62
     0
370
    15
100
AcDbLine
 10
334.7820704031566
 20
1089.363527071863
 30
0.0
 11
334.7820704031566
 21
1106.363527071863
 31
0.0
  0
MTEXT
  5
1780
330
140E
100
AcDbEntity
  8
0
 62
     0
100
AcDbMText
 10
308.1229891460482
 20
1114.92681415259
 30
0.0
 40
25.0
 41
0.0
 71
     5
 72
     1
  1
17
 11
0.0000000000000001
 21
1.0
 31
0.0
 73
     1
 44
1.0
1001
ACAD
1000
MTEXTBEGIN
1070
    73
1070
     1
1070
    44
1040
1.0
1070
    74
1070
     0
1000
MTEXTEND
  0
INSERT
  5
1781
330
140E
100
AcDbEntity
  8
0
 62
     0
370
    15
100
AcDbBlockReference
  2
_DotSmall
 10
334.7820704031566
 20
1089.363527071863
 30
0.0
 41
30.0
 42
30.0
 43
30.0
 50
270.0
  0
INSERT
  5
1782
330
140E
100
AcDbEntity
  8
0
 62
     0
370
    15
100
AcDbBlockReference
  2
_DotSmall
 10
334.7820704031566
 20
1106.363527071863
 30
0.0
 41
30.0
 42
30.0
 43
30.0
 50
90.0
  0
POINT
  5
1783
330
140E
100
AcDbEntity
  8
Defpoints
 62
     0
100
AcDbPoint
 10
594.6316447924994
 20
1089.363527071863
 30
0.0
  0
POINT
  5
1784
330
140E
100
AcDbEntity
  8
Defpoints
 62
     0
100
AcDbPoint
 10
594.6316447924994
 20
1106.363527071863
 30
0.0
  0
POINT
  5
1785
330
140E
100
AcDbEntity
  8
Defpoints
 62
     0
100
AcDbPoint
 10
334.7820704031566
 20
1106.363527071863
 30
0.0
  0
ENDBLK
  5
1419
330
140E
100
AcDbEntity
  8
0
100
AcDbBlockEnd
  0
BLOCK
  5
1424
330
141A
100
AcDbEntity
  8
0
100
AcDbBlockBegin
  2
*D22
 70
     1
 10
0.0
 20
0.0
 30
0.0
  3
*D22
  1

  0
LINE
  5
1746
330
141A
100
AcDbEntity
  8
0
 62
     0
370
    15
100
AcDbLine
 10
529.6316447924994
 20
1121.363527071863
 30
0.0
 11
404.2520704031564
 21
1121.363527071863
 31
0.0
  0
LINE
  5
1747
330
141A
100
AcDbEntity
  8
0
 62
     0
370
    15
100
AcDbLine
 10
529.6316447924994
 20
1551.363527071863
 30
0.0
 11
404.2520704031565
 21
1551.363527071863
 31
0.0
  0
LINE
  5
1748
330
141A
100
AcDbEntity
  8
0
 62
     0
370
    15
100
AcDbLine
 10
404.2520704031564
 20
1121.363527071863
 30
0.0
 11
404.2520704031565
 21
1551.363527071863
 31
0.0
  0
INSERT
  5
1749
330
141A
100
AcDbEntity
  8
0
 62
     0
370
    15
100
AcDbBlockReference
  2
_DotSmall
 10
404.2520704031564
 20
1121.363527071863
 30
0.0
 41
30.0
 42
30.0
 43
30.0
 50
270.0
  0
INSERT
  5
174A
330
141A
100
AcDbEntity
  8
0
 62
     0
370
    15
100
AcDbBlockReference
  2
_DotSmall
 10
404.2520704031565
 20
1551.363527071863
 30
0.0
 41
30.0
 42
30.0
 43
30.0
 50
90.0
  0
MTEXT
  5
174B
330
141A
100
AcDbEntity
  8
0
 62
     0
100
AcDbMText
 10
385.5020704031562
 20
1336.363527071863
 30
0.0
 40
25.0
 41
0.0
 71
     5
 72
     1
  1
430
 11
0.0000000000000001
 21
1.0
 31
0.0
 73
     1
 44
1.0
1001
ACAD
1000
MTEXTBEGIN
1070
    73
1070
     1
1070
    44
1040
1.0
1070
    74
1070
     0
1000
MTEXTEND
  0
POINT
  5
174C
330
141A
100
AcDbEntity
  8
Defpoints
 62
     0
100
AcDbPoint
 10
594.6316447924994
 20
1121.363527071863
 30
0.0
  0
POINT
  5
174D
330
141A
100
AcDbEntity
  8
Defpoints
 62
     0
100
AcDbPoint
 10
594.6316447924995
 20
1551.363527071863
 30
0.0
  0
POINT
  5
174E
330
141A
100
AcDbEntity
  8
Defpoints
 62
     0
100
AcDbPoint
 10
404.2520704031565
 20
1551.363527071863
 30
0.0
  0
ENDBLK
  5
1425
330
141A
100
AcDbEntity
  8
0
100
AcDbBlockEnd
  0
BLOCK
  5
1430
330
1426
100
AcDbEntity
  8
0
100
AcDbBlockBegin
  2
*D23
 70
     1
 10
0.0
 20
0.0
 30
0.0
  3
*D23
  1

  0
LINE
  5
1786
330
1426
100
AcDbEntity
  8
0
 62
     0
370
    15
100
AcDbLine
 10
529.6316447924994
 20
1551.363527071863
 30
0.0
 11
404.2520704031565
 21
1551.363527071863
 31
0.0
  0
LINE
  5
1787
330
1426
100
AcDbEntity
  8
0
 62
     0
370
    15
100
AcDbLine
 10
529.6316447924994
 20
1626.363527071863
 30
0.0
 11
404.2520704031565
 21
1626.363527071863
 31
0.0
  0
LINE
  5
1788
330
1426
100
AcDbEntity
  8
0
 62
     0
370
    15
100
AcDbLine
 10
404.2520704031565
 20
1551.363527071863
 30
0.0
 11
404.2520704031565
 21
1626.363527071863
 31
0.0
  0
INSERT
  5
1789
330
1426
100
AcDbEntity
  8
0
 62
     0
370
    15
100
AcDbBlockReference
  2
_DotSmall
 10
404.2520704031565
 20
1551.363527071863
 30
0.0
 41
30.0
 42
30.0
 43
30.0
 50
270.0
  0
INSERT
  5
178A
330
1426
100
AcDbEntity
  8
0
 62
     0
370
    15
100
AcDbBlockReference
  2
_DotSmall
 10
404.2520704031565
 20
1626.363527071863
 30
0.0
 41
30.0
 42
30.0
 43
30.0
 50
90.0
  0
MTEXT
  5
178B
330
1426
100
AcDbEntity
  8
0
 62
     0
100
AcDbMText
 10
385.5020704031563
 20
1588.863527071863
 30
0.0
 40
25.0
 41
0.0
 71
     5
 72
     1
  1
75
 11
0.0000000000000001
 21
1.0
 31
0.0
 73
     1
 44
1.0
1001
ACAD
1000
MTEXTBEGIN
1070
    73
1070
     1
1070
    44
1040
1.0
1070
    74
1070
     0
1000
MTEXTEND
  0
POINT
  5
178C
330
1426
100
AcDbEntity
  8
Defpoints
 62
     0
100
AcDbPoint
 10
594.6316447924995
 20
1551.363527071863
 30
0.0
  0
POINT
  5
178D
330
1426
100
AcDbEntity
  8
Defpoints
 62
     0
100
AcDbPoint
 10
594.6316447924995
 20
1626.363527071863
 30
0.0
  0
POINT
  5
178E
330
1426
100
AcDbEntity
  8
Defpoints
 62
     0
100
AcDbPoint
 10
404.2520704031565
 20
1626.363527071863
 30
0.0
  0
ENDBLK
  5
1431
330
1426
100
AcDbEntity
  8
0
100
AcDbBlockEnd
  0
BLOCK
  5
143D
330
1432
100
AcDbEntity
  8
0
100
AcDbBlockBegin
  2
*D24
 70
     1
 10
0.0
 20
0.0
 30
0.0
  3
*D24
  1

  0
LINE
  5
1773
330
1432
100
AcDbEntity
  8
0
 62
     0
370
    15
100
AcDbLine
 10
529.6316447924994
 20
1106.363527071863
 30
0.0
 11
404.2520704031565
 21
1106.363527071863
 31
0.0
  0
LINE
  5
1774
330
1432
100
AcDbEntity
  8
0
 62
     0
370
    15
100
AcDbLine
 10
529.6316447924994
 20
1121.363527071863
 30
0.0
 11
404.2520704031565
 21
1121.363527071863
 31
0.0
  0
LINE
  5
1775
330
1432
100
AcDbEntity
  8
0
 62
     0
370
    15
100
AcDbLine
 10
404.2520704031565
 20
1106.363527071863
 30
0.0
 11
404.2520704031565
 21
1121.363527071863
 31
0.0
  0
LINE
  5
1776
330
1432
100
AcDbEntity
  8
0
 62
     0
370
    15
100
AcDbLine
 10
404.2520704031565
 20
1121.363527071863
 30
0.0
 11
404.2520704031565
 21
1197.196860405197
 31
0.0
  0
INSERT
  5
1777
330
1432
100
AcDbEntity
  8
0
 62
     0
370
    15
100
AcDbBlockReference
  2
_DotSmall
 10
404.2520704031565
 20
1106.363527071863
 30
0.0
 41
30.0
 42
30.0
 43
30.0
 50
270.0
  0
INSERT
  5
1778
330
1432
100
AcDbEntity
  8
0
 62
     0
370
    15
100
AcDbBlockReference
  2
_DotSmall
 10
404.2520704031565
 20
1121.363527071863
 30
0.0
 41
30.0
 42
30.0
 43
30.0
 50
90.0
  0
MTEXT
  5
1779
330
1432
100
AcDbEntity
  8
0
 62
     0
100
AcDbMText
 10
385.5020704031563
 20
1174.28019373853
 30
0.0
 40
25.0
 41
0.0
 71
     5
 72
     1
  1
15
 11
0.0000000000000001
 21
1.0
 31
0.0
 73
     1
 44
1.0
1001
ACAD
1000
MTEXTBEGIN
1070
    73
1070
     1
1070
    44
1040
1.0
1070
    74
1070
     0
1000
MTEXTEND
  0
POINT
  5
177A
330
1432
100
AcDbEntity
  8
Defpoints
 62
     0
100
AcDbPoint
 10
594.6316447924994
 20
1106.363527071863
 30
0.0
  0
POINT
  5
177B
330
1432
100
AcDbEntity
  8
Defpoints
 62
     0
100
AcDbPoint
 10
594.6316447924994
 20
1121.363527071863
 30
0.0
  0
POINT
  5
177C
330
1432
100
AcDbEntity
  8
Defpoints
 62
     0
100
AcDbPoint
 10
404.2520704031565
 20
1121.363527071863
 30
0.0
  0
ENDBLK
  5
143E
330
1432
100
AcDbEntity
  8
0
100
AcDbBlockEnd
  0
BLOCK
  5
1449
330
143F
100
AcDbEntity
  8
0
100
AcDbBlockBegin
  2
*D25
 70
     1
 10
0.0
 20
0.0
 30
0.0
  3
*D25
  1

  0
LINE
  5
173D
330
143F
100
AcDbEntity
  8
実形
 62
     0
370
    15
100
AcDbLine
 10
529.6316447924993
 20
1551.363527071863
 30
0.0
 11
473.7220704031566
 21
1551.363527071863
 31
0.0
  0
LINE
  5
173E
330
143F
100
AcDbEntity
  8
実形
 62
     0
370
    15
100
AcDbLine
 10
529.6316447924994
 20
1336.363527071863
 30
0.0
 11
473.7220704031565
 21
1336.363527071863
 31
0.0
  0
LINE
  5
173F
330
143F
100
AcDbEntity
  8
実形
 62
     0
370
    15
100
AcDbLine
 10
473.7220704031566
 20
1551.363527071863
 30
0.0
 11
473.7220704031565
 21
1336.363527071863
 31
0.0
  0
INSERT
  5
1740
330
143F
100
AcDbEntity
  8
実形
 62
     0
370
    15
100
AcDbBlockReference
  2
_DotSmall
 10
473.7220704031566
 20
1551.363527071863
 30
0.0
 41
30.0
 42
30.0
 43
30.0
 50
90.0
  0
INSERT
  5
1741
330
143F
100
AcDbEntity
  8
実形
 62
     0
370
    15
100
AcDbBlockReference
  2
_DotSmall
 10
473.7220704031565
 20
1336.363527071863
 30
0.0
 41
30.0
 42
30.0
 43
30.0
 50
270.0
  0
MTEXT
  5
1742
330
143F
100
AcDbEntity
  8
実形
 62
     0
100
AcDbMText
 10
454.9720704031563
 20
1443.863527071863
 30
0.0
 40
25.0
 41
0.0
 71
     5
 72
     1
  1
215
 11
0.0000000000000001
 21
1.0
 31
0.0
 73
     1
 44
1.0
1001
ACAD
1000
MTEXTBEGIN
1070
    73
1070
     1
1070
    44
1040
1.0
1070
    74
1070
     0
1000
MTEXTEND
  0
POINT
  5
1743
330
143F
100
AcDbEntity
  8
Defpoints
 62
     0
100
AcDbPoint
 10
594.6316447924992
 20
1551.363527071863
 30
0.0
  0
POINT
  5
1744
330
143F
100
AcDbEntity
  8
Defpoints
 62
     0
100
AcDbPoint
 10
594.6316447924994
 20
1336.363527071863
 30
0.0
  0
POINT
  5
1745
330
143F
100
AcDbEntity
  8
Defpoints
 62
     0
100
AcDbPoint
 10
473.7220704031565
 20
1336.363527071863
 30
0.0
  0
ENDBLK
  5
144A
330
143F
100
AcDbEntity
  8
0
100
AcDbBlockEnd
  0
BLOCK
  5
1646
330
163C
100
AcDbEntity
  8
0
100
AcDbBlockBegin
  2
*D26
 70
     1
 10
0.0
 20
0.0
 30
0.0
  3
*D26
  1

  0
LINE
  5
1829
330
163C
100
AcDbEntity
  8
寸法
 62
     0
370
    18
100
AcDbLine
 10
2111.468910465888
 20
709.7150094229363
 30
0.0
 11
2111.468910465888
 21
841.840972785917
 31
0.0
  0
LINE
  5
182A
330
163C
100
AcDbEntity
  8
寸法
 62
     0
370
    18
100
AcDbLine
 10
2486.468910465888
 20
709.7150094229363
 30
0.0
 11
2486.468910465888
 21
841.840972785917
 31
0.0
  0
LINE
  5
182B
330
163C
100
AcDbEntity
  8
寸法
 62
     0
370
    18
100
AcDbLine
 10
2111.468910465888
 20
841.840972785917
 30
0.0
 11
2486.468910465888
 21
841.840972785917
 31
0.0
  0
INSERT
  5
182C
330
163C
100
AcDbEntity
  8
寸法
 62
     0
370
    18
100
AcDbBlockReference
  2
_DotSmall
 10
2111.468910465888
 20
841.840972785917
 30
0.0
 41
30.0
 42
30.0
 43
30.0
 50
180.0
  0
INSERT
  5
182D
330
163C
100
AcDbEntity
  8
寸法
 62
     0
370
    18
100
AcDbBlockReference
  2
_DotSmall
 10
2486.468910465888
 20
841.840972785917
 30
0.0
 41
30.0
 42
30.0
 43
30.0
  0
MTEXT
  5
182E
330
163C
100
AcDbEntity
  8
寸法
 62
     0
100
AcDbMText
 10
2298.968910465888
 20
860.590972785917
 30
0.0
 40
25.0
 41
0.0
 71
     5
 72
     1
  1
75
 73
     1
 44
1.0
1001
ACAD
1000
MTEXTBEGIN
1070
    73
1070
     1
1070
    44
1040
1.0
1070
    74
1070
     0
1000
MTEXTEND
  0
POINT
  5
182F
330
163C
100
AcDbEntity
  8
Defpoints
 62
     0
100
AcDbPoint
 10
2111.468910465888
 20
644.7150094229364
 30
0.0
  0
POINT
  5
1830
330
163C
100
AcDbEntity
  8
Defpoints
 62
     0
100
AcDbPoint
 10
2486.468910465888
 20
644.7150094229364
 30
0.0
  0
POINT
  5
1831
330
163C
100
AcDbEntity
  8
Defpoints
 62
     0
100
AcDbPoint
 10
2486.468910465888
 20
841.840972785917
 30
0.0
  0
ENDBLK
  5
1647
330
163C
100
AcDbEntity
  8
0
100
AcDbBlockEnd
  0
BLOCK
  5
1652
330
1648
100
AcDbEntity
  8
0
100
AcDbBlockBegin
  2
*D27
 70
     1
 10
0.0
 20
0.0
 30
0.0
  3
*D27
  1

  0
LINE
  5
1832
330
1648
100
AcDbEntity
  8
寸法
 62
     0
370
    18
100
AcDbLine
 10
2458.968910465888
 20
709.7150094229363
 30
0.0
 11
2458.968910465888
 21
794.6337461615266
 31
0.0
  0
LINE
  5
1833
330
1648
100
AcDbEntity
  8
寸法
 62
     0
370
    18
100
AcDbLine
 10
2138.968910465888
 20
709.7150094229363
 30
0.0
 11
2138.968910465888
 21
794.6337461615266
 31
0.0
  0
LINE
  5
1834
330
1648
100
AcDbEntity
  8
寸法
 62
     0
370
    18
100
AcDbLine
 10
2458.968910465888
 20
794.6337461615266
 30
0.0
 11
2138.968910465888
 21
794.6337461615266
 31
0.0
  0
INSERT
  5
1835
330
1648
100
AcDbEntity
  8
寸法
 62
     0
370
    18
100
AcDbBlockReference
  2
_DotSmall
 10
2458.968910465888
 20
794.6337461615266
 30
0.0
 41
30.0
 42
30.0
 43
30.0
  0
INSERT
  5
1836
330
1648
100
AcDbEntity
  8
寸法
 62
     0
370
    18
100
AcDbBlockReference
  2
_DotSmall
 10
2138.968910465888
 20
794.6337461615266
 30
0.0
 41
30.0
 42
30.0
 43
30.0
 50
180.0
  0
MTEXT
  5
1837
330
1648
100
AcDbEntity
  8
寸法
 62
     0
100
AcDbMText
 10
2298.968910465888
 20
813.3837461615266
 30
0.0
 40
25.0
 41
0.0
 71
     5
 72
     1
  1
64
 73
     1
 44
1.0
1001
ACAD
1000
MTEXTBEGIN
1070
    73
1070
     1
1070
    44
1040
1.0
1070
    74
1070
     0
1000
MTEXTEND
  0
POINT
  5
1838
330
1648
100
AcDbEntity
  8
Defpoints
 62
     0
100
AcDbPoint
 10
2458.968910465888
 20
644.7150094229364
 30
0.0
  0
POINT
  5
1839
330
1648
100
AcDbEntity
  8
Defpoints
 62
     0
100
AcDbPoint
 10
2138.968910465888
 20
644.7150094229364
 30
0.0
  0
POINT
  5
183A
330
1648
100
AcDbEntity
  8
Defpoints
 62
     0
100
AcDbPoint
 10
2138.968910465888
 20
794.6337461615266
 30
0.0
  0
ENDBLK
  5
1653
330
1648
100
AcDbEntity
  8
0
100
AcDbBlockEnd
  0
BLOCK
  5
165E
330
1654
100
AcDbEntity
  8
0
100
AcDbBlockBegin
  2
*D28
 70
     1
 10
0.0
 20
0.0
 30
0.0
  3
*D28
  1

  0
LINE
  5
1820
330
1654
100
AcDbEntity
  8
寸法
 62
     0
370
    18
100
AcDbLine
 10
2173.968910465888
 20
709.7150094229363
 30
0.0
 11
2173.968910465888
 21
743.5989066962456
 31
0.0
  0
LINE
  5
1821
330
1654
100
AcDbEntity
  8
寸法
 62
     0
370
    18
100
AcDbLine
 10
2423.968910465888
 20
709.7150094229363
 30
0.0
 11
2423.968910465888
 21
743.5989066962456
 31
0.0
  0
LINE
  5
1822
330
1654
100
AcDbEntity
  8
寸法
 62
     0
370
    18
100
AcDbLine
 10
2173.968910465888
 20
743.5989066962456
 30
0.0
 11
2423.968910465888
 21
743.5989066962456
 31
0.0
  0
INSERT
  5
1823
330
1654
100
AcDbEntity
  8
寸法
 62
     0
370
    18
100
AcDbBlockReference
  2
_DotSmall
 10
2173.968910465888
 20
743.5989066962456
 30
0.0
 41
30.0
 42
30.0
 43
30.0
 50
180.0
  0
INSERT
  5
1824
330
1654
100
AcDbEntity
  8
寸法
 62
     0
370
    18
100
AcDbBlockReference
  2
_DotSmall
 10
2423.968910465888
 20
743.5989066962456
 30
0.0
 41
30.0
 42
30.0
 43
30.0
  0
MTEXT
  5
1825
330
1654
100
AcDbEntity
  8
寸法
 62
     0
100
AcDbMText
 10
2298.968910465888
 20
762.3489066962456
 30
0.0
 40
25.0
 41
0.0
 71
     5
 72
     1
  1
50
 73
     1
 44
1.0
1001
ACAD
1000
MTEXTBEGIN
1070
    73
1070
     1
1070
    44
1040
1.0
1070
    74
1070
     0
1000
MTEXTEND
  0
POINT
  5
1826
330
1654
100
AcDbEntity
  8
Defpoints
 62
     0
100
AcDbPoint
 10
2173.968910465888
 20
644.7150094229364
 30
0.0
  0
POINT
  5
1827
330
1654
100
AcDbEntity
  8
Defpoints
 62
     0
100
AcDbPoint
 10
2423.968910465888
 20
644.7150094229364
 30
0.0
  0
POINT
  5
1828
330
1654
100
AcDbEntity
  8
Defpoints
 62
     0
100
AcDbPoint
 10
2423.968910465888
 20
743.5989066962456
 30
0.0
  0
ENDBLK
  5
165F
330
1654
100
AcDbEntity
  8
0
100
AcDbBlockEnd
  0
BLOCK
  5
166A
330
1660
100
AcDbEntity
  8
0
100
AcDbBlockBegin
  2
*D29
 70
     1
 10
0.0
 20
0.0
 30
0.0
  3
*D29
  1

  0
LINE
  5
17F3
330
1660
100
AcDbEntity
  8
寸法
 62
     0
370
    18
100
AcDbLine
 10
2551.468910465889
 20
670.2150094229364
 30
0.0
 11
2633.889588525591
 21
670.2150094229364
 31
0.0
  0
LINE
  5
17F4
330
1660
100
AcDbEntity
  8
寸法
 62
     0
370
    18
100
AcDbLine
 10
2551.468910465889
 20
519.2150094229364
 30
0.0
 11
2633.889588525591
 21
519.2150094229364
 31
0.0
  0
LINE
  5
17F5
330
1660
100
AcDbEntity
  8
寸法
 62
     0
370
    18
100
AcDbLine
 10
2633.889588525591
 20
670.2150094229364
 30
0.0
 11
2633.889588525591
 21
519.2150094229364
 31
0.0
  0
INSERT
  5
17F6
330
1660
100
AcDbEntity
  8
寸法
 62
     0
370
    18
100
AcDbBlockReference
  2
_DotSmall
 10
2633.889588525591
 20
670.2150094229364
 30
0.0
 41
30.0
 42
30.0
 43
30.0
 50
90.0
  0
INSERT
  5
17F7
330
1660
100
AcDbEntity
  8
寸法
 62
     0
370
    18
100
AcDbBlockReference
  2
_DotSmall
 10
2633.889588525591
 20
519.2150094229364
 30
0.0
 41
30.0
 42
30.0
 43
30.0
 50
270.0
  0
MTEXT
  5
17F8
330
1660
100
AcDbEntity
  8
寸法
 62
     0
100
AcDbMText
 10
2615.139588525591
 20
594.7150094229368
 30
0.0
 40
25.0
 41
0.0
 71
     5
 72
     1
  1
31
 11
0.0000000000000001
 21
1.0
 31
0.0
 73
     1
 44
1.0
1001
ACAD
1000
MTEXTBEGIN
1070
    73
1070
     1
1070
    44
1040
1.0
1070
    74
1070
     0
1000
MTEXTEND
  0
POINT
  5
17F9
330
1660
100
AcDbEntity
  8
Defpoints
 62
     0
100
AcDbPoint
 10
2486.468910465888
 20
670.2150094229364
 30
0.0
  0
POINT
  5
17FA
330
1660
100
AcDbEntity
  8
Defpoints
 62
     0
100
AcDbPoint
 10
2486.468910465888
 20
519.2150094229364
 30
0.0
  0
POINT
  5
17FB
330
1660
100
AcDbEntity
  8
Defpoints
 62
     0
100
AcDbPoint
 10
2633.889588525591
 20
519.2150094229364
 30
0.0
  0
ENDBLK
  5
166B
330
1660
100
AcDbEntity
  8
0
100
AcDbBlockEnd
  0
BLOCK
  5
1676
330
166C
100
AcDbEntity
  8
0
100
AcDbBlockBegin
  2
*D30
 70
     1
 10
0.0
 20
0.0
 30
0.0
  3
*D30
  1

  0
LINE
  5
17FC
330
166C
100
AcDbEntity
  8
寸法
 62
     0
370
    18
100
AcDbLine
 10
2551.468910465889
 20
644.7150094229364
 30
0.0
 11
2587.921923236481
 21
644.7150094229364
 31
0.0
  0
LINE
  5
17FD
330
166C
100
AcDbEntity
  8
寸法
 62
     0
370
    18
100
AcDbLine
 10
2551.468910465889
 20
544.7150094229364
 30
0.0
 11
2587.921923236481
 21
544.7150094229364
 31
0.0
  0
LINE
  5
17FE
330
166C
100
AcDbEntity
  8
寸法
 62
     0
370
    18
100
AcDbLine
 10
2587.921923236481
 20
644.7150094229364
 30
0.0
 11
2587.921923236481
 21
544.7150094229364
 31
0.0
  0
INSERT
  5
17FF
330
166C
100
AcDbEntity
  8
寸法
 62
     0
370
    18
100
AcDbBlockReference
  2
_DotSmall
 10
2587.921923236481
 20
644.7150094229364
 30
0.0
 41
30.0
 42
30.0
 43
30.0
 50
90.0
  0
INSERT
  5
1800
330
166C
100
AcDbEntity
  8
寸法
 62
     0
370
    18
100
AcDbBlockReference
  2
_DotSmall
 10
2587.921923236481
 20
544.7150094229364
 30
0.0
 41
30.0
 42
30.0
 43
30.0
 50
270.0
  0
MTEXT
  5
1801
330
166C
100
AcDbEntity
  8
寸法
 62
     0
100
AcDbMText
 10
2569.17192323648
 20
594.7150094229368
 30
0.0
 40
25.0
 41
0.0
 71
     5
 72
     1
  1
20
 11
0.0000000000000001
 21
1.0
 31
0.0
 73
     1
 44
1.0
1001
ACAD
1000
MTEXTBEGIN
1070
    73
1070
     1
1070
    44
1040
1.0
1070
    74
1070
     0
1000
MTEXTEND
  0
POINT
  5
1802
330
166C
100
AcDbEntity
  8
Defpoints
 62
     0
100
AcDbPoint
 10
2486.468910465888
 20
644.7150094229364
 30
0.0
  0
POINT
  5
1803
330
166C
100
AcDbEntity
  8
Defpoints
 62
     0
100
AcDbPoint
 10
2486.468910465888
 20
544.7150094229364
 30
0.0
  0
POINT
  5
1804
330
166C
100
AcDbEntity
  8
Defpoints
 62
     0
100
AcDbPoint
 10
2587.921923236481
 20
544.7150094229364
 30
0.0
  0
ENDBLK
  5
1677
330
166C
100
AcDbEntity
  8
0
100
AcDbBlockEnd
  0
BLOCK
  5
1682
330
1678
100
AcDbEntity
  8
0
100
AcDbBlockBegin
  2
*D31
 70
     1
 10
0.0
 20
0.0
 30
0.0
  3
*D31
  1

  0
LINE
  5
1805
330
1678
100
AcDbEntity
  8
0
 62
     0
370
    15
100
AcDbLine
 10
1736.08879075345
 20
1336.363527071863
 30
0.0
 11
1891.283206889209
 21
1336.363527071863
 31
0.0
  0
LINE
  5
1806
330
1678
100
AcDbEntity
  8
0
 62
     0
370
    15
100
AcDbLine
 10
1831.088790753451
 20
1551.363527071863
 30
0.0
 11
1891.283206889209
 21
1551.363527071863
 31
0.0
  0
LINE
  5
1807
330
1678
100
AcDbEntity
  8
0
 62
     0
370
    15
100
AcDbLine
 10
1891.283206889209
 20
1336.363527071863
 30
0.0
 11
1891.283206889209
 21
1551.363527071863
 31
0.0
  0
INSERT
  5
1808
330
1678
100
AcDbEntity
  8
0
 62
     0
370
    15
100
AcDbBlockReference
  2
_DotSmall
 10
1891.283206889209
 20
1336.363527071863
 30
0.0
 41
30.0
 42
30.0
 43
30.0
 50
270.0
  0
INSERT
  5
1809
330
1678
100
AcDbEntity
  8
0
 62
     0
370
    15
100
AcDbBlockReference
  2
_DotSmall
 10
1891.283206889209
 20
1551.363527071863
 30
0.0
 41
30.0
 42
30.0
 43
30.0
 50
90.0
  0
MTEXT
  5
180A
330
1678
100
AcDbEntity
  8
0
 62
     0
100
AcDbMText
 10
1872.533206889208
 20
1443.863527071863
 30
0.0
 40
25.0
 41
0.0
 71
     5
 72
     1
  1
215
 11
0.0000000000000001
 21
1.0
 31
0.0
 73
     1
 44
1.0
1001
ACAD
1000
MTEXTBEGIN
1070
    73
1070
     1
1070
    44
1040
1.0
1070
    74
1070
     0
1000
MTEXTEND
  0
POINT
  5
180B
330
1678
100
AcDbEntity
  8
Defpoints
 62
     0
100
AcDbPoint
 10
1671.08879075345
 20
1336.363527071863
 30
0.0
  0
POINT
  5
180C
330
1678
100
AcDbEntity
  8
Defpoints
 62
     0
100
AcDbPoint
 10
1766.088790753451
 20
1551.363527071863
 30
0.0
  0
POINT
  5
180D
330
1678
100
AcDbEntity
  8
Defpoints
 62
     0
100
AcDbPoint
 10
1891.283206889209
 20
1551.363527071863
 30
0.0
  0
ENDBLK
  5
1683
330
1678
100
AcDbEntity
  8
0
100
AcDbBlockEnd
  0
BLOCK
  5
168E
330
1684
100
AcDbEntity
  8
0
100
AcDbBlockBegin
  2
*D32
 70
     1
 10
0.0
 20
0.0
 30
0.0
  3
*D32
  1

  0
LINE
  5
180E
330
1684
100
AcDbEntity
  8
寸法
 62
     0
370
    15
100
AcDbLine
 10
1606.08879075345
 20
1363.863527071863
 30
0.0
 11
1606.08879075345
 21
1435.382738318166
 31
0.0
  0
LINE
  5
180F
330
1684
100
AcDbEntity
  8
寸法
 62
     0
370
    15
100
AcDbLine
 10
1656.08879075345
 20
1424.983115887408
 30
0.0
 11
1656.08879075345
 21
1435.382738318166
 31
0.0
  0
LINE
  5
1810
330
1684
100
AcDbEntity
  8
寸法
 62
     0
370
    18
100
AcDbLine
 10
1606.08879075345
 20
1435.382738318166
 30
0.0
 11
1656.08879075345
 21
1435.382738318166
 31
0.0
  0
MTEXT
  5
1811
330
1684
100
AcDbEntity
  8
寸法
 62
     0
100
AcDbMText
 10
1646.05131522401
 20
1465.228424079528
 30
0.0
 40
25.0
 41
0.0
 71
     5
 72
     1
  1
50
 73
     1
 44
1.0
1001
ACAD
1000
MTEXTBEGIN
1070
    73
1070
     1
1070
    44
1040
1.0
1070
    74
1070
     0
1000
MTEXTEND
  0
INSERT
  5
1812
330
1684
100
AcDbEntity
  8
寸法
 62
     0
370
    18
100
AcDbBlockReference
  2
_DotSmall
 10
1606.08879075345
 20
1435.382738318166
 30
0.0
 41
30.0
 42
30.0
 43
30.0
 50
180.0
  0
INSERT
  5
1813
330
1684
100
AcDbEntity
  8
寸法
 62
     0
370
    18
100
AcDbBlockReference
  2
_DotSmall
 10
1656.08879075345
 20
1435.382738318166
 30
0.0
 41
30.0
 42
30.0
 43
30.0
  0
POINT
  5
1814
330
1684
100
AcDbEntity
  8
Defpoints
 62
     0
100
AcDbPoint
 10
1606.08879075345
 20
1298.863527071863
 30
0.0
  0
POINT
  5
1815
330
1684
100
AcDbEntity
  8
Defpoints
 62
     0
100
AcDbPoint
 10
1656.08879075345
 20
1359.983115887408
 30
0.0
  0
POINT
  5
1816
330
1684
100
AcDbEntity
  8
Defpoints
 62
     0
100
AcDbPoint
 10
1656.08879075345
 20
1435.382738318166
 30
0.0
  0
ENDBLK
  5
168F
330
1684
100
AcDbEntity
  8
0
100
AcDbBlockEnd
  0
BLOCK
  5
18C8
330
18BE
100
AcDbEntity
  8
0
100
AcDbBlockBegin
  2
*D33
 70
     1
 10
0.0
 20
0.0
 30
0.0
  3
*D33
  1

  0
LINE
  5
18EE
330
18BE
100
AcDbEntity
  8
実形
 62
     0
370
    15
100
AcDbLine
 10
546.6316447924993
 20
698.7963319408144
 30
0.0
 11
493.5109773360763
 21
698.7963319408144
 31
0.0
  0
LINE
  5
18EF
330
18BE
100
AcDbEntity
  8
実形
 62
     0
370
    15
100
AcDbLine
 10
546.6316447924996
 20
683.7963319408145
 30
0.0
 11
493.5109773360763
 21
683.7963319408145
 31
0.0
  0
LINE
  5
18F0
330
18BE
100
AcDbEntity
  8
実形
 62
     0
370
    15
100
AcDbLine
 10
493.5109773360763
 20
698.7963319408144
 30
0.0
 11
493.5109773360763
 21
683.7963319408145
 31
0.0
  0
MTEXT
  5
18F1
330
18BE
100
AcDbEntity
  8
実形
 62
     0
100
AcDbMText
 10
459.6135009249628
 20
732.1628290116158
 30
0.0
 40
25.0
 41
0.0
 71
     5
 72
     1
  1
15
 11
0.0000000000000001
 21
1.0
 31
0.0
 73
     1
 44
1.0
1001
ACAD
1000
MTEXTBEGIN
1070
    73
1070
     1
1070
    44
1040
1.0
1070
    74
1070
     0
1000
MTEXTEND
  0
INSERT
  5
18F2
330
18BE
100
AcDbEntity
  8
実形
 62
     0
370
    15
100
AcDbBlockReference
  2
_DotSmall
 10
493.5109773360763
 20
698.7963319408144
 30
0.0
 41
30.0
 42
30.0
 43
30.0
 50
90.0
  0
INSERT
  5
18F3
330
18BE
100
AcDbEntity
  8
実形
 62
     0
370
    15
100
AcDbBlockReference
  2
_DotSmall
 10
493.5109773360763
 20
683.7963319408145
 30
0.0
 41
30.0
 42
30.0
 43
30.0
 50
270.0
  0
POINT
  5
18F4
330
18BE
100
AcDbEntity
  8
Defpoints
 62
     0
100
AcDbPoint
 10
611.6316447924994
 20
698.7963319408144
 30
0.0
  0
POINT
  5
18F5
330
18BE
100
AcDbEntity
  8
Defpoints
 62
     0
100
AcDbPoint
 10
611.6316447924996
 20
683.7963319408145
 30
0.0
  0
POINT
  5
18F6
330
18BE
100
AcDbEntity
  8
Defpoints
 62
     0
100
AcDbPoint
 10
493.5109773360763
 20
683.7963319408145
 30
0.0
  0
ENDBLK
  5
18C9
330
18BE
100
AcDbEntity
  8
0
100
AcDbBlockEnd
  0
BLOCK
  5
18D4
330
18CA
100
AcDbEntity
  8
0
100
AcDbBlockBegin
  2
*D34
 70
     1
 10
0.0
 20
0.0
 30
0.0
  3
*D34
  1

  0
LINE
  5
18F7
330
18CA
100
AcDbEntity
  8
実形
 62
     0
370
    15
100
AcDbLine
 10
545.8137358752974
 20
528.7963319408145
 30
0.0
 11
493.5109773360763
 21
528.7963319408145
 31
0.0
  0
LINE
  5
18F8
330
18CA
100
AcDbEntity
  8
実形
 62
     0
370
    15
100
AcDbLine
 10
545.8137358752974
 20
508.7963319408146
 30
0.0
 11
493.5109773360763
 21
508.7963319408146
 31
0.0
  0
LINE
  5
18F9
330
18CA
100
AcDbEntity
  8
実形
 62
     0
370
    15
100
AcDbLine
 10
493.5109773360763
 20
528.7963319408145
 30
0.0
 11
493.5109773360763
 21
508.7963319408146
 31
0.0
  0
MTEXT
  5
18FA
330
18CA
100
AcDbEntity
  8
実形
 62
     0
100
AcDbMText
 10
460.0291941526811
 20
537.9196752296847
 30
0.0
 40
25.0
 41
0.0
 71
     5
 72
     1
  1
20
 11
0.0000000000000001
 21
1.0
 31
0.0
 73
     1
 44
1.0
1001
ACAD
1000
MTEXTBEGIN
1070
    73
1070
     1
1070
    44
1040
1.0
1070
    74
1070
     0
1000
MTEXTEND
  0
INSERT
  5
18FB
330
18CA
100
AcDbEntity
  8
実形
 62
     0
370
    15
100
AcDbBlockReference
  2
_DotSmall
 10
493.5109773360763
 20
528.7963319408145
 30
0.0
 41
30.0
 42
30.0
 43
30.0
 50
90.0
  0
INSERT
  5
18FC
330
18CA
100
AcDbEntity
  8
実形
 62
     0
370
    15
100
AcDbBlockReference
  2
_DotSmall
 10
493.5109773360763
 20
508.7963319408146
 30
0.0
 41
30.0
 42
30.0
 43
30.0
 50
270.0
  0
POINT
  5
18FD
330
18CA
100
AcDbEntity
  8
Defpoints
 62
     0
100
AcDbPoint
 10
610.8137358752974
 20
528.7963319408145
 30
0.0
  0
POINT
  5
18FE
330
18CA
100
AcDbEntity
  8
Defpoints
 62
     0
100
AcDbPoint
 10
610.8137358752974
 20
508.7963319408146
 30
0.0
  0
POINT
  5
18FF
330
18CA
100
AcDbEntity
  8
Defpoints
 62
     0
100
AcDbPoint
 10
493.5109773360763
 20
508.7963319408146
 30
0.0
  0
ENDBLK
  5
18D5
330
18CA
100
AcDbEntity
  8
0
100
AcDbBlockEnd
  0
BLOCK
  5
18E0
330
18D6
100
AcDbEntity
  8
0
100
AcDbBlockBegin
  2
*D35
 70
     1
 10
0.0
 20
0.0
 30
0.0
  3
*D35
  1

  0
LINE
  5
1900
330
18D6
100
AcDbEntity
  8
実形
 62
     0
370
    15
100
AcDbLine
 10
546.2131616261721
 20
498.7963319408144
 30
0.0
 11
493.5109773360763
 21
498.7963319408144
 31
0.0
  0
LINE
  5
1901
330
18D6
100
AcDbEntity
  8
実形
 62
     0
370
    15
100
AcDbLine
 10
517.4302335062093
 20
528.7963319408145
 30
0.0
 11
493.5109773360763
 21
528.7963319408145
 31
0.0
  0
LINE
  5
1902
330
18D6
100
AcDbEntity
  8
実形
 62
     0
370
    15
100
AcDbLine
 10
493.5109773360763
 20
498.7963319408144
 30
0.0
 11
493.5109773360763
 21
528.7963319408145
 31
0.0
  0
MTEXT
  5
1903
330
18D6
100
AcDbEntity
  8
実形
 62
     0
100
AcDbMText
 10
463.7075381380309
 20
484.5914203561568
 30
0.0
 40
25.0
 41
0.0
 71
     5
 72
     1
  1
7
 11
0.0000000000000001
 21
1.0
 31
0.0
 73
     1
 44
1.0
1001
ACAD
1000
MTEXTBEGIN
1070
    73
1070
     1
1070
    44
1040
1.0
1070
    74
1070
     0
1000
MTEXTEND
  0
INSERT
  5
1904
330
18D6
100
AcDbEntity
  8
実形
 62
     0
370
    15
100
AcDbBlockReference
  2
_DotSmall
 10
493.5109773360763
 20
498.7963319408144
 30
0.0
 41
30.0
 42
30.0
 43
30.0
 50
270.0
  0
INSERT
  5
1905
330
18D6
100
AcDbEntity
  8
実形
 62
     0
370
    15
100
AcDbBlockReference
  2
_DotSmall
 10
493.5109773360763
 20
528.7963319408145
 30
0.0
 41
30.0
 42
30.0
 43
30.0
 50
90.0
  0
POINT
  5
1906
330
18D6
100
AcDbEntity
  8
Defpoints
 62
     0
100
AcDbPoint
 10
611.2131616261722
 20
498.7963319408144
 30
0.0
  0
POINT
  5
1907
330
18D6
100
AcDbEntity
  8
Defpoints
 62
     0
100
AcDbPoint
 10
582.4302335062093
 20
528.7963319408145
 30
0.0
  0
POINT
  5
1908
330
18D6
100
AcDbEntity
  8
Defpoints
 62
     0
100
AcDbPoint
 10
493.5109773360763
 20
528.7963319408145
 30
0.0
  0
ENDBLK
  5
18E1
330
18D6
100
AcDbEntity
  8
0
100
AcDbBlockEnd
  0
BLOCK
  5
18EC
330
18E2
100
AcDbEntity
  8
0
100
AcDbBlockBegin
  2
*D36
 70
     1
 10
0.0
 20
0.0
 30
0.0
  3
*D36
  1

  0
LINE
  5
1909
330
18E2
100
AcDbEntity
  8
実形
 62
     0
370
    15
100
AcDbLine
 10
511.2555114636379
 20
698.7963319408144
 30
0.0
 11
406.9700788978899
 21
698.7963319408144
 31
0.0
  0
LINE
  5
190A
330
18E2
100
AcDbEntity
  8
実形
 62
     0
370
    15
100
AcDbLine
 10
511.2555114636379
 20
508.7963319408146
 30
0.0
 11
406.9700788978898
 21
508.7963319408146
 31
0.0
  0
LINE
  5
190B
330
18E2
100
AcDbEntity
  8
実形
 62
     0
370
    15
100
AcDbLine
 10
406.9700788978899
 20
698.7963319408144
 30
0.0
 11
406.9700788978898
 21
508.7963319408146
 31
0.0
  0
INSERT
  5
190C
330
18E2
100
AcDbEntity
  8
実形
 62
     0
370
    15
100
AcDbBlockReference
  2
_DotSmall
 10
406.9700788978899
 20
698.7963319408144
 30
0.0
 41
30.0
 42
30.0
 43
30.0
 50
90.0
  0
INSERT
  5
190D
330
18E2
100
AcDbEntity
  8
実形
 62
     0
370
    15
100
AcDbBlockReference
  2
_DotSmall
 10
406.9700788978898
 20
508.7963319408146
 30
0.0
 41
30.0
 42
30.0
 43
30.0
 50
270.0
  0
MTEXT
  5
190E
330
18E2
100
AcDbEntity
  8
実形
 62
     0
100
AcDbMText
 10
388.2200788978898
 20
603.7963319408147
 30
0.0
 40
25.0
 41
0.0
 71
     5
 72
     1
  1
190
 11
0.0000000000000001
 21
1.0
 31
0.0
 73
     1
 44
1.0
1001
ACAD
1000
MTEXTBEGIN
1070
    73
1070
     1
1070
    44
1040
1.0
1070
    74
1070
     0
1000
MTEXTEND
  0
POINT
  5
190F
330
18E2
100
AcDbEntity
  8
Defpoints
 62
     0
100
AcDbPoint
 10
576.2555114636379
 20
698.7963319408144
 30
0.0
  0
POINT
  5
1910
330
18E2
100
AcDbEntity
  8
Defpoints
 62
     0
100
AcDbPoint
 10
576.2555114636379
 20
508.7963319408146
 30
0.0
  0
POINT
  5
1911
330
18E2
100
AcDbEntity
  8
Defpoints
 62
     0
100
AcDbPoint
 10
406.9700788978898
 20
508.7963319408146
 30
0.0
  0
ENDBLK
  5
18ED
330
18E2
100
AcDbEntity
  8
0
100
AcDbBlockEnd
  0
ENDSEC
  0
SECTION
  2
ENTITIES
  0
LINE
  5
9C
330
1F
100
AcDbEntity
  8
補助
100
AcDbLine
 10
111.0
 20
4.0
 30
0.0
 11
2784.0
 21
4.0
 31
0.0
  0
LINE
  5
A0
330
1F
100
AcDbEntity
  8
補助
100
AcDbLine
 10
2784.0
 20
2024.0
 30
0.0
 11
111.0
 21
2024.0
 31
0.0
  0
LINE
  5
A5
330
1F
100
AcDbEntity
  8
補助
100
AcDbLine
 10
2784.0
 20
4.0
 30
0.0
 11
2784.0
 21
2024.0
 31
0.0
  0
LINE
  5
A8
330
1F
100
AcDbEntity
  8
補助
100
AcDbLine
 10
2184.0
 20
69.0
 30
0.0
 11
2184.0
 21
199.0
 31
0.0
  0
LINE
  5
A9
330
1F
100
AcDbEntity
  8
補助
100
AcDbLine
 10
2184.0
 20
69.0
 30
0.0
 11
2784.0
 21
69.0
 31
0.0
  0
LINE
  5
AA
330
1F
100
AcDbEntity
  8
補助
100
AcDbLine
 10
2064.0
 20
134.0
 30
0.0
 11
2784.0
 21
134.0
 31
0.0
  0
LINE
  5
AB
330
1F
100
AcDbEntity
  8
補助
100
AcDbLine
 10
2064.0
 20
199.0
 30
0.0
 11
2784.0
 21
199.0
 31
0.0
  0
LINE
  5
AD
330
1F
100
AcDbEntity
  8
補助
100
AcDbLine
 10
2784.0
 20
4.0
 30
0.0
 11
2784.0
 21
69.0
 31
0.0
  0
LINE
  5
25F
330
1F
100
AcDbEntity
  8
0
100
AcDbLine
 10
1146.631644792499
 20
1106.363527071863
 30
0.0
 11
726.6316447924991
 21
1106.363527071863
 31
0.0
  0
LINE
  5
260
330
1F
100
AcDbEntity
  8
0
100
AcDbLine
 10
611.6316447924991
 20
1236.363527071863
 30
0.0
 11
611.6316447924991
 21
1566.363527071863
 31
0.0
  0
LINE
  5
261
330
1F
100
AcDbEntity
  8
0
100
AcDbLine
 10
671.6316447924992
 20
1626.363527071863
 30
0.0
 11
1201.631644792499
 21
1626.363527071863
 31
0.0
  0
LINE
  5
262
330
1F
100
AcDbEntity
  8
0
100
AcDbLine
 10
1261.631644792499
 20
1566.363527071863
 30
0.0
 11
1261.631644792499
 21
1236.363527071863
 31
0.0
  0
LINE
  5
263
330
1F
100
AcDbEntity
  8
0
100
AcDbLine
 10
1146.631644792499
 20
1089.363527071863
 30
0.0
 11
726.6316447924991
 21
1089.363527071863
 31
0.0
  0
LINE
  5
264
330
1F
100
AcDbEntity
  8
0
100
AcDbLine
 10
594.6316447924991
 20
1221.363527071863
 30
0.0
 11
594.6316447924991
 21
1566.363527071863
 31
0.0
  0
LINE
  5
265
330
1F
100
AcDbEntity
  8
0
100
AcDbLine
 10
671.6316447924992
 20
1643.363527071863
 30
0.0
 11
1201.631644792499
 21
1643.363527071863
 31
0.0
  0
LINE
  5
266
330
1F
100
AcDbEntity
  8
0
100
AcDbLine
 10
1278.631644792499
 20
1566.363527071863
 30
0.0
 11
1278.631644792499
 21
1221.363527071863
 31
0.0
  0
LINE
  5
267
330
1F
100
AcDbEntity
  8
0
100
AcDbLine
 10
726.6316447924991
 20
1551.363527071863
 30
0.0
 11
821.6316447924992
 21
1551.363527071863
 31
0.0
  0
LINE
  5
26B
330
1F
100
AcDbEntity
  8
0
100
AcDbLine
 10
1146.631644792499
 20
1121.363527071863
 30
0.0
 11
726.6316447924991
 21
1121.363527071863
 31
0.0
  0
DIMENSION
  5
2E9
330
1F
100
AcDbEntity
  8
0
100
AcDbDimension
  2
*D4
 10
1261.631644792499
 20
972.4557552771466
 30
0.0
 11
1208.714978125832
 21
991.2057552771466
 31
0.0
 70
    32
 71
     5
 42
17.0
  3
ISO-25
100
AcDbAlignedDimension
 13
1278.631644792499
 23
1089.363527071863
 33
0.0
 14
1261.631644792499
 24
1089.363527071863
 34
0.0
 50
180.0
100
AcDbRotatedDimension
  0
DIMENSION
  5
2F7
330
1F
100
AcDbEntity
  8
0
100
AcDbDimension
  2
*D5
 10
611.6316447924991
 20
972.4557552771466
 30
0.0
 11
936.6316447924992
 21
991.2057552771466
 31
0.0
 70
    32
 71
     5
 42
650.0
  3
ISO-25
100
AcDbAlignedDimension
 13
1261.631644792499
 23
1089.363527071863
 33
0.0
 14
611.6316447924991
 24
1089.363527071863
 34
0.0
 50
180.0
100
AcDbRotatedDimension
1001
ACAD
1000
DSTYLE
1002
{
1070
   279
1070
     1
1002
}
  0
DIMENSION
  5
304
330
1F
100
AcDbEntity
  8
0
100
AcDbDimension
  2
*D6
 10
594.6316447924991
 20
972.4557552771466
 30
0.0
 11
655.0898603769556
 21
972.4557552771466
 31
0.0
 70
   160
 71
     5
 42
17.0
  3
ISO-25
100
AcDbAlignedDimension
 13
611.6316447924991
 23
1089.363527071863
 33
0.0
 14
594.6316447924991
 24
1089.363527071863
 34
0.0
 50
180.0
100
AcDbRotatedDimension
1001
ACAD
1000
DSTYLE
1002
{
1070
   279
1070
     1
1002
}
  0
DIMENSION
  5
31C
330
1F
100
AcDbEntity
  8
0
100
AcDbDimension
  2
*D7
 10
594.6316447924991
 20
902.0969833219396
 30
0.0
 11
936.6316447924992
 21
920.8469833219396
 31
0.0
 70
    32
 71
     5
 42
684.0
  3
ISO-25
100
AcDbAlignedDimension
 13
1278.631644792499
 23
1089.363527071863
 33
0.0
 14
594.6316447924991
 24
1089.363527071863
 34
0.0
 50
180.0
100
AcDbRotatedDimension
  0
ARC
  5
32A
330
1F
100
AcDbEntity
  8
0
100
AcDbCircle
 10
1146.631644792499
 20
1236.363527071863
 30
0.0
 40
115.0
100
AcDbArc
 50
270.0
 51
0.000000000000007
  0
ARC
  5
32B
330
1F
100
AcDbEntity
  8
0
100
AcDbCircle
 10
726.6316447924991
 20
1236.363527071863
 30
0.0
 40
115.0
100
AcDbArc
 50
180.0
 51
270.0
  0
LINE
  5
32C
330
1F
100
AcDbEntity
  8
0
100
AcDbLine
 10
1261.631644792499
 20
1436.363527071863
 30
0.0
 11
1261.631644792499
 21
1221.363527071863
 31
0.0
  0
LINE
  5
32D
330
1F
100
AcDbEntity
  8
0
100
AcDbLine
 10
611.6316447924991
 20
1221.363527071863
 30
0.0
 11
611.6316447924991
 21
1436.363527071863
 31
0.0
  0
ARC
  5
32E
330
1F
100
AcDbEntity
  8
0
100
AcDbCircle
 10
1146.631644792499
 20
1221.363527071863
 30
0.0
 40
115.0
100
AcDbArc
 50
270.0
 51
0.000000000000007
  0
ARC
  5
32F
330
1F
100
AcDbEntity
  8
0
100
AcDbCircle
 10
726.6316447924991
 20
1221.363527071863
 30
0.0
 40
115.0
100
AcDbArc
 50
180.0
 51
270.0
  0
ARC
  5
330
330
1F
100
AcDbEntity
  8
0
100
AcDbCircle
 10
1146.631644792499
 20
1221.363527071863
 30
0.0
 40
132.0
100
AcDbArc
 50
270.0
 51
0.000000000000007
  0
ARC
  5
331
330
1F
100
AcDbEntity
  8
0
100
AcDbCircle
 10
726.6316447924991
 20
1221.363527071863
 30
0.0
 40
132.0
100
AcDbArc
 50
180.0
 51
270.0
  0
CIRCLE
  5
334
330
1F
100
AcDbEntity
  8
0
100
AcDbCircle
 10
1011.631644792499
 20
1456.363527071863
 30
0.0
 40
79.5
  0
CIRCLE
  5
335
330
1F
100
AcDbEntity
  8
0
100
AcDbCircle
 10
1011.631644792499
 20
1456.363527071863
 30
0.0
 40
90.5
  0
ARC
  5
339
330
1F
100
AcDbEntity
  8
0
100
AcDbCircle
 10
726.6316447924991
 20
1436.363527071863
 30
0.0
 40
115.0
100
AcDbArc
 50
90.0
 51
180.0
  0
ARC
  5
33C
330
1F
100
AcDbEntity
  8
0
100
AcDbCircle
 10
821.6316447924992
 20
1651.363527071863
 30
0.0
 40
100.0
100
AcDbArc
 50
270.0
 51
327.1335352609136
  0
ARC
  5
340
330
1F
100
AcDbEntity
  8
0
100
AcDbCircle
 10
959.3814179320579
 20
1562.363527071863
 30
0.0
 40
64.0
100
AcDbArc
 50
90.0
 51
147.1335352609138
  0
ARC
  5
370
330
1F
100
AcDbEntity
  8
0
100
AcDbCircle
 10
1201.631644792499
 20
1566.363527071863
 30
0.0
 40
60.0
100
AcDbArc
 50
0.000000000000007
 51
90.0
  0
ARC
  5
371
330
1F
100
AcDbEntity
  8
0
100
AcDbCircle
 10
671.6316447924992
 20
1566.363527071863
 30
0.0
 40
60.0
100
AcDbArc
 50
90.00000000000003
 51
180.0
  0
ARC
  5
372
330
1F
100
AcDbEntity
  8
0
100
AcDbCircle
 10
1201.631644792499
 20
1566.363527071863
 30
0.0
 40
77.0
100
AcDbArc
 50
0.000000000000007
 51
90.0
  0
ARC
  5
373
330
1F
100
AcDbEntity
  8
0
100
AcDbCircle
 10
671.6316447924992
 20
1566.363527071863
 30
0.0
 40
77.0
100
AcDbArc
 50
90.00000000000003
 51
180.0
  0
DIMENSION
  5
376
330
1F
100
AcDbEntity
  8
0
100
AcDbDimension
  2
*D8
 10
1261.631644792499
 20
1258.826449129649
 30
0.0
 11
1136.631644792499
 21
1277.576449129649
 31
0.0
 70
    32
 71
     5
 42
250.0
  3
ISO-25
100
AcDbAlignedDimension
 13
1011.631644792499
 23
1418.106438881084
 33
0.0
 14
1261.631644792499
 24
1436.363527071863
 34
0.0
 50
180.0
100
AcDbRotatedDimension
  0
DIMENSION
  5
384
330
1F
100
AcDbEntity
  8
0
100
AcDbDimension
  2
*D9
 10
851.2241425180606
 20
1626.363527071863
 30
0.0
 11
851.2241425180604
 21
1509.91392132299
 31
0.0
 70
   160
 71
     5
 42
170.0000000000002
  3
ISO-25
100
AcDbAlignedDimension
 13
950.0713610368139
 23
1456.363527071863
 33
0.0
 14
1201.631644792499
 24
1626.363527071863
 34
0.0
 50
90.0
100
AcDbRotatedDimension
  0
LINE
  5
39A
330
1F
100
AcDbEntity
  8
Cen
 48
0.8
100
AcDbLine
 10
877.5240831134206
 20
1456.363527071863
 30
0.0
 11
1145.739206471578
 21
1456.363527071863
 31
0.0
  0
LINE
  5
39B
330
1F
100
AcDbEntity
  8
Cen
 48
0.8
100
AcDbLine
 10
1011.631644792499
 20
1342.88612616137
 30
0.0
 11
1011.631644792499
 21
1569.840927982356
 31
0.0
  0
DIMENSION
  5
3B2
330
1F
100
AcDbEntity
  8
0
100
AcDbDimension
  2
*D10
 10
946.6316447924992
 20
1738.481483519025
 30
0.0
 11
1011.631644792499
 21
1757.231483519025
 31
0.0
 70
    32
 71
     5
 42
130.0
  3
ISO-25
100
AcDbAlignedDimension
 13
1076.631644792499
 23
1643.363527071863
 33
0.0
 14
946.6316447924992
 24
1643.363527071863
 34
0.0
 50
180.0
100
AcDbRotatedDimension
  0
DIMENSION
  5
3BF
330
1F
100
AcDbEntity
  8
0
100
AcDbDimension
  2
*D11
 10
881.6316447924991
 20
1792.981374834383
 30
0.0
 11
1011.631644792499
 21
1811.731374834383
 31
0.0
 70
    32
 71
     5
 42
260.0
  3
ISO-25
100
AcDbAlignedDimension
 13
1141.631644792499
 23
1708.363527071863
 33
0.0
 14
881.6316447924991
 24
1708.363527071863
 34
0.0
 50
180.0
100
AcDbRotatedDimension
  0
LINE
  5
3DD
330
1F
100
AcDbEntity
  8
Cen
100
AcDbLine
 10
881.6316447924991
 20
1773.363527071863
 30
0.0
 11
881.6316447924991
 21
1579.363527071863
 31
0.0
  0
LINE
  5
3DE
330
1F
100
AcDbEntity
  8
Cen
100
AcDbLine
 10
1141.631644792499
 20
1773.363527071863
 30
0.0
 11
1141.631644792499
 21
1579.363527071863
 31
0.0
  0
CIRCLE
  5
3DF
330
1F
100
AcDbEntity
  8
Cen
100
AcDbCircle
 10
881.6316447924991
 20
1611.363527071863
 30
0.0
 40
6.0
  0
CIRCLE
  5
3E0
330
1F
100
AcDbEntity
  8
Cen
100
AcDbCircle
 10
1141.631644792499
 20
1611.363527071863
 30
0.0
 40
6.0
  0
LINE
  5
3E3
330
1F
100
AcDbEntity
  8
Cen
100
AcDbLine
 10
1076.631644792499
 20
1738.481483519025
 30
0.0
 11
1076.631644792499
 21
1611.363527071863
 31
0.0
  0
LINE
  5
3E4
330
1F
100
AcDbEntity
  8
Cen
100
AcDbLine
 10
946.6316447924992
 20
1738.481483519025
 30
0.0
 11
946.6316447924992
 21
1611.363527071863
 31
0.0
  0
LINE
  5
407
330
1F
100
AcDbEntity
  8
0
100
AcDbLine
 10
1278.631644792499
 20
698.7963319408144
 30
0.0
 11
594.6316447924991
 21
698.7963319408144
 31
0.0
  0
LINE
  5
40A
330
1F
100
AcDbEntity
  8
0
100
AcDbLine
 10
1261.631644792499
 20
698.7963319408144
 30
0.0
 11
1261.631644792499
 21
547.8426817386685
 31
0.0
  0
LINE
  5
40B
330
1F
100
AcDbEntity
  8
0
100
AcDbLine
 10
611.6316447924991
 20
698.7963319408144
 30
0.0
 11
611.6316447924991
 21
556.9889791649711
 31
0.0
  0
LINE
  5
40D
330
1F
100
AcDbEntity
  8
0
100
AcDbLine
 10
1261.631644792499
 20
683.7963319408145
 30
0.0
 11
1076.631644792499
 21
683.7963319408145
 31
0.0
  0
LINE
  5
413
330
1F
100
AcDbEntity
  8
0
100
AcDbLine
 10
1102.131644792499
 20
501.7963319408147
 30
0.0
 11
1092.131644792499
 21
501.7963319408147
 31
0.0
  0
LINE
  5
414
330
1F
100
AcDbEntity
  8
0
100
AcDbLine
 10
1102.131644792499
 20
508.7963319408145
 30
0.0
 11
1102.131644792499
 21
501.7963319408145
 31
0.0
  0
LINE
  5
415
330
1F
100
AcDbEntity
  8
0
100
AcDbLine
 10
921.1316447924991
 20
508.7963319408145
 30
0.0
 11
921.1316447924991
 21
501.7963319408145
 31
0.0
  0
LINE
  5
419
330
1F
100
AcDbEntity
  8
0
100
AcDbLine
 10
1232.600444567495
 20
517.8583287025269
 30
0.0
 11
1122.131644792499
 21
510.7963319408147
 31
0.0
  0
LINE
  5
41A
330
1F
100
AcDbEntity
  8
0
100
AcDbLine
 10
639.7699548780465
 20
527.0467997075165
 30
0.0
 11
758.6260880316204
 21
519.6567810658434
 31
0.0
  0
LINE
  5
41E
330
1F
100
AcDbEntity
  8
0
100
AcDbLine
 10
1102.131644792499
 20
508.7963319408145
 30
0.0
 11
921.1316447924991
 21
508.7963319408145
 31
0.0
  0
ARC
  5
471
330
1F
100
AcDbEntity
  8
0
100
AcDbCircle
 10
1231.631644792499
 20
547.8426817386685
 30
0.0
 40
30.0
100
AcDbArc
 50
271.8505930230076
 51
360.0
  0
DIMENSION
  5
473
330
1F
100
AcDbEntity
  8
0
100
AcDbDimension
  2
*D12
 10
1091.131644792499
 20
380.4018572427994
 30
0.0
 11
1011.631644792499
 21
399.1518572427994
 31
0.0
 70
    32
  1
158
 71
     5
 42
159.0000000000002
  3
ISO-25
100
AcDbAlignedDimension
 13
932.1316447924992
 23
501.7963319408145
 33
0.0
 14
1091.131644792499
 24
501.7963319408147
 34
0.0
 50
180.0
100
AcDbRotatedDimension
  0
DIMENSION
  5
480
330
1F
100
AcDbEntity
  8
0
100
AcDbDimension
  2
*D13
 10
1102.131644792499
 20
610.9493564787863
 30
0.0
 11
1011.631644792499
 21
629.6993564787863
 31
0.0
 70
    32
 71
     5
 42
181.0
  3
ISO-25
100
AcDbAlignedDimension
 13
921.1316447924991
 23
508.7963319408145
 33
0.0
 14
1102.131644792499
 24
508.7963319408146
 34
0.0
 50
180.0
100
AcDbRotatedDimension
  0
LINE
  5
48E
330
1F
100
AcDbEntity
  8
Cen
100
AcDbLine
 10
1011.631644792499
 20
592.1019238960497
 30
0.0
 11
1011.631644792499
 21
477.5417899956901
 31
0.0
  0
LINE
  5
48F
330
1F
100
AcDbEntity
  8
0
100
AcDbLine
 10
1606.088790753451
 20
1643.363527071863
 30
0.0
 11
1606.08879075345
 21
1089.363527071863
 31
0.0
  0
LINE
  5
492
330
1F
100
AcDbEntity
  8
0
100
AcDbLine
 10
1606.088790753451
 20
1626.363527071863
 30
0.0
 11
1759.625974698676
 21
1626.363527071863
 31
0.0
  0
LINE
  5
493
330
1F
100
AcDbEntity
  8
0
100
AcDbLine
 10
1624.08879075345
 20
1551.363527071863
 30
0.0
 11
1766.088790753451
 21
1551.363527071863
 31
0.0
  0
LINE
  5
494
330
1F
100
AcDbEntity
  8
0
100
AcDbLine
 10
1606.08879075345
 20
1106.363527071863
 30
0.0
 11
1618.08879075345
 21
1106.363527071863
 31
0.0
  0
LINE
  5
495
330
1F
100
AcDbEntity
  8
0
100
AcDbLine
 10
1624.08879075345
 20
1121.363527071863
 30
0.0
 11
1757.290703204023
 21
1121.363527071863
 31
0.0
  0
LINE
  5
496
330
1F
100
AcDbEntity
  8
0
100
AcDbLine
 10
1621.08879075345
 20
1118.363527071863
 30
0.0
 11
1621.08879075345
 21
1109.363527071863
 31
0.0
  0
ARC
  5
498
330
1F
100
AcDbEntity
  8
0
100
AcDbCircle
 10
1618.08879075345
 20
1109.363527071863
 30
0.0
 40
3.0
100
AcDbArc
 50
270.0
 51
360.0
  0
ARC
  5
499
330
1F
100
AcDbEntity
  8
0
100
AcDbCircle
 10
1624.08879075345
 20
1118.363527071863
 30
0.0
 40
3.0
100
AcDbArc
 50
90.00000000000005
 51
179.9999999999999
  0
LINE
  5
49A
330
1F
100
AcDbEntity
  8
0
100
AcDbLine
 10
1621.08879075345
 20
1626.363527071863
 30
0.0
 11
1621.08879075345
 21
1554.363527071863
 31
0.0
  0
ARC
  5
49B
330
1F
100
AcDbEntity
  8
0
100
AcDbCircle
 10
1624.08879075345
 20
1554.363527071863
 30
0.0
 40
3.0
100
AcDbArc
 50
179.9999999999999
 51
270.0
  0
LINE
  5
49D
330
1F
100
AcDbEntity
  8
0
100
AcDbLine
 10
1621.08879075345
 20
1554.363527071863
 30
0.0
 11
1621.08879075345
 21
1109.363527071863
 31
0.0
  0
LINE
  5
49E
330
1F
100
AcDbEntity
  8
0
100
AcDbLine
 10
1796.088790753451
 20
1521.363527071863
 30
0.0
 11
1796.08879075345
 21
1365.863527071867
 31
0.0
  0
LINE
  5
4A7
330
1F
100
AcDbEntity
  8
0
100
AcDbLine
 10
1796.08879075345
 20
1365.863527071863
 30
0.0
 11
1787.265642741294
 21
1150.137558174633
 31
0.0
  0
ARC
  5
4AA
330
1F
100
AcDbEntity
  8
0
100
AcDbCircle
 10
1757.290703204023
 20
1151.363527071863
 30
0.0
 40
30.0
100
AcDbArc
 50
270.0
 51
357.6579196915298
  0
ARC
  5
4AB
330
1F
100
AcDbEntity
  8
0
100
AcDbCircle
 10
1766.088790753451
 20
1521.363527071863
 30
0.0
 40
30.0
100
AcDbArc
 50
359.9999999999999
 51
89.99999999999992
  0
LINE
  5
4AE
330
1F
100
AcDbEntity
  8
Cen
100
AcDbLine
 10
1701.494960973243
 20
1454.488527071863
 30
0.0
 11
1832.149373208565
 21
1454.488527071863
 31
0.0
  0
CIRCLE
  5
4AF
330
1F
100
AcDbEntity
  8
Cen
  6
HIDDEN2
 48
1.5
100
AcDbCircle
 10
1259.661984637074
 20
691.4183425686715
 30
0.0
 40
64.39211969241114
  0
ARC
  5
4B0
330
1F
100
AcDbEntity
  8
Cen
  6
Continuous
100
AcDbCircle
 10
1493.083403936147
 20
514.4798795643382
 30
0.0
 40
302.1247328958318
100
AcDbArc
 50
90.0
 51
130.5390852135428
  0
LINE
  5
4B4
330
1F
100
AcDbEntity
  8
Cen
100
AcDbLine
 10
1472.975693116201
 20
824.9501536329326
 30
0.0
 11
1493.083403936147
 21
816.6046124601701
 31
0.0
  0
LINE
  5
4B5
330
1F
100
AcDbEntity
  8
Cen
100
AcDbLine
 10
1493.083403936147
 20
816.6046124601701
 30
0.0
 11
1474.06075193299
 21
806.1572924281781
 31
0.0
  0
LINE
  5
4B7
330
1F
100
AcDbEntity
  8
0
100
AcDbLine
 10
1553.903304095991
 20
769.5660316749065
 30
0.0
 11
1875.924601042319
 21
769.5660316749063
 31
0.0
  0
LINE
  5
4B8
330
1F
100
AcDbEntity
  8
0
100
AcDbLine
 10
1705.924601042319
 20
739.5660316749062
 30
0.0
 11
1705.924601042319
 21
594.8878347937661
 31
0.0
  0
DIMENSION
  5
4C1
330
1F
100
AcDbEntity
  8
0
100
AcDbDimension
  2
*D14
 10
1705.924601042319
 20
875.7429731970843
 30
0.0
 11
1790.924601042319
 21
894.4929731970843
 31
0.0
 70
    32
  1
17
 71
     5
 42
170.0
  3
ISO-25
100
AcDbAlignedDimension
 13
1875.924601042319
 23
769.5660316749063
 33
0.0
 14
1705.924601042319
 24
769.5660316749063
 34
0.0
100
AcDbRotatedDimension
  0
ARC
  5
4CE
330
1F
100
AcDbEntity
  8
0
100
AcDbCircle
 10
1735.924601042319
 20
739.5660316749062
 30
0.0
 40
30.0
100
AcDbArc
 50
90.0
 51
180.0
  0
LINE
  5
4CF
330
1F
100
AcDbEntity
  8
0
100
AcDbLine
 10
1735.924601042319
 20
759.5660316749063
 30
0.0
 11
1875.924601042319
 21
759.5660316749063
 31
0.0
  0
ARC
  5
4D0
330
1F
100
AcDbEntity
  8
0
100
AcDbCircle
 10
1735.924601042319
 20
739.5660316749062
 30
0.0
 40
20.0
100
AcDbArc
 50
90.0
 51
180.0
  0
LINE
  5
4D1
330
1F
100
AcDbEntity
  8
0
100
AcDbLine
 10
1715.924601042319
 20
739.5660316749062
 30
0.0
 11
1715.924601042319
 21
594.8878347937661
 31
0.0
  0
LINE
  5
4D2
330
1F
100
AcDbEntity
  8
0
100
AcDbLine
 10
1875.924601042319
 20
769.5660316749063
 30
0.0
 11
1875.924601042319
 21
759.5660316749063
 31
0.0
  0
LEADER
  5
50F
330
1F
100
AcDbEntity
  8
0
100
AcDbLeader
  3
ISO-25
 40
25.0
 41
41.66666666666666
 76
     2
 10
874.1202970128416
 20
1617.309767812533
 30
0.0
 10
849.7872683704864
 20
1702.719542193165
 30
0.0
213
0.0
223
12.5
233
0.0
1001
ACAD
1000
DSTYLE
1002
{
1070
    41
1040
25.0
1070
   147
1040
6.25
1070
    77
1070
     0
1070
    73
1070
     1
1070
    74
1070
     1
1070
   342
1005
DA
1002
}
  0
TEXT
  5
511
330
1F
100
AcDbEntity
  8
0
100
AcDbText
 10
799.267419162046
 20
1715.32846844895
 30
0.0
 40
25.0
  1
12%%C
 72
     2
 11
857.6007524953793
 21
1711.995135115617
 31
0.0
100
AcDbText
 73
     1
  0
LEADER
  5
52C
330
1F
100
AcDbEntity
  8
0
100
AcDbLeader
  3
ISO-25
 40
33.33333333333333
 41
66.66666666666668
 76
     2
 10
654.9218972994967
 20
1111.622917961064
 30
0.0
 10
738.4998062179274
 20
1149.374872670863
 30
0.0
211
-1.0
221
0.0
231
0.0
210
0.0
220
0.0
230
-1.0
213
0.0
223
12.5
233
0.0
1001
ACAD
1000
DSTYLE
1002
{
1070
    41
1040
25.0
1070
   147
1040
6.25
1070
    77
1070
     0
1070
    73
1070
     1
1070
    74
1070
     1
1070
   279
1070
     1
1070
   342
1005
DA
1002
}
  0
TEXT
  5
52E
330
1F
100
AcDbEntity
  8
0
100
AcDbText
 10
748.7300565692481
 20
1136.69222536247
 30
0.0
 40
25.0
  1
132R
 72
     2
 11
832.0633899025816
 21
1133.358892029137
 31
0.0
100
AcDbText
 73
     1
  0
MTEXT
  5
532
330
1F
100
AcDbEntity
  8
0
100
AcDbMText
 10
1469.226616777811
 20
1181.110374981098
 30
0.0
 40
25.0
 41
0.0
 71
     9
 72
     1
  1

 73
     1
 44
1.0
1001
ACAD
1000
MTEXTBEGIN
1070
    73
1070
     1
1070
    44
1040
1.0
1070
    74
1070
     0
1000
MTEXTEND
  0
LEADER
  5
533
330
1F
100
AcDbEntity
  8
0
100
AcDbLeader
  3
ISO-25
 40
25.0
 41
16.66666666666666
 76
     2
 10
649.5461936671345
 20
1142.96092459552
 30
0.0
 10
736.2100007224853
 20
1197.422819356277
 30
0.0
211
-1.0
221
0.0
231
0.0
210
0.0
220
0.0
230
-1.0
213
97.31675022588753
223
44.53196128345098
233
0.0
1001
ACAD
1000
DSTYLE
1002
{
1070
    41
1040
25.0
1070
   147
1040
6.25
1070
    77
1070
     0
1070
    73
1070
     1
1070
    74
1070
     1
1070
   279
1070
     1
1070
   342
1005
DA
1002
}
  0
TEXT
  5
537
330
1F
100
AcDbEntity
  8
0
100
AcDbText
 10
745.7807877262239
 20
1192.748164748867
 30
0.0
 40
25.0
  1
115R
 72
     2
 11
820.7807877262238
 21
1189.414831415533
 31
0.0
100
AcDbText
 73
     1
  0
LEADER
  5
53A
330
1F
100
AcDbEntity
  8
0
100
AcDbLeader
  3
ISO-25
 40
25.0
 41
16.66666666666666
 76
     2
 10
629.7340285148293
 20
1177.974839802599
 30
0.0
 10
692.7036879742845
 20
1237.462773340709
 30
0.0
211
-1.0
221
0.0
231
0.0
210
0.0
220
0.0
230
-1.0
213
0.0
223
12.5
233
0.0
1001
ACAD
1000
DSTYLE
1002
{
1070
    41
1040
25.0
1070
   147
1040
6.25
1070
    77
1070
     0
1070
    73
1070
     1
1070
    74
1070
     1
1070
   279
1070
     1
1070
   342
1005
DA
1002
}
  0
TEXT
  5
53C
330
1F
100
AcDbEntity
  8
0
100
AcDbText
 10
701.4825330395033
 20
1236.220112885012
 30
0.0
 40
25.0
  1
115R
 72
     2
 11
776.4825330395033
 21
1232.886779551679
 31
0.0
100
AcDbText
 73
     1
  0
LEADER
  5
53D
330
1F
100
AcDbEntity
  8
0
100
AcDbLeader
  3
ISO-25
 40
25.0
 41
16.66666666666666
 76
     2
 10
1023.108374078652
 20
1130.82154893599
 30
0.0
 10
997.3323439817331
 20
1177.656115889428
 30
0.0
211
-1.0
221
0.0
231
0.0
210
0.0
220
0.0
230
-1.0
213
0.0
223
-12.5
233
0.0
1001
ACAD
1000
DSTYLE
1002
{
1070
    41
1040
25.0
1070
   147
1040
6.25
1070
    77
1070
     0
1070
    73
1070
     1
1070
    74
1070
     1
1070
   279
1070
     1
1070
   342
1005
DA
1002
}
  0
TEXT
  5
53F
330
1F
100
AcDbEntity
  8
0
100
AcDbText
 10
902.9403093478668
 20
1192.281466799411
 30
0.0
 40
25.0
  1
10000R
 11
902.9403093478668
 21
1188.948133466078
 31
0.0
100
AcDbText
 73
     1
  0
LEADER
  5
540
330
1F
100
AcDbEntity
  8
0
100
AcDbLeader
  3
ISO-25
 76
     2
 10
612.560487299017
 20
1332.940753575016
 30
0.0
 10
708.7323347771853
 20
1332.940753575016
 30
0.0
211
-1.0
221
0.0
231
0.0
210
0.0
220
0.0
230
-1.0
1001
ACAD
1000
DSTYLE
1002
{
1070
    41
1040
25.0
1070
   147
1040
6.25
1070
    77
1070
     0
1070
    73
1070
     1
1070
    74
1070
     1
1070
   279
1070
     1
1070
   342
1005
DA
1002
}
  0
TEXT
  5
54B
330
1F
100
AcDbEntity
  8
0
100
AcDbText
 10
724.6038363993957
 20
1320.440753575016
 30
0.0
 40
25.0
  1
1500R
 72
     2
 11
824.6038363993957
 21
1332.940753575016
 31
0.0
100
AcDbText
 73
     2
  0
LEADER
  5
54C
330
1F
100
AcDbEntity
  8
0
100
AcDbLeader
  3
ISO-25
 40
25.0
 41
16.66666666666666
 76
     2
 10
624.0095147762258
 20
1598.96635407768
 30
0.0
 10
654.5024175943035
 20
1489.018280122892
 30
0.0
211
-1.0
221
0.0
231
0.0
210
0.0
220
0.0
230
-1.0
213
0.0
223
12.5
233
0.0
1001
ACAD
1000
DSTYLE
1002
{
1070
    41
1040
25.0
1070
   147
1040
6.25
1070
    77
1070
     0
1070
    73
1070
     1
1070
    74
1070
     1
1070
   279
1070
     1
1070
   342
1005
DA
1002
}
  0
TEXT
  5
54E
330
1F
100
AcDbEntity
  8
0
100
AcDbText
 10
629.9861884240145
 20
1456.322748080743
 30
0.0
 40
25.0
  1
60R
 72
     2
 11
692.4861884240145
 21
1452.98941474741
 31
0.0
100
AcDbText
 73
     1
  0
LEADER
  5
558
330
1F
100
AcDbEntity
  8
0
100
AcDbLeader
  3
ISO-25
 40
25.0
 41
16.66666666666666
 76
     2
 10
1094.541226631446
 20
1611.697451494553
 30
0.0
 10
1039.609287212168
 20
1588.670366862302
 30
0.0
211
-1.0
221
0.0
231
0.0
210
0.0
220
0.0
230
-1.0
213
0.0
223
-12.5
233
0.0
1001
ACAD
1000
DSTYLE
1002
{
1070
    41
1040
25.0
1070
   147
1040
6.25
1070
    77
1070
     0
1070
    73
1070
     1
1070
    74
1070
     1
1070
   279
1070
     1
1070
   342
1005
DA
1002
}
  0
TEXT
  5
55A
330
1F
100
AcDbEntity
  8
0
100
AcDbText
 10
959.793620264536
 20
1581.151881466724
 30
0.0
 40
25.0
  1
64R
 11
959.793620264536
 21
1577.818548133391
 31
0.0
100
AcDbText
 73
     1
  0
MTEXT
  5
55C
330
1F
100
AcDbEntity
  8
0
100
AcDbMText
 10
1010.02660136874
 20
1423.470120422065
 30
0.0
 40
25.0
 41
0.0
 71
     1
 72
     1
  1

 73
     1
 44
1.0
1001
ACAD
1000
MTEXTBEGIN
1070
    73
1070
     1
1070
    44
1040
1.0
1070
    74
1070
     0
1000
MTEXTEND
  0
LEADER
  5
55D
330
1F
100
AcDbEntity
  8
0
100
AcDbLeader
  3
ISO-25
 40
25.0
 41
16.66666666666666
 76
     2
 10
780.5793448298263
 20
1545.307442487703
 30
0.0
 10
748.9451232905976
 20
1429.391895627236
 30
0.0
211
-1.0
221
0.0
231
0.0
210
0.0
220
0.0
230
-1.0
213
0.0
223
-12.5
233
0.0
1001
ACAD
1000
DSTYLE
1002
{
1070
    41
1040
25.0
1070
   147
1040
6.25
1070
    77
1070
     0
1070
    73
1070
     1
1070
    74
1070
     1
1070
   279
1070
     1
1070
   342
1005
DA
1002
}
  0
TEXT
  5
55F
330
1F
100
AcDbEntity
  8
0
100
AcDbText
 10
686.4926427466489
 20
1390.095649563828
 30
0.0
 40
25.0
  1
10000R
 11
686.4926427466489
 21
1415.095649563828
 31
0.0
100
AcDbText
 73
     3
  0
LEADER
  5
560
330
1F
100
AcDbEntity
  8
0
100
AcDbLeader
  3
ISO-25
 40
25.0
 41
16.66666666666666
 76
     2
 10
1215.691517091532
 20
1531.306779359953
 30
0.0
 10
1176.923422306918
 20
1499.344224102384
 30
0.0
211
-1.0
221
0.0
231
0.0
210
0.0
220
0.0
230
-1.0
213
0.0
223
-12.5
233
0.0
1001
ACAD
1000
DSTYLE
1002
{
1070
    41
1040
25.0
1070
   147
1040
6.25
1070
    77
1070
     0
1070
    73
1070
     1
1070
    74
1070
     1
1070
   279
1070
     1
1070
   342
1005
DA
1002
}
  0
TEXT
  5
562
330
1F
100
AcDbEntity
  8
0
100
AcDbText
 10
1128.160378837974
 20
1464.537307788521
 30
0.0
 40
25.0
  1
100R
 11
1128.160378837974
 21
1489.537307788521
 31
0.0
100
AcDbText
 73
     3
  0
LEADER
  5
563
330
1F
100
AcDbEntity
  8
0
100
AcDbLeader
  3
ISO-25
 40
33.33333333333333
 41
16.66666666666667
 76
     2
 10
625.3050721617892
 20
1620.191081107672
 30
0.0
 10
698.2934818020075
 20
1598.476060518524
 30
0.0
213
0.0
223
-12.5
233
0.0
1001
ACAD
1000
DSTYLE
1002
{
1070
   147
1040
6.25
1070
    77
1070
     0
1070
    73
1070
     1
1070
    74
1070
     1
1070
   279
1070
     1
1070
   342
1005
DA
1002
}
  0
TEXT
  5
565
330
1F
100
AcDbEntity
  8
0
100
AcDbText
 10
708.3816491222023
 20
1583.721844607345
 30
0.0
 40
25.0
  1
77R
 11
708.3816491222023
 21
1608.721844607346
 31
0.0
100
AcDbText
 73
     3
  0
LEADER
  5
566
330
1F
100
AcDbEntity
  8
0
100
AcDbLeader
  3
ISO-25
 40
25.0
 41
16.66666666666666
 76
     2
 10
1146.878149231631
 20
1559.395086207995
 30
0.0
 10
1147.847347390571
 20
1498.375665527387
 30
0.0
211
-1.0
221
0.0
231
0.0
210
0.0
220
0.0
230
-1.0
213
0.0
223
12.5
233
0.0
1001
ACAD
1000
DSTYLE
1002
{
1070
    41
1040
25.0
1070
   147
1040
6.25
1070
    77
1070
     0
1070
    73
1070
     1
1070
    74
1070
     1
1070
   279
1070
     1
1070
   342
1005
DA
1002
}
  0
LINE
  5
56A
330
1F
100
AcDbEntity
  8
補助
100
AcDbLine
 10
2784.0
 20
134.0
 30
0.0
 11
2784.0
 21
199.0
 31
0.0
  0
TEXT
  5
56C
330
1F
100
AcDbEntity
  8
0
100
AcDbText
 10
2198.166666666667
 20
149.0
 30
0.0
 40
35.0
  1
PRS650-520GRM-OFR
 72
     4
 11
2484.0
 21
166.5
 31
0.0
100
AcDbText
  0
DIMENSION
  5
586
330
1F
100
AcDbEntity
  8
0
100
AcDbDimension
  2
*D15
 10
1169.40420536414
 20
1626.363527071863
 30
0.0
 11
1171.647291788848
 21
1666.821385555935
 31
0.0
 70
   160
 71
     5
 42
15.00000000000023
  3
ISO-25
100
AcDbAlignedDimension
 13
1093.376708768597
 23
1611.363527071863
 33
0.0
 14
1076.631644792499
 24
1626.363527071863
 34
0.0
 50
90.0
100
AcDbRotatedDimension
1001
ACAD
1000
DSTYLE
1002
{
1070
   279
1070
     2
1002
}
  0
LINE
  5
59F
330
1F
100
AcDbEntity
  8
Cen
100
AcDbLine
 10
1160.639795176398
 20
1611.363527071864
 30
0.0
 11
1126.119073662166
 21
1611.363527071863
 31
0.0
  0
LINE
  5
5A0
330
1F
100
AcDbEntity
  8
Cen
100
AcDbLine
 10
897.4193071744439
 20
1611.363527071863
 30
0.0
 11
864.516747216051
 21
1611.363527071863
 31
0.0
  0
LINE
  5
5A1
330
1F
100
AcDbEntity
  8
Cen
100
AcDbLine
 10
897.9586943597251
 20
1611.363527071863
 30
0.0
 11
861.2822692068567
 21
1610.820266281287
 31
0.0
  0
MTEXT
  5
5A9
330
1F
100
AcDbEntity
  8
Cen
100
AcDbMText
 10
1527.939315450184
 20
552.4831097022406
 30
0.0
 40
25.0
 41
0.0
 71
     9
 72
     1
  1

 73
     1
 44
1.0
1001
ACAD
1000
MTEXTBEGIN
1070
    73
1070
     1
1070
    44
1040
1.0
1070
    74
1070
     0
1000
MTEXTEND
  0
LEADER
  5
5AA
330
1F
100
AcDbEntity
  8
Cen
100
AcDbLeader
  3
ISO-25
 40
25.0
 41
16.66666666666666
 76
     2
 10
620.1673534862647
 20
545.1337172531962
 30
0.0
 10
649.043765788293
 20
594.9782153006567
 30
0.0
211
-1.0
221
0.0
231
0.0
210
0.0
220
0.0
230
-1.0
213
0.0
223
12.5
233
0.0
1001
ACAD
1000
DSTYLE
1002
{
1070
    41
1040
25.0
1070
   147
1040
6.25
1070
    77
1070
     0
1070
   279
1070
     1
1002
}
  0
TEXT
  5
5AD
330
1F
100
AcDbEntity
  8
0
100
AcDbText
 10
647.2796675204199
 20
602.8484021733161
 30
0.0
 40
25.0
  1
30R
100
AcDbText
  0
LEADER
  5
5AE
330
1F
100
AcDbEntity
  8
Cen
100
AcDbLeader
  3
ISO-25
 40
25.0
 41
16.66666666666666
 76
     2
 10
1715.391773136427
 20
761.4384567390599
 30
0.0
 10
1770.08079974408
 20
692.9285223810138
 30
0.0
213
0.0
223
-12.5
233
0.0
1001
ACAD
1000
DSTYLE
1002
{
1070
    41
1040
25.0
1070
   147
1040
6.25
1070
    77
1070
     0
1070
   279
1070
     1
1002
}
  0
TEXT
  5
5B0
330
1F
100
AcDbEntity
  8
0
100
AcDbText
 10
1777.463693643608
 20
668.6896167828763
 30
0.0
 40
25.0
  1
3R
100
AcDbText
  0
LEADER
  5
5B2
330
1F
100
AcDbEntity
  8
Cen
100
AcDbLeader
  3
ISO-25
 40
25.0
 41
16.66666666666666
 76
     2
 10
1622.569237752487
 20
1551.776838324205
 30
0.0
 10
1567.396308980719
 20
1515.742564720903
 30
0.0
213
0.0
223
12.5
233
0.0
1001
ACAD
1000
DSTYLE
1002
{
1070
    41
1040
25.0
1070
   147
1040
6.25
1070
    77
1070
     0
1070
   279
1070
     1
1002
}
  0
LEADER
  5
5B4
330
1F
100
AcDbEntity
  8
Cen
100
AcDbLeader
  3
ISO-25
 76
     2
 10
1622.179315615131
 20
1120.677377692828
 30
0.0
 10
1677.975914664029
 20
1076.805460187642
 30
0.0
1001
ACAD
1000
DSTYLE
1002
{
1070
    41
1040
25.0
1070
   147
1040
6.25
1070
    77
1070
     0
1070
   279
1070
     1
1002
}
  0
TEXT
  5
5B7
330
1F
100
AcDbEntity
  8
0
100
AcDbText
 10
1681.895306286752
 20
1048.239545819304
 30
0.0
 40
25.0
  1
3R
100
AcDbText
  0
LEADER
  5
5B8
330
1F
100
AcDbEntity
  8
Cen
100
AcDbLeader
  3
ISO-25
 76
     2
 10
1620.133930729947
 20
1107.168668881334
 30
0.0
 10
1569.155203632269
 20
1143.152101392732
 30
0.0
1001
ACAD
1000
DSTYLE
1002
{
1070
    41
1040
25.0
1070
   147
1040
6.25
1070
    77
1070
     0
1070
   279
1070
     1
1002
}
  0
TEXT
  5
5B9
330
1F
100
AcDbEntity
  8
0
100
AcDbText
 10
1522.122512493503
 20
1133.246177632207
 30
0.0
 40
25.0
  1
3R
100
AcDbText
  0
TEXT
  5
5BA
330
1F
100
AcDbEntity
  8
0
100
AcDbText
 10
1519.430254348447
 20
1482.963108538926
 30
0.0
 40
25.0
  1
3R
100
AcDbText
  0
LINE
  5
5D0
330
1F
100
AcDbEntity
  8
補助
100
AcDbLine
 10
2784.0
 20
69.0
 30
0.0
 11
2784.0
 21
134.0
 31
0.0
  0
TEXT
  5
5D2
330
1F
100
AcDbEntity
  8
0
100
AcDbText
 10
2430.916666666667
 20
84.0
 30
0.0
 40
35.0
  1
1：10
 72
     4
 11
2484.0
 21
101.5
 31
0.0
100
AcDbText
  0
TEXT
  5
5D8
330
1F
100
AcDbEntity
  8
0
100
AcDbText
 10
231.1659029702105
 20
53.51169987015055
 30
0.0
 40
30.0
  1
※実寸には製造上の誤差が多少生ずる場合があります。シンクの穴あけ加工は現物合わせにてお願いします。
100
AcDbText
  0
TEXT
  5
5F4
330
1F
100
AcDbEntity
  8
補助
100
AcDbText
 10
2300.255774665348
 20
16.49999999999999
 30
0.0
 40
40.0
  1
中外交易株式会社
 72
     4
 11
2488.255774665347
 21
36.5
 31
0.0
100
AcDbText
  0
LINE
  5
5F5
330
1F
100
AcDbEntity
  8
補助
100
AcDbLine
 10
2064.0
 20
69.0
 30
0.0
 11
2784.0
 21
69.0
 31
0.0
  0
HATCH
  5
5F6
330
1F
100
AcDbEntity
  8
補助
100
AcDbHatch
 10
0.0
 20
0.0
 30
0.0
210
0.0
220
0.0
230
1.0
  2
SOLID
 70
     1
 71
     1
 91
        3
 92
        1
 93
        4
 72
     2
 10
2257.166198313996
 20
36.5
 40
20.0
 50
11.6477236670766
 51
342.6561058784691
 73
     1
 72
     1
 10
2276.256852341323
 20
30.53787547858514
 11
2252.166198313995
 21
30.53787547858519
 72
     1
 10
2252.166198313995
 20
30.53787547858519
 11
2252.166198313995
 21
40.53787547858519
 72
     1
 10
2252.166198313995
 20
40.53787547858519
 11
2276.75434681301
 21
40.53787547858519
 97
        4
330
5F7
330
5F9
330
5FA
330
5FB
 92
        1
 93
        4
 72
     2
 10
2188.255774665348
 20
36.5
 40
20.0
 50
11.6477236670766
 51
342.6561058784691
 73
     1
 72
     1
 10
2207.346428692676
 20
30.53787547858514
 11
2183.255774665347
 21
30.53787547858519
 72
     1
 10
2183.255774665347
 20
30.53787547858519
 11
2183.255774665347
 21
40.53787547858519
 72
     1
 10
2183.255774665347
 20
40.53787547858519
 11
2207.843923164362
 21
40.53787547858519
 97
        4
330
5F8
330
601
330
602
330
603
 92
        1
 93
        5
 72
     1
 10
2245.64189404294
 20
56.5
 11
2210.641894042939
 21
56.5
 72
     1
 10
2210.641894042939
 20
56.5
 11
2210.641894042939
 21
16.5
 72
     1
 10
2210.641894042939
 20
16.5
 11
2245.64189404294
 21
16.5
 72
     1
 10
2245.64189404294
 20
16.5
 11
2210.641894042939
 21
36.5
 72
     1
 10
2210.641894042939
 20
36.5
 11
2245.64189404294
 21
56.5
 97
        5
330
5FC
330
600
330
5FF
330
5FE
330
5FD
 75
     0
 76
     1
 98
        1
 10
-60.0
 20
0.0
  0
ARC
  5
5F7
102
{ACAD_REACTORS
330
5F6
102
}
330
1F
100
AcDbEntity
  8
補助
370
     5
100
AcDbCircle
 10
2257.166198313996
 20
36.5
 30
0.0
 40
20.0
100
AcDbArc
 50
11.6477236670766
 51
342.6561058784691
  0
ARC
  5
5F8
102
{ACAD_REACTORS
330
5F6
102
}
330
1F
100
AcDbEntity
  8
補助
370
     5
100
AcDbCircle
 10
2188.255774665348
 20
36.5
 30
0.0
 40
20.0
100
AcDbArc
 50
11.6477236670766
 51
342.6561058784691
  0
LINE
  5
5F9
102
{ACAD_REACTORS
330
5F6
102
}
330
1F
100
AcDbEntity
  8
補助
370
     5
100
AcDbLine
 10
2252.166198313995
 20
30.53787547858519
 30
0.0
 11
2276.256852341323
 21
30.53787547858514
 31
0.0
  0
LINE
  5
5FA
102
{ACAD_REACTORS
330
5F6
102
}
330
1F
100
AcDbEntity
  8
補助
370
     5
100
AcDbLine
 10
2252.166198313995
 20
40.53787547858519
 30
0.0
 11
2252.166198313995
 21
30.53787547858519
 31
0.0
  0
LINE
  5
5FB
102
{ACAD_REACTORS
330
5F6
102
}
330
1F
100
AcDbEntity
  8
補助
370
     5
100
AcDbLine
 10
2276.75434681301
 20
40.53787547858519
 30
0.0
 11
2252.166198313995
 21
40.53787547858519
 31
0.0
  0
LINE
  5
5FC
102
{ACAD_REACTORS
330
5F6
102
}
330
1F
100
AcDbEntity
  8
補助
370
     5
100
AcDbLine
 10
2245.64189404294
 20
56.5
 30
0.0
 11
2210.641894042939
 21
56.5
 31
0.0
  0
LINE
  5
5FD
102
{ACAD_REACTORS
330
5F6
102
}
330
1F
100
AcDbEntity
  8
補助
370
     5
100
AcDbLine
 10
2210.641894042939
 20
36.5
 30
0.0
 11
2245.64189404294
 21
56.5
 31
0.0
  0
LINE
  5
5FE
102
{ACAD_REACTORS
330
5F6
102
}
330
1F
100
AcDbEntity
  8
補助
370
     5
100
AcDbLine
 10
2245.64189404294
 20
16.5
 30
0.0
 11
2210.641894042939
 21
36.5
 31
0.0
  0
LINE
  5
5FF
102
{ACAD_REACTORS
330
5F6
102
}
330
1F
100
AcDbEntity
  8
補助
370
     5
100
AcDbLine
 10
2210.641894042939
 20
16.5
 30
0.0
 11
2245.64189404294
 21
16.5
 31
0.0
  0
LINE
  5
600
102
{ACAD_REACTORS
330
5F6
102
}
330
1F
100
AcDbEntity
  8
補助
370
     5
100
AcDbLine
 10
2210.641894042939
 20
56.5
 30
0.0
 11
2210.641894042939
 21
16.5
 31
0.0
  0
LINE
  5
601
102
{ACAD_REACTORS
330
5F6
102
}
330
1F
100
AcDbEntity
  8
補助
370
     5
100
AcDbLine
 10
2183.255774665347
 20
30.53787547858519
 30
0.0
 11
2207.346428692676
 21
30.53787547858514
 31
0.0
  0
LINE
  5
602
102
{ACAD_REACTORS
330
5F6
102
}
330
1F
100
AcDbEntity
  8
補助
370
     5
100
AcDbLine
 10
2183.255774665347
 20
40.53787547858519
 30
0.0
 11
2183.255774665347
 21
30.53787547858519
 31
0.0
  0
LINE
  5
603
102
{ACAD_REACTORS
330
5F6
102
}
330
1F
100
AcDbEntity
  8
補助
370
     5
100
AcDbLine
 10
2207.843923164362
 20
40.53787547858519
 30
0.0
 11
2183.255774665347
 21
40.53787547858519
 31
0.0
  0
LINE
  5
A29
330
1F
100
AcDbEntity
  8
補助
100
AcDbLine
 10
2064.0
 20
4.0
 30
0.0
 11
2064.0
 21
199.0
 31
0.0
  0
TEXT
  5
A2C
330
1F
100
AcDbEntity
  8
補助
100
AcDbText
 10
2086.666666666667
 20
149.0
 30
0.0
 40
35.0
  1
品番
 72
     4
 11
2124.0
 21
166.5
 31
0.0
100
AcDbText
  0
TEXT
  5
A2D
330
1F
100
AcDbEntity
  8
補助
100
AcDbText
 10
2086.666666666667
 20
84.0
 30
0.0
 40
35.0
  1
尺度
 72
     4
 11
2124.0
 21
101.5
 31
0.0
100
AcDbText
  0
CIRCLE
  5
C9F
330
1F
100
AcDbEntity
  8
0
370
    13
100
AcDbCircle
 10
1011.631644792499
 20
1456.363527071863
 30
0.0
 40
110.5
  0
LINE
  5
CB5
330
1F
100
AcDbEntity
  8
実形
370
    13
100
AcDbLine
 10
928.7352546626653
 20
1358.468717976096
 30
0.0
 11
681.0674543486174
 21
1501.459789157015
 31
0.0
  0
ARC
  5
DCC
330
1F
100
AcDbEntity
  8
0
100
AcDbCircle
 10
1063.88187165294
 20
1562.363527071863
 30
0.0
 40
64.0
100
AcDbArc
 50
32.86646473908621
 51
90.0
  0
ARC
  5
DCD
330
1F
100
AcDbEntity
  8
0
100
AcDbCircle
 10
1201.631644792499
 20
1651.363527071863
 30
0.0
 40
100.0
100
AcDbArc
 50
212.8664647390864
 51
258.4630409671845
  0
ARC
  5
DCF
330
1F
100
AcDbEntity
  8
0
100
AcDbCircle
 10
1161.631644792499
 20
1455.404347649209
 30
0.0
 40
100.0
100
AcDbArc
 50
0.000000000000007
 51
78.46304096718451
  0
LINE
  5
DD0
330
1F
100
AcDbEntity
  8
実形
370
    13
100
AcDbLine
 10
1238.195633289581
 20
1441.873560099268
 30
0.0
 11
1093.734209134987
 21
1358.468717976097
 31
0.0
  0
ARC
  5
DD1
330
1F
100
AcDbEntity
  8
実形
370
    13
100
AcDbCircle
 10
1011.234731898826
 20
1501.362004146999
 30
0.0
 40
164.9989544723223
100
AcDbArc
 50
239.9999999999999
 51
300.0
  0
ARC
  5
DE6
330
1F
100
AcDbEntity
  8
実形
370
    13
100
AcDbCircle
 10
1011.234731898826
 20
1501.362004146999
 30
0.0
 40
160.2489544723223
100
AcDbArc
 50
239.9999999999999
 51
300.0
  0
LINE
  5
DE7
330
1F
100
AcDbEntity
  8
実形
370
    13
100
AcDbLine
 10
931.1102546626653
 20
1362.582338644072
 30
0.0
 11
681.0674543486174
 21
1501.459789157015
 31
0.0
  0
LINE
  5
DE8
330
1F
100
AcDbEntity
  8
実形
370
    13
100
AcDbLine
 10
1238.195633289581
 20
1441.873560099268
 30
0.0
 11
1091.359209134987
 21
1362.582338644073
 31
0.0
  0
LINE
  5
E77
330
1F
100
AcDbEntity
  8
0
100
AcDbLine
 10
946.6316447924992
 20
683.7963319408145
 30
0.0
 11
611.6316447924996
 21
683.7963319408145
 31
0.0
  0
LINE
  5
E7F
330
1F
100
AcDbEntity
  8
実形
100
AcDbLine
 10
921.1316447924991
 20
508.7963319408145
 30
0.0
 11
901.1316447924992
 21
510.7963319408147
 31
0.0
  0
LINE
  5
E80
330
1F
100
AcDbEntity
  8
実形
100
AcDbLine
 10
1122.131644792499
 20
510.7963319408147
 30
0.0
 11
1102.131644792499
 21
508.7963319408145
 31
0.0
  0
DIMENSION
  5
E81
330
1F
100
AcDbEntity
  8
実形
100
AcDbDimension
  2
*D16
 10
901.1316447924992
 20
610.9493564787863
 30
0.0
 11
911.5812704130085
 21
615.4590454489667
 31
0.0
 70
   160
 71
     5
 42
20.0
  3
ISO-25
100
AcDbAlignedDimension
 13
921.1316447924991
 23
508.7963319408145
 33
0.0
 14
901.1316447924992
 24
508.7963319408147
 34
0.0
 50
180.0
100
AcDbRotatedDimension
1001
ACAD
1000
DSTYLE
1002
{
1070
   279
1070
     1
1002
}
  0
DIMENSION
  5
E8E
330
1F
100
AcDbEntity
  8
実形
100
AcDbDimension
  2
*D17
 10
1122.131644792499
 20
610.9493564787863
 30
0.0
 11
1112.971364447667
 21
616.1103651936387
 31
0.0
 70
   160
 71
     5
 42
20.0
  3
ISO-25
100
AcDbAlignedDimension
 13
1102.131644792499
 23
508.7963319408146
 33
0.0
 14
1122.131644792499
 24
508.7963319408147
 34
0.0
 50
180.0
100
AcDbRotatedDimension
1001
ACAD
1000
DSTYLE
1002
{
1070
   279
1070
     1
1002
}
  0
LEADER
  5
EAD
330
1F
100
AcDbEntity
  8
Cen
100
AcDbLeader
  3
ISO-25
 40
25.0
 41
16.66666666666666
 76
     2
 10
1182.895202484223
 20
519.7287527489866
 30
0.0
 10
1205.578904201257
 20
578.9997411466283
 30
0.0
211
-1.0
221
0.0
231
0.0
210
0.0
220
0.0
230
-1.0
213
0.0
223
12.5
233
0.0
1001
ACAD
1000
DSTYLE
1002
{
1070
    41
1040
25.0
1070
   147
1040
6.25
1070
    77
1070
     0
1070
   279
1070
     1
1002
}
  0
TEXT
  5
EAE
330
1F
100
AcDbEntity
  8
0
100
AcDbText
 10
1140.108191348407
 20
588.2891184299851
 30
0.0
 40
25.0
  1
4500R
100
AcDbText
  0
LINE
  5
EB1
330
1F
100
AcDbEntity
  8
実形
100
AcDbLine
 10
901.1316447924974
 20
510.7963319408149
 30
0.0
 11
761.4798825745838
 21
515.7450600424535
 31
0.0
  0
LINE
  5
EB2
330
1F
100
AcDbEntity
  8
実形
100
AcDbLine
 10
760.0330035358974
 20
517.2441191351743
 30
0.0
 11
760.0330035358974
 21
518.1596720929708
 31
0.0
  0
ARC
  5
EB6
330
1F
100
AcDbEntity
  8
実形
100
AcDbCircle
 10
758.5330035358975
 20
518.1596720929708
 30
0.0
 40
1.5
100
AcDbArc
 50
0.000000000000007
 51
86.44214813388188
  0
ARC
  5
EB7
330
1F
100
AcDbEntity
  8
実形
100
AcDbCircle
 10
761.5330035358974
 20
517.2441191351743
 30
0.0
 40
1.5
100
AcDbArc
 50
180.0
 51
267.9705043760164
  0
ARC
  5
EB8
330
1F
100
AcDbEntity
  8
0
100
AcDbCircle
 10
641.6316447924991
 20
556.9889791649711
 30
0.0
 40
30.0
100
AcDbArc
 50
180.0000000000001
 51
266.4421481338818
  0
TEXT
  5
EB9
330
1F
100
AcDbEntity
  8
0
100
AcDbText
 10
736.9914806932237
 20
594.9782153006567
 30
0.0
 40
25.0
  1
4500R
100
AcDbText
  0
LEADER
  5
EBA
330
1F
100
AcDbEntity
  8
Cen
100
AcDbLeader
  3
ISO-25
 40
25.0
 41
16.66666666666666
 76
     2
 10
815.3772312110477
 20
517.1053571247671
 30
0.0
 10
803.92634295074
 20
581.8612418827365
 30
0.0
211
-1.0
221
0.0
231
0.0
210
0.0
220
0.0
230
-1.0
213
0.0
223
12.5
233
0.0
1001
ACAD
1000
DSTYLE
1002
{
1070
    41
1040
25.0
1070
   147
1040
6.25
1070
    77
1070
     0
1070
   279
1070
     1
1002
}
  0
LEADER
  5
EBB
330
1F
100
AcDbEntity
  8
Cen
100
AcDbLeader
  3
ISO-25
 40
25.0
 41
16.66666666666666
 76
     2
 10
711.6846573269313
 20
527.5989349184669
 30
0.0
 10
763.2368476689471
 20
580.5495440706267
 30
0.0
211
-1.0
221
0.0
231
0.0
210
0.0
220
0.0
230
-1.0
213
0.0
223
12.5
233
0.0
1001
ACAD
1000
DSTYLE
1002
{
1070
    41
1040
25.0
1070
   147
1040
6.25
1070
    77
1070
     0
1070
   279
1070
     1
1002
}
  0
LINE
  5
ED9
330
1F
100
AcDbEntity
  8
0
100
AcDbLine
 10
1553.903304095991
 20
619.5660316749062
 30
0.0
 11
1675.924601042319
 21
619.5660316749062
 31
0.0
  0
LINE
  5
EDA
330
1F
100
AcDbEntity
  8
実形
100
AcDbLine
 10
1705.924601042319
 20
739.5660316749062
 30
0.0
 11
1705.924601042319
 21
649.5660316749063
 31
0.0
  0
ARC
  5
EDC
330
1F
100
AcDbEntity
  8
実形
100
AcDbCircle
 10
1675.924601042319
 20
649.5660316749063
 30
0.0
 40
30.0
100
AcDbArc
 50
269.9999999999999
 51
0.0
  0
LINE
  5
EDE
330
1F
100
AcDbEntity
  8
0
100
AcDbLine
 10
1553.903304095991
 20
609.5660316749063
 30
0.0
 11
1675.924601042319
 21
609.5660316749063
 31
0.0
  0
ARC
  5
EDF
330
1F
100
AcDbEntity
  8
実形
100
AcDbCircle
 10
1675.924601042319
 20
649.5660316749063
 30
0.0
 40
40.0
100
AcDbArc
 50
269.9999999999999
 51
318.5903778907286
  0
LEADER
  5
EE1
330
1F
100
AcDbEntity
  8
Cen
100
AcDbLeader
  3
ISO-25
 40
25.0
 41
16.66666666666666
 76
     2
 10
1690.465365647332
 20
635.9096025835853
 30
0.0
 10
1652.138490556087
 20
676.7908089505549
 30
0.0
213
0.0
223
-12.5
233
0.0
1001
ACAD
1000
DSTYLE
1002
{
1070
    41
1040
25.0
1070
   147
1040
6.25
1070
    77
1070
     0
1070
   279
1070
     1
1002
}
  0
TEXT
  5
EE2
330
1F
100
AcDbEntity
  8
0
100
AcDbText
 10
1605.907400755014
 20
686.6909255077175
 30
0.0
 40
25.0
  1
3R
100
AcDbText
  0
LINE
  5
EFC
330
1F
100
AcDbEntity
  8
0
100
AcDbLine
 10
1090.131644792499
 20
501.7963319408147
 30
0.0
 11
933.1316447924992
 21
501.7963319408145
 31
0.0
  0
LINE
  5
F02
330
1F
100
AcDbEntity
  8
0
100
AcDbLine
 10
931.1316447924992
 20
501.7963319408145
 30
0.0
 11
921.1316447924991
 21
501.7963319408145
 31
0.0
  0
DIMENSION
  5
13DC
330
1F
100
AcDbEntity
  8
0
100
AcDbDimension
  2
*D18
 10
265.3120704031565
 20
1643.363527071863
 30
0.0
 11
246.5620704031563
 21
1366.363527071863
 31
0.0
 70
    32
 71
     5
 42
554.0
  3
ISO-25
100
AcDbAlignedDimension
 13
594.6316447924994
 23
1089.363527071863
 33
0.0
 14
594.6316447924994
 24
1643.363527071863
 34
0.0
 50
90.0
100
AcDbRotatedDimension
  0
DIMENSION
  5
13DD
330
1F
100
AcDbEntity
  8
0
100
AcDbDimension
  2
*D19
 10
334.7820704031565
 20
1643.363527071863
 30
0.0
 11
323.3020102014336
 21
1617.020549119268
 31
0.0
 70
   160
 71
     5
 42
17.0
  3
ISO-25
100
AcDbAlignedDimension
 13
594.6316447924995
 23
1626.363527071863
 33
0.0
 14
594.6316447924994
 24
1643.363527071863
 34
0.0
 50
90.0
100
AcDbRotatedDimension
1001
ACAD
1000
DSTYLE
1002
{
1070
   279
1070
     1
1002
}
  0
DIMENSION
  5
13DE
330
1F
100
AcDbEntity
  8
0
100
AcDbDimension
  2
*D20
 10
334.7820704031565
 20
1626.363527071863
 30
0.0
 11
316.0320704031562
 21
1366.363527071863
 31
0.0
 70
    32
 71
     5
 42
520.0
  3
ISO-25
100
AcDbAlignedDimension
 13
594.6316447924994
 23
1106.363527071863
 33
0.0
 14
594.6316447924995
 24
1626.363527071863
 34
0.0
 50
90.0
100
AcDbRotatedDimension
1001
ACAD
1000
DSTYLE
1002
{
1070
   279
1070
     1
1002
}
  0
DIMENSION
  5
13DF
330
1F
100
AcDbEntity
  8
0
100
AcDbDimension
  2
*D21
 10
334.7820704031566
 20
1106.363527071863
 30
0.0
 11
308.1229891460482
 21
1114.92681415259
 31
0.0
 70
   160
 71
     5
 42
17.0
  3
ISO-25
100
AcDbAlignedDimension
 13
594.6316447924994
 23
1089.363527071863
 33
0.0
 14
594.6316447924994
 24
1106.363527071863
 34
0.0
 50
90.0
100
AcDbRotatedDimension
1001
ACAD
1000
DSTYLE
1002
{
1070
   279
1070
     2
1002
}
  0
DIMENSION
  5
13E0
330
1F
100
AcDbEntity
  8
0
100
AcDbDimension
  2
*D22
 10
404.2520704031565
 20
1551.363527071863
 30
0.0
 11
385.5020704031562
 21
1336.363527071863
 31
0.0
 70
    32
 71
     5
 42
430.0
  3
ISO-25
100
AcDbAlignedDimension
 13
594.6316447924994
 23
1121.363527071863
 33
0.0
 14
594.6316447924995
 24
1551.363527071863
 34
0.0
 50
90.0
100
AcDbRotatedDimension
1001
ACAD
1000
DSTYLE
1002
{
1070
   279
1070
     1
1002
}
  0
DIMENSION
  5
13E1
330
1F
100
AcDbEntity
  8
0
100
AcDbDimension
  2
*D23
 10
404.2520704031565
 20
1626.363527071863
 30
0.0
 11
385.5020704031563
 21
1588.863527071863
 31
0.0
 70
    32
 71
     5
 42
75.0
  3
ISO-25
100
AcDbAlignedDimension
 13
594.6316447924995
 23
1551.363527071863
 33
0.0
 14
594.6316447924995
 24
1626.363527071863
 34
0.0
 50
90.0
100
AcDbRotatedDimension
1001
ACAD
1000
DSTYLE
1002
{
1070
   279
1070
     1
1002
}
  0
DIMENSION
  5
13E2
330
1F
100
AcDbEntity
  8
0
100
AcDbDimension
  2
*D24
 10
404.2520704031565
 20
1121.363527071863
 30
0.0
 11
385.5020704031563
 21
1174.28019373853
 31
0.0
 70
    32
 71
     5
 42
15.0
  3
ISO-25
100
AcDbAlignedDimension
 13
594.6316447924994
 23
1106.363527071863
 33
0.0
 14
594.6316447924994
 24
1121.363527071863
 34
0.0
 50
90.0
100
AcDbRotatedDimension
  0
DIMENSION
  5
13E3
330
1F
100
AcDbEntity
  8
実形
100
AcDbDimension
  2
*D25
 10
473.7220704031565
 20
1336.363527071863
 30
0.0
 11
454.9720704031563
 21
1443.863527071863
 31
0.0
 70
    32
 71
     5
 42
215.0
  3
ISO-25
100
AcDbAlignedDimension
 13
594.6316447924992
 23
1551.363527071863
 33
0.0
 14
594.6316447924994
 24
1336.363527071863
 34
0.0
 50
90.0
100
AcDbRotatedDimension
1001
ACAD
1000
DSTYLE
1002
{
1070
   279
1070
     1
1002
}
  0
DIMENSION
  5
160B
330
1F
100
AcDbEntity
  8
寸法
100
AcDbDimension
  2
*D26
 10
2486.468910465888
 20
841.840972785917
 30
0.0
 11
2298.968910465888
 21
860.590972785917
 31
0.0
 70
    32
  1
75
 71
     5
 42
375.0
  3
ISO-25
100
AcDbAlignedDimension
 13
2111.468910465888
 23
644.7150094229364
 33
0.0
 14
2486.468910465888
 24
644.7150094229364
 34
0.0
100
AcDbRotatedDimension
1001
ACAD
1000
DSTYLE
1002
{
1070
   371
1070
    18
1070
   372
1070
    18
1002
}
  0
DIMENSION
  5
160C
330
1F
100
AcDbEntity
  8
寸法
100
AcDbDimension
  2
*D27
 10
2138.968910465888
 20
794.6337461615266
 30
0.0
 11
2298.968910465888
 21
813.3837461615266
 31
0.0
 70
    32
  1
64
 71
     5
 42
320.0
  3
ISO-25
100
AcDbAlignedDimension
 13
2458.968910465888
 23
644.7150094229364
 33
0.0
 14
2138.968910465888
 24
644.7150094229364
 34
0.0
100
AcDbRotatedDimension
1001
ACAD
1000
DSTYLE
1002
{
1070
   371
1070
    18
1070
   372
1070
    18
1002
}
  0
DIMENSION
  5
160D
330
1F
100
AcDbEntity
  8
寸法
100
AcDbDimension
  2
*D28
 10
2423.968910465888
 20
743.5989066962456
 30
0.0
 11
2298.968910465888
 21
762.3489066962456
 31
0.0
 70
    32
  1
50
 71
     5
 42
250.0
  3
ISO-25
100
AcDbAlignedDimension
 13
2173.968910465888
 23
644.7150094229364
 33
0.0
 14
2423.968910465888
 24
644.7150094229364
 34
0.0
100
AcDbRotatedDimension
1001
ACAD
1000
DSTYLE
1002
{
1070
   371
1070
    18
1070
   372
1070
    18
1002
}
  0
DIMENSION
  5
160E
330
1F
100
AcDbEntity
  8
寸法
100
AcDbDimension
  2
*D29
 10
2633.889588525591
 20
519.2150094229364
 30
0.0
 11
2615.139588525591
 21
594.7150094229368
 31
0.0
 70
    32
  1
31
 71
     5
 42
151.0
  3
ISO-25
100
AcDbAlignedDimension
 13
2486.468910465888
 23
670.2150094229364
 33
0.0
 14
2486.468910465888
 24
519.2150094229364
 34
0.0
 50
90.0
100
AcDbRotatedDimension
1001
ACAD
1000
DSTYLE
1002
{
1070
   371
1070
    18
1070
   372
1070
    18
1002
}
  0
ARC
  5
160F
330
1F
100
AcDbEntity
  8
実形
100
AcDbCircle
 10
2410.968910465888
 20
594.7150094229364
 30
0.0
 40
70.5
100
AcDbArc
 50
0.0
 51
90.0
  0
ARC
  5
1610
330
1F
100
AcDbEntity
  8
実形
100
AcDbCircle
 10
2410.968910465888
 20
594.7150094229364
 30
0.0
 40
75.5
100
AcDbArc
 50
0.0
 51
90.0
  0
ARC
  5
1611
330
1F
100
AcDbEntity
  8
実形
100
AcDbCircle
 10
2186.968910465888
 20
594.7150094229364
 30
0.0
 40
70.5
100
AcDbArc
 50
90.0
 51
180.0
  0
ARC
  5
1612
330
1F
100
AcDbEntity
  8
実形
100
AcDbCircle
 10
2186.968910465888
 20
594.7150094229364
 30
0.0
 40
75.5
100
AcDbArc
 50
90.0
 51
180.0
  0
LINE
  5
1613
330
1F
100
AcDbEntity
  8
センター
 48
0.5
100
AcDbLine
 10
2298.968910465888
 20
701.4595238018751
 30
0.0
 11
2298.968910465888
 21
487.9704950439982
 31
0.0
  0
LINE
  5
1614
330
1F
100
AcDbEntity
  8
実形
100
AcDbLine
 10
2373.968910465888
 20
644.7150094229364
 30
0.0
 11
2223.968910465888
 21
644.7150094229364
 31
0.0
  0
LINE
  5
1615
330
1F
100
AcDbEntity
  8
センター
 48
0.5
100
AcDbLine
 10
2088.112441704509
 20
594.7150094229364
 30
0.0
 11
2509.825379227268
 21
594.7150094229364
 31
0.0
  0
LINE
  5
1616
330
1F
100
AcDbEntity
  8
実形
100
AcDbLine
 10
2186.968910465888
 20
524.2150094229364
 30
0.0
 11
2410.968910465888
 21
524.2150094229364
 31
0.0
  0
LINE
  5
1617
330
1F
100
AcDbEntity
  8
実形
100
AcDbLine
 10
2186.968910465888
 20
519.2150094229364
 30
0.0
 11
2410.968910465888
 21
519.2150094229364
 31
0.0
  0
LINE
  5
1618
330
1F
100
AcDbEntity
  8
実形
100
AcDbLine
 10
2223.968910465888
 20
544.7150094229364
 30
0.0
 11
2373.968910465888
 21
544.7150094229364
 31
0.0
  0
ARC
  5
1619
330
1F
100
AcDbEntity
  8
実形
100
AcDbCircle
 10
2223.968910465888
 20
594.7150094229364
 30
0.0
 40
50.0
100
AcDbArc
 50
180.0
 51
270.0
  0
CIRCLE
  5
161A
330
1F
100
AcDbEntity
  8
実形
100
AcDbCircle
 10
2138.968910465888
 20
594.7150094229364
 30
0.0
 40
8.966055913162964
  0
LINE
  5
161B
330
1F
100
AcDbEntity
  8
実形
100
AcDbLine
 10
2173.968910465888
 20
594.7150094229364
 30
0.0
 11
2173.968910465888
 21
594.7150094229364
 31
0.0
  0
LINE
  5
161C
330
1F
100
AcDbEntity
  8
実形
100
AcDbLine
 10
2111.468910465888
 20
594.7150094229364
 30
0.0
 11
2111.468910465888
 21
594.7150094229364
 31
0.0
  0
ARC
  5
161D
330
1F
100
AcDbEntity
  8
実形
100
AcDbCircle
 10
2186.968910465888
 20
594.7150094229364
 30
0.0
 40
70.5
100
AcDbArc
 50
180.0
 51
270.0
  0
ARC
  5
161E
330
1F
100
AcDbEntity
  8
実形
100
AcDbCircle
 10
2186.968910465888
 20
594.7150094229364
 30
0.0
 40
75.5
100
AcDbArc
 50
180.0
 51
270.0
  0
ARC
  5
161F
330
1F
100
AcDbEntity
  8
実形
100
AcDbCircle
 10
2223.968910465888
 20
594.7150094229364
 30
0.0
 40
50.0
100
AcDbArc
 50
90.0
 51
180.0
  0
ARC
  5
1620
330
1F
100
AcDbEntity
  8
実形
100
AcDbCircle
 10
2410.968910465888
 20
594.7150094229364
 30
0.0
 40
70.5
100
AcDbArc
 50
270.0
 51
0.0
  0
ARC
  5
1621
330
1F
100
AcDbEntity
  8
実形
100
AcDbCircle
 10
2410.968910465888
 20
594.7150094229364
 30
0.0
 40
75.5
100
AcDbArc
 50
270.0
 51
0.0
  0
CIRCLE
  5
1622
330
1F
100
AcDbEntity
  8
実形
100
AcDbCircle
 10
2458.968910465888
 20
594.7150094229364
 30
0.0
 40
8.966055913162964
  0
LINE
  5
1623
330
1F
100
AcDbEntity
  8
実形
100
AcDbLine
 10
2423.968910465888
 20
594.7150094229364
 30
0.0
 11
2423.968910465888
 21
594.7150094229364
 31
0.0
  0
LINE
  5
1624
330
1F
100
AcDbEntity
  8
実形
100
AcDbLine
 10
2486.468910465888
 20
594.7150094229364
 30
0.0
 11
2486.468910465888
 21
594.7150094229364
 31
0.0
  0
ARC
  5
1625
330
1F
100
AcDbEntity
  8
実形
100
AcDbCircle
 10
2373.968910465888
 20
594.7150094229364
 30
0.0
 40
50.0
100
AcDbArc
 50
270.0
 51
0.0
  0
DIMENSION
  5
1626
330
1F
100
AcDbEntity
  8
寸法
100
AcDbDimension
  2
*D30
 10
2587.921923236481
 20
544.7150094229364
 30
0.0
 11
2569.17192323648
 21
594.7150094229368
 31
0.0
 70
    32
  1
20
 71
     5
 42
100.0
  3
ISO-25
100
AcDbAlignedDimension
 13
2486.468910465888
 23
644.7150094229364
 33
0.0
 14
2486.468910465888
 24
544.7150094229364
 34
0.0
 50
90.0
100
AcDbRotatedDimension
1001
ACAD
1000
DSTYLE
1002
{
1070
   371
1070
    18
1070
   372
1070
    18
1002
}
  0
ARC
  5
1627
330
1F
100
AcDbEntity
  8
実形
100
AcDbCircle
 10
2373.968910465888
 20
594.7150094229364
 30
0.0
 40
50.0
100
AcDbArc
 50
0.0
 51
90.0
  0
DIMENSION
  5
1628
330
1F
100
AcDbEntity
  8
0
100
AcDbDimension
  2
*D31
 10
1891.283206889209
 20
1551.363527071863
 30
0.0
 11
1872.533206889208
 21
1443.863527071863
 31
0.0
 70
    32
 71
     5
 42
215.0
  3
ISO-25
100
AcDbAlignedDimension
 13
1671.08879075345
 23
1336.363527071863
 33
0.0
 14
1766.088790753451
 24
1551.363527071863
 34
0.0
 50
90.0
100
AcDbRotatedDimension
1001
ACAD
1000
DSTYLE
1002
{
1070
   279
1070
     1
1002
}
  0
LINE
  5
1629
330
1F
100
AcDbEntity
  8
センター
 48
0.7
370
    15
100
AcDbLine
 10
1554.661841674048
 20
1336.363527071863
 30
0.0
 11
1853.908239601099
 21
1336.363527071863
 31
0.0
  0
DIMENSION
  5
162A
330
1F
100
AcDbEntity
  8
寸法
100
AcDbDimension
  2
*D32
 10
1656.08879075345
 20
1435.382738318166
 30
0.0
 11
1646.05131522401
 21
1465.228424079528
 31
0.0
 70
   160
 71
     5
 42
50.0
  3
ISO-25
100
AcDbAlignedDimension
 13
1606.08879075345
 23
1298.863527071863
 33
0.0
 14
1656.08879075345
 24
1359.983115887408
 34
0.0
100
AcDbRotatedDimension
1001
ACAD
1000
DSTYLE
1002
{
1070
   279
1070
     2
1070
   371
1070
    18
1002
}
  0
LINE
  5
162B
330
1F
100
AcDbEntity
  8
実形
  6
HIDDEN2
100
AcDbLine
 10
1261.631644792499
 20
1373.863527071863
 30
0.0
 11
1251.631644792499
 21
1373.863527071863
 31
0.0
  0
LINE
  5
162C
330
1F
100
AcDbEntity
  8
実形
  6
HIDDEN2
100
AcDbLine
 10
1251.631644792499
 20
1298.863527071863
 30
0.0
 11
1261.631644792499
 21
1298.863527071863
 31
0.0
  0
LINE
  5
162D
330
1F
100
AcDbEntity
  8
実形
  6
HIDDEN2
100
AcDbLine
 10
1251.631644792499
 20
1373.863527071863
 30
0.0
 11
1251.631644792499
 21
1298.863527071863
 31
0.0
  0
LINE
  5
162E
330
1F
100
AcDbEntity
  8
実形
100
AcDbLine
 10
1656.08879075345
 20
1373.863527071863
 30
0.0
 11
1656.08879075345
 21
1373.863527071863
 31
0.0
  0
ARC
  5
162F
330
1F
100
AcDbEntity
  8
実形
100
AcDbCircle
 10
1656.08879075345
 20
1358.863527071863
 30
0.0
 40
15.0
100
AcDbArc
 50
0.0
 51
90.0
  0
ARC
  5
1630
330
1F
100
AcDbEntity
  8
実形
100
AcDbCircle
 10
1656.08879075345
 20
1358.863527071863
 30
0.0
 40
15.0
100
AcDbArc
 50
90.0
 51
180.0
  0
LINE
  5
1631
330
1F
100
AcDbEntity
  8
実形
100
AcDbLine
 10
1656.088790753449
 20
1298.863527071863
 30
0.0
 11
1656.08879075345
 21
1298.863527071863
 31
0.0
  0
ARC
  5
1632
330
1F
100
AcDbEntity
  8
実形
100
AcDbCircle
 10
1656.08879075345
 20
1313.863527071863
 30
0.0
 40
15.0
100
AcDbArc
 50
270.0
 51
0.0
  0
ARC
  5
1633
330
1F
100
AcDbEntity
  8
実形
100
AcDbCircle
 10
1656.08879075345
 20
1313.863527071863
 30
0.0
 40
15.0
100
AcDbArc
 50
180.0
 51
270.0
  0
LINE
  5
1634
330
1F
100
AcDbEntity
  8
実形
100
AcDbLine
 10
1641.08879075345
 20
1358.863527071863
 30
0.0
 11
1641.08879075345
 21
1313.863527071863
 31
0.0
  0
LINE
  5
1635
330
1F
100
AcDbEntity
  8
実形
100
AcDbLine
 10
1671.08879075345
 20
1313.863527071863
 30
0.0
 11
1671.08879075345
 21
1358.863527071863
 31
0.0
  0
LINE
  5
1636
330
1F
100
AcDbEntity
  8
センター
 48
0.4
370
    15
100
AcDbLine
 10
1656.08879075345
 20
1427.216477104388
 30
0.0
 11
1656.08879075345
 21
1243.885490358923
 31
0.0
  0
LINE
  5
1637
330
1F
100
AcDbEntity
  8
実形
100
AcDbLine
 10
2126.72900183351
 20
934.5600029385614
 30
0.0
 11
2477.169968806738
 21
934.5600029385614
 31
0.0
  0
LINE
  5
1638
330
1F
100
AcDbEntity
  8
実形
100
AcDbLine
 10
2126.72900183351
 20
941.5600029385613
 30
0.0
 11
2477.169968806738
 21
941.5600029385613
 31
0.0
  0
TEXT
  5
1639
330
1F
100
AcDbEntity
  8
0
100
AcDbText
 10
2141.801729355258
 20
952.8556212679276
 30
0.0
 40
30.0
  1
オーバーフロー詳細
100
AcDbText
  0
LINE
  5
163A
330
1F
100
AcDbEntity
  8
実形
100
AcDbLine
 10
2410.968910465888
 20
665.2150094229364
 30
0.0
 11
2186.968910465888
 21
665.2150094229364
 31
0.0
  0
LINE
  5
163B
330
1F
100
AcDbEntity
  8
実形
100
AcDbLine
 10
2410.968910465888
 20
670.2150094229364
 30
0.0
 11
2186.968910465888
 21
670.2150094229364
 31
0.0
  0
ARC
  5
187C
330
1F
100
AcDbEntity
  8
実形
100
AcDbCircle
 10
1759.625974698676
 20
1596.363527071864
 30
0.0
 40
30.0
100
AcDbArc
 50
7.16936291862036
 51
90.0
  0
LINE
  5
187D
330
1F
100
AcDbEntity
  8
0
100
AcDbLine
 10
1804.08879075345
 20
1546.863527071863
 30
0.0
 11
1804.08879075345
 21
1365.863527071863
 31
0.0
  0
LINE
  5
187E
330
1F
100
AcDbEntity
  8
0
100
AcDbLine
 10
1796.08879075345
 20
1546.863527071863
 30
0.0
 11
1796.08879075345
 21
1521.363527071863
 31
0.0
  0
LINE
  5
187F
330
1F
100
AcDbEntity
  8
実形
100
AcDbLine
 10
1796.08879075345
 20
1546.863527071863
 30
0.0
 11
1804.08879075345
 21
1546.863527071863
 31
0.0
  0
LINE
  5
1880
330
1F
100
AcDbEntity
  8
実形
100
AcDbLine
 10
1796.08879075345
 20
1365.863527071863
 30
0.0
 11
1804.08879075345
 21
1365.863527071863
 31
0.0
  0
LINE
  5
1881
330
1F
100
AcDbEntity
  8
実形
100
AcDbLine
 10
1789.39142202085
 20
1600.107608496037
 30
0.0
 11
1796.08879075345
 21
1546.863527071863
 31
0.0
  0
DIMENSION
  5
18BA
330
1F
100
AcDbEntity
  8
実形
100
AcDbDimension
  2
*D33
 10
493.5109773360763
 20
683.7963319408145
 30
0.0
 11
478.3635009249628
 21
732.1628290116158
 31
0.0
 70
   160
 71
     5
 42
15.0
  3
ISO-25
100
AcDbAlignedDimension
 13
611.6316447924994
 23
698.7963319408144
 33
0.0
 14
611.6316447924996
 24
683.7963319408145
 34
0.0
 50
90.0
100
AcDbRotatedDimension
1001
ACAD
1000
DSTYLE
1002
{
1070
   279
1070
     1
1002
}
  0
DIMENSION
  5
18BB
330
1F
100
AcDbEntity
  8
実形
100
AcDbDimension
  2
*D34
 10
493.5109773360763
 20
508.7963319408146
 30
0.0
 11
478.7791941526811
 21
537.9196752296847
 31
0.0
 70
   160
 71
     5
 42
19.99999999999988
  3
ISO-25
100
AcDbAlignedDimension
 13
610.8137358752974
 23
528.7963319408145
 33
0.0
 14
610.8137358752974
 24
508.7963319408146
 34
0.0
 50
90.0
100
AcDbRotatedDimension
1001
ACAD
1000
DSTYLE
1002
{
1070
   279
1070
     1
1002
}
  0
DIMENSION
  5
18BC
330
1F
100
AcDbEntity
  8
実形
100
AcDbDimension
  2
*D35
 10
493.5109773360763
 20
528.7963319408145
 30
0.0
 11
482.4575381380309
 21
484.5914203561568
 31
0.0
 70
   160
  1
7
 71
     5
 42
30.0
  3
ISO-25
100
AcDbAlignedDimension
 13
611.2131616261722
 23
498.7963319408144
 33
0.0
 14
582.4302335062093
 24
528.7963319408145
 34
0.0
 50
90.0
100
AcDbRotatedDimension
1001
ACAD
1000
DSTYLE
1002
{
1070
   279
1070
     1
1002
}
  0
DIMENSION
  5
18BD
330
1F
100
AcDbEntity
  8
実形
100
AcDbDimension
  2
*D36
 10
406.9700788978898
 20
508.7963319408146
 30
0.0
 11
388.2200788978898
 21
603.7963319408147
 31
0.0
 70
    32
 71
     5
 42
189.9999999999998
  3
ISO-25
100
AcDbAlignedDimension
 13
576.2555114636379
 23
698.7963319408144
 33
0.0
 14
576.2555114636379
 24
508.7963319408146
 34
0.0
 50
90.0
100
AcDbRotatedDimension
1001
ACAD
1000
DSTYLE
1002
{
1070
   279
1070
     1
1002
}
  0
LINE
  5
1974
330
1F
100
AcDbEntity
  8
補助
100
AcDbLine
 10
2784.000000000001
 20
1959.0
 30
0.0
 11
2019.387286519283
 21
1959.0
 31
0.0
  0
LINE
  5
1975
330
1F
100
AcDbEntity
  8
補助
100
AcDbLine
 10
2784.000000000001
 20
1894.0
 30
0.0
 11
2019.387286519283
 21
1894.0
 31
0.0
  0
LINE
  5
1976
330
1F
100
AcDbEntity
  8
補助
100
AcDbLine
 10
2202.547653420927
 20
1894.0
 30
0.0
 11
2202.547653420927
 21
2024.0
 31
0.0
  0
LINE
  5
1977
330
1F
100
AcDbEntity
  8
補助
100
AcDbLine
 10
2019.387286519283
 20
1894.0
 30
0.0
 11
2019.387286519283
 21
2024.0
 31
0.0
  0
TEXT
  5
1978
330
1F
100
AcDbEntity
  8
補助
100
AcDbText
 10
2050.295698850121
 20
1976.328571428572
 30
0.0
 40
30.0
  1
部品名
  7
明朝
 72
     4
 11
2116.124270278692
 21
1991.5
 31
0.0
100
AcDbText
  0
TEXT
  5
1979
330
1F
100
AcDbEntity
  8
補助
100
AcDbText
 10
2627.614285714287
 20
1976.071428571429
 30
0.0
 40
30.0
  1
厚さ
  7
明朝
 72
     4
 11
2671.5
 21
1991.5
 31
0.0
100
AcDbText
  0
LINE
  5
197A
330
1F
100
AcDbEntity
  8
補助
100
AcDbLine
 10
2559.0
 20
1894.0
 30
0.0
 11
2559.000000000001
 21
2024.0
 31
0.0
  0
TEXT
  5
197B
330
1F
100
AcDbEntity
  8
補助
100
AcDbText
 10
2338.490869919937
 20
1975.947979478154
 30
0.0
 40
30.0
  1
材質
  7
明朝
 72
     4
 11
2382.376584205651
 21
1991.119408049583
 31
0.0
100
AcDbText
  0
TEXT
  5
197C
330
1F
100
AcDbEntity
  8
実形
100
AcDbText
 10
2048.227810657787
 20
1910.557142857143
 30
0.0
 40
30.0
  1
ボウル
  7
明朝
 72
     4
 11
2114.056382086359
 21
1926.5
 31
0.0
100
AcDbText
  0
TEXT
  5
197D
330
1F
100
AcDbEntity
  8
実形
100
AcDbText
 10
2594.7
 20
1911.842857142856
 30
0.0
 40
30.0
  1
0.7ｍｍ
  7
明朝
 72
     4
 11
2671.5
 21
1926.5
 31
0.0
100
AcDbText
  0
TEXT
  5
197E
330
1F
100
AcDbEntity
  8
実形
100
AcDbText
 10
2261.016869107866
 20
1910.728571428571
 30
0.0
 40
30.0
  1
SUS304（BA）
  7
明朝
 72
     4
 11
2392.674011965008
 21
1926.5
 31
0.0
100
AcDbText
  0
LINE
  5
197F
330
1F
100
AcDbEntity
  8
補助
100
AcDbLine
 10
111.0
 20
2024.0
 30
0.0
 11
111.0
 21
4.0
 31
0.0
  0
VIEWPORT
  5
2E
102
{ACAD_XDICTIONARY
360
19AB
102
}
330
1B
100
AcDbEntity
 67
     1
  8
0
100
AcDbViewport
 10
144.7270812988281
 20
101.2295806407928
 30
0.0
 40
411.6736216682419
 41
222.1517806396485
 68
     1
 69
     1
 12
144.7270812988281
 22
101.2295806407928
 13
0.0
 23
0.0
 14
10.0
 24
10.0
 15
10.0
 25
10.0
 16
0.0
 26
0.0
 36
1.0
 17
0.0
 27
0.0
 37
0.0
 42
50.0
 43
0.0
 44
0.0
 45
222.1517806396485
 50
0.0
 51
0.0
 72
   100
 90
    32800
  1

281
     0
 71
     1
 74
     0
110
0.0
120
0.0
130
0.0
111
1.0
121
0.0
131
0.0
112
0.0
122
1.0
132
0.0
 79
     0
146
0.0
  0
VIEWPORT
  5
30
102
{ACAD_XDICTIONARY
360
19AD
102
}
330
1B
100
AcDbEntity
 67
     1
  8
0
100
AcDbViewport
 10
139.2237563133239
 20
101.2295821905136
 30
0.0
 40
222.7580101013184
 41
161.9673315048218
 68
     2
 69
     2
 12
210.0
 22
148.5
 13
0.0
 23
0.0
 14
10.0
 24
10.0
 15
10.0
 25
10.0
 16
0.0
 26
0.0
 36
1.0
 17
0.0
 27
0.0
 37
0.0
 42
50.0
 43
0.0
 44
0.0
 45
309.0686705647124
 50
0.0
 51
0.0
 72
   100
 90
    32864
  1

281
     0
 71
     1
 74
     0
110
0.0
120
0.0
130
0.0
111
1.0
121
0.0
131
0.0
112
0.0
122
1.0
132
0.0
 79
     0
146
0.0
  0
ENDSEC
  0
SECTION
  2
OBJECTS
  0
DICTIONARY
  5
C
330
0
100
AcDbDictionary
281
     1
  3
ACAD_COLOR
350
184B
  3
ACAD_GROUP
350
D
  3
ACAD_LAYOUT
350
1A
  3
ACAD_MATERIAL
350
184A
  3
ACAD_MLINESTYLE
350
17
  3
ACAD_PLOTSETTINGS
350
19
  3
ACAD_PLOTSTYLENAME
350
E
  3
ACAD_TABLESTYLE
350
184C
  3
AcadDim
350
5B1
  3
ACDBHEADERROUNDTRIPXREC
350
19A4
  3
AcDbVariableDictionary
350
96D
  0
DICTIONARY
  5
1870
330
2
100
AcDbDictionary
280
     1
281
     1
  3
ACAD_LAYERFILTERS
360
1960
  3
ACAD_LAYERSTATES
360
1871
  3
ACLYDICTIONARY
360
195F
  0
DICTIONARY
  5
1980
330
1F
100
AcDbDictionary
280
     1
281
     1
  3
ACAD_SORTENTS
360
1981
  0
DICTIONARY
  5
19AB
330
2E
100
AcDbDictionary
280
     1
281
     1
  3
ACAD_XREC_ROUNDTRIP
360
19AC
  0
DICTIONARY
  5
19AD
330
30
100
AcDbDictionary
280
     1
281
     1
  3
ACAD_XREC_ROUNDTRIP
360
19AE
  0
DICTIONARY
  5
184B
102
{ACAD_REACTORS
330
C
102
}
330
C
100
AcDbDictionary
281
     1
  0
DICTIONARY
  5
D
102
{ACAD_REACTORS
330
C
102
}
330
C
100
AcDbDictionary
281
     1
  0
DICTIONARY
  5
1A
102
{ACAD_REACTORS
330
C
102
}
330
C
100
AcDbDictionary
281
     1
  3
Model
350
22
  3
ﾚｲｱｳﾄ1
350
1E
  3
ﾚｲｱｳﾄ2
350
26
  0
DICTIONARY
  5
184A
102
{ACAD_REACTORS
330
C
102
}
330
C
100
AcDbDictionary
281
     1
  0
DICTIONARY
  5
17
102
{ACAD_REACTORS
330
C
102
}
330
C
100
AcDbDictionary
281
     1
  3
Standard
350
18
  0
DICTIONARY
  5
19
102
{ACAD_REACTORS
330
C
102
}
330
C
100
AcDbDictionary
281
     1
  0
ACDBDICTIONARYWDFLT
  5
E
102
{ACAD_REACTORS
330
C
102
}
330
C
100
AcDbDictionary
281
     1
  3
Normal
350
F
100
AcDbDictionaryWithDefault
340
F
  0
DICTIONARY
  5
184C
102
{ACAD_REACTORS
330
C
102
}
330
C
100
AcDbDictionary
281
     1
  3
Standard
350
184D
  0
XRECORD
  5
5B1
102
{ACAD_REACTORS
330
C
102
}
330
C
100
AcDbXrecord
280
     1
 90
   990106
  3

 60
     0
 61
     0
 62
     1
 63
     3
 64
     0
 65
     0
 66
     0
 67
     3
 68
     1
 69
     0
 70
     0
 71
     0
 72
     0
 40
5.637859010809637
170
     0
340
0
  0
DICTIONARY
  5
19A4
102
{ACAD_REACTORS
330
C
102
}
330
C
100
AcDbDictionary
281
     1
  0
DICTIONARY
  5
96D
102
{ACAD_REACTORS
330
C
102
}
330
C
100
AcDbDictionary
281
     1
  3
CTABLESTYLE
350
1853
  3
DIMASSOC
350
19A1
  3
PROJECTNAME
350
19A2
  3
SORTENTS
350
96E
  0
DICTIONARY
  5
1960
102
{ACAD_REACTORS
330
1870
102
}
330
1870
100
AcDbDictionary
281
     1
  0
DICTIONARY
  5
1871
102
{ACAD_REACTORS
330
1870
102
}
330
1870
100
AcDbDictionary
281
     1
  0
DICTIONARY
  5
195F
102
{ACAD_REACTORS
330
1870
102
}
330
1870
100
AcDbDictionary
281
     1
1001
ACAD
1000
<All
  0
SORTENTSTABLE
  5
1981
102
{ACAD_REACTORS
330
1980
102
}
330
1980
100
AcDbSortentsTable
330
1F
331
372
  5
373
331
52E
  5
532
331
A5
  5
A8
331
4B7
  5
4B8
331
ED9
  5
EDA
331
160F
  5
1610
331
264
  5
265
331
480
  5
48E
331
EE1
  5
EE2
331
5F4
  5
5F5
331
1617
  5
1618
331
161F
  5
1620
331
5FC
  5
5FD
331
39A
  5
39B
331
AD
  5
25F
331
32B
  5
32C
331
54E
  5
558
331
498
  5
499
331
3B2
  5
3BF
331
4CF
  5
4D0
331
1627
  5
1628
331
5AD
  5
5AE
331
566
  5
56A
331
419
  5
41A
331
304
  5
31C
331
50F
  5
511
331
EB2
  5
EB6
331
13E1
  5
13E2
331
162F
  5
1630
331
1637
  5
1638
331
EBA
  5
EBB
331
1976
  5
1977
331
1880
  5
1881
331
197E
  5
197F
331
4B0
  5
4B4
331
373
  5
376
331
471
  5
473
331
EDA
  5
EDC
331
31C
  5
32A
331
4B8
  5
4C1
331
586
  5
59F
331
A2C
  5
A2D
331
265
  5
266
331
537
  5
53A
331
EE2
  5
EFC
331
1610
  5
1611
331
1618
  5
1619
331
53F
  5
540
331
5F5
  5
5F6
331
5FD
  5
5FE
331
39B
  5
3B2
331
32C
  5
32D
331
4D0
  5
4D1
331
40A
  5
40B
331
334
  5
335
331
499
  5
49A
331
DCC
  5
DCD
331
F02
  5
13DC
331
1620
  5
1621
331
33C
  5
340
331
55F
  5
560
331
5AE
  5
5B0
331
1628
  5
1629
331
41A
  5
41E
331
13E2
  5
13E3
331
1630
  5
1631
331
1638
  5
1639
331
EBB
  5
ED9
331
1977
  5
1978
331
1881
  5
18BA
331
197F
  5
A0
331
A2D
  5
C9F
331
384
  5
39A
331
1611
  5
1612
331
3E3
  5
3E4
331
266
  5
267
331
4C1
  5
4CE
331
CB5
  5
DCC
331
5F6
  5
5F7
331
1619
  5
161A
331
59F
  5
5A0
331
540
  5
54B
331
5FE
  5
5FF
331
32D
  5
32E
331
492
  5
493
331
DCD
  5
DCF
331
1621
  5
1622
331
558
  5
55A
331
49A
  5
49B
331
335
  5
339
331
40B
  5
40D
331
4D1
  5
4D2
331
1629
  5
162A
331
560
  5
562
331
413
  5
414
331
5B7
  5
5B8
331
13E3
  5
160B
331
1631
  5
1632
331
511
  5
52C
331
4AA
  5
4AB
331
1639
  5
163A
331
1978
  5
1979
331
A0
  5
A5
331
473
  5
480
331
EDC
  5
EDE
331
25F
  5
260
331
1612
  5
1613
331
18BA
  5
18BB
331
3E4
  5
407
331
267
  5
26B
331
161A
  5
161B
331
5F7
  5
5F8
331
EFC
  5
F02
331
5FF
  5
600
331
A8
  5
A9
331
5A0
  5
5A1
331
32E
  5
32F
331
493
  5
494
331
1622
  5
1623
331
4D2
  5
50F
331
2F7
  5
304
331
49B
  5
49D
331
13DC
  5
13DD
331
5B0
  5
5B2
331
EAD
  5
EAE
331
162A
  5
162B
331
414
  5
415
331
1632
  5
1633
331
DE6
  5
DE7
331
5B8
  5
5B9
331
4AB
  5
4AE
331
163A
  5
163B
331
1979
  5
197A
331
5D0
  5
5D2
331
376
  5
384
331
160B
  5
160C
331
5D8
  5
5F4
331
532
  5
533
331
3DD
  5
3DE
331
260
  5
261
331
C9F
  5
CB5
331
1613
  5
1614
331
18BB
  5
18BC
331
53A
  5
53C
331
5F8
  5
5F9
331
161B
  5
161C
331
E8E
  5
EAD
331
A9
  5
AA
331
5A1
  5
5A9
331
600
  5
601
331
32F
  5
330
331
494
  5
495
331
DCF
  5
DD0
331
5A9
  5
5AA
331
1623
  5
1624
331
55A
  5
55C
331
40D
  5
413
331
162B
  5
162C
331
EAE
  5
EB1
331
13DD
  5
13DE
331
562
  5
563
331
415
  5
419
331
1633
  5
1634
331
DE7
  5
DE8
331
5B9
  5
5BA
331
EB6
  5
EB7
331
56A
  5
56C
331
163B
  5
187C
331
187C
  5
187D
331
197A
  5
197B
331
4B4
  5
4B5
331
EDE
  5
EDF
331
E77
  5
E7F
331
160C
  5
160D
331
533
  5
537
331
261
  5
262
331
3DE
  5
3DF
331
1614
  5
1615
331
E7F
  5
E80
331
18BC
  5
18BD
331
161C
  5
161D
331
5F9
  5
5FA
331
2E9
  5
2F7
331
AA
  5
AB
331
601
  5
602
331
54B
  5
54C
331
330
  5
331
331
495
  5
496
331
DD0
  5
DD1
331
5AA
  5
5AD
331
1624
  5
1625
331
49D
  5
49E
331
5B2
  5
5B4
331
13DE
  5
13DF
331
162C
  5
162D
331
3BF
  5
3DD
331
340
  5
370
331
563
  5
565
331
1634
  5
1635
331
EB7
  5
EB8
331
DE8
  5
E77
331
5BA
  5
5D0
331
41E
  5
471
331
197B
  5
197C
331
187D
  5
187E
331
370
  5
371
331
A29
  5
A2C
331
52C
  5
52E
331
4B5
  5
4B7
331
5D2
  5
5D8
331
160D
  5
160E
331
3DF
  5
3E0
331
262
  5
263
331
EDF
  5
EE1
331
53C
  5
53D
331
E80
  5
E81
331
1615
  5
1616
331
18BD
  5
1974
331
48E
  5
48F
331
5FA
  5
5FB
331
161D
  5
161E
331
AB
  5
AD
331
496
  5
498
331
331
  5
334
331
407
  5
40A
331
54C
  5
54E
331
602
  5
603
331
1625
  5
1626
331
49E
  5
4A7
331
339
  5
33C
331
55C
  5
55D
331
DD1
  5
DE6
331
162D
  5
162E
331
13DF
  5
13E0
331
1635
  5
1636
331
4AE
  5
4AF
331
56C
  5
586
331
EB8
  5
EB9
331
1974
  5
1975
331
187E
  5
187F
331
197C
  5
197D
331
9C
  5
9C
331
371
  5
372
331
263
  5
264
331
3E0
  5
3E3
331
160E
  5
160F
331
1616
  5
1617
331
53D
  5
53F
331
26B
  5
2E9
331
E81
  5
E8E
331
48F
  5
492
331
5FB
  5
5FC
331
161E
  5
161F
331
32A
  5
32B
331
4CE
  5
4CF
331
603
  5
A29
331
55D
  5
55F
331
1626
  5
1627
331
13E0
  5
13E1
331
4A7
  5
4AA
331
565
  5
566
331
5B4
  5
5B7
331
EB1
  5
EB2
331
162E
  5
162F
331
1636
  5
1637
331
4AF
  5
4B0
331
EB9
  5
EBA
331
1975
  5
1976
331
197D
  5
197E
331
187F
  5
1880
  0
XRECORD
  5
19AC
102
{ACAD_REACTORS
330
19AB
102
}
330
19AB
100
AcDbXrecord
280
     1
102
SHADEPLOT
 70
     0
  0
XRECORD
  5
19AE
102
{ACAD_REACTORS
330
19AD
102
}
330
19AD
100
AcDbXrecord
280
     1
102
SHADEPLOT
 70
     0
  0
LAYOUT
  5
22
102
{ACAD_XDICTIONARY
360
19A7
102
}
102
{ACAD_REACTORS
330
1A
102
}
330
1A
100
AcDbPlotSettings
  1

  2
EPSON PM-800C
  4
A4
  6

 40
3.757083177566528
 41
14.7637300491333
 42
3.757080078125
 43
3.757080078125
 44
209.9733276367187
 45
296.9683227539062
 46
0.0
 47
0.0
 48
0.0
 49
0.0
140
0.0
141
0.0
142
1.0
143
10.0
 70
 11952
 72
     1
 73
     1
 74
     2
  7

 75
    20
147
0.1
148
0.0
149
0.0
100
AcDbLayout
  1
Model
 70
     1
 71
     0
 10
0.0
 20
0.0
 11
12.0
 21
9.0
 12
0.0
 22
0.0
 32
0.0
 14
0.0
 24
0.0
 34
0.0
 15
0.0
 25
0.0
 35
0.0
146
0.0
 13
0.0
 23
0.0
 33
0.0
 16
1.0
 26
0.0
 36
0.0
 17
0.0
 27
1.0
 37
0.0
 76
     0
330
1F
  0
LAYOUT
  5
1E
102
{ACAD_XDICTIONARY
360
19A5
102
}
102
{ACAD_REACTORS
330
1A
102
}
330
1A
100
AcDbPlotSettings
  1

  2
EPSON PM-800C
  4
A4
  6

 40
3.757083177566528
 41
14.7637300491333
 42
3.757080078125
 43
3.757080078125
 44
209.9733276367187
 45
296.9683227539062
 46
0.0
 47
0.0
 48
0.0
 49
0.0
140
0.0
141
0.0
142
1.0
143
1.0
 70
   688
 72
     1
 73
     1
 74
     5
  7

 75
    16
147
1.0
148
0.0
149
0.0
100
AcDbLayout
  1
ﾚｲｱｳﾄ1
 70
     1
 71
     1
 10
-3.757080078125
 20
-3.757083177566528
 11
293.2112426757813
 21
206.2162444591522
 12
0.0
 22
0.0
 32
0.0
 14
27.8447512626648
 24
20.24591643810271
 34
0.0
 15
250.6027613639831
 25
182.2132479429245
 35
0.0
146
0.0
 13
0.0
 23
0.0
 33
0.0
 16
1.0
 26
0.0
 36
0.0
 17
0.0
 27
1.0
 37
0.0
 76
     0
330
1B
331
2E
  0
LAYOUT
  5
26
102
{ACAD_XDICTIONARY
360
19A9
102
}
102
{ACAD_REACTORS
330
1A
102
}
330
1A
100
AcDbPlotSettings
  1

  2
EPSON PM-800C
  4

  6

 40
0.0
 41
0.0
 42
0.0
 43
0.0
 44
0.0
 45
0.0
 46
0.0
 47
0.0
 48
0.0
 49
0.0
140
0.0
141
0.0
142
1.0
143
1.0
 70
   688
 72
     0
 73
     0
 74
     5
  7

 75
    16
147
1.0
148
0.0
149
0.0
100
AcDbLayout
  1
ﾚｲｱｳﾄ2
 70
     1
 71
     2
 10
0.0
 20
0.0
 11
12.0
 21
9.0
 12
0.0
 22
0.0
 32
0.0
 14
0.0
 24
0.0
 34
0.0
 15
0.0
 25
0.0
 35
0.0
146
0.0
 13
0.0
 23
0.0
 33
0.0
 16
1.0
 26
0.0
 36
0.0
 17
0.0
 27
1.0
 37
0.0
 76
     0
330
23
  0
MLINESTYLE
  5
18
102
{ACAD_REACTORS
330
17
102
}
330
17
100
AcDbMlineStyle
  2
STANDARD
 70
     0
  3

 62
   256
 51
90.0
 52
90.0
 71
     2
 49
0.5
 62
   256
  6
BYLAYER
 49
-0.5
 62
   256
  6
BYLAYER
  0
ACDBPLACEHOLDER
  5
F
102
{ACAD_REACTORS
330
E
102
}
330
E
  0
TABLESTYLE
  5
184D
102
{ACAD_REACTORS
330
184C
102
}
330
184C
100
AcDbTableStyle
  3
Standard
 70
     0
 71
     0
 40
1.5
 41
1.5
280
     0
281
     0
  7
Standard
140
4.5
170
     2
 62
     0
 63
     7
283
     0
274
    -2
284
     1
 64
     0
275
    -2
285
     1
 65
     0
276
    -2
286
     1
 66
     0
277
    -2
287
     1
 67
     0
278
    -2
288
     1
 68
     0
279
    -2
289
     1
 69
     0
  7
Standard
140
6.0
170
     5
 62
     0
 63
     7
283
     0
274
    -2
284
     1
 64
     0
275
    -2
285
     1
 65
     0
276
    -2
286
     1
 66
     0
277
    -2
287
     1
 67
     0
278
    -2
288
     1
 68
     0
279
    -2
289
     1
 69
     0
  7
Standard
140
4.5
170
     5
 62
     0
 63
     7
283
     0
274
    -2
284
     1
 64
     0
275
    -2
285
     1
 65
     0
276
    -2
286
     1
 66
     0
277
    -2
287
     1
 67
     0
278
    -2
288
     1
 68
     0
279
    -2
289
     1
 69
     0
  0
DICTIONARYVAR
  5
1853
102
{ACAD_REACTORS
330
96D
102
}
330
96D
100
DictionaryVariables
280
     0
  1
STANDARD
  0
DICTIONARYVAR
  5
19A1
102
{ACAD_REACTORS
330
96D
102
}
330
96D
100
DictionaryVariables
280
     0
  1
1
  0
DICTIONARYVAR
  5
19A2
102
{ACAD_REACTORS
330
96D
102
}
330
96D
100
DictionaryVariables
280
     0
  1

  0
DICTIONARYVAR
  5
96E
102
{ACAD_REACTORS
330
96D
102
}
330
96D
100
DictionaryVariables
280
     0
  1
96
  0
DICTIONARY
  5
19A7
330
22
100
AcDbDictionary
280
     1
281
     1
  3
ACAD_XREC_ROUNDTRIP
360
19A8
  0
DICTIONARY
  5
19A5
330
1E
100
AcDbDictionary
280
     1
281
     1
  3
ACAD_XREC_ROUNDTRIP
360
19A6
  0
DICTIONARY
  5
19A9
330
26
100
AcDbDictionary
280
     1
281
     1
  3
ACAD_XREC_ROUNDTRIP
360
19AA
  0
XRECORD
  5
19A8
102
{ACAD_REACTORS
330
19A7
102
}
330
19A7
100
AcDbXrecord
280
     1
102
SHADEPLOT
 70
     0
102
SHADEPLOTRESLEVEL
 70
     2
102
SHADEPLOTCUSTOMDPI
 70
   300
  0
XRECORD
  5
19A6
102
{ACAD_REACTORS
330
19A5
102
}
330
19A5
100
AcDbXrecord
280
     1
102
SHADEPLOT
 70
     0
102
SHADEPLOTRESLEVEL
 70
     2
102
SHADEPLOTCUSTOMDPI
 70
   300
  0
XRECORD
  5
19AA
102
{ACAD_REACTORS
330
19A9
102
}
330
19A9
100
AcDbXrecord
280
     1
102
SHADEPLOT
 70
     0
102
SHADEPLOTRESLEVEL
 70
     2
102
SHADEPLOTCUSTOMDPI
 70
   300
  0
ENDSEC
  0
EOF
