  0
SECTION
  2
HEADER
  9
$ACADVER
  1
AC1015
  9
$ACADMAINTVER
 70
    20
  9
$DWGCODEPAGE
  3
ANSI_932
  9
$INSBASE
 10
0.0
 20
0.0
 30
0.0
  9
$EXTMIN
 10
111.0
 20
4.0
 30
0.0
  9
$EXTMAX
 10
2784.000000000001
 20
2024.0
 30
0.0
  9
$LIMMIN
 10
0.0
 20
0.0
  9
$LIMMAX
 10
29700.0
 20
21000.0
  9
$ORTHOMODE
 70
     1
  9
$REGENMODE
 70
     1
  9
$FILLMODE
 70
     1
  9
$QTEXTMODE
 70
     0
  9
$MIRRTEXT
 70
     1
  9
$LTSCALE
 40
4.0
  9
$ATTMODE
 70
     1
  9
$TEXTSIZE
 40
35.0
  9
$TRACEWID
 40
1.0
  9
$TEXTSTYLE
  7
Standard
  9
$CLAYER
  8
実形
  9
$CELTYPE
  6
ByLayer
  9
$CECOLOR
 62
   256
  9
$CELTSCALE
 40
1.0
  9
$DISPSILH
 70
     0
  9
$DIMSCALE
 40
1.0
  9
$DIMASZ
 40
30.0
  9
$DIMEXO
 40
65.0
  9
$DIMDLI
 40
3.75
  9
$DIMRND
 40
0.0
  9
$DIMDLE
 40
0.0
  9
$DIMEXE
 40
0.0
  9
$DIMTP
 40
0.0
  9
$DIMTM
 40
0.0
  9
$DIMTXT
 40
25.0
  9
$DIMCEN
 40
2.5
  9
$DIMTSZ
 40
0.0
  9
$DIMTOL
 70
     0
  9
$DIMLIM
 70
     0
  9
$DIMTIH
 70
     0
  9
$DIMTOH
 70
     0
  9
$DIMSE1
 70
     0
  9
$DIMSE2
 70
     0
  9
$DIMTAD
 70
     1
  9
$DIMZIN
 70
     8
  9
$DIMBLK
  1
DotSmall
  9
$DIMASO
 70
     1
  9
$DIMSHO
 70
     1
  9
$DIMPOST
  1

  9
$DIMAPOST
  1

  9
$DIMALT
 70
     0
  9
$DIMALTD
 70
     3
  9
$DIMALTF
 40
0.03937007874016
  9
$DIMLFAC
 40
1.0
  9
$DIMTOFL
 70
     1
  9
$DIMTVP
 40
0.0
  9
$DIMTIX
 70
     0
  9
$DIMSOXD
 70
     0
  9
$DIMSAH
 70
     0
  9
$DIMBLK1
  1

  9
$DIMBLK2
  1

  9
$DIMSTYLE
  2
ISO-25
  9
$DIMCLRD
 70
     0
  9
$DIMCLRE
 70
     0
  9
$DIMCLRT
 70
     0
  9
$DIMTFAC
 40
1.0
  9
$DIMGAP
 40
6.25
  9
$DIMJUST
 70
     0
  9
$DIMSD1
 70
     0
  9
$DIMSD2
 70
     0
  9
$DIMTOLJ
 70
     0
  9
$DIMTZIN
 70
     8
  9
$DIMALTZ
 70
     0
  9
$DIMALTTZ
 70
     0
  9
$DIMUPT
 70
     0
  9
$DIMDEC
 70
     2
  9
$DIMTDEC
 70
     2
  9
$DIMALTU
 70
     2
  9
$DIMALTTD
 70
     3
  9
$DIMTXSTY
  7
Standard
  9
$DIMAUNIT
 70
     0
  9
$DIMADEC
 70
     0
  9
$DIMALTRND
 40
0.0
  9
$DIMAZIN
 70
     0
  9
$DIMDSEP
 70
    46
  9
$DIMATFIT
 70
     3
  9
$DIMFRAC
 70
     0
  9
$DIMLDRBLK
  1
Open30
  9
$DIMLUNIT
 70
     2
  9
$DIMLWD
 70
    15
  9
$DIMLWE
 70
    15
  9
$DIMTMOVE
 70
     1
  9
$LUNITS
 70
     2
  9
$LUPREC
 70
     2
  9
$SKETCHINC
 40
1.0
  9
$FILLETRAD
 40
3.0
  9
$AUNITS
 70
     0
  9
$AUPREC
 70
     0
  9
$MENU
  1
.
  9
$ELEVATION
 40
0.0
  9
$PELEVATION
 40
0.0
  9
$THICKNESS
 40
0.0
  9
$LIMCHECK
 70
     1
  9
$CHAMFERA
 40
10.0
  9
$CHAMFERB
 40
10.0
  9
$CHAMFERC
 40
20.0
  9
$CHAMFERD
 40
0.0
  9
$SKPOLY
 70
     0
  9
$TDCREATE
 40
2451673.575802199
  9
$TDUCREATE
 40
2451673.200802199
  9
$TDUPDATE
 40
2458803.801361181
  9
$TDUUPDATE
 40
2458803.426361181
  9
$TDINDWG
 40
0.8880312731
  9
$TDUSRTIMER
 40
0.8880305787
  9
$USRTIMER
 70
     1
  9
$ANGBASE
 50
0.0
  9
$ANGDIR
 70
     0
  9
$PDMODE
 70
    35
  9
$PDSIZE
 40
0.0
  9
$PLINEWID
 40
0.0
  9
$SPLFRAME
 70
     0
  9
$SPLINETYPE
 70
     6
  9
$SPLINESEGS
 70
     8
  9
$HANDSEED
  5
1BA4
  9
$SURFTAB1
 70
     6
  9
$SURFTAB2
 70
     6
  9
$SURFTYPE
 70
     6
  9
$SURFU
 70
     6
  9
$SURFV
 70
     6
  9
$UCSBASE
  2

  9
$UCSNAME
  2

  9
$UCSORG
 10
0.0
 20
0.0
 30
0.0
  9
$UCSXDIR
 10
1.0
 20
0.0
 30
0.0
  9
$UCSYDIR
 10
0.0
 20
1.0
 30
0.0
  9
$UCSORTHOREF
  2

  9
$UCSORTHOVIEW
 70
     0
  9
$UCSORGTOP
 10
0.0
 20
0.0
 30
0.0
  9
$UCSORGBOTTOM
 10
0.0
 20
0.0
 30
0.0
  9
$UCSORGLEFT
 10
0.0
 20
0.0
 30
0.0
  9
$UCSORGRIGHT
 10
0.0
 20
0.0
 30
0.0
  9
$UCSORGFRONT
 10
0.0
 20
0.0
 30
0.0
  9
$UCSORGBACK
 10
0.0
 20
0.0
 30
0.0
  9
$PUCSBASE
  2

  9
$PUCSNAME
  2

  9
$PUCSORG
 10
0.0
 20
0.0
 30
0.0
  9
$PUCSXDIR
 10
1.0
 20
0.0
 30
0.0
  9
$PUCSYDIR
 10
0.0
 20
1.0
 30
0.0
  9
$PUCSORTHOREF
  2

  9
$PUCSORTHOVIEW
 70
     0
  9
$PUCSORGTOP
 10
0.0
 20
0.0
 30
0.0
  9
$PUCSORGBOTTOM
 10
0.0
 20
0.0
 30
0.0
  9
$PUCSORGLEFT
 10
0.0
 20
0.0
 30
0.0
  9
$PUCSORGRIGHT
 10
0.0
 20
0.0
 30
0.0
  9
$PUCSORGFRONT
 10
0.0
 20
0.0
 30
0.0
  9
$PUCSORGBACK
 10
0.0
 20
0.0
 30
0.0
  9
$USERI1
 70
     0
  9
$USERI2
 70
     0
  9
$USERI3
 70
     0
  9
$USERI4
 70
     0
  9
$USERI5
 70
     0
  9
$USERR1
 40
0.0
  9
$USERR2
 40
0.0
  9
$USERR3
 40
0.0
  9
$USERR4
 40
0.0
  9
$USERR5
 40
0.0
  9
$WORLDVIEW
 70
     1
  9
$SHADEDGE
 70
     3
  9
$SHADEDIF
 70
    70
  9
$TILEMODE
 70
     1
  9
$MAXACTVP
 70
    64
  9
$PINSBASE
 10
0.0
 20
0.0
 30
0.0
  9
$PLIMCHECK
 70
     0
  9
$PEXTMIN
 10
27.8447512626648
 20
20.24591643810271
 30
0.0
  9
$PEXTMAX
 10
250.6027613639831
 20
182.2132479429245
 30
0.0
  9
$PLIMMIN
 10
-3.757080078125
 20
-3.757083177566528
  9
$PLIMMAX
 10
293.2112426757813
 20
206.2162444591522
  9
$UNITMODE
 70
     0
  9
$VISRETAIN
 70
     1
  9
$PLINEGEN
 70
     0
  9
$PSLTSCALE
 70
     1
  9
$TREEDEPTH
 70
  3020
  9
$CMLSTYLE
  2
Standard
  9
$CMLJUST
 70
     0
  9
$CMLSCALE
 40
20.0
  9
$PROXYGRAPHICS
 70
     1
  9
$MEASUREMENT
 70
     1
  9
$CELWEIGHT
370
    -1
  9
$ENDCAPS
280
     0
  9
$JOINSTYLE
280
     0
  9
$LWDISPLAY
290
     0
  9
$INSUNITS
 70
     4
  9
$HYPERLINKBASE
  1

  9
$STYLESHEET
  1

  9
$XEDIT
290
     1
  9
$CEPSNTYPE
380
     0
  9
$PSTYLEMODE
290
     1
  9
$FINGERPRINTGUID
  2
{C8EA1F16-24C9-11D4-9416-CE0A3B32152F}
  9
$VERSIONGUID
  2
{0E3BE584-C44D-46CD-925D-04AA9B98ECBE}
  9
$EXTNAMES
290
     1
  9
$PSVPSCALE
 40
0.0
  9
$OLESTARTUP
290
     0
  0
ENDSEC
  0
SECTION
  2
CLASSES
  0
CLASS
  1
ACDBDICTIONARYWDFLT
  2
AcDbDictionaryWithDefault
  3
ObjectDBX Classes
 90
        0
280
     0
281
     0
  0
CLASS
  1
ACDBPLACEHOLDER
  2
AcDbPlaceHolder
  3
ObjectDBX Classes
 90
        0
280
     0
281
     0
  0
CLASS
  1
LAYOUT
  2
AcDbLayout
  3
ObjectDBX Classes
 90
        0
280
     0
281
     0
  0
CLASS
  1
DICTIONARYVAR
  2
AcDbDictionaryVar
  3
ObjectDBX Classes
 90
        0
280
     0
281
     0
  0
CLASS
  1
TABLESTYLE
  2
AcDbTableStyle
  3
ObjectDBX Classes
 90
     2047
280
     0
281
     0
  0
CLASS
  1
SORTENTSTABLE
  2
AcDbSortentsTable
  3
ObjectDBX Classes
 90
        0
280
     0
281
     0
  0
ENDSEC
  0
SECTION
  2
TABLES
  0
TABLE
  2
VPORT
  5
8
330
0
100
AcDbSymbolTable
 70
     2
  0
VPORT
  5
1B98
330
8
100
AcDbSymbolTableRecord
100
AcDbViewportTableRecord
  2
*Active
 70
     0
 10
0.0
 20
0.0
 11
1.0
 21
1.0
 12
1478.308480018106
 22
945.5954025421824
 13
0.0
 23
0.0
 14
10.0
 24
10.0
 15
10.0
 25
10.0
 16
0.0
 26
0.0
 36
1.0
 17
0.0
 27
0.0
 37
0.0
 40
2514.598028293322
 41
1.29038112522686
 42
50.0
 43
0.0
 44
0.0
 50
0.0
 51
0.0
 71
     0
 72
   100
 73
     1
 74
     3
 75
     0
 76
     0
 77
     0
 78
     0
281
     0
 65
     1
110
0.0
120
0.0
130
0.0
111
1.0
121
0.0
131
0.0
112
0.0
122
1.0
132
0.0
 79
     0
146
0.0
  0
ENDTAB
  0
TABLE
  2
LTYPE
  5
5
330
0
100
AcDbSymbolTable
 70
    46
  0
LTYPE
  5
14
330
5
100
AcDbSymbolTableRecord
100
AcDbLinetypeTableRecord
  2
ByBlock
 70
     0
  3

 72
    65
 73
     0
 40
0.0
  0
LTYPE
  5
15
330
5
100
AcDbSymbolTableRecord
100
AcDbLinetypeTableRecord
  2
ByLayer
 70
     0
  3

 72
    65
 73
     0
 40
0.0
  0
LTYPE
  5
16
330
5
100
AcDbSymbolTableRecord
100
AcDbLinetypeTableRecord
  2
Continuous
 70
     0
  3
Solid line
 72
    65
 73
     0
 40
0.0
  0
LTYPE
  5
34
330
5
100
AcDbSymbolTableRecord
100
AcDbLinetypeTableRecord
  2
ACAD_ISO02W100
 70
     0
  3
ISO dash __ __ __ __ __ __ __ __ __ __ __ __ __
 72
    65
 73
     2
 40
15.0
 49
12.0
 74
     0
 49
-3.0
 74
     0
  0
LTYPE
  5
35
330
5
100
AcDbSymbolTableRecord
100
AcDbLinetypeTableRecord
  2
ACAD_ISO03W100
 70
     0
  3
ISO dash space __    __    __    __    __    __
 72
    65
 73
     2
 40
30.0
 49
12.0
 74
     0
 49
-18.0
 74
     0
  0
LTYPE
  5
36
330
5
100
AcDbSymbolTableRecord
100
AcDbLinetypeTableRecord
  2
ACAD_ISO04W100
 70
     0
  3
ISO long-dash dot ____ . ____ . ____ . ____ . _
 72
    65
 73
     4
 40
30.0
 49
24.0
 74
     0
 49
-3.0
 74
     0
 49
0.0
 74
     0
 49
-3.0
 74
     0
  0
LTYPE
  5
37
330
5
100
AcDbSymbolTableRecord
100
AcDbLinetypeTableRecord
  2
ACAD_ISO05W100
 70
     0
  3
ISO long-dash double-dot ____ .. ____ .. ____ .
 72
    65
 73
     6
 40
34.0
 49
24.0
 74
     0
 49
-3.0
 74
     0
 49
0.5
 74
     0
 49
-3.0
 74
     0
 49
0.5
 74
     0
 49
-3.0
 74
     0
  0
LTYPE
  5
38
330
5
100
AcDbSymbolTableRecord
100
AcDbLinetypeTableRecord
  2
ACAD_ISO06W100
 70
     0
  3
ISO long-dash triple-dot ____ ... ____ ... ____
 72
    65
 73
     8
 40
37.5
 49
24.0
 74
     0
 49
-3.0
 74
     0
 49
0.5
 74
     0
 49
-3.0
 74
     0
 49
0.5
 74
     0
 49
-3.0
 74
     0
 49
0.5
 74
     0
 49
-3.0
 74
     0
  0
LTYPE
  5
39
330
5
100
AcDbSymbolTableRecord
100
AcDbLinetypeTableRecord
  2
ACAD_ISO07W100
 70
     0
  3
ISO dot . . . . . . . . . . . . . . . . . . . .
 72
    65
 73
     2
 40
3.0
 49
0.0
 74
     0
 49
-3.0
 74
     0
  0
LTYPE
  5
3A
330
5
100
AcDbSymbolTableRecord
100
AcDbLinetypeTableRecord
  2
ACAD_ISO08W100
 70
     0
  3
ISO long-dash short-dash ____ __ ____ __ ____ _
 72
    65
 73
     4
 40
36.0
 49
24.0
 74
     0
 49
-3.0
 74
     0
 49
6.0
 74
     0
 49
-3.0
 74
     0
  0
LTYPE
  5
3B
330
5
100
AcDbSymbolTableRecord
100
AcDbLinetypeTableRecord
  2
ACAD_ISO09W100
 70
     0
  3
ISO long-dash double-short-dash ____ __ __ ____
 72
    65
 73
     6
 40
45.0
 49
24.0
 74
     0
 49
-3.0
 74
     0
 49
6.0
 74
     0
 49
-3.0
 74
     0
 49
6.0
 74
     0
 49
-3.0
 74
     0
  0
LTYPE
  5
3C
330
5
100
AcDbSymbolTableRecord
100
AcDbLinetypeTableRecord
  2
ACAD_ISO10W100
 70
     0
  3
ISO dash dot __ . __ . __ . __ . __ . __ . __ .
 72
    65
 73
     4
 40
18.0
 49
12.0
 74
     0
 49
-3.0
 74
     0
 49
0.0
 74
     0
 49
-3.0
 74
     0
  0
LTYPE
  5
3D
330
5
100
AcDbSymbolTableRecord
100
AcDbLinetypeTableRecord
  2
ACAD_ISO11W100
 70
     0
  3
ISO double-dash dot __ __ . __ __ . __ __ . __ 
 72
    65
 73
     6
 40
33.0
 49
12.0
 74
     0
 49
-3.0
 74
     0
 49
12.0
 74
     0
 49
-3.0
 74
     0
 49
0.0
 74
     0
 49
-3.0
 74
     0
  0
LTYPE
  5
3E
330
5
100
AcDbSymbolTableRecord
100
AcDbLinetypeTableRecord
  2
ACAD_ISO12W100
 70
     0
  3
ISO dash double-dot __ . . __ . . __ . . __ . .
 72
    65
 73
     6
 40
21.0
 49
12.0
 74
     0
 49
-3.0
 74
     0
 49
0.0
 74
     0
 49
-3.0
 74
     0
 49
0.0
 74
     0
 49
-3.0
 74
     0
  0
LTYPE
  5
3F
330
5
100
AcDbSymbolTableRecord
100
AcDbLinetypeTableRecord
  2
ACAD_ISO13W100
 70
     0
  3
ISO double-dash double-dot __ __ . . __ __ . . 
 72
    65
 73
     8
 40
36.0
 49
12.0
 74
     0
 49
-3.0
 74
     0
 49
12.0
 74
     0
 49
-3.0
 74
     0
 49
0.0
 74
     0
 49
-3.0
 74
     0
 49
0.0
 74
     0
 49
-3.0
 74
     0
  0
LTYPE
  5
40
330
5
100
AcDbSymbolTableRecord
100
AcDbLinetypeTableRecord
  2
ACAD_ISO14W100
 70
     0
  3
ISO dash triple-dot __ . . . __ . . . __ . . . 
 72
    65
 73
     8
 40
24.0
 49
12.0
 74
     0
 49
-3.0
 74
     0
 49
0.0
 74
     0
 49
-3.0
 74
     0
 49
0.0
 74
     0
 49
-3.0
 74
     0
 49
0.0
 74
     0
 49
-3.0
 74
     0
  0
LTYPE
  5
41
330
5
100
AcDbSymbolTableRecord
100
AcDbLinetypeTableRecord
  2
ACAD_ISO15W100
 70
     0
  3
ISO double-dash triple-dot __ __ . . . __ __ . 
 72
    65
 73
    10
 40
39.0
 49
12.0
 74
     0
 49
-3.0
 74
     0
 49
12.0
 74
     0
 49
-3.0
 74
     0
 49
0.0
 74
     0
 49
-3.0
 74
     0
 49
0.0
 74
     0
 49
-3.0
 74
     0
 49
0.0
 74
     0
 49
-3.0
 74
     0
  0
LTYPE
  5
42
330
5
100
AcDbSymbolTableRecord
100
AcDbLinetypeTableRecord
  2
BATTING
 70
     0
  3
Batting SSSSSSSSSSSSSSSSSSSSSSSSSSSSSSSSSSSSSSS
 72
    65
 73
     4
 40
10.16254
 49
0.00254
 74
     0
 49
-2.54
 74
     4
 75
   134
340
33
 46
2.54
 50
0.0
 44
-2.54
 45
0.0
 49
-5.08
 74
     4
 75
   134
340
33
 46
2.54
 50
180.0
 44
2.54
 45
0.0
 49
-2.54
 74
     0
  0
LTYPE
  5
43
330
5
100
AcDbSymbolTableRecord
100
AcDbLinetypeTableRecord
  2
BORDER
 70
     0
  3
Border __ __ . __ __ . __ __ . __ __ . __ __ .
 72
    65
 73
     6
 40
44.45
 49
12.7
 74
     0
 49
-6.349999999999999
 74
     0
 49
12.7
 74
     0
 49
-6.349999999999999
 74
     0
 49
0.0
 74
     0
 49
-6.349999999999999
 74
     0
  0
LTYPE
  5
44
330
5
100
AcDbSymbolTableRecord
100
AcDbLinetypeTableRecord
  2
BORDER2
 70
     0
  3
Border (.5x) __.__.__.__.__.__.__.__.__.__.__.
 72
    65
 73
     6
 40
22.225
 49
6.349999999999999
 74
     0
 49
-3.174999999999999
 74
     0
 49
6.349999999999999
 74
     0
 49
-3.174999999999999
 74
     0
 49
0.0
 74
     0
 49
-3.174999999999999
 74
     0
  0
LTYPE
  5
45
330
5
100
AcDbSymbolTableRecord
100
AcDbLinetypeTableRecord
  2
BORDERX2
 70
     0
  3
Border (2x) ____  ____  .  ____  ____  .  ___
 72
    65
 73
     6
 40
88.9
 49
25.4
 74
     0
 49
-12.7
 74
     0
 49
25.4
 74
     0
 49
-12.7
 74
     0
 49
0.0
 74
     0
 49
-12.7
 74
     0
  0
LTYPE
  5
46
330
5
100
AcDbSymbolTableRecord
100
AcDbLinetypeTableRecord
  2
CENTER
 70
     0
  3
Center ____ _ ____ _ ____ _ ____ _ ____ _ ____
 72
    65
 73
     4
 40
50.8
 49
31.75
 74
     0
 49
-6.349999999999999
 74
     0
 49
6.349999999999999
 74
     0
 49
-6.349999999999999
 74
     0
  0
LTYPE
  5
47
330
5
100
AcDbSymbolTableRecord
100
AcDbLinetypeTableRecord
  2
CENTER2
 70
     0
  3
Center (.5x) ___ _ ___ _ ___ _ ___ _ ___ _ ___
 72
    65
 73
     4
 40
28.575
 49
19.05
 74
     0
 49
-3.174999999999999
 74
     0
 49
3.174999999999999
 74
     0
 49
-3.174999999999999
 74
     0
  0
LTYPE
  5
48
330
5
100
AcDbSymbolTableRecord
100
AcDbLinetypeTableRecord
  2
CENTERX2
 70
     0
  3
Center (2x) ________  __  ________  __  _____
 72
    65
 73
     4
 40
101.6
 49
63.5
 74
     0
 49
-12.7
 74
     0
 49
12.7
 74
     0
 49
-12.7
 74
     0
  0
LTYPE
  5
49
330
5
100
AcDbSymbolTableRecord
100
AcDbLinetypeTableRecord
  2
DASHDOT
 70
     0
  3
Dash dot __ . __ . __ . __ . __ . __ . __ . __
 72
    65
 73
     4
 40
25.4
 49
12.7
 74
     0
 49
-6.349999999999999
 74
     0
 49
0.0
 74
     0
 49
-6.349999999999999
 74
     0
  0
LTYPE
  5
4A
330
5
100
AcDbSymbolTableRecord
100
AcDbLinetypeTableRecord
  2
DASHDOT2
 70
     0
  3
Dash dot (.5x) _._._._._._._._._._._._._._._.
 72
    65
 73
     4
 40
12.7
 49
6.349999999999999
 74
     0
 49
-3.174999999999999
 74
     0
 49
0.0
 74
     0
 49
-3.174999999999999
 74
     0
  0
LTYPE
  5
4B
330
5
100
AcDbSymbolTableRecord
100
AcDbLinetypeTableRecord
  2
DASHDOTX2
 70
     0
  3
Dash dot (2x) ____  .  ____  .  ____  .  ___
 72
    65
 73
     4
 40
50.8
 49
25.4
 74
     0
 49
-12.7
 74
     0
 49
0.0
 74
     0
 49
-12.7
 74
     0
  0
LTYPE
  5
4C
330
5
100
AcDbSymbolTableRecord
100
AcDbLinetypeTableRecord
  2
DASHED
 70
     0
  3
Dashed __ __ __ __ __ __ __ __ __ __ __ __ __ _
 72
    65
 73
     2
 40
19.05
 49
12.7
 74
     0
 49
-6.349999999999999
 74
     0
  0
LTYPE
  5
4D
330
5
100
AcDbSymbolTableRecord
100
AcDbLinetypeTableRecord
  2
DASHED2
 70
     0
  3
Dashed (.5x) _ _ _ _ _ _ _ _ _ _ _ _ _ _ _ _ _
 72
    65
 73
     2
 40
9.524999999999998
 49
6.349999999999999
 74
     0
 49
-3.174999999999999
 74
     0
  0
LTYPE
  5
4E
330
5
100
AcDbSymbolTableRecord
100
AcDbLinetypeTableRecord
  2
DASHEDX2
 70
     0
  3
Dashed (2x) ____  ____  ____  ____  ____  ___
 72
    65
 73
     2
 40
38.1
 49
25.4
 74
     0
 49
-12.7
 74
     0
  0
LTYPE
  5
4F
330
5
100
AcDbSymbolTableRecord
100
AcDbLinetypeTableRecord
  2
DIVIDE
 70
     0
  3
Divide ____ . . ____ . . ____ . . ____ . . ____
 72
    65
 73
     6
 40
31.75
 49
12.7
 74
     0
 49
-6.349999999999999
 74
     0
 49
0.0
 74
     0
 49
-6.349999999999999
 74
     0
 49
0.0
 74
     0
 49
-6.349999999999999
 74
     0
  0
LTYPE
  5
50
330
5
100
AcDbSymbolTableRecord
100
AcDbLinetypeTableRecord
  2
DIVIDE2
 70
     0
  3
Divide (.5x) __..__..__..__..__..__..__..__.._
 72
    65
 73
     6
 40
15.875
 49
6.349999999999999
 74
     0
 49
-3.174999999999999
 74
     0
 49
0.0
 74
     0
 49
-3.174999999999999
 74
     0
 49
0.0
 74
     0
 49
-3.174999999999999
 74
     0
  0
LTYPE
  5
51
330
5
100
AcDbSymbolTableRecord
100
AcDbLinetypeTableRecord
  2
DIVIDEX2
 70
     0
  3
Divide (2x) ________  .  .  ________  .  .  _
 72
    65
 73
     6
 40
63.49999999999999
 49
25.4
 74
     0
 49
-12.7
 74
     0
 49
0.0
 74
     0
 49
-12.7
 74
     0
 49
0.0
 74
     0
 49
-12.7
 74
     0
  0
LTYPE
  5
52
330
5
100
AcDbSymbolTableRecord
100
AcDbLinetypeTableRecord
  2
DOT
 70
     0
  3
Dot . . . . . . . . . . . . . . . . . . . . . .
 72
    65
 73
     2
 40
6.349999999999999
 49
0.0
 74
     0
 49
-6.349999999999999
 74
     0
  0
LTYPE
  5
53
330
5
100
AcDbSymbolTableRecord
100
AcDbLinetypeTableRecord
  2
DOT2
 70
     0
  3
Dot (.5x) .....................................
 72
    65
 73
     2
 40
3.174999999999999
 49
0.0
 74
     0
 49
-3.174999999999999
 74
     0
  0
LTYPE
  5
54
330
5
100
AcDbSymbolTableRecord
100
AcDbLinetypeTableRecord
  2
DOTX2
 70
     0
  3
Dot (2x) .  .  .  .  .  .  .  .  .  .  .  .  . 
 72
    65
 73
     2
 40
12.7
 49
0.0
 74
     0
 49
-12.7
 74
     0
  0
LTYPE
  5
55
330
5
100
AcDbSymbolTableRecord
100
AcDbLinetypeTableRecord
  2
FENCELINE1
 70
     0
  3
Fenceline circle ----0-----0----0-----0----0---
 72
    65
 73
     4
 40
36.83
 49
6.349999999999999
 74
     0
 49
-2.54
 74
     4
 75
   133
340
33
 46
2.54
 50
0.0
 44
-2.54
 45
0.0
 49
-2.54
 74
     0
 49
25.4
 74
     0
  0
LTYPE
  5
56
330
5
100
AcDbSymbolTableRecord
100
AcDbLinetypeTableRecord
  2
FENCELINE2
 70
     0
  3
Fenceline square ----[]-----[]----[]-----[]----
 72
    65
 73
     4
 40
36.83
 49
6.349999999999999
 74
     0
 49
-2.54
 74
     4
 75
   132
340
33
 46
2.54
 50
0.0
 44
-2.54
 45
0.0
 49
-2.54
 74
     0
 49
25.4
 74
     0
  0
LTYPE
  5
57
330
5
100
AcDbSymbolTableRecord
100
AcDbLinetypeTableRecord
  2
GAS_LINE
 70
     0
  3
Gas line ----GAS----GAS----GAS----GAS----GAS---
 72
    65
 73
     3
 40
24.13
 49
12.7
 74
     0
 49
-5.08
 74
     2
 75
     0
340
11
 46
2.54
 50
0.0
 44
-2.54
 45
-1.27
  9
GAS
 49
-6.349999999999999
 74
     0
  0
LTYPE
  5
58
330
5
100
AcDbSymbolTableRecord
100
AcDbLinetypeTableRecord
  2
HIDDEN
 70
     0
  3
Hidden __ __ __ __ __ __ __ __ __ __ __ __ __ _
 72
    65
 73
     2
 40
9.524999999999998
 49
6.349999999999999
 74
     0
 49
-3.174999999999999
 74
     0
  0
LTYPE
  5
59
330
5
100
AcDbSymbolTableRecord
100
AcDbLinetypeTableRecord
  2
HIDDEN2
 70
     0
  3
Hidden (.5x) _ _ _ _ _ _ _ _ _ _ _ _ _ _ _ _ _
 72
    65
 73
     2
 40
4.762499999999999
 49
3.174999999999999
 74
     0
 49
-1.587499999999999
 74
     0
  0
LTYPE
  5
5A
330
5
100
AcDbSymbolTableRecord
100
AcDbLinetypeTableRecord
  2
HIDDENX2
 70
     0
  3
Hidden (2x) ____ ____ ____ ____ ____ ____ ____
 72
    65
 73
     2
 40
19.05
 49
12.7
 74
     0
 49
-6.349999999999999
 74
     0
  0
LTYPE
  5
5B
330
5
100
AcDbSymbolTableRecord
100
AcDbLinetypeTableRecord
  2
HOT_WATER_SUPPLY
 70
     0
  3
Hot water supply ---- HW ---- HW ---- HW ----
 72
    65
 73
     3
 40
22.86
 49
12.7
 74
     0
 49
-5.08
 74
     2
 75
     0
340
11
 46
2.54
 50
0.0
 44
-2.54
 45
-1.27
  9
HW
 49
-5.08
 74
     0
  0
LTYPE
  5
5C
330
5
100
AcDbSymbolTableRecord
100
AcDbLinetypeTableRecord
  2
PHANTOM
 70
     0
  3
Phantom ______  __  __  ______  __  __  ______
 72
    65
 73
     6
 40
63.5
 49
31.75
 74
     0
 49
-6.349999999999999
 74
     0
 49
6.349999999999999
 74
     0
 49
-6.349999999999999
 74
     0
 49
6.349999999999999
 74
     0
 49
-6.349999999999999
 74
     0
  0
LTYPE
  5
5D
330
5
100
AcDbSymbolTableRecord
100
AcDbLinetypeTableRecord
  2
PHANTOM2
 70
     0
  3
Phantom (.5x) ___ _ _ ___ _ _ ___ _ _ ___ _ _
 72
    65
 73
     6
 40
31.75
 49
15.875
 74
     0
 49
-3.174999999999999
 74
     0
 49
3.174999999999999
 74
     0
 49
-3.174999999999999
 74
     0
 49
3.174999999999999
 74
     0
 49
-3.174999999999999
 74
     0
  0
LTYPE
  5
5E
330
5
100
AcDbSymbolTableRecord
100
AcDbLinetypeTableRecord
  2
PHANTOMX2
 70
     0
  3
Phantom (2x) ____________    ____    ____   _
 72
    65
 73
     6
 40
127.0
 49
63.5
 74
     0
 49
-12.7
 74
     0
 49
12.7
 74
     0
 49
-12.7
 74
     0
 49
12.7
 74
     0
 49
-12.7
 74
     0
  0
LTYPE
  5
5F
330
5
100
AcDbSymbolTableRecord
100
AcDbLinetypeTableRecord
  2
TRACKS
 70
     0
  3
Tracks -|-|-|-|-|-|-|-|-|-|-|-|-|-|-|-|-|-|-|-|
 72
    65
 73
     2
 40
7.62
 49
3.81
 74
     4
 75
   130
340
33
 46
6.349999999999999
 50
0.0
 44
0.0
 45
0.0
 49
3.81
 74
     0
  0
LTYPE
  5
60
330
5
100
AcDbSymbolTableRecord
100
AcDbLinetypeTableRecord
  2
ZIGZAG
 70
     0
  3
Zig zag /\/\/\/\/\/\/\/\/\/\/\/\/\/\/\/\/\/\/\/
 72
    65
 73
     4
 40
20.32254
 49
0.00254
 74
     0
 49
-5.08
 74
     4
 75
   131
340
33
 46
5.08
 50
0.0
 44
-5.08
 45
0.0
 49
-10.16
 74
     4
 75
   131
340
33
 46
5.08
 50
180.0
 44
5.08
 45
0.0
 49
-5.08
 74
     0
  0
ENDTAB
  0
TABLE
  2
LAYER
  5
2
102
{ACAD_XDICTIONARY
360
1854
102
}
330
0
100
AcDbSymbolTable
 70
     7
  0
LAYER
  5
10
330
2
100
AcDbSymbolTableRecord
100
AcDbLayerTableRecord
  2
0
 70
     0
 62
     7
  6
Continuous
370
    -3
390
F
  0
LAYER
  5
C3
330
2
100
AcDbSymbolTableRecord
100
AcDbLayerTableRecord
  2
Defpoints
 70
     0
 62
     7
  6
Continuous
290
     0
370
    -3
390
F
  0
LAYER
  5
256
330
2
100
AcDbSymbolTableRecord
100
AcDbLayerTableRecord
  2
Cen
 70
     0
 62
     7
  6
CENTER2
370
    15
390
F
  0
LAYER
  5
5DF
330
2
100
AcDbSymbolTableRecord
100
AcDbLayerTableRecord
  2
実形
 70
     0
 62
     7
  6
Continuous
370
    -3
390
F
  0
LAYER
  5
60C
330
2
100
AcDbSymbolTableRecord
100
AcDbLayerTableRecord
  2
補助
 70
     0
 62
     7
  6
Continuous
370
    -3
390
F
  0
LAYER
  5
619
330
2
100
AcDbSymbolTableRecord
100
AcDbLayerTableRecord
  2
センター
 70
     0
 62
     7
  6
CENTER2
370
    18
390
F
  0
LAYER
  5
61A
330
2
100
AcDbSymbolTableRecord
100
AcDbLayerTableRecord
  2
寸法
 70
     0
 62
     7
  6
Continuous
370
    18
390
F
  0
ENDTAB
  0
TABLE
  2
STYLE
  5
3
330
0
100
AcDbSymbolTable
 70
     4
  0
STYLE
  5
11
330
3
100
AcDbSymbolTableRecord
100
AcDbTextStyleTableRecord
  2
Standard
 70
     0
 40
0.0
 41
1.0
 50
0.0
 71
     0
 42
35.0
  3
txt.shx
  4
bigfont.shx
  0
STYLE
  5
33
330
3
100
AcDbSymbolTableRecord
100
AcDbTextStyleTableRecord
  2

 70
     1
 40
0.0
 41
1.0
 50
0.0
 71
     0
 42
2.5
  3
ltypeshp.shx
  4

  0
STYLE
  5
1A6A
330
3
100
AcDbSymbolTableRecord
100
AcDbTextStyleTableRecord
  2
ms明朝
 70
     0
 40
0.0
 41
1.0
 50
0.0
 71
     0
 42
25.0
  3
MS Mincho.ttf
  4

1001
ACAD
1000
MS Mincho
1071
    32785
  0
STYLE
  5
1B1F
330
3
100
AcDbSymbolTableRecord
100
AcDbTextStyleTableRecord
  2
明朝
 70
     0
 40
0.0
 41
1.0
 50
0.0
 71
     0
 42
25.0
  3
MS Mincho.ttf
  4

1001
ACAD
1000
MS Mincho
1071
    32785
  0
ENDTAB
  0
TABLE
  2
VIEW
  5
6
330
0
100
AcDbSymbolTable
 70
     0
  0
ENDTAB
  0
TABLE
  2
UCS
  5
7
330
0
100
AcDbSymbolTable
 70
     0
  0
ENDTAB
  0
TABLE
  2
APPID
  5
9
330
0
100
AcDbSymbolTable
 70
     1
  0
APPID
  5
12
330
9
100
AcDbSymbolTableRecord
100
AcDbRegAppTableRecord
  2
ACAD
 70
     0
  0
ENDTAB
  0
TABLE
  2
DIMSTYLE
  5
A
330
0
100
AcDbSymbolTable
 70
     1
100
AcDbDimStyleTable
 71
     1
340
27
  0
DIMSTYLE
105
27
102
{ACAD_REACTORS
330
473
330
480
330
586
330
304
330
28B
330
2B3
330
270
330
376
330
2E9
330
298
330
2DC
330
2A6
330
27E
330
384
330
31C
330
2F7
330
3BF
330
3B2
330
4C1
330
E81
330
E8E
330
1422
330
14D1
330
14DE
330
14EB
330
14FD
330
185E
330
185F
330
1860
330
1861
330
1A84
330
1A85
330
1A86
330
1A87
102
}
330
A
100
AcDbSymbolTableRecord
100
AcDbDimStyleTableRecord
  2
ISO-25
 70
     0
 41
30.0
 42
65.0
 43
3.75
 44
0.0
 73
     0
 74
     0
 77
     1
 78
     8
140
25.0
141
2.5
143
0.03937007874016
147
6.25
171
     3
172
     1
271
     2
272
     2
274
     3
283
     0
284
     8
340
11
341
DA
342
D0
371
    15
372
    15
  0
ENDTAB
  0
TABLE
  2
BLOCK_RECORD
  5
1
330
0
100
AcDbSymbolTable
 70
    38
  0
BLOCK_RECORD
  5
1F
102
{ACAD_XDICTIONARY
360
1AFC
102
}
330
1
100
AcDbSymbolTableRecord
100
AcDbBlockTableRecord
  2
*Model_Space
340
22
  0
BLOCK_RECORD
  5
1B
330
1
100
AcDbSymbolTableRecord
100
AcDbBlockTableRecord
  2
*Paper_Space
340
1E
  0
BLOCK_RECORD
  5
23
330
1
100
AcDbSymbolTableRecord
100
AcDbBlockTableRecord
  2
*Paper_Space0
340
26
  0
BLOCK_RECORD
  5
D0
330
1
100
AcDbSymbolTableRecord
100
AcDbBlockTableRecord
  2
_DotSmall
340
0
102
{BLKREFS
331
1600
331
1601
331
1608
331
1609
331
1611
331
1612
331
161A
331
161B
331
1623
331
1624
331
162C
331
162D
331
1645
331
1646
331
164E
331
164F
331
1657
331
1658
331
1660
331
1661
331
166A
331
166B
331
167D
331
167E
331
1686
331
1687
331
1690
331
1691
331
1698
331
1699
331
16A2
331
16A3
331
16AA
331
16AB
331
16CF
331
16D0
331
16D7
331
16D8
331
16EB
331
16EC
331
16F5
331
16F6
331
16FD
331
16FE
331
172A
331
172B
331
1749
331
174A
331
175B
331
175C
331
181E
331
181F
331
1896
331
1897
331
189F
331
18A0
331
18A8
331
18A9
331
18B0
331
18B1
331
1ABC
331
1ABD
331
1AE0
331
1AE1
331
1AEA
331
1AEB
331
1AF3
331
1AF4
102
}
  0
BLOCK_RECORD
  5
D4
330
1
100
AcDbSymbolTableRecord
100
AcDbBlockTableRecord
  2
_Origin2
340
0
  0
BLOCK_RECORD
  5
DA
330
1
100
AcDbSymbolTableRecord
100
AcDbBlockTableRecord
  2
_Open30
340
0
  0
BLOCK_RECORD
  5
271
330
1
100
AcDbSymbolTableRecord
100
AcDbBlockTableRecord
  2
*D4
340
0
  0
BLOCK_RECORD
  5
27F
330
1
100
AcDbSymbolTableRecord
100
AcDbBlockTableRecord
  2
*D5
340
0
  0
BLOCK_RECORD
  5
28C
330
1
100
AcDbSymbolTableRecord
100
AcDbBlockTableRecord
  2
*D6
340
0
  0
BLOCK_RECORD
  5
299
330
1
100
AcDbSymbolTableRecord
100
AcDbBlockTableRecord
  2
*D7
340
0
  0
BLOCK_RECORD
  5
2A7
330
1
100
AcDbSymbolTableRecord
100
AcDbBlockTableRecord
  2
*D8
340
0
  0
BLOCK_RECORD
  5
2B4
330
1
100
AcDbSymbolTableRecord
100
AcDbBlockTableRecord
  2
*D9
340
0
  0
BLOCK_RECORD
  5
2DD
330
1
100
AcDbSymbolTableRecord
100
AcDbBlockTableRecord
  2
*D10
340
0
  0
BLOCK_RECORD
  5
2EA
330
1
100
AcDbSymbolTableRecord
100
AcDbBlockTableRecord
  2
*D11
340
0
  0
BLOCK_RECORD
  5
2F8
330
1
100
AcDbSymbolTableRecord
100
AcDbBlockTableRecord
  2
*D12
340
0
  0
BLOCK_RECORD
  5
305
330
1
100
AcDbSymbolTableRecord
100
AcDbBlockTableRecord
  2
*D13
340
0
  0
BLOCK_RECORD
  5
31D
330
1
100
AcDbSymbolTableRecord
100
AcDbBlockTableRecord
  2
*D14
340
0
  0
BLOCK_RECORD
  5
377
330
1
100
AcDbSymbolTableRecord
100
AcDbBlockTableRecord
  2
*D15
340
0
  0
BLOCK_RECORD
  5
385
330
1
100
AcDbSymbolTableRecord
100
AcDbBlockTableRecord
  2
*D16
340
0
  0
BLOCK_RECORD
  5
3B3
330
1
100
AcDbSymbolTableRecord
100
AcDbBlockTableRecord
  2
*D17
340
0
  0
BLOCK_RECORD
  5
3C0
330
1
100
AcDbSymbolTableRecord
100
AcDbBlockTableRecord
  2
*D18
340
0
  0
BLOCK_RECORD
  5
474
330
1
100
AcDbSymbolTableRecord
100
AcDbBlockTableRecord
  2
*D19
340
0
  0
BLOCK_RECORD
  5
481
330
1
100
AcDbSymbolTableRecord
100
AcDbBlockTableRecord
  2
*D20
340
0
  0
BLOCK_RECORD
  5
4C2
330
1
100
AcDbSymbolTableRecord
100
AcDbBlockTableRecord
  2
*D21
340
0
  0
BLOCK_RECORD
  5
587
330
1
100
AcDbSymbolTableRecord
100
AcDbBlockTableRecord
  2
*D22
340
0
  0
BLOCK_RECORD
  5
E82
330
1
100
AcDbSymbolTableRecord
100
AcDbBlockTableRecord
  2
*D23
340
0
  0
BLOCK_RECORD
  5
E8F
330
1
100
AcDbSymbolTableRecord
100
AcDbBlockTableRecord
  2
*D24
340
0
  0
BLOCK_RECORD
  5
1423
330
1
100
AcDbSymbolTableRecord
100
AcDbBlockTableRecord
  2
*D25
340
0
  0
BLOCK_RECORD
  5
14D2
330
1
100
AcDbSymbolTableRecord
100
AcDbBlockTableRecord
  2
*D26
340
0
  0
BLOCK_RECORD
  5
14DF
330
1
100
AcDbSymbolTableRecord
100
AcDbBlockTableRecord
  2
*D27
340
0
  0
BLOCK_RECORD
  5
14EC
330
1
100
AcDbSymbolTableRecord
100
AcDbBlockTableRecord
  2
*D28
340
0
  0
BLOCK_RECORD
  5
14FE
330
1
100
AcDbSymbolTableRecord
100
AcDbBlockTableRecord
  2
*D29
340
0
  0
BLOCK_RECORD
  5
1862
330
1
100
AcDbSymbolTableRecord
100
AcDbBlockTableRecord
  2
*D30
340
0
  0
BLOCK_RECORD
  5
186E
330
1
100
AcDbSymbolTableRecord
100
AcDbBlockTableRecord
  2
*D31
340
0
  0
BLOCK_RECORD
  5
187A
330
1
100
AcDbSymbolTableRecord
100
AcDbBlockTableRecord
  2
*D32
340
0
  0
BLOCK_RECORD
  5
1886
330
1
100
AcDbSymbolTableRecord
100
AcDbBlockTableRecord
  2
*D33
340
0
  0
BLOCK_RECORD
  5
1A88
330
1
100
AcDbSymbolTableRecord
100
AcDbBlockTableRecord
  2
*D34
340
0
  0
BLOCK_RECORD
  5
1A94
330
1
100
AcDbSymbolTableRecord
100
AcDbBlockTableRecord
  2
*D35
340
0
  0
BLOCK_RECORD
  5
1AA0
330
1
100
AcDbSymbolTableRecord
100
AcDbBlockTableRecord
  2
*D36
340
0
  0
BLOCK_RECORD
  5
1AAC
330
1
100
AcDbSymbolTableRecord
100
AcDbBlockTableRecord
  2
*D37
340
0
  0
ENDTAB
  0
ENDSEC
  0
SECTION
  2
BLOCKS
  0
BLOCK
  5
20
330
1F
100
AcDbEntity
  8
0
100
AcDbBlockBegin
  2
*Model_Space
 70
     0
 10
0.0
 20
0.0
 30
0.0
  3
*Model_Space
  1

  0
ENDBLK
  5
21
330
1F
100
AcDbEntity
  8
0
100
AcDbBlockEnd
  0
BLOCK
  5
1C
330
1B
100
AcDbEntity
 67
     1
  8
0
100
AcDbBlockBegin
  2
*Paper_Space
 70
     0
 10
0.0
 20
0.0
 30
0.0
  3
*Paper_Space
  1

  0
ENDBLK
  5
1D
330
1B
100
AcDbEntity
 67
     1
  8
0
100
AcDbBlockEnd
  0
BLOCK
  5
24
330
23
100
AcDbEntity
  8
0
100
AcDbBlockBegin
  2
*Paper_Space0
 70
     0
 10
0.0
 20
0.0
 30
0.0
  3
*Paper_Space0
  1

  0
ENDBLK
  5
25
330
23
100
AcDbEntity
  8
0
100
AcDbBlockEnd
  0
BLOCK
  5
D2
330
D0
100
AcDbEntity
  8
0
100
AcDbBlockBegin
  2
_DotSmall
 70
     0
 10
0.0
 20
0.0
 30
0.0
  3
_DotSmall
  1

  0
LWPOLYLINE
  5
D1
330
D0
100
AcDbEntity
  8
0
 62
     0
100
AcDbPolyline
 90
        2
 70
     1
 43
0.5
 10
-0.0625
 20
0.0
 42
1.0
 10
0.0625
 20
0.0
 42
1.0
  0
ENDBLK
  5
D3
330
D0
100
AcDbEntity
  8
0
100
AcDbBlockEnd
  0
BLOCK
  5
D8
330
D4
100
AcDbEntity
  8
0
100
AcDbBlockBegin
  2
_Origin2
 70
     0
 10
0.0
 20
0.0
 30
0.0
  3
_Origin2
  1

  0
CIRCLE
  5
D5
330
D4
100
AcDbEntity
  8
0
 62
     0
370
    -2
100
AcDbCircle
 10
0.0
 20
0.0
 30
0.0
 40
0.5
  0
CIRCLE
  5
D6
330
D4
100
AcDbEntity
  8
0
 62
     0
370
    -2
100
AcDbCircle
 10
0.0
 20
0.0
 30
0.0
 40
0.25
  0
LINE
  5
D7
330
D4
100
AcDbEntity
  8
0
 62
     0
370
    -2
100
AcDbLine
 10
-0.5
 20
0.0
 30
0.0
 11
-1.0
 21
0.0
 31
0.0
  0
ENDBLK
  5
D9
330
D4
100
AcDbEntity
  8
0
100
AcDbBlockEnd
  0
BLOCK
  5
DE
330
DA
100
AcDbEntity
  8
0
100
AcDbBlockBegin
  2
_Open30
 70
     0
 10
0.0
 20
0.0
 30
0.0
  3
_Open30
  1

  0
LINE
  5
DB
330
DA
100
AcDbEntity
  8
0
 62
     0
370
    -2
100
AcDbLine
 10
-1.0
 20
0.26794919
 30
0.0
 11
0.0
 21
0.0
 31
0.0
  0
LINE
  5
DC
330
DA
100
AcDbEntity
  8
0
 62
     0
370
    -2
100
AcDbLine
 10
0.0
 20
0.0
 30
0.0
 11
-1.0
 21
-0.26794919
 31
0.0
  0
LINE
  5
DD
330
DA
100
AcDbEntity
  8
0
 62
     0
370
    -2
100
AcDbLine
 10
0.0
 20
0.0
 30
0.0
 11
-1.0
 21
0.0
 31
0.0
  0
ENDBLK
  5
DF
330
DA
100
AcDbEntity
  8
0
100
AcDbBlockEnd
  0
BLOCK
  5
27C
330
271
100
AcDbEntity
  8
0
100
AcDbBlockBegin
  2
*D4
 70
     1
 10
0.0
 20
0.0
 30
0.0
  3
*D4
  1

  0
LINE
  5
1682
330
271
100
AcDbEntity
  8
0
 62
     0
370
    15
100
AcDbLine
 10
633.686340370189
 20
1143.819144775783
 30
0.0
 11
508.3067659808461
 21
1143.819144775783
 31
0.0
  0
LINE
  5
1683
330
271
100
AcDbEntity
  8
0
 62
     0
370
    15
100
AcDbLine
 10
633.686340370189
 20
1158.819144775782
 30
0.0
 11
508.3067659808461
 21
1158.819144775783
 31
0.0
  0
LINE
  5
1684
330
271
100
AcDbEntity
  8
0
 62
     0
370
    15
100
AcDbLine
 10
508.3067659808461
 20
1143.819144775783
 30
0.0
 11
508.3067659808461
 21
1158.819144775783
 31
0.0
  0
LINE
  5
1685
330
271
100
AcDbEntity
  8
0
 62
     0
370
    15
100
AcDbLine
 10
508.3067659808461
 20
1158.819144775783
 30
0.0
 11
508.3067659808461
 21
1234.652478109116
 31
0.0
  0
INSERT
  5
1686
330
271
100
AcDbEntity
  8
0
 62
     0
370
    15
100
AcDbBlockReference
  2
_DotSmall
 10
508.3067659808461
 20
1143.819144775783
 30
0.0
 41
30.0
 42
30.0
 43
30.0
 50
270.0
  0
INSERT
  5
1687
330
271
100
AcDbEntity
  8
0
 62
     0
370
    15
100
AcDbBlockReference
  2
_DotSmall
 10
508.3067659808461
 20
1158.819144775783
 30
0.0
 41
30.0
 42
30.0
 43
30.0
 50
90.0
  0
MTEXT
  5
1688
330
271
100
AcDbEntity
  8
0
 62
     0
100
AcDbMText
 10
489.556765980846
 20
1211.735811442449
 30
0.0
 40
25.0
 41
0.0
 71
     5
 72
     1
  1
15
 11
0.0000000000000001
 21
1.0
 31
0.0
 73
     1
 44
1.0
1001
ACAD
1000
MTEXTBEGIN
1070
    73
1070
     1
1070
    44
1040
1.0
1070
    74
1070
     0
1000
MTEXTEND
  0
POINT
  5
1689
330
271
100
AcDbEntity
  8
Defpoints
 62
     0
100
AcDbPoint
 10
698.6863403701891
 20
1143.819144775783
 30
0.0
  0
POINT
  5
168A
330
271
100
AcDbEntity
  8
Defpoints
 62
     0
100
AcDbPoint
 10
698.6863403701891
 20
1158.819144775782
 30
0.0
  0
POINT
  5
168B
330
271
100
AcDbEntity
  8
Defpoints
 62
     0
100
AcDbPoint
 10
508.3067659808461
 20
1158.819144775783
 30
0.0
  0
ENDBLK
  5
27D
330
271
100
AcDbEntity
  8
0
100
AcDbBlockEnd
  0
BLOCK
  5
289
330
27F
100
AcDbEntity
  8
0
100
AcDbBlockBegin
  2
*D5
 70
     1
 10
0.0
 20
0.0
 30
0.0
  3
*D5
  1

  0
LINE
  5
165D
330
27F
100
AcDbEntity
  8
0
 62
     0
370
    15
100
AcDbLine
 10
633.686340370189
 20
1158.819144775782
 30
0.0
 11
508.3067659808461
 21
1158.819144775783
 31
0.0
  0
LINE
  5
165E
330
27F
100
AcDbEntity
  8
0
 62
     0
370
    15
100
AcDbLine
 10
633.6863403701892
 20
1588.819144775782
 30
0.0
 11
508.3067659808461
 21
1588.819144775783
 31
0.0
  0
LINE
  5
165F
330
27F
100
AcDbEntity
  8
0
 62
     0
370
    15
100
AcDbLine
 10
508.3067659808461
 20
1158.819144775783
 30
0.0
 11
508.3067659808461
 21
1588.819144775783
 31
0.0
  0
INSERT
  5
1660
330
27F
100
AcDbEntity
  8
0
 62
     0
370
    15
100
AcDbBlockReference
  2
_DotSmall
 10
508.3067659808461
 20
1158.819144775783
 30
0.0
 41
30.0
 42
30.0
 43
30.0
 50
270.0
  0
INSERT
  5
1661
330
27F
100
AcDbEntity
  8
0
 62
     0
370
    15
100
AcDbBlockReference
  2
_DotSmall
 10
508.3067659808461
 20
1588.819144775783
 30
0.0
 41
30.0
 42
30.0
 43
30.0
 50
90.0
  0
MTEXT
  5
1662
330
27F
100
AcDbEntity
  8
0
 62
     0
100
AcDbMText
 10
489.5567659808459
 20
1373.819144775783
 30
0.0
 40
25.0
 41
0.0
 71
     5
 72
     1
  1
430
 11
0.0000000000000001
 21
1.0
 31
0.0
 73
     1
 44
1.0
1001
ACAD
1000
MTEXTBEGIN
1070
    73
1070
     1
1070
    44
1040
1.0
1070
    74
1070
     0
1000
MTEXTEND
  0
POINT
  5
1663
330
27F
100
AcDbEntity
  8
Defpoints
 62
     0
100
AcDbPoint
 10
698.6863403701891
 20
1158.819144775782
 30
0.0
  0
POINT
  5
1664
330
27F
100
AcDbEntity
  8
Defpoints
 62
     0
100
AcDbPoint
 10
698.6863403701891
 20
1588.819144775782
 30
0.0
  0
POINT
  5
1665
330
27F
100
AcDbEntity
  8
Defpoints
 62
     0
100
AcDbPoint
 10
508.3067659808461
 20
1588.819144775783
 30
0.0
  0
ENDBLK
  5
28A
330
27F
100
AcDbEntity
  8
0
100
AcDbBlockEnd
  0
BLOCK
  5
296
330
28C
100
AcDbEntity
  8
0
100
AcDbBlockBegin
  2
*D6
 70
     1
 10
0.0
 20
0.0
 30
0.0
  3
*D6
  1

  0
LINE
  5
1695
330
28C
100
AcDbEntity
  8
0
 62
     0
370
    15
100
AcDbLine
 10
633.6863403701892
 20
1588.819144775782
 30
0.0
 11
508.3067659808461
 21
1588.819144775783
 31
0.0
  0
LINE
  5
1696
330
28C
100
AcDbEntity
  8
0
 62
     0
370
    15
100
AcDbLine
 10
633.6863403701892
 20
1663.819144775782
 30
0.0
 11
508.3067659808461
 21
1663.819144775783
 31
0.0
  0
LINE
  5
1697
330
28C
100
AcDbEntity
  8
0
 62
     0
370
    15
100
AcDbLine
 10
508.3067659808461
 20
1588.819144775783
 30
0.0
 11
508.3067659808461
 21
1663.819144775783
 31
0.0
  0
INSERT
  5
1698
330
28C
100
AcDbEntity
  8
0
 62
     0
370
    15
100
AcDbBlockReference
  2
_DotSmall
 10
508.3067659808461
 20
1588.819144775783
 30
0.0
 41
30.0
 42
30.0
 43
30.0
 50
270.0
  0
INSERT
  5
1699
330
28C
100
AcDbEntity
  8
0
 62
     0
370
    15
100
AcDbBlockReference
  2
_DotSmall
 10
508.3067659808461
 20
1663.819144775783
 30
0.0
 41
30.0
 42
30.0
 43
30.0
 50
90.0
  0
MTEXT
  5
169A
330
28C
100
AcDbEntity
  8
0
 62
     0
100
AcDbMText
 10
489.556765980846
 20
1626.319144775783
 30
0.0
 40
25.0
 41
0.0
 71
     5
 72
     1
  1
75
 11
0.0000000000000001
 21
1.0
 31
0.0
 73
     1
 44
1.0
1001
ACAD
1000
MTEXTBEGIN
1070
    73
1070
     1
1070
    44
1040
1.0
1070
    74
1070
     0
1000
MTEXTEND
  0
POINT
  5
169B
330
28C
100
AcDbEntity
  8
Defpoints
 62
     0
100
AcDbPoint
 10
698.6863403701891
 20
1588.819144775782
 30
0.0
  0
POINT
  5
169C
330
28C
100
AcDbEntity
  8
Defpoints
 62
     0
100
AcDbPoint
 10
698.6863403701891
 20
1663.819144775782
 30
0.0
  0
POINT
  5
169D
330
28C
100
AcDbEntity
  8
Defpoints
 62
     0
100
AcDbPoint
 10
508.3067659808461
 20
1663.819144775783
 30
0.0
  0
ENDBLK
  5
297
330
28C
100
AcDbEntity
  8
0
100
AcDbBlockEnd
  0
BLOCK
  5
2A4
330
299
100
AcDbEntity
  8
0
100
AcDbBlockBegin
  2
*D7
 70
     1
 10
0.0
 20
0.0
 30
0.0
  3
*D7
  1

  0
LINE
  5
1679
330
299
100
AcDbEntity
  8
0
 62
     0
370
    15
100
AcDbLine
 10
633.686340370189
 20
1126.819144775782
 30
0.0
 11
438.8367659808462
 21
1126.819144775783
 31
0.0
  0
LINE
  5
167A
330
299
100
AcDbEntity
  8
0
 62
     0
370
    15
100
AcDbLine
 10
633.686340370189
 20
1143.819144775783
 30
0.0
 11
438.8367659808462
 21
1143.819144775783
 31
0.0
  0
LINE
  5
167B
330
299
100
AcDbEntity
  8
0
 62
     0
370
    15
100
AcDbLine
 10
438.8367659808462
 20
1126.819144775783
 30
0.0
 11
438.8367659808462
 21
1143.819144775783
 31
0.0
  0
MTEXT
  5
167C
330
299
100
AcDbEntity
  8
0
 62
     0
100
AcDbMText
 10
412.1776847237379
 20
1152.38243185651
 30
0.0
 40
25.0
 41
0.0
 71
     5
 72
     1
  1
17
 11
0.0000000000000001
 21
1.0
 31
0.0
 73
     1
 44
1.0
1001
ACAD
1000
MTEXTBEGIN
1070
    73
1070
     1
1070
    44
1040
1.0
1070
    74
1070
     0
1000
MTEXTEND
  0
INSERT
  5
167D
330
299
100
AcDbEntity
  8
0
 62
     0
370
    15
100
AcDbBlockReference
  2
_DotSmall
 10
438.8367659808462
 20
1126.819144775783
 30
0.0
 41
30.0
 42
30.0
 43
30.0
 50
270.0
  0
INSERT
  5
167E
330
299
100
AcDbEntity
  8
0
 62
     0
370
    15
100
AcDbBlockReference
  2
_DotSmall
 10
438.8367659808462
 20
1143.819144775783
 30
0.0
 41
30.0
 42
30.0
 43
30.0
 50
90.0
  0
POINT
  5
167F
330
299
100
AcDbEntity
  8
Defpoints
 62
     0
100
AcDbPoint
 10
698.6863403701891
 20
1126.819144775782
 30
0.0
  0
POINT
  5
1680
330
299
100
AcDbEntity
  8
Defpoints
 62
     0
100
AcDbPoint
 10
698.6863403701891
 20
1143.819144775783
 30
0.0
  0
POINT
  5
1681
330
299
100
AcDbEntity
  8
Defpoints
 62
     0
100
AcDbPoint
 10
438.8367659808462
 20
1143.819144775783
 30
0.0
  0
ENDBLK
  5
2A5
330
299
100
AcDbEntity
  8
0
100
AcDbBlockEnd
  0
BLOCK
  5
2B1
330
2A7
100
AcDbEntity
  8
0
100
AcDbBlockBegin
  2
*D8
 70
     1
 10
0.0
 20
0.0
 30
0.0
  3
*D8
  1

  0
LINE
  5
1654
330
2A7
100
AcDbEntity
  8
0
 62
     0
370
    15
100
AcDbLine
 10
633.686340370189
 20
1143.819144775783
 30
0.0
 11
438.836765980846
 21
1143.819144775783
 31
0.0
  0
LINE
  5
1655
330
2A7
100
AcDbEntity
  8
0
 62
     0
370
    15
100
AcDbLine
 10
633.6863403701892
 20
1663.819144775782
 30
0.0
 11
438.8367659808462
 21
1663.819144775783
 31
0.0
  0
LINE
  5
1656
330
2A7
100
AcDbEntity
  8
0
 62
     0
370
    15
100
AcDbLine
 10
438.836765980846
 20
1143.819144775783
 30
0.0
 11
438.8367659808462
 21
1663.819144775783
 31
0.0
  0
INSERT
  5
1657
330
2A7
100
AcDbEntity
  8
0
 62
     0
370
    15
100
AcDbBlockReference
  2
_DotSmall
 10
438.836765980846
 20
1143.819144775783
 30
0.0
 41
30.0
 42
30.0
 43
30.0
 50
270.0
  0
INSERT
  5
1658
330
2A7
100
AcDbEntity
  8
0
 62
     0
370
    15
100
AcDbBlockReference
  2
_DotSmall
 10
438.8367659808462
 20
1663.819144775783
 30
0.0
 41
30.0
 42
30.0
 43
30.0
 50
90.0
  0
MTEXT
  5
1659
330
2A7
100
AcDbEntity
  8
0
 62
     0
100
AcDbMText
 10
420.0867659808459
 20
1403.819144775783
 30
0.0
 40
25.0
 41
0.0
 71
     5
 72
     1
  1
520
 11
0.0000000000000001
 21
1.0
 31
0.0
 73
     1
 44
1.0
1001
ACAD
1000
MTEXTBEGIN
1070
    73
1070
     1
1070
    44
1040
1.0
1070
    74
1070
     0
1000
MTEXTEND
  0
POINT
  5
165A
330
2A7
100
AcDbEntity
  8
Defpoints
 62
     0
100
AcDbPoint
 10
698.6863403701891
 20
1143.819144775783
 30
0.0
  0
POINT
  5
165B
330
2A7
100
AcDbEntity
  8
Defpoints
 62
     0
100
AcDbPoint
 10
698.6863403701891
 20
1663.819144775782
 30
0.0
  0
POINT
  5
165C
330
2A7
100
AcDbEntity
  8
Defpoints
 62
     0
100
AcDbPoint
 10
438.8367659808462
 20
1663.819144775783
 30
0.0
  0
ENDBLK
  5
2B2
330
2A7
100
AcDbEntity
  8
0
100
AcDbBlockEnd
  0
BLOCK
  5
2BE
330
2B4
100
AcDbEntity
  8
0
100
AcDbBlockBegin
  2
*D9
 70
     1
 10
0.0
 20
0.0
 30
0.0
  3
*D9
  1

  0
LINE
  5
168C
330
2B4
100
AcDbEntity
  8
0
 62
     0
370
    15
100
AcDbLine
 10
633.6863403701892
 20
1663.819144775782
 30
0.0
 11
438.8367659808461
 21
1663.819144775783
 31
0.0
  0
LINE
  5
168D
330
2B4
100
AcDbEntity
  8
0
 62
     0
370
    15
100
AcDbLine
 10
633.686340370189
 20
1680.819144775783
 30
0.0
 11
438.8367659808462
 21
1680.819144775783
 31
0.0
  0
LINE
  5
168E
330
2B4
100
AcDbEntity
  8
0
 62
     0
370
    15
100
AcDbLine
 10
438.8367659808461
 20
1663.819144775783
 30
0.0
 11
438.8367659808462
 21
1680.819144775783
 31
0.0
  0
MTEXT
  5
168F
330
2B4
100
AcDbEntity
  8
0
 62
     0
100
AcDbMText
 10
408.6067057791233
 20
1654.476166823188
 30
0.0
 40
25.0
 41
0.0
 71
     5
 72
     1
  1
17
 11
0.0000000000000001
 21
1.0
 31
0.0
 73
     1
 44
1.0
1001
ACAD
1000
MTEXTBEGIN
1070
    73
1070
     1
1070
    44
1040
1.0
1070
    74
1070
     0
1000
MTEXTEND
  0
INSERT
  5
1690
330
2B4
100
AcDbEntity
  8
0
 62
     0
370
    15
100
AcDbBlockReference
  2
_DotSmall
 10
438.8367659808461
 20
1663.819144775783
 30
0.0
 41
30.0
 42
30.0
 43
30.0
 50
270.0
  0
INSERT
  5
1691
330
2B4
100
AcDbEntity
  8
0
 62
     0
370
    15
100
AcDbBlockReference
  2
_DotSmall
 10
438.8367659808462
 20
1680.819144775783
 30
0.0
 41
30.0
 42
30.0
 43
30.0
 50
90.0
  0
POINT
  5
1692
330
2B4
100
AcDbEntity
  8
Defpoints
 62
     0
100
AcDbPoint
 10
698.6863403701891
 20
1663.819144775782
 30
0.0
  0
POINT
  5
1693
330
2B4
100
AcDbEntity
  8
Defpoints
 62
     0
100
AcDbPoint
 10
698.6863403701891
 20
1680.819144775783
 30
0.0
  0
POINT
  5
1694
330
2B4
100
AcDbEntity
  8
Defpoints
 62
     0
100
AcDbPoint
 10
438.8367659808462
 20
1680.819144775783
 30
0.0
  0
ENDBLK
  5
2BF
330
2B4
100
AcDbEntity
  8
0
100
AcDbBlockEnd
  0
BLOCK
  5
2E7
330
2DD
100
AcDbEntity
  8
0
100
AcDbBlockBegin
  2
*D10
 70
     1
 10
0.0
 20
0.0
 30
0.0
  3
*D10
  1

  0
LINE
  5
164B
330
2DD
100
AcDbEntity
  8
0
 62
     0
370
    15
100
AcDbLine
 10
633.686340370189
 20
1126.819144775782
 30
0.0
 11
369.3667659808461
 21
1126.819144775783
 31
0.0
  0
LINE
  5
164C
330
2DD
100
AcDbEntity
  8
0
 62
     0
370
    15
100
AcDbLine
 10
633.686340370189
 20
1680.819144775783
 30
0.0
 11
369.3667659808463
 21
1680.819144775783
 31
0.0
  0
LINE
  5
164D
330
2DD
100
AcDbEntity
  8
0
 62
     0
370
    15
100
AcDbLine
 10
369.3667659808461
 20
1126.819144775783
 30
0.0
 11
369.3667659808463
 21
1680.819144775783
 31
0.0
  0
INSERT
  5
164E
330
2DD
100
AcDbEntity
  8
0
 62
     0
370
    15
100
AcDbBlockReference
  2
_DotSmall
 10
369.3667659808461
 20
1126.819144775783
 30
0.0
 41
30.0
 42
30.0
 43
30.0
 50
270.0
  0
INSERT
  5
164F
330
2DD
100
AcDbEntity
  8
0
 62
     0
370
    15
100
AcDbBlockReference
  2
_DotSmall
 10
369.3667659808463
 20
1680.819144775783
 30
0.0
 41
30.0
 42
30.0
 43
30.0
 50
90.0
  0
MTEXT
  5
1650
330
2DD
100
AcDbEntity
  8
0
 62
     0
100
AcDbMText
 10
350.616765980846
 20
1403.819144775783
 30
0.0
 40
25.0
 41
0.0
 71
     5
 72
     1
  1
554
 11
0.0000000000000001
 21
1.0
 31
0.0
 73
     1
 44
1.0
1001
ACAD
1000
MTEXTBEGIN
1070
    73
1070
     1
1070
    44
1040
1.0
1070
    74
1070
     0
1000
MTEXTEND
  0
POINT
  5
1651
330
2DD
100
AcDbEntity
  8
Defpoints
 62
     0
100
AcDbPoint
 10
698.6863403701891
 20
1126.819144775782
 30
0.0
  0
POINT
  5
1652
330
2DD
100
AcDbEntity
  8
Defpoints
 62
     0
100
AcDbPoint
 10
698.6863403701891
 20
1680.819144775783
 30
0.0
  0
POINT
  5
1653
330
2DD
100
AcDbEntity
  8
Defpoints
 62
     0
100
AcDbPoint
 10
369.3667659808463
 20
1680.819144775783
 30
0.0
  0
ENDBLK
  5
2E8
330
2DD
100
AcDbEntity
  8
0
100
AcDbBlockEnd
  0
BLOCK
  5
2F5
330
2EA
100
AcDbEntity
  8
0
100
AcDbBlockBegin
  2
*D11
 70
     1
 10
0.0
 20
0.0
 30
0.0
  3
*D11
  1

  0
LINE
  5
1666
330
2EA
100
AcDbEntity
  8
0
 62
     0
370
    15
100
AcDbLine
 10
698.6863403701891
 20
1061.819144775782
 30
0.0
 11
698.6863403701891
 21
1009.911372981066
 31
0.0
  0
LINE
  5
1667
330
2EA
100
AcDbEntity
  8
0
 62
     0
370
    15
100
AcDbLine
 10
715.6863403701891
 20
1061.819144775782
 30
0.0
 11
715.6863403701891
 21
1009.911372981066
 31
0.0
  0
LINE
  5
1668
330
2EA
100
AcDbEntity
  8
0
 62
     0
370
    15
100
AcDbLine
 10
698.6863403701891
 20
1009.911372981066
 30
0.0
 11
715.6863403701891
 21
1009.911372981066
 31
0.0
  0
LINE
  5
1669
330
2EA
100
AcDbEntity
  8
0
 62
     0
370
    15
100
AcDbLine
 10
715.6863403701891
 20
1009.911372981066
 30
0.0
 11
791.5196737035224
 21
1009.911372981066
 31
0.0
  0
INSERT
  5
166A
330
2EA
100
AcDbEntity
  8
0
 62
     0
370
    15
100
AcDbBlockReference
  2
_DotSmall
 10
698.6863403701891
 20
1009.911372981066
 30
0.0
 41
30.0
 42
30.0
 43
30.0
 50
180.0
  0
INSERT
  5
166B
330
2EA
100
AcDbEntity
  8
0
 62
     0
370
    15
100
AcDbBlockReference
  2
_DotSmall
 10
715.6863403701891
 20
1009.911372981066
 30
0.0
 41
30.0
 42
30.0
 43
30.0
  0
MTEXT
  5
166C
330
2EA
100
AcDbEntity
  8
0
 62
     0
100
AcDbMText
 10
768.6030070368557
 20
1028.661372981066
 30
0.0
 40
25.0
 41
0.0
 71
     5
 72
     1
  1
17
 73
     1
 44
1.0
1001
ACAD
1000
MTEXTBEGIN
1070
    73
1070
     1
1070
    44
1040
1.0
1070
    74
1070
     0
1000
MTEXTEND
  0
POINT
  5
166D
330
2EA
100
AcDbEntity
  8
Defpoints
 62
     0
100
AcDbPoint
 10
698.6863403701891
 20
1126.819144775782
 30
0.0
  0
POINT
  5
166E
330
2EA
100
AcDbEntity
  8
Defpoints
 62
     0
100
AcDbPoint
 10
715.6863403701891
 20
1126.819144775782
 30
0.0
  0
POINT
  5
166F
330
2EA
100
AcDbEntity
  8
Defpoints
 62
     0
100
AcDbPoint
 10
715.6863403701891
 20
1009.911372981066
 30
0.0
  0
ENDBLK
  5
2F6
330
2EA
100
AcDbEntity
  8
0
100
AcDbBlockEnd
  0
BLOCK
  5
302
330
2F8
100
AcDbEntity
  8
0
100
AcDbBlockBegin
  2
*D12
 70
     1
 10
0.0
 20
0.0
 30
0.0
  3
*D12
  1

  0
LINE
  5
1629
330
2F8
100
AcDbEntity
  8
0
 62
     0
370
    15
100
AcDbLine
 10
715.6863403701891
 20
1061.819144775782
 30
0.0
 11
715.6863403701891
 21
1009.911372981066
 31
0.0
  0
LINE
  5
162A
330
2F8
100
AcDbEntity
  8
0
 62
     0
370
    15
100
AcDbLine
 10
1365.686340370189
 20
1061.819144775782
 30
0.0
 11
1365.686340370189
 21
1009.911372981066
 31
0.0
  0
LINE
  5
162B
330
2F8
100
AcDbEntity
  8
0
 62
     0
370
    15
100
AcDbLine
 10
715.6863403701891
 20
1009.911372981066
 30
0.0
 11
1365.686340370189
 21
1009.911372981066
 31
0.0
  0
INSERT
  5
162C
330
2F8
100
AcDbEntity
  8
0
 62
     0
370
    15
100
AcDbBlockReference
  2
_DotSmall
 10
715.6863403701891
 20
1009.911372981066
 30
0.0
 41
30.0
 42
30.0
 43
30.0
 50
180.0
  0
INSERT
  5
162D
330
2F8
100
AcDbEntity
  8
0
 62
     0
370
    15
100
AcDbBlockReference
  2
_DotSmall
 10
1365.686340370189
 20
1009.911372981066
 30
0.0
 41
30.0
 42
30.0
 43
30.0
  0
MTEXT
  5
162E
330
2F8
100
AcDbEntity
  8
0
 62
     0
100
AcDbMText
 10
1040.686340370189
 20
1028.661372981066
 30
0.0
 40
25.0
 41
0.0
 71
     5
 72
     1
  1
650
 73
     1
 44
1.0
1001
ACAD
1000
MTEXTBEGIN
1070
    73
1070
     1
1070
    44
1040
1.0
1070
    74
1070
     0
1000
MTEXTEND
  0
POINT
  5
162F
330
2F8
100
AcDbEntity
  8
Defpoints
 62
     0
100
AcDbPoint
 10
715.6863403701891
 20
1126.819144775782
 30
0.0
  0
POINT
  5
1630
330
2F8
100
AcDbEntity
  8
Defpoints
 62
     0
100
AcDbPoint
 10
1365.686340370189
 20
1126.819144775782
 30
0.0
  0
POINT
  5
1631
330
2F8
100
AcDbEntity
  8
Defpoints
 62
     0
100
AcDbPoint
 10
1365.686340370189
 20
1009.911372981066
 30
0.0
  0
ENDBLK
  5
303
330
2F8
100
AcDbEntity
  8
0
100
AcDbBlockEnd
  0
BLOCK
  5
311
330
305
100
AcDbEntity
  8
0
100
AcDbBlockBegin
  2
*D13
 70
     1
 10
0.0
 20
0.0
 30
0.0
  3
*D13
  1

  0
LINE
  5
16CB
330
305
100
AcDbEntity
  8
0
 62
     0
370
    15
100
AcDbLine
 10
1365.686340370189
 20
1061.819144775782
 30
0.0
 11
1365.686340370189
 21
1009.911372981066
 31
0.0
  0
LINE
  5
16CC
330
305
100
AcDbEntity
  8
0
 62
     0
370
    15
100
AcDbLine
 10
1382.686340370189
 20
1061.819144775782
 30
0.0
 11
1382.686340370189
 21
1009.911372981066
 31
0.0
  0
LINE
  5
16CD
330
305
100
AcDbEntity
  8
0
 62
     0
370
    15
100
AcDbLine
 10
1365.686340370189
 20
1009.911372981066
 30
0.0
 11
1382.686340370189
 21
1009.911372981066
 31
0.0
  0
MTEXT
  5
16CE
330
305
100
AcDbEntity
  8
0
 62
     0
100
AcDbMText
 10
1322.228124785733
 20
1028.661372981066
 30
0.0
 40
25.0
 41
0.0
 71
     5
 72
     1
  1
17
 73
     1
 44
1.0
1001
ACAD
1000
MTEXTBEGIN
1070
    73
1070
     1
1070
    44
1040
1.0
1070
    74
1070
     0
1000
MTEXTEND
  0
INSERT
  5
16CF
330
305
100
AcDbEntity
  8
0
 62
     0
370
    15
100
AcDbBlockReference
  2
_DotSmall
 10
1365.686340370189
 20
1009.911372981066
 30
0.0
 41
30.0
 42
30.0
 43
30.0
 50
180.0
  0
INSERT
  5
16D0
330
305
100
AcDbEntity
  8
0
 62
     0
370
    15
100
AcDbBlockReference
  2
_DotSmall
 10
1382.686340370189
 20
1009.911372981066
 30
0.0
 41
30.0
 42
30.0
 43
30.0
  0
POINT
  5
16D1
330
305
100
AcDbEntity
  8
Defpoints
 62
     0
100
AcDbPoint
 10
1365.686340370189
 20
1126.819144775782
 30
0.0
  0
POINT
  5
16D2
330
305
100
AcDbEntity
  8
Defpoints
 62
     0
100
AcDbPoint
 10
1382.686340370189
 20
1126.819144775782
 30
0.0
  0
POINT
  5
16D3
330
305
100
AcDbEntity
  8
Defpoints
 62
     0
100
AcDbPoint
 10
1382.686340370189
 20
1009.911372981066
 30
0.0
  0
ENDBLK
  5
312
330
305
100
AcDbEntity
  8
0
100
AcDbBlockEnd
  0
BLOCK
  5
327
330
31D
100
AcDbEntity
  8
0
100
AcDbBlockBegin
  2
*D14
 70
     1
 10
0.0
 20
0.0
 30
0.0
  3
*D14
  1

  0
LINE
  5
1620
330
31D
100
AcDbEntity
  8
0
 62
     0
370
    15
100
AcDbLine
 10
698.6863403701891
 20
1061.819144775782
 30
0.0
 11
698.6863403701891
 21
939.552601025859
 31
0.0
  0
LINE
  5
1621
330
31D
100
AcDbEntity
  8
0
 62
     0
370
    15
100
AcDbLine
 10
1382.686340370189
 20
1061.819144775782
 30
0.0
 11
1382.686340370189
 21
939.552601025859
 31
0.0
  0
LINE
  5
1622
330
31D
100
AcDbEntity
  8
0
 62
     0
370
    15
100
AcDbLine
 10
698.6863403701891
 20
939.552601025859
 30
0.0
 11
1382.686340370189
 21
939.552601025859
 31
0.0
  0
INSERT
  5
1623
330
31D
100
AcDbEntity
  8
0
 62
     0
370
    15
100
AcDbBlockReference
  2
_DotSmall
 10
698.6863403701891
 20
939.552601025859
 30
0.0
 41
30.0
 42
30.0
 43
30.0
 50
180.0
  0
INSERT
  5
1624
330
31D
100
AcDbEntity
  8
0
 62
     0
370
    15
100
AcDbBlockReference
  2
_DotSmall
 10
1382.686340370189
 20
939.552601025859
 30
0.0
 41
30.0
 42
30.0
 43
30.0
  0
MTEXT
  5
1625
330
31D
100
AcDbEntity
  8
0
 62
     0
100
AcDbMText
 10
1040.686340370189
 20
958.302601025859
 30
0.0
 40
25.0
 41
0.0
 71
     5
 72
     1
  1
684
 73
     1
 44
1.0
1001
ACAD
1000
MTEXTBEGIN
1070
    73
1070
     1
1070
    44
1040
1.0
1070
    74
1070
     0
1000
MTEXTEND
  0
POINT
  5
1626
330
31D
100
AcDbEntity
  8
Defpoints
 62
     0
100
AcDbPoint
 10
698.6863403701891
 20
1126.819144775782
 30
0.0
  0
POINT
  5
1627
330
31D
100
AcDbEntity
  8
Defpoints
 62
     0
100
AcDbPoint
 10
1382.686340370189
 20
1126.819144775782
 30
0.0
  0
POINT
  5
1628
330
31D
100
AcDbEntity
  8
Defpoints
 62
     0
100
AcDbPoint
 10
1382.686340370189
 20
939.552601025859
 30
0.0
  0
ENDBLK
  5
328
330
31D
100
AcDbEntity
  8
0
100
AcDbBlockEnd
  0
BLOCK
  5
381
330
377
100
AcDbEntity
  8
0
100
AcDbBlockBegin
  2
*D15
 70
     1
 10
0.0
 20
0.0
 30
0.0
  3
*D15
  1

  0
LINE
  5
1617
330
377
100
AcDbEntity
  8
0
 62
     0
370
    15
100
AcDbLine
 10
965.6863403701891
 20
1390.562056585004
 30
0.0
 11
965.6863403701891
 21
1296.282066833568
 31
0.0
  0
LINE
  5
1618
330
377
100
AcDbEntity
  8
0
 62
     0
370
    15
100
AcDbLine
 10
715.6863403701891
 20
1408.819144775783
 30
0.0
 11
715.6863403701891
 21
1296.282066833568
 31
0.0
  0
LINE
  5
1619
330
377
100
AcDbEntity
  8
0
 62
     0
370
    15
100
AcDbLine
 10
965.6863403701891
 20
1296.282066833568
 30
0.0
 11
715.6863403701891
 21
1296.282066833568
 31
0.0
  0
INSERT
  5
161A
330
377
100
AcDbEntity
  8
0
 62
     0
370
    15
100
AcDbBlockReference
  2
_DotSmall
 10
965.6863403701891
 20
1296.282066833568
 30
0.0
 41
30.0
 42
30.0
 43
30.0
  0
INSERT
  5
161B
330
377
100
AcDbEntity
  8
0
 62
     0
370
    15
100
AcDbBlockReference
  2
_DotSmall
 10
715.6863403701891
 20
1296.282066833568
 30
0.0
 41
30.0
 42
30.0
 43
30.0
 50
180.0
  0
MTEXT
  5
161C
330
377
100
AcDbEntity
  8
0
 62
     0
100
AcDbMText
 10
840.6863403701891
 20
1315.032066833568
 30
0.0
 40
25.0
 41
0.0
 71
     5
 72
     1
  1
250
 73
     1
 44
1.0
1001
ACAD
1000
MTEXTBEGIN
1070
    73
1070
     1
1070
    44
1040
1.0
1070
    74
1070
     0
1000
MTEXTEND
  0
POINT
  5
161D
330
377
100
AcDbEntity
  8
Defpoints
 62
     0
100
AcDbPoint
 10
965.6863403701891
 20
1455.562056585004
 30
0.0
  0
POINT
  5
161E
330
377
100
AcDbEntity
  8
Defpoints
 62
     0
100
AcDbPoint
 10
715.6863403701891
 20
1473.819144775783
 30
0.0
  0
POINT
  5
161F
330
377
100
AcDbEntity
  8
Defpoints
 62
     0
100
AcDbPoint
 10
715.6863403701891
 20
1296.282066833568
 30
0.0
  0
ENDBLK
  5
382
330
377
100
AcDbEntity
  8
0
100
AcDbBlockEnd
  0
BLOCK
  5
38F
330
385
100
AcDbEntity
  8
0
100
AcDbBlockBegin
  2
*D16
 70
     1
 10
0.0
 20
0.0
 30
0.0
  3
*D16
  1

  0
LINE
  5
160E
330
385
100
AcDbEntity
  8
0
 62
     0
370
    15
100
AcDbLine
 10
1092.246624125874
 20
1493.819144775782
 30
0.0
 11
1126.093842644628
 21
1493.819144775782
 31
0.0
  0
LINE
  5
160F
330
385
100
AcDbEntity
  8
0
 62
     0
370
    15
100
AcDbLine
 10
840.6863403701891
 20
1663.819144775783
 30
0.0
 11
1126.093842644628
 21
1663.819144775783
 31
0.0
  0
LINE
  5
1610
330
385
100
AcDbEntity
  8
0
 62
     0
370
    15
100
AcDbLine
 10
1126.093842644628
 20
1493.819144775782
 30
0.0
 11
1126.093842644628
 21
1663.819144775783
 31
0.0
  0
INSERT
  5
1611
330
385
100
AcDbEntity
  8
0
 62
     0
370
    15
100
AcDbBlockReference
  2
_DotSmall
 10
1126.093842644628
 20
1493.819144775782
 30
0.0
 41
30.0
 42
30.0
 43
30.0
 50
270.0
  0
INSERT
  5
1612
330
385
100
AcDbEntity
  8
0
 62
     0
370
    15
100
AcDbBlockReference
  2
_DotSmall
 10
1126.093842644628
 20
1663.819144775783
 30
0.0
 41
30.0
 42
30.0
 43
30.0
 50
90.0
  0
MTEXT
  5
1613
330
385
100
AcDbEntity
  8
0
 62
     0
100
AcDbMText
 10
1107.343842644628
 20
1547.36953902691
 30
0.0
 40
25.0
 41
0.0
 71
     5
 72
     1
  1
170
 11
0.0000000000000001
 21
1.0
 31
0.0
 73
     1
 44
1.0
1001
ACAD
1000
MTEXTBEGIN
1070
    73
1070
     1
1070
    44
1040
1.0
1070
    74
1070
     0
1000
MTEXTEND
  0
POINT
  5
1614
330
385
100
AcDbEntity
  8
Defpoints
 62
     0
100
AcDbPoint
 10
1027.246624125874
 20
1493.819144775782
 30
0.0
  0
POINT
  5
1615
330
385
100
AcDbEntity
  8
Defpoints
 62
     0
100
AcDbPoint
 10
775.6863403701891
 20
1663.819144775783
 30
0.0
  0
POINT
  5
1616
330
385
100
AcDbEntity
  8
Defpoints
 62
     0
100
AcDbPoint
 10
1126.093842644628
 20
1663.819144775783
 30
0.0
  0
ENDBLK
  5
390
330
385
100
AcDbEntity
  8
0
100
AcDbBlockEnd
  0
BLOCK
  5
3BD
330
3B3
100
AcDbEntity
  8
0
100
AcDbBlockBegin
  2
*D17
 70
     1
 10
0.0
 20
0.0
 30
0.0
  3
*D17
  1

  0
LINE
  5
16FA
330
3B3
100
AcDbEntity
  8
0
 62
     0
370
    15
100
AcDbLine
 10
900.686340370189
 20
1745.819144775783
 30
0.0
 11
900.686340370189
 21
1775.937101222945
 31
0.0
  0
LINE
  5
16FB
330
3B3
100
AcDbEntity
  8
0
 62
     0
370
    15
100
AcDbLine
 10
1030.686340370189
 20
1745.819144775783
 30
0.0
 11
1030.686340370189
 21
1775.937101222945
 31
0.0
  0
LINE
  5
16FC
330
3B3
100
AcDbEntity
  8
0
 62
     0
370
    15
100
AcDbLine
 10
900.686340370189
 20
1775.937101222945
 30
0.0
 11
1030.686340370189
 21
1775.937101222945
 31
0.0
  0
INSERT
  5
16FD
330
3B3
100
AcDbEntity
  8
0
 62
     0
370
    15
100
AcDbBlockReference
  2
_DotSmall
 10
900.686340370189
 20
1775.937101222945
 30
0.0
 41
30.0
 42
30.0
 43
30.0
 50
180.0
  0
INSERT
  5
16FE
330
3B3
100
AcDbEntity
  8
0
 62
     0
370
    15
100
AcDbBlockReference
  2
_DotSmall
 10
1030.686340370189
 20
1775.937101222945
 30
0.0
 41
30.0
 42
30.0
 43
30.0
  0
MTEXT
  5
16FF
330
3B3
100
AcDbEntity
  8
0
 62
     0
100
AcDbMText
 10
965.6863403701891
 20
1794.687101222945
 30
0.0
 40
25.0
 41
0.0
 71
     5
 72
     1
  1
130
 73
     1
 44
1.0
1001
ACAD
1000
MTEXTBEGIN
1070
    73
1070
     1
1070
    44
1040
1.0
1070
    74
1070
     0
1000
MTEXTEND
  0
POINT
  5
1700
330
3B3
100
AcDbEntity
  8
Defpoints
 62
     0
100
AcDbPoint
 10
900.686340370189
 20
1680.819144775783
 30
0.0
  0
POINT
  5
1701
330
3B3
100
AcDbEntity
  8
Defpoints
 62
     0
100
AcDbPoint
 10
1030.686340370189
 20
1680.819144775783
 30
0.0
  0
POINT
  5
1702
330
3B3
100
AcDbEntity
  8
Defpoints
 62
     0
100
AcDbPoint
 10
1030.686340370189
 20
1775.937101222945
 30
0.0
  0
ENDBLK
  5
3BE
330
3B3
100
AcDbEntity
  8
0
100
AcDbBlockEnd
  0
BLOCK
  5
3CA
330
3C0
100
AcDbEntity
  8
0
100
AcDbBlockBegin
  2
*D18
 70
     1
 10
0.0
 20
0.0
 30
0.0
  3
*D18
  1

  0
LINE
  5
1605
330
3C0
100
AcDbEntity
  8
0
 62
     0
370
    15
100
AcDbLine
 10
835.686340370189
 20
1810.819144775783
 30
0.0
 11
835.686340370189
 21
1827.33011068973
 31
0.0
  0
LINE
  5
1606
330
3C0
100
AcDbEntity
  8
0
 62
     0
370
    15
100
AcDbLine
 10
1095.686340370189
 20
1810.819144775783
 30
0.0
 11
1095.686340370189
 21
1827.33011068973
 31
0.0
  0
LINE
  5
1607
330
3C0
100
AcDbEntity
  8
0
 62
     0
370
    15
100
AcDbLine
 10
835.686340370189
 20
1827.33011068973
 30
0.0
 11
1095.686340370189
 21
1827.33011068973
 31
0.0
  0
INSERT
  5
1608
330
3C0
100
AcDbEntity
  8
0
 62
     0
370
    15
100
AcDbBlockReference
  2
_DotSmall
 10
835.686340370189
 20
1827.33011068973
 30
0.0
 41
30.0
 42
30.0
 43
30.0
 50
180.0
  0
INSERT
  5
1609
330
3C0
100
AcDbEntity
  8
0
 62
     0
370
    15
100
AcDbBlockReference
  2
_DotSmall
 10
1095.686340370189
 20
1827.33011068973
 30
0.0
 41
30.0
 42
30.0
 43
30.0
  0
MTEXT
  5
160A
330
3C0
100
AcDbEntity
  8
0
 62
     0
100
AcDbMText
 10
965.6863403701891
 20
1846.08011068973
 30
0.0
 40
25.0
 41
0.0
 71
     5
 72
     1
  1
260
 73
     1
 44
1.0
1001
ACAD
1000
MTEXTBEGIN
1070
    73
1070
     1
1070
    44
1040
1.0
1070
    74
1070
     0
1000
MTEXTEND
  0
POINT
  5
160B
330
3C0
100
AcDbEntity
  8
Defpoints
 62
     0
100
AcDbPoint
 10
835.686340370189
 20
1745.819144775783
 30
0.0
  0
POINT
  5
160C
330
3C0
100
AcDbEntity
  8
Defpoints
 62
     0
100
AcDbPoint
 10
1095.686340370189
 20
1745.819144775783
 30
0.0
  0
POINT
  5
160D
330
3C0
100
AcDbEntity
  8
Defpoints
 62
     0
100
AcDbPoint
 10
1095.686340370189
 20
1827.33011068973
 30
0.0
  0
ENDBLK
  5
3CB
330
3C0
100
AcDbEntity
  8
0
100
AcDbBlockEnd
  0
BLOCK
  5
47E
330
474
100
AcDbEntity
  8
0
100
AcDbBlockBegin
  2
*D19
 70
     1
 10
0.0
 20
0.0
 30
0.0
  3
*D19
  1

  0
LINE
  5
181B
330
474
100
AcDbEntity
  8
0
 62
     0
370
    15
100
AcDbLine
 10
1045.186340370189
 20
474.2519496447339
 30
0.0
 11
1045.186340370189
 21
417.8574749467188
 31
0.0
  0
LINE
  5
181C
330
474
100
AcDbEntity
  8
0
 62
     0
370
    15
100
AcDbLine
 10
886.1863403701889
 20
474.2519496447341
 30
0.0
 11
886.1863403701889
 21
417.8574749467188
 31
0.0
  0
LINE
  5
181D
330
474
100
AcDbEntity
  8
0
 62
     0
370
    15
100
AcDbLine
 10
1045.186340370189
 20
417.8574749467188
 30
0.0
 11
886.1863403701889
 21
417.8574749467188
 31
0.0
  0
INSERT
  5
181E
330
474
100
AcDbEntity
  8
0
 62
     0
370
    15
100
AcDbBlockReference
  2
_DotSmall
 10
1045.186340370189
 20
417.8574749467188
 30
0.0
 41
30.0
 42
30.0
 43
30.0
  0
INSERT
  5
181F
330
474
100
AcDbEntity
  8
0
 62
     0
370
    15
100
AcDbBlockReference
  2
_DotSmall
 10
886.1863403701889
 20
417.8574749467188
 30
0.0
 41
30.0
 42
30.0
 43
30.0
 50
180.0
  0
MTEXT
  5
1820
330
474
100
AcDbEntity
  8
0
 62
     0
100
AcDbMText
 10
965.6863403701889
 20
436.6074749467188
 30
0.0
 40
25.0
 41
0.0
 71
     5
 72
     1
  1
158
 73
     1
 44
1.0
1001
ACAD
1000
MTEXTBEGIN
1070
    73
1070
     1
1070
    44
1040
1.0
1070
    74
1070
     0
1000
MTEXTEND
  0
POINT
  5
1821
330
474
100
AcDbEntity
  8
Defpoints
 62
     0
100
AcDbPoint
 10
1045.186340370189
 20
539.2519496447339
 30
0.0
  0
POINT
  5
1822
330
474
100
AcDbEntity
  8
Defpoints
 62
     0
100
AcDbPoint
 10
886.1863403701889
 20
539.2519496447341
 30
0.0
  0
POINT
  5
1823
330
474
100
AcDbEntity
  8
Defpoints
 62
     0
100
AcDbPoint
 10
886.1863403701889
 20
417.8574749467188
 30
0.0
  0
ENDBLK
  5
47F
330
474
100
AcDbEntity
  8
0
100
AcDbBlockEnd
  0
BLOCK
  5
48B
330
481
100
AcDbEntity
  8
0
100
AcDbBlockBegin
  2
*D20
 70
     1
 10
0.0
 20
0.0
 30
0.0
  3
*D20
  1

  0
LINE
  5
16A7
330
481
100
AcDbEntity
  8
0
 62
     0
370
    15
100
AcDbLine
 10
1056.186340370189
 20
611.2519496447339
 30
0.0
 11
1056.186340370189
 21
648.4049741827057
 31
0.0
  0
LINE
  5
16A8
330
481
100
AcDbEntity
  8
0
 62
     0
370
    15
100
AcDbLine
 10
875.1863403701891
 20
611.251949644734
 30
0.0
 11
875.1863403701891
 21
648.4049741827057
 31
0.0
  0
LINE
  5
16A9
330
481
100
AcDbEntity
  8
0
 62
     0
370
    15
100
AcDbLine
 10
1056.186340370189
 20
648.4049741827057
 30
0.0
 11
875.1863403701891
 21
648.4049741827057
 31
0.0
  0
INSERT
  5
16AA
330
481
100
AcDbEntity
  8
0
 62
     0
370
    15
100
AcDbBlockReference
  2
_DotSmall
 10
1056.186340370189
 20
648.4049741827057
 30
0.0
 41
30.0
 42
30.0
 43
30.0
  0
INSERT
  5
16AB
330
481
100
AcDbEntity
  8
0
 62
     0
370
    15
100
AcDbBlockReference
  2
_DotSmall
 10
875.1863403701891
 20
648.4049741827057
 30
0.0
 41
30.0
 42
30.0
 43
30.0
 50
180.0
  0
MTEXT
  5
16AC
330
481
100
AcDbEntity
  8
0
 62
     0
100
AcDbMText
 10
965.6863403701891
 20
667.1549741827057
 30
0.0
 40
25.0
 41
0.0
 71
     5
 72
     1
  1
181
 73
     1
 44
1.0
1001
ACAD
1000
MTEXTBEGIN
1070
    73
1070
     1
1070
    44
1040
1.0
1070
    74
1070
     0
1000
MTEXTEND
  0
POINT
  5
16AD
330
481
100
AcDbEntity
  8
Defpoints
 62
     0
100
AcDbPoint
 10
1056.186340370189
 20
546.2519496447339
 30
0.0
  0
POINT
  5
16AE
330
481
100
AcDbEntity
  8
Defpoints
 62
     0
100
AcDbPoint
 10
875.1863403701891
 20
546.251949644734
 30
0.0
  0
POINT
  5
16AF
330
481
100
AcDbEntity
  8
Defpoints
 62
     0
100
AcDbPoint
 10
875.1863403701891
 20
648.4049741827057
 30
0.0
  0
ENDBLK
  5
48C
330
481
100
AcDbEntity
  8
0
100
AcDbBlockEnd
  0
BLOCK
  5
4CC
330
4C2
100
AcDbEntity
  8
0
100
AcDbBlockBegin
  2
*D21
 70
     1
 10
0.0
 20
0.0
 30
0.0
  3
*D21
  1

  0
LINE
  5
1727
330
4C2
100
AcDbEntity
  8
0
 62
     0
370
    15
100
AcDbLine
 10
1979.979296620009
 20
872.0216493788257
 30
0.0
 11
1979.979296620009
 21
913.1985909010037
 31
0.0
  0
LINE
  5
1728
330
4C2
100
AcDbEntity
  8
0
 62
     0
370
    15
100
AcDbLine
 10
1809.979296620009
 20
872.0216493788257
 30
0.0
 11
1809.979296620009
 21
913.1985909010037
 31
0.0
  0
LINE
  5
1729
330
4C2
100
AcDbEntity
  8
0
 62
     0
370
    15
100
AcDbLine
 10
1979.979296620009
 20
913.1985909010037
 30
0.0
 11
1809.979296620009
 21
913.1985909010037
 31
0.0
  0
INSERT
  5
172A
330
4C2
100
AcDbEntity
  8
0
 62
     0
370
    15
100
AcDbBlockReference
  2
_DotSmall
 10
1979.979296620009
 20
913.1985909010037
 30
0.0
 41
30.0
 42
30.0
 43
30.0
  0
INSERT
  5
172B
330
4C2
100
AcDbEntity
  8
0
 62
     0
370
    15
100
AcDbBlockReference
  2
_DotSmall
 10
1809.979296620009
 20
913.1985909010037
 30
0.0
 41
30.0
 42
30.0
 43
30.0
 50
180.0
  0
MTEXT
  5
172C
330
4C2
100
AcDbEntity
  8
0
 62
     0
100
AcDbMText
 10
1894.979296620009
 20
931.9485909010037
 30
0.0
 40
25.0
 41
0.0
 71
     5
 72
     1
  1
17
 73
     1
 44
1.0
1001
ACAD
1000
MTEXTBEGIN
1070
    73
1070
     1
1070
    44
1040
1.0
1070
    74
1070
     0
1000
MTEXTEND
  0
POINT
  5
172D
330
4C2
100
AcDbEntity
  8
Defpoints
 62
     0
100
AcDbPoint
 10
1979.979296620009
 20
807.0216493788256
 30
0.0
  0
POINT
  5
172E
330
4C2
100
AcDbEntity
  8
Defpoints
 62
     0
100
AcDbPoint
 10
1809.979296620009
 20
807.0216493788256
 30
0.0
  0
POINT
  5
172F
330
4C2
100
AcDbEntity
  8
Defpoints
 62
     0
100
AcDbPoint
 10
1809.979296620009
 20
913.1985909010037
 30
0.0
  0
ENDBLK
  5
4CD
330
4C2
100
AcDbEntity
  8
0
100
AcDbBlockEnd
  0
BLOCK
  5
593
330
587
100
AcDbEntity
  8
0
100
AcDbBlockBegin
  2
*D22
 70
     1
 10
0.0
 20
0.0
 30
0.0
  3
*D22
  1

  0
LINE
  5
16F1
330
587
100
AcDbEntity
  8
0
 62
     0
370
    15
100
AcDbLine
 10
1078.941276394091
 20
1648.819144775783
 30
0.0
 11
1067.913779798548
 21
1648.819144775783
 31
0.0
  0
LINE
  5
16F2
330
587
100
AcDbEntity
  8
0
 62
     0
370
    15
100
AcDbLine
 10
1095.686340370189
 20
1663.819144775783
 30
0.0
 11
1067.913779798548
 21
1663.819144775783
 31
0.0
  0
LINE
  5
16F3
330
587
100
AcDbEntity
  8
0
 62
     0
370
    15
100
AcDbLine
 10
1067.913779798548
 20
1648.819144775783
 30
0.0
 11
1067.913779798548
 21
1663.819144775783
 31
0.0
  0
MTEXT
  5
16F4
330
587
100
AcDbEntity
  8
0
 62
     0
100
AcDbMText
 10
1065.67069337384
 20
1704.277003259854
 30
0.0
 40
25.0
 41
0.0
 71
     5
 72
     1
  1
15
 11
0.0000000000000001
 21
1.0
 31
0.0
 73
     1
 44
1.0
1001
ACAD
1000
MTEXTBEGIN
1070
    73
1070
     1
1070
    44
1040
1.0
1070
    74
1070
     0
1000
MTEXTEND
  0
INSERT
  5
16F5
330
587
100
AcDbEntity
  8
0
 62
     0
370
    15
100
AcDbBlockReference
  2
_DotSmall
 10
1067.913779798548
 20
1648.819144775783
 30
0.0
 41
30.0
 42
30.0
 43
30.0
 50
270.0
  0
INSERT
  5
16F6
330
587
100
AcDbEntity
  8
0
 62
     0
370
    15
100
AcDbBlockReference
  2
_DotSmall
 10
1067.913779798548
 20
1663.819144775783
 30
0.0
 41
30.0
 42
30.0
 43
30.0
 50
90.0
  0
POINT
  5
16F7
330
587
100
AcDbEntity
  8
Defpoints
 62
     0
100
AcDbPoint
 10
1143.941276394091
 20
1648.819144775783
 30
0.0
  0
POINT
  5
16F8
330
587
100
AcDbEntity
  8
Defpoints
 62
     0
100
AcDbPoint
 10
1160.686340370189
 20
1663.819144775783
 30
0.0
  0
POINT
  5
16F9
330
587
100
AcDbEntity
  8
Defpoints
 62
     0
100
AcDbPoint
 10
1067.913779798548
 20
1663.819144775783
 30
0.0
  0
ENDBLK
  5
594
330
587
100
AcDbEntity
  8
0
100
AcDbBlockEnd
  0
BLOCK
  5
E8C
330
E82
100
AcDbEntity
  8
0
100
AcDbBlockBegin
  2
*D23
 70
     1
 10
0.0
 20
0.0
 30
0.0
  3
*D23
  1

  0
LINE
  5
169E
330
E82
100
AcDbEntity
  8
実形
 62
     0
370
    15
100
AcDbLine
 10
1056.186340370189
 20
611.2519496447339
 30
0.0
 11
1056.186340370189
 21
648.4049741827057
 31
0.0
  0
LINE
  5
169F
330
E82
100
AcDbEntity
  8
実形
 62
     0
370
    15
100
AcDbLine
 10
1076.186340370189
 20
611.2519496447341
 30
0.0
 11
1076.186340370189
 21
648.4049741827057
 31
0.0
  0
LINE
  5
16A0
330
E82
100
AcDbEntity
  8
実形
 62
     0
370
    15
100
AcDbLine
 10
1056.186340370189
 20
648.4049741827057
 30
0.0
 11
1076.186340370189
 21
648.4049741827057
 31
0.0
  0
MTEXT
  5
16A1
330
E82
100
AcDbEntity
  8
実形
 62
     0
100
AcDbMText
 10
1065.73671474968
 20
671.6646631528861
 30
0.0
 40
25.0
 41
0.0
 71
     5
 72
     1
  1
20
 73
     1
 44
1.0
1001
ACAD
1000
MTEXTBEGIN
1070
    73
1070
     1
1070
    44
1040
1.0
1070
    74
1070
     0
1000
MTEXTEND
  0
INSERT
  5
16A2
330
E82
100
AcDbEntity
  8
実形
 62
     0
370
    15
100
AcDbBlockReference
  2
_DotSmall
 10
1056.186340370189
 20
648.4049741827057
 30
0.0
 41
30.0
 42
30.0
 43
30.0
 50
180.0
  0
INSERT
  5
16A3
330
E82
100
AcDbEntity
  8
実形
 62
     0
370
    15
100
AcDbBlockReference
  2
_DotSmall
 10
1076.186340370189
 20
648.4049741827057
 30
0.0
 41
30.0
 42
30.0
 43
30.0
  0
POINT
  5
16A4
330
E82
100
AcDbEntity
  8
Defpoints
 62
     0
100
AcDbPoint
 10
1056.186340370189
 20
546.2519496447339
 30
0.0
  0
POINT
  5
16A5
330
E82
100
AcDbEntity
  8
Defpoints
 62
     0
100
AcDbPoint
 10
1076.186340370189
 20
546.2519496447341
 30
0.0
  0
POINT
  5
16A6
330
E82
100
AcDbEntity
  8
Defpoints
 62
     0
100
AcDbPoint
 10
1076.186340370189
 20
648.4049741827057
 30
0.0
  0
ENDBLK
  5
E8D
330
E82
100
AcDbEntity
  8
0
100
AcDbBlockEnd
  0
BLOCK
  5
E99
330
E8F
100
AcDbEntity
  8
0
100
AcDbBlockBegin
  2
*D24
 70
     1
 10
0.0
 20
0.0
 30
0.0
  3
*D24
  1

  0
LINE
  5
15FC
330
E8F
100
AcDbEntity
  8
実形
 62
     0
370
    15
100
AcDbLine
 10
875.1863403701891
 20
611.251949644734
 30
0.0
 11
875.1863403701891
 21
648.4049741827057
 31
0.0
  0
LINE
  5
15FD
330
E8F
100
AcDbEntity
  8
実形
 62
     0
370
    15
100
AcDbLine
 10
855.186340370189
 20
611.2519496447341
 30
0.0
 11
855.186340370189
 21
648.4049741827057
 31
0.0
  0
LINE
  5
15FE
330
E8F
100
AcDbEntity
  8
実形
 62
     0
370
    15
100
AcDbLine
 10
875.1863403701891
 20
648.4049741827057
 30
0.0
 11
855.186340370189
 21
648.4049741827057
 31
0.0
  0
MTEXT
  5
15FF
330
E8F
100
AcDbEntity
  8
実形
 62
     0
100
AcDbMText
 10
864.3466207150213
 20
672.3159828975581
 30
0.0
 40
25.0
 41
0.0
 71
     5
 72
     1
  1
20
 73
     1
 44
1.0
1001
ACAD
1000
MTEXTBEGIN
1070
    73
1070
     1
1070
    44
1040
1.0
1070
    74
1070
     0
1000
MTEXTEND
  0
INSERT
  5
1600
330
E8F
100
AcDbEntity
  8
実形
 62
     0
370
    15
100
AcDbBlockReference
  2
_DotSmall
 10
875.1863403701891
 20
648.4049741827057
 30
0.0
 41
30.0
 42
30.0
 43
30.0
  0
INSERT
  5
1601
330
E8F
100
AcDbEntity
  8
実形
 62
     0
370
    15
100
AcDbBlockReference
  2
_DotSmall
 10
855.186340370189
 20
648.4049741827057
 30
0.0
 41
30.0
 42
30.0
 43
30.0
 50
180.0
  0
POINT
  5
1602
330
E8F
100
AcDbEntity
  8
Defpoints
 62
     0
100
AcDbPoint
 10
875.1863403701891
 20
546.251949644734
 30
0.0
  0
POINT
  5
1603
330
E8F
100
AcDbEntity
  8
Defpoints
 62
     0
100
AcDbPoint
 10
855.186340370189
 20
546.2519496447341
 30
0.0
  0
POINT
  5
1604
330
E8F
100
AcDbEntity
  8
Defpoints
 62
     0
100
AcDbPoint
 10
855.186340370189
 20
648.4049741827057
 30
0.0
  0
ENDBLK
  5
E9A
330
E8F
100
AcDbEntity
  8
0
100
AcDbBlockEnd
  0
BLOCK
  5
142D
330
1423
100
AcDbEntity
  8
0
100
AcDbBlockBegin
  2
*D25
 70
     1
 10
0.0
 20
0.0
 30
0.0
  3
*D25
  1

  0
LINE
  5
1642
330
1423
100
AcDbEntity
  8
実形
 62
     0
370
    15
100
AcDbLine
 10
633.6863403701889
 20
1588.819144775782
 30
0.0
 11
577.7767659808461
 21
1588.819144775782
 31
0.0
  0
LINE
  5
1643
330
1423
100
AcDbEntity
  8
実形
 62
     0
370
    15
100
AcDbLine
 10
633.686340370189
 20
1373.819144775783
 30
0.0
 11
577.7767659808461
 21
1373.819144775783
 31
0.0
  0
LINE
  5
1644
330
1423
100
AcDbEntity
  8
実形
 62
     0
370
    15
100
AcDbLine
 10
577.7767659808461
 20
1588.819144775782
 30
0.0
 11
577.7767659808461
 21
1373.819144775783
 31
0.0
  0
INSERT
  5
1645
330
1423
100
AcDbEntity
  8
実形
 62
     0
370
    15
100
AcDbBlockReference
  2
_DotSmall
 10
577.7767659808461
 20
1588.819144775782
 30
0.0
 41
30.0
 42
30.0
 43
30.0
 50
90.0
  0
INSERT
  5
1646
330
1423
100
AcDbEntity
  8
実形
 62
     0
370
    15
100
AcDbBlockReference
  2
_DotSmall
 10
577.7767659808461
 20
1373.819144775783
 30
0.0
 41
30.0
 42
30.0
 43
30.0
 50
270.0
  0
MTEXT
  5
1647
330
1423
100
AcDbEntity
  8
実形
 62
     0
100
AcDbMText
 10
559.026765980846
 20
1481.319144775783
 30
0.0
 40
25.0
 41
0.0
 71
     5
 72
     1
  1
215
 11
0.0000000000000001
 21
1.0
 31
0.0
 73
     1
 44
1.0
1001
ACAD
1000
MTEXTBEGIN
1070
    73
1070
     1
1070
    44
1040
1.0
1070
    74
1070
     0
1000
MTEXTEND
  0
POINT
  5
1648
330
1423
100
AcDbEntity
  8
Defpoints
 62
     0
100
AcDbPoint
 10
698.686340370189
 20
1588.819144775782
 30
0.0
  0
POINT
  5
1649
330
1423
100
AcDbEntity
  8
Defpoints
 62
     0
100
AcDbPoint
 10
698.6863403701891
 20
1373.819144775783
 30
0.0
  0
POINT
  5
164A
330
1423
100
AcDbEntity
  8
Defpoints
 62
     0
100
AcDbPoint
 10
577.7767659808461
 20
1373.819144775783
 30
0.0
  0
ENDBLK
  5
142E
330
1423
100
AcDbEntity
  8
0
100
AcDbBlockEnd
  0
BLOCK
  5
14DC
330
14D2
100
AcDbEntity
  8
0
100
AcDbBlockBegin
  2
*D26
 70
     1
 10
0.0
 20
0.0
 30
0.0
  3
*D26
  1

  0
LINE
  5
16E8
330
14D2
100
AcDbEntity
  8
実形
 62
     0
370
    15
100
AcDbLine
 10
1135.686340370189
 20
1723.819144775783
 30
0.0
 11
1135.686340370189
 21
1748.246036706801
 31
0.0
  0
LINE
  5
16E9
330
14D2
100
AcDbEntity
  8
実形
 62
     0
370
    15
100
AcDbLine
 10
1325.686340370189
 20
1723.819144775783
 30
0.0
 11
1325.686340370189
 21
1748.246036706801
 31
0.0
  0
LINE
  5
16EA
330
14D2
100
AcDbEntity
  8
実形
 62
     0
370
    15
100
AcDbLine
 10
1135.686340370189
 20
1748.246036706801
 30
0.0
 11
1325.686340370189
 21
1748.246036706801
 31
0.0
  0
INSERT
  5
16EB
330
14D2
100
AcDbEntity
  8
実形
 62
     0
370
    15
100
AcDbBlockReference
  2
_DotSmall
 10
1135.686340370189
 20
1748.246036706801
 30
0.0
 41
30.0
 42
30.0
 43
30.0
 50
180.0
  0
INSERT
  5
16EC
330
14D2
100
AcDbEntity
  8
実形
 62
     0
370
    15
100
AcDbBlockReference
  2
_DotSmall
 10
1325.686340370189
 20
1748.246036706801
 30
0.0
 41
30.0
 42
30.0
 43
30.0
  0
MTEXT
  5
16ED
330
14D2
100
AcDbEntity
  8
実形
 62
     0
100
AcDbMText
 10
1230.686340370189
 20
1766.996036706801
 30
0.0
 40
25.0
 41
0.0
 71
     5
 72
     1
  1
190
 73
     1
 44
1.0
1001
ACAD
1000
MTEXTBEGIN
1070
    73
1070
     1
1070
    44
1040
1.0
1070
    74
1070
     0
1000
MTEXTEND
  0
POINT
  5
16EE
330
14D2
100
AcDbEntity
  8
Defpoints
 62
     0
100
AcDbPoint
 10
1135.686340370189
 20
1658.819144775783
 30
0.0
  0
POINT
  5
16EF
330
14D2
100
AcDbEntity
  8
Defpoints
 62
     0
100
AcDbPoint
 10
1325.686340370189
 20
1658.819144775783
 30
0.0
  0
POINT
  5
16F0
330
14D2
100
AcDbEntity
  8
Defpoints
 62
     0
100
AcDbPoint
 10
1325.686340370189
 20
1748.246036706801
 30
0.0
  0
ENDBLK
  5
14DD
330
14D2
100
AcDbEntity
  8
0
100
AcDbBlockEnd
  0
BLOCK
  5
14E9
330
14DF
100
AcDbEntity
  8
0
100
AcDbBlockBegin
  2
*D27
 70
     1
 10
0.0
 20
0.0
 30
0.0
  3
*D27
  1

  0
LINE
  5
1757
330
14DF
100
AcDbEntity
  8
実形
 62
     0
370
    15
100
AcDbLine
 10
1325.686340370189
 20
1723.819144775783
 30
0.0
 11
1325.686340370189
 21
1748.246036706801
 31
0.0
  0
LINE
  5
1758
330
14DF
100
AcDbEntity
  8
実形
 62
     0
370
    15
100
AcDbLine
 10
1365.686340370189
 20
1723.819144775783
 30
0.0
 11
1365.686340370189
 21
1748.246036706801
 31
0.0
  0
LINE
  5
1759
330
14DF
100
AcDbEntity
  8
実形
 62
     0
370
    15
100
AcDbLine
 10
1325.686340370189
 20
1748.246036706801
 30
0.0
 11
1365.686340370189
 21
1748.246036706801
 31
0.0
  0
MTEXT
  5
175A
330
14DF
100
AcDbEntity
  8
実形
 62
     0
100
AcDbMText
 10
1344.135447491087
 20
1767.771461881717
 30
0.0
 40
25.0
 41
0.0
 71
     5
 72
     1
  1
40
 73
     1
 44
1.0
1001
ACAD
1000
MTEXTBEGIN
1070
    73
1070
     1
1070
    44
1040
1.0
1070
    74
1070
     0
1000
MTEXTEND
  0
INSERT
  5
175B
330
14DF
100
AcDbEntity
  8
実形
 62
     0
370
    15
100
AcDbBlockReference
  2
_DotSmall
 10
1325.686340370189
 20
1748.246036706801
 30
0.0
 41
30.0
 42
30.0
 43
30.0
 50
180.0
  0
INSERT
  5
175C
330
14DF
100
AcDbEntity
  8
実形
 62
     0
370
    15
100
AcDbBlockReference
  2
_DotSmall
 10
1365.686340370189
 20
1748.246036706801
 30
0.0
 41
30.0
 42
30.0
 43
30.0
  0
POINT
  5
175D
330
14DF
100
AcDbEntity
  8
Defpoints
 62
     0
100
AcDbPoint
 10
1325.686340370189
 20
1658.819144775783
 30
0.0
  0
POINT
  5
175E
330
14DF
100
AcDbEntity
  8
Defpoints
 62
     0
100
AcDbPoint
 10
1365.686340370189
 20
1658.819144775783
 30
0.0
  0
POINT
  5
175F
330
14DF
100
AcDbEntity
  8
Defpoints
 62
     0
100
AcDbPoint
 10
1365.686340370189
 20
1748.246036706801
 30
0.0
  0
ENDBLK
  5
14EA
330
14DF
100
AcDbEntity
  8
0
100
AcDbBlockEnd
  0
BLOCK
  5
14FB
330
14EC
100
AcDbEntity
  8
0
100
AcDbBlockBegin
  2
*D28
 70
     1
 10
0.0
 20
0.0
 30
0.0
  3
*D28
  1

  0
LINE
  5
1745
330
14EC
100
AcDbEntity
  8
実形
 62
     0
370
    15
100
AcDbLine
 10
1430.686340370189
 20
1663.819144775783
 30
0.0
 11
1460.656746897839
 21
1663.819144775783
 31
0.0
  0
LINE
  5
1746
330
14EC
100
AcDbEntity
  8
実形
 62
     0
370
    15
100
AcDbLine
 10
1439.571734900264
 20
1599.819144775783
 30
0.0
 11
1460.656746897839
 21
1599.819144775783
 31
0.0
  0
LINE
  5
1747
330
14EC
100
AcDbEntity
  8
実形
 62
     0
370
    15
100
AcDbLine
 10
1460.656746897839
 20
1663.819144775783
 30
0.0
 11
1460.656746897839
 21
1599.819144775783
 31
0.0
  0
MTEXT
  5
1748
330
14EC
100
AcDbEntity
  8
実形
 62
     0
100
AcDbMText
 10
1443.972050805572
 20
1682.385022318633
 30
0.0
 40
25.0
 41
0.0
 71
     5
 72
     1
  1
5
 11
0.0000000000000001
 21
1.0
 31
0.0
 73
     1
 44
1.0
1001
ACAD
1000
MTEXTBEGIN
1070
    73
1070
     1
1070
    44
1040
1.0
1070
    74
1070
     0
1000
MTEXTEND
  0
INSERT
  5
1749
330
14EC
100
AcDbEntity
  8
実形
 62
     0
370
    15
100
AcDbBlockReference
  2
_DotSmall
 10
1460.656746897839
 20
1663.819144775783
 30
0.0
 41
30.0
 42
30.0
 43
30.0
 50
90.0
  0
INSERT
  5
174A
330
14EC
100
AcDbEntity
  8
実形
 62
     0
370
    15
100
AcDbBlockReference
  2
_DotSmall
 10
1460.656746897839
 20
1599.819144775783
 30
0.0
 41
30.0
 42
30.0
 43
30.0
 50
270.0
  0
POINT
  5
174B
330
14EC
100
AcDbEntity
  8
Defpoints
 62
     0
100
AcDbPoint
 10
1365.686340370189
 20
1663.819144775783
 30
0.0
  0
POINT
  5
174C
330
14EC
100
AcDbEntity
  8
Defpoints
 62
     0
100
AcDbPoint
 10
1374.571734900264
 20
1599.819144775783
 30
0.0
  0
POINT
  5
174D
330
14EC
100
AcDbEntity
  8
Defpoints
 62
     0
100
AcDbPoint
 10
1460.656746897839
 20
1599.819144775783
 30
0.0
  0
ENDBLK
  5
14FC
330
14EC
100
AcDbEntity
  8
0
100
AcDbBlockEnd
  0
BLOCK
  5
1508
330
14FE
100
AcDbEntity
  8
0
100
AcDbBlockBegin
  2
*D29
 70
     1
 10
0.0
 20
0.0
 30
0.0
  3
*D29
  1

  0
LINE
  5
16D4
330
14FE
100
AcDbEntity
  8
実形
 62
     0
370
    15
100
AcDbLine
 10
1430.686340370189
 20
1658.819144775783
 30
0.0
 11
1460.656746897839
 21
1658.819144775783
 31
0.0
  0
LINE
  5
16D5
330
14FE
100
AcDbEntity
  8
実形
 62
     0
370
    15
100
AcDbLine
 10
1430.686340370189
 20
1599.819144775783
 30
0.0
 11
1460.656746897839
 21
1599.819144775783
 31
0.0
  0
LINE
  5
16D6
330
14FE
100
AcDbEntity
  8
実形
 62
     0
370
    15
100
AcDbLine
 10
1460.656746897839
 20
1658.819144775783
 30
0.0
 11
1460.656746897839
 21
1599.819144775783
 31
0.0
  0
INSERT
  5
16D7
330
14FE
100
AcDbEntity
  8
実形
 62
     0
370
    15
100
AcDbBlockReference
  2
_DotSmall
 10
1460.656746897839
 20
1658.819144775783
 30
0.0
 41
30.0
 42
30.0
 43
30.0
 50
90.0
  0
INSERT
  5
16D8
330
14FE
100
AcDbEntity
  8
実形
 62
     0
370
    15
100
AcDbBlockReference
  2
_DotSmall
 10
1460.656746897839
 20
1599.819144775783
 30
0.0
 41
30.0
 42
30.0
 43
30.0
 50
270.0
  0
MTEXT
  5
16D9
330
14FE
100
AcDbEntity
  8
実形
 62
     0
100
AcDbMText
 10
1441.906746897839
 20
1629.319144775783
 30
0.0
 40
25.0
 41
0.0
 71
     5
 72
     1
  1
59
 11
0.0000000000000001
 21
1.0
 31
0.0
 73
     1
 44
1.0
1001
ACAD
1000
MTEXTBEGIN
1070
    73
1070
     1
1070
    44
1040
1.0
1070
    74
1070
     0
1000
MTEXTEND
  0
POINT
  5
16DA
330
14FE
100
AcDbEntity
  8
Defpoints
 62
     0
100
AcDbPoint
 10
1365.686340370189
 20
1658.819144775783
 30
0.0
  0
POINT
  5
16DB
330
14FE
100
AcDbEntity
  8
Defpoints
 62
     0
100
AcDbPoint
 10
1365.686340370189
 20
1599.819144775783
 30
0.0
  0
POINT
  5
16DC
330
14FE
100
AcDbEntity
  8
Defpoints
 62
     0
100
AcDbPoint
 10
1460.656746897839
 20
1599.819144775783
 30
0.0
  0
ENDBLK
  5
1509
330
14FE
100
AcDbEntity
  8
0
100
AcDbBlockEnd
  0
BLOCK
  5
186C
330
1862
100
AcDbEntity
  8
0
100
AcDbBlockBegin
  2
*D30
 70
     1
 10
0.0
 20
0.0
 30
0.0
  3
*D30
  1

  0
LINE
  5
1892
330
1862
100
AcDbEntity
  8
実形
 62
     0
370
    15
100
AcDbLine
 10
650.6863403701893
 20
736.251949644734
 30
0.0
 11
597.5656729137662
 21
736.251949644734
 31
0.0
  0
LINE
  5
1893
330
1862
100
AcDbEntity
  8
実形
 62
     0
370
    15
100
AcDbLine
 10
650.6863403701895
 20
721.251949644734
 30
0.0
 11
597.5656729137662
 21
721.251949644734
 31
0.0
  0
LINE
  5
1894
330
1862
100
AcDbEntity
  8
実形
 62
     0
370
    15
100
AcDbLine
 10
597.5656729137662
 20
736.251949644734
 30
0.0
 11
597.5656729137662
 21
721.251949644734
 31
0.0
  0
MTEXT
  5
1895
330
1862
100
AcDbEntity
  8
実形
 62
     0
100
AcDbMText
 10
563.6681965026528
 20
769.6184467155354
 30
0.0
 40
25.0
 41
0.0
 71
     5
 72
     1
  1
15
 11
0.0000000000000001
 21
1.0
 31
0.0
 73
     1
 44
1.0
1001
ACAD
1000
MTEXTBEGIN
1070
    73
1070
     1
1070
    44
1040
1.0
1070
    74
1070
     0
1000
MTEXTEND
  0
INSERT
  5
1896
330
1862
100
AcDbEntity
  8
実形
 62
     0
370
    15
100
AcDbBlockReference
  2
_DotSmall
 10
597.5656729137662
 20
736.251949644734
 30
0.0
 41
30.0
 42
30.0
 43
30.0
 50
90.0
  0
INSERT
  5
1897
330
1862
100
AcDbEntity
  8
実形
 62
     0
370
    15
100
AcDbBlockReference
  2
_DotSmall
 10
597.5656729137662
 20
721.251949644734
 30
0.0
 41
30.0
 42
30.0
 43
30.0
 50
270.0
  0
POINT
  5
1898
330
1862
100
AcDbEntity
  8
Defpoints
 62
     0
100
AcDbPoint
 10
715.6863403701893
 20
736.251949644734
 30
0.0
  0
POINT
  5
1899
330
1862
100
AcDbEntity
  8
Defpoints
 62
     0
100
AcDbPoint
 10
715.6863403701895
 20
721.251949644734
 30
0.0
  0
POINT
  5
189A
330
1862
100
AcDbEntity
  8
Defpoints
 62
     0
100
AcDbPoint
 10
597.5656729137662
 20
721.251949644734
 30
0.0
  0
ENDBLK
  5
186D
330
1862
100
AcDbEntity
  8
0
100
AcDbBlockEnd
  0
BLOCK
  5
1878
330
186E
100
AcDbEntity
  8
0
100
AcDbBlockBegin
  2
*D31
 70
     1
 10
0.0
 20
0.0
 30
0.0
  3
*D31
  1

  0
LINE
  5
189B
330
186E
100
AcDbEntity
  8
実形
 62
     0
370
    15
100
AcDbLine
 10
649.8684314529874
 20
566.251949644734
 30
0.0
 11
597.5656729137662
 21
566.251949644734
 31
0.0
  0
LINE
  5
189C
330
186E
100
AcDbEntity
  8
実形
 62
     0
370
    15
100
AcDbLine
 10
649.8684314529874
 20
546.2519496447341
 30
0.0
 11
597.5656729137662
 21
546.2519496447341
 31
0.0
  0
LINE
  5
189D
330
186E
100
AcDbEntity
  8
実形
 62
     0
370
    15
100
AcDbLine
 10
597.5656729137662
 20
566.251949644734
 30
0.0
 11
597.5656729137662
 21
546.2519496447341
 31
0.0
  0
MTEXT
  5
189E
330
186E
100
AcDbEntity
  8
実形
 62
     0
100
AcDbMText
 10
564.083889730371
 20
575.3752929336042
 30
0.0
 40
25.0
 41
0.0
 71
     5
 72
     1
  1
20
 11
0.0000000000000001
 21
1.0
 31
0.0
 73
     1
 44
1.0
1001
ACAD
1000
MTEXTBEGIN
1070
    73
1070
     1
1070
    44
1040
1.0
1070
    74
1070
     0
1000
MTEXTEND
  0
INSERT
  5
189F
330
186E
100
AcDbEntity
  8
実形
 62
     0
370
    15
100
AcDbBlockReference
  2
_DotSmall
 10
597.5656729137662
 20
566.251949644734
 30
0.0
 41
30.0
 42
30.0
 43
30.0
 50
90.0
  0
INSERT
  5
18A0
330
186E
100
AcDbEntity
  8
実形
 62
     0
370
    15
100
AcDbBlockReference
  2
_DotSmall
 10
597.5656729137662
 20
546.2519496447341
 30
0.0
 41
30.0
 42
30.0
 43
30.0
 50
270.0
  0
POINT
  5
18A1
330
186E
100
AcDbEntity
  8
Defpoints
 62
     0
100
AcDbPoint
 10
714.8684314529873
 20
566.251949644734
 30
0.0
  0
POINT
  5
18A2
330
186E
100
AcDbEntity
  8
Defpoints
 62
     0
100
AcDbPoint
 10
714.8684314529873
 20
546.2519496447341
 30
0.0
  0
POINT
  5
18A3
330
186E
100
AcDbEntity
  8
Defpoints
 62
     0
100
AcDbPoint
 10
597.5656729137662
 20
546.2519496447341
 30
0.0
  0
ENDBLK
  5
1879
330
186E
100
AcDbEntity
  8
0
100
AcDbBlockEnd
  0
BLOCK
  5
1884
330
187A
100
AcDbEntity
  8
0
100
AcDbBlockBegin
  2
*D32
 70
     1
 10
0.0
 20
0.0
 30
0.0
  3
*D32
  1

  0
LINE
  5
18A4
330
187A
100
AcDbEntity
  8
実形
 62
     0
370
    15
100
AcDbLine
 10
650.2678572038621
 20
536.251949644734
 30
0.0
 11
597.5656729137662
 21
536.251949644734
 31
0.0
  0
LINE
  5
18A5
330
187A
100
AcDbEntity
  8
実形
 62
     0
370
    15
100
AcDbLine
 10
621.4849290838992
 20
566.251949644734
 30
0.0
 11
597.5656729137662
 21
566.251949644734
 31
0.0
  0
LINE
  5
18A6
330
187A
100
AcDbEntity
  8
実形
 62
     0
370
    15
100
AcDbLine
 10
597.5656729137662
 20
536.251949644734
 30
0.0
 11
597.5656729137662
 21
566.251949644734
 31
0.0
  0
MTEXT
  5
18A7
330
187A
100
AcDbEntity
  8
実形
 62
     0
100
AcDbMText
 10
567.7622337157209
 20
522.0470380600763
 30
0.0
 40
25.0
 41
0.0
 71
     5
 72
     1
  1
7
 11
0.0000000000000001
 21
1.0
 31
0.0
 73
     1
 44
1.0
1001
ACAD
1000
MTEXTBEGIN
1070
    73
1070
     1
1070
    44
1040
1.0
1070
    74
1070
     0
1000
MTEXTEND
  0
INSERT
  5
18A8
330
187A
100
AcDbEntity
  8
実形
 62
     0
370
    15
100
AcDbBlockReference
  2
_DotSmall
 10
597.5656729137662
 20
536.251949644734
 30
0.0
 41
30.0
 42
30.0
 43
30.0
 50
270.0
  0
INSERT
  5
18A9
330
187A
100
AcDbEntity
  8
実形
 62
     0
370
    15
100
AcDbBlockReference
  2
_DotSmall
 10
597.5656729137662
 20
566.251949644734
 30
0.0
 41
30.0
 42
30.0
 43
30.0
 50
90.0
  0
POINT
  5
18AA
330
187A
100
AcDbEntity
  8
Defpoints
 62
     0
100
AcDbPoint
 10
715.2678572038621
 20
536.251949644734
 30
0.0
  0
POINT
  5
18AB
330
187A
100
AcDbEntity
  8
Defpoints
 62
     0
100
AcDbPoint
 10
686.4849290838992
 20
566.251949644734
 30
0.0
  0
POINT
  5
18AC
330
187A
100
AcDbEntity
  8
Defpoints
 62
     0
100
AcDbPoint
 10
597.5656729137662
 20
566.251949644734
 30
0.0
  0
ENDBLK
  5
1885
330
187A
100
AcDbEntity
  8
0
100
AcDbBlockEnd
  0
BLOCK
  5
1890
330
1886
100
AcDbEntity
  8
0
100
AcDbBlockBegin
  2
*D33
 70
     1
 10
0.0
 20
0.0
 30
0.0
  3
*D33
  1

  0
LINE
  5
18AD
330
1886
100
AcDbEntity
  8
実形
 62
     0
370
    15
100
AcDbLine
 10
615.3102070413279
 20
736.251949644734
 30
0.0
 11
511.0247744755798
 21
736.251949644734
 31
0.0
  0
LINE
  5
18AE
330
1886
100
AcDbEntity
  8
実形
 62
     0
370
    15
100
AcDbLine
 10
615.3102070413279
 20
546.2519496447341
 30
0.0
 11
511.0247744755797
 21
546.2519496447341
 31
0.0
  0
LINE
  5
18AF
330
1886
100
AcDbEntity
  8
実形
 62
     0
370
    15
100
AcDbLine
 10
511.0247744755798
 20
736.251949644734
 30
0.0
 11
511.0247744755797
 21
546.2519496447341
 31
0.0
  0
INSERT
  5
18B0
330
1886
100
AcDbEntity
  8
実形
 62
     0
370
    15
100
AcDbBlockReference
  2
_DotSmall
 10
511.0247744755798
 20
736.251949644734
 30
0.0
 41
30.0
 42
30.0
 43
30.0
 50
90.0
  0
INSERT
  5
18B1
330
1886
100
AcDbEntity
  8
実形
 62
     0
370
    15
100
AcDbBlockReference
  2
_DotSmall
 10
511.0247744755797
 20
546.2519496447341
 30
0.0
 41
30.0
 42
30.0
 43
30.0
 50
270.0
  0
MTEXT
  5
18B2
330
1886
100
AcDbEntity
  8
実形
 62
     0
100
AcDbMText
 10
492.2747744755796
 20
641.2519496447341
 30
0.0
 40
25.0
 41
0.0
 71
     5
 72
     1
  1
190
 11
0.0000000000000001
 21
1.0
 31
0.0
 73
     1
 44
1.0
1001
ACAD
1000
MTEXTBEGIN
1070
    73
1070
     1
1070
    44
1040
1.0
1070
    74
1070
     0
1000
MTEXTEND
  0
POINT
  5
18B3
330
1886
100
AcDbEntity
  8
Defpoints
 62
     0
100
AcDbPoint
 10
680.3102070413278
 20
736.251949644734
 30
0.0
  0
POINT
  5
18B4
330
1886
100
AcDbEntity
  8
Defpoints
 62
     0
100
AcDbPoint
 10
680.3102070413278
 20
546.2519496447341
 30
0.0
  0
POINT
  5
18B5
330
1886
100
AcDbEntity
  8
Defpoints
 62
     0
100
AcDbPoint
 10
511.0247744755797
 20
546.2519496447341
 30
0.0
  0
ENDBLK
  5
1891
330
1886
100
AcDbEntity
  8
0
100
AcDbBlockEnd
  0
BLOCK
  5
1A92
330
1A88
100
AcDbEntity
  8
0
100
AcDbBlockBegin
  2
*D34
 70
     1
 10
0.0
 20
0.0
 30
0.0
  3
*D34
  1

  0
LINE
  5
1AB8
330
1A88
100
AcDbEntity
  8
0
 62
     0
370
    15
100
AcDbLine
 10
1710.143486331141
 20
1716.319144775783
 30
0.0
 11
1710.143486331141
 21
1753.861527417203
 31
0.0
  0
LINE
  5
1AB9
330
1A88
100
AcDbEntity
  8
0
 62
     0
370
    15
100
AcDbLine
 10
1725.14348633114
 20
1716.319144775783
 30
0.0
 11
1725.14348633114
 21
1753.861527417203
 31
0.0
  0
LINE
  5
1ABA
330
1A88
100
AcDbEntity
  8
0
 62
     0
370
    15
100
AcDbLine
 10
1710.143486331141
 20
1753.861527417203
 30
0.0
 11
1725.14348633114
 21
1753.861527417203
 31
0.0
  0
MTEXT
  5
1ABB
330
1A88
100
AcDbEntity
  8
0
 62
     0
100
AcDbMText
 10
1688.668175783309
 20
1775.873025348203
 30
0.0
 40
25.0
 41
0.0
 71
     5
 72
     1
  1
15
 73
     1
 44
1.0
1001
ACAD
1000
MTEXTBEGIN
1070
    73
1070
     1
1070
    44
1040
1.0
1070
    74
1070
     0
1000
MTEXTEND
  0
INSERT
  5
1ABC
330
1A88
100
AcDbEntity
  8
0
 62
     0
370
    15
100
AcDbBlockReference
  2
_DotSmall
 10
1710.143486331141
 20
1753.861527417203
 30
0.0
 41
30.0
 42
30.0
 43
30.0
 50
180.0
  0
INSERT
  5
1ABD
330
1A88
100
AcDbEntity
  8
0
 62
     0
370
    15
100
AcDbBlockReference
  2
_DotSmall
 10
1725.14348633114
 20
1753.861527417203
 30
0.0
 41
30.0
 42
30.0
 43
30.0
  0
POINT
  5
1ABE
330
1A88
100
AcDbEntity
  8
Defpoints
 62
     0
100
AcDbPoint
 10
1710.143486331141
 20
1651.319144775783
 30
0.0
  0
POINT
  5
1ABF
330
1A88
100
AcDbEntity
  8
Defpoints
 62
     0
100
AcDbPoint
 10
1725.14348633114
 20
1651.319144775783
 30
0.0
  0
POINT
  5
1AC0
330
1A88
100
AcDbEntity
  8
Defpoints
 62
     0
100
AcDbPoint
 10
1725.14348633114
 20
1753.861527417203
 30
0.0
  0
ENDBLK
  5
1A93
330
1A88
100
AcDbEntity
  8
0
100
AcDbBlockEnd
  0
BLOCK
  5
1A9E
330
1A94
100
AcDbEntity
  8
0
100
AcDbBlockBegin
  2
*D35
 70
     1
 10
0.0
 20
0.0
 30
0.0
  3
*D35
  1

  0
LINE
  5
1ADD
330
1A94
100
AcDbEntity
  8
0
 62
     0
370
    15
100
AcDbLine
 10
1725.14348633114
 20
1716.319144775783
 30
0.0
 11
1725.14348633114
 21
1753.861527417203
 31
0.0
  0
LINE
  5
1ADE
330
1A94
100
AcDbEntity
  8
0
 62
     0
370
    15
100
AcDbLine
 10
1824.143486331141
 20
1716.319144775783
 30
0.0
 11
1824.143486331141
 21
1753.861527417203
 31
0.0
  0
LINE
  5
1ADF
330
1A94
100
AcDbEntity
  8
0
 62
     0
370
    15
100
AcDbLine
 10
1725.14348633114
 20
1753.861527417203
 30
0.0
 11
1824.143486331141
 21
1753.861527417203
 31
0.0
  0
INSERT
  5
1AE0
330
1A94
100
AcDbEntity
  8
0
 62
     0
370
    15
100
AcDbBlockReference
  2
_DotSmall
 10
1725.14348633114
 20
1753.861527417203
 30
0.0
 41
30.0
 42
30.0
 43
30.0
 50
180.0
  0
INSERT
  5
1AE1
330
1A94
100
AcDbEntity
  8
0
 62
     0
370
    15
100
AcDbBlockReference
  2
_DotSmall
 10
1824.143486331141
 20
1753.861527417203
 30
0.0
 41
30.0
 42
30.0
 43
30.0
  0
MTEXT
  5
1AE2
330
1A94
100
AcDbEntity
  8
0
 62
     0
100
AcDbMText
 10
1774.643486331141
 20
1772.611527417203
 30
0.0
 40
25.0
 41
0.0
 71
     5
 72
     1
  1
99
 73
     1
 44
1.0
1001
ACAD
1000
MTEXTBEGIN
1070
    73
1070
     1
1070
    44
1040
1.0
1070
    74
1070
     0
1000
MTEXTEND
  0
POINT
  5
1AE3
330
1A94
100
AcDbEntity
  8
Defpoints
 62
     0
100
AcDbPoint
 10
1725.14348633114
 20
1651.319144775783
 30
0.0
  0
POINT
  5
1AE4
330
1A94
100
AcDbEntity
  8
Defpoints
 62
     0
100
AcDbPoint
 10
1824.143486331141
 20
1651.319144775783
 30
0.0
  0
POINT
  5
1AE5
330
1A94
100
AcDbEntity
  8
Defpoints
 62
     0
100
AcDbPoint
 10
1824.143486331141
 20
1753.861527417203
 30
0.0
  0
ENDBLK
  5
1A9F
330
1A94
100
AcDbEntity
  8
0
100
AcDbBlockEnd
  0
BLOCK
  5
1AAA
330
1AA0
100
AcDbEntity
  8
0
100
AcDbBlockBegin
  2
*D36
 70
     1
 10
0.0
 20
0.0
 30
0.0
  3
*D36
  1

  0
LINE
  5
1AEF
330
1AA0
100
AcDbEntity
  8
実形
 62
     0
370
    15
100
AcDbLine
 10
1824.143486331141
 20
1716.319144775783
 30
0.0
 11
1824.143486331141
 21
1753.981499748189
 31
0.0
  0
LINE
  5
1AF0
330
1AA0
100
AcDbEntity
  8
実形
 62
     0
370
    15
100
AcDbLine
 10
1844.143486331141
 20
1716.319144775783
 30
0.0
 11
1844.143486331141
 21
1753.981499748189
 31
0.0
  0
LINE
  5
1AF1
330
1AA0
100
AcDbEntity
  8
実形
 62
     0
370
    15
100
AcDbLine
 10
1824.143486331141
 20
1753.981499748189
 30
0.0
 11
1844.143486331141
 21
1753.981499748189
 31
0.0
  0
MTEXT
  5
1AF2
330
1AA0
100
AcDbEntity
  8
実形
 62
     0
100
AcDbMText
 10
1855.560403469454
 20
1773.719767205557
 30
0.0
 40
25.0
 41
0.0
 71
     5
 72
     1
  1
20
 73
     1
 44
1.0
1001
ACAD
1000
MTEXTBEGIN
1070
    73
1070
     1
1070
    44
1040
1.0
1070
    74
1070
     0
1000
MTEXTEND
  0
INSERT
  5
1AF3
330
1AA0
100
AcDbEntity
  8
実形
 62
     0
370
    15
100
AcDbBlockReference
  2
_DotSmall
 10
1824.143486331141
 20
1753.981499748189
 30
0.0
 41
30.0
 42
30.0
 43
30.0
 50
180.0
  0
INSERT
  5
1AF4
330
1AA0
100
AcDbEntity
  8
実形
 62
     0
370
    15
100
AcDbBlockReference
  2
_DotSmall
 10
1844.143486331141
 20
1753.981499748189
 30
0.0
 41
30.0
 42
30.0
 43
30.0
  0
POINT
  5
1AF5
330
1AA0
100
AcDbEntity
  8
Defpoints
 62
     0
100
AcDbPoint
 10
1824.143486331141
 20
1651.319144775783
 30
0.0
  0
POINT
  5
1AF6
330
1AA0
100
AcDbEntity
  8
Defpoints
 62
     0
100
AcDbPoint
 10
1844.143486331141
 20
1651.319144775783
 30
0.0
  0
POINT
  5
1AF7
330
1AA0
100
AcDbEntity
  8
Defpoints
 62
     0
100
AcDbPoint
 10
1844.143486331141
 20
1753.981499748189
 30
0.0
  0
ENDBLK
  5
1AAB
330
1AA0
100
AcDbEntity
  8
0
100
AcDbBlockEnd
  0
BLOCK
  5
1AB6
330
1AAC
100
AcDbEntity
  8
0
100
AcDbBlockBegin
  2
*D37
 70
     1
 10
0.0
 20
0.0
 30
0.0
  3
*D37
  1

  0
LINE
  5
1AE6
330
1AAC
100
AcDbEntity
  8
実形
 62
     0
370
    15
100
AcDbLine
 10
1909.14348633114
 20
1645.919144775783
 30
0.0
 11
1938.091031132264
 21
1645.919144775783
 31
0.0
  0
LINE
  5
1AE7
330
1AAC
100
AcDbEntity
  8
実形
 62
     0
370
    15
100
AcDbLine
 10
1909.14348633114
 20
1612.719144775783
 30
0.0
 11
1938.091031132264
 21
1612.719144775783
 31
0.0
  0
LINE
  5
1AE8
330
1AAC
100
AcDbEntity
  8
実形
 62
     0
370
    15
100
AcDbLine
 10
1938.091031132264
 20
1645.919144775783
 30
0.0
 11
1938.091031132264
 21
1612.719144775783
 31
0.0
  0
MTEXT
  5
1AE9
330
1AAC
100
AcDbEntity
  8
実形
 62
     0
100
AcDbMText
 10
1964.792898225319
 20
1628.396204473092
 30
0.0
 40
25.0
 41
0.0
 71
     5
 72
     1
  1
33.2
 11
0.0000000000000001
 21
1.0
 31
0.0
 73
     1
 44
1.0
1001
ACAD
1000
MTEXTBEGIN
1070
    73
1070
     1
1070
    44
1040
1.0
1070
    74
1070
     0
1000
MTEXTEND
  0
INSERT
  5
1AEA
330
1AAC
100
AcDbEntity
  8
実形
 62
     0
370
    15
100
AcDbBlockReference
  2
_DotSmall
 10
1938.091031132264
 20
1645.919144775783
 30
0.0
 41
30.0
 42
30.0
 43
30.0
 50
90.0
  0
INSERT
  5
1AEB
330
1AAC
100
AcDbEntity
  8
実形
 62
     0
370
    15
100
AcDbBlockReference
  2
_DotSmall
 10
1938.091031132264
 20
1612.719144775783
 30
0.0
 41
30.0
 42
30.0
 43
30.0
 50
270.0
  0
POINT
  5
1AEC
330
1AAC
100
AcDbEntity
  8
Defpoints
 62
     0
100
AcDbPoint
 10
1844.143486331141
 20
1645.919144775783
 30
0.0
  0
POINT
  5
1AED
330
1AAC
100
AcDbEntity
  8
Defpoints
 62
     0
100
AcDbPoint
 10
1844.143486331141
 20
1612.719144775783
 30
0.0
  0
POINT
  5
1AEE
330
1AAC
100
AcDbEntity
  8
Defpoints
 62
     0
100
AcDbPoint
 10
1938.091031132264
 20
1612.719144775783
 30
0.0
  0
ENDBLK
  5
1AB7
330
1AAC
100
AcDbEntity
  8
0
100
AcDbBlockEnd
  0
ENDSEC
  0
SECTION
  2
ENTITIES
  0
LINE
  5
9C
330
1F
100
AcDbEntity
  8
補助
100
AcDbLine
 10
111.0
 20
4.0
 30
0.0
 11
2784.0
 21
4.0
 31
0.0
  0
LINE
  5
A0
330
1F
100
AcDbEntity
  8
補助
100
AcDbLine
 10
2784.0
 20
2024.0
 30
0.0
 11
111.0
 21
2024.0
 31
0.0
  0
LINE
  5
A5
330
1F
100
AcDbEntity
  8
補助
100
AcDbLine
 10
2784.0
 20
4.0
 30
0.0
 11
2784.0
 21
2024.0
 31
0.0
  0
LINE
  5
A8
330
1F
100
AcDbEntity
  8
補助
100
AcDbLine
 10
2184.0
 20
69.0
 30
0.0
 11
2184.0
 21
199.0
 31
0.0
  0
LINE
  5
A9
330
1F
100
AcDbEntity
  8
補助
100
AcDbLine
 10
2184.0
 20
69.0
 30
0.0
 11
2784.0
 21
69.0
 31
0.0
  0
LINE
  5
AA
330
1F
100
AcDbEntity
  8
補助
100
AcDbLine
 10
2064.0
 20
134.0
 30
0.0
 11
2784.0
 21
134.0
 31
0.0
  0
LINE
  5
AB
330
1F
100
AcDbEntity
  8
補助
100
AcDbLine
 10
2064.0
 20
199.0
 30
0.0
 11
2784.0
 21
199.0
 31
0.0
  0
LINE
  5
AD
330
1F
100
AcDbEntity
  8
補助
100
AcDbLine
 10
2784.0
 20
4.0
 30
0.0
 11
2784.0
 21
69.0
 31
0.0
  0
LINE
  5
25F
330
1F
100
AcDbEntity
  8
0
100
AcDbLine
 10
830.6863403701891
 20
1143.819144775783
 30
0.0
 11
1250.686340370189
 21
1143.819144775782
 31
0.0
  0
LINE
  5
260
330
1F
100
AcDbEntity
  8
0
100
AcDbLine
 10
1365.686340370189
 20
1273.819144775783
 30
0.0
 11
1365.686340370189
 21
1603.819144775783
 31
0.0
  0
LINE
  5
261
330
1F
100
AcDbEntity
  8
0
100
AcDbLine
 10
1305.686340370189
 20
1663.819144775783
 30
0.0
 11
775.6863403701891
 21
1663.819144775783
 31
0.0
  0
LINE
  5
262
330
1F
100
AcDbEntity
  8
0
100
AcDbLine
 10
715.6863403701891
 20
1603.819144775783
 30
0.0
 11
715.6863403701891
 21
1273.819144775783
 31
0.0
  0
LINE
  5
263
330
1F
100
AcDbEntity
  8
0
100
AcDbLine
 10
830.6863403701891
 20
1126.819144775782
 30
0.0
 11
1250.686340370189
 21
1126.819144775782
 31
0.0
  0
LINE
  5
264
330
1F
100
AcDbEntity
  8
0
100
AcDbLine
 10
1382.686340370189
 20
1258.819144775783
 30
0.0
 11
1382.686340370189
 21
1603.819144775783
 31
0.0
  0
LINE
  5
265
330
1F
100
AcDbEntity
  8
0
100
AcDbLine
 10
1305.686340370189
 20
1680.819144775783
 30
0.0
 11
775.6863403701891
 21
1680.819144775783
 31
0.0
  0
LINE
  5
266
330
1F
100
AcDbEntity
  8
0
100
AcDbLine
 10
698.6863403701891
 20
1603.819144775783
 30
0.0
 11
698.6863403701891
 21
1258.819144775783
 31
0.0
  0
LINE
  5
267
330
1F
100
AcDbEntity
  8
0
100
AcDbLine
 10
1250.686340370189
 20
1588.819144775783
 30
0.0
 11
1155.686340370189
 21
1588.819144775783
 31
0.0
  0
LINE
  5
26B
330
1F
100
AcDbEntity
  8
0
100
AcDbLine
 10
830.6863403701891
 20
1158.819144775782
 30
0.0
 11
1250.686340370189
 21
1158.819144775782
 31
0.0
  0
DIMENSION
  5
270
330
1F
100
AcDbEntity
  8
0
100
AcDbDimension
  2
*D4
 10
508.3067659808461
 20
1158.819144775783
 30
0.0
 11
489.556765980846
 21
1211.735811442449
 31
0.0
 70
    32
 71
     5
 42
15.0
  3
ISO-25
100
AcDbAlignedDimension
 13
698.6863403701891
 23
1143.819144775783
 33
0.0
 14
698.6863403701891
 24
1158.819144775782
 34
0.0
 50
90.0
100
AcDbRotatedDimension
  0
DIMENSION
  5
27E
330
1F
100
AcDbEntity
  8
0
100
AcDbDimension
  2
*D5
 10
508.3067659808461
 20
1588.819144775783
 30
0.0
 11
489.5567659808459
 21
1373.819144775783
 31
0.0
 70
    32
 71
     5
 42
430.0
  3
ISO-25
100
AcDbAlignedDimension
 13
698.6863403701891
 23
1158.819144775782
 33
0.0
 14
698.6863403701891
 24
1588.819144775782
 34
0.0
 50
90.0
100
AcDbRotatedDimension
1001
ACAD
1000
DSTYLE
1002
{
1070
   279
1070
     1
1002
}
  0
DIMENSION
  5
28B
330
1F
100
AcDbEntity
  8
0
100
AcDbDimension
  2
*D6
 10
508.3067659808461
 20
1663.819144775783
 30
0.0
 11
489.556765980846
 21
1626.319144775783
 31
0.0
 70
    32
 71
     5
 42
75.0
  3
ISO-25
100
AcDbAlignedDimension
 13
698.6863403701891
 23
1588.819144775782
 33
0.0
 14
698.6863403701891
 24
1663.819144775782
 34
0.0
 50
90.0
100
AcDbRotatedDimension
1001
ACAD
1000
DSTYLE
1002
{
1070
   279
1070
     1
1002
}
  0
DIMENSION
  5
298
330
1F
100
AcDbEntity
  8
0
100
AcDbDimension
  2
*D7
 10
438.8367659808462
 20
1143.819144775783
 30
0.0
 11
412.1776847237379
 21
1152.38243185651
 31
0.0
 70
   160
 71
     5
 42
17.0
  3
ISO-25
100
AcDbAlignedDimension
 13
698.6863403701891
 23
1126.819144775782
 33
0.0
 14
698.6863403701891
 24
1143.819144775783
 34
0.0
 50
90.0
100
AcDbRotatedDimension
1001
ACAD
1000
DSTYLE
1002
{
1070
   279
1070
     2
1002
}
  0
DIMENSION
  5
2A6
330
1F
100
AcDbEntity
  8
0
100
AcDbDimension
  2
*D8
 10
438.8367659808462
 20
1663.819144775783
 30
0.0
 11
420.0867659808459
 21
1403.819144775783
 31
0.0
 70
    32
 71
     5
 42
520.0
  3
ISO-25
100
AcDbAlignedDimension
 13
698.6863403701891
 23
1143.819144775783
 33
0.0
 14
698.6863403701891
 24
1663.819144775782
 34
0.0
 50
90.0
100
AcDbRotatedDimension
1001
ACAD
1000
DSTYLE
1002
{
1070
   279
1070
     1
1002
}
  0
DIMENSION
  5
2B3
330
1F
100
AcDbEntity
  8
0
100
AcDbDimension
  2
*D9
 10
438.8367659808462
 20
1680.819144775783
 30
0.0
 11
427.3567057791233
 21
1654.476166823188
 31
0.0
 70
   160
 71
     5
 42
17.0
  3
ISO-25
100
AcDbAlignedDimension
 13
698.6863403701891
 23
1663.819144775782
 33
0.0
 14
698.6863403701891
 24
1680.819144775783
 34
0.0
 50
90.0
100
AcDbRotatedDimension
1001
ACAD
1000
DSTYLE
1002
{
1070
   279
1070
     1
1002
}
  0
DIMENSION
  5
2DC
330
1F
100
AcDbEntity
  8
0
100
AcDbDimension
  2
*D10
 10
369.3667659808463
 20
1680.819144775783
 30
0.0
 11
350.616765980846
 21
1403.819144775783
 31
0.0
 70
    32
 71
     5
 42
554.0
  3
ISO-25
100
AcDbAlignedDimension
 13
698.6863403701891
 23
1126.819144775782
 33
0.0
 14
698.6863403701891
 24
1680.819144775783
 34
0.0
 50
90.0
100
AcDbRotatedDimension
  0
DIMENSION
  5
2E9
330
1F
100
AcDbEntity
  8
0
100
AcDbDimension
  2
*D11
 10
715.6863403701891
 20
1009.911372981066
 30
0.0
 11
768.6030070368557
 21
1028.661372981066
 31
0.0
 70
    32
 71
     5
 42
17.0
  3
ISO-25
100
AcDbAlignedDimension
 13
698.6863403701891
 23
1126.819144775782
 33
0.0
 14
715.6863403701891
 24
1126.819144775782
 34
0.0
100
AcDbRotatedDimension
  0
DIMENSION
  5
2F7
330
1F
100
AcDbEntity
  8
0
100
AcDbDimension
  2
*D12
 10
1365.686340370189
 20
1009.911372981066
 30
0.0
 11
1040.686340370189
 21
1028.661372981066
 31
0.0
 70
    32
 71
     5
 42
650.0
  3
ISO-25
100
AcDbAlignedDimension
 13
715.6863403701891
 23
1126.819144775782
 33
0.0
 14
1365.686340370189
 24
1126.819144775782
 34
0.0
100
AcDbRotatedDimension
1001
ACAD
1000
DSTYLE
1002
{
1070
   279
1070
     1
1002
}
  0
DIMENSION
  5
304
330
1F
100
AcDbEntity
  8
0
100
AcDbDimension
  2
*D13
 10
1382.686340370189
 20
1009.911372981066
 30
0.0
 11
1322.228124785733
 21
1009.911372981066
 31
0.0
 70
   160
 71
     5
 42
17.0
  3
ISO-25
100
AcDbAlignedDimension
 13
1365.686340370189
 23
1126.819144775782
 33
0.0
 14
1382.686340370189
 24
1126.819144775782
 34
0.0
100
AcDbRotatedDimension
1001
ACAD
1000
DSTYLE
1002
{
1070
   279
1070
     1
1002
}
  0
DIMENSION
  5
31C
330
1F
100
AcDbEntity
  8
0
100
AcDbDimension
  2
*D14
 10
1382.686340370189
 20
939.552601025859
 30
0.0
 11
1040.686340370189
 21
958.302601025859
 31
0.0
 70
    32
 71
     5
 42
684.0
  3
ISO-25
100
AcDbAlignedDimension
 13
698.6863403701891
 23
1126.819144775782
 33
0.0
 14
1382.686340370189
 24
1126.819144775782
 34
0.0
100
AcDbRotatedDimension
  0
ARC
  5
32A
330
1F
100
AcDbEntity
  8
0
100
AcDbCircle
 10
830.6863403701891
 20
1273.819144775783
 30
0.0
 40
115.0
100
AcDbArc
 50
180.0
 51
270.0
  0
ARC
  5
32B
330
1F
100
AcDbEntity
  8
0
100
AcDbCircle
 10
1250.686340370189
 20
1273.819144775783
 30
0.0
 40
115.0
100
AcDbArc
 50
270.0
 51
0.0
  0
LINE
  5
32C
330
1F
100
AcDbEntity
  8
0
100
AcDbLine
 10
715.6863403701891
 20
1473.819144775783
 30
0.0
 11
715.6863403701891
 21
1258.819144775783
 31
0.0
  0
LINE
  5
32D
330
1F
100
AcDbEntity
  8
0
100
AcDbLine
 10
1365.686340370189
 20
1258.819144775782
 30
0.0
 11
1365.686340370189
 21
1473.819144775783
 31
0.0
  0
ARC
  5
32E
330
1F
100
AcDbEntity
  8
0
100
AcDbCircle
 10
830.6863403701891
 20
1258.819144775783
 30
0.0
 40
115.0
100
AcDbArc
 50
180.0
 51
270.0
  0
ARC
  5
32F
330
1F
100
AcDbEntity
  8
0
100
AcDbCircle
 10
1250.686340370189
 20
1258.819144775782
 30
0.0
 40
115.0
100
AcDbArc
 50
270.0
 51
0.0
  0
ARC
  5
330
330
1F
100
AcDbEntity
  8
0
100
AcDbCircle
 10
830.6863403701891
 20
1258.819144775783
 30
0.0
 40
132.0
100
AcDbArc
 50
180.0
 51
270.0
  0
ARC
  5
331
330
1F
100
AcDbEntity
  8
0
100
AcDbCircle
 10
1250.686340370189
 20
1258.819144775783
 30
0.0
 40
132.0
100
AcDbArc
 50
270.0
 51
0.0
  0
CIRCLE
  5
334
330
1F
100
AcDbEntity
  8
0
100
AcDbCircle
 10
965.6863403701891
 20
1493.819144775782
 30
0.0
 40
79.5
  0
CIRCLE
  5
335
330
1F
100
AcDbEntity
  8
0
100
AcDbCircle
 10
965.6863403701891
 20
1493.819144775782
 30
0.0
 40
90.5
  0
ARC
  5
339
330
1F
100
AcDbEntity
  8
0
100
AcDbCircle
 10
1250.686340370189
 20
1473.819144775783
 30
0.0
 40
115.0
100
AcDbArc
 50
0.0
 51
90.0
  0
ARC
  5
33C
330
1F
100
AcDbEntity
  8
0
100
AcDbCircle
 10
1155.686340370189
 20
1688.819144775783
 30
0.0
 40
100.0
100
AcDbArc
 50
212.8664647390864
 51
270.0
  0
ARC
  5
340
330
1F
100
AcDbEntity
  8
0
100
AcDbCircle
 10
1017.93656723063
 20
1599.819144775783
 30
0.0
 40
64.0
100
AcDbArc
 50
32.8664647390862
 51
90.0
  0
ARC
  5
370
330
1F
100
AcDbEntity
  8
0
100
AcDbCircle
 10
775.6863403701891
 20
1603.819144775783
 30
0.0
 40
60.0
100
AcDbArc
 50
90.0
 51
180.0
  0
ARC
  5
371
330
1F
100
AcDbEntity
  8
0
100
AcDbCircle
 10
1305.686340370189
 20
1603.819144775783
 30
0.0
 40
60.0
100
AcDbArc
 50
0.0
 51
89.99999999999998
  0
ARC
  5
372
330
1F
100
AcDbEntity
  8
0
100
AcDbCircle
 10
775.6863403701891
 20
1603.819144775783
 30
0.0
 40
77.0
100
AcDbArc
 50
90.0
 51
180.0
  0
ARC
  5
373
330
1F
100
AcDbEntity
  8
0
100
AcDbCircle
 10
1305.686340370189
 20
1603.819144775783
 30
0.0
 40
77.0
100
AcDbArc
 50
0.0
 51
89.99999999999998
  0
DIMENSION
  5
376
330
1F
100
AcDbEntity
  8
0
100
AcDbDimension
  2
*D15
 10
715.6863403701891
 20
1296.282066833568
 30
0.0
 11
840.6863403701891
 21
1315.032066833568
 31
0.0
 70
    32
 71
     5
 42
250.0
  3
ISO-25
100
AcDbAlignedDimension
 13
965.6863403701891
 23
1455.562056585004
 33
0.0
 14
715.6863403701891
 24
1473.819144775783
 34
0.0
100
AcDbRotatedDimension
  0
DIMENSION
  5
384
330
1F
100
AcDbEntity
  8
0
100
AcDbDimension
  2
*D16
 10
1126.093842644628
 20
1663.819144775783
 30
0.0
 11
1126.093842644628
 21
1547.36953902691
 31
0.0
 70
   160
 71
     5
 42
170.0000000000002
  3
ISO-25
100
AcDbAlignedDimension
 13
1027.246624125874
 23
1493.819144775782
 33
0.0
 14
775.6863403701891
 24
1663.819144775783
 34
0.0
 50
90.0
100
AcDbRotatedDimension
  0
LINE
  5
39A
330
1F
100
AcDbEntity
  8
Cen
 48
0.8
100
AcDbLine
 10
1099.793902049267
 20
1493.819144775782
 30
0.0
 11
831.5787786911105
 21
1493.819144775782
 31
0.0
  0
LINE
  5
39B
330
1F
100
AcDbEntity
  8
Cen
 48
0.8
100
AcDbLine
 10
965.6863403701891
 20
1380.34174386529
 30
0.0
 11
965.6863403701891
 21
1607.296545686276
 31
0.0
  0
DIMENSION
  5
3B2
330
1F
100
AcDbEntity
  8
0
100
AcDbDimension
  2
*D17
 10
1030.686340370189
 20
1775.937101222945
 30
0.0
 11
965.6863403701891
 21
1794.687101222945
 31
0.0
 70
    32
 71
     5
 42
130.0
  3
ISO-25
100
AcDbAlignedDimension
 13
900.686340370189
 23
1680.819144775783
 33
0.0
 14
1030.686340370189
 24
1680.819144775783
 34
0.0
100
AcDbRotatedDimension
  0
DIMENSION
  5
3BF
330
1F
100
AcDbEntity
  8
0
100
AcDbDimension
  2
*D18
 10
1095.686340370189
 20
1827.33011068973
 30
0.0
 11
965.6863403701891
 21
1846.08011068973
 31
0.0
 70
    32
 71
     5
 42
260.0
  3
ISO-25
100
AcDbAlignedDimension
 13
835.686340370189
 23
1745.819144775783
 33
0.0
 14
1095.686340370189
 24
1745.819144775783
 34
0.0
100
AcDbRotatedDimension
  0
LINE
  5
3DD
330
1F
100
AcDbEntity
  8
Cen
100
AcDbLine
 10
1095.686340370189
 20
1810.819144775783
 30
0.0
 11
1095.686340370189
 21
1616.819144775783
 31
0.0
  0
LINE
  5
3DE
330
1F
100
AcDbEntity
  8
Cen
100
AcDbLine
 10
835.686340370189
 20
1810.819144775783
 30
0.0
 11
835.686340370189
 21
1616.819144775783
 31
0.0
  0
CIRCLE
  5
3DF
330
1F
100
AcDbEntity
  8
Cen
100
AcDbCircle
 10
1095.686340370189
 20
1648.819144775783
 30
0.0
 40
6.0
  0
CIRCLE
  5
3E0
330
1F
100
AcDbEntity
  8
Cen
100
AcDbCircle
 10
835.686340370189
 20
1648.819144775783
 30
0.0
 40
6.0
  0
LINE
  5
3E3
330
1F
100
AcDbEntity
  8
Cen
100
AcDbLine
 10
900.6863403701894
 20
1775.937101222945
 30
0.0
 11
900.686340370189
 21
1648.819144775783
 31
0.0
  0
LINE
  5
3E4
330
1F
100
AcDbEntity
  8
Cen
100
AcDbLine
 10
1030.686340370189
 20
1775.937101222945
 30
0.0
 11
1030.686340370189
 21
1648.819144775783
 31
0.0
  0
LINE
  5
407
330
1F
100
AcDbEntity
  8
0
100
AcDbLine
 10
698.6863403701891
 20
736.251949644734
 30
0.0
 11
1382.686340370189
 21
736.2519496447339
 31
0.0
  0
LINE
  5
40A
330
1F
100
AcDbEntity
  8
0
100
AcDbLine
 10
715.6863403701893
 20
736.251949644734
 30
0.0
 11
715.6863403701891
 21
585.2982994425879
 31
0.0
  0
LINE
  5
40B
330
1F
100
AcDbEntity
  8
0
100
AcDbLine
 10
1365.686340370189
 20
736.2519496447339
 30
0.0
 11
1365.686340370189
 21
594.4445968688905
 31
0.0
  0
LINE
  5
40D
330
1F
100
AcDbEntity
  8
0
100
AcDbLine
 10
715.6863403701895
 20
721.251949644734
 30
0.0
 11
900.686340370189
 21
721.2519496447339
 31
0.0
  0
LINE
  5
413
330
1F
100
AcDbEntity
  8
0
100
AcDbLine
 10
875.1863403701888
 20
539.2519496447341
 30
0.0
 11
885.1863403701889
 21
539.2519496447341
 31
0.0
  0
LINE
  5
414
330
1F
100
AcDbEntity
  8
0
100
AcDbLine
 10
875.1863403701891
 20
546.251949644734
 30
0.0
 11
875.1863403701891
 21
539.2519496447339
 31
0.0
  0
LINE
  5
415
330
1F
100
AcDbEntity
  8
0
100
AcDbLine
 10
1056.186340370189
 20
546.2519496447339
 30
0.0
 11
1056.186340370189
 21
539.2519496447339
 31
0.0
  0
LINE
  5
419
330
1F
100
AcDbEntity
  8
0
100
AcDbLine
 10
744.7175405951927
 20
555.3139464064464
 30
0.0
 11
855.186340370189
 21
548.2519496447341
 31
0.0
  0
LINE
  5
41A
330
1F
100
AcDbEntity
  8
0
100
AcDbLine
 10
1337.548030284642
 20
564.502417411436
 30
0.0
 11
1218.691897131068
 21
557.1123987697628
 31
0.0
  0
LINE
  5
41E
330
1F
100
AcDbEntity
  8
0
100
AcDbLine
 10
875.1863403701891
 20
546.251949644734
 30
0.0
 11
1056.186340370189
 21
546.2519496447339
 31
0.0
  0
ARC
  5
471
330
1F
100
AcDbEntity
  8
0
100
AcDbCircle
 10
745.686340370189
 20
585.2982994425879
 30
0.0
 40
30.0
100
AcDbArc
 50
180.0
 51
268.1494069769925
  0
DIMENSION
  5
473
330
1F
100
AcDbEntity
  8
0
100
AcDbDimension
  2
*D19
 10
886.1863403701889
 20
417.8574749467188
 30
0.0
 11
965.6863403701889
 21
436.6074749467188
 31
0.0
 70
    32
  1
158
 71
     5
 42
159.0000000000002
  3
ISO-25
100
AcDbAlignedDimension
 13
1045.186340370189
 23
539.2519496447339
 33
0.0
 14
886.1863403701889
 24
539.2519496447341
 34
0.0
100
AcDbRotatedDimension
  0
DIMENSION
  5
480
330
1F
100
AcDbEntity
  8
0
100
AcDbDimension
  2
*D20
 10
875.1863403701891
 20
648.4049741827057
 30
0.0
 11
965.6863403701891
 21
667.1549741827057
 31
0.0
 70
    32
 71
     5
 42
181.0
  3
ISO-25
100
AcDbAlignedDimension
 13
1056.186340370189
 23
546.2519496447339
 33
0.0
 14
875.1863403701891
 24
546.251949644734
 34
0.0
100
AcDbRotatedDimension
  0
LINE
  5
48E
330
1F
100
AcDbEntity
  8
Cen
100
AcDbLine
 10
965.6863403701891
 20
629.5575415999692
 30
0.0
 11
965.6863403701891
 21
514.9974076996095
 31
0.0
  0
LINE
  5
48F
330
1F
100
AcDbEntity
  8
0
100
AcDbLine
 10
1710.143486331141
 20
1680.819144775783
 30
0.0
 11
1710.14348633114
 21
1126.819144775782
 31
0.0
  0
LINE
  5
492
330
1F
100
AcDbEntity
  8
0
100
AcDbLine
 10
1710.143486331141
 20
1663.819144775783
 30
0.0
 11
1863.680670276366
 21
1663.819144775783
 31
0.0
  0
LINE
  5
493
330
1F
100
AcDbEntity
  8
0
100
AcDbLine
 10
1728.143486331141
 20
1588.819144775783
 30
0.0
 11
1870.143486331141
 21
1588.819144775782
 31
0.0
  0
LINE
  5
494
330
1F
100
AcDbEntity
  8
0
100
AcDbLine
 10
1710.14348633114
 20
1143.819144775782
 30
0.0
 11
1722.14348633114
 21
1143.819144775782
 31
0.0
  0
LINE
  5
495
330
1F
100
AcDbEntity
  8
0
100
AcDbLine
 10
1728.143486331141
 20
1158.819144775782
 30
0.0
 11
1861.345398781713
 21
1158.819144775782
 31
0.0
  0
LINE
  5
496
330
1F
100
AcDbEntity
  8
0
100
AcDbLine
 10
1725.14348633114
 20
1155.819144775782
 30
0.0
 11
1725.14348633114
 21
1146.819144775782
 31
0.0
  0
ARC
  5
498
330
1F
100
AcDbEntity
  8
0
100
AcDbCircle
 10
1722.14348633114
 20
1146.819144775782
 30
0.0
 40
3.0
100
AcDbArc
 50
270.0
 51
360.0
  0
ARC
  5
499
330
1F
100
AcDbEntity
  8
0
100
AcDbCircle
 10
1728.143486331141
 20
1155.819144775782
 30
0.0
 40
3.0
100
AcDbArc
 50
90.00000000000005
 51
179.9999999999999
  0
LINE
  5
49A
330
1F
100
AcDbEntity
  8
0
100
AcDbLine
 10
1725.14348633114
 20
1663.819144775782
 30
0.0
 11
1725.14348633114
 21
1591.819144775783
 31
0.0
  0
ARC
  5
49B
330
1F
100
AcDbEntity
  8
0
100
AcDbCircle
 10
1728.143486331141
 20
1591.819144775783
 30
0.0
 40
3.0
100
AcDbArc
 50
179.9999999999999
 51
270.0
  0
LINE
  5
49D
330
1F
100
AcDbEntity
  8
0
100
AcDbLine
 10
1725.14348633114
 20
1591.819144775783
 30
0.0
 11
1725.14348633114
 21
1146.819144775782
 31
0.0
  0
LINE
  5
49E
330
1F
100
AcDbEntity
  8
0
100
AcDbLine
 10
1900.143486331141
 20
1558.819144775783
 30
0.0
 11
1900.14348633114
 21
1403.319144775787
 31
0.0
  0
LINE
  5
4A7
330
1F
100
AcDbEntity
  8
0
100
AcDbLine
 10
1900.14348633114
 20
1403.319144775783
 30
0.0
 11
1891.320338318984
 21
1187.593175878552
 31
0.0
  0
ARC
  5
4AA
330
1F
100
AcDbEntity
  8
0
100
AcDbCircle
 10
1861.345398781713
 20
1188.819144775782
 30
0.0
 40
30.0
100
AcDbArc
 50
270.0
 51
357.6579196915298
  0
ARC
  5
4AB
330
1F
100
AcDbEntity
  8
0
100
AcDbCircle
 10
1870.143486331141
 20
1558.819144775783
 30
0.0
 40
30.0
100
AcDbArc
 50
359.9999999999999
 51
89.99999999999992
  0
LINE
  5
4AE
330
1F
100
AcDbEntity
  8
Cen
100
AcDbLine
 10
1805.549656550933
 20
1491.944144775782
 30
0.0
 11
1936.204068786256
 21
1491.944144775782
 31
0.0
  0
CIRCLE
  5
4AF
330
1F
100
AcDbEntity
  8
Cen
  6
HIDDEN2
 48
1.5
100
AcDbCircle
 10
1363.716680214764
 20
728.8739602725909
 30
0.0
 40
64.39211969241114
  0
ARC
  5
4B0
330
1F
100
AcDbEntity
  8
Cen
  6
Continuous
100
AcDbCircle
 10
1597.138099513837
 20
551.9354972682577
 30
0.0
 40
302.1247328958318
100
AcDbArc
 50
90.0
 51
130.5390852135428
  0
LINE
  5
4B4
330
1F
100
AcDbEntity
  8
Cen
100
AcDbLine
 10
1577.030388693891
 20
862.405771336852
 30
0.0
 11
1597.138099513837
 21
854.0602301640895
 31
0.0
  0
LINE
  5
4B5
330
1F
100
AcDbEntity
  8
Cen
100
AcDbLine
 10
1597.138099513837
 20
854.0602301640895
 30
0.0
 11
1578.115447510679
 21
843.6129101320975
 31
0.0
  0
LINE
  5
4B7
330
1F
100
AcDbEntity
  8
0
100
AcDbLine
 10
1657.957999673681
 20
807.021649378826
 30
0.0
 11
1979.979296620009
 21
807.0216493788256
 31
0.0
  0
LINE
  5
4B8
330
1F
100
AcDbEntity
  8
0
100
AcDbLine
 10
1809.979296620009
 20
777.0216493788258
 30
0.0
 11
1809.979296620009
 21
632.3434524976855
 31
0.0
  0
DIMENSION
  5
4C1
330
1F
100
AcDbEntity
  8
0
100
AcDbDimension
  2
*D21
 10
1809.979296620009
 20
913.1985909010037
 30
0.0
 11
1894.979296620009
 21
931.9485909010037
 31
0.0
 70
    32
  1
17
 71
     5
 42
170.0
  3
ISO-25
100
AcDbAlignedDimension
 13
1979.979296620009
 23
807.0216493788256
 33
0.0
 14
1809.979296620009
 24
807.0216493788256
 34
0.0
100
AcDbRotatedDimension
  0
ARC
  5
4CE
330
1F
100
AcDbEntity
  8
0
100
AcDbCircle
 10
1839.979296620009
 20
777.0216493788258
 30
0.0
 40
30.0
100
AcDbArc
 50
90.0
 51
180.0
  0
LINE
  5
4CF
330
1F
100
AcDbEntity
  8
0
100
AcDbLine
 10
1839.979296620009
 20
797.0216493788258
 30
0.0
 11
1979.979296620009
 21
797.0216493788257
 31
0.0
  0
ARC
  5
4D0
330
1F
100
AcDbEntity
  8
0
100
AcDbCircle
 10
1839.979296620009
 20
777.0216493788258
 30
0.0
 40
20.0
100
AcDbArc
 50
90.0
 51
180.0
  0
LINE
  5
4D1
330
1F
100
AcDbEntity
  8
0
100
AcDbLine
 10
1819.979296620009
 20
777.0216493788258
 30
0.0
 11
1819.979296620009
 21
632.3434524976855
 31
0.0
  0
LINE
  5
4D2
330
1F
100
AcDbEntity
  8
0
100
AcDbLine
 10
1979.979296620009
 20
807.0216493788256
 30
0.0
 11
1979.979296620009
 21
797.0216493788257
 31
0.0
  0
LEADER
  5
50F
330
1F
100
AcDbEntity
  8
0
100
AcDbLeader
  3
ISO-25
 40
25.0
 41
41.66666666666666
 76
     2
 10
828.1749925905314
 20
1654.765385516452
 30
0.0
 10
803.8419639481762
 20
1740.175159897084
 30
0.0
213
0.0
223
12.5
233
0.0
1001
ACAD
1000
DSTYLE
1002
{
1070
    41
1040
25.0
1070
   147
1040
6.25
1070
    77
1070
     0
1070
    73
1070
     1
1070
    74
1070
     1
1070
   342
1005
DA
1002
}
  0
TEXT
  5
511
330
1F
100
AcDbEntity
  8
0
100
AcDbText
 10
751.3015686370451
 20
1752.784086152869
 30
0.0
 40
25.0
  1
12%%C
 72
     2
 11
809.6349019703785
 21
1749.450752819536
 31
0.0
100
AcDbText
 73
     1
  0
LEADER
  5
52C
330
1F
100
AcDbEntity
  8
0
100
AcDbLeader
  3
ISO-25
 40
33.33333333333333
 41
66.66666666666668
 76
     2
 10
1322.396087863191
 20
1149.078535664984
 30
0.0
 10
1238.818178944761
 20
1186.830490374782
 30
0.0
213
0.0
223
12.5
233
0.0
1001
ACAD
1000
DSTYLE
1002
{
1070
    41
1040
25.0
1070
   147
1040
6.25
1070
    77
1070
     0
1070
    73
1070
     1
1070
    74
1070
     1
1070
   279
1070
     1
1070
   342
1005
DA
1002
}
  0
TEXT
  5
52E
330
1F
100
AcDbEntity
  8
0
100
AcDbText
 10
1148.615420790293
 20
1174.147843066389
 30
0.0
 40
25.0
  1
132R
 72
     2
 11
1231.948754123626
 21
1170.814509733056
 31
0.0
100
AcDbText
 73
     1
  0
MTEXT
  5
532
330
1F
100
AcDbEntity
  8
0
100
AcDbMText
 10
1469.226616777811
 20
1181.110374981098
 30
0.0
 40
25.0
 41
0.0
 71
     9
 72
     1
  1

 73
     1
 44
1.0
1001
ACAD
1000
MTEXTBEGIN
1070
    73
1070
     1
1070
    44
1040
1.0
1070
    74
1070
     0
1000
MTEXTEND
  0
LEADER
  5
533
330
1F
100
AcDbEntity
  8
0
100
AcDbLeader
  3
ISO-25
 40
25.0
 41
16.66666666666666
 76
     2
 10
1331.555318179766
 20
1178.822502434038
 30
0.0
 10
1241.107984440203
 20
1234.878437060196
 30
0.0
213
-97.31675022588753
223
44.53196128345098
233
0.0
1001
ACAD
1000
DSTYLE
1002
{
1070
    41
1040
25.0
1070
   147
1040
6.25
1070
    77
1070
     0
1070
    73
1070
     1
1070
    74
1070
     1
1070
   279
1070
     1
1070
   342
1005
DA
1002
}
  0
TEXT
  5
537
330
1F
100
AcDbEntity
  8
0
100
AcDbText
 10
1155.803851375905
 20
1230.203782452786
 30
0.0
 40
25.0
  1
115R
 72
     2
 11
1230.803851375905
 21
1226.870449119453
 31
0.0
100
AcDbText
 73
     1
  0
LEADER
  5
53A
330
1F
100
AcDbEntity
  8
0
100
AcDbLeader
  3
ISO-25
 40
25.0
 41
16.66666666666666
 76
     2
 10
1347.583956647859
 20
1215.430457506519
 30
0.0
 10
1284.614297188404
 20
1274.918391044629
 30
0.0
213
0.0
223
12.5
233
0.0
1001
ACAD
1000
DSTYLE
1002
{
1070
    41
1040
25.0
1070
   147
1040
6.25
1070
    77
1070
     0
1070
    73
1070
     1
1070
    74
1070
     1
1070
   279
1070
     1
1070
   342
1005
DA
1002
}
  0
TEXT
  5
53C
330
1F
100
AcDbEntity
  8
0
100
AcDbText
 10
1202.744872367268
 20
1273.675730588931
 30
0.0
 40
25.0
  1
115R
 72
     2
 11
1277.744872367268
 21
1270.342397255598
 31
0.0
100
AcDbText
 73
     1
  0
LEADER
  5
53D
330
1F
100
AcDbEntity
  8
0
100
AcDbLeader
  3
ISO-25
 40
25.0
 41
16.66666666666666
 76
     2
 10
954.2096110840358
 20
1168.27716663991
 30
0.0
 10
979.9856411809551
 20
1215.111733593348
 30
0.0
213
0.0
223
-12.5
233
0.0
1001
ACAD
1000
DSTYLE
1002
{
1070
    41
1040
25.0
1070
   147
1040
6.25
1070
    77
1070
     0
1070
    73
1070
     1
1070
    74
1070
     1
1070
   279
1070
     1
1070
   342
1005
DA
1002
}
  0
TEXT
  5
53F
330
1F
100
AcDbEntity
  8
0
100
AcDbText
 10
954.7647429642111
 20
1229.73708450333
 30
0.0
 40
25.0
  1
10000R
 11
954.7647429642111
 21
1226.403751169997
 31
0.0
100
AcDbText
 73
     1
  0
LEADER
  5
540
330
1F
100
AcDbEntity
  8
0
100
AcDbLeader
  3
ISO-25
 76
     2
 10
1364.757497863671
 20
1368.87180076162
 30
0.0
 10
1268.585650385503
 20
1368.87180076162
 30
0.0
1001
ACAD
1000
DSTYLE
1002
{
1070
    41
1040
25.0
1070
   147
1040
6.25
1070
    77
1070
     0
1070
    73
1070
     1
1070
    74
1070
     1
1070
   279
1070
     1
1070
   342
1005
DA
1002
}
  0
TEXT
  5
54B
330
1F
100
AcDbEntity
  8
0
100
AcDbText
 10
1158.281525656015
 20
1356.37180076162
 30
0.0
 40
25.0
  1
1500R
 72
     2
 11
1258.281525656015
 21
1368.87180076162
 31
0.0
100
AcDbText
 73
     2
  0
LEADER
  5
54C
330
1F
100
AcDbEntity
  8
0
100
AcDbLeader
  3
ISO-25
 40
25.0
 41
16.66666666666666
 76
     2
 10
1353.308470386462
 20
1636.421971781599
 30
0.0
 10
1308.304486584975
 20
1580.670915231452
 30
0.0
213
0.0
223
12.5
233
0.0
1001
ACAD
1000
DSTYLE
1002
{
1070
    41
1040
25.0
1070
   147
1040
6.25
1070
    77
1070
     0
1070
    73
1070
     1
1070
    74
1070
     1
1070
   279
1070
     1
1070
   342
1005
DA
1002
}
  0
TEXT
  5
54E
330
1F
100
AcDbEntity
  8
0
100
AcDbText
 10
1243.462129945474
 20
1545.413796445264
 30
0.0
 40
25.0
  1
60R
 72
     2
 11
1305.962129945474
 21
1542.080463111931
 31
0.0
100
AcDbText
 73
     1
  0
LEADER
  5
558
330
1F
100
AcDbEntity
  8
0
100
AcDbLeader
  3
ISO-25
 40
25.0
 41
16.66666666666666
 76
     2
 10
882.7767585312422
 20
1649.153069198472
 30
0.0
 10
937.7086979505202
 20
1626.125984566221
 30
0.0
213
0.0
223
-12.5
233
0.0
1001
ACAD
1000
DSTYLE
1002
{
1070
    41
1040
25.0
1070
   147
1040
6.25
1070
    77
1070
     0
1070
    73
1070
     1
1070
    74
1070
     1
1070
   279
1070
     1
1070
   342
1005
DA
1002
}
  0
TEXT
  5
55A
330
1F
100
AcDbEntity
  8
0
100
AcDbText
 10
945.7230171845658
 20
1613.541998076209
 30
0.0
 40
25.0
  1
64R
 11
945.7230171845658
 21
1610.208664742877
 31
0.0
100
AcDbText
 73
     1
  0
MTEXT
  5
55C
330
1F
100
AcDbEntity
  8
0
100
AcDbMText
 10
1010.02660136874
 20
1423.470120422065
 30
0.0
 40
25.0
 41
0.0
 71
     1
 72
     1
  1

 73
     1
 44
1.0
1001
ACAD
1000
MTEXTBEGIN
1070
    73
1070
     1
1070
    44
1040
1.0
1070
    74
1070
     0
1000
MTEXTEND
  0
LEADER
  5
55D
330
1F
100
AcDbEntity
  8
0
100
AcDbLeader
  3
ISO-25
 40
25.0
 41
16.66666666666666
 76
     2
 10
1196.738640332862
 20
1582.763060191623
 30
0.0
 10
1228.372861872091
 20
1466.847513331155
 30
0.0
213
0.0
223
-12.5
233
0.0
1001
ACAD
1000
DSTYLE
1002
{
1070
    41
1040
25.0
1070
   147
1040
6.25
1070
    77
1070
     0
1070
    73
1070
     1
1070
    74
1070
     1
1070
   279
1070
     1
1070
   342
1005
DA
1002
}
  0
TEXT
  5
55F
330
1F
100
AcDbEntity
  8
0
100
AcDbText
 10
1180.996528575095
 20
1427.551267267748
 30
0.0
 40
25.0
  1
10000R
 11
1180.996528575095
 21
1452.551267267748
 31
0.0
100
AcDbText
 73
     3
  0
LEADER
  5
560
330
1F
100
AcDbEntity
  8
0
100
AcDbLeader
  3
ISO-25
 40
25.0
 41
16.66666666666666
 76
     2
 10
761.6264680711565
 20
1568.762397063873
 30
0.0
 10
800.3945628557703
 20
1536.799841806304
 30
0.0
213
0.0
223
-12.5
233
0.0
1001
ACAD
1000
DSTYLE
1002
{
1070
    41
1040
25.0
1070
   147
1040
6.25
1070
    77
1070
     0
1070
    73
1070
     1
1070
    74
1070
     1
1070
   279
1070
     1
1070
   342
1005
DA
1002
}
  0
TEXT
  5
562
330
1F
100
AcDbEntity
  8
0
100
AcDbText
 10
771.0976852777912
 20
1501.992925492441
 30
0.0
 40
25.0
  1
100R
 11
771.0976852777912
 21
1526.992925492441
 31
0.0
100
AcDbText
 73
     3
  0
LEADER
  5
563
330
1F
100
AcDbEntity
  8
0
100
AcDbLeader
  3
ISO-25
 40
33.33333333333333
 41
16.66666666666667
 76
     2
 10
1370.611885807841
 20
1630.787656754977
 30
0.0
 10
1329.5801846468
 20
1521.442038885469
 30
0.0
211
-1.0
221
0.0
231
0.0
210
0.0
220
0.0
230
-1.0
213
0.0
223
-12.5
233
0.0
1001
ACAD
1000
DSTYLE
1002
{
1070
   147
1040
6.25
1070
    77
1070
     0
1070
    73
1070
     1
1070
    74
1070
     1
1070
   279
1070
     1
1070
   342
1005
DA
1002
}
  0
TEXT
  5
565
330
1F
100
AcDbEntity
  8
0
100
AcDbText
 10
1282.492008968268
 20
1485.520906091636
 30
0.0
 40
25.0
  1
77R
 11
1282.492008968268
 21
1510.520906091636
 31
0.0
100
AcDbText
 73
     3
  0
LEADER
  5
566
330
1F
100
AcDbEntity
  8
0
100
AcDbLeader
  3
ISO-25
 40
25.0
 41
16.66666666666666
 76
     2
 10
830.4398359310571
 20
1596.850703911914
 30
0.0
 10
829.4706377721176
 20
1535.831283231306
 30
0.0
213
0.0
223
12.5
233
0.0
1001
ACAD
1000
DSTYLE
1002
{
1070
    41
1040
25.0
1070
   147
1040
6.25
1070
    77
1070
     0
1070
    73
1070
     1
1070
    74
1070
     1
1070
   279
1070
     1
1070
   342
1005
DA
1002
}
  0
LINE
  5
56A
330
1F
100
AcDbEntity
  8
補助
100
AcDbLine
 10
2784.0
 20
134.0
 30
0.0
 11
2784.0
 21
199.0
 31
0.0
  0
TEXT
  5
56C
330
1F
100
AcDbEntity
  8
0
100
AcDbText
 10
2198.166666666667
 20
149.0
 30
0.0
 40
35.0
  1
PRS650-520GRM-POR
 72
     4
 11
2484.0
 21
166.5
 31
0.0
100
AcDbText
  0
DIMENSION
  5
586
330
1F
100
AcDbEntity
  8
0
100
AcDbDimension
  2
*D22
 10
1067.913779798548
 20
1663.819144775783
 30
0.0
 11
1065.67069337384
 21
1704.277003259854
 31
0.0
 70
   160
 71
     5
 42
15.00000000000023
  3
ISO-25
100
AcDbAlignedDimension
 13
1143.941276394091
 23
1648.819144775783
 33
0.0
 14
1160.686340370189
 24
1663.819144775783
 34
0.0
 50
90.0
100
AcDbRotatedDimension
1001
ACAD
1000
DSTYLE
1002
{
1070
   279
1070
     2
1002
}
  0
LINE
  5
59F
330
1F
100
AcDbEntity
  8
Cen
100
AcDbLine
 10
1114.694490754088
 20
1648.819144775783
 30
0.0
 11
1080.173769239855
 21
1648.819144775783
 31
0.0
  0
LINE
  5
5A0
330
1F
100
AcDbEntity
  8
Cen
100
AcDbLine
 10
1079.898677988244
 20
1648.819144775783
 30
0.0
 11
1112.801237946637
 21
1648.819144775783
 31
0.0
  0
LINE
  5
5A1
330
1F
100
AcDbEntity
  8
Cen
100
AcDbLine
 10
852.0133899374149
 20
1648.819144775782
 30
0.0
 11
816.6781899862899
 21
1648.819144775783
 31
0.0
  0
MTEXT
  5
5A9
330
1F
100
AcDbEntity
  8
Cen
100
AcDbMText
 10
1527.939315450184
 20
552.4831097022406
 30
0.0
 40
25.0
 41
0.0
 71
     9
 72
     1
  1

 73
     1
 44
1.0
1001
ACAD
1000
MTEXTBEGIN
1070
    73
1070
     1
1070
    44
1040
1.0
1070
    74
1070
     0
1000
MTEXTEND
  0
LEADER
  5
5AA
330
1F
100
AcDbEntity
  8
Cen
100
AcDbLeader
  3
ISO-25
 40
25.0
 41
16.66666666666666
 76
     2
 10
1357.150631676423
 20
582.5893349571156
 30
0.0
 10
1328.274219374395
 20
632.4338330045762
 30
0.0
213
0.0
223
12.5
233
0.0
1001
ACAD
1000
DSTYLE
1002
{
1070
    41
1040
25.0
1070
   147
1040
6.25
1070
    77
1070
     0
1070
   279
1070
     1
1002
}
  0
TEXT
  5
5AD
330
1F
100
AcDbEntity
  8
0
100
AcDbText
 10
1271.83395444202
 20
640.3040198772355
 30
0.0
 40
25.0
  1
30R
100
AcDbText
  0
LEADER
  5
5AE
330
1F
100
AcDbEntity
  8
Cen
100
AcDbLeader
  3
ISO-25
 40
25.0
 41
16.66666666666666
 76
     2
 10
1819.446468714117
 20
798.8940744429793
 30
0.0
 10
1874.13549532177
 20
730.3841400849332
 30
0.0
213
0.0
223
-12.5
233
0.0
1001
ACAD
1000
DSTYLE
1002
{
1070
    41
1040
25.0
1070
   147
1040
6.25
1070
    77
1070
     0
1070
   279
1070
     1
1002
}
  0
TEXT
  5
5B0
330
1F
100
AcDbEntity
  8
0
100
AcDbText
 10
1881.518389221298
 20
706.1452344867957
 30
0.0
 40
25.0
  1
3R
100
AcDbText
  0
LEADER
  5
5B2
330
1F
100
AcDbEntity
  8
Cen
100
AcDbLeader
  3
ISO-25
 40
25.0
 41
16.66666666666666
 76
     2
 10
1726.623933330177
 20
1589.232456028124
 30
0.0
 10
1671.451004558409
 20
1553.198182424822
 30
0.0
213
0.0
223
12.5
233
0.0
1001
ACAD
1000
DSTYLE
1002
{
1070
    41
1040
25.0
1070
   147
1040
6.25
1070
    77
1070
     0
1070
   279
1070
     1
1002
}
  0
LEADER
  5
5B4
330
1F
100
AcDbEntity
  8
Cen
100
AcDbLeader
  3
ISO-25
 76
     2
 10
1726.234011192821
 20
1158.132995396747
 30
0.0
 10
1782.030610241719
 20
1114.261077891561
 30
0.0
1001
ACAD
1000
DSTYLE
1002
{
1070
    41
1040
25.0
1070
   147
1040
6.25
1070
    77
1070
     0
1070
   279
1070
     1
1002
}
  0
TEXT
  5
5B7
330
1F
100
AcDbEntity
  8
0
100
AcDbText
 10
1785.950001864442
 20
1085.695163523223
 30
0.0
 40
25.0
  1
3R
100
AcDbText
  0
LEADER
  5
5B8
330
1F
100
AcDbEntity
  8
Cen
100
AcDbLeader
  3
ISO-25
 76
     2
 10
1724.188626307637
 20
1144.624286585253
 30
0.0
 10
1673.209899209959
 20
1180.607719096651
 30
0.0
1001
ACAD
1000
DSTYLE
1002
{
1070
    41
1040
25.0
1070
   147
1040
6.25
1070
    77
1070
     0
1070
   279
1070
     1
1002
}
  0
TEXT
  5
5B9
330
1F
100
AcDbEntity
  8
0
100
AcDbText
 10
1626.177208071193
 20
1170.701795336126
 30
0.0
 40
25.0
  1
3R
100
AcDbText
  0
TEXT
  5
5BA
330
1F
100
AcDbEntity
  8
0
100
AcDbText
 10
1623.484949926137
 20
1520.418726242846
 30
0.0
 40
25.0
  1
3R
100
AcDbText
  0
LINE
  5
5D0
330
1F
100
AcDbEntity
  8
補助
100
AcDbLine
 10
2784.0
 20
69.0
 30
0.0
 11
2784.0
 21
134.0
 31
0.0
  0
TEXT
  5
5D2
330
1F
100
AcDbEntity
  8
0
100
AcDbText
 10
2430.916666666667
 20
84.0
 30
0.0
 40
35.0
  1
1：10
 72
     4
 11
2484.0
 21
101.5
 31
0.0
100
AcDbText
  0
TEXT
  5
5D8
330
1F
100
AcDbEntity
  8
0
100
AcDbText
 10
231.1659029702105
 20
53.51169987015055
 30
0.0
 40
30.0
  1
※実寸には製造上の誤差が多少生ずる場合があります。シンクの穴あけ加工は現物合わせにてお願いします。
100
AcDbText
  0
TEXT
  5
5F4
330
1F
100
AcDbEntity
  8
補助
100
AcDbText
 10
2300.255774665348
 20
16.49999999999999
 30
0.0
 40
40.0
  1
中外交易株式会社
 72
     4
 11
2488.255774665347
 21
36.5
 31
0.0
100
AcDbText
  0
LINE
  5
5F5
330
1F
100
AcDbEntity
  8
補助
100
AcDbLine
 10
2064.0
 20
69.0
 30
0.0
 11
2784.0
 21
69.0
 31
0.0
  0
HATCH
  5
5F6
330
1F
100
AcDbEntity
  8
補助
100
AcDbHatch
 10
0.0
 20
0.0
 30
0.0
210
0.0
220
0.0
230
1.0
  2
SOLID
 70
     1
 71
     1
 91
        3
 92
        1
 93
        4
 72
     2
 10
2257.166198313996
 20
36.5
 40
20.0
 50
11.6477236670766
 51
342.6561058784691
 73
     1
 72
     1
 10
2276.256852341323
 20
30.53787547858514
 11
2252.166198313995
 21
30.53787547858519
 72
     1
 10
2252.166198313995
 20
30.53787547858519
 11
2252.166198313995
 21
40.53787547858519
 72
     1
 10
2252.166198313995
 20
40.53787547858519
 11
2276.75434681301
 21
40.53787547858519
 97
        4
330
5F7
330
5F9
330
5FA
330
5FB
 92
        1
 93
        4
 72
     2
 10
2188.255774665348
 20
36.5
 40
20.0
 50
11.6477236670766
 51
342.6561058784691
 73
     1
 72
     1
 10
2207.346428692676
 20
30.53787547858514
 11
2183.255774665347
 21
30.53787547858519
 72
     1
 10
2183.255774665347
 20
30.53787547858519
 11
2183.255774665347
 21
40.53787547858519
 72
     1
 10
2183.255774665347
 20
40.53787547858519
 11
2207.843923164362
 21
40.53787547858519
 97
        4
330
5F8
330
601
330
602
330
603
 92
        1
 93
        5
 72
     1
 10
2245.64189404294
 20
56.5
 11
2210.641894042939
 21
56.5
 72
     1
 10
2210.641894042939
 20
56.5
 11
2210.641894042939
 21
16.5
 72
     1
 10
2210.641894042939
 20
16.5
 11
2245.64189404294
 21
16.5
 72
     1
 10
2245.64189404294
 20
16.5
 11
2210.641894042939
 21
36.5
 72
     1
 10
2210.641894042939
 20
36.5
 11
2245.64189404294
 21
56.5
 97
        5
330
5FC
330
600
330
5FF
330
5FE
330
5FD
 75
     0
 76
     1
 98
        1
 10
-60.0
 20
0.0
  0
ARC
  5
5F7
102
{ACAD_REACTORS
330
5F6
102
}
330
1F
100
AcDbEntity
  8
補助
370
     5
100
AcDbCircle
 10
2257.166198313996
 20
36.5
 30
0.0
 40
20.0
100
AcDbArc
 50
11.6477236670766
 51
342.6561058784691
  0
ARC
  5
5F8
102
{ACAD_REACTORS
330
5F6
102
}
330
1F
100
AcDbEntity
  8
補助
370
     5
100
AcDbCircle
 10
2188.255774665348
 20
36.5
 30
0.0
 40
20.0
100
AcDbArc
 50
11.6477236670766
 51
342.6561058784691
  0
LINE
  5
5F9
102
{ACAD_REACTORS
330
5F6
102
}
330
1F
100
AcDbEntity
  8
補助
370
     5
100
AcDbLine
 10
2252.166198313995
 20
30.53787547858519
 30
0.0
 11
2276.256852341323
 21
30.53787547858514
 31
0.0
  0
LINE
  5
5FA
102
{ACAD_REACTORS
330
5F6
102
}
330
1F
100
AcDbEntity
  8
補助
370
     5
100
AcDbLine
 10
2252.166198313995
 20
40.53787547858519
 30
0.0
 11
2252.166198313995
 21
30.53787547858519
 31
0.0
  0
LINE
  5
5FB
102
{ACAD_REACTORS
330
5F6
102
}
330
1F
100
AcDbEntity
  8
補助
370
     5
100
AcDbLine
 10
2276.75434681301
 20
40.53787547858519
 30
0.0
 11
2252.166198313995
 21
40.53787547858519
 31
0.0
  0
LINE
  5
5FC
102
{ACAD_REACTORS
330
5F6
102
}
330
1F
100
AcDbEntity
  8
補助
370
     5
100
AcDbLine
 10
2245.64189404294
 20
56.5
 30
0.0
 11
2210.641894042939
 21
56.5
 31
0.0
  0
LINE
  5
5FD
102
{ACAD_REACTORS
330
5F6
102
}
330
1F
100
AcDbEntity
  8
補助
370
     5
100
AcDbLine
 10
2210.641894042939
 20
36.5
 30
0.0
 11
2245.64189404294
 21
56.5
 31
0.0
  0
LINE
  5
5FE
102
{ACAD_REACTORS
330
5F6
102
}
330
1F
100
AcDbEntity
  8
補助
370
     5
100
AcDbLine
 10
2245.64189404294
 20
16.5
 30
0.0
 11
2210.641894042939
 21
36.5
 31
0.0
  0
LINE
  5
5FF
102
{ACAD_REACTORS
330
5F6
102
}
330
1F
100
AcDbEntity
  8
補助
370
     5
100
AcDbLine
 10
2210.641894042939
 20
16.5
 30
0.0
 11
2245.64189404294
 21
16.5
 31
0.0
  0
LINE
  5
600
102
{ACAD_REACTORS
330
5F6
102
}
330
1F
100
AcDbEntity
  8
補助
370
     5
100
AcDbLine
 10
2210.641894042939
 20
56.5
 30
0.0
 11
2210.641894042939
 21
16.5
 31
0.0
  0
LINE
  5
601
102
{ACAD_REACTORS
330
5F6
102
}
330
1F
100
AcDbEntity
  8
補助
370
     5
100
AcDbLine
 10
2183.255774665347
 20
30.53787547858519
 30
0.0
 11
2207.346428692676
 21
30.53787547858514
 31
0.0
  0
LINE
  5
602
102
{ACAD_REACTORS
330
5F6
102
}
330
1F
100
AcDbEntity
  8
補助
370
     5
100
AcDbLine
 10
2183.255774665347
 20
40.53787547858519
 30
0.0
 11
2183.255774665347
 21
30.53787547858519
 31
0.0
  0
LINE
  5
603
102
{ACAD_REACTORS
330
5F6
102
}
330
1F
100
AcDbEntity
  8
補助
370
     5
100
AcDbLine
 10
2207.843923164362
 20
40.53787547858519
 30
0.0
 11
2183.255774665347
 21
40.53787547858519
 31
0.0
  0
LINE
  5
A29
330
1F
100
AcDbEntity
  8
補助
100
AcDbLine
 10
2064.0
 20
4.0
 30
0.0
 11
2064.0
 21
199.0
 31
0.0
  0
TEXT
  5
A2C
330
1F
100
AcDbEntity
  8
補助
100
AcDbText
 10
2086.666666666667
 20
149.0
 30
0.0
 40
35.0
  1
品番
 72
     4
 11
2124.0
 21
166.5
 31
0.0
100
AcDbText
  0
TEXT
  5
A2D
330
1F
100
AcDbEntity
  8
補助
100
AcDbText
 10
2086.666666666667
 20
84.0
 30
0.0
 40
35.0
  1
尺度
 72
     4
 11
2124.0
 21
101.5
 31
0.0
100
AcDbText
  0
CIRCLE
  5
C9F
330
1F
100
AcDbEntity
  8
0
370
    13
100
AcDbCircle
 10
965.6863403701891
 20
1493.819144775782
 30
0.0
 40
110.5
  0
LINE
  5
CB5
330
1F
100
AcDbEntity
  8
実形
370
    13
100
AcDbLine
 10
1048.582730500023
 20
1395.924335680016
 30
0.0
 11
1296.250530814071
 21
1538.915406860934
 31
0.0
  0
ARC
  5
DCC
330
1F
100
AcDbEntity
  8
0
100
AcDbCircle
 10
913.4361135097481
 20
1599.819144775783
 30
0.0
 40
64.0
100
AcDbArc
 50
90.0
 51
147.1335352609138
  0
ARC
  5
DCD
330
1F
100
AcDbEntity
  8
0
100
AcDbCircle
 10
775.6863403701891
 20
1688.819144775783
 30
0.0
 40
100.0
100
AcDbArc
 50
281.5369590328155
 51
327.1335352609136
  0
ARC
  5
DCF
330
1F
100
AcDbEntity
  8
0
100
AcDbCircle
 10
815.6863403701891
 20
1492.859965353129
 30
0.0
 40
100.0
100
AcDbArc
 50
101.5369590328155
 51
180.0
  0
LINE
  5
DD0
330
1F
100
AcDbEntity
  8
実形
370
    13
100
AcDbLine
 10
739.1223518731071
 20
1479.329177803188
 30
0.0
 11
883.5837760277007
 21
1395.924335680016
 31
0.0
  0
ARC
  5
DD1
330
1F
100
AcDbEntity
  8
実形
370
    13
100
AcDbCircle
 10
966.083253263862
 20
1538.817621850919
 30
0.0
 40
164.9989544723223
100
AcDbArc
 50
239.9999999999999
 51
300.0000000000001
  0
ARC
  5
DE6
330
1F
100
AcDbEntity
  8
実形
370
    13
100
AcDbCircle
 10
966.083253263862
 20
1538.817621850919
 30
0.0
 40
160.2489544723223
100
AcDbArc
 50
239.9999999999999
 51
300.0000000000001
  0
LINE
  5
DE7
330
1F
100
AcDbEntity
  8
実形
370
    13
100
AcDbLine
 10
1046.207730500023
 20
1400.037956347992
 30
0.0
 11
1296.250530814071
 21
1538.915406860934
 31
0.0
  0
LINE
  5
DE8
330
1F
100
AcDbEntity
  8
実形
370
    13
100
AcDbLine
 10
739.1223518731071
 20
1479.329177803188
 30
0.0
 11
885.9587760277007
 21
1400.037956347992
 31
0.0
  0
LINE
  5
E77
330
1F
100
AcDbEntity
  8
0
100
AcDbLine
 10
1030.686340370189
 20
721.2519496447339
 30
0.0
 11
1365.686340370189
 21
721.2519496447339
 31
0.0
  0
LINE
  5
E7F
330
1F
100
AcDbEntity
  8
実形
100
AcDbLine
 10
1056.186340370189
 20
546.2519496447339
 30
0.0
 11
1076.186340370189
 21
548.2519496447341
 31
0.0
  0
LINE
  5
E80
330
1F
100
AcDbEntity
  8
実形
100
AcDbLine
 10
855.186340370189
 20
548.2519496447341
 30
0.0
 11
875.1863403701891
 21
546.2519496447339
 31
0.0
  0
DIMENSION
  5
E81
330
1F
100
AcDbEntity
  8
実形
100
AcDbDimension
  2
*D23
 10
1076.186340370189
 20
648.4049741827057
 30
0.0
 11
1065.73671474968
 21
652.9146631528861
 31
0.0
 70
   160
 71
     5
 42
20.0
  3
ISO-25
100
AcDbAlignedDimension
 13
1056.186340370189
 23
546.2519496447339
 33
0.0
 14
1076.186340370189
 24
546.2519496447341
 34
0.0
100
AcDbRotatedDimension
1001
ACAD
1000
DSTYLE
1002
{
1070
   279
1070
     1
1002
}
  0
DIMENSION
  5
E8E
330
1F
100
AcDbEntity
  8
実形
100
AcDbDimension
  2
*D24
 10
855.186340370189
 20
648.4049741827057
 30
0.0
 11
864.3466207150213
 21
653.5659828975581
 31
0.0
 70
   160
 71
     5
 42
20.0
  3
ISO-25
100
AcDbAlignedDimension
 13
875.1863403701891
 23
546.251949644734
 33
0.0
 14
855.186340370189
 24
546.2519496447341
 34
0.0
100
AcDbRotatedDimension
1001
ACAD
1000
DSTYLE
1002
{
1070
   279
1070
     1
1002
}
  0
LEADER
  5
EAD
330
1F
100
AcDbEntity
  8
Cen
100
AcDbLeader
  3
ISO-25
 40
25.0
 41
16.66666666666666
 76
     2
 10
794.4227826784654
 20
557.184370452906
 30
0.0
 10
771.7390809614316
 20
616.4553588505477
 30
0.0
213
0.0
223
12.5
233
0.0
1001
ACAD
1000
DSTYLE
1002
{
1070
    41
1040
25.0
1070
   147
1040
6.25
1070
    77
1070
     0
1070
   279
1070
     1
1002
}
  0
TEXT
  5
EAE
330
1F
100
AcDbEntity
  8
0
100
AcDbText
 10
731.0222206554627
 20
625.7447361339045
 30
0.0
 40
25.0
  1
4500R
100
AcDbText
  0
LINE
  5
EB1
330
1F
100
AcDbEntity
  8
実形
100
AcDbLine
 10
1076.186340370191
 20
548.2519496447344
 30
0.0
 11
1215.838102588104
 21
553.2006777463728
 31
0.0
  0
LINE
  5
EB2
330
1F
100
AcDbEntity
  8
実形
100
AcDbLine
 10
1217.28498162679
 20
554.6997368390937
 30
0.0
 11
1217.28498162679
 21
555.6152897968902
 31
0.0
  0
ARC
  5
EB6
330
1F
100
AcDbEntity
  8
実形
100
AcDbCircle
 10
1218.784981626791
 20
555.6152897968902
 30
0.0
 40
1.5
100
AcDbArc
 50
93.55785186611813
 51
180.0
  0
ARC
  5
EB7
330
1F
100
AcDbEntity
  8
実形
100
AcDbCircle
 10
1215.784981626791
 20
554.6997368390937
 30
0.0
 40
1.5
100
AcDbArc
 50
272.0294956239836
 51
0.0
  0
ARC
  5
EB8
330
1F
100
AcDbEntity
  8
0
100
AcDbCircle
 10
1335.686340370189
 20
594.4445968688905
 30
0.0
 40
30.0
100
AcDbArc
 50
273.5578518661181
 51
359.9999999999999
  0
TEXT
  5
EB9
330
1F
100
AcDbEntity
  8
0
100
AcDbText
 10
1120.889079261937
 20
632.4338330045762
 30
0.0
 40
25.0
  1
4500R
100
AcDbText
  0
LEADER
  5
EBA
330
1F
100
AcDbEntity
  8
Cen
100
AcDbLeader
  3
ISO-25
 40
25.0
 41
16.66666666666666
 76
     2
 10
1161.94075395164
 20
554.5609748286865
 30
0.0
 10
1173.391642211948
 20
619.3168595866559
 30
0.0
213
0.0
223
12.5
233
0.0
1001
ACAD
1000
DSTYLE
1002
{
1070
    41
1040
25.0
1070
   147
1040
6.25
1070
    77
1070
     0
1070
   279
1070
     1
1002
}
  0
LEADER
  5
EBB
330
1F
100
AcDbEntity
  8
Cen
100
AcDbLeader
  3
ISO-25
 40
25.0
 41
16.66666666666666
 76
     2
 10
1265.633327835757
 20
565.0545526223863
 30
0.0
 10
1214.081137493741
 20
618.0051617745462
 30
0.0
213
0.0
223
12.5
233
0.0
1001
ACAD
1000
DSTYLE
1002
{
1070
    41
1040
25.0
1070
   147
1040
6.25
1070
    77
1070
     0
1070
   279
1070
     1
1002
}
  0
LINE
  5
ED9
330
1F
100
AcDbEntity
  8
0
100
AcDbLine
 10
1657.957999673681
 20
657.0216493788258
 30
0.0
 11
1779.979296620009
 21
657.0216493788257
 31
0.0
  0
LINE
  5
EDA
330
1F
100
AcDbEntity
  8
実形
100
AcDbLine
 10
1809.979296620009
 20
777.0216493788258
 30
0.0
 11
1809.979296620009
 21
687.0216493788257
 31
0.0
  0
ARC
  5
EDC
330
1F
100
AcDbEntity
  8
実形
100
AcDbCircle
 10
1779.979296620009
 20
687.0216493788257
 30
0.0
 40
30.0
100
AcDbArc
 50
269.9999999999999
 51
0.0
  0
LINE
  5
EDE
330
1F
100
AcDbEntity
  8
0
100
AcDbLine
 10
1657.957999673681
 20
647.0216493788258
 30
0.0
 11
1779.979296620009
 21
647.0216493788257
 31
0.0
  0
ARC
  5
EDF
330
1F
100
AcDbEntity
  8
実形
100
AcDbCircle
 10
1779.979296620009
 20
687.0216493788257
 30
0.0
 40
40.0
100
AcDbArc
 50
269.9999999999999
 51
318.5903778907286
  0
LEADER
  5
EE1
330
1F
100
AcDbEntity
  8
Cen
100
AcDbLeader
  3
ISO-25
 40
25.0
 41
16.66666666666666
 76
     2
 10
1794.520061225022
 20
673.3652202875047
 30
0.0
 10
1756.193186133777
 20
714.2464266544743
 30
0.0
213
0.0
223
-12.5
233
0.0
1001
ACAD
1000
DSTYLE
1002
{
1070
    41
1040
25.0
1070
   147
1040
6.25
1070
    77
1070
     0
1070
   279
1070
     1
1002
}
  0
TEXT
  5
EE2
330
1F
100
AcDbEntity
  8
0
100
AcDbText
 10
1709.962096332704
 20
724.146543211637
 30
0.0
 40
25.0
  1
3R
100
AcDbText
  0
LINE
  5
EFC
330
1F
100
AcDbEntity
  8
0
100
AcDbLine
 10
887.1863403701889
 20
539.2519496447341
 30
0.0
 11
1044.186340370189
 21
539.2519496447339
 31
0.0
  0
LINE
  5
F02
330
1F
100
AcDbEntity
  8
0
100
AcDbLine
 10
1046.186340370189
 20
539.2519496447339
 30
0.0
 11
1056.186340370189
 21
539.2519496447339
 31
0.0
  0
DIMENSION
  5
1422
330
1F
100
AcDbEntity
  8
実形
100
AcDbDimension
  2
*D25
 10
577.7767659808461
 20
1373.819144775783
 30
0.0
 11
559.026765980846
 21
1481.319144775783
 31
0.0
 70
    32
 71
     5
 42
215.0
  3
ISO-25
100
AcDbAlignedDimension
 13
698.686340370189
 23
1588.819144775782
 33
0.0
 14
698.6863403701891
 24
1373.819144775783
 34
0.0
 50
90.0
100
AcDbRotatedDimension
1001
ACAD
1000
DSTYLE
1002
{
1070
   279
1070
     1
1002
}
  0
LINE
  5
1473
330
1F
100
AcDbEntity
  8
0
100
AcDbLine
 10
1296.186340370189
 20
1658.819144775783
 30
0.0
 11
1165.186340370189
 21
1658.819144775782
 31
0.0
  0
LINE
  5
1474
330
1F
100
AcDbEntity
  8
0
100
AcDbLine
 10
1296.18634037019
 20
1599.819144775783
 30
0.0
 11
1165.186340370189
 21
1599.819144775783
 31
0.0
  0
LINE
  5
1475
330
1F
100
AcDbEntity
  8
0
100
AcDbLine
 10
1325.68634037019
 20
1629.319144775783
 30
0.0
 11
1325.686340370189
 21
1629.319144775783
 31
0.0
  0
LINE
  5
1476
330
1F
100
AcDbEntity
  8
0
100
AcDbLine
 10
1135.686340370189
 20
1629.319144775783
 30
0.0
 11
1135.686340370189
 21
1629.319144775782
 31
0.0
  0
ARC
  5
1477
330
1F
100
AcDbEntity
  8
0
100
AcDbCircle
 10
1165.186340370189
 20
1629.319144775782
 30
0.0
 40
29.5
100
AcDbArc
 50
90.00000000000012
 51
180.0
  0
ARC
  5
1478
330
1F
100
AcDbEntity
  8
0
100
AcDbCircle
 10
1165.186340370189
 20
1629.319144775783
 30
0.0
 40
29.5
100
AcDbArc
 50
180.0
 51
270.0
  0
ARC
  5
1479
330
1F
100
AcDbEntity
  8
0
100
AcDbCircle
 10
1296.186340370189
 20
1629.319144775783
 30
0.0
 40
29.5
100
AcDbArc
 50
0.0
 51
90.00000000000026
  0
ARC
  5
147A
330
1F
100
AcDbEntity
  8
0
100
AcDbCircle
 10
1296.18634037019
 20
1629.319144775783
 30
0.0
 40
29.5
100
AcDbArc
 50
270.0
 51
0.0
  0
DIMENSION
  5
14D1
330
1F
100
AcDbEntity
  8
実形
100
AcDbDimension
  2
*D26
 10
1325.686340370189
 20
1748.246036706801
 30
0.0
 11
1230.686340370189
 21
1766.996036706801
 31
0.0
 70
    32
 71
     5
 42
190.0000000000002
  3
ISO-25
100
AcDbAlignedDimension
 13
1135.686340370189
 23
1658.819144775783
 33
0.0
 14
1325.686340370189
 24
1658.819144775783
 34
0.0
100
AcDbRotatedDimension
1001
ACAD
1000
DSTYLE
1002
{
1070
   279
1070
     1
1002
}
  0
DIMENSION
  5
14DE
330
1F
100
AcDbEntity
  8
実形
100
AcDbDimension
  2
*D27
 10
1365.686340370189
 20
1748.246036706801
 30
0.0
 11
1344.135447491087
 21
1749.021461881717
 31
0.0
 70
   160
 71
     5
 42
39.99999999999955
  3
ISO-25
100
AcDbAlignedDimension
 13
1325.686340370189
 23
1658.819144775783
 33
0.0
 14
1365.686340370189
 24
1658.819144775783
 34
0.0
100
AcDbRotatedDimension
1001
ACAD
1000
DSTYLE
1002
{
1070
   279
1070
     1
1002
}
  0
DIMENSION
  5
14EB
330
1F
100
AcDbEntity
  8
実形
100
AcDbDimension
  2
*D28
 10
1460.656746897839
 20
1599.819144775783
 30
0.0
 11
1443.972050805572
 21
1682.385022318633
 31
0.0
 70
   160
  1
5
 71
     5
 42
64.00000000000023
  3
ISO-25
100
AcDbAlignedDimension
 13
1365.686340370189
 23
1663.819144775783
 33
0.0
 14
1374.571734900264
 24
1599.819144775783
 34
0.0
 50
90.0
100
AcDbRotatedDimension
1001
ACAD
1000
DSTYLE
1002
{
1070
   279
1070
     2
1002
}
  0
DIMENSION
  5
14FD
330
1F
100
AcDbEntity
  8
実形
100
AcDbDimension
  2
*D29
 10
1460.656746897839
 20
1599.819144775783
 30
0.0
 11
1441.906746897839
 21
1629.319144775783
 31
0.0
 70
    32
 71
     5
 42
59.00000000000023
  3
ISO-25
100
AcDbAlignedDimension
 13
1365.686340370189
 23
1658.819144775783
 33
0.0
 14
1365.686340370189
 24
1599.819144775783
 34
0.0
 50
90.0
100
AcDbRotatedDimension
1001
ACAD
1000
DSTYLE
1002
{
1070
   279
1070
     1
1002
}
  0
ARC
  5
17B5
330
1F
100
AcDbEntity
  8
実形
370
    15
100
AcDbCircle
 10
1265.68634037019
 20
1629.319144775783
 30
0.0
 40
10.0
100
AcDbArc
 50
90.0
 51
180.0
  0
ARC
  5
17B6
330
1F
100
AcDbEntity
  8
実形
370
    15
100
AcDbCircle
 10
1265.68634037019
 20
1629.319144775783
 30
0.0
 40
10.0
100
AcDbArc
 50
180.0
 51
270.0
  0
LINE
  5
17B7
330
1F
100
AcDbEntity
  8
実形
370
    15
100
AcDbLine
 10
1255.68634037019
 20
1629.319144775783
 30
0.0
 11
1255.68634037019
 21
1629.319144775783
 31
0.0
  0
ARC
  5
17B8
330
1F
100
AcDbEntity
  8
実形
370
    15
100
AcDbCircle
 10
1305.68634037019
 20
1629.319144775783
 30
0.0
 40
10.0
100
AcDbArc
 50
270.0
 51
0.0
  0
LINE
  5
17B9
330
1F
100
AcDbEntity
  8
実形
370
    15
100
AcDbLine
 10
1305.68634037019
 20
1619.319144775782
 30
0.0
 11
1265.68634037019
 21
1619.319144775783
 31
0.0
  0
ARC
  5
17BA
330
1F
100
AcDbEntity
  8
実形
370
    15
100
AcDbCircle
 10
1305.68634037019
 20
1629.319144775783
 30
0.0
 40
10.0
100
AcDbArc
 50
0.0
 51
90.0
  0
LINE
  5
17BB
330
1F
100
AcDbEntity
  8
実形
370
    15
100
AcDbLine
 10
1315.68634037019
 20
1629.319144775783
 30
0.0
 11
1315.68634037019
 21
1629.319144775783
 31
0.0
  0
LINE
  5
17BC
330
1F
100
AcDbEntity
  8
実形
370
    15
100
AcDbLine
 10
1265.68634037019
 20
1639.319144775783
 30
0.0
 11
1305.68634037019
 21
1639.319144775782
 31
0.0
  0
LINE
  5
17BD
330
1F
100
AcDbEntity
  8
実形
370
    15
100
AcDbLine
 10
1305.68634037019
 20
1624.319144775783
 30
0.0
 11
1265.68634037019
 21
1624.319144775783
 31
0.0
  0
ARC
  5
17BE
330
1F
100
AcDbEntity
  8
実形
370
    15
100
AcDbCircle
 10
1305.68634037019
 20
1629.319144775783
 30
0.0
 40
5.0
100
AcDbArc
 50
270.0
 51
0.0
  0
ARC
  5
17BF
330
1F
100
AcDbEntity
  8
実形
370
    15
100
AcDbCircle
 10
1305.68634037019
 20
1629.319144775783
 30
0.0
 40
5.0
100
AcDbArc
 50
0.0
 51
90.0
  0
LINE
  5
17C0
330
1F
100
AcDbEntity
  8
実形
370
    15
100
AcDbLine
 10
1265.68634037019
 20
1634.319144775783
 30
0.0
 11
1305.68634037019
 21
1634.319144775783
 31
0.0
  0
ARC
  5
17C1
330
1F
100
AcDbEntity
  8
実形
370
    15
100
AcDbCircle
 10
1265.68634037019
 20
1629.319144775783
 30
0.0
 40
5.0
100
AcDbArc
 50
90.0
 51
180.0
  0
ARC
  5
17C2
330
1F
100
AcDbEntity
  8
実形
370
    15
100
AcDbCircle
 10
1265.68634037019
 20
1629.319144775783
 30
0.0
 40
5.0
100
AcDbArc
 50
180.0
 51
270.0
  0
ARC
  5
17C3
330
1F
100
AcDbEntity
  8
実形
370
    15
100
AcDbCircle
 10
1195.686340370189
 20
1629.319144775783
 30
0.0
 40
5.0
100
AcDbArc
 50
270.0
 51
0.0
  0
ARC
  5
17C4
330
1F
100
AcDbEntity
  8
実形
370
    15
100
AcDbCircle
 10
1195.686340370189
 20
1629.319144775783
 30
0.0
 40
5.0
100
AcDbArc
 50
0.0
 51
90.0
  0
LINE
  5
17C5
330
1F
100
AcDbEntity
  8
実形
370
    15
100
AcDbLine
 10
1195.686340370189
 20
1634.319144775783
 30
0.0
 11
1155.686340370189
 21
1634.319144775783
 31
0.0
  0
ARC
  5
17C6
330
1F
100
AcDbEntity
  8
実形
370
    15
100
AcDbCircle
 10
1155.686340370189
 20
1629.319144775783
 30
0.0
 40
5.0
100
AcDbArc
 50
90.0
 51
180.0
  0
ARC
  5
17C7
330
1F
100
AcDbEntity
  8
実形
370
    15
100
AcDbCircle
 10
1155.686340370189
 20
1629.319144775783
 30
0.0
 40
5.0
100
AcDbArc
 50
180.0
 51
270.0
  0
LINE
  5
17C8
330
1F
100
AcDbEntity
  8
実形
370
    15
100
AcDbLine
 10
1155.686340370189
 20
1624.319144775783
 30
0.0
 11
1195.686340370189
 21
1624.319144775783
 31
0.0
  0
LINE
  5
17C9
330
1F
100
AcDbEntity
  8
実形
370
    15
100
AcDbLine
 10
1195.686340370189
 20
1639.319144775783
 30
0.0
 11
1155.686340370189
 21
1639.319144775782
 31
0.0
  0
LINE
  5
17CA
330
1F
100
AcDbEntity
  8
実形
370
    15
100
AcDbLine
 10
1145.686340370189
 20
1629.319144775783
 30
0.0
 11
1145.686340370189
 21
1629.319144775783
 31
0.0
  0
ARC
  5
17CB
330
1F
100
AcDbEntity
  8
実形
370
    15
100
AcDbCircle
 10
1155.686340370189
 20
1629.319144775783
 30
0.0
 40
10.0
100
AcDbArc
 50
90.0
 51
180.0
  0
LINE
  5
17CC
330
1F
100
AcDbEntity
  8
実形
370
    15
100
AcDbLine
 10
1155.686340370189
 20
1619.319144775782
 30
0.0
 11
1195.686340370189
 21
1619.319144775783
 31
0.0
  0
ARC
  5
17CD
330
1F
100
AcDbEntity
  8
実形
370
    15
100
AcDbCircle
 10
1155.686340370189
 20
1629.319144775783
 30
0.0
 40
10.0
100
AcDbArc
 50
180.0
 51
270.0
  0
LINE
  5
17CE
330
1F
100
AcDbEntity
  8
実形
370
    15
100
AcDbLine
 10
1205.68634037019
 20
1629.319144775783
 30
0.0
 11
1205.68634037019
 21
1629.319144775783
 31
0.0
  0
ARC
  5
17CF
330
1F
100
AcDbEntity
  8
実形
370
    15
100
AcDbCircle
 10
1195.686340370189
 20
1629.319144775783
 30
0.0
 40
10.0
100
AcDbArc
 50
270.0
 51
0.0
  0
ARC
  5
17D0
330
1F
100
AcDbEntity
  8
実形
370
    15
100
AcDbCircle
 10
1195.686340370189
 20
1629.319144775783
 30
0.0
 40
10.0
100
AcDbArc
 50
0.0
 51
90.0
  0
LINE
  5
17D1
330
1F
100
AcDbEntity
  8
実形
370
    15
100
AcDbLine
 10
1229.186340370189
 20
1640.544116936105
 30
0.0
 11
1229.186340370189
 21
1631.819144775783
 31
0.0
  0
LINE
  5
17D2
330
1F
100
AcDbEntity
  8
実形
370
    15
100
AcDbLine
 10
1219.461368209868
 20
1630.819144775783
 30
0.0
 11
1228.18634037019
 21
1630.819144775783
 31
0.0
  0
ARC
  5
17D3
330
1F
100
AcDbEntity
  8
実形
370
    15
100
AcDbCircle
 10
1228.18634037019
 20
1631.819144775783
 30
0.0
 40
1.0
100
AcDbArc
 50
270.0
 51
0.0
  0
LINE
  5
17D4
330
1F
100
AcDbEntity
  8
実形
370
    15
100
AcDbLine
 10
1233.186340370189
 20
1630.819144775783
 30
0.0
 11
1241.911312530511
 21
1630.819144775783
 31
0.0
  0
LINE
  5
17D5
330
1F
100
AcDbEntity
  8
実形
370
    15
100
AcDbLine
 10
1232.186340370189
 20
1640.544116936105
 30
0.0
 11
1232.186340370189
 21
1631.819144775782
 31
0.0
  0
ARC
  5
17D6
330
1F
100
AcDbEntity
  8
実形
370
    15
100
AcDbCircle
 10
1233.186340370189
 20
1631.819144775782
 30
0.0
 40
1.0
100
AcDbArc
 50
180.0
 51
270.0
  0
LINE
  5
17D7
330
1F
100
AcDbEntity
  8
実形
370
    15
100
AcDbLine
 10
1233.186340370189
 20
1627.819144775783
 30
0.0
 11
1241.911312530511
 21
1627.819144775783
 31
0.0
  0
LINE
  5
17D8
330
1F
100
AcDbEntity
  8
実形
370
    15
100
AcDbLine
 10
1232.186340370189
 20
1626.819144775783
 30
0.0
 11
1232.186340370189
 21
1618.094172615461
 31
0.0
  0
ARC
  5
17D9
330
1F
100
AcDbEntity
  8
実形
370
    15
100
AcDbCircle
 10
1233.186340370189
 20
1626.819144775783
 30
0.0
 40
1.0
100
AcDbArc
 50
90.0
 51
180.0
  0
LINE
  5
17DA
330
1F
100
AcDbEntity
  8
実形
370
    15
100
AcDbLine
 10
1229.186340370189
 20
1626.819144775782
 30
0.0
 11
1229.186340370189
 21
1618.094172615461
 31
0.0
  0
LINE
  5
17DB
330
1F
100
AcDbEntity
  8
実形
370
    15
100
AcDbLine
 10
1219.461368209868
 20
1627.819144775783
 30
0.0
 11
1228.18634037019
 21
1627.819144775783
 31
0.0
  0
ARC
  5
17DC
330
1F
100
AcDbEntity
  8
実形
370
    15
100
AcDbCircle
 10
1228.18634037019
 20
1626.819144775782
 30
0.0
 40
1.0
100
AcDbArc
 50
0.0
 51
90.0
  0
ARC
  5
17DD
330
1F
100
AcDbEntity
  8
実形
370
    15
100
AcDbCircle
 10
1230.686340370189
 20
1629.319144775783
 30
0.0
 40
12.5
100
AcDbArc
 50
102.5558577985812
 51
167.4441422014188
  0
ARC
  5
17DE
330
1F
100
AcDbEntity
  8
実形
370
    15
100
AcDbCircle
 10
1228.18634037019
 20
1640.544116936105
 30
0.0
 40
1.0
100
AcDbArc
 50
0.0
 51
102.5558577985812
  0
ARC
  5
17DF
330
1F
100
AcDbEntity
  8
実形
370
    15
100
AcDbCircle
 10
1219.461368209868
 20
1631.819144775783
 30
0.0
 40
1.0
100
AcDbArc
 50
167.4441422014188
 51
270.0
  0
ARC
  5
17E0
330
1F
100
AcDbEntity
  8
実形
370
    15
100
AcDbCircle
 10
1230.686340370189
 20
1629.319144775783
 30
0.0
 40
12.5
100
AcDbArc
 50
192.5558577985812
 51
257.4441422014188
  0
ARC
  5
17E1
330
1F
100
AcDbEntity
  8
実形
370
    15
100
AcDbCircle
 10
1219.461368209868
 20
1626.819144775783
 30
0.0
 40
1.0
100
AcDbArc
 50
90.0
 51
192.5558577985812
  0
ARC
  5
17E2
330
1F
100
AcDbEntity
  8
実形
370
    15
100
AcDbCircle
 10
1228.18634037019
 20
1618.094172615461
 30
0.0
 40
1.0
100
AcDbArc
 50
257.4441422014188
 51
0.0
  0
ARC
  5
17E3
330
1F
100
AcDbEntity
  8
実形
370
    15
100
AcDbCircle
 10
1230.686340370189
 20
1629.319144775783
 30
0.0
 40
12.5
100
AcDbArc
 50
282.5558577985812
 51
347.4441422014188
  0
ARC
  5
17E4
330
1F
100
AcDbEntity
  8
実形
370
    15
100
AcDbCircle
 10
1233.186340370189
 20
1618.094172615461
 30
0.0
 40
1.0
100
AcDbArc
 50
180.0
 51
282.5558577985812
  0
ARC
  5
17E5
330
1F
100
AcDbEntity
  8
実形
370
    15
100
AcDbCircle
 10
1241.911312530511
 20
1626.819144775782
 30
0.0
 40
1.0
100
AcDbArc
 50
347.4441422014188
 51
90.0
  0
ARC
  5
17E6
330
1F
100
AcDbEntity
  8
実形
370
    15
100
AcDbCircle
 10
1230.686340370189
 20
1629.319144775783
 30
0.0
 40
12.5
100
AcDbArc
 50
12.55585779858122
 51
77.44414220141877
  0
ARC
  5
17E7
330
1F
100
AcDbEntity
  8
実形
370
    15
100
AcDbCircle
 10
1241.911312530511
 20
1631.819144775782
 30
0.0
 40
1.0
100
AcDbArc
 50
270.0
 51
12.55585779858122
  0
ARC
  5
17E8
330
1F
100
AcDbEntity
  8
実形
370
    15
100
AcDbCircle
 10
1233.18634037019
 20
1640.544116936105
 30
0.0
 40
1.0
100
AcDbArc
 50
77.44414220141877
 51
180.0
  0
LINE
  5
17E9
330
1F
100
AcDbEntity
  8
0
100
AcDbLine
 10
1165.186340370189
 20
1599.819144775783
 30
0.0
 11
1296.18634037019
 21
1599.819144775783
 31
0.0
  0
DIMENSION
  5
185E
330
1F
100
AcDbEntity
  8
実形
100
AcDbDimension
  2
*D30
 10
597.5656729137662
 20
721.251949644734
 30
0.0
 11
582.4181965026528
 21
769.6184467155354
 31
0.0
 70
   160
 71
     5
 42
15.0
  3
ISO-25
100
AcDbAlignedDimension
 13
715.6863403701893
 23
736.251949644734
 33
0.0
 14
715.6863403701895
 24
721.251949644734
 34
0.0
 50
90.0
100
AcDbRotatedDimension
1001
ACAD
1000
DSTYLE
1002
{
1070
   279
1070
     1
1002
}
  0
DIMENSION
  5
185F
330
1F
100
AcDbEntity
  8
実形
100
AcDbDimension
  2
*D31
 10
597.5656729137662
 20
546.2519496447341
 30
0.0
 11
582.833889730371
 21
575.3752929336042
 31
0.0
 70
   160
 71
     5
 42
19.99999999999988
  3
ISO-25
100
AcDbAlignedDimension
 13
714.8684314529873
 23
566.251949644734
 33
0.0
 14
714.8684314529873
 24
546.2519496447341
 34
0.0
 50
90.0
100
AcDbRotatedDimension
1001
ACAD
1000
DSTYLE
1002
{
1070
   279
1070
     1
1002
}
  0
DIMENSION
  5
1860
330
1F
100
AcDbEntity
  8
実形
100
AcDbDimension
  2
*D32
 10
597.5656729137662
 20
566.251949644734
 30
0.0
 11
586.5122337157209
 21
522.0470380600763
 31
0.0
 70
   160
  1
7
 71
     5
 42
30.0
  3
ISO-25
100
AcDbAlignedDimension
 13
715.2678572038621
 23
536.251949644734
 33
0.0
 14
686.4849290838992
 24
566.251949644734
 34
0.0
 50
90.0
100
AcDbRotatedDimension
1001
ACAD
1000
DSTYLE
1002
{
1070
   279
1070
     1
1002
}
  0
DIMENSION
  5
1861
330
1F
100
AcDbEntity
  8
実形
100
AcDbDimension
  2
*D33
 10
511.0247744755797
 20
546.2519496447341
 30
0.0
 11
492.2747744755796
 21
641.2519496447341
 31
0.0
 70
    32
 71
     5
 42
189.9999999999998
  3
ISO-25
100
AcDbAlignedDimension
 13
680.3102070413278
 23
736.251949644734
 33
0.0
 14
680.3102070413278
 24
546.2519496447341
 34
0.0
 50
90.0
100
AcDbRotatedDimension
1001
ACAD
1000
DSTYLE
1002
{
1070
   279
1070
     1
1002
}
  0
ARC
  5
18C0
330
1F
100
AcDbEntity
  8
実形
100
AcDbCircle
 10
1863.680670276366
 20
1633.819144775783
 30
0.0
 40
30.0
100
AcDbArc
 50
7.16936291862036
 51
90.0
  0
LINE
  5
18C1
330
1F
100
AcDbEntity
  8
0
100
AcDbLine
 10
1908.14348633114
 20
1584.319144775782
 30
0.0
 11
1908.14348633114
 21
1403.319144775783
 31
0.0
  0
LINE
  5
18C2
330
1F
100
AcDbEntity
  8
0
100
AcDbLine
 10
1900.14348633114
 20
1584.319144775782
 30
0.0
 11
1900.14348633114
 21
1558.819144775783
 31
0.0
  0
LINE
  5
18C3
330
1F
100
AcDbEntity
  8
実形
100
AcDbLine
 10
1900.14348633114
 20
1584.319144775782
 30
0.0
 11
1908.14348633114
 21
1584.319144775782
 31
0.0
  0
LINE
  5
18C4
330
1F
100
AcDbEntity
  8
実形
100
AcDbLine
 10
1900.14348633114
 20
1403.319144775783
 30
0.0
 11
1908.143486331139
 21
1403.319144775783
 31
0.0
  0
LINE
  5
18C5
330
1F
100
AcDbEntity
  8
実形
100
AcDbLine
 10
1893.44611759854
 20
1637.563226199956
 30
0.0
 11
1900.14348633114
 21
1584.319144775782
 31
0.0
  0
LINE
  5
1A7D
330
1F
100
AcDbEntity
  8
0
100
AcDbLine
 10
1725.14348633114
 20
1658.319144775783
 30
0.0
 11
1821.14348633114
 21
1658.319144775783
 31
0.0
  0
LINE
  5
1A7E
330
1F
100
AcDbEntity
  8
0
100
AcDbLine
 10
1824.14348633114
 20
1655.319144775783
 30
0.0
 11
1824.143486331141
 21
1603.319144775783
 31
0.0
  0
LINE
  5
1A7F
330
1F
100
AcDbEntity
  8
0
100
AcDbLine
 10
1821.143486331141
 20
1600.319144775783
 30
0.0
 11
1725.143486331141
 21
1600.319144775783
 31
0.0
  0
LINE
  5
1A80
330
1F
100
AcDbEntity
  8
0
 48
0.5
100
AcDbLine
 10
1824.143486331141
 20
1612.719144775783
 30
0.0
 11
1844.143486331141
 21
1612.719144775783
 31
0.0
  0
LINE
  5
1A81
330
1F
100
AcDbEntity
  8
0
 48
0.5
100
AcDbLine
 10
1824.143486331141
 20
1645.919144775783
 30
0.0
 11
1844.143486331141
 21
1645.919144775783
 31
0.0
  0
LINE
  5
1A82
330
1F
100
AcDbEntity
  8
0
100
AcDbLine
 10
1844.143486331141
 20
1645.919144775783
 30
0.0
 11
1844.143486331141
 21
1612.719144775783
 31
0.0
  0
ARC
  5
1A83
330
1F
100
AcDbEntity
  8
0
 48
0.5
100
AcDbCircle
 10
1821.143486331141
 20
1603.319144775783
 30
0.0
 40
3.0
100
AcDbArc
 50
270.0
 51
0.0
  0
DIMENSION
  5
1A84
330
1F
100
AcDbEntity
  8
0
100
AcDbDimension
  2
*D34
 10
1725.14348633114
 20
1753.861527417203
 30
0.0
 11
1688.668175783309
 21
1757.123025348203
 31
0.0
 70
   160
 71
     5
 42
15.0
  3
ISO-25
100
AcDbAlignedDimension
 13
1710.143486331141
 23
1651.319144775783
 33
0.0
 14
1725.14348633114
 24
1651.319144775783
 34
0.0
100
AcDbRotatedDimension
1001
ACAD
1000
DSTYLE
1002
{
1070
   279
1070
     1
1002
}
  0
DIMENSION
  5
1A85
330
1F
100
AcDbEntity
  8
0
100
AcDbDimension
  2
*D35
 10
1824.143486331141
 20
1753.861527417203
 30
0.0
 11
1774.643486331141
 21
1772.611527417203
 31
0.0
 70
    32
 71
     5
 42
99.0
  3
ISO-25
100
AcDbAlignedDimension
 13
1725.14348633114
 23
1651.319144775783
 33
0.0
 14
1824.143486331141
 24
1651.319144775783
 34
0.0
100
AcDbRotatedDimension
1001
ACAD
1000
DSTYLE
1002
{
1070
   279
1070
     1
1002
}
  0
DIMENSION
  5
1A86
330
1F
100
AcDbEntity
  8
実形
100
AcDbDimension
  2
*D36
 10
1844.143486331141
 20
1753.981499748189
 30
0.0
 11
1855.560403469454
 21
1754.969767205557
 31
0.0
 70
   160
 71
     5
 42
20.0
  3
ISO-25
100
AcDbAlignedDimension
 13
1824.143486331141
 23
1651.319144775783
 33
0.0
 14
1844.143486331141
 24
1651.319144775783
 34
0.0
100
AcDbRotatedDimension
1001
ACAD
1000
DSTYLE
1002
{
1070
   279
1070
     1
1002
}
  0
DIMENSION
  5
1A87
330
1F
100
AcDbEntity
  8
実形
100
AcDbDimension
  2
*D37
 10
1938.091031132264
 20
1612.719144775783
 30
0.0
 11
1964.792898225319
 21
1628.396204473092
 31
0.0
 70
   160
 71
     5
 42
33.19999999999982
  3
ISO-25
100
AcDbAlignedDimension
 13
1844.143486331141
 23
1645.919144775783
 33
0.0
 14
1844.143486331141
 24
1612.719144775783
 34
0.0
 50
90.0
100
AcDbRotatedDimension
1001
ACAD
1000
DSTYLE
1002
{
1070
   175
1070
     0
1070
   172
1070
     1
1070
    75
1070
     0
1070
   279
1070
     2
1002
}
  0
ARC
  5
1AFB
330
1F
100
AcDbEntity
  8
0
100
AcDbCircle
 10
1821.14348633114
 20
1655.319144775783
 30
0.0
 40
3.0
100
AcDbArc
 50
0.0000000000004962
 51
90.0000000000001
  0
LINE
  5
1B43
330
1F
100
AcDbEntity
  8
実形
100
AcDbLine
 10
2559.000000000001
 20
2024.0
 30
0.0
 11
2784.0
 21
2024.0
 31
0.0
  0
LINE
  5
1B44
330
1F
100
AcDbEntity
  8
実形
100
AcDbLine
 10
2784.000000000001
 20
1829.0
 30
0.0
 11
2784.0
 21
2024.0
 31
0.0
  0
LINE
  5
1B5D
330
1F
100
AcDbEntity
  8
補助
100
AcDbLine
 10
2784.000000000001
 20
1829.0
 30
0.0
 11
2019.387286519283
 21
1829.0
 31
0.0
  0
LINE
  5
1B5E
330
1F
100
AcDbEntity
  8
補助
100
AcDbLine
 10
2784.000000000001
 20
1959.0
 30
0.0
 11
2019.387286519283
 21
1959.0
 31
0.0
  0
LINE
  5
1B5F
330
1F
100
AcDbEntity
  8
補助
100
AcDbLine
 10
2784.000000000001
 20
1894.0
 30
0.0
 11
2019.387286519283
 21
1894.0
 31
0.0
  0
LINE
  5
1B60
330
1F
100
AcDbEntity
  8
補助
100
AcDbLine
 10
2202.547653420927
 20
1829.0
 30
0.0
 11
2202.547653420927
 21
2024.0
 31
0.0
  0
LINE
  5
1B61
330
1F
100
AcDbEntity
  8
補助
100
AcDbLine
 10
2019.387286519283
 20
1829.0
 30
0.0
 11
2019.387286519283
 21
2024.0
 31
0.0
  0
TEXT
  5
1B62
330
1F
100
AcDbEntity
  8
実形
100
AcDbText
 10
2026.28495351493
 20
1845.557142857142
 30
0.0
 40
30.0
  1
ポケット
  7
明朝
 72
     4
 11
2114.056382086359
 21
1861.499999999999
 31
0.0
100
AcDbText
  0
TEXT
  5
1B63
330
1F
100
AcDbEntity
  8
補助
100
AcDbText
 10
2050.295698850121
 20
1976.328571428572
 30
0.0
 40
30.0
  1
部品名
  7
明朝
 72
     4
 11
2116.124270278692
 21
1991.5
 31
0.0
100
AcDbText
  0
TEXT
  5
1B64
330
1F
100
AcDbEntity
  8
実形
100
AcDbText
 10
2616.642857142858
 20
1846.842857142856
 30
0.0
 40
30.0
  1
3ｍｍ
  7
明朝
 72
     4
 11
2671.5
 21
1861.499999999999
 31
0.0
100
AcDbText
  0
TEXT
  5
1B65
330
1F
100
AcDbEntity
  8
補助
100
AcDbText
 10
2627.614285714287
 20
1976.071428571429
 30
0.0
 40
30.0
  1
厚さ
  7
明朝
 72
     4
 11
2671.5
 21
1991.5
 31
0.0
100
AcDbText
  0
LINE
  5
1B66
330
1F
100
AcDbEntity
  8
補助
100
AcDbLine
 10
2559.0
 20
1829.0
 30
0.0
 11
2559.000000000001
 21
2024.0
 31
0.0
  0
TEXT
  5
1B67
330
1F
100
AcDbEntity
  8
実形
100
AcDbText
 10
2282.959726250723
 20
1846.071428571428
 30
0.0
 40
30.0
  1
樹脂（PP）
  7
明朝
 72
     4
 11
2392.674011965008
 21
1861.499999999999
 31
0.0
100
AcDbText
  0
TEXT
  5
1B68
330
1F
100
AcDbEntity
  8
補助
100
AcDbText
 10
2338.490869919937
 20
1975.947979478154
 30
0.0
 40
30.0
  1
材質
  7
明朝
 72
     4
 11
2382.376584205651
 21
1991.119408049583
 31
0.0
100
AcDbText
  0
TEXT
  5
1B69
330
1F
100
AcDbEntity
  8
実形
100
AcDbText
 10
2048.227810657787
 20
1910.557142857143
 30
0.0
 40
30.0
  1
ボウル
  7
明朝
 72
     4
 11
2114.056382086359
 21
1926.5
 31
0.0
100
AcDbText
  0
TEXT
  5
1B6A
330
1F
100
AcDbEntity
  8
実形
100
AcDbText
 10
2594.7
 20
1911.842857142856
 30
0.0
 40
30.0
  1
0.7ｍｍ
  7
明朝
 72
     4
 11
2671.5
 21
1926.5
 31
0.0
100
AcDbText
  0
TEXT
  5
1B6B
330
1F
100
AcDbEntity
  8
実形
100
AcDbText
 10
2261.016869107866
 20
1910.728571428571
 30
0.0
 40
30.0
  1
SUS304（BA）
  7
明朝
 72
     4
 11
2392.674011965008
 21
1926.5
 31
0.0
100
AcDbText
  0
LINE
  5
1B6C
330
1F
100
AcDbEntity
  8
補助
100
AcDbLine
 10
111.0
 20
2024.0
 30
0.0
 11
111.0
 21
4.0
 31
0.0
  0
VIEWPORT
  5
2E
102
{ACAD_XDICTIONARY
360
1BA0
102
}
330
1B
100
AcDbEntity
 67
     1
  8
0
100
AcDbViewport
 10
144.7270812988281
 20
101.2295806407928
 30
0.0
 40
411.6736216682419
 41
222.1517806396485
 68
     1
 69
     1
 12
144.7270812988281
 22
101.2295806407928
 13
0.0
 23
0.0
 14
10.0
 24
10.0
 15
10.0
 25
10.0
 16
0.0
 26
0.0
 36
1.0
 17
0.0
 27
0.0
 37
0.0
 42
50.0
 43
0.0
 44
0.0
 45
222.1517806396485
 50
0.0
 51
0.0
 72
   100
 90
    32800
  1

281
     0
 71
     1
 74
     0
110
0.0
120
0.0
130
0.0
111
1.0
121
0.0
131
0.0
112
0.0
122
1.0
132
0.0
 79
     0
146
0.0
  0
VIEWPORT
  5
30
102
{ACAD_XDICTIONARY
360
1BA2
102
}
330
1B
100
AcDbEntity
 67
     1
  8
0
100
AcDbViewport
 10
139.2237563133239
 20
101.2295821905136
 30
0.0
 40
222.7580101013184
 41
161.9673315048218
 68
     2
 69
     2
 12
210.0
 22
148.5
 13
0.0
 23
0.0
 14
10.0
 24
10.0
 15
10.0
 25
10.0
 16
0.0
 26
0.0
 36
1.0
 17
0.0
 27
0.0
 37
0.0
 42
50.0
 43
0.0
 44
0.0
 45
309.0686705647124
 50
0.0
 51
0.0
 72
   100
 90
    32864
  1

281
     0
 71
     1
 74
     0
110
0.0
120
0.0
130
0.0
111
1.0
121
0.0
131
0.0
112
0.0
122
1.0
132
0.0
 79
     0
146
0.0
  0
ENDSEC
  0
SECTION
  2
OBJECTS
  0
DICTIONARY
  5
C
330
0
100
AcDbDictionary
281
     1
  3
ACAD_COLOR
350
1809
  3
ACAD_GROUP
350
D
  3
ACAD_LAYOUT
350
1A
  3
ACAD_MATERIAL
350
1808
  3
ACAD_MLINESTYLE
350
17
  3
ACAD_PLOTSETTINGS
350
19
  3
ACAD_PLOTSTYLENAME
350
E
  3
ACAD_TABLESTYLE
350
180A
  3
AcadDim
350
5B1
  3
ACDBHEADERROUNDTRIPXREC
350
1B99
  3
AcDbVariableDictionary
350
96D
  0
DICTIONARY
  5
1854
330
2
100
AcDbDictionary
280
     1
281
     1
  3
ACAD_LAYERFILTERS
360
1B1E
  3
ACAD_LAYERSTATES
360
1855
  3
ACLYDICTIONARY
360
1B1D
  0
DICTIONARY
  5
1AFC
330
1F
100
AcDbDictionary
280
     1
281
     1
  3
ACAD_SORTENTS
360
1AFD
  0
DICTIONARY
  5
1BA0
330
2E
100
AcDbDictionary
280
     1
281
     1
  3
ACAD_XREC_ROUNDTRIP
360
1BA1
  0
DICTIONARY
  5
1BA2
330
30
100
AcDbDictionary
280
     1
281
     1
  3
ACAD_XREC_ROUNDTRIP
360
1BA3
  0
DICTIONARY
  5
1809
102
{ACAD_REACTORS
330
C
102
}
330
C
100
AcDbDictionary
281
     1
  0
DICTIONARY
  5
D
102
{ACAD_REACTORS
330
C
102
}
330
C
100
AcDbDictionary
281
     1
  0
DICTIONARY
  5
1A
102
{ACAD_REACTORS
330
C
102
}
330
C
100
AcDbDictionary
281
     1
  3
Model
350
22
  3
ﾚｲｱｳﾄ1
350
1E
  3
ﾚｲｱｳﾄ2
350
26
  0
DICTIONARY
  5
1808
102
{ACAD_REACTORS
330
C
102
}
330
C
100
AcDbDictionary
281
     1
  0
DICTIONARY
  5
17
102
{ACAD_REACTORS
330
C
102
}
330
C
100
AcDbDictionary
281
     1
  3
Standard
350
18
  0
DICTIONARY
  5
19
102
{ACAD_REACTORS
330
C
102
}
330
C
100
AcDbDictionary
281
     1
  0
ACDBDICTIONARYWDFLT
  5
E
102
{ACAD_REACTORS
330
C
102
}
330
C
100
AcDbDictionary
281
     1
  3
Normal
350
F
100
AcDbDictionaryWithDefault
340
F
  0
DICTIONARY
  5
180A
102
{ACAD_REACTORS
330
C
102
}
330
C
100
AcDbDictionary
281
     1
  3
Standard
350
180B
  0
XRECORD
  5
5B1
102
{ACAD_REACTORS
330
C
102
}
330
C
100
AcDbXrecord
280
     1
 90
   990106
  3

 60
     0
 61
     0
 62
     1
 63
     3
 64
     0
 65
     0
 66
     0
 67
     3
 68
     1
 69
     0
 70
     0
 71
     0
 72
     0
 40
5.637859010809637
170
     0
340
0
  0
DICTIONARY
  5
1B99
102
{ACAD_REACTORS
330
C
102
}
330
C
100
AcDbDictionary
281
     1
  0
DICTIONARY
  5
96D
102
{ACAD_REACTORS
330
C
102
}
330
C
100
AcDbDictionary
281
     1
  3
CTABLESTYLE
350
1811
  3
DIMASSOC
350
1B96
  3
PROJECTNAME
350
1B97
  3
SORTENTS
350
96E
  0
DICTIONARY
  5
1B1E
102
{ACAD_REACTORS
330
1854
102
}
330
1854
100
AcDbDictionary
281
     1
  0
DICTIONARY
  5
1855
102
{ACAD_REACTORS
330
1854
102
}
330
1854
100
AcDbDictionary
281
     1
  0
DICTIONARY
  5
1B1D
102
{ACAD_REACTORS
330
1854
102
}
330
1854
100
AcDbDictionary
281
     1
1001
ACAD
1000
<All
  0
SORTENTSTABLE
  5
1AFD
102
{ACAD_REACTORS
330
1AFC
102
}
330
1AFC
100
AcDbSortentsTable
330
1F
331
17D7
  5
17D8
331
1A84
  5
1A86
331
55A
  5
55C
331
17DF
  5
17E0
331
DE7
  5
DE8
331
562
  5
563
331
5B9
  5
5BA
331
EAE
  5
EB1
331
185E
  5
185F
331
EB6
  5
EB7
331
56A
  5
56C
331
1475
  5
1476
331
1B44
  5
1B5D
331
E77
  5
E7F
331
1B64
  5
1B65
331
EDE
  5
EDF
331
415
  5
419
331
262
  5
263
331
4B4
  5
4B5
331
17E7
  5
17E8
331
17B8
  5
17B9
331
17C0
  5
17C1
331
18C5
  5
1A7D
331
533
  5
537
331
1B6C
  5
A0
331
E7F
  5
E80
331
5F9
  5
5FA
331
DD0
  5
DD1
331
601
  5
602
331
54B
  5
54C
331
5AA
  5
5AD
331
14FD
  5
17B5
331
AB
  5
AD
331
3DE
  5
3DF
331
2E9
  5
2F7
331
330
  5
331
331
495
  5
496
331
17C8
  5
17C9
331
17D0
  5
17D1
331
1A7D
  5
1A7E
331
17D8
  5
17D9
331
1A85
  5
1A87
331
5B2
  5
5B4
331
DE8
  5
E77
331
185F
  5
1860
331
563
  5
565
331
5BA
  5
5D0
331
1476
  5
1477
331
EB7
  5
EB8
331
5D2
  5
5D8
331
1B5D
  5
1B5E
331
A29
  5
A2C
331
1B65
  5
1B66
331
EDF
  5
EE1
331
340
  5
370
331
49D
  5
49E
331
370
  5
371
331
263
  5
264
331
3BF
  5
3DD
331
41E
  5
471
331
26B
  5
270
331
52C
  5
52E
331
4B5
  5
4B7
331
A0
  5
A5
331
17E0
  5
17E1
331
17E8
  5
17E9
331
17B9
  5
17BA
331
17C1
  5
17C2
331
E80
  5
E81
331
53C
  5
53D
331
14DE
  5
14EB
331
5FA
  5
5FB
331
DD1
  5
DE6
331
54C
  5
54E
331
602
  5
603
331
3DF
  5
3E0
331
28B
  5
298
331
331
  5
334
331
407
  5
40A
331
48E
  5
48F
331
496
  5
498
331
17C9
  5
17CA
331
17D1
  5
17D2
331
1A7E
  5
1A7F
331
17D9
  5
17DA
331
1A86
  5
1AFB
331
55C
  5
55D
331
1477
  5
1478
331
EB8
  5
EB9
331
56C
  5
586
331
1B5E
  5
1B5F
331
1B66
  5
1B67
331
339
  5
33C
331
49E
  5
4A7
331
264
  5
265
331
2B3
  5
2DC
331
371
  5
372
331
4AE
  5
4AF
331
17E1
  5
17E2
331
1860
  5
1861
331
17E9
  5
185E
331
17BA
  5
17BB
331
17C2
  5
17C3
331
E81
  5
E8E
331
53D
  5
53F
331
5FB
  5
5FC
331
603
  5
A29
331
AD
  5
25F
331
3E0
  5
3E3
331
32A
  5
32B
331
48F
  5
492
331
4CE
  5
4CF
331
17CA
  5
17CB
331
17D2
  5
17D3
331
1A7F
  5
1A81
331
17DA
  5
17DB
331
1A87
  5
1B43
331
55D
  5
55F
331
5B4
  5
5B7
331
EB1
  5
EB2
331
565
  5
566
331
1478
  5
1479
331
EB9
  5
EBA
331
1B5F
  5
1B60
331
ED9
  5
EDA
331
1B67
  5
1B68
331
265
  5
266
331
372
  5
373
331
4A7
  5
4AA
331
4AF
  5
4B0
331
52E
  5
532
331
4B7
  5
4B8
331
17E2
  5
17E3
331
1861
  5
18C0
331
17BB
  5
17BC
331
18C0
  5
18C1
331
EE1
  5
EE2
331
17C3
  5
17C4
331
5F4
  5
5F5
331
5FC
  5
5FD
331
54E
  5
558
331
5AD
  5
5AE
331
2DC
  5
2E9
331
480
  5
48E
331
32B
  5
32C
331
39A
  5
39B
331
4CF
  5
4D0
331
17CB
  5
17CC
331
17D3
  5
17D4
331
1A80
  5
1A82
331
17DB
  5
17DC
331
EB2
  5
EB6
331
566
  5
56A
331
1479
  5
147A
331
EBA
  5
EBB
331
1B60
  5
1B61
331
EDA
  5
EDC
331
586
  5
59F
331
A2C
  5
A2D
331
3B2
  5
3BF
331
498
  5
499
331
419
  5
41A
331
50F
  5
511
331
266
  5
267
331
304
  5
31C
331
373
  5
376
331
471
  5
473
331
4B0
  5
4B4
331
17E3
  5
17E4
331
17BC
  5
17BD
331
18C1
  5
18C2
331
1B68
  5
1B69
331
EE2
  5
EFC
331
537
  5
53A
331
14D1
  5
14DE
331
17C4
  5
17C5
331
5F5
  5
5F6
331
53F
  5
540
331
DCC
  5
DCD
331
5FD
  5
5FE
331
F02
  5
1422
331
1422
  5
1473
331
5AE
  5
5B0
331
31C
  5
32A
331
4B8
  5
4C1
331
27E
  5
28B
331
32C
  5
32D
331
39B
  5
3B2
331
334
  5
335
331
40A
  5
40B
331
4D0
  5
4D1
331
17CC
  5
17CD
331
1A81
  5
1A83
331
17D4
  5
17D5
331
17DC
  5
17DD
331
55F
  5
560
331
147A
  5
14D1
331
EBB
  5
ED9
331
1B61
  5
1B62
331
A2D
  5
C9F
331
33C
  5
340
331
499
  5
49A
331
25F
  5
260
331
2A6
  5
2B3
331
41A
  5
41E
331
267
  5
26B
331
9C
  5
9C
331
17E4
  5
17E5
331
17B5
  5
17B6
331
17BD
  5
17BE
331
18C2
  5
18C3
331
1B69
  5
1B6A
331
17C5
  5
17C6
331
CB5
  5
DCC
331
59F
  5
5A0
331
540
  5
54B
331
5F6
  5
5F7
331
DCD
  5
DCF
331
5FE
  5
5FF
331
A8
  5
A9
331
384
  5
39A
331
3E3
  5
3E4
331
4C1
  5
4CE
331
32D
  5
32E
331
335
  5
339
331
40B
  5
40D
331
492
  5
493
331
4D1
  5
4D2
331
17CD
  5
17CE
331
17D5
  5
17D6
331
1A82
  5
1A84
331
558
  5
55A
331
17DD
  5
17DE
331
560
  5
562
331
5B7
  5
5B8
331
1473
  5
1474
331
1B62
  5
1B63
331
EDC
  5
EDE
331
413
  5
414
331
49A
  5
49B
331
260
  5
261
331
511
  5
52C
331
473
  5
480
331
4AA
  5
4AB
331
A5
  5
A8
331
17E5
  5
17E6
331
17B6
  5
17B7
331
17BE
  5
17BF
331
18C3
  5
18C4
331
1B6A
  5
1B6B
331
17C6
  5
17C7
331
EFC
  5
F02
331
5A0
  5
5A1
331
5F7
  5
5F8
331
14EB
  5
14FD
331
5FF
  5
600
331
1AFB
  5
1A80
331
A9
  5
AA
331
270
  5
27E
331
3E4
  5
407
331
32E
  5
32F
331
493
  5
494
331
4D2
  5
50F
331
17CE
  5
17CF
331
17D6
  5
17D7
331
1A83
  5
1A85
331
5B0
  5
5B2
331
17DE
  5
17DF
331
DE6
  5
DE7
331
5B8
  5
5B9
331
EAD
  5
EAE
331
1B43
  5
1B44
331
1474
  5
1475
331
5D0
  5
5D2
331
1B63
  5
1B64
331
298
  5
2A6
331
2F7
  5
304
331
414
  5
415
331
49B
  5
49D
331
261
  5
262
331
376
  5
384
331
4AB
  5
4AE
331
17E6
  5
17E7
331
17B7
  5
17B8
331
532
  5
533
331
5D8
  5
5F4
331
18C4
  5
18C5
331
17BF
  5
17C0
331
1B6B
  5
1B6C
331
C9F
  5
CB5
331
53A
  5
53C
331
17C7
  5
17C8
331
5A1
  5
5A9
331
5F8
  5
5F9
331
DCF
  5
DD0
331
600
  5
601
331
5A9
  5
5AA
331
E8E
  5
EAD
331
AA
  5
AB
331
3DD
  5
3DE
331
32F
  5
330
331
40D
  5
413
331
494
  5
495
331
17CF
  5
17D0
  0
XRECORD
  5
1BA1
102
{ACAD_REACTORS
330
1BA0
102
}
330
1BA0
100
AcDbXrecord
280
     1
102
SHADEPLOT
 70
     0
  0
XRECORD
  5
1BA3
102
{ACAD_REACTORS
330
1BA2
102
}
330
1BA2
100
AcDbXrecord
280
     1
102
SHADEPLOT
 70
     0
  0
LAYOUT
  5
22
102
{ACAD_XDICTIONARY
360
1B9C
102
}
102
{ACAD_REACTORS
330
1A
102
}
330
1A
100
AcDbPlotSettings
  1

  2
EPSON PM-800C
  4
A4
  6

 40
3.757083177566528
 41
14.7637300491333
 42
3.757080078125
 43
3.757080078125
 44
209.9733276367187
 45
296.9683227539062
 46
0.0
 47
0.0
 48
0.0
 49
0.0
140
0.0
141
0.0
142
1.0
143
10.0
 70
 11952
 72
     1
 73
     1
 74
     2
  7

 75
    20
147
0.1
148
0.0
149
0.0
100
AcDbLayout
  1
Model
 70
     1
 71
     0
 10
0.0
 20
0.0
 11
12.0
 21
9.0
 12
0.0
 22
0.0
 32
0.0
 14
0.0
 24
0.0
 34
0.0
 15
0.0
 25
0.0
 35
0.0
146
0.0
 13
0.0
 23
0.0
 33
0.0
 16
1.0
 26
0.0
 36
0.0
 17
0.0
 27
1.0
 37
0.0
 76
     0
330
1F
  0
LAYOUT
  5
1E
102
{ACAD_XDICTIONARY
360
1B9A
102
}
102
{ACAD_REACTORS
330
1A
102
}
330
1A
100
AcDbPlotSettings
  1

  2
EPSON PM-800C
  4
A4
  6

 40
3.757083177566528
 41
14.7637300491333
 42
3.757080078125
 43
3.757080078125
 44
209.9733276367187
 45
296.9683227539062
 46
0.0
 47
0.0
 48
0.0
 49
0.0
140
0.0
141
0.0
142
1.0
143
1.0
 70
   688
 72
     1
 73
     1
 74
     5
  7

 75
    16
147
1.0
148
0.0
149
0.0
100
AcDbLayout
  1
ﾚｲｱｳﾄ1
 70
     1
 71
     1
 10
-3.757080078125
 20
-3.757083177566528
 11
293.2112426757813
 21
206.2162444591522
 12
0.0
 22
0.0
 32
0.0
 14
27.8447512626648
 24
20.24591643810271
 34
0.0
 15
250.6027613639831
 25
182.2132479429245
 35
0.0
146
0.0
 13
0.0
 23
0.0
 33
0.0
 16
1.0
 26
0.0
 36
0.0
 17
0.0
 27
1.0
 37
0.0
 76
     0
330
1B
331
2E
  0
LAYOUT
  5
26
102
{ACAD_XDICTIONARY
360
1B9E
102
}
102
{ACAD_REACTORS
330
1A
102
}
330
1A
100
AcDbPlotSettings
  1

  2
EPSON PM-800C
  4

  6

 40
0.0
 41
0.0
 42
0.0
 43
0.0
 44
0.0
 45
0.0
 46
0.0
 47
0.0
 48
0.0
 49
0.0
140
0.0
141
0.0
142
1.0
143
1.0
 70
   688
 72
     0
 73
     0
 74
     5
  7

 75
    16
147
1.0
148
0.0
149
0.0
100
AcDbLayout
  1
ﾚｲｱｳﾄ2
 70
     1
 71
     2
 10
0.0
 20
0.0
 11
12.0
 21
9.0
 12
0.0
 22
0.0
 32
0.0
 14
0.0
 24
0.0
 34
0.0
 15
0.0
 25
0.0
 35
0.0
146
0.0
 13
0.0
 23
0.0
 33
0.0
 16
1.0
 26
0.0
 36
0.0
 17
0.0
 27
1.0
 37
0.0
 76
     0
330
23
  0
MLINESTYLE
  5
18
102
{ACAD_REACTORS
330
17
102
}
330
17
100
AcDbMlineStyle
  2
STANDARD
 70
     0
  3

 62
   256
 51
90.0
 52
90.0
 71
     2
 49
0.5
 62
   256
  6
BYLAYER
 49
-0.5
 62
   256
  6
BYLAYER
  0
ACDBPLACEHOLDER
  5
F
102
{ACAD_REACTORS
330
E
102
}
330
E
  0
TABLESTYLE
  5
180B
102
{ACAD_REACTORS
330
180A
102
}
330
180A
100
AcDbTableStyle
  3
Standard
 70
     0
 71
     0
 40
1.5
 41
1.5
280
     0
281
     0
  7
Standard
140
4.5
170
     2
 62
     0
 63
     7
283
     0
274
    -2
284
     1
 64
     0
275
    -2
285
     1
 65
     0
276
    -2
286
     1
 66
     0
277
    -2
287
     1
 67
     0
278
    -2
288
     1
 68
     0
279
    -2
289
     1
 69
     0
  7
Standard
140
6.0
170
     5
 62
     0
 63
     7
283
     0
274
    -2
284
     1
 64
     0
275
    -2
285
     1
 65
     0
276
    -2
286
     1
 66
     0
277
    -2
287
     1
 67
     0
278
    -2
288
     1
 68
     0
279
    -2
289
     1
 69
     0
  7
Standard
140
4.5
170
     5
 62
     0
 63
     7
283
     0
274
    -2
284
     1
 64
     0
275
    -2
285
     1
 65
     0
276
    -2
286
     1
 66
     0
277
    -2
287
     1
 67
     0
278
    -2
288
     1
 68
     0
279
    -2
289
     1
 69
     0
  0
DICTIONARYVAR
  5
1811
102
{ACAD_REACTORS
330
96D
102
}
330
96D
100
DictionaryVariables
280
     0
  1
STANDARD
  0
DICTIONARYVAR
  5
1B96
102
{ACAD_REACTORS
330
96D
102
}
330
96D
100
DictionaryVariables
280
     0
  1
1
  0
DICTIONARYVAR
  5
1B97
102
{ACAD_REACTORS
330
96D
102
}
330
96D
100
DictionaryVariables
280
     0
  1

  0
DICTIONARYVAR
  5
96E
102
{ACAD_REACTORS
330
96D
102
}
330
96D
100
DictionaryVariables
280
     0
  1
96
  0
DICTIONARY
  5
1B9C
330
22
100
AcDbDictionary
280
     1
281
     1
  3
ACAD_XREC_ROUNDTRIP
360
1B9D
  0
DICTIONARY
  5
1B9A
330
1E
100
AcDbDictionary
280
     1
281
     1
  3
ACAD_XREC_ROUNDTRIP
360
1B9B
  0
DICTIONARY
  5
1B9E
330
26
100
AcDbDictionary
280
     1
281
     1
  3
ACAD_XREC_ROUNDTRIP
360
1B9F
  0
XRECORD
  5
1B9D
102
{ACAD_REACTORS
330
1B9C
102
}
330
1B9C
100
AcDbXrecord
280
     1
102
SHADEPLOT
 70
     0
102
SHADEPLOTRESLEVEL
 70
     2
102
SHADEPLOTCUSTOMDPI
 70
   300
  0
XRECORD
  5
1B9B
102
{ACAD_REACTORS
330
1B9A
102
}
330
1B9A
100
AcDbXrecord
280
     1
102
SHADEPLOT
 70
     0
102
SHADEPLOTRESLEVEL
 70
     2
102
SHADEPLOTCUSTOMDPI
 70
   300
  0
XRECORD
  5
1B9F
102
{ACAD_REACTORS
330
1B9E
102
}
330
1B9E
100
AcDbXrecord
280
     1
102
SHADEPLOT
 70
     0
102
SHADEPLOTRESLEVEL
 70
     2
102
SHADEPLOTCUSTOMDPI
 70
   300
  0
ENDSEC
  0
EOF
