  0
SECTION
  2
HEADER
  9
$ACADVER
  1
AC1015
  9
$ACADMAINTVER
 70
    20
  9
$DWGCODEPAGE
  3
ANSI_932
  9
$INSBASE
 10
0.0
 20
0.0
 30
0.0
  9
$EXTMIN
 10
111.0
 20
4.0
 30
0.0
  9
$EXTMAX
 10
2784.000000000001
 20
2024.0
 30
0.0
  9
$LIMMIN
 10
0.0
 20
0.0
  9
$LIMMAX
 10
29700.0
 20
21000.0
  9
$ORTHOMODE
 70
     1
  9
$REGENMODE
 70
     1
  9
$FILLMODE
 70
     1
  9
$QTEXTMODE
 70
     0
  9
$MIRRTEXT
 70
     1
  9
$LTSCALE
 40
4.0
  9
$ATTMODE
 70
     1
  9
$TEXTSIZE
 40
25.0
  9
$TRACEWID
 40
1.0
  9
$TEXTSTYLE
  7
ms明朝
  9
$CLAYER
  8
実形
  9
$CELTYPE
  6
ByLayer
  9
$CECOLOR
 62
   256
  9
$CELTSCALE
 40
1.0
  9
$DISPSILH
 70
     0
  9
$DIMSCALE
 40
1.0
  9
$DIMASZ
 40
30.0
  9
$DIMEXO
 40
65.0
  9
$DIMDLI
 40
3.75
  9
$DIMRND
 40
0.0
  9
$DIMDLE
 40
0.0
  9
$DIMEXE
 40
0.0
  9
$DIMTP
 40
0.0
  9
$DIMTM
 40
0.0
  9
$DIMTXT
 40
25.0
  9
$DIMCEN
 40
2.5
  9
$DIMTSZ
 40
0.0
  9
$DIMTOL
 70
     0
  9
$DIMLIM
 70
     0
  9
$DIMTIH
 70
     0
  9
$DIMTOH
 70
     0
  9
$DIMSE1
 70
     0
  9
$DIMSE2
 70
     0
  9
$DIMTAD
 70
     1
  9
$DIMZIN
 70
     8
  9
$DIMBLK
  1
DotSmall
  9
$DIMASO
 70
     1
  9
$DIMSHO
 70
     1
  9
$DIMPOST
  1

  9
$DIMAPOST
  1

  9
$DIMALT
 70
     0
  9
$DIMALTD
 70
     3
  9
$DIMALTF
 40
0.03937007874016
  9
$DIMLFAC
 40
1.0
  9
$DIMTOFL
 70
     1
  9
$DIMTVP
 40
0.0
  9
$DIMTIX
 70
     0
  9
$DIMSOXD
 70
     0
  9
$DIMSAH
 70
     0
  9
$DIMBLK1
  1

  9
$DIMBLK2
  1

  9
$DIMSTYLE
  2
ISO-25
  9
$DIMCLRD
 70
     0
  9
$DIMCLRE
 70
     0
  9
$DIMCLRT
 70
     0
  9
$DIMTFAC
 40
1.0
  9
$DIMGAP
 40
6.25
  9
$DIMJUST
 70
     0
  9
$DIMSD1
 70
     0
  9
$DIMSD2
 70
     0
  9
$DIMTOLJ
 70
     0
  9
$DIMTZIN
 70
     8
  9
$DIMALTZ
 70
     0
  9
$DIMALTTZ
 70
     0
  9
$DIMUPT
 70
     0
  9
$DIMDEC
 70
     2
  9
$DIMTDEC
 70
     2
  9
$DIMALTU
 70
     2
  9
$DIMALTTD
 70
     3
  9
$DIMTXSTY
  7
Standard
  9
$DIMAUNIT
 70
     0
  9
$DIMADEC
 70
     0
  9
$DIMALTRND
 40
0.0
  9
$DIMAZIN
 70
     0
  9
$DIMDSEP
 70
    46
  9
$DIMATFIT
 70
     3
  9
$DIMFRAC
 70
     0
  9
$DIMLDRBLK
  1
Open30
  9
$DIMLUNIT
 70
     2
  9
$DIMLWD
 70
    15
  9
$DIMLWE
 70
    15
  9
$DIMTMOVE
 70
     1
  9
$LUNITS
 70
     2
  9
$LUPREC
 70
     2
  9
$SKETCHINC
 40
1.0
  9
$FILLETRAD
 40
30.0
  9
$AUNITS
 70
     0
  9
$AUPREC
 70
     0
  9
$MENU
  1
.
  9
$ELEVATION
 40
0.0
  9
$PELEVATION
 40
0.0
  9
$THICKNESS
 40
0.0
  9
$LIMCHECK
 70
     1
  9
$CHAMFERA
 40
10.0
  9
$CHAMFERB
 40
10.0
  9
$CHAMFERC
 40
20.0
  9
$CHAMFERD
 40
0.0
  9
$SKPOLY
 70
     0
  9
$TDCREATE
 40
2451673.575802199
  9
$TDUCREATE
 40
2451673.200802199
  9
$TDUPDATE
 40
2458803.800219028
  9
$TDUUPDATE
 40
2458803.425219028
  9
$TDINDWG
 40
1.4213617940
  9
$TDUSRTIMER
 40
1.4213610995
  9
$USRTIMER
 70
     1
  9
$ANGBASE
 50
0.0
  9
$ANGDIR
 70
     0
  9
$PDMODE
 70
     0
  9
$PDSIZE
 40
0.0
  9
$PLINEWID
 40
0.0
  9
$SPLFRAME
 70
     0
  9
$SPLINETYPE
 70
     6
  9
$SPLINESEGS
 70
     8
  9
$HANDSEED
  5
1F71
  9
$SURFTAB1
 70
     6
  9
$SURFTAB2
 70
     6
  9
$SURFTYPE
 70
     6
  9
$SURFU
 70
     6
  9
$SURFV
 70
     6
  9
$UCSBASE
  2

  9
$UCSNAME
  2

  9
$UCSORG
 10
0.0
 20
0.0
 30
0.0
  9
$UCSXDIR
 10
1.0
 20
0.0
 30
0.0
  9
$UCSYDIR
 10
0.0
 20
1.0
 30
0.0
  9
$UCSORTHOREF
  2

  9
$UCSORTHOVIEW
 70
     0
  9
$UCSORGTOP
 10
0.0
 20
0.0
 30
0.0
  9
$UCSORGBOTTOM
 10
0.0
 20
0.0
 30
0.0
  9
$UCSORGLEFT
 10
0.0
 20
0.0
 30
0.0
  9
$UCSORGRIGHT
 10
0.0
 20
0.0
 30
0.0
  9
$UCSORGFRONT
 10
0.0
 20
0.0
 30
0.0
  9
$UCSORGBACK
 10
0.0
 20
0.0
 30
0.0
  9
$PUCSBASE
  2

  9
$PUCSNAME
  2

  9
$PUCSORG
 10
0.0
 20
0.0
 30
0.0
  9
$PUCSXDIR
 10
1.0
 20
0.0
 30
0.0
  9
$PUCSYDIR
 10
0.0
 20
1.0
 30
0.0
  9
$PUCSORTHOREF
  2

  9
$PUCSORTHOVIEW
 70
     0
  9
$PUCSORGTOP
 10
0.0
 20
0.0
 30
0.0
  9
$PUCSORGBOTTOM
 10
0.0
 20
0.0
 30
0.0
  9
$PUCSORGLEFT
 10
0.0
 20
0.0
 30
0.0
  9
$PUCSORGRIGHT
 10
0.0
 20
0.0
 30
0.0
  9
$PUCSORGFRONT
 10
0.0
 20
0.0
 30
0.0
  9
$PUCSORGBACK
 10
0.0
 20
0.0
 30
0.0
  9
$USERI1
 70
     0
  9
$USERI2
 70
     0
  9
$USERI3
 70
     0
  9
$USERI4
 70
     0
  9
$USERI5
 70
     0
  9
$USERR1
 40
0.0
  9
$USERR2
 40
0.0
  9
$USERR3
 40
0.0
  9
$USERR4
 40
0.0
  9
$USERR5
 40
0.0
  9
$WORLDVIEW
 70
     1
  9
$SHADEDGE
 70
     3
  9
$SHADEDIF
 70
    70
  9
$TILEMODE
 70
     1
  9
$MAXACTVP
 70
    64
  9
$PINSBASE
 10
0.0
 20
0.0
 30
0.0
  9
$PLIMCHECK
 70
     0
  9
$PEXTMIN
 10
27.8447512626648
 20
20.24591643810271
 30
0.0
  9
$PEXTMAX
 10
250.6027613639831
 20
182.2132479429245
 30
0.0
  9
$PLIMMIN
 10
-3.757080078125
 20
-3.757083177566528
  9
$PLIMMAX
 10
293.2112426757813
 20
206.2162444591522
  9
$UNITMODE
 70
     0
  9
$VISRETAIN
 70
     1
  9
$PLINEGEN
 70
     0
  9
$PSLTSCALE
 70
     1
  9
$TREEDEPTH
 70
  3020
  9
$CMLSTYLE
  2
Standard
  9
$CMLJUST
 70
     0
  9
$CMLSCALE
 40
20.0
  9
$PROXYGRAPHICS
 70
     1
  9
$MEASUREMENT
 70
     1
  9
$CELWEIGHT
370
    -1
  9
$ENDCAPS
280
     0
  9
$JOINSTYLE
280
     0
  9
$LWDISPLAY
290
     0
  9
$INSUNITS
 70
     4
  9
$HYPERLINKBASE
  1

  9
$STYLESHEET
  1

  9
$XEDIT
290
     1
  9
$CEPSNTYPE
380
     0
  9
$PSTYLEMODE
290
     1
  9
$FINGERPRINTGUID
  2
{C8EA1F16-24C9-11D4-9416-CE0A3B32152F}
  9
$VERSIONGUID
  2
{F937EE3E-57E7-498A-9FF7-EC09B70615B5}
  9
$EXTNAMES
290
     1
  9
$PSVPSCALE
 40
0.0
  9
$OLESTARTUP
290
     0
  0
ENDSEC
  0
SECTION
  2
CLASSES
  0
CLASS
  1
ACDBDICTIONARYWDFLT
  2
AcDbDictionaryWithDefault
  3
ObjectDBX Classes
 90
        0
280
     0
281
     0
  0
CLASS
  1
ACDBPLACEHOLDER
  2
AcDbPlaceHolder
  3
ObjectDBX Classes
 90
        0
280
     0
281
     0
  0
CLASS
  1
LAYOUT
  2
AcDbLayout
  3
ObjectDBX Classes
 90
        0
280
     0
281
     0
  0
CLASS
  1
DICTIONARYVAR
  2
AcDbDictionaryVar
  3
ObjectDBX Classes
 90
        0
280
     0
281
     0
  0
CLASS
  1
TABLESTYLE
  2
AcDbTableStyle
  3
ObjectDBX Classes
 90
     2047
280
     0
281
     0
  0
CLASS
  1
SORTENTSTABLE
  2
AcDbSortentsTable
  3
ObjectDBX Classes
 90
        0
280
     0
281
     0
  0
ENDSEC
  0
SECTION
  2
TABLES
  0
TABLE
  2
VPORT
  5
8
330
0
100
AcDbSymbolTable
 70
     2
  0
VPORT
  5
1F65
330
8
100
AcDbSymbolTableRecord
100
AcDbViewportTableRecord
  2
*Active
 70
     0
 10
0.0
 20
0.0
 11
1.0
 21
1.0
 12
1485.716370886262
 22
1041.843570343222
 13
0.0
 23
0.0
 14
10.0
 24
10.0
 15
10.0
 25
10.0
 16
0.0
 26
0.0
 36
1.0
 17
0.0
 27
0.0
 37
0.0
 40
2424.245700342395
 41
1.29038112522686
 42
50.0
 43
0.0
 44
0.0
 50
0.0
 51
0.0
 71
     0
 72
   100
 73
     1
 74
     3
 75
     0
 76
     0
 77
     0
 78
     0
281
     0
 65
     1
110
0.0
120
0.0
130
0.0
111
1.0
121
0.0
131
0.0
112
0.0
122
1.0
132
0.0
 79
     0
146
0.0
  0
ENDTAB
  0
TABLE
  2
LTYPE
  5
5
330
0
100
AcDbSymbolTable
 70
    46
  0
LTYPE
  5
14
330
5
100
AcDbSymbolTableRecord
100
AcDbLinetypeTableRecord
  2
ByBlock
 70
     0
  3

 72
    65
 73
     0
 40
0.0
  0
LTYPE
  5
15
330
5
100
AcDbSymbolTableRecord
100
AcDbLinetypeTableRecord
  2
ByLayer
 70
     0
  3

 72
    65
 73
     0
 40
0.0
  0
LTYPE
  5
16
330
5
100
AcDbSymbolTableRecord
100
AcDbLinetypeTableRecord
  2
Continuous
 70
     0
  3
Solid line
 72
    65
 73
     0
 40
0.0
  0
LTYPE
  5
34
330
5
100
AcDbSymbolTableRecord
100
AcDbLinetypeTableRecord
  2
ACAD_ISO02W100
 70
     0
  3
ISO dash __ __ __ __ __ __ __ __ __ __ __ __ __
 72
    65
 73
     2
 40
15.0
 49
12.0
 74
     0
 49
-3.0
 74
     0
  0
LTYPE
  5
35
330
5
100
AcDbSymbolTableRecord
100
AcDbLinetypeTableRecord
  2
ACAD_ISO03W100
 70
     0
  3
ISO dash space __    __    __    __    __    __
 72
    65
 73
     2
 40
30.0
 49
12.0
 74
     0
 49
-18.0
 74
     0
  0
LTYPE
  5
36
330
5
100
AcDbSymbolTableRecord
100
AcDbLinetypeTableRecord
  2
ACAD_ISO04W100
 70
     0
  3
ISO long-dash dot ____ . ____ . ____ . ____ . _
 72
    65
 73
     4
 40
30.0
 49
24.0
 74
     0
 49
-3.0
 74
     0
 49
0.0
 74
     0
 49
-3.0
 74
     0
  0
LTYPE
  5
37
330
5
100
AcDbSymbolTableRecord
100
AcDbLinetypeTableRecord
  2
ACAD_ISO05W100
 70
     0
  3
ISO long-dash double-dot ____ .. ____ .. ____ .
 72
    65
 73
     6
 40
34.0
 49
24.0
 74
     0
 49
-3.0
 74
     0
 49
0.5
 74
     0
 49
-3.0
 74
     0
 49
0.5
 74
     0
 49
-3.0
 74
     0
  0
LTYPE
  5
38
330
5
100
AcDbSymbolTableRecord
100
AcDbLinetypeTableRecord
  2
ACAD_ISO06W100
 70
     0
  3
ISO long-dash triple-dot ____ ... ____ ... ____
 72
    65
 73
     8
 40
37.5
 49
24.0
 74
     0
 49
-3.0
 74
     0
 49
0.5
 74
     0
 49
-3.0
 74
     0
 49
0.5
 74
     0
 49
-3.0
 74
     0
 49
0.5
 74
     0
 49
-3.0
 74
     0
  0
LTYPE
  5
39
330
5
100
AcDbSymbolTableRecord
100
AcDbLinetypeTableRecord
  2
ACAD_ISO07W100
 70
     0
  3
ISO dot . . . . . . . . . . . . . . . . . . . .
 72
    65
 73
     2
 40
3.0
 49
0.0
 74
     0
 49
-3.0
 74
     0
  0
LTYPE
  5
3A
330
5
100
AcDbSymbolTableRecord
100
AcDbLinetypeTableRecord
  2
ACAD_ISO08W100
 70
     0
  3
ISO long-dash short-dash ____ __ ____ __ ____ _
 72
    65
 73
     4
 40
36.0
 49
24.0
 74
     0
 49
-3.0
 74
     0
 49
6.0
 74
     0
 49
-3.0
 74
     0
  0
LTYPE
  5
3B
330
5
100
AcDbSymbolTableRecord
100
AcDbLinetypeTableRecord
  2
ACAD_ISO09W100
 70
     0
  3
ISO long-dash double-short-dash ____ __ __ ____
 72
    65
 73
     6
 40
45.0
 49
24.0
 74
     0
 49
-3.0
 74
     0
 49
6.0
 74
     0
 49
-3.0
 74
     0
 49
6.0
 74
     0
 49
-3.0
 74
     0
  0
LTYPE
  5
3C
330
5
100
AcDbSymbolTableRecord
100
AcDbLinetypeTableRecord
  2
ACAD_ISO10W100
 70
     0
  3
ISO dash dot __ . __ . __ . __ . __ . __ . __ .
 72
    65
 73
     4
 40
18.0
 49
12.0
 74
     0
 49
-3.0
 74
     0
 49
0.0
 74
     0
 49
-3.0
 74
     0
  0
LTYPE
  5
3D
330
5
100
AcDbSymbolTableRecord
100
AcDbLinetypeTableRecord
  2
ACAD_ISO11W100
 70
     0
  3
ISO double-dash dot __ __ . __ __ . __ __ . __ 
 72
    65
 73
     6
 40
33.0
 49
12.0
 74
     0
 49
-3.0
 74
     0
 49
12.0
 74
     0
 49
-3.0
 74
     0
 49
0.0
 74
     0
 49
-3.0
 74
     0
  0
LTYPE
  5
3E
330
5
100
AcDbSymbolTableRecord
100
AcDbLinetypeTableRecord
  2
ACAD_ISO12W100
 70
     0
  3
ISO dash double-dot __ . . __ . . __ . . __ . .
 72
    65
 73
     6
 40
21.0
 49
12.0
 74
     0
 49
-3.0
 74
     0
 49
0.0
 74
     0
 49
-3.0
 74
     0
 49
0.0
 74
     0
 49
-3.0
 74
     0
  0
LTYPE
  5
3F
330
5
100
AcDbSymbolTableRecord
100
AcDbLinetypeTableRecord
  2
ACAD_ISO13W100
 70
     0
  3
ISO double-dash double-dot __ __ . . __ __ . . 
 72
    65
 73
     8
 40
36.0
 49
12.0
 74
     0
 49
-3.0
 74
     0
 49
12.0
 74
     0
 49
-3.0
 74
     0
 49
0.0
 74
     0
 49
-3.0
 74
     0
 49
0.0
 74
     0
 49
-3.0
 74
     0
  0
LTYPE
  5
40
330
5
100
AcDbSymbolTableRecord
100
AcDbLinetypeTableRecord
  2
ACAD_ISO14W100
 70
     0
  3
ISO dash triple-dot __ . . . __ . . . __ . . . 
 72
    65
 73
     8
 40
24.0
 49
12.0
 74
     0
 49
-3.0
 74
     0
 49
0.0
 74
     0
 49
-3.0
 74
     0
 49
0.0
 74
     0
 49
-3.0
 74
     0
 49
0.0
 74
     0
 49
-3.0
 74
     0
  0
LTYPE
  5
41
330
5
100
AcDbSymbolTableRecord
100
AcDbLinetypeTableRecord
  2
ACAD_ISO15W100
 70
     0
  3
ISO double-dash triple-dot __ __ . . . __ __ . 
 72
    65
 73
    10
 40
39.0
 49
12.0
 74
     0
 49
-3.0
 74
     0
 49
12.0
 74
     0
 49
-3.0
 74
     0
 49
0.0
 74
     0
 49
-3.0
 74
     0
 49
0.0
 74
     0
 49
-3.0
 74
     0
 49
0.0
 74
     0
 49
-3.0
 74
     0
  0
LTYPE
  5
42
330
5
100
AcDbSymbolTableRecord
100
AcDbLinetypeTableRecord
  2
BATTING
 70
     0
  3
Batting SSSSSSSSSSSSSSSSSSSSSSSSSSSSSSSSSSSSSSS
 72
    65
 73
     4
 40
10.16254
 49
0.00254
 74
     0
 49
-2.54
 74
     4
 75
   134
340
33
 46
2.54
 50
0.0
 44
-2.54
 45
0.0
 49
-5.08
 74
     4
 75
   134
340
33
 46
2.54
 50
180.0
 44
2.54
 45
0.0
 49
-2.54
 74
     0
  0
LTYPE
  5
43
330
5
100
AcDbSymbolTableRecord
100
AcDbLinetypeTableRecord
  2
BORDER
 70
     0
  3
Border __ __ . __ __ . __ __ . __ __ . __ __ .
 72
    65
 73
     6
 40
44.45
 49
12.7
 74
     0
 49
-6.349999999999999
 74
     0
 49
12.7
 74
     0
 49
-6.349999999999999
 74
     0
 49
0.0
 74
     0
 49
-6.349999999999999
 74
     0
  0
LTYPE
  5
44
330
5
100
AcDbSymbolTableRecord
100
AcDbLinetypeTableRecord
  2
BORDER2
 70
     0
  3
Border (.5x) __.__.__.__.__.__.__.__.__.__.__.
 72
    65
 73
     6
 40
22.225
 49
6.349999999999999
 74
     0
 49
-3.174999999999999
 74
     0
 49
6.349999999999999
 74
     0
 49
-3.174999999999999
 74
     0
 49
0.0
 74
     0
 49
-3.174999999999999
 74
     0
  0
LTYPE
  5
45
330
5
100
AcDbSymbolTableRecord
100
AcDbLinetypeTableRecord
  2
BORDERX2
 70
     0
  3
Border (2x) ____  ____  .  ____  ____  .  ___
 72
    65
 73
     6
 40
88.9
 49
25.4
 74
     0
 49
-12.7
 74
     0
 49
25.4
 74
     0
 49
-12.7
 74
     0
 49
0.0
 74
     0
 49
-12.7
 74
     0
  0
LTYPE
  5
46
330
5
100
AcDbSymbolTableRecord
100
AcDbLinetypeTableRecord
  2
CENTER
 70
     0
  3
Center ____ _ ____ _ ____ _ ____ _ ____ _ ____
 72
    65
 73
     4
 40
50.8
 49
31.75
 74
     0
 49
-6.349999999999999
 74
     0
 49
6.349999999999999
 74
     0
 49
-6.349999999999999
 74
     0
  0
LTYPE
  5
47
330
5
100
AcDbSymbolTableRecord
100
AcDbLinetypeTableRecord
  2
CENTER2
 70
     0
  3
Center (.5x) ___ _ ___ _ ___ _ ___ _ ___ _ ___
 72
    65
 73
     4
 40
28.575
 49
19.05
 74
     0
 49
-3.174999999999999
 74
     0
 49
3.174999999999999
 74
     0
 49
-3.174999999999999
 74
     0
  0
LTYPE
  5
48
330
5
100
AcDbSymbolTableRecord
100
AcDbLinetypeTableRecord
  2
CENTERX2
 70
     0
  3
Center (2x) ________  __  ________  __  _____
 72
    65
 73
     4
 40
101.6
 49
63.5
 74
     0
 49
-12.7
 74
     0
 49
12.7
 74
     0
 49
-12.7
 74
     0
  0
LTYPE
  5
49
330
5
100
AcDbSymbolTableRecord
100
AcDbLinetypeTableRecord
  2
DASHDOT
 70
     0
  3
Dash dot __ . __ . __ . __ . __ . __ . __ . __
 72
    65
 73
     4
 40
25.4
 49
12.7
 74
     0
 49
-6.349999999999999
 74
     0
 49
0.0
 74
     0
 49
-6.349999999999999
 74
     0
  0
LTYPE
  5
4A
330
5
100
AcDbSymbolTableRecord
100
AcDbLinetypeTableRecord
  2
DASHDOT2
 70
     0
  3
Dash dot (.5x) _._._._._._._._._._._._._._._.
 72
    65
 73
     4
 40
12.7
 49
6.349999999999999
 74
     0
 49
-3.174999999999999
 74
     0
 49
0.0
 74
     0
 49
-3.174999999999999
 74
     0
  0
LTYPE
  5
4B
330
5
100
AcDbSymbolTableRecord
100
AcDbLinetypeTableRecord
  2
DASHDOTX2
 70
     0
  3
Dash dot (2x) ____  .  ____  .  ____  .  ___
 72
    65
 73
     4
 40
50.8
 49
25.4
 74
     0
 49
-12.7
 74
     0
 49
0.0
 74
     0
 49
-12.7
 74
     0
  0
LTYPE
  5
4C
330
5
100
AcDbSymbolTableRecord
100
AcDbLinetypeTableRecord
  2
DASHED
 70
     0
  3
Dashed __ __ __ __ __ __ __ __ __ __ __ __ __ _
 72
    65
 73
     2
 40
19.05
 49
12.7
 74
     0
 49
-6.349999999999999
 74
     0
  0
LTYPE
  5
4D
330
5
100
AcDbSymbolTableRecord
100
AcDbLinetypeTableRecord
  2
DASHED2
 70
     0
  3
Dashed (.5x) _ _ _ _ _ _ _ _ _ _ _ _ _ _ _ _ _
 72
    65
 73
     2
 40
9.524999999999998
 49
6.349999999999999
 74
     0
 49
-3.174999999999999
 74
     0
  0
LTYPE
  5
4E
330
5
100
AcDbSymbolTableRecord
100
AcDbLinetypeTableRecord
  2
DASHEDX2
 70
     0
  3
Dashed (2x) ____  ____  ____  ____  ____  ___
 72
    65
 73
     2
 40
38.1
 49
25.4
 74
     0
 49
-12.7
 74
     0
  0
LTYPE
  5
4F
330
5
100
AcDbSymbolTableRecord
100
AcDbLinetypeTableRecord
  2
DIVIDE
 70
     0
  3
Divide ____ . . ____ . . ____ . . ____ . . ____
 72
    65
 73
     6
 40
31.75
 49
12.7
 74
     0
 49
-6.349999999999999
 74
     0
 49
0.0
 74
     0
 49
-6.349999999999999
 74
     0
 49
0.0
 74
     0
 49
-6.349999999999999
 74
     0
  0
LTYPE
  5
50
330
5
100
AcDbSymbolTableRecord
100
AcDbLinetypeTableRecord
  2
DIVIDE2
 70
     0
  3
Divide (.5x) __..__..__..__..__..__..__..__.._
 72
    65
 73
     6
 40
15.875
 49
6.349999999999999
 74
     0
 49
-3.174999999999999
 74
     0
 49
0.0
 74
     0
 49
-3.174999999999999
 74
     0
 49
0.0
 74
     0
 49
-3.174999999999999
 74
     0
  0
LTYPE
  5
51
330
5
100
AcDbSymbolTableRecord
100
AcDbLinetypeTableRecord
  2
DIVIDEX2
 70
     0
  3
Divide (2x) ________  .  .  ________  .  .  _
 72
    65
 73
     6
 40
63.49999999999999
 49
25.4
 74
     0
 49
-12.7
 74
     0
 49
0.0
 74
     0
 49
-12.7
 74
     0
 49
0.0
 74
     0
 49
-12.7
 74
     0
  0
LTYPE
  5
52
330
5
100
AcDbSymbolTableRecord
100
AcDbLinetypeTableRecord
  2
DOT
 70
     0
  3
Dot . . . . . . . . . . . . . . . . . . . . . .
 72
    65
 73
     2
 40
6.349999999999999
 49
0.0
 74
     0
 49
-6.349999999999999
 74
     0
  0
LTYPE
  5
53
330
5
100
AcDbSymbolTableRecord
100
AcDbLinetypeTableRecord
  2
DOT2
 70
     0
  3
Dot (.5x) .....................................
 72
    65
 73
     2
 40
3.174999999999999
 49
0.0
 74
     0
 49
-3.174999999999999
 74
     0
  0
LTYPE
  5
54
330
5
100
AcDbSymbolTableRecord
100
AcDbLinetypeTableRecord
  2
DOTX2
 70
     0
  3
Dot (2x) .  .  .  .  .  .  .  .  .  .  .  .  . 
 72
    65
 73
     2
 40
12.7
 49
0.0
 74
     0
 49
-12.7
 74
     0
  0
LTYPE
  5
55
330
5
100
AcDbSymbolTableRecord
100
AcDbLinetypeTableRecord
  2
FENCELINE1
 70
     0
  3
Fenceline circle ----0-----0----0-----0----0---
 72
    65
 73
     4
 40
36.83
 49
6.349999999999999
 74
     0
 49
-2.54
 74
     4
 75
   133
340
33
 46
2.54
 50
0.0
 44
-2.54
 45
0.0
 49
-2.54
 74
     0
 49
25.4
 74
     0
  0
LTYPE
  5
56
330
5
100
AcDbSymbolTableRecord
100
AcDbLinetypeTableRecord
  2
FENCELINE2
 70
     0
  3
Fenceline square ----[]-----[]----[]-----[]----
 72
    65
 73
     4
 40
36.83
 49
6.349999999999999
 74
     0
 49
-2.54
 74
     4
 75
   132
340
33
 46
2.54
 50
0.0
 44
-2.54
 45
0.0
 49
-2.54
 74
     0
 49
25.4
 74
     0
  0
LTYPE
  5
57
330
5
100
AcDbSymbolTableRecord
100
AcDbLinetypeTableRecord
  2
GAS_LINE
 70
     0
  3
Gas line ----GAS----GAS----GAS----GAS----GAS---
 72
    65
 73
     3
 40
24.13
 49
12.7
 74
     0
 49
-5.08
 74
     2
 75
     0
340
11
 46
2.54
 50
0.0
 44
-2.54
 45
-1.27
  9
GAS
 49
-6.349999999999999
 74
     0
  0
LTYPE
  5
58
330
5
100
AcDbSymbolTableRecord
100
AcDbLinetypeTableRecord
  2
HIDDEN
 70
     0
  3
Hidden __ __ __ __ __ __ __ __ __ __ __ __ __ _
 72
    65
 73
     2
 40
9.524999999999998
 49
6.349999999999999
 74
     0
 49
-3.174999999999999
 74
     0
  0
LTYPE
  5
59
330
5
100
AcDbSymbolTableRecord
100
AcDbLinetypeTableRecord
  2
HIDDEN2
 70
     0
  3
Hidden (.5x) _ _ _ _ _ _ _ _ _ _ _ _ _ _ _ _ _
 72
    65
 73
     2
 40
4.762499999999999
 49
3.174999999999999
 74
     0
 49
-1.587499999999999
 74
     0
  0
LTYPE
  5
5A
330
5
100
AcDbSymbolTableRecord
100
AcDbLinetypeTableRecord
  2
HIDDENX2
 70
     0
  3
Hidden (2x) ____ ____ ____ ____ ____ ____ ____
 72
    65
 73
     2
 40
19.05
 49
12.7
 74
     0
 49
-6.349999999999999
 74
     0
  0
LTYPE
  5
5B
330
5
100
AcDbSymbolTableRecord
100
AcDbLinetypeTableRecord
  2
HOT_WATER_SUPPLY
 70
     0
  3
Hot water supply ---- HW ---- HW ---- HW ----
 72
    65
 73
     3
 40
22.86
 49
12.7
 74
     0
 49
-5.08
 74
     2
 75
     0
340
11
 46
2.54
 50
0.0
 44
-2.54
 45
-1.27
  9
HW
 49
-5.08
 74
     0
  0
LTYPE
  5
5C
330
5
100
AcDbSymbolTableRecord
100
AcDbLinetypeTableRecord
  2
PHANTOM
 70
     0
  3
Phantom ______  __  __  ______  __  __  ______
 72
    65
 73
     6
 40
63.5
 49
31.75
 74
     0
 49
-6.349999999999999
 74
     0
 49
6.349999999999999
 74
     0
 49
-6.349999999999999
 74
     0
 49
6.349999999999999
 74
     0
 49
-6.349999999999999
 74
     0
  0
LTYPE
  5
5D
330
5
100
AcDbSymbolTableRecord
100
AcDbLinetypeTableRecord
  2
PHANTOM2
 70
     0
  3
Phantom (.5x) ___ _ _ ___ _ _ ___ _ _ ___ _ _
 72
    65
 73
     6
 40
31.75
 49
15.875
 74
     0
 49
-3.174999999999999
 74
     0
 49
3.174999999999999
 74
     0
 49
-3.174999999999999
 74
     0
 49
3.174999999999999
 74
     0
 49
-3.174999999999999
 74
     0
  0
LTYPE
  5
5E
330
5
100
AcDbSymbolTableRecord
100
AcDbLinetypeTableRecord
  2
PHANTOMX2
 70
     0
  3
Phantom (2x) ____________    ____    ____   _
 72
    65
 73
     6
 40
127.0
 49
63.5
 74
     0
 49
-12.7
 74
     0
 49
12.7
 74
     0
 49
-12.7
 74
     0
 49
12.7
 74
     0
 49
-12.7
 74
     0
  0
LTYPE
  5
5F
330
5
100
AcDbSymbolTableRecord
100
AcDbLinetypeTableRecord
  2
TRACKS
 70
     0
  3
Tracks -|-|-|-|-|-|-|-|-|-|-|-|-|-|-|-|-|-|-|-|
 72
    65
 73
     2
 40
7.62
 49
3.81
 74
     4
 75
   130
340
33
 46
6.349999999999999
 50
0.0
 44
0.0
 45
0.0
 49
3.81
 74
     0
  0
LTYPE
  5
60
330
5
100
AcDbSymbolTableRecord
100
AcDbLinetypeTableRecord
  2
ZIGZAG
 70
     0
  3
Zig zag /\/\/\/\/\/\/\/\/\/\/\/\/\/\/\/\/\/\/\/
 72
    65
 73
     4
 40
20.32254
 49
0.00254
 74
     0
 49
-5.08
 74
     4
 75
   131
340
33
 46
5.08
 50
0.0
 44
-5.08
 45
0.0
 49
-10.16
 74
     4
 75
   131
340
33
 46
5.08
 50
180.0
 44
5.08
 45
0.0
 49
-5.08
 74
     0
  0
ENDTAB
  0
TABLE
  2
LAYER
  5
2
102
{ACAD_XDICTIONARY
360
DE1
102
}
330
0
100
AcDbSymbolTable
 70
     7
  0
LAYER
  5
10
330
2
100
AcDbSymbolTableRecord
100
AcDbLayerTableRecord
  2
0
 70
     0
 62
     7
  6
Continuous
370
    -3
390
F
  0
LAYER
  5
C3
330
2
100
AcDbSymbolTableRecord
100
AcDbLayerTableRecord
  2
Defpoints
 70
     0
 62
     7
  6
Continuous
290
     0
370
    -3
390
F
  0
LAYER
  5
256
330
2
100
AcDbSymbolTableRecord
100
AcDbLayerTableRecord
  2
Cen
 70
     0
 62
     7
  6
CENTER2
370
    15
390
F
  0
LAYER
  5
5DF
330
2
100
AcDbSymbolTableRecord
100
AcDbLayerTableRecord
  2
実形
 70
     0
 62
     7
  6
Continuous
370
    -3
390
F
  0
LAYER
  5
60C
330
2
100
AcDbSymbolTableRecord
100
AcDbLayerTableRecord
  2
補助
 70
     0
 62
     7
  6
Continuous
370
    -3
390
F
  0
LAYER
  5
619
330
2
100
AcDbSymbolTableRecord
100
AcDbLayerTableRecord
  2
センター
 70
     0
 62
     7
  6
CENTER2
370
    18
390
F
  0
LAYER
  5
61A
330
2
100
AcDbSymbolTableRecord
100
AcDbLayerTableRecord
  2
寸法
 70
     0
 62
     7
  6
Continuous
370
    18
390
F
  0
ENDTAB
  0
TABLE
  2
STYLE
  5
3
330
0
100
AcDbSymbolTable
 70
     4
  0
STYLE
  5
11
330
3
100
AcDbSymbolTableRecord
100
AcDbTextStyleTableRecord
  2
Standard
 70
     0
 40
0.0
 41
1.0
 50
0.0
 71
     0
 42
25.0
  3
txt.shx
  4
bigfont.shx
  0
STYLE
  5
33
330
3
100
AcDbSymbolTableRecord
100
AcDbTextStyleTableRecord
  2

 70
     1
 40
0.0
 41
1.0
 50
0.0
 71
     0
 42
2.5
  3
ltypeshp.shx
  4

  0
STYLE
  5
EEA
330
3
100
AcDbSymbolTableRecord
100
AcDbTextStyleTableRecord
  2
ms明朝
 70
     0
 40
0.0
 41
1.0
 50
0.0
 71
     0
 42
25.0
  3
MS Mincho.ttf
  4

1001
ACAD
1000
MS Mincho
1071
    32785
  0
STYLE
  5
1F17
330
3
100
AcDbSymbolTableRecord
100
AcDbTextStyleTableRecord
  2
明朝
 70
     0
 40
0.0
 41
1.0
 50
0.0
 71
     0
 42
25.0
  3
MS Mincho.ttf
  4

1001
ACAD
1000
MS Mincho
1071
    32785
  0
ENDTAB
  0
TABLE
  2
VIEW
  5
6
330
0
100
AcDbSymbolTable
 70
     0
  0
ENDTAB
  0
TABLE
  2
UCS
  5
7
330
0
100
AcDbSymbolTable
 70
     0
  0
ENDTAB
  0
TABLE
  2
APPID
  5
9
330
0
100
AcDbSymbolTable
 70
     2
  0
APPID
  5
12
330
9
100
AcDbSymbolTableRecord
100
AcDbRegAppTableRecord
  2
ACAD
 70
     0
  0
APPID
  5
DE0
330
9
100
AcDbSymbolTableRecord
100
AcDbRegAppTableRecord
  2
ACAD_PSEXT
 70
     0
  0
ENDTAB
  0
TABLE
  2
DIMSTYLE
  5
A
330
0
100
AcDbSymbolTable
 70
     1
100
AcDbDimStyleTable
 71
     1
340
27
  0
DIMSTYLE
105
27
102
{ACAD_REACTORS
330
473
330
480
330
586
330
304
330
28B
330
2B3
330
270
330
376
330
2E9
330
298
330
2DC
330
2A6
330
27E
330
384
330
31C
330
2F7
330
3BF
330
3B2
330
E79
330
1083
330
1481
330
14A0
330
14A1
330
17F1
330
1D10
330
1D11
330
1D2B
330
1D2C
330
1D30
330
1D31
330
1D32
330
1E46
330
1E47
330
1E48
330
1E49
102
}
330
A
100
AcDbSymbolTableRecord
100
AcDbDimStyleTableRecord
  2
ISO-25
 70
     0
 41
30.0
 42
65.0
 43
3.75
 44
0.0
 73
     0
 74
     0
 77
     1
 78
     8
140
25.0
141
2.5
143
0.03937007874016
147
6.25
171
     3
172
     1
271
     2
272
     2
274
     3
283
     0
284
     8
340
11
341
DA
342
D0
371
    15
372
    15
  0
ENDTAB
  0
TABLE
  2
BLOCK_RECORD
  5
1
330
0
100
AcDbSymbolTable
 70
    60
  0
BLOCK_RECORD
  5
1F
102
{ACAD_XDICTIONARY
360
C47
102
}
330
1
100
AcDbSymbolTableRecord
100
AcDbBlockTableRecord
  2
*Model_Space
340
22
  0
BLOCK_RECORD
  5
1B
330
1
100
AcDbSymbolTableRecord
100
AcDbBlockTableRecord
  2
*Paper_Space
340
1E
  0
BLOCK_RECORD
  5
23
330
1
100
AcDbSymbolTableRecord
100
AcDbBlockTableRecord
  2
*Paper_Space0
340
26
  0
BLOCK_RECORD
  5
D0
330
1
100
AcDbSymbolTableRecord
100
AcDbBlockTableRecord
  2
_DotSmall
340
0
102
{BLKREFS
331
10EE
331
10EF
331
10FB
331
10FC
331
1106
331
1107
331
1112
331
1113
331
111E
331
111F
331
112A
331
112B
331
1136
331
1137
331
1142
331
1143
331
11AB
331
11AC
331
11B8
331
11B9
331
11C3
331
11C4
331
11CF
331
11D0
331
11DB
331
11DC
331
11E7
331
11E8
331
11F3
331
11F4
331
11FF
331
1200
331
1AC3
331
1AC4
331
1ACC
331
1ACD
331
1AD5
331
1AD6
331
1ADF
331
1AE0
331
1AE8
331
1AE9
331
1AF2
331
1AF3
331
1AFA
331
1AFB
331
1B04
331
1B05
331
1B0D
331
1B0E
331
1B17
331
1B18
331
1B1F
331
1B20
331
1B28
331
1B29
331
1B31
331
1B32
331
1B3A
331
1B3B
331
1B43
331
1B44
331
1B5E
331
1B5F
331
1B68
331
1B69
331
1B7A
331
1B7B
331
1B89
331
1B8A
331
1B94
331
1B95
331
1B9E
331
1B9F
331
1BA6
331
1BA7
331
1BAF
331
1BB0
331
1D8A
331
1D8B
331
1D93
331
1D94
331
1D9C
331
1D9D
331
1DA5
331
1DA6
331
1DAE
331
1DAF
331
1DB7
331
1DB8
331
1DC0
331
1DC1
331
1E7E
331
1E7F
331
1E87
331
1E88
331
1E90
331
1E91
331
1E98
331
1E99
331
1EA1
331
1EA2
102
}
  0
BLOCK_RECORD
  5
D4
330
1
100
AcDbSymbolTableRecord
100
AcDbBlockTableRecord
  2
_Origin2
340
0
  0
BLOCK_RECORD
  5
DA
330
1
100
AcDbSymbolTableRecord
100
AcDbBlockTableRecord
  2
_Open30
340
0
  0
BLOCK_RECORD
  5
271
330
1
100
AcDbSymbolTableRecord
100
AcDbBlockTableRecord
  2
*D4
340
0
  0
BLOCK_RECORD
  5
27F
330
1
100
AcDbSymbolTableRecord
100
AcDbBlockTableRecord
  2
*D5
340
0
  0
BLOCK_RECORD
  5
28C
330
1
100
AcDbSymbolTableRecord
100
AcDbBlockTableRecord
  2
*D6
340
0
  0
BLOCK_RECORD
  5
299
330
1
100
AcDbSymbolTableRecord
100
AcDbBlockTableRecord
  2
*D7
340
0
  0
BLOCK_RECORD
  5
2A7
330
1
100
AcDbSymbolTableRecord
100
AcDbBlockTableRecord
  2
*D8
340
0
  0
BLOCK_RECORD
  5
2B4
330
1
100
AcDbSymbolTableRecord
100
AcDbBlockTableRecord
  2
*D9
340
0
  0
BLOCK_RECORD
  5
2DD
330
1
100
AcDbSymbolTableRecord
100
AcDbBlockTableRecord
  2
*D10
340
0
  0
BLOCK_RECORD
  5
2EA
330
1
100
AcDbSymbolTableRecord
100
AcDbBlockTableRecord
  2
*D11
340
0
  0
BLOCK_RECORD
  5
2F8
330
1
100
AcDbSymbolTableRecord
100
AcDbBlockTableRecord
  2
*D12
340
0
  0
BLOCK_RECORD
  5
305
330
1
100
AcDbSymbolTableRecord
100
AcDbBlockTableRecord
  2
*D13
340
0
  0
BLOCK_RECORD
  5
31D
330
1
100
AcDbSymbolTableRecord
100
AcDbBlockTableRecord
  2
*D14
340
0
  0
BLOCK_RECORD
  5
377
330
1
100
AcDbSymbolTableRecord
100
AcDbBlockTableRecord
  2
*D15
340
0
  0
BLOCK_RECORD
  5
385
330
1
100
AcDbSymbolTableRecord
100
AcDbBlockTableRecord
  2
*D16
340
0
  0
BLOCK_RECORD
  5
3B3
330
1
100
AcDbSymbolTableRecord
100
AcDbBlockTableRecord
  2
*D17
340
0
  0
BLOCK_RECORD
  5
3C0
330
1
100
AcDbSymbolTableRecord
100
AcDbBlockTableRecord
  2
*D18
340
0
  0
BLOCK_RECORD
  5
474
330
1
100
AcDbSymbolTableRecord
100
AcDbBlockTableRecord
  2
*D19
340
0
  0
BLOCK_RECORD
  5
481
330
1
100
AcDbSymbolTableRecord
100
AcDbBlockTableRecord
  2
*D20
340
0
  0
BLOCK_RECORD
  5
587
330
1
100
AcDbSymbolTableRecord
100
AcDbBlockTableRecord
  2
*D21
340
0
  0
BLOCK_RECORD
  5
DE3
102
{ACAD_XDICTIONARY
360
DE5
102
}
330
1
100
AcDbSymbolTableRecord
100
AcDbBlockTableRecord
  2
A$C0655774D
340
0
  0
BLOCK_RECORD
  5
DE9
330
1
100
AcDbSymbolTableRecord
100
AcDbBlockTableRecord
  2
_Dot
340
0
  0
BLOCK_RECORD
  5
E7A
330
1
100
AcDbSymbolTableRecord
100
AcDbBlockTableRecord
  2
*D24
340
0
  0
BLOCK_RECORD
  5
FBF
102
{ACAD_XDICTIONARY
360
FC3
102
}
330
1
100
AcDbSymbolTableRecord
100
AcDbBlockTableRecord
  2
A$C32F61BAA
340
0
  0
BLOCK_RECORD
  5
1084
330
1
100
AcDbSymbolTableRecord
100
AcDbBlockTableRecord
  2
*D26
340
0
  0
BLOCK_RECORD
  5
10E9
330
1
100
AcDbSymbolTableRecord
100
AcDbBlockTableRecord
  2
*D27
340
0
  0
BLOCK_RECORD
  5
10F5
330
1
100
AcDbSymbolTableRecord
100
AcDbBlockTableRecord
  2
*D28
340
0
  0
BLOCK_RECORD
  5
1101
330
1
100
AcDbSymbolTableRecord
100
AcDbBlockTableRecord
  2
*D29
340
0
  0
BLOCK_RECORD
  5
110D
330
1
100
AcDbSymbolTableRecord
100
AcDbBlockTableRecord
  2
*D30
340
0
  0
BLOCK_RECORD
  5
1119
330
1
100
AcDbSymbolTableRecord
100
AcDbBlockTableRecord
  2
*D31
340
0
  0
BLOCK_RECORD
  5
1125
330
1
100
AcDbSymbolTableRecord
100
AcDbBlockTableRecord
  2
*D32
340
0
  0
BLOCK_RECORD
  5
1131
330
1
100
AcDbSymbolTableRecord
100
AcDbBlockTableRecord
  2
*D33
340
0
  0
BLOCK_RECORD
  5
113D
330
1
100
AcDbSymbolTableRecord
100
AcDbBlockTableRecord
  2
*D34
340
0
  0
BLOCK_RECORD
  5
1149
330
1
100
AcDbSymbolTableRecord
100
AcDbBlockTableRecord
  2
A$C3BF6588C
340
0
  0
BLOCK_RECORD
  5
11A6
330
1
100
AcDbSymbolTableRecord
100
AcDbBlockTableRecord
  2
*D36
340
0
  0
BLOCK_RECORD
  5
11B2
330
1
100
AcDbSymbolTableRecord
100
AcDbBlockTableRecord
  2
*D37
340
0
  0
BLOCK_RECORD
  5
11BE
330
1
100
AcDbSymbolTableRecord
100
AcDbBlockTableRecord
  2
*D38
340
0
  0
BLOCK_RECORD
  5
11CA
330
1
100
AcDbSymbolTableRecord
100
AcDbBlockTableRecord
  2
*D39
340
0
  0
BLOCK_RECORD
  5
11D6
330
1
100
AcDbSymbolTableRecord
100
AcDbBlockTableRecord
  2
*D40
340
0
  0
BLOCK_RECORD
  5
11E2
330
1
100
AcDbSymbolTableRecord
100
AcDbBlockTableRecord
  2
*D41
340
0
  0
BLOCK_RECORD
  5
11EE
330
1
100
AcDbSymbolTableRecord
100
AcDbBlockTableRecord
  2
*D42
340
0
  0
BLOCK_RECORD
  5
11FA
330
1
100
AcDbSymbolTableRecord
100
AcDbBlockTableRecord
  2
*D43
340
0
  0
BLOCK_RECORD
  5
1206
330
1
100
AcDbSymbolTableRecord
100
AcDbBlockTableRecord
  2
A$C53C5264F
340
0
  0
BLOCK_RECORD
  5
14C4
330
1
100
AcDbSymbolTableRecord
100
AcDbBlockTableRecord
  2
*D45
340
0
  0
BLOCK_RECORD
  5
14D0
330
1
100
AcDbSymbolTableRecord
100
AcDbBlockTableRecord
  2
*D46
340
0
  0
BLOCK_RECORD
  5
14DC
330
1
100
AcDbSymbolTableRecord
100
AcDbBlockTableRecord
  2
*D47
340
0
  0
BLOCK_RECORD
  5
17F2
330
1
100
AcDbSymbolTableRecord
100
AcDbBlockTableRecord
  2
*D48
340
0
  0
BLOCK_RECORD
  5
1D33
330
1
100
AcDbSymbolTableRecord
100
AcDbBlockTableRecord
  2
*D49
340
0
  0
BLOCK_RECORD
  5
1D3F
330
1
100
AcDbSymbolTableRecord
100
AcDbBlockTableRecord
  2
*D50
340
0
  0
BLOCK_RECORD
  5
1D4B
330
1
100
AcDbSymbolTableRecord
100
AcDbBlockTableRecord
  2
*D51
340
0
  0
BLOCK_RECORD
  5
1D57
330
1
100
AcDbSymbolTableRecord
100
AcDbBlockTableRecord
  2
*D52
340
0
  0
BLOCK_RECORD
  5
1D63
330
1
100
AcDbSymbolTableRecord
100
AcDbBlockTableRecord
  2
*D53
340
0
  0
BLOCK_RECORD
  5
1D6F
330
1
100
AcDbSymbolTableRecord
100
AcDbBlockTableRecord
  2
*D54
340
0
  0
BLOCK_RECORD
  5
1D7B
330
1
100
AcDbSymbolTableRecord
100
AcDbBlockTableRecord
  2
*D55
340
0
  0
BLOCK_RECORD
  5
1E4A
330
1
100
AcDbSymbolTableRecord
100
AcDbBlockTableRecord
  2
*D56
340
0
  0
BLOCK_RECORD
  5
1E56
330
1
100
AcDbSymbolTableRecord
100
AcDbBlockTableRecord
  2
*D57
340
0
  0
BLOCK_RECORD
  5
1E62
330
1
100
AcDbSymbolTableRecord
100
AcDbBlockTableRecord
  2
*D58
340
0
  0
BLOCK_RECORD
  5
1E6E
330
1
100
AcDbSymbolTableRecord
100
AcDbBlockTableRecord
  2
*D59
340
0
  0
ENDTAB
  0
ENDSEC
  0
SECTION
  2
BLOCKS
  0
BLOCK
  5
20
330
1F
100
AcDbEntity
  8
0
100
AcDbBlockBegin
  2
*Model_Space
 70
     0
 10
0.0
 20
0.0
 30
0.0
  3
*Model_Space
  1

  0
ENDBLK
  5
21
330
1F
100
AcDbEntity
  8
0
100
AcDbBlockEnd
  0
BLOCK
  5
1C
330
1B
100
AcDbEntity
 67
     1
  8
0
100
AcDbBlockBegin
  2
*Paper_Space
 70
     0
 10
0.0
 20
0.0
 30
0.0
  3
*Paper_Space
  1

  0
ENDBLK
  5
1D
330
1B
100
AcDbEntity
 67
     1
  8
0
100
AcDbBlockEnd
  0
BLOCK
  5
24
330
23
100
AcDbEntity
  8
0
100
AcDbBlockBegin
  2
*Paper_Space0
 70
     0
 10
0.0
 20
0.0
 30
0.0
  3
*Paper_Space0
  1

  0
ENDBLK
  5
25
330
23
100
AcDbEntity
  8
0
100
AcDbBlockEnd
  0
BLOCK
  5
D2
330
D0
100
AcDbEntity
  8
0
100
AcDbBlockBegin
  2
_DotSmall
 70
     0
 10
0.0
 20
0.0
 30
0.0
  3
_DotSmall
  1

  0
LWPOLYLINE
  5
D1
330
D0
100
AcDbEntity
  8
0
 62
     0
100
AcDbPolyline
 90
        2
 70
     1
 43
0.5
 10
-0.0625
 20
0.0
 42
1.0
 10
0.0625
 20
0.0
 42
1.0
  0
ENDBLK
  5
D3
330
D0
100
AcDbEntity
  8
0
100
AcDbBlockEnd
  0
BLOCK
  5
D8
330
D4
100
AcDbEntity
  8
0
100
AcDbBlockBegin
  2
_Origin2
 70
     0
 10
0.0
 20
0.0
 30
0.0
  3
_Origin2
  1

  0
CIRCLE
  5
D5
330
D4
100
AcDbEntity
  8
0
 62
     0
370
    -2
100
AcDbCircle
 10
0.0
 20
0.0
 30
0.0
 40
0.5
  0
CIRCLE
  5
D6
330
D4
100
AcDbEntity
  8
0
 62
     0
370
    -2
100
AcDbCircle
 10
0.0
 20
0.0
 30
0.0
 40
0.25
  0
LINE
  5
D7
330
D4
100
AcDbEntity
  8
0
 62
     0
370
    -2
100
AcDbLine
 10
-0.5
 20
0.0
 30
0.0
 11
-1.0
 21
0.0
 31
0.0
  0
ENDBLK
  5
D9
330
D4
100
AcDbEntity
  8
0
100
AcDbBlockEnd
  0
BLOCK
  5
DE
330
DA
100
AcDbEntity
  8
0
100
AcDbBlockBegin
  2
_Open30
 70
     0
 10
0.0
 20
0.0
 30
0.0
  3
_Open30
  1

  0
LINE
  5
DB
330
DA
100
AcDbEntity
  8
0
 62
     0
370
    -2
100
AcDbLine
 10
-1.0
 20
0.26794919
 30
0.0
 11
0.0
 21
0.0
 31
0.0
  0
LINE
  5
DC
330
DA
100
AcDbEntity
  8
0
 62
     0
370
    -2
100
AcDbLine
 10
0.0
 20
0.0
 30
0.0
 11
-1.0
 21
-0.26794919
 31
0.0
  0
LINE
  5
DD
330
DA
100
AcDbEntity
  8
0
 62
     0
370
    -2
100
AcDbLine
 10
0.0
 20
0.0
 30
0.0
 11
-1.0
 21
0.0
 31
0.0
  0
ENDBLK
  5
DF
330
DA
100
AcDbEntity
  8
0
100
AcDbBlockEnd
  0
BLOCK
  5
27C
330
271
100
AcDbEntity
  8
0
100
AcDbBlockBegin
  2
*D4
 70
     1
 10
0.0
 20
0.0
 30
0.0
  3
*D4
  1

  0
LINE
  5
1ABF
330
271
100
AcDbEntity
  8
0
 62
     0
370
    15
100
AcDbLine
 10
447.7215453123562
 20
1050.093561842788
 30
0.0
 11
394.97104319546
 21
1050.093561842788
 31
0.0
  0
LINE
  5
1AC0
330
271
100
AcDbEntity
  8
0
 62
     0
370
    15
100
AcDbLine
 10
447.7215453123562
 20
1065.093561842789
 30
0.0
 11
394.97104319546
 21
1065.093561842789
 31
0.0
  0
LINE
  5
1AC1
330
271
100
AcDbEntity
  8
0
 62
     0
370
    15
100
AcDbLine
 10
394.97104319546
 20
1050.093561842788
 30
0.0
 11
394.97104319546
 21
1065.093561842789
 31
0.0
  0
LINE
  5
1AC2
330
271
100
AcDbEntity
  8
0
 62
     0
370
    15
100
AcDbLine
 10
394.97104319546
 20
1065.093561842789
 30
0.0
 11
394.97104319546
 21
1140.926895176122
 31
0.0
  0
INSERT
  5
1AC3
330
271
100
AcDbEntity
  8
0
 62
     0
370
    15
100
AcDbBlockReference
  2
_DotSmall
 10
394.97104319546
 20
1050.093561842788
 30
0.0
 41
30.0
 42
30.0
 43
30.0
 50
270.0
  0
INSERT
  5
1AC4
330
271
100
AcDbEntity
  8
0
 62
     0
370
    15
100
AcDbBlockReference
  2
_DotSmall
 10
394.97104319546
 20
1065.093561842789
 30
0.0
 41
30.0
 42
30.0
 43
30.0
 50
90.0
  0
MTEXT
  5
1AC5
330
271
100
AcDbEntity
  8
0
 62
     0
100
AcDbMText
 10
376.2210431954598
 20
1118.010228509455
 30
0.0
 40
25.0
 41
0.0
 71
     5
 72
     1
  1
15
 11
0.0000000000000001
 21
1.0
 31
0.0
 73
     1
 44
1.0
1001
ACAD
1000
MTEXTBEGIN
1070
    73
1070
     1
1070
    44
1040
1.0
1070
    74
1070
     0
1000
MTEXTEND
  0
POINT
  5
1AC6
330
271
100
AcDbEntity
  8
Defpoints
 62
     0
100
AcDbPoint
 10
512.7215453123563
 20
1050.093561842788
 30
0.0
  0
POINT
  5
1AC7
330
271
100
AcDbEntity
  8
Defpoints
 62
     0
100
AcDbPoint
 10
512.7215453123563
 20
1065.093561842788
 30
0.0
  0
POINT
  5
1AC8
330
271
100
AcDbEntity
  8
Defpoints
 62
     0
100
AcDbPoint
 10
394.97104319546
 20
1065.093561842789
 30
0.0
  0
ENDBLK
  5
27D
330
271
100
AcDbEntity
  8
0
100
AcDbBlockEnd
  0
BLOCK
  5
289
330
27F
100
AcDbEntity
  8
0
100
AcDbBlockBegin
  2
*D5
 70
     1
 10
0.0
 20
0.0
 30
0.0
  3
*D5
  1

  0
LINE
  5
1AC9
330
27F
100
AcDbEntity
  8
0
 62
     0
370
    15
100
AcDbLine
 10
513.7999235918086
 20
1065.093561842788
 30
0.0
 11
394.97104319546
 21
1065.093561842789
 31
0.0
  0
LINE
  5
1ACA
330
27F
100
AcDbEntity
  8
0
 62
     0
370
    15
100
AcDbLine
 10
447.7215453123563
 20
1495.093561842788
 30
0.0
 11
394.9710431954601
 21
1495.093561842788
 31
0.0
  0
LINE
  5
1ACB
330
27F
100
AcDbEntity
  8
0
 62
     0
370
    15
100
AcDbLine
 10
394.97104319546
 20
1065.093561842789
 30
0.0
 11
394.9710431954601
 21
1495.093561842788
 31
0.0
  0
INSERT
  5
1ACC
330
27F
100
AcDbEntity
  8
0
 62
     0
370
    15
100
AcDbBlockReference
  2
_DotSmall
 10
394.97104319546
 20
1065.093561842789
 30
0.0
 41
30.0
 42
30.0
 43
30.0
 50
270.0
  0
INSERT
  5
1ACD
330
27F
100
AcDbEntity
  8
0
 62
     0
370
    15
100
AcDbBlockReference
  2
_DotSmall
 10
394.9710431954601
 20
1495.093561842788
 30
0.0
 41
30.0
 42
30.0
 43
30.0
 50
90.0
  0
MTEXT
  5
1ACE
330
27F
100
AcDbEntity
  8
0
 62
     0
100
AcDbMText
 10
376.2210431954598
 20
1280.093561842788
 30
0.0
 40
25.0
 41
0.0
 71
     5
 72
     1
  1
430
 11
0.0000000000000001
 21
1.0
 31
0.0
 73
     1
 44
1.0
1001
ACAD
1000
MTEXTBEGIN
1070
    73
1070
     1
1070
    44
1040
1.0
1070
    74
1070
     0
1000
MTEXTEND
  0
POINT
  5
1ACF
330
27F
100
AcDbEntity
  8
Defpoints
 62
     0
100
AcDbPoint
 10
578.7999235918086
 20
1065.093561842788
 30
0.0
  0
POINT
  5
1AD0
330
27F
100
AcDbEntity
  8
Defpoints
 62
     0
100
AcDbPoint
 10
512.7215453123564
 20
1495.093561842788
 30
0.0
  0
POINT
  5
1AD1
330
27F
100
AcDbEntity
  8
Defpoints
 62
     0
100
AcDbPoint
 10
394.9710431954601
 20
1495.093561842788
 30
0.0
  0
ENDBLK
  5
28A
330
27F
100
AcDbEntity
  8
0
100
AcDbBlockEnd
  0
BLOCK
  5
296
330
28C
100
AcDbEntity
  8
0
100
AcDbBlockBegin
  2
*D6
 70
     1
 10
0.0
 20
0.0
 30
0.0
  3
*D6
  1

  0
LINE
  5
1AD2
330
28C
100
AcDbEntity
  8
0
 62
     0
370
    15
100
AcDbLine
 10
447.7215453123563
 20
1495.093561842788
 30
0.0
 11
394.9710431954601
 21
1495.093561842788
 31
0.0
  0
LINE
  5
1AD3
330
28C
100
AcDbEntity
  8
0
 62
     0
370
    15
100
AcDbLine
 10
447.7215453123563
 20
1570.093561842788
 30
0.0
 11
394.9710431954601
 21
1570.093561842788
 31
0.0
  0
LINE
  5
1AD4
330
28C
100
AcDbEntity
  8
0
 62
     0
370
    15
100
AcDbLine
 10
394.9710431954601
 20
1495.093561842788
 30
0.0
 11
394.9710431954601
 21
1570.093561842788
 31
0.0
  0
INSERT
  5
1AD5
330
28C
100
AcDbEntity
  8
0
 62
     0
370
    15
100
AcDbBlockReference
  2
_DotSmall
 10
394.9710431954601
 20
1495.093561842788
 30
0.0
 41
30.0
 42
30.0
 43
30.0
 50
270.0
  0
INSERT
  5
1AD6
330
28C
100
AcDbEntity
  8
0
 62
     0
370
    15
100
AcDbBlockReference
  2
_DotSmall
 10
394.9710431954601
 20
1570.093561842788
 30
0.0
 41
30.0
 42
30.0
 43
30.0
 50
90.0
  0
MTEXT
  5
1AD7
330
28C
100
AcDbEntity
  8
0
 62
     0
100
AcDbMText
 10
376.2210431954599
 20
1532.593561842788
 30
0.0
 40
25.0
 41
0.0
 71
     5
 72
     1
  1
75
 11
0.0000000000000001
 21
1.0
 31
0.0
 73
     1
 44
1.0
1001
ACAD
1000
MTEXTBEGIN
1070
    73
1070
     1
1070
    44
1040
1.0
1070
    74
1070
     0
1000
MTEXTEND
  0
POINT
  5
1AD8
330
28C
100
AcDbEntity
  8
Defpoints
 62
     0
100
AcDbPoint
 10
512.7215453123564
 20
1495.093561842788
 30
0.0
  0
POINT
  5
1AD9
330
28C
100
AcDbEntity
  8
Defpoints
 62
     0
100
AcDbPoint
 10
512.7215453123564
 20
1570.093561842788
 30
0.0
  0
POINT
  5
1ADA
330
28C
100
AcDbEntity
  8
Defpoints
 62
     0
100
AcDbPoint
 10
394.9710431954601
 20
1570.093561842788
 30
0.0
  0
ENDBLK
  5
297
330
28C
100
AcDbEntity
  8
0
100
AcDbBlockEnd
  0
BLOCK
  5
2A4
330
299
100
AcDbEntity
  8
0
100
AcDbBlockBegin
  2
*D7
 70
     1
 10
0.0
 20
0.0
 30
0.0
  3
*D7
  1

  0
LINE
  5
1ADB
330
299
100
AcDbEntity
  8
0
 62
     0
370
    15
100
AcDbLine
 10
447.7215453123562
 20
1033.093561842788
 30
0.0
 11
322.3426232923277
 21
1033.093561842788
 31
0.0
  0
LINE
  5
1ADC
330
299
100
AcDbEntity
  8
0
 62
     0
370
    15
100
AcDbLine
 10
447.7215453123562
 20
1050.093561842788
 30
0.0
 11
322.3426232923277
 21
1050.093561842788
 31
0.0
  0
LINE
  5
1ADD
330
299
100
AcDbEntity
  8
0
 62
     0
370
    15
100
AcDbLine
 10
322.3426232923277
 20
1033.093561842788
 30
0.0
 11
322.3426232923277
 21
1050.093561842788
 31
0.0
  0
LINE
  5
1ADE
330
299
100
AcDbEntity
  8
0
 62
     0
370
    15
100
AcDbLine
 10
322.3426232923277
 20
1050.093561842788
 30
0.0
 11
322.3426232923277
 21
1125.926895176122
 31
0.0
  0
INSERT
  5
1ADF
330
299
100
AcDbEntity
  8
0
 62
     0
370
    15
100
AcDbBlockReference
  2
_DotSmall
 10
322.3426232923277
 20
1033.093561842788
 30
0.0
 41
30.0
 42
30.0
 43
30.0
 50
270.0
  0
INSERT
  5
1AE0
330
299
100
AcDbEntity
  8
0
 62
     0
370
    15
100
AcDbBlockReference
  2
_DotSmall
 10
322.3426232923277
 20
1050.093561842788
 30
0.0
 41
30.0
 42
30.0
 43
30.0
 50
90.0
  0
MTEXT
  5
1AE1
330
299
100
AcDbEntity
  8
0
 62
     0
100
AcDbMText
 10
303.5926232923275
 20
1103.010228509455
 30
0.0
 40
25.0
 41
0.0
 71
     5
 72
     1
  1
17
 11
0.0000000000000001
 21
1.0
 31
0.0
 73
     1
 44
1.0
1001
ACAD
1000
MTEXTBEGIN
1070
    73
1070
     1
1070
    44
1040
1.0
1070
    74
1070
     0
1000
MTEXTEND
  0
POINT
  5
1AE2
330
299
100
AcDbEntity
  8
Defpoints
 62
     0
100
AcDbPoint
 10
512.7215453123563
 20
1033.093561842788
 30
0.0
  0
POINT
  5
1AE3
330
299
100
AcDbEntity
  8
Defpoints
 62
     0
100
AcDbPoint
 10
512.7215453123563
 20
1050.093561842788
 30
0.0
  0
POINT
  5
1AE4
330
299
100
AcDbEntity
  8
Defpoints
 62
     0
100
AcDbPoint
 10
322.3426232923277
 20
1050.093561842788
 30
0.0
  0
ENDBLK
  5
2A5
330
299
100
AcDbEntity
  8
0
100
AcDbBlockEnd
  0
BLOCK
  5
2B1
330
2A7
100
AcDbEntity
  8
0
100
AcDbBlockBegin
  2
*D8
 70
     1
 10
0.0
 20
0.0
 30
0.0
  3
*D8
  1

  0
LINE
  5
1AE5
330
2A7
100
AcDbEntity
  8
0
 62
     0
370
    15
100
AcDbLine
 10
513.7999235918086
 20
1050.093561842788
 30
0.0
 11
322.3426232923275
 21
1050.093561842788
 31
0.0
  0
LINE
  5
1AE6
330
2A7
100
AcDbEntity
  8
0
 62
     0
370
    15
100
AcDbLine
 10
515.7236378548459
 20
1570.093561842788
 30
0.0
 11
322.3426232923277
 21
1570.093561842788
 31
0.0
  0
LINE
  5
1AE7
330
2A7
100
AcDbEntity
  8
0
 62
     0
370
    15
100
AcDbLine
 10
322.3426232923275
 20
1050.093561842788
 30
0.0
 11
322.3426232923277
 21
1570.093561842788
 31
0.0
  0
INSERT
  5
1AE8
330
2A7
100
AcDbEntity
  8
0
 62
     0
370
    15
100
AcDbBlockReference
  2
_DotSmall
 10
322.3426232923275
 20
1050.093561842788
 30
0.0
 41
30.0
 42
30.0
 43
30.0
 50
270.0
  0
INSERT
  5
1AE9
330
2A7
100
AcDbEntity
  8
0
 62
     0
370
    15
100
AcDbBlockReference
  2
_DotSmall
 10
322.3426232923277
 20
1570.093561842788
 30
0.0
 41
30.0
 42
30.0
 43
30.0
 50
90.0
  0
MTEXT
  5
1AEA
330
2A7
100
AcDbEntity
  8
0
 62
     0
100
AcDbMText
 10
303.5926232923273
 20
1310.093561842788
 30
0.0
 40
25.0
 41
0.0
 71
     5
 72
     1
  1
520
 11
0.0000000000000001
 21
1.0
 31
0.0
 73
     1
 44
1.0
1001
ACAD
1000
MTEXTBEGIN
1070
    73
1070
     1
1070
    44
1040
1.0
1070
    74
1070
     0
1000
MTEXTEND
  0
POINT
  5
1AEB
330
2A7
100
AcDbEntity
  8
Defpoints
 62
     0
100
AcDbPoint
 10
578.7999235918086
 20
1050.093561842788
 30
0.0
  0
POINT
  5
1AEC
330
2A7
100
AcDbEntity
  8
Defpoints
 62
     0
100
AcDbPoint
 10
580.7236378548459
 20
1570.093561842788
 30
0.0
  0
POINT
  5
1AED
330
2A7
100
AcDbEntity
  8
Defpoints
 62
     0
100
AcDbPoint
 10
322.3426232923277
 20
1570.093561842788
 30
0.0
  0
ENDBLK
  5
2B2
330
2A7
100
AcDbEntity
  8
0
100
AcDbBlockEnd
  0
BLOCK
  5
2BE
330
2B4
100
AcDbEntity
  8
0
100
AcDbBlockBegin
  2
*D9
 70
     1
 10
0.0
 20
0.0
 30
0.0
  3
*D9
  1

  0
LINE
  5
1AEE
330
2B4
100
AcDbEntity
  8
0
 62
     0
370
    15
100
AcDbLine
 10
447.7215453123563
 20
1570.093561842788
 30
0.0
 11
322.3426232923277
 21
1570.093561842788
 31
0.0
  0
LINE
  5
1AEF
330
2B4
100
AcDbEntity
  8
0
 62
     0
370
    15
100
AcDbLine
 10
447.7215453123562
 20
1587.093561842788
 30
0.0
 11
322.3426232923277
 21
1587.093561842788
 31
0.0
  0
LINE
  5
1AF0
330
2B4
100
AcDbEntity
  8
0
 62
     0
370
    15
100
AcDbLine
 10
322.3426232923277
 20
1570.093561842788
 30
0.0
 11
322.3426232923277
 21
1587.093561842788
 31
0.0
  0
MTEXT
  5
1AF1
330
2B4
100
AcDbEntity
  8
0
 62
     0
100
AcDbMText
 10
285.9560766162222
 20
1555.523807371525
 30
0.0
 40
25.0
 41
0.0
 71
     5
 72
     1
  1
17
 11
0.0000000000000001
 21
1.0
 31
0.0
 73
     1
 44
1.0
1001
ACAD
1000
MTEXTBEGIN
1070
    73
1070
     1
1070
    44
1040
1.0
1070
    74
1070
     0
1000
MTEXTEND
  0
INSERT
  5
1AF2
330
2B4
100
AcDbEntity
  8
0
 62
     0
370
    15
100
AcDbBlockReference
  2
_DotSmall
 10
322.3426232923277
 20
1570.093561842788
 30
0.0
 41
30.0
 42
30.0
 43
30.0
 50
270.0
  0
INSERT
  5
1AF3
330
2B4
100
AcDbEntity
  8
0
 62
     0
370
    15
100
AcDbBlockReference
  2
_DotSmall
 10
322.3426232923277
 20
1587.093561842788
 30
0.0
 41
30.0
 42
30.0
 43
30.0
 50
90.0
  0
POINT
  5
1AF4
330
2B4
100
AcDbEntity
  8
Defpoints
 62
     0
100
AcDbPoint
 10
512.7215453123564
 20
1570.093561842788
 30
0.0
  0
POINT
  5
1AF5
330
2B4
100
AcDbEntity
  8
Defpoints
 62
     0
100
AcDbPoint
 10
512.7215453123563
 20
1587.093561842788
 30
0.0
  0
POINT
  5
1AF6
330
2B4
100
AcDbEntity
  8
Defpoints
 62
     0
100
AcDbPoint
 10
322.3426232923277
 20
1587.093561842788
 30
0.0
  0
ENDBLK
  5
2BF
330
2B4
100
AcDbEntity
  8
0
100
AcDbBlockEnd
  0
BLOCK
  5
2E7
330
2DD
100
AcDbEntity
  8
0
100
AcDbBlockBegin
  2
*D10
 70
     1
 10
0.0
 20
0.0
 30
0.0
  3
*D10
  1

  0
LINE
  5
1AF7
330
2DD
100
AcDbEntity
  8
0
 62
     0
370
    15
100
AcDbLine
 10
513.0811230160161
 20
1033.093561842788
 30
0.0
 11
227.6575087058644
 21
1033.093561842788
 31
0.0
  0
LINE
  5
1AF8
330
2DD
100
AcDbEntity
  8
0
 62
     0
370
    15
100
AcDbLine
 10
516.1598264312715
 20
1587.093561842788
 30
0.0
 11
227.6575087058645
 21
1587.093561842788
 31
0.0
  0
LINE
  5
1AF9
330
2DD
100
AcDbEntity
  8
0
 62
     0
370
    15
100
AcDbLine
 10
227.6575087058644
 20
1033.093561842788
 30
0.0
 11
227.6575087058645
 21
1587.093561842788
 31
0.0
  0
INSERT
  5
1AFA
330
2DD
100
AcDbEntity
  8
0
 62
     0
370
    15
100
AcDbBlockReference
  2
_DotSmall
 10
227.6575087058644
 20
1033.093561842788
 30
0.0
 41
30.0
 42
30.0
 43
30.0
 50
270.0
  0
INSERT
  5
1AFB
330
2DD
100
AcDbEntity
  8
0
 62
     0
370
    15
100
AcDbBlockReference
  2
_DotSmall
 10
227.6575087058645
 20
1587.093561842788
 30
0.0
 41
30.0
 42
30.0
 43
30.0
 50
90.0
  0
MTEXT
  5
1AFC
330
2DD
100
AcDbEntity
  8
0
 62
     0
100
AcDbMText
 10
208.9075087058643
 20
1310.093561842788
 30
0.0
 40
25.0
 41
0.0
 71
     5
 72
     1
  1
554
 11
0.0000000000000001
 21
1.0
 31
0.0
 73
     1
 44
1.0
1001
ACAD
1000
MTEXTBEGIN
1070
    73
1070
     1
1070
    44
1040
1.0
1070
    74
1070
     0
1000
MTEXTEND
  0
POINT
  5
1AFD
330
2DD
100
AcDbEntity
  8
Defpoints
 62
     0
100
AcDbPoint
 10
578.0811230160161
 20
1033.093561842788
 30
0.0
  0
POINT
  5
1AFE
330
2DD
100
AcDbEntity
  8
Defpoints
 62
     0
100
AcDbPoint
 10
581.1598264312715
 20
1587.093561842788
 30
0.0
  0
POINT
  5
1AFF
330
2DD
100
AcDbEntity
  8
Defpoints
 62
     0
100
AcDbPoint
 10
227.6575087058645
 20
1587.093561842788
 30
0.0
  0
ENDBLK
  5
2E8
330
2DD
100
AcDbEntity
  8
0
100
AcDbBlockEnd
  0
BLOCK
  5
2F5
330
2EA
100
AcDbEntity
  8
0
100
AcDbBlockBegin
  2
*D11
 70
     1
 10
0.0
 20
0.0
 30
0.0
  3
*D11
  1

  0
LINE
  5
1B00
330
2EA
100
AcDbEntity
  8
0
 62
     0
370
    15
100
AcDbLine
 10
580.9236754825351
 20
968.0935618427884
 30
0.0
 11
580.9236754825351
 21
916.1857900480718
 31
0.0
  0
LINE
  5
1B01
330
2EA
100
AcDbEntity
  8
0
 62
     0
370
    15
100
AcDbLine
 10
597.9236754825351
 20
968.0935618427884
 30
0.0
 11
597.9236754825351
 21
916.1857900480718
 31
0.0
  0
LINE
  5
1B02
330
2EA
100
AcDbEntity
  8
0
 62
     0
370
    15
100
AcDbLine
 10
580.9236754825351
 20
916.1857900480718
 30
0.0
 11
597.9236754825351
 21
916.1857900480718
 31
0.0
  0
LINE
  5
1B03
330
2EA
100
AcDbEntity
  8
0
 62
     0
370
    15
100
AcDbLine
 10
597.9236754825351
 20
916.1857900480718
 30
0.0
 11
673.7570088158685
 21
916.1857900480718
 31
0.0
  0
INSERT
  5
1B04
330
2EA
100
AcDbEntity
  8
0
 62
     0
370
    15
100
AcDbBlockReference
  2
_DotSmall
 10
580.9236754825351
 20
916.1857900480718
 30
0.0
 41
30.0
 42
30.0
 43
30.0
 50
180.0
  0
INSERT
  5
1B05
330
2EA
100
AcDbEntity
  8
0
 62
     0
370
    15
100
AcDbBlockReference
  2
_DotSmall
 10
597.9236754825351
 20
916.1857900480718
 30
0.0
 41
30.0
 42
30.0
 43
30.0
  0
MTEXT
  5
1B06
330
2EA
100
AcDbEntity
  8
0
 62
     0
100
AcDbMText
 10
650.8403421492017
 20
934.9357900480718
 30
0.0
 40
25.0
 41
0.0
 71
     5
 72
     1
  1
17
 73
     1
 44
1.0
1001
ACAD
1000
MTEXTBEGIN
1070
    73
1070
     1
1070
    44
1040
1.0
1070
    74
1070
     0
1000
MTEXTEND
  0
POINT
  5
1B07
330
2EA
100
AcDbEntity
  8
Defpoints
 62
     0
100
AcDbPoint
 10
580.9236754825351
 20
1033.093561842788
 30
0.0
  0
POINT
  5
1B08
330
2EA
100
AcDbEntity
  8
Defpoints
 62
     0
100
AcDbPoint
 10
597.9236754825351
 20
1033.093561842788
 30
0.0
  0
POINT
  5
1B09
330
2EA
100
AcDbEntity
  8
Defpoints
 62
     0
100
AcDbPoint
 10
597.9236754825351
 20
916.1857900480718
 30
0.0
  0
ENDBLK
  5
2F6
330
2EA
100
AcDbEntity
  8
0
100
AcDbBlockEnd
  0
BLOCK
  5
302
330
2F8
100
AcDbEntity
  8
0
100
AcDbBlockBegin
  2
*D12
 70
     1
 10
0.0
 20
0.0
 30
0.0
  3
*D12
  1

  0
LINE
  5
1B0A
330
2F8
100
AcDbEntity
  8
0
 62
     0
370
    15
100
AcDbLine
 10
597.9236754825351
 20
968.0935618427884
 30
0.0
 11
597.9236754825351
 21
916.1857900480718
 31
0.0
  0
LINE
  5
1B0B
330
2F8
100
AcDbEntity
  8
0
 62
     0
370
    15
100
AcDbLine
 10
1397.923675482535
 20
968.0935618427884
 30
0.0
 11
1397.923675482535
 21
916.1857900480718
 31
0.0
  0
LINE
  5
1B0C
330
2F8
100
AcDbEntity
  8
0
 62
     0
370
    15
100
AcDbLine
 10
597.9236754825351
 20
916.1857900480718
 30
0.0
 11
1397.923675482535
 21
916.1857900480718
 31
0.0
  0
INSERT
  5
1B0D
330
2F8
100
AcDbEntity
  8
0
 62
     0
370
    15
100
AcDbBlockReference
  2
_DotSmall
 10
597.9236754825351
 20
916.1857900480718
 30
0.0
 41
30.0
 42
30.0
 43
30.0
 50
180.0
  0
INSERT
  5
1B0E
330
2F8
100
AcDbEntity
  8
0
 62
     0
370
    15
100
AcDbBlockReference
  2
_DotSmall
 10
1397.923675482535
 20
916.1857900480718
 30
0.0
 41
30.0
 42
30.0
 43
30.0
  0
MTEXT
  5
1B0F
330
2F8
100
AcDbEntity
  8
0
 62
     0
100
AcDbMText
 10
997.923675482535
 20
934.9357900480718
 30
0.0
 40
25.0
 41
0.0
 71
     5
 72
     1
  1
800
 73
     1
 44
1.0
1001
ACAD
1000
MTEXTBEGIN
1070
    73
1070
     1
1070
    44
1040
1.0
1070
    74
1070
     0
1000
MTEXTEND
  0
POINT
  5
1B10
330
2F8
100
AcDbEntity
  8
Defpoints
 62
     0
100
AcDbPoint
 10
597.9236754825351
 20
1033.093561842788
 30
0.0
  0
POINT
  5
1B11
330
2F8
100
AcDbEntity
  8
Defpoints
 62
     0
100
AcDbPoint
 10
1397.923675482535
 20
1033.093561842788
 30
0.0
  0
POINT
  5
1B12
330
2F8
100
AcDbEntity
  8
Defpoints
 62
     0
100
AcDbPoint
 10
1397.923675482535
 20
916.1857900480718
 30
0.0
  0
ENDBLK
  5
303
330
2F8
100
AcDbEntity
  8
0
100
AcDbBlockEnd
  0
BLOCK
  5
311
330
305
100
AcDbEntity
  8
0
100
AcDbBlockBegin
  2
*D13
 70
     1
 10
0.0
 20
0.0
 30
0.0
  3
*D13
  1

  0
LINE
  5
1B13
330
305
100
AcDbEntity
  8
0
 62
     0
370
    15
100
AcDbLine
 10
1397.923675482535
 20
968.0935618427884
 30
0.0
 11
1397.923675482535
 21
916.1857900480718
 31
0.0
  0
LINE
  5
1B14
330
305
100
AcDbEntity
  8
0
 62
     0
370
    15
100
AcDbLine
 10
1414.923675482535
 20
968.0935618427884
 30
0.0
 11
1414.923675482535
 21
916.1857900480718
 31
0.0
  0
LINE
  5
1B15
330
305
100
AcDbEntity
  8
0
 62
     0
370
    15
100
AcDbLine
 10
1397.923675482535
 20
916.1857900480718
 30
0.0
 11
1414.923675482535
 21
916.1857900480718
 31
0.0
  0
MTEXT
  5
1B16
330
305
100
AcDbEntity
  8
0
 62
     0
100
AcDbMText
 10
1354.465459898079
 20
934.9357900480718
 30
0.0
 40
25.0
 41
0.0
 71
     5
 72
     1
  1
17
 73
     1
 44
1.0
1001
ACAD
1000
MTEXTBEGIN
1070
    73
1070
     1
1070
    44
1040
1.0
1070
    74
1070
     0
1000
MTEXTEND
  0
INSERT
  5
1B17
330
305
100
AcDbEntity
  8
0
 62
     0
370
    15
100
AcDbBlockReference
  2
_DotSmall
 10
1397.923675482535
 20
916.1857900480718
 30
0.0
 41
30.0
 42
30.0
 43
30.0
 50
180.0
  0
INSERT
  5
1B18
330
305
100
AcDbEntity
  8
0
 62
     0
370
    15
100
AcDbBlockReference
  2
_DotSmall
 10
1414.923675482535
 20
916.1857900480718
 30
0.0
 41
30.0
 42
30.0
 43
30.0
  0
POINT
  5
1B19
330
305
100
AcDbEntity
  8
Defpoints
 62
     0
100
AcDbPoint
 10
1397.923675482535
 20
1033.093561842788
 30
0.0
  0
POINT
  5
1B1A
330
305
100
AcDbEntity
  8
Defpoints
 62
     0
100
AcDbPoint
 10
1414.923675482535
 20
1033.093561842788
 30
0.0
  0
POINT
  5
1B1B
330
305
100
AcDbEntity
  8
Defpoints
 62
     0
100
AcDbPoint
 10
1414.923675482535
 20
916.1857900480718
 30
0.0
  0
ENDBLK
  5
312
330
305
100
AcDbEntity
  8
0
100
AcDbBlockEnd
  0
BLOCK
  5
327
330
31D
100
AcDbEntity
  8
0
100
AcDbBlockBegin
  2
*D14
 70
     1
 10
0.0
 20
0.0
 30
0.0
  3
*D14
  1

  0
LINE
  5
1B1C
330
31D
100
AcDbEntity
  8
0
 62
     0
370
    15
100
AcDbLine
 10
580.9236754825351
 20
968.0935618427884
 30
0.0
 11
580.9236754825351
 21
845.8270180928648
 31
0.0
  0
LINE
  5
1B1D
330
31D
100
AcDbEntity
  8
0
 62
     0
370
    15
100
AcDbLine
 10
1414.923675482535
 20
968.0935618427884
 30
0.0
 11
1414.923675482535
 21
845.8270180928648
 31
0.0
  0
LINE
  5
1B1E
330
31D
100
AcDbEntity
  8
0
 62
     0
370
    15
100
AcDbLine
 10
580.9236754825351
 20
845.8270180928648
 30
0.0
 11
1414.923675482535
 21
845.8270180928648
 31
0.0
  0
INSERT
  5
1B1F
330
31D
100
AcDbEntity
  8
0
 62
     0
370
    15
100
AcDbBlockReference
  2
_DotSmall
 10
580.9236754825351
 20
845.8270180928648
 30
0.0
 41
30.0
 42
30.0
 43
30.0
 50
180.0
  0
INSERT
  5
1B20
330
31D
100
AcDbEntity
  8
0
 62
     0
370
    15
100
AcDbBlockReference
  2
_DotSmall
 10
1414.923675482535
 20
845.8270180928648
 30
0.0
 41
30.0
 42
30.0
 43
30.0
  0
MTEXT
  5
1B21
330
31D
100
AcDbEntity
  8
0
 62
     0
100
AcDbMText
 10
997.923675482535
 20
864.5770180928648
 30
0.0
 40
25.0
 41
0.0
 71
     5
 72
     1
  1
834
 73
     1
 44
1.0
1001
ACAD
1000
MTEXTBEGIN
1070
    73
1070
     1
1070
    44
1040
1.0
1070
    74
1070
     0
1000
MTEXTEND
  0
POINT
  5
1B22
330
31D
100
AcDbEntity
  8
Defpoints
 62
     0
100
AcDbPoint
 10
580.9236754825351
 20
1033.093561842788
 30
0.0
  0
POINT
  5
1B23
330
31D
100
AcDbEntity
  8
Defpoints
 62
     0
100
AcDbPoint
 10
1414.923675482535
 20
1033.093561842788
 30
0.0
  0
POINT
  5
1B24
330
31D
100
AcDbEntity
  8
Defpoints
 62
     0
100
AcDbPoint
 10
1414.923675482535
 20
845.8270180928648
 30
0.0
  0
ENDBLK
  5
328
330
31D
100
AcDbEntity
  8
0
100
AcDbBlockEnd
  0
BLOCK
  5
381
330
377
100
AcDbEntity
  8
0
100
AcDbBlockBegin
  2
*D15
 70
     1
 10
0.0
 20
0.0
 30
0.0
  3
*D15
  1

  0
LINE
  5
1B25
330
377
100
AcDbEntity
  8
0
 62
     0
370
    15
100
AcDbLine
 10
997.923675482535
 20
1244.593561842788
 30
0.0
 11
997.923675482535
 21
1202.556483900574
 31
0.0
  0
LINE
  5
1B26
330
377
100
AcDbEntity
  8
0
 62
     0
370
    15
100
AcDbLine
 10
597.9236754825351
 20
1315.093561842789
 30
0.0
 11
597.9236754825351
 21
1202.556483900574
 31
0.0
  0
LINE
  5
1B27
330
377
100
AcDbEntity
  8
0
 62
     0
370
    15
100
AcDbLine
 10
997.923675482535
 20
1202.556483900574
 30
0.0
 11
597.9236754825351
 21
1202.556483900574
 31
0.0
  0
INSERT
  5
1B28
330
377
100
AcDbEntity
  8
0
 62
     0
370
    15
100
AcDbBlockReference
  2
_DotSmall
 10
997.923675482535
 20
1202.556483900574
 30
0.0
 41
30.0
 42
30.0
 43
30.0
  0
INSERT
  5
1B29
330
377
100
AcDbEntity
  8
0
 62
     0
370
    15
100
AcDbBlockReference
  2
_DotSmall
 10
597.9236754825351
 20
1202.556483900574
 30
0.0
 41
30.0
 42
30.0
 43
30.0
 50
180.0
  0
MTEXT
  5
1B2A
330
377
100
AcDbEntity
  8
0
 62
     0
100
AcDbMText
 10
797.9236754825351
 20
1221.306483900574
 30
0.0
 40
25.0
 41
0.0
 71
     5
 72
     1
  1
400
 73
     1
 44
1.0
1001
ACAD
1000
MTEXTBEGIN
1070
    73
1070
     1
1070
    44
1040
1.0
1070
    74
1070
     0
1000
MTEXTEND
  0
POINT
  5
1B2B
330
377
100
AcDbEntity
  8
Defpoints
 62
     0
100
AcDbPoint
 10
997.923675482535
 20
1309.593561842788
 30
0.0
  0
POINT
  5
1B2C
330
377
100
AcDbEntity
  8
Defpoints
 62
     0
100
AcDbPoint
 10
597.9236754825351
 20
1380.093561842788
 30
0.0
  0
POINT
  5
1B2D
330
377
100
AcDbEntity
  8
Defpoints
 62
     0
100
AcDbPoint
 10
597.9236754825351
 20
1202.556483900574
 30
0.0
  0
ENDBLK
  5
382
330
377
100
AcDbEntity
  8
0
100
AcDbBlockEnd
  0
BLOCK
  5
38F
330
385
100
AcDbEntity
  8
0
100
AcDbBlockBegin
  2
*D16
 70
     1
 10
0.0
 20
0.0
 30
0.0
  3
*D16
  1

  0
LINE
  5
1B2E
330
385
100
AcDbEntity
  8
0
 62
     0
370
    15
100
AcDbLine
 10
1153.423675482535
 20
1400.093561842788
 30
0.0
 11
1241.834028728584
 21
1400.093561842788
 31
0.0
  0
LINE
  5
1B2F
330
385
100
AcDbEntity
  8
0
 62
     0
370
    15
100
AcDbLine
 10
722.9236754825352
 20
1570.093561842788
 30
0.0
 11
1241.834028728584
 21
1570.093561842788
 31
0.0
  0
LINE
  5
1B30
330
385
100
AcDbEntity
  8
0
 62
     0
370
    15
100
AcDbLine
 10
1241.834028728584
 20
1400.093561842788
 30
0.0
 11
1241.834028728584
 21
1570.093561842788
 31
0.0
  0
INSERT
  5
1B31
330
385
100
AcDbEntity
  8
0
 62
     0
370
    15
100
AcDbBlockReference
  2
_DotSmall
 10
1241.834028728584
 20
1400.093561842788
 30
0.0
 41
30.0
 42
30.0
 43
30.0
 50
270.0
  0
INSERT
  5
1B32
330
385
100
AcDbEntity
  8
0
 62
     0
370
    15
100
AcDbBlockReference
  2
_DotSmall
 10
1241.834028728584
 20
1570.093561842788
 30
0.0
 41
30.0
 42
30.0
 43
30.0
 50
90.0
  0
MTEXT
  5
1B33
330
385
100
AcDbEntity
  8
0
 62
     0
100
AcDbMText
 10
1223.084028728584
 20
1455.076764407947
 30
0.0
 40
25.0
 41
0.0
 71
     5
 72
     1
  1
170
 11
0.0000000000000001
 21
1.0
 31
0.0
 73
     1
 44
1.0
1001
ACAD
1000
MTEXTBEGIN
1070
    73
1070
     1
1070
    44
1040
1.0
1070
    74
1070
     0
1000
MTEXTEND
  0
POINT
  5
1B34
330
385
100
AcDbEntity
  8
Defpoints
 62
     0
100
AcDbPoint
 10
1088.423675482535
 20
1400.093561842788
 30
0.0
  0
POINT
  5
1B35
330
385
100
AcDbEntity
  8
Defpoints
 62
     0
100
AcDbPoint
 10
657.9236754825352
 20
1570.093561842788
 30
0.0
  0
POINT
  5
1B36
330
385
100
AcDbEntity
  8
Defpoints
 62
     0
100
AcDbPoint
 10
1241.834028728584
 20
1570.093561842788
 30
0.0
  0
ENDBLK
  5
390
330
385
100
AcDbEntity
  8
0
100
AcDbBlockEnd
  0
BLOCK
  5
3BD
330
3B3
100
AcDbEntity
  8
0
100
AcDbBlockBegin
  2
*D17
 70
     1
 10
0.0
 20
0.0
 30
0.0
  3
*D17
  1

  0
LINE
  5
1B37
330
3B3
100
AcDbEntity
  8
0
 62
     0
370
    15
100
AcDbLine
 10
932.9236754825352
 20
1717.093561842788
 30
0.0
 11
932.9236754825352
 21
1735.737145145187
 31
0.0
  0
LINE
  5
1B38
330
3B3
100
AcDbEntity
  8
0
 62
     0
370
    15
100
AcDbLine
 10
1062.923675482535
 20
1717.093561842788
 30
0.0
 11
1062.923675482535
 21
1735.737145145187
 31
0.0
  0
LINE
  5
1B39
330
3B3
100
AcDbEntity
  8
0
 62
     0
370
    15
100
AcDbLine
 10
932.9236754825352
 20
1735.737145145187
 30
0.0
 11
1062.923675482535
 21
1735.737145145187
 31
0.0
  0
INSERT
  5
1B3A
330
3B3
100
AcDbEntity
  8
0
 62
     0
370
    15
100
AcDbBlockReference
  2
_DotSmall
 10
932.9236754825352
 20
1735.737145145187
 30
0.0
 41
30.0
 42
30.0
 43
30.0
 50
180.0
  0
INSERT
  5
1B3B
330
3B3
100
AcDbEntity
  8
0
 62
     0
370
    15
100
AcDbBlockReference
  2
_DotSmall
 10
1062.923675482535
 20
1735.737145145187
 30
0.0
 41
30.0
 42
30.0
 43
30.0
  0
MTEXT
  5
1B3C
330
3B3
100
AcDbEntity
  8
0
 62
     0
100
AcDbMText
 10
997.923675482535
 20
1754.487145145187
 30
0.0
 40
25.0
 41
0.0
 71
     5
 72
     1
  1
130
 73
     1
 44
1.0
1001
ACAD
1000
MTEXTBEGIN
1070
    73
1070
     1
1070
    44
1040
1.0
1070
    74
1070
     0
1000
MTEXTEND
  0
POINT
  5
1B3D
330
3B3
100
AcDbEntity
  8
Defpoints
 62
     0
100
AcDbPoint
 10
932.9236754825352
 20
1652.093561842789
 30
0.0
  0
POINT
  5
1B3E
330
3B3
100
AcDbEntity
  8
Defpoints
 62
     0
100
AcDbPoint
 10
1062.923675482535
 20
1652.093561842789
 30
0.0
  0
POINT
  5
1B3F
330
3B3
100
AcDbEntity
  8
Defpoints
 62
     0
100
AcDbPoint
 10
1062.923675482535
 20
1735.737145145187
 30
0.0
  0
ENDBLK
  5
3BE
330
3B3
100
AcDbEntity
  8
0
100
AcDbBlockEnd
  0
BLOCK
  5
3CA
330
3C0
100
AcDbEntity
  8
0
100
AcDbBlockBegin
  2
*D18
 70
     1
 10
0.0
 20
0.0
 30
0.0
  3
*D18
  1

  0
LINE
  5
1B40
330
3C0
100
AcDbEntity
  8
0
 62
     0
370
    15
100
AcDbLine
 10
867.9236754825351
 20
1717.093561842788
 30
0.0
 11
867.9236754825351
 21
1799.395076462493
 31
0.0
  0
LINE
  5
1B41
330
3C0
100
AcDbEntity
  8
0
 62
     0
370
    15
100
AcDbLine
 10
1127.923675482535
 20
1717.093561842788
 30
0.0
 11
1127.923675482535
 21
1799.395076462493
 31
0.0
  0
LINE
  5
1B42
330
3C0
100
AcDbEntity
  8
0
 62
     0
370
    15
100
AcDbLine
 10
867.9236754825351
 20
1799.395076462493
 30
0.0
 11
1127.923675482535
 21
1799.395076462493
 31
0.0
  0
INSERT
  5
1B43
330
3C0
100
AcDbEntity
  8
0
 62
     0
370
    15
100
AcDbBlockReference
  2
_DotSmall
 10
867.9236754825351
 20
1799.395076462493
 30
0.0
 41
30.0
 42
30.0
 43
30.0
 50
180.0
  0
INSERT
  5
1B44
330
3C0
100
AcDbEntity
  8
0
 62
     0
370
    15
100
AcDbBlockReference
  2
_DotSmall
 10
1127.923675482535
 20
1799.395076462493
 30
0.0
 41
30.0
 42
30.0
 43
30.0
  0
MTEXT
  5
1B45
330
3C0
100
AcDbEntity
  8
0
 62
     0
100
AcDbMText
 10
997.923675482535
 20
1818.145076462493
 30
0.0
 40
25.0
 41
0.0
 71
     5
 72
     1
  1
260
 73
     1
 44
1.0
1001
ACAD
1000
MTEXTBEGIN
1070
    73
1070
     1
1070
    44
1040
1.0
1070
    74
1070
     0
1000
MTEXTEND
  0
POINT
  5
1B46
330
3C0
100
AcDbEntity
  8
Defpoints
 62
     0
100
AcDbPoint
 10
867.9236754825351
 20
1652.093561842789
 30
0.0
  0
POINT
  5
1B47
330
3C0
100
AcDbEntity
  8
Defpoints
 62
     0
100
AcDbPoint
 10
1127.923675482535
 20
1652.093561842789
 30
0.0
  0
POINT
  5
1B48
330
3C0
100
AcDbEntity
  8
Defpoints
 62
     0
100
AcDbPoint
 10
1127.923675482535
 20
1799.395076462493
 30
0.0
  0
ENDBLK
  5
3CB
330
3C0
100
AcDbEntity
  8
0
100
AcDbBlockEnd
  0
BLOCK
  5
47E
330
474
100
AcDbEntity
  8
0
100
AcDbBlockBegin
  2
*D19
 70
     1
 10
0.0
 20
0.0
 30
0.0
  3
*D19
  1

  0
LINE
  5
1E9E
330
474
100
AcDbEntity
  8
0
 62
     0
370
    15
100
AcDbLine
 10
1077.423675482535
 20
379.5263667117398
 30
0.0
 11
1077.423675482535
 21
323.1318920137246
 31
0.0
  0
LINE
  5
1E9F
330
474
100
AcDbEntity
  8
0
 62
     0
370
    15
100
AcDbLine
 10
918.4236754825349
 20
379.5263667117398
 30
0.0
 11
918.4236754825349
 21
323.1318920137246
 31
0.0
  0
LINE
  5
1EA0
330
474
100
AcDbEntity
  8
0
 62
     0
370
    15
100
AcDbLine
 10
1077.423675482535
 20
323.1318920137246
 30
0.0
 11
918.4236754825349
 21
323.1318920137246
 31
0.0
  0
INSERT
  5
1EA1
330
474
100
AcDbEntity
  8
0
 62
     0
370
    15
100
AcDbBlockReference
  2
_DotSmall
 10
1077.423675482535
 20
323.1318920137246
 30
0.0
 41
30.0
 42
30.0
 43
30.0
  0
INSERT
  5
1EA2
330
474
100
AcDbEntity
  8
0
 62
     0
370
    15
100
AcDbBlockReference
  2
_DotSmall
 10
918.4236754825349
 20
323.1318920137246
 30
0.0
 41
30.0
 42
30.0
 43
30.0
 50
180.0
  0
MTEXT
  5
1EA3
330
474
100
AcDbEntity
  8
0
 62
     0
100
AcDbMText
 10
997.923675482535
 20
341.8818920137246
 30
0.0
 40
25.0
 41
0.0
 71
     5
 72
     1
  1
158
 73
     1
 44
1.0
1001
ACAD
1000
MTEXTBEGIN
1070
    73
1070
     1
1070
    44
1040
1.0
1070
    74
1070
     0
1000
MTEXTEND
  0
POINT
  5
1EA4
330
474
100
AcDbEntity
  8
Defpoints
 62
     0
100
AcDbPoint
 10
1077.423675482535
 20
444.5263667117397
 30
0.0
  0
POINT
  5
1EA5
330
474
100
AcDbEntity
  8
Defpoints
 62
     0
100
AcDbPoint
 10
918.4236754825349
 20
444.5263667117398
 30
0.0
  0
POINT
  5
1EA6
330
474
100
AcDbEntity
  8
Defpoints
 62
     0
100
AcDbPoint
 10
918.4236754825349
 20
323.1318920137246
 30
0.0
  0
ENDBLK
  5
47F
330
474
100
AcDbEntity
  8
0
100
AcDbBlockEnd
  0
BLOCK
  5
48B
330
481
100
AcDbEntity
  8
0
100
AcDbBlockBegin
  2
*D20
 70
     1
 10
0.0
 20
0.0
 30
0.0
  3
*D20
  1

  0
LINE
  5
1B5B
330
481
100
AcDbEntity
  8
0
 62
     0
370
    15
100
AcDbLine
 10
1088.423675482535
 20
517.5263667117397
 30
0.0
 11
1088.423675482535
 21
554.6793912497114
 31
0.0
  0
LINE
  5
1B5C
330
481
100
AcDbEntity
  8
0
 62
     0
370
    15
100
AcDbLine
 10
907.4236754825351
 20
517.5263667117397
 30
0.0
 11
907.4236754825351
 21
554.6793912497114
 31
0.0
  0
LINE
  5
1B5D
330
481
100
AcDbEntity
  8
0
 62
     0
370
    15
100
AcDbLine
 10
1088.423675482535
 20
554.6793912497114
 30
0.0
 11
907.4236754825351
 21
554.6793912497114
 31
0.0
  0
INSERT
  5
1B5E
330
481
100
AcDbEntity
  8
0
 62
     0
370
    15
100
AcDbBlockReference
  2
_DotSmall
 10
1088.423675482535
 20
554.6793912497114
 30
0.0
 41
30.0
 42
30.0
 43
30.0
  0
INSERT
  5
1B5F
330
481
100
AcDbEntity
  8
0
 62
     0
370
    15
100
AcDbBlockReference
  2
_DotSmall
 10
907.4236754825351
 20
554.6793912497114
 30
0.0
 41
30.0
 42
30.0
 43
30.0
 50
180.0
  0
MTEXT
  5
1B60
330
481
100
AcDbEntity
  8
0
 62
     0
100
AcDbMText
 10
997.923675482535
 20
573.4293912497114
 30
0.0
 40
25.0
 41
0.0
 71
     5
 72
     1
  1
181
 73
     1
 44
1.0
1001
ACAD
1000
MTEXTBEGIN
1070
    73
1070
     1
1070
    44
1040
1.0
1070
    74
1070
     0
1000
MTEXTEND
  0
POINT
  5
1B61
330
481
100
AcDbEntity
  8
Defpoints
 62
     0
100
AcDbPoint
 10
1088.423675482535
 20
452.5263667117396
 30
0.0
  0
POINT
  5
1B62
330
481
100
AcDbEntity
  8
Defpoints
 62
     0
100
AcDbPoint
 10
907.4236754825351
 20
452.5263667117398
 30
0.0
  0
POINT
  5
1B63
330
481
100
AcDbEntity
  8
Defpoints
 62
     0
100
AcDbPoint
 10
907.4236754825351
 20
554.6793912497114
 30
0.0
  0
ENDBLK
  5
48C
330
481
100
AcDbEntity
  8
0
100
AcDbBlockEnd
  0
BLOCK
  5
593
330
587
100
AcDbEntity
  8
0
100
AcDbBlockBegin
  2
*D21
 70
     1
 10
0.0
 20
0.0
 30
0.0
  3
*D21
  1

  0
LINE
  5
1B64
330
587
100
AcDbEntity
  8
0
 62
     0
370
    15
100
AcDbLine
 10
1220.053838301795
 20
1555.093561842788
 30
0.0
 11
1219.732917794685
 21
1555.093561842788
 31
0.0
  0
LINE
  5
1B65
330
587
100
AcDbEntity
  8
0
 62
     0
370
    15
100
AcDbLine
 10
1127.923675482535
 20
1570.093561842788
 30
0.0
 11
1219.732917794685
 21
1570.093561842788
 31
0.0
  0
LINE
  5
1B66
330
587
100
AcDbEntity
  8
0
 62
     0
370
    15
100
AcDbLine
 10
1219.732917794685
 20
1555.093561842788
 30
0.0
 11
1219.732917794685
 21
1570.093561842788
 31
0.0
  0
MTEXT
  5
1B67
330
587
100
AcDbEntity
  8
0
 62
     0
100
AcDbMText
 10
1209.787419905171
 20
1522.587485159131
 30
0.0
 40
25.0
 41
0.0
 71
     5
 72
     1
  1
15
 11
0.0000000000000001
 21
1.0
 31
0.0
 73
     1
 44
1.0
1001
ACAD
1000
MTEXTBEGIN
1070
    73
1070
     1
1070
    44
1040
1.0
1070
    74
1070
     0
1000
MTEXTEND
  0
INSERT
  5
1B68
330
587
100
AcDbEntity
  8
0
 62
     0
370
    15
100
AcDbBlockReference
  2
_DotSmall
 10
1219.732917794685
 20
1555.093561842788
 30
0.0
 41
30.0
 42
30.0
 43
30.0
 50
270.0
  0
INSERT
  5
1B69
330
587
100
AcDbEntity
  8
0
 62
     0
370
    15
100
AcDbBlockReference
  2
_DotSmall
 10
1219.732917794685
 20
1570.093561842788
 30
0.0
 41
30.0
 42
30.0
 43
30.0
 50
90.0
  0
POINT
  5
1B6A
330
587
100
AcDbEntity
  8
Defpoints
 62
     0
100
AcDbPoint
 10
1155.053838301794
 20
1555.093561842788
 30
0.0
  0
POINT
  5
1B6B
330
587
100
AcDbEntity
  8
Defpoints
 62
     0
100
AcDbPoint
 10
1062.923675482535
 20
1570.093561842788
 30
0.0
  0
POINT
  5
1B6C
330
587
100
AcDbEntity
  8
Defpoints
 62
     0
100
AcDbPoint
 10
1219.732917794685
 20
1570.093561842788
 30
0.0
  0
ENDBLK
  5
594
330
587
100
AcDbEntity
  8
0
100
AcDbBlockEnd
  0
BLOCK
  5
DE7
330
DE3
100
AcDbEntity
  8
0
100
AcDbBlockBegin
  2
A$C0655774D
 70
     0
 10
0.0
 20
0.0
 30
0.0
  3
A$C0655774D
  1

  0
HATCH
  5
DE4
330
DE3
100
AcDbEntity
  8
実形
 62
     0
100
AcDbHatch
 10
0.0
 20
0.0
 30
0.0
210
0.0
220
0.0
230
1.0
  2
SOLID
 70
     1
 71
     0
 91
        1
 92
        7
 72
     1
 73
     1
 93
        2
 10
4.552682973722539
 20
0.0000016847325242
 42
-1.0
 10
4.548727101171948
 20
9.101409440015231
 42
-1.0
 97
        0
 75
     0
 76
     1
 47
0.1166526434546944
 98
        1
 10
6.651064143657322
 20
3.151410098740825
  0
ENDBLK
  5
DE8
330
DE3
100
AcDbEntity
  8
0
100
AcDbBlockEnd
  0
BLOCK
  5
DEA
330
DE9
100
AcDbEntity
  8
0
100
AcDbBlockBegin
  2
_Dot
 70
     0
 10
0.0
 20
0.0
 30
0.0
  3
_Dot
  1

  0
LWPOLYLINE
  5
DEB
330
DE9
100
AcDbEntity
  8
0
 62
     0
100
AcDbPolyline
 90
        2
 70
     1
 43
0.5
 10
-0.25
 20
0.0
 42
1.0
 10
0.25
 20
0.0
 42
1.0
  0
LINE
  5
DEC
330
DE9
100
AcDbEntity
  8
0
 62
     0
370
    -2
100
AcDbLine
 10
-0.5
 20
0.0
 30
0.0
 11
-1.0
 21
0.0
 31
0.0
  0
ENDBLK
  5
DED
330
DE9
100
AcDbEntity
  8
0
100
AcDbBlockEnd
  0
BLOCK
  5
E84
330
E7A
100
AcDbEntity
  8
0
100
AcDbBlockBegin
  2
*D24
 70
     1
 10
0.0
 20
0.0
 30
0.0
  3
*D24
  1

  0
LINE
  5
1B76
330
E7A
100
AcDbEntity
  8
実形
 62
     0
370
    15
100
AcDbLine
 10
887.4236754825352
 20
516.7157443787114
 30
0.0
 11
887.4236754825352
 21
554.5770817450962
 31
0.0
  0
LINE
  5
1B77
330
E7A
100
AcDbEntity
  8
実形
 62
     0
370
    15
100
AcDbLine
 10
1108.423675482535
 20
517.3704268963724
 30
0.0
 11
1108.423675482535
 21
554.5770817450962
 31
0.0
  0
LINE
  5
1B78
330
E7A
100
AcDbEntity
  8
実形
 62
     0
370
    15
100
AcDbLine
 10
887.4236754825352
 20
554.5770817450962
 30
0.0
 11
1108.423675482535
 21
554.5770817450962
 31
0.0
  0
MTEXT
  5
1B79
330
E7A
100
AcDbEntity
  8
実形
 62
     0
100
AcDbMText
 10
895.8627290524672
 20
574.0205090514105
 30
0.0
 40
25.0
 41
0.0
 71
     5
 72
     1
  1
20
 73
     1
 44
1.0
1001
ACAD
1000
MTEXTBEGIN
1070
    73
1070
     1
1070
    44
1040
1.0
1070
    74
1070
     0
1000
MTEXTEND
  0
INSERT
  5
1B7A
330
E7A
100
AcDbEntity
  8
実形
 62
     0
370
    15
100
AcDbBlockReference
  2
_DotSmall
 10
887.4236754825352
 20
554.5770817450962
 30
0.0
 41
30.0
 42
30.0
 43
30.0
 50
180.0
  0
INSERT
  5
1B7B
330
E7A
100
AcDbEntity
  8
実形
 62
     0
370
    15
100
AcDbBlockReference
  2
_DotSmall
 10
1108.423675482535
 20
554.5770817450962
 30
0.0
 41
30.0
 42
30.0
 43
30.0
  0
POINT
  5
1B7C
330
E7A
100
AcDbEntity
  8
Defpoints
 62
     0
100
AcDbPoint
 10
887.4236754825352
 20
451.7157443787113
 30
0.0
  0
POINT
  5
1B7D
330
E7A
100
AcDbEntity
  8
Defpoints
 62
     0
100
AcDbPoint
 10
1108.423675482535
 20
452.3704268963724
 30
0.0
  0
POINT
  5
1B7E
330
E7A
100
AcDbEntity
  8
Defpoints
 62
     0
100
AcDbPoint
 10
1108.423675482535
 20
554.5770817450962
 30
0.0
  0
ENDBLK
  5
E85
330
E7A
100
AcDbEntity
  8
0
100
AcDbBlockEnd
  0
BLOCK
  5
FC5
330
FBF
100
AcDbEntity
  8
0
100
AcDbBlockBegin
  2
A$C32F61BAA
 70
     0
 10
0.0
 20
0.0
 30
0.0
  3
A$C32F61BAA
  1

  0
TEXT
  5
FC0
330
FBF
100
AcDbEntity
  8
実形
100
AcDbText
 10
3.510854310754125
 20
15.9044409174766
 30
0.0
 40
30.0
  1
ポケット
  7
ms明朝
 72
     4
 11
91.2822828821827
 21
31.84729806033374
 31
0.0
100
AcDbText
  0
TEXT
  5
FC1
330
FBF
100
AcDbEntity
  8
実形
100
AcDbText
 10
246.6289328493167
 20
9.727913587939967
 30
0.0
 40
30.0
  1
樹脂（PP）
  7
ms明朝
 72
     4
 11
356.3432185636025
 21
25.1564850165114
 31
0.0
100
AcDbText
  0
TEXT
  5
FC2
330
FBF
100
AcDbEntity
  8
実形
100
AcDbText
 10
569.9321645690563
 20
17.07857082758117
 30
0.0
 40
30.0
  1
3ｍｍ
  7
ms明朝
 72
     4
 11
624.7893074261992
 21
31.73571368472404
 31
0.0
100
AcDbText
  0
ENDBLK
  5
FC6
330
FBF
100
AcDbEntity
  8
0
100
AcDbBlockEnd
  0
BLOCK
  5
108F
330
1084
100
AcDbEntity
  8
0
100
AcDbBlockBegin
  2
*D26
 70
     1
 10
0.0
 20
0.0
 30
0.0
  3
*D26
  1

  0
ARC
  5
1B88
330
1084
100
AcDbEntity
  8
実形
 62
     0
370
    15
100
AcDbCircle
 10
939.939099427584
 20
1280.093561842788
 30
0.0
 40
119.9069658348973
100
AcDbArc
 50
150.144111303486
 51
179.9999999999999
  0
INSERT
  5
1B89
330
1084
100
AcDbEntity
  8
実形
 62
     0
370
    15
100
AcDbBlockReference
  2
_DotSmall
 10
835.9461535492346
 20
1339.785669053658
 30
0.0
 41
30.0
 42
30.0
 43
30.0
 50
60.14411130348602
  0
INSERT
  5
1B8A
330
1084
100
AcDbEntity
  8
実形
 62
     0
370
    15
100
AcDbBlockReference
  2
_DotSmall
 10
820.0321335926867
 20
1280.093561842788
 30
0.0
 41
30.0
 42
30.0
 43
30.0
 50
269.9999999999999
  0
MTEXT
  5
1B8B
330
1084
100
AcDbEntity
  8
実形
 62
     0
100
AcDbMText
 10
798.7282324935571
 20
1321.396309906916
 30
0.0
 40
25.0
 41
0.0
 71
     5
 72
     1
  1
30°
 11
0.280728075445731
 21
0.9597873450179138
 31
0.0
 73
     1
 44
1.0
1001
ACAD
1000
MTEXTBEGIN
1070
    73
1070
     1
1070
    44
1040
1.0
1070
    74
1070
     0
1000
MTEXTEND
  0
POINT
  5
1B8C
330
1084
100
AcDbEntity
  8
Defpoints
 62
     0
100
AcDbPoint
 10
821.8363743702647
 20
1300.816177260889
 30
0.0
  0
POINT
  5
1B8D
330
1084
100
AcDbEntity
  8
Defpoints
 62
     0
100
AcDbPoint
 10
997.923675482535
 20
1280.093561842788
 30
0.0
  0
POINT
  5
1B8E
330
1084
100
AcDbEntity
  8
Defpoints
 62
     0
100
AcDbPoint
 10
903.0823056110202
 20
1301.249416880503
 30
0.0
  0
POINT
  5
1B8F
330
1084
100
AcDbEntity
  8
Defpoints
 62
     0
100
AcDbPoint
 10
675.9437969995697
 20
1431.627262158703
 30
0.0
  0
POINT
  5
1B90
330
1084
100
AcDbEntity
  8
Defpoints
 62
     0
100
AcDbPoint
 10
597.9236754825351
 20
1280.093561842788
 30
0.0
  0
ENDBLK
  5
1090
330
1084
100
AcDbEntity
  8
0
100
AcDbBlockEnd
  0
BLOCK
  5
10EA
330
10E9
100
AcDbEntity
  8
0
100
AcDbBlockBegin
  2
*D27
 70
     1
 10
0.0
 20
0.0
 30
0.0
  3
*D27
  1

  0
LINE
  5
10EB
330
10E9
100
AcDbEntity
  8
0
 62
     0
370
    15
100
AcDbLine
 10
1893.512425656321
 20
857.062606137153
 30
0.0
 11
1893.512425656321
 21
898.239547659331
 31
0.0
  0
LINE
  5
10EC
330
10E9
100
AcDbEntity
  8
0
 62
     0
370
    15
100
AcDbLine
 10
1723.512425656321
 20
857.062606137153
 30
0.0
 11
1723.512425656321
 21
898.239547659331
 31
0.0
  0
LINE
  5
10ED
330
10E9
100
AcDbEntity
  8
0
 62
     0
370
    15
100
AcDbLine
 10
1893.512425656321
 20
898.239547659331
 30
0.0
 11
1723.512425656321
 21
898.239547659331
 31
0.0
  0
INSERT
  5
10EE
330
10E9
100
AcDbEntity
  8
0
 62
     0
370
    15
100
AcDbBlockReference
  2
_DotSmall
 10
1893.512425656321
 20
898.239547659331
 30
0.0
 41
30.0
 42
30.0
 43
30.0
  0
INSERT
  5
10EF
330
10E9
100
AcDbEntity
  8
0
 62
     0
370
    15
100
AcDbBlockReference
  2
_DotSmall
 10
1723.512425656321
 20
898.239547659331
 30
0.0
 41
30.0
 42
30.0
 43
30.0
 50
180.0
  0
MTEXT
  5
10F0
330
10E9
100
AcDbEntity
  8
0
 62
     0
100
AcDbMText
 10
1808.512425656321
 20
916.989547659331
 30
0.0
 40
25.0
 41
0.0
 71
     5
 72
     1
  1
17
 73
     1
 44
1.0
1001
ACAD
1000
MTEXTBEGIN
1070
    73
1070
     1
1070
    44
1040
1.0
1070
    74
1070
     0
1000
MTEXTEND
  0
POINT
  5
10F1
330
10E9
100
AcDbEntity
  8
Defpoints
 62
     0
100
AcDbPoint
 10
1893.512425656321
 20
792.0626061371531
 30
0.0
  0
POINT
  5
10F2
330
10E9
100
AcDbEntity
  8
Defpoints
 62
     0
100
AcDbPoint
 10
1723.512425656321
 20
792.0626061371531
 30
0.0
  0
POINT
  5
10F3
330
10E9
100
AcDbEntity
  8
Defpoints
 62
     0
100
AcDbPoint
 10
1723.512425656321
 20
898.239547659331
 30
0.0
  0
ENDBLK
  5
10F4
330
10E9
100
AcDbEntity
  8
0
100
AcDbBlockEnd
  0
BLOCK
  5
10F6
330
10F5
100
AcDbEntity
  8
0
100
AcDbBlockBegin
  2
*D28
 70
     1
 10
0.0
 20
0.0
 30
0.0
  3
*D28
  1

  0
LINE
  5
10F7
330
10F5
100
AcDbEntity
  8
寸法
 62
     0
370
    15
100
AcDbLine
 10
1623.676615367452
 20
1386.36010153411
 30
0.0
 11
1623.676615367452
 21
1457.879312780413
 31
0.0
  0
LINE
  5
10F8
330
10F5
100
AcDbEntity
  8
寸法
 62
     0
370
    15
100
AcDbLine
 10
1673.676615367452
 20
1447.479690349655
 30
0.0
 11
1673.676615367452
 21
1457.879312780413
 31
0.0
  0
LINE
  5
10F9
330
10F5
100
AcDbEntity
  8
寸法
 62
     0
370
    18
100
AcDbLine
 10
1623.676615367452
 20
1457.879312780413
 30
0.0
 11
1673.676615367452
 21
1457.879312780413
 31
0.0
  0
MTEXT
  5
10FA
330
10F5
100
AcDbEntity
  8
寸法
 62
     0
100
AcDbMText
 10
1663.639139838013
 20
1487.724998541774
 30
0.0
 40
25.0
 41
0.0
 71
     5
 72
     1
  1
50
 73
     1
 44
1.0
1001
ACAD
1000
MTEXTBEGIN
1070
    73
1070
     1
1070
    44
1040
1.0
1070
    74
1070
     0
1000
MTEXTEND
  0
INSERT
  5
10FB
330
10F5
100
AcDbEntity
  8
寸法
 62
     0
370
    18
100
AcDbBlockReference
  2
_DotSmall
 10
1623.676615367452
 20
1457.879312780413
 30
0.0
 41
30.0
 42
30.0
 43
30.0
 50
180.0
  0
INSERT
  5
10FC
330
10F5
100
AcDbEntity
  8
寸法
 62
     0
370
    18
100
AcDbBlockReference
  2
_DotSmall
 10
1673.676615367452
 20
1457.879312780413
 30
0.0
 41
30.0
 42
30.0
 43
30.0
  0
POINT
  5
10FD
330
10F5
100
AcDbEntity
  8
Defpoints
 62
     0
100
AcDbPoint
 10
1623.676615367452
 20
1321.36010153411
 30
0.0
  0
POINT
  5
10FE
330
10F5
100
AcDbEntity
  8
Defpoints
 62
     0
100
AcDbPoint
 10
1673.676615367452
 20
1382.479690349655
 30
0.0
  0
POINT
  5
10FF
330
10F5
100
AcDbEntity
  8
Defpoints
 62
     0
100
AcDbPoint
 10
1673.676615367452
 20
1457.879312780413
 30
0.0
  0
ENDBLK
  5
1100
330
10F5
100
AcDbEntity
  8
0
100
AcDbBlockEnd
  0
BLOCK
  5
1102
330
1101
100
AcDbEntity
  8
0
100
AcDbBlockBegin
  2
*D29
 70
     1
 10
0.0
 20
0.0
 30
0.0
  3
*D29
  1

  0
LINE
  5
1103
330
1101
100
AcDbEntity
  8
0
 62
     0
370
    15
100
AcDbLine
 10
1753.676615367453
 20
1358.86010153411
 30
0.0
 11
1908.871031503211
 21
1358.86010153411
 31
0.0
  0
LINE
  5
1104
330
1101
100
AcDbEntity
  8
0
 62
     0
370
    15
100
AcDbLine
 10
1848.676615367453
 20
1573.86010153411
 30
0.0
 11
1908.871031503211
 21
1573.86010153411
 31
0.0
  0
LINE
  5
1105
330
1101
100
AcDbEntity
  8
0
 62
     0
370
    15
100
AcDbLine
 10
1908.871031503211
 20
1358.86010153411
 30
0.0
 11
1908.871031503211
 21
1573.86010153411
 31
0.0
  0
INSERT
  5
1106
330
1101
100
AcDbEntity
  8
0
 62
     0
370
    15
100
AcDbBlockReference
  2
_DotSmall
 10
1908.871031503211
 20
1358.86010153411
 30
0.0
 41
30.0
 42
30.0
 43
30.0
 50
270.0
  0
INSERT
  5
1107
330
1101
100
AcDbEntity
  8
0
 62
     0
370
    15
100
AcDbBlockReference
  2
_DotSmall
 10
1908.871031503211
 20
1573.86010153411
 30
0.0
 41
30.0
 42
30.0
 43
30.0
 50
90.0
  0
MTEXT
  5
1108
330
1101
100
AcDbEntity
  8
0
 62
     0
100
AcDbMText
 10
1890.121031503211
 20
1466.36010153411
 30
0.0
 40
25.0
 41
0.0
 71
     5
 72
     1
  1
215
 11
0.0000000000000001
 21
1.0
 31
0.0
 73
     1
 44
1.0
1001
ACAD
1000
MTEXTBEGIN
1070
    73
1070
     1
1070
    44
1040
1.0
1070
    74
1070
     0
1000
MTEXTEND
  0
POINT
  5
1109
330
1101
100
AcDbEntity
  8
Defpoints
 62
     0
100
AcDbPoint
 10
1688.676615367452
 20
1358.86010153411
 30
0.0
  0
POINT
  5
110A
330
1101
100
AcDbEntity
  8
Defpoints
 62
     0
100
AcDbPoint
 10
1783.676615367453
 20
1573.86010153411
 30
0.0
  0
POINT
  5
110B
330
1101
100
AcDbEntity
  8
Defpoints
 62
     0
100
AcDbPoint
 10
1908.871031503211
 20
1573.86010153411
 30
0.0
  0
ENDBLK
  5
110C
330
1101
100
AcDbEntity
  8
0
100
AcDbBlockEnd
  0
BLOCK
  5
110E
330
110D
100
AcDbEntity
  8
0
100
AcDbBlockBegin
  2
*D30
 70
     1
 10
0.0
 20
0.0
 30
0.0
  3
*D30
  1

  0
LINE
  5
110F
330
110D
100
AcDbEntity
  8
寸法
 62
     0
370
    18
100
AcDbLine
 10
2198.809056420901
 20
726.8839376052966
 30
0.0
 11
2198.809056420901
 21
760.7678348786058
 31
0.0
  0
LINE
  5
1110
330
110D
100
AcDbEntity
  8
寸法
 62
     0
370
    18
100
AcDbLine
 10
2448.809056420902
 20
726.8839376052966
 30
0.0
 11
2448.809056420902
 21
760.7678348786058
 31
0.0
  0
LINE
  5
1111
330
110D
100
AcDbEntity
  8
寸法
 62
     0
370
    18
100
AcDbLine
 10
2198.809056420901
 20
760.7678348786058
 30
0.0
 11
2448.809056420902
 21
760.7678348786058
 31
0.0
  0
INSERT
  5
1112
330
110D
100
AcDbEntity
  8
寸法
 62
     0
370
    18
100
AcDbBlockReference
  2
_DotSmall
 10
2198.809056420901
 20
760.7678348786058
 30
0.0
 41
30.0
 42
30.0
 43
30.0
 50
180.0
  0
INSERT
  5
1113
330
110D
100
AcDbEntity
  8
寸法
 62
     0
370
    18
100
AcDbBlockReference
  2
_DotSmall
 10
2448.809056420902
 20
760.7678348786058
 30
0.0
 41
30.0
 42
30.0
 43
30.0
  0
MTEXT
  5
1114
330
110D
100
AcDbEntity
  8
寸法
 62
     0
100
AcDbMText
 10
2323.809056420901
 20
779.5178348786058
 30
0.0
 40
25.0
 41
0.0
 71
     5
 72
     1
  1
50
 73
     1
 44
1.0
1001
ACAD
1000
MTEXTBEGIN
1070
    73
1070
     1
1070
    44
1040
1.0
1070
    74
1070
     0
1000
MTEXTEND
  0
POINT
  5
1115
330
110D
100
AcDbEntity
  8
Defpoints
 62
     0
100
AcDbPoint
 10
2198.809056420901
 20
661.8839376052966
 30
0.0
  0
POINT
  5
1116
330
110D
100
AcDbEntity
  8
Defpoints
 62
     0
100
AcDbPoint
 10
2448.809056420902
 20
661.8839376052966
 30
0.0
  0
POINT
  5
1117
330
110D
100
AcDbEntity
  8
Defpoints
 62
     0
100
AcDbPoint
 10
2448.809056420902
 20
760.7678348786058
 30
0.0
  0
ENDBLK
  5
1118
330
110D
100
AcDbEntity
  8
0
100
AcDbBlockEnd
  0
BLOCK
  5
111A
330
1119
100
AcDbEntity
  8
0
100
AcDbBlockBegin
  2
*D31
 70
     1
 10
0.0
 20
0.0
 30
0.0
  3
*D31
  1

  0
LINE
  5
111B
330
1119
100
AcDbEntity
  8
寸法
 62
     0
370
    18
100
AcDbLine
 10
2483.809056420902
 20
726.8839376052966
 30
0.0
 11
2483.809056420902
 21
811.8026743438869
 31
0.0
  0
LINE
  5
111C
330
1119
100
AcDbEntity
  8
寸法
 62
     0
370
    18
100
AcDbLine
 10
2163.809056420902
 20
726.8839376052966
 30
0.0
 11
2163.809056420902
 21
811.8026743438869
 31
0.0
  0
LINE
  5
111D
330
1119
100
AcDbEntity
  8
寸法
 62
     0
370
    18
100
AcDbLine
 10
2483.809056420902
 20
811.8026743438869
 30
0.0
 11
2163.809056420902
 21
811.8026743438869
 31
0.0
  0
INSERT
  5
111E
330
1119
100
AcDbEntity
  8
寸法
 62
     0
370
    18
100
AcDbBlockReference
  2
_DotSmall
 10
2483.809056420902
 20
811.8026743438869
 30
0.0
 41
30.0
 42
30.0
 43
30.0
  0
INSERT
  5
111F
330
1119
100
AcDbEntity
  8
寸法
 62
     0
370
    18
100
AcDbBlockReference
  2
_DotSmall
 10
2163.809056420902
 20
811.8026743438869
 30
0.0
 41
30.0
 42
30.0
 43
30.0
 50
180.0
  0
MTEXT
  5
1120
330
1119
100
AcDbEntity
  8
寸法
 62
     0
100
AcDbMText
 10
2323.809056420901
 20
830.5526743438869
 30
0.0
 40
25.0
 41
0.0
 71
     5
 72
     1
  1
64
 73
     1
 44
1.0
1001
ACAD
1000
MTEXTBEGIN
1070
    73
1070
     1
1070
    44
1040
1.0
1070
    74
1070
     0
1000
MTEXTEND
  0
POINT
  5
1121
330
1119
100
AcDbEntity
  8
Defpoints
 62
     0
100
AcDbPoint
 10
2483.809056420902
 20
661.8839376052966
 30
0.0
  0
POINT
  5
1122
330
1119
100
AcDbEntity
  8
Defpoints
 62
     0
100
AcDbPoint
 10
2163.809056420902
 20
661.8839376052966
 30
0.0
  0
POINT
  5
1123
330
1119
100
AcDbEntity
  8
Defpoints
 62
     0
100
AcDbPoint
 10
2163.809056420902
 20
811.8026743438869
 30
0.0
  0
ENDBLK
  5
1124
330
1119
100
AcDbEntity
  8
0
100
AcDbBlockEnd
  0
BLOCK
  5
1126
330
1125
100
AcDbEntity
  8
0
100
AcDbBlockBegin
  2
*D32
 70
     1
 10
0.0
 20
0.0
 30
0.0
  3
*D32
  1

  0
LINE
  5
1127
330
1125
100
AcDbEntity
  8
寸法
 62
     0
370
    18
100
AcDbLine
 10
2136.309056420901
 20
726.8839376052966
 30
0.0
 11
2136.309056420901
 21
859.0099009682772
 31
0.0
  0
LINE
  5
1128
330
1125
100
AcDbEntity
  8
寸法
 62
     0
370
    18
100
AcDbLine
 10
2511.309056420902
 20
726.8839376052966
 30
0.0
 11
2511.309056420902
 21
859.0099009682772
 31
0.0
  0
LINE
  5
1129
330
1125
100
AcDbEntity
  8
寸法
 62
     0
370
    18
100
AcDbLine
 10
2136.309056420901
 20
859.0099009682772
 30
0.0
 11
2511.309056420902
 21
859.0099009682772
 31
0.0
  0
INSERT
  5
112A
330
1125
100
AcDbEntity
  8
寸法
 62
     0
370
    18
100
AcDbBlockReference
  2
_DotSmall
 10
2136.309056420901
 20
859.0099009682772
 30
0.0
 41
30.0
 42
30.0
 43
30.0
 50
180.0
  0
INSERT
  5
112B
330
1125
100
AcDbEntity
  8
寸法
 62
     0
370
    18
100
AcDbBlockReference
  2
_DotSmall
 10
2511.309056420902
 20
859.0099009682772
 30
0.0
 41
30.0
 42
30.0
 43
30.0
  0
MTEXT
  5
112C
330
1125
100
AcDbEntity
  8
寸法
 62
     0
100
AcDbMText
 10
2323.809056420901
 20
877.7599009682772
 30
0.0
 40
25.0
 41
0.0
 71
     5
 72
     1
  1
75
 73
     1
 44
1.0
1001
ACAD
1000
MTEXTBEGIN
1070
    73
1070
     1
1070
    44
1040
1.0
1070
    74
1070
     0
1000
MTEXTEND
  0
POINT
  5
112D
330
1125
100
AcDbEntity
  8
Defpoints
 62
     0
100
AcDbPoint
 10
2136.309056420901
 20
661.8839376052966
 30
0.0
  0
POINT
  5
112E
330
1125
100
AcDbEntity
  8
Defpoints
 62
     0
100
AcDbPoint
 10
2511.309056420902
 20
661.8839376052966
 30
0.0
  0
POINT
  5
112F
330
1125
100
AcDbEntity
  8
Defpoints
 62
     0
100
AcDbPoint
 10
2511.309056420902
 20
859.0099009682772
 30
0.0
  0
ENDBLK
  5
1130
330
1125
100
AcDbEntity
  8
0
100
AcDbBlockEnd
  0
BLOCK
  5
1132
330
1131
100
AcDbEntity
  8
0
100
AcDbBlockBegin
  2
*D33
 70
     1
 10
0.0
 20
0.0
 30
0.0
  3
*D33
  1

  0
LINE
  5
1133
330
1131
100
AcDbEntity
  8
寸法
 62
     0
370
    18
100
AcDbLine
 10
2576.309056420902
 20
661.8839376052966
 30
0.0
 11
2612.762069191493
 21
661.8839376052966
 31
0.0
  0
LINE
  5
1134
330
1131
100
AcDbEntity
  8
寸法
 62
     0
370
    18
100
AcDbLine
 10
2576.309056420902
 20
561.8839376052966
 30
0.0
 11
2612.762069191493
 21
561.8839376052966
 31
0.0
  0
LINE
  5
1135
330
1131
100
AcDbEntity
  8
寸法
 62
     0
370
    18
100
AcDbLine
 10
2612.762069191493
 20
661.8839376052966
 30
0.0
 11
2612.762069191493
 21
561.8839376052966
 31
0.0
  0
INSERT
  5
1136
330
1131
100
AcDbEntity
  8
寸法
 62
     0
370
    18
100
AcDbBlockReference
  2
_DotSmall
 10
2612.762069191493
 20
661.8839376052966
 30
0.0
 41
30.0
 42
30.0
 43
30.0
 50
90.0
  0
INSERT
  5
1137
330
1131
100
AcDbEntity
  8
寸法
 62
     0
370
    18
100
AcDbBlockReference
  2
_DotSmall
 10
2612.762069191493
 20
561.8839376052966
 30
0.0
 41
30.0
 42
30.0
 43
30.0
 50
270.0
  0
MTEXT
  5
1138
330
1131
100
AcDbEntity
  8
寸法
 62
     0
100
AcDbMText
 10
2594.012069191494
 20
611.8839376052971
 30
0.0
 40
25.0
 41
0.0
 71
     5
 72
     1
  1
20
 11
0.0000000000000001
 21
1.0
 31
0.0
 73
     1
 44
1.0
1001
ACAD
1000
MTEXTBEGIN
1070
    73
1070
     1
1070
    44
1040
1.0
1070
    74
1070
     0
1000
MTEXTEND
  0
POINT
  5
1139
330
1131
100
AcDbEntity
  8
Defpoints
 62
     0
100
AcDbPoint
 10
2511.309056420902
 20
661.8839376052966
 30
0.0
  0
POINT
  5
113A
330
1131
100
AcDbEntity
  8
Defpoints
 62
     0
100
AcDbPoint
 10
2511.309056420902
 20
561.8839376052966
 30
0.0
  0
POINT
  5
113B
330
1131
100
AcDbEntity
  8
Defpoints
 62
     0
100
AcDbPoint
 10
2612.762069191493
 20
561.8839376052966
 30
0.0
  0
ENDBLK
  5
113C
330
1131
100
AcDbEntity
  8
0
100
AcDbBlockEnd
  0
BLOCK
  5
113E
330
113D
100
AcDbEntity
  8
0
100
AcDbBlockBegin
  2
*D34
 70
     1
 10
0.0
 20
0.0
 30
0.0
  3
*D34
  1

  0
LINE
  5
113F
330
113D
100
AcDbEntity
  8
寸法
 62
     0
370
    18
100
AcDbLine
 10
2576.309056420902
 20
687.3839376052966
 30
0.0
 11
2658.729734480604
 21
687.3839376052966
 31
0.0
  0
LINE
  5
1140
330
113D
100
AcDbEntity
  8
寸法
 62
     0
370
    18
100
AcDbLine
 10
2576.309056420902
 20
536.3839376052966
 30
0.0
 11
2658.729734480604
 21
536.3839376052966
 31
0.0
  0
LINE
  5
1141
330
113D
100
AcDbEntity
  8
寸法
 62
     0
370
    18
100
AcDbLine
 10
2658.729734480604
 20
687.3839376052966
 30
0.0
 11
2658.729734480604
 21
536.3839376052966
 31
0.0
  0
INSERT
  5
1142
330
113D
100
AcDbEntity
  8
寸法
 62
     0
370
    18
100
AcDbBlockReference
  2
_DotSmall
 10
2658.729734480604
 20
687.3839376052966
 30
0.0
 41
30.0
 42
30.0
 43
30.0
 50
90.0
  0
INSERT
  5
1143
330
113D
100
AcDbEntity
  8
寸法
 62
     0
370
    18
100
AcDbBlockReference
  2
_DotSmall
 10
2658.729734480604
 20
536.3839376052966
 30
0.0
 41
30.0
 42
30.0
 43
30.0
 50
270.0
  0
MTEXT
  5
1144
330
113D
100
AcDbEntity
  8
寸法
 62
     0
100
AcDbMText
 10
2639.979734480604
 20
611.8839376052971
 30
0.0
 40
25.0
 41
0.0
 71
     5
 72
     1
  1
31
 11
0.0000000000000001
 21
1.0
 31
0.0
 73
     1
 44
1.0
1001
ACAD
1000
MTEXTBEGIN
1070
    73
1070
     1
1070
    44
1040
1.0
1070
    74
1070
     0
1000
MTEXTEND
  0
POINT
  5
1145
330
113D
100
AcDbEntity
  8
Defpoints
 62
     0
100
AcDbPoint
 10
2511.309056420902
 20
687.3839376052966
 30
0.0
  0
POINT
  5
1146
330
113D
100
AcDbEntity
  8
Defpoints
 62
     0
100
AcDbPoint
 10
2511.309056420902
 20
536.3839376052966
 30
0.0
  0
POINT
  5
1147
330
113D
100
AcDbEntity
  8
Defpoints
 62
     0
100
AcDbPoint
 10
2658.729734480604
 20
536.3839376052966
 30
0.0
  0
ENDBLK
  5
1148
330
113D
100
AcDbEntity
  8
0
100
AcDbBlockEnd
  0
BLOCK
  5
11A4
330
1149
100
AcDbEntity
  8
0
100
AcDbBlockBegin
  2
A$C3BF6588C
 70
     0
 10
0.0
 20
0.0
 30
0.0
  3
A$C3BF6588C
  1

  0
LINE
  5
114A
330
1149
100
AcDbEntity
  8
0
100
AcDbLine
 10
86.6585344226587
 20
1160.720674311948
 30
0.0
 11
86.65853442265847
 21
606.7206743119486
 31
0.0
  0
LINE
  5
114B
330
1149
100
AcDbEntity
  8
0
100
AcDbLine
 10
86.65853442265893
 20
1143.720674311949
 30
0.0
 11
246.6585344226591
 21
1143.720674311949
 31
0.0
  0
LINE
  5
114C
330
1149
100
AcDbEntity
  8
0
100
AcDbLine
 10
104.6585344226587
 20
1068.720674311949
 30
0.0
 11
246.6585344226591
 21
1068.720674311949
 31
0.0
  0
LINE
  5
114D
330
1149
100
AcDbEntity
  8
0
100
AcDbLine
 10
86.65853442265825
 20
623.7206743119481
 30
0.0
 11
98.65853442265825
 21
623.7206743119481
 31
0.0
  0
LINE
  5
114E
330
1149
100
AcDbEntity
  8
0
100
AcDbLine
 10
104.6585344226587
 20
638.7206743119482
 30
0.0
 11
237.8604468732315
 21
638.7206743119484
 31
0.0
  0
LINE
  5
114F
330
1149
100
AcDbEntity
  8
0
100
AcDbLine
 10
101.6585344226587
 20
635.7206743119482
 30
0.0
 11
101.6585344226582
 21
626.7206743119482
 31
0.0
  0
ARC
  5
1150
330
1149
100
AcDbEntity
  8
0
100
AcDbCircle
 10
98.65853442265825
 20
626.7206743119482
 30
0.0
 40
3.0
100
AcDbArc
 50
270.0
 51
0.0
  0
ARC
  5
1151
330
1149
100
AcDbEntity
  8
0
100
AcDbCircle
 10
104.6585344226587
 20
635.7206743119482
 30
0.0
 40
3.0
100
AcDbArc
 50
90.0
 51
180.0
  0
LINE
  5
1152
330
1149
100
AcDbEntity
  8
0
100
AcDbLine
 10
101.6585344226587
 20
1143.720674311949
 30
0.0
 11
101.6585344226587
 21
1071.720674311949
 31
0.0
  0
ARC
  5
1153
330
1149
100
AcDbEntity
  8
0
100
AcDbCircle
 10
104.6585344226587
 20
1071.720674311949
 30
0.0
 40
3.0
100
AcDbArc
 50
180.0
 51
270.0
  0
LINE
  5
1154
330
1149
100
AcDbEntity
  8
0
100
AcDbLine
 10
101.6585344226587
 20
1071.720674311949
 30
0.0
 11
101.6585344226582
 21
626.7206743119482
 31
0.0
  0
LINE
  5
1155
330
1149
100
AcDbEntity
  8
0
100
AcDbLine
 10
276.6585344226592
 20
1038.720674311949
 30
0.0
 11
276.6585344226587
 21
883.2206743119529
 31
0.0
  0
LINE
  5
1156
330
1149
100
AcDbEntity
  8
0
100
AcDbLine
 10
284.6585344226587
 20
1053.220674311948
 30
0.0
 11
284.6585344226587
 21
894.2206743119484
 31
0.0
  0
LINE
  5
1157
330
1149
100
AcDbEntity
  8
0
100
AcDbLine
 10
276.6585344226592
 20
1064.220674311948
 30
0.0
 11
284.6585344226592
 21
1053.220674311948
 31
0.0
  0
LINE
  5
1158
330
1149
100
AcDbEntity
  8
0
100
AcDbLine
 10
276.6585344226587
 20
883.2206743119487
 30
0.0
 11
284.6585344226592
 21
894.2206743119486
 31
0.0
  0
LINE
  5
1159
330
1149
100
AcDbEntity
  8
0
100
AcDbLine
 10
276.6585344226587
 20
883.220674311949
 30
0.0
 11
267.835386410502
 21
667.4947054147184
 31
0.0
  0
ARC
  5
115A
330
1149
100
AcDbEntity
  8
0
100
AcDbCircle
 10
246.6585344226591
 20
1113.720674311949
 30
0.0
 40
30.0
100
AcDbArc
 50
0.0
 51
90.0
  0
ARC
  5
115B
330
1149
100
AcDbEntity
  8
0
100
AcDbCircle
 10
237.8604468732315
 20
668.7206743119483
 30
0.0
 40
30.0
100
AcDbArc
 50
270.0
 51
357.6579196915294
  0
ARC
  5
115C
330
1149
100
AcDbEntity
  8
0
100
AcDbCircle
 10
246.6585344226591
 20
1038.720674311949
 30
0.0
 40
30.0
100
AcDbArc
 50
0.0
 51
90.0
  0
LINE
  5
115D
330
1149
100
AcDbEntity
  8
0
100
AcDbLine
 10
276.6585344226592
 20
1113.720674311949
 30
0.0
 11
276.6585344226592
 21
1038.720674311949
 31
0.0
  0
LINE
  5
115E
330
1149
100
AcDbEntity
  8
Cen
100
AcDbLine
 10
182.064704642451
 20
971.8456743119487
 30
0.0
 11
312.7191168777736
 21
971.8456743119487
 31
0.0
  0
LINE
  5
115F
330
1149
100
AcDbEntity
  8
0
100
AcDbLine
 10
34.47304776519923
 20
286.9231789149919
 30
0.0
 11
356.4943447115274
 21
286.9231789149917
 31
0.0
  0
LINE
  5
1160
330
1149
100
AcDbEntity
  8
0
100
AcDbLine
 10
186.4943447115274
 20
256.9231789149917
 30
0.0
 11
186.4943447115274
 21
112.2449820338515
 31
0.0
  0
DIMENSION
  5
1161
330
1149
100
AcDbEntity
  8
0
100
AcDbDimension
  2
*D27
 10
186.4943447115274
 20
393.1001204371696
 30
0.0
 11
271.4943447115274
 21
411.8501204371695
 31
0.0
 12
-1537.018080944794
 22
-505.1394272221614
 32
0.0
  1
17
 71
     5
 42
170.0
  3
ISO-25
100
AcDbAlignedDimension
 13
356.4943447115274
 23
286.9231789149917
 33
0.0
 14
186.4943447115274
 24
286.9231789149917
 34
0.0
100
AcDbRotatedDimension
  0
ARC
  5
1162
330
1149
100
AcDbEntity
  8
0
100
AcDbCircle
 10
216.4943447115275
 20
256.9231789149917
 30
0.0
 40
30.0
100
AcDbArc
 50
90.0
 51
180.0
  0
LINE
  5
1163
330
1149
100
AcDbEntity
  8
0
100
AcDbLine
 10
216.4943447115275
 20
276.9231789149917
 30
0.0
 11
356.4943447115274
 21
276.9231789149917
 31
0.0
  0
ARC
  5
1164
330
1149
100
AcDbEntity
  8
0
100
AcDbCircle
 10
216.4943447115275
 20
256.9231789149917
 30
0.0
 40
20.0
100
AcDbArc
 50
90.0
 51
180.0
  0
LINE
  5
1165
330
1149
100
AcDbEntity
  8
0
100
AcDbLine
 10
196.4943447115274
 20
256.9231789149917
 30
0.0
 11
196.4943447115274
 21
112.2449820338515
 31
0.0
  0
LINE
  5
1166
330
1149
100
AcDbEntity
  8
0
100
AcDbLine
 10
356.4943447115274
 20
286.9231789149917
 30
0.0
 11
356.4943447115274
 21
276.9231789149917
 31
0.0
  0
LEADER
  5
1167
330
1149
100
AcDbEntity
  8
Cen
100
AcDbLeader
  3
ISO-25
 40
25.0
 41
16.66666666666666
 76
     2
 10
195.9615168056352
 20
278.7956039791453
 30
0.0
 10
250.6505434132878
 20
210.2856696210992
 30
0.0
213
0.0
223
-12.5
233
0.0
1001
ACAD
1000
DSTYLE
1002
{
1070
    41
1040
25.0
1070
   147
1040
6.25
1070
    77
1070
     0
1070
   279
1070
     1
1002
}
  0
TEXT
  5
1168
330
1149
100
AcDbEntity
  8
0
100
AcDbText
 10
258.0334373128162
 20
186.0467640229617
 30
0.0
 40
25.0
  1
3R
100
AcDbText
  0
LEADER
  5
1169
330
1149
100
AcDbEntity
  8
Cen
100
AcDbLeader
  3
ISO-25
 40
25.0
 41
16.66666666666666
 76
     2
 10
103.1389814216954
 20
1069.13398556429
 30
0.0
 10
47.96605264992741
 20
1033.099711960988
 30
0.0
213
0.0
223
12.5
233
0.0
1001
ACAD
1000
DSTYLE
1002
{
1070
    41
1040
25.0
1070
   147
1040
6.25
1070
    77
1070
     0
1070
   279
1070
     1
1002
}
  0
LEADER
  5
116A
330
1149
100
AcDbEntity
  8
Cen
100
AcDbLeader
  3
ISO-25
 76
     2
 10
102.7490592843394
 20
638.0345249329131
 30
0.0
 10
158.545658333237
 20
594.1626074277273
 30
0.0
1001
ACAD
1000
DSTYLE
1002
{
1070
    41
1040
25.0
1070
   147
1040
6.25
1070
    77
1070
     0
1070
   279
1070
     1
1002
}
  0
TEXT
  5
116B
330
1149
100
AcDbEntity
  8
0
100
AcDbText
 10
162.4650499559602
 20
565.5966930593895
 30
0.0
 40
25.0
  1
3R
100
AcDbText
  0
LEADER
  5
116C
330
1149
100
AcDbEntity
  8
Cen
100
AcDbLeader
  3
ISO-25
 76
     2
 10
100.7036743991555
 20
624.525816121419
 30
0.0
 10
49.72494730147719
 20
660.5092486328175
 30
0.0
1001
ACAD
1000
DSTYLE
1002
{
1070
    41
1040
25.0
1070
   147
1040
6.25
1070
    77
1070
     0
1070
   279
1070
     1
1002
}
  0
TEXT
  5
116D
330
1149
100
AcDbEntity
  8
0
100
AcDbText
 10
2.692256162711601
 20
650.6033248722924
 30
0.0
 40
25.0
  1
3R
100
AcDbText
  0
TEXT
  5
116E
330
1149
100
AcDbEntity
  8
0
100
AcDbText
 10
-0.0000019823446564
 20
1000.320255779012
 30
0.0
 40
25.0
  1
3R
100
AcDbText
  0
LINE
  5
116F
330
1149
100
AcDbEntity
  8
0
100
AcDbLine
 10
34.473047765199
 20
136.9231789149917
 30
0.0
 11
156.4943447115274
 21
136.9231789149917
 31
0.0
  0
LINE
  5
1170
330
1149
100
AcDbEntity
  8
実形
100
AcDbLine
 10
186.4943447115274
 20
256.9231789149917
 30
0.0
 11
186.4943447115274
 21
166.9231789149917
 31
0.0
  0
ARC
  5
1171
330
1149
100
AcDbEntity
  8
実形
100
AcDbCircle
 10
156.4943447115274
 20
166.9231789149917
 30
0.0
 40
30.0
100
AcDbArc
 50
270.0
 51
0.0
  0
LINE
  5
1172
330
1149
100
AcDbEntity
  8
0
100
AcDbLine
 10
34.473047765199
 20
126.9231789149917
 30
0.0
 11
156.4943447115274
 21
126.9231789149917
 31
0.0
  0
ARC
  5
1173
330
1149
100
AcDbEntity
  8
実形
100
AcDbCircle
 10
156.4943447115274
 20
166.9231789149917
 30
0.0
 40
40.0
100
AcDbArc
 50
270.0
 51
318.5903778907278
  0
LEADER
  5
1174
330
1149
100
AcDbEntity
  8
Cen
100
AcDbLeader
  3
ISO-25
 40
25.0
 41
16.66666666666666
 76
     2
 10
171.0351093165407
 20
153.2667498236707
 30
0.0
 10
132.7082342252952
 20
194.1479561906403
 30
0.0
213
0.0
223
-12.5
233
0.0
1001
ACAD
1000
DSTYLE
1002
{
1070
    41
1040
25.0
1070
   147
1040
6.25
1070
    77
1070
     0
1070
   279
1070
     1
1002
}
  0
TEXT
  5
1175
330
1149
100
AcDbEntity
  8
0
100
AcDbText
 10
86.47714442422239
 20
204.0480727478029
 30
0.0
 40
25.0
  1
3R
100
AcDbText
  0
LINE
  5
1176
330
1149
100
AcDbEntity
  8
センター
 48
0.4
370
    15
100
AcDbLine
 10
136.6585344226587
 20
944.573624344474
 30
0.0
 11
136.6585344226587
 21
761.2426375990085
 31
0.0
  0
LINE
  5
1177
330
1149
100
AcDbEntity
  8
センター
 48
0.7
370
    15
100
AcDbLine
 10
35.23158534325649
 20
853.7206743119487
 30
0.0
 11
334.477983270308
 21
853.7206743119487
 31
0.0
  0
LINE
  5
1178
330
1149
100
AcDbEntity
  8
実形
100
AcDbLine
 10
121.6585344226587
 20
876.2206743119486
 30
0.0
 11
121.6585344226587
 21
831.2206743119483
 31
0.0
  0
LINE
  5
1179
330
1149
100
AcDbEntity
  8
実形
100
AcDbLine
 10
136.6585344226578
 20
816.2206743119483
 30
0.0
 11
136.6585344226587
 21
816.2206743119483
 31
0.0
  0
LINE
  5
117A
330
1149
100
AcDbEntity
  8
実形
100
AcDbLine
 10
151.6585344226587
 20
831.2206743119483
 30
0.0
 11
151.6585344226587
 21
876.2206743119486
 31
0.0
  0
LINE
  5
117B
330
1149
100
AcDbEntity
  8
実形
100
AcDbLine
 10
136.6585344226587
 20
891.2206743119487
 30
0.0
 11
136.6585344226587
 21
891.2206743119487
 31
0.0
  0
ARC
  5
117C
330
1149
100
AcDbEntity
  8
実形
100
AcDbCircle
 10
136.6585344226587
 20
876.2206743119486
 30
0.0
 40
15.0
100
AcDbArc
 50
0.0
 51
90.0
  0
ARC
  5
117D
330
1149
100
AcDbEntity
  8
実形
100
AcDbCircle
 10
136.6585344226587
 20
876.2206743119486
 30
0.0
 40
15.0
100
AcDbArc
 50
90.0
 51
180.0
  0
ARC
  5
117E
330
1149
100
AcDbEntity
  8
実形
100
AcDbCircle
 10
136.6585344226587
 20
831.2206743119483
 30
0.0
 40
15.0
100
AcDbArc
 50
270.0
 51
0.0
  0
ARC
  5
117F
330
1149
100
AcDbEntity
  8
実形
100
AcDbCircle
 10
136.6585344226587
 20
831.2206743119483
 30
0.0
 40
15.0
100
AcDbArc
 50
180.0
 51
270.0
  0
DIMENSION
  5
1180
330
1149
100
AcDbEntity
  8
寸法
100
AcDbDimension
  2
*D28
 10
136.6585344226587
 20
952.7398855582513
 30
0.0
 11
126.621058893219
 21
982.5855713196132
 31
0.0
 12
-1537.018080944794
 22
-505.1394272221614
 32
0.0
 70
   128
 71
     5
 42
50.0
  3
ISO-25
100
AcDbAlignedDimension
 13
86.6585344226587
 23
816.2206743119487
 33
0.0
 14
136.6585344226587
 24
877.3402631274937
 34
0.0
100
AcDbRotatedDimension
1001
ACAD
1000
DSTYLE
1002
{
1070
   279
1070
     2
1070
   371
1070
    18
1002
}
  0
DIMENSION
  5
1181
330
1149
100
AcDbEntity
  8
0
100
AcDbDimension
  2
*D29
 10
371.8529505584174
 20
1068.720674311949
 30
0.0
 11
353.102950558417
 21
961.2206743119488
 31
0.0
 12
-1537.018080944794
 22
-505.1394272221614
 32
0.0
 71
     5
 42
215.0
  3
ISO-25
100
AcDbAlignedDimension
 13
151.6585344226587
 23
853.7206743119487
 33
0.0
 14
246.6585344226591
 24
1068.720674311949
 34
0.0
 50
90.0
100
AcDbRotatedDimension
1001
ACAD
1000
DSTYLE
1002
{
1070
   279
1070
     1
1002
}
  0
LINE
  5
1182
330
1149
100
AcDbEntity
  8
センター
 48
0.5
100
AcDbLine
 10
786.7909754761076
 20
213.4890247620738
 30
0.0
 11
786.7909754761076
 21
-0.000003995803354
 31
0.0
  0
DIMENSION
  5
1183
330
1149
100
AcDbEntity
  8
寸法
100
AcDbDimension
  2
*D30
 10
911.7909754761075
 20
255.6284076564444
 30
0.0
 11
786.7909754761076
 21
274.3784076564444
 31
0.0
 12
-1537.018080944794
 22
-505.1394272221614
 32
0.0
  1
50
 71
     5
 42
250.0
  3
ISO-25
100
AcDbAlignedDimension
 13
661.7909754761076
 23
156.7445103831352
 33
0.0
 14
911.7909754761075
 24
156.7445103831352
 34
0.0
100
AcDbRotatedDimension
1001
ACAD
1000
DSTYLE
1002
{
1070
   371
1070
    18
1070
   372
1070
    18
1002
}
  0
DIMENSION
  5
1184
330
1149
100
AcDbEntity
  8
寸法
100
AcDbDimension
  2
*D31
 10
626.7909754761076
 20
306.6632471217255
 30
0.0
 11
786.7909754761076
 21
325.4132471217255
 31
0.0
 12
-1537.018080944794
 22
-505.1394272221614
 32
0.0
  1
64
 71
     5
 42
320.0
  3
ISO-25
100
AcDbAlignedDimension
 13
946.7909754761077
 23
156.7445103831352
 33
0.0
 14
626.7909754761076
 24
156.7445103831352
 34
0.0
100
AcDbRotatedDimension
1001
ACAD
1000
DSTYLE
1002
{
1070
   371
1070
    18
1070
   372
1070
    18
1002
}
  0
DIMENSION
  5
1185
330
1149
100
AcDbEntity
  8
寸法
100
AcDbDimension
  2
*D32
 10
974.2909754761075
 20
353.8704737461159
 30
0.0
 11
786.7909754761076
 21
372.6204737461159
 31
0.0
 12
-1537.018080944794
 22
-505.1394272221614
 32
0.0
  1
75
 71
     5
 42
375.0
  3
ISO-25
100
AcDbAlignedDimension
 13
599.2909754761076
 23
156.7445103831352
 33
0.0
 14
974.2909754761075
 24
156.7445103831352
 34
0.0
100
AcDbRotatedDimension
1001
ACAD
1000
DSTYLE
1002
{
1070
   371
1070
    18
1070
   372
1070
    18
1002
}
  0
ARC
  5
1186
330
1149
100
AcDbEntity
  8
実形
100
AcDbCircle
 10
674.7909754761076
 20
106.7445103831351
 30
0.0
 40
75.5
100
AcDbArc
 50
180.0
 51
270.0
  0
ARC
  5
1187
330
1149
100
AcDbEntity
  8
実形
100
AcDbCircle
 10
674.7909754761076
 20
106.7445103831351
 30
0.0
 40
75.5
100
AcDbArc
 50
90.0
 51
180.0
  0
ARC
  5
1188
330
1149
100
AcDbEntity
  8
実形
100
AcDbCircle
 10
674.7909754761076
 20
106.7445103831351
 30
0.0
 40
70.5
100
AcDbArc
 50
180.0
 51
270.0
  0
ARC
  5
1189
330
1149
100
AcDbEntity
  8
実形
100
AcDbCircle
 10
674.7909754761076
 20
106.7445103831351
 30
0.0
 40
70.5
100
AcDbArc
 50
90.0
 51
180.0
  0
LINE
  5
118A
330
1149
100
AcDbEntity
  8
センター
 48
0.5
100
AcDbLine
 10
575.9345067147278
 20
106.7445103831351
 30
0.0
 11
997.6474442374874
 21
106.7445103831351
 31
0.0
  0
LINE
  5
118B
330
1149
100
AcDbEntity
  8
実形
100
AcDbLine
 10
599.2909754761076
 20
106.7445103831351
 30
0.0
 11
599.2909754761076
 21
106.7445103831351
 31
0.0
  0
ARC
  5
118C
330
1149
100
AcDbEntity
  8
実形
100
AcDbCircle
 10
898.7909754761076
 20
106.7445103831351
 30
0.0
 40
75.5
100
AcDbArc
 50
0.0
 51
90.0
  0
ARC
  5
118D
330
1149
100
AcDbEntity
  8
実形
100
AcDbCircle
 10
898.7909754761076
 20
106.7445103831351
 30
0.0
 40
75.5
100
AcDbArc
 50
270.0
 51
0.0
  0
ARC
  5
118E
330
1149
100
AcDbEntity
  8
実形
100
AcDbCircle
 10
898.7909754761076
 20
106.7445103831351
 30
0.0
 40
70.5
100
AcDbArc
 50
0.0
 51
90.0
  0
ARC
  5
118F
330
1149
100
AcDbEntity
  8
実形
100
AcDbCircle
 10
898.7909754761076
 20
106.7445103831351
 30
0.0
 40
70.5
100
AcDbArc
 50
270.0
 51
0.0
  0
ARC
  5
1190
330
1149
100
AcDbEntity
  8
実形
100
AcDbCircle
 10
861.7909754761075
 20
106.7445103831351
 30
0.0
 40
50.0
100
AcDbArc
 50
0.0
 51
90.0
  0
ARC
  5
1191
330
1149
100
AcDbEntity
  8
実形
100
AcDbCircle
 10
861.7909754761075
 20
106.7445103831351
 30
0.0
 40
50.0
100
AcDbArc
 50
270.0
 51
0.0
  0
LINE
  5
1192
330
1149
100
AcDbEntity
  8
実形
100
AcDbLine
 10
661.7909754761076
 20
106.7445103831351
 30
0.0
 11
661.7909754761076
 21
106.7445103831351
 31
0.0
  0
ARC
  5
1193
330
1149
100
AcDbEntity
  8
実形
100
AcDbCircle
 10
711.7909754761076
 20
106.7445103831351
 30
0.0
 40
50.0
100
AcDbArc
 50
180.0
 51
270.0
  0
ARC
  5
1194
330
1149
100
AcDbEntity
  8
実形
100
AcDbCircle
 10
711.7909754761076
 20
106.7445103831351
 30
0.0
 40
50.0
100
AcDbArc
 50
90.0
 51
180.0
  0
CIRCLE
  5
1195
330
1149
100
AcDbEntity
  8
実形
100
AcDbCircle
 10
626.7909754761076
 20
106.7445103831351
 30
0.0
 40
8.966055913162964
  0
LINE
  5
1196
330
1149
100
AcDbEntity
  8
実形
100
AcDbLine
 10
674.7909754761076
 20
31.24451038313509
 30
0.0
 11
898.7909754761076
 21
31.24451038313509
 31
0.0
  0
LINE
  5
1197
330
1149
100
AcDbEntity
  8
実形
100
AcDbLine
 10
898.7909754761076
 20
182.2445103831351
 30
0.0
 11
674.7909754761076
 21
182.2445103831351
 31
0.0
  0
LINE
  5
1198
330
1149
100
AcDbEntity
  8
実形
100
AcDbLine
 10
711.7909754761076
 20
56.7445103831351
 30
0.0
 11
861.7909754761075
 21
56.7445103831351
 31
0.0
  0
LINE
  5
1199
330
1149
100
AcDbEntity
  8
実形
100
AcDbLine
 10
861.7909754761075
 20
156.7445103831351
 30
0.0
 11
711.7909754761076
 21
156.7445103831351
 31
0.0
  0
LINE
  5
119A
330
1149
100
AcDbEntity
  8
実形
100
AcDbLine
 10
898.7909754761076
 20
177.2445103831351
 30
0.0
 11
674.7909754761076
 21
177.2445103831351
 31
0.0
  0
LINE
  5
119B
330
1149
100
AcDbEntity
  8
実形
100
AcDbLine
 10
674.7909754761076
 20
36.24451038313509
 30
0.0
 11
898.7909754761076
 21
36.24451038313509
 31
0.0
  0
LINE
  5
119C
330
1149
100
AcDbEntity
  8
実形
100
AcDbLine
 10
974.2909754761075
 20
106.7445103831351
 30
0.0
 11
974.2909754761075
 21
106.7445103831351
 31
0.0
  0
LINE
  5
119D
330
1149
100
AcDbEntity
  8
実形
100
AcDbLine
 10
911.7909754761075
 20
106.7445103831351
 30
0.0
 11
911.7909754761075
 21
106.7445103831351
 31
0.0
  0
CIRCLE
  5
119E
330
1149
100
AcDbEntity
  8
実形
100
AcDbCircle
 10
946.7909754761077
 20
106.7445103831351
 30
0.0
 40
8.966055913162964
  0
DIMENSION
  5
119F
330
1149
100
AcDbEntity
  8
寸法
100
AcDbDimension
  2
*D33
 10
1075.743988246699
 20
56.7445103831352
 30
0.0
 11
1056.993988246699
 21
106.7445103831356
 31
0.0
 12
-1537.018080944794
 22
-505.1394272221614
 32
0.0
  1
20
 71
     5
 42
100.0
  3
ISO-25
100
AcDbAlignedDimension
 13
974.2909754761075
 23
156.7445103831352
 33
0.0
 14
974.2909754761075
 24
56.7445103831352
 34
0.0
 50
90.0
100
AcDbRotatedDimension
1001
ACAD
1000
DSTYLE
1002
{
1070
   371
1070
    18
1070
   372
1070
    18
1002
}
  0
DIMENSION
  5
11A0
330
1149
100
AcDbEntity
  8
寸法
100
AcDbDimension
  2
*D34
 10
1121.71165353581
 20
31.24451038313521
 30
0.0
 11
1102.96165353581
 21
106.7445103831356
 31
0.0
 12
-1537.018080944794
 22
-505.1394272221614
 32
0.0
  1
31
 71
     5
 42
151.0
  3
ISO-25
100
AcDbAlignedDimension
 13
974.2909754761075
 23
182.2445103831352
 33
0.0
 14
974.2909754761075
 24
31.24451038313521
 34
0.0
 50
90.0
100
AcDbRotatedDimension
1001
ACAD
1000
DSTYLE
1002
{
1070
   371
1070
    18
1070
   372
1070
    18
1002
}
  0
TEXT
  5
11A1
330
1149
100
AcDbEntity
  8
0
100
AcDbText
 10
629.6237943654777
 20
464.8851222281264
 30
0.0
 40
30.0
  1
オーバーフロー詳細
100
AcDbText
  0
LINE
  5
11A2
330
1149
100
AcDbEntity
  8
実形
100
AcDbLine
 10
614.5510668437291
 20
453.58950389876
 30
0.0
 11
964.9920338169577
 21
453.58950389876
 31
0.0
  0
LINE
  5
11A3
330
1149
100
AcDbEntity
  8
実形
100
AcDbLine
 10
614.5510668437291
 20
446.5895038987601
 30
0.0
 11
964.9920338169577
 21
446.5895038987601
 31
0.0
  0
ENDBLK
  5
11A5
330
1149
100
AcDbEntity
  8
0
100
AcDbBlockEnd
  0
BLOCK
  5
11A7
330
11A6
100
AcDbEntity
  8
0
100
AcDbBlockBegin
  2
*D36
 70
     1
 10
0.0
 20
0.0
 30
0.0
  3
*D36
  1

  0
LINE
  5
11A8
330
11A6
100
AcDbEntity
  8
0
 62
     0
370
    15
100
AcDbLine
 10
1893.512425656321
 20
857.062606137153
 30
0.0
 11
1893.512425656321
 21
898.239547659331
 31
0.0
  0
LINE
  5
11A9
330
11A6
100
AcDbEntity
  8
0
 62
     0
370
    15
100
AcDbLine
 10
1723.512425656321
 20
857.062606137153
 30
0.0
 11
1723.512425656321
 21
898.239547659331
 31
0.0
  0
LINE
  5
11AA
330
11A6
100
AcDbEntity
  8
0
 62
     0
370
    15
100
AcDbLine
 10
1893.512425656321
 20
898.239547659331
 30
0.0
 11
1723.512425656321
 21
898.239547659331
 31
0.0
  0
INSERT
  5
11AB
330
11A6
100
AcDbEntity
  8
0
 62
     0
370
    15
100
AcDbBlockReference
  2
_DotSmall
 10
1893.512425656321
 20
898.239547659331
 30
0.0
 41
30.0
 42
30.0
 43
30.0
  0
INSERT
  5
11AC
330
11A6
100
AcDbEntity
  8
0
 62
     0
370
    15
100
AcDbBlockReference
  2
_DotSmall
 10
1723.512425656321
 20
898.239547659331
 30
0.0
 41
30.0
 42
30.0
 43
30.0
 50
180.0
  0
MTEXT
  5
11AD
330
11A6
100
AcDbEntity
  8
0
 62
     0
100
AcDbMText
 10
1808.512425656321
 20
916.989547659331
 30
0.0
 40
25.0
 41
0.0
 71
     5
 72
     1
  1
17
 73
     1
 44
1.0
1001
ACAD
1000
MTEXTBEGIN
1070
    73
1070
     1
1070
    44
1040
1.0
1070
    74
1070
     0
1000
MTEXTEND
  0
POINT
  5
11AE
330
11A6
100
AcDbEntity
  8
Defpoints
 62
     0
100
AcDbPoint
 10
1893.512425656321
 20
792.0626061371531
 30
0.0
  0
POINT
  5
11AF
330
11A6
100
AcDbEntity
  8
Defpoints
 62
     0
100
AcDbPoint
 10
1723.512425656321
 20
792.0626061371531
 30
0.0
  0
POINT
  5
11B0
330
11A6
100
AcDbEntity
  8
Defpoints
 62
     0
100
AcDbPoint
 10
1723.512425656321
 20
898.239547659331
 30
0.0
  0
ENDBLK
  5
11B1
330
11A6
100
AcDbEntity
  8
0
100
AcDbBlockEnd
  0
BLOCK
  5
11B3
330
11B2
100
AcDbEntity
  8
0
100
AcDbBlockBegin
  2
*D37
 70
     1
 10
0.0
 20
0.0
 30
0.0
  3
*D37
  1

  0
LINE
  5
11B4
330
11B2
100
AcDbEntity
  8
寸法
 62
     0
370
    15
100
AcDbLine
 10
1623.676615367452
 20
1386.36010153411
 30
0.0
 11
1623.676615367452
 21
1457.879312780413
 31
0.0
  0
LINE
  5
11B5
330
11B2
100
AcDbEntity
  8
寸法
 62
     0
370
    15
100
AcDbLine
 10
1673.676615367452
 20
1447.479690349655
 30
0.0
 11
1673.676615367452
 21
1457.879312780413
 31
0.0
  0
LINE
  5
11B6
330
11B2
100
AcDbEntity
  8
寸法
 62
     0
370
    18
100
AcDbLine
 10
1623.676615367452
 20
1457.879312780413
 30
0.0
 11
1673.676615367452
 21
1457.879312780413
 31
0.0
  0
MTEXT
  5
11B7
330
11B2
100
AcDbEntity
  8
寸法
 62
     0
100
AcDbMText
 10
1663.639139838013
 20
1487.724998541774
 30
0.0
 40
25.0
 41
0.0
 71
     5
 72
     1
  1
50
 73
     1
 44
1.0
1001
ACAD
1000
MTEXTBEGIN
1070
    73
1070
     1
1070
    44
1040
1.0
1070
    74
1070
     0
1000
MTEXTEND
  0
INSERT
  5
11B8
330
11B2
100
AcDbEntity
  8
寸法
 62
     0
370
    18
100
AcDbBlockReference
  2
_DotSmall
 10
1623.676615367452
 20
1457.879312780413
 30
0.0
 41
30.0
 42
30.0
 43
30.0
 50
180.0
  0
INSERT
  5
11B9
330
11B2
100
AcDbEntity
  8
寸法
 62
     0
370
    18
100
AcDbBlockReference
  2
_DotSmall
 10
1673.676615367452
 20
1457.879312780413
 30
0.0
 41
30.0
 42
30.0
 43
30.0
  0
POINT
  5
11BA
330
11B2
100
AcDbEntity
  8
Defpoints
 62
     0
100
AcDbPoint
 10
1623.676615367452
 20
1321.36010153411
 30
0.0
  0
POINT
  5
11BB
330
11B2
100
AcDbEntity
  8
Defpoints
 62
     0
100
AcDbPoint
 10
1673.676615367452
 20
1382.479690349655
 30
0.0
  0
POINT
  5
11BC
330
11B2
100
AcDbEntity
  8
Defpoints
 62
     0
100
AcDbPoint
 10
1673.676615367452
 20
1457.879312780413
 30
0.0
  0
ENDBLK
  5
11BD
330
11B2
100
AcDbEntity
  8
0
100
AcDbBlockEnd
  0
BLOCK
  5
11BF
330
11BE
100
AcDbEntity
  8
0
100
AcDbBlockBegin
  2
*D38
 70
     1
 10
0.0
 20
0.0
 30
0.0
  3
*D38
  1

  0
LINE
  5
11C0
330
11BE
100
AcDbEntity
  8
0
 62
     0
370
    15
100
AcDbLine
 10
1753.676615367453
 20
1358.86010153411
 30
0.0
 11
1908.871031503211
 21
1358.86010153411
 31
0.0
  0
LINE
  5
11C1
330
11BE
100
AcDbEntity
  8
0
 62
     0
370
    15
100
AcDbLine
 10
1848.676615367453
 20
1573.86010153411
 30
0.0
 11
1908.871031503211
 21
1573.86010153411
 31
0.0
  0
LINE
  5
11C2
330
11BE
100
AcDbEntity
  8
0
 62
     0
370
    15
100
AcDbLine
 10
1908.871031503211
 20
1358.86010153411
 30
0.0
 11
1908.871031503211
 21
1573.86010153411
 31
0.0
  0
INSERT
  5
11C3
330
11BE
100
AcDbEntity
  8
0
 62
     0
370
    15
100
AcDbBlockReference
  2
_DotSmall
 10
1908.871031503211
 20
1358.86010153411
 30
0.0
 41
30.0
 42
30.0
 43
30.0
 50
270.0
  0
INSERT
  5
11C4
330
11BE
100
AcDbEntity
  8
0
 62
     0
370
    15
100
AcDbBlockReference
  2
_DotSmall
 10
1908.871031503211
 20
1573.86010153411
 30
0.0
 41
30.0
 42
30.0
 43
30.0
 50
90.0
  0
MTEXT
  5
11C5
330
11BE
100
AcDbEntity
  8
0
 62
     0
100
AcDbMText
 10
1890.121031503211
 20
1466.36010153411
 30
0.0
 40
25.0
 41
0.0
 71
     5
 72
     1
  1
215
 11
0.0000000000000001
 21
1.0
 31
0.0
 73
     1
 44
1.0
1001
ACAD
1000
MTEXTBEGIN
1070
    73
1070
     1
1070
    44
1040
1.0
1070
    74
1070
     0
1000
MTEXTEND
  0
POINT
  5
11C6
330
11BE
100
AcDbEntity
  8
Defpoints
 62
     0
100
AcDbPoint
 10
1688.676615367452
 20
1358.86010153411
 30
0.0
  0
POINT
  5
11C7
330
11BE
100
AcDbEntity
  8
Defpoints
 62
     0
100
AcDbPoint
 10
1783.676615367453
 20
1573.86010153411
 30
0.0
  0
POINT
  5
11C8
330
11BE
100
AcDbEntity
  8
Defpoints
 62
     0
100
AcDbPoint
 10
1908.871031503211
 20
1573.86010153411
 30
0.0
  0
ENDBLK
  5
11C9
330
11BE
100
AcDbEntity
  8
0
100
AcDbBlockEnd
  0
BLOCK
  5
11CB
330
11CA
100
AcDbEntity
  8
0
100
AcDbBlockBegin
  2
*D39
 70
     1
 10
0.0
 20
0.0
 30
0.0
  3
*D39
  1

  0
LINE
  5
11CC
330
11CA
100
AcDbEntity
  8
寸法
 62
     0
370
    18
100
AcDbLine
 10
2198.809056420901
 20
726.8839376052966
 30
0.0
 11
2198.809056420901
 21
760.7678348786058
 31
0.0
  0
LINE
  5
11CD
330
11CA
100
AcDbEntity
  8
寸法
 62
     0
370
    18
100
AcDbLine
 10
2448.809056420902
 20
726.8839376052966
 30
0.0
 11
2448.809056420902
 21
760.7678348786058
 31
0.0
  0
LINE
  5
11CE
330
11CA
100
AcDbEntity
  8
寸法
 62
     0
370
    18
100
AcDbLine
 10
2198.809056420901
 20
760.7678348786058
 30
0.0
 11
2448.809056420902
 21
760.7678348786058
 31
0.0
  0
INSERT
  5
11CF
330
11CA
100
AcDbEntity
  8
寸法
 62
     0
370
    18
100
AcDbBlockReference
  2
_DotSmall
 10
2198.809056420901
 20
760.7678348786058
 30
0.0
 41
30.0
 42
30.0
 43
30.0
 50
180.0
  0
INSERT
  5
11D0
330
11CA
100
AcDbEntity
  8
寸法
 62
     0
370
    18
100
AcDbBlockReference
  2
_DotSmall
 10
2448.809056420902
 20
760.7678348786058
 30
0.0
 41
30.0
 42
30.0
 43
30.0
  0
MTEXT
  5
11D1
330
11CA
100
AcDbEntity
  8
寸法
 62
     0
100
AcDbMText
 10
2323.809056420901
 20
779.5178348786058
 30
0.0
 40
25.0
 41
0.0
 71
     5
 72
     1
  1
50
 73
     1
 44
1.0
1001
ACAD
1000
MTEXTBEGIN
1070
    73
1070
     1
1070
    44
1040
1.0
1070
    74
1070
     0
1000
MTEXTEND
  0
POINT
  5
11D2
330
11CA
100
AcDbEntity
  8
Defpoints
 62
     0
100
AcDbPoint
 10
2198.809056420901
 20
661.8839376052966
 30
0.0
  0
POINT
  5
11D3
330
11CA
100
AcDbEntity
  8
Defpoints
 62
     0
100
AcDbPoint
 10
2448.809056420902
 20
661.8839376052966
 30
0.0
  0
POINT
  5
11D4
330
11CA
100
AcDbEntity
  8
Defpoints
 62
     0
100
AcDbPoint
 10
2448.809056420902
 20
760.7678348786058
 30
0.0
  0
ENDBLK
  5
11D5
330
11CA
100
AcDbEntity
  8
0
100
AcDbBlockEnd
  0
BLOCK
  5
11D7
330
11D6
100
AcDbEntity
  8
0
100
AcDbBlockBegin
  2
*D40
 70
     1
 10
0.0
 20
0.0
 30
0.0
  3
*D40
  1

  0
LINE
  5
11D8
330
11D6
100
AcDbEntity
  8
寸法
 62
     0
370
    18
100
AcDbLine
 10
2483.809056420902
 20
726.8839376052966
 30
0.0
 11
2483.809056420902
 21
811.8026743438869
 31
0.0
  0
LINE
  5
11D9
330
11D6
100
AcDbEntity
  8
寸法
 62
     0
370
    18
100
AcDbLine
 10
2163.809056420902
 20
726.8839376052966
 30
0.0
 11
2163.809056420902
 21
811.8026743438869
 31
0.0
  0
LINE
  5
11DA
330
11D6
100
AcDbEntity
  8
寸法
 62
     0
370
    18
100
AcDbLine
 10
2483.809056420902
 20
811.8026743438869
 30
0.0
 11
2163.809056420902
 21
811.8026743438869
 31
0.0
  0
INSERT
  5
11DB
330
11D6
100
AcDbEntity
  8
寸法
 62
     0
370
    18
100
AcDbBlockReference
  2
_DotSmall
 10
2483.809056420902
 20
811.8026743438869
 30
0.0
 41
30.0
 42
30.0
 43
30.0
  0
INSERT
  5
11DC
330
11D6
100
AcDbEntity
  8
寸法
 62
     0
370
    18
100
AcDbBlockReference
  2
_DotSmall
 10
2163.809056420902
 20
811.8026743438869
 30
0.0
 41
30.0
 42
30.0
 43
30.0
 50
180.0
  0
MTEXT
  5
11DD
330
11D6
100
AcDbEntity
  8
寸法
 62
     0
100
AcDbMText
 10
2323.809056420901
 20
830.5526743438869
 30
0.0
 40
25.0
 41
0.0
 71
     5
 72
     1
  1
64
 73
     1
 44
1.0
1001
ACAD
1000
MTEXTBEGIN
1070
    73
1070
     1
1070
    44
1040
1.0
1070
    74
1070
     0
1000
MTEXTEND
  0
POINT
  5
11DE
330
11D6
100
AcDbEntity
  8
Defpoints
 62
     0
100
AcDbPoint
 10
2483.809056420902
 20
661.8839376052966
 30
0.0
  0
POINT
  5
11DF
330
11D6
100
AcDbEntity
  8
Defpoints
 62
     0
100
AcDbPoint
 10
2163.809056420902
 20
661.8839376052966
 30
0.0
  0
POINT
  5
11E0
330
11D6
100
AcDbEntity
  8
Defpoints
 62
     0
100
AcDbPoint
 10
2163.809056420902
 20
811.8026743438869
 30
0.0
  0
ENDBLK
  5
11E1
330
11D6
100
AcDbEntity
  8
0
100
AcDbBlockEnd
  0
BLOCK
  5
11E3
330
11E2
100
AcDbEntity
  8
0
100
AcDbBlockBegin
  2
*D41
 70
     1
 10
0.0
 20
0.0
 30
0.0
  3
*D41
  1

  0
LINE
  5
11E4
330
11E2
100
AcDbEntity
  8
寸法
 62
     0
370
    18
100
AcDbLine
 10
2136.309056420901
 20
726.8839376052966
 30
0.0
 11
2136.309056420901
 21
859.0099009682772
 31
0.0
  0
LINE
  5
11E5
330
11E2
100
AcDbEntity
  8
寸法
 62
     0
370
    18
100
AcDbLine
 10
2511.309056420902
 20
726.8839376052966
 30
0.0
 11
2511.309056420902
 21
859.0099009682772
 31
0.0
  0
LINE
  5
11E6
330
11E2
100
AcDbEntity
  8
寸法
 62
     0
370
    18
100
AcDbLine
 10
2136.309056420901
 20
859.0099009682772
 30
0.0
 11
2511.309056420902
 21
859.0099009682772
 31
0.0
  0
INSERT
  5
11E7
330
11E2
100
AcDbEntity
  8
寸法
 62
     0
370
    18
100
AcDbBlockReference
  2
_DotSmall
 10
2136.309056420901
 20
859.0099009682772
 30
0.0
 41
30.0
 42
30.0
 43
30.0
 50
180.0
  0
INSERT
  5
11E8
330
11E2
100
AcDbEntity
  8
寸法
 62
     0
370
    18
100
AcDbBlockReference
  2
_DotSmall
 10
2511.309056420902
 20
859.0099009682772
 30
0.0
 41
30.0
 42
30.0
 43
30.0
  0
MTEXT
  5
11E9
330
11E2
100
AcDbEntity
  8
寸法
 62
     0
100
AcDbMText
 10
2323.809056420901
 20
877.7599009682772
 30
0.0
 40
25.0
 41
0.0
 71
     5
 72
     1
  1
75
 73
     1
 44
1.0
1001
ACAD
1000
MTEXTBEGIN
1070
    73
1070
     1
1070
    44
1040
1.0
1070
    74
1070
     0
1000
MTEXTEND
  0
POINT
  5
11EA
330
11E2
100
AcDbEntity
  8
Defpoints
 62
     0
100
AcDbPoint
 10
2136.309056420901
 20
661.8839376052966
 30
0.0
  0
POINT
  5
11EB
330
11E2
100
AcDbEntity
  8
Defpoints
 62
     0
100
AcDbPoint
 10
2511.309056420902
 20
661.8839376052966
 30
0.0
  0
POINT
  5
11EC
330
11E2
100
AcDbEntity
  8
Defpoints
 62
     0
100
AcDbPoint
 10
2511.309056420902
 20
859.0099009682772
 30
0.0
  0
ENDBLK
  5
11ED
330
11E2
100
AcDbEntity
  8
0
100
AcDbBlockEnd
  0
BLOCK
  5
11EF
330
11EE
100
AcDbEntity
  8
0
100
AcDbBlockBegin
  2
*D42
 70
     1
 10
0.0
 20
0.0
 30
0.0
  3
*D42
  1

  0
LINE
  5
11F0
330
11EE
100
AcDbEntity
  8
寸法
 62
     0
370
    18
100
AcDbLine
 10
2576.309056420902
 20
661.8839376052966
 30
0.0
 11
2612.762069191493
 21
661.8839376052966
 31
0.0
  0
LINE
  5
11F1
330
11EE
100
AcDbEntity
  8
寸法
 62
     0
370
    18
100
AcDbLine
 10
2576.309056420902
 20
561.8839376052966
 30
0.0
 11
2612.762069191493
 21
561.8839376052966
 31
0.0
  0
LINE
  5
11F2
330
11EE
100
AcDbEntity
  8
寸法
 62
     0
370
    18
100
AcDbLine
 10
2612.762069191493
 20
661.8839376052966
 30
0.0
 11
2612.762069191493
 21
561.8839376052966
 31
0.0
  0
INSERT
  5
11F3
330
11EE
100
AcDbEntity
  8
寸法
 62
     0
370
    18
100
AcDbBlockReference
  2
_DotSmall
 10
2612.762069191493
 20
661.8839376052966
 30
0.0
 41
30.0
 42
30.0
 43
30.0
 50
90.0
  0
INSERT
  5
11F4
330
11EE
100
AcDbEntity
  8
寸法
 62
     0
370
    18
100
AcDbBlockReference
  2
_DotSmall
 10
2612.762069191493
 20
561.8839376052966
 30
0.0
 41
30.0
 42
30.0
 43
30.0
 50
270.0
  0
MTEXT
  5
11F5
330
11EE
100
AcDbEntity
  8
寸法
 62
     0
100
AcDbMText
 10
2594.012069191494
 20
611.8839376052971
 30
0.0
 40
25.0
 41
0.0
 71
     5
 72
     1
  1
20
 11
0.0000000000000001
 21
1.0
 31
0.0
 73
     1
 44
1.0
1001
ACAD
1000
MTEXTBEGIN
1070
    73
1070
     1
1070
    44
1040
1.0
1070
    74
1070
     0
1000
MTEXTEND
  0
POINT
  5
11F6
330
11EE
100
AcDbEntity
  8
Defpoints
 62
     0
100
AcDbPoint
 10
2511.309056420902
 20
661.8839376052966
 30
0.0
  0
POINT
  5
11F7
330
11EE
100
AcDbEntity
  8
Defpoints
 62
     0
100
AcDbPoint
 10
2511.309056420902
 20
561.8839376052966
 30
0.0
  0
POINT
  5
11F8
330
11EE
100
AcDbEntity
  8
Defpoints
 62
     0
100
AcDbPoint
 10
2612.762069191493
 20
561.8839376052966
 30
0.0
  0
ENDBLK
  5
11F9
330
11EE
100
AcDbEntity
  8
0
100
AcDbBlockEnd
  0
BLOCK
  5
11FB
330
11FA
100
AcDbEntity
  8
0
100
AcDbBlockBegin
  2
*D43
 70
     1
 10
0.0
 20
0.0
 30
0.0
  3
*D43
  1

  0
LINE
  5
11FC
330
11FA
100
AcDbEntity
  8
寸法
 62
     0
370
    18
100
AcDbLine
 10
2576.309056420902
 20
687.3839376052966
 30
0.0
 11
2658.729734480604
 21
687.3839376052966
 31
0.0
  0
LINE
  5
11FD
330
11FA
100
AcDbEntity
  8
寸法
 62
     0
370
    18
100
AcDbLine
 10
2576.309056420902
 20
536.3839376052966
 30
0.0
 11
2658.729734480604
 21
536.3839376052966
 31
0.0
  0
LINE
  5
11FE
330
11FA
100
AcDbEntity
  8
寸法
 62
     0
370
    18
100
AcDbLine
 10
2658.729734480604
 20
687.3839376052966
 30
0.0
 11
2658.729734480604
 21
536.3839376052966
 31
0.0
  0
INSERT
  5
11FF
330
11FA
100
AcDbEntity
  8
寸法
 62
     0
370
    18
100
AcDbBlockReference
  2
_DotSmall
 10
2658.729734480604
 20
687.3839376052966
 30
0.0
 41
30.0
 42
30.0
 43
30.0
 50
90.0
  0
INSERT
  5
1200
330
11FA
100
AcDbEntity
  8
寸法
 62
     0
370
    18
100
AcDbBlockReference
  2
_DotSmall
 10
2658.729734480604
 20
536.3839376052966
 30
0.0
 41
30.0
 42
30.0
 43
30.0
 50
270.0
  0
MTEXT
  5
1201
330
11FA
100
AcDbEntity
  8
寸法
 62
     0
100
AcDbMText
 10
2639.979734480604
 20
611.8839376052971
 30
0.0
 40
25.0
 41
0.0
 71
     5
 72
     1
  1
31
 11
0.0000000000000001
 21
1.0
 31
0.0
 73
     1
 44
1.0
1001
ACAD
1000
MTEXTBEGIN
1070
    73
1070
     1
1070
    44
1040
1.0
1070
    74
1070
     0
1000
MTEXTEND
  0
POINT
  5
1202
330
11FA
100
AcDbEntity
  8
Defpoints
 62
     0
100
AcDbPoint
 10
2511.309056420902
 20
687.3839376052966
 30
0.0
  0
POINT
  5
1203
330
11FA
100
AcDbEntity
  8
Defpoints
 62
     0
100
AcDbPoint
 10
2511.309056420902
 20
536.3839376052966
 30
0.0
  0
POINT
  5
1204
330
11FA
100
AcDbEntity
  8
Defpoints
 62
     0
100
AcDbPoint
 10
2658.729734480604
 20
536.3839376052966
 30
0.0
  0
ENDBLK
  5
1205
330
11FA
100
AcDbEntity
  8
0
100
AcDbBlockEnd
  0
BLOCK
  5
1261
330
1206
100
AcDbEntity
  8
0
100
AcDbBlockBegin
  2
A$C53C5264F
 70
     0
 10
0.0
 20
0.0
 30
0.0
  3
A$C53C5264F
  1

  0
LINE
  5
1207
330
1206
100
AcDbEntity
  8
0
100
AcDbLine
 10
86.6585344226587
 20
1160.720674311948
 30
0.0
 11
86.65853442265847
 21
606.7206743119486
 31
0.0
  0
LINE
  5
1208
330
1206
100
AcDbEntity
  8
0
100
AcDbLine
 10
86.65853442265893
 20
1143.720674311949
 30
0.0
 11
246.6585344226591
 21
1143.720674311949
 31
0.0
  0
LINE
  5
1209
330
1206
100
AcDbEntity
  8
0
100
AcDbLine
 10
104.6585344226587
 20
1068.720674311949
 30
0.0
 11
246.6585344226591
 21
1068.720674311949
 31
0.0
  0
LINE
  5
120A
330
1206
100
AcDbEntity
  8
0
100
AcDbLine
 10
86.65853442265825
 20
623.7206743119481
 30
0.0
 11
98.65853442265825
 21
623.7206743119481
 31
0.0
  0
LINE
  5
120B
330
1206
100
AcDbEntity
  8
0
100
AcDbLine
 10
104.6585344226587
 20
638.7206743119482
 30
0.0
 11
237.8604468732315
 21
638.7206743119484
 31
0.0
  0
LINE
  5
120C
330
1206
100
AcDbEntity
  8
0
100
AcDbLine
 10
101.6585344226587
 20
635.7206743119482
 30
0.0
 11
101.6585344226582
 21
626.7206743119482
 31
0.0
  0
ARC
  5
120D
330
1206
100
AcDbEntity
  8
0
100
AcDbCircle
 10
98.65853442265825
 20
626.7206743119482
 30
0.0
 40
3.0
100
AcDbArc
 50
270.0
 51
0.0
  0
ARC
  5
120E
330
1206
100
AcDbEntity
  8
0
100
AcDbCircle
 10
104.6585344226587
 20
635.7206743119482
 30
0.0
 40
3.0
100
AcDbArc
 50
90.0
 51
180.0
  0
LINE
  5
120F
330
1206
100
AcDbEntity
  8
0
100
AcDbLine
 10
101.6585344226587
 20
1143.720674311949
 30
0.0
 11
101.6585344226587
 21
1071.720674311949
 31
0.0
  0
ARC
  5
1210
330
1206
100
AcDbEntity
  8
0
100
AcDbCircle
 10
104.6585344226587
 20
1071.720674311949
 30
0.0
 40
3.0
100
AcDbArc
 50
180.0
 51
270.0
  0
LINE
  5
1211
330
1206
100
AcDbEntity
  8
0
100
AcDbLine
 10
101.6585344226587
 20
1071.720674311949
 30
0.0
 11
101.6585344226582
 21
626.7206743119482
 31
0.0
  0
LINE
  5
1212
330
1206
100
AcDbEntity
  8
0
100
AcDbLine
 10
276.6585344226592
 20
1038.720674311949
 30
0.0
 11
276.6585344226587
 21
883.2206743119529
 31
0.0
  0
LINE
  5
1213
330
1206
100
AcDbEntity
  8
0
100
AcDbLine
 10
284.6585344226587
 20
1053.220674311948
 30
0.0
 11
284.6585344226587
 21
894.2206743119484
 31
0.0
  0
LINE
  5
1214
330
1206
100
AcDbEntity
  8
0
100
AcDbLine
 10
276.6585344226592
 20
1064.220674311948
 30
0.0
 11
284.6585344226592
 21
1053.220674311948
 31
0.0
  0
LINE
  5
1215
330
1206
100
AcDbEntity
  8
0
100
AcDbLine
 10
276.6585344226587
 20
883.2206743119487
 30
0.0
 11
284.6585344226592
 21
894.2206743119486
 31
0.0
  0
LINE
  5
1216
330
1206
100
AcDbEntity
  8
0
100
AcDbLine
 10
276.6585344226587
 20
883.220674311949
 30
0.0
 11
267.835386410502
 21
667.4947054147184
 31
0.0
  0
ARC
  5
1217
330
1206
100
AcDbEntity
  8
0
100
AcDbCircle
 10
246.6585344226591
 20
1113.720674311949
 30
0.0
 40
30.0
100
AcDbArc
 50
0.0
 51
90.0
  0
ARC
  5
1218
330
1206
100
AcDbEntity
  8
0
100
AcDbCircle
 10
237.8604468732315
 20
668.7206743119483
 30
0.0
 40
30.0
100
AcDbArc
 50
270.0
 51
357.6579196915294
  0
ARC
  5
1219
330
1206
100
AcDbEntity
  8
0
100
AcDbCircle
 10
246.6585344226591
 20
1038.720674311949
 30
0.0
 40
30.0
100
AcDbArc
 50
0.0
 51
90.0
  0
LINE
  5
121A
330
1206
100
AcDbEntity
  8
0
100
AcDbLine
 10
276.6585344226592
 20
1113.720674311949
 30
0.0
 11
276.6585344226592
 21
1038.720674311949
 31
0.0
  0
LINE
  5
121B
330
1206
100
AcDbEntity
  8
Cen
100
AcDbLine
 10
182.064704642451
 20
971.8456743119487
 30
0.0
 11
312.7191168777736
 21
971.8456743119487
 31
0.0
  0
LINE
  5
121C
330
1206
100
AcDbEntity
  8
0
100
AcDbLine
 10
34.47304776519923
 20
286.9231789149919
 30
0.0
 11
356.4943447115274
 21
286.9231789149917
 31
0.0
  0
LINE
  5
121D
330
1206
100
AcDbEntity
  8
0
100
AcDbLine
 10
186.4943447115274
 20
256.9231789149917
 30
0.0
 11
186.4943447115274
 21
112.2449820338515
 31
0.0
  0
DIMENSION
  5
121E
330
1206
100
AcDbEntity
  8
0
100
AcDbDimension
  2
*D36
 10
186.4943447115274
 20
393.1001204371696
 30
0.0
 11
271.4943447115274
 21
411.8501204371695
 31
0.0
 12
-1537.018080944794
 22
-505.1394272221614
 32
0.0
  1
17
 71
     5
 42
170.0
  3
ISO-25
100
AcDbAlignedDimension
 13
356.4943447115274
 23
286.9231789149917
 33
0.0
 14
186.4943447115274
 24
286.9231789149917
 34
0.0
100
AcDbRotatedDimension
  0
ARC
  5
121F
330
1206
100
AcDbEntity
  8
0
100
AcDbCircle
 10
216.4943447115275
 20
256.9231789149917
 30
0.0
 40
30.0
100
AcDbArc
 50
90.0
 51
180.0
  0
LINE
  5
1220
330
1206
100
AcDbEntity
  8
0
100
AcDbLine
 10
216.4943447115275
 20
276.9231789149917
 30
0.0
 11
356.4943447115274
 21
276.9231789149917
 31
0.0
  0
ARC
  5
1221
330
1206
100
AcDbEntity
  8
0
100
AcDbCircle
 10
216.4943447115275
 20
256.9231789149917
 30
0.0
 40
20.0
100
AcDbArc
 50
90.0
 51
180.0
  0
LINE
  5
1222
330
1206
100
AcDbEntity
  8
0
100
AcDbLine
 10
196.4943447115274
 20
256.9231789149917
 30
0.0
 11
196.4943447115274
 21
112.2449820338515
 31
0.0
  0
LINE
  5
1223
330
1206
100
AcDbEntity
  8
0
100
AcDbLine
 10
356.4943447115274
 20
286.9231789149917
 30
0.0
 11
356.4943447115274
 21
276.9231789149917
 31
0.0
  0
LEADER
  5
1224
330
1206
100
AcDbEntity
  8
Cen
100
AcDbLeader
  3
ISO-25
 40
25.0
 41
16.66666666666666
 76
     2
 10
195.9615168056352
 20
278.7956039791453
 30
0.0
 10
250.6505434132878
 20
210.2856696210992
 30
0.0
213
0.0
223
-12.5
233
0.0
1001
ACAD
1000
DSTYLE
1002
{
1070
    41
1040
25.0
1070
   147
1040
6.25
1070
    77
1070
     0
1070
   279
1070
     1
1002
}
  0
TEXT
  5
1225
330
1206
100
AcDbEntity
  8
0
100
AcDbText
 10
258.0334373128162
 20
186.0467640229617
 30
0.0
 40
25.0
  1
3R
100
AcDbText
  0
LEADER
  5
1226
330
1206
100
AcDbEntity
  8
Cen
100
AcDbLeader
  3
ISO-25
 40
25.0
 41
16.66666666666666
 76
     2
 10
103.1389814216954
 20
1069.13398556429
 30
0.0
 10
47.96605264992741
 20
1033.099711960988
 30
0.0
213
0.0
223
12.5
233
0.0
1001
ACAD
1000
DSTYLE
1002
{
1070
    41
1040
25.0
1070
   147
1040
6.25
1070
    77
1070
     0
1070
   279
1070
     1
1002
}
  0
LEADER
  5
1227
330
1206
100
AcDbEntity
  8
Cen
100
AcDbLeader
  3
ISO-25
 76
     2
 10
102.7490592843394
 20
638.0345249329131
 30
0.0
 10
158.545658333237
 20
594.1626074277273
 30
0.0
1001
ACAD
1000
DSTYLE
1002
{
1070
    41
1040
25.0
1070
   147
1040
6.25
1070
    77
1070
     0
1070
   279
1070
     1
1002
}
  0
TEXT
  5
1228
330
1206
100
AcDbEntity
  8
0
100
AcDbText
 10
162.4650499559602
 20
565.5966930593895
 30
0.0
 40
25.0
  1
3R
100
AcDbText
  0
LEADER
  5
1229
330
1206
100
AcDbEntity
  8
Cen
100
AcDbLeader
  3
ISO-25
 76
     2
 10
100.7036743991555
 20
624.525816121419
 30
0.0
 10
49.72494730147719
 20
660.5092486328175
 30
0.0
1001
ACAD
1000
DSTYLE
1002
{
1070
    41
1040
25.0
1070
   147
1040
6.25
1070
    77
1070
     0
1070
   279
1070
     1
1002
}
  0
TEXT
  5
122A
330
1206
100
AcDbEntity
  8
0
100
AcDbText
 10
2.692256162711601
 20
650.6033248722924
 30
0.0
 40
25.0
  1
3R
100
AcDbText
  0
TEXT
  5
122B
330
1206
100
AcDbEntity
  8
0
100
AcDbText
 10
-0.0000019823446564
 20
1000.320255779012
 30
0.0
 40
25.0
  1
3R
100
AcDbText
  0
LINE
  5
122C
330
1206
100
AcDbEntity
  8
0
100
AcDbLine
 10
34.473047765199
 20
136.9231789149917
 30
0.0
 11
156.4943447115274
 21
136.9231789149917
 31
0.0
  0
LINE
  5
122D
330
1206
100
AcDbEntity
  8
実形
100
AcDbLine
 10
186.4943447115274
 20
256.9231789149917
 30
0.0
 11
186.4943447115274
 21
166.9231789149917
 31
0.0
  0
ARC
  5
122E
330
1206
100
AcDbEntity
  8
実形
100
AcDbCircle
 10
156.4943447115274
 20
166.9231789149917
 30
0.0
 40
30.0
100
AcDbArc
 50
270.0
 51
0.0
  0
LINE
  5
122F
330
1206
100
AcDbEntity
  8
0
100
AcDbLine
 10
34.473047765199
 20
126.9231789149917
 30
0.0
 11
156.4943447115274
 21
126.9231789149917
 31
0.0
  0
ARC
  5
1230
330
1206
100
AcDbEntity
  8
実形
100
AcDbCircle
 10
156.4943447115274
 20
166.9231789149917
 30
0.0
 40
40.0
100
AcDbArc
 50
270.0
 51
318.5903778907278
  0
LEADER
  5
1231
330
1206
100
AcDbEntity
  8
Cen
100
AcDbLeader
  3
ISO-25
 40
25.0
 41
16.66666666666666
 76
     2
 10
171.0351093165407
 20
153.2667498236707
 30
0.0
 10
132.7082342252952
 20
194.1479561906403
 30
0.0
213
0.0
223
-12.5
233
0.0
1001
ACAD
1000
DSTYLE
1002
{
1070
    41
1040
25.0
1070
   147
1040
6.25
1070
    77
1070
     0
1070
   279
1070
     1
1002
}
  0
TEXT
  5
1232
330
1206
100
AcDbEntity
  8
0
100
AcDbText
 10
86.47714442422239
 20
204.0480727478029
 30
0.0
 40
25.0
  1
3R
100
AcDbText
  0
LINE
  5
1233
330
1206
100
AcDbEntity
  8
センター
 48
0.4
370
    15
100
AcDbLine
 10
136.6585344226587
 20
944.573624344474
 30
0.0
 11
136.6585344226587
 21
761.2426375990085
 31
0.0
  0
LINE
  5
1234
330
1206
100
AcDbEntity
  8
センター
 48
0.7
370
    15
100
AcDbLine
 10
35.23158534325649
 20
853.7206743119487
 30
0.0
 11
334.477983270308
 21
853.7206743119487
 31
0.0
  0
LINE
  5
1235
330
1206
100
AcDbEntity
  8
実形
100
AcDbLine
 10
121.6585344226587
 20
876.2206743119486
 30
0.0
 11
121.6585344226587
 21
831.2206743119483
 31
0.0
  0
LINE
  5
1236
330
1206
100
AcDbEntity
  8
実形
100
AcDbLine
 10
136.6585344226578
 20
816.2206743119483
 30
0.0
 11
136.6585344226587
 21
816.2206743119483
 31
0.0
  0
LINE
  5
1237
330
1206
100
AcDbEntity
  8
実形
100
AcDbLine
 10
151.6585344226587
 20
831.2206743119483
 30
0.0
 11
151.6585344226587
 21
876.2206743119486
 31
0.0
  0
LINE
  5
1238
330
1206
100
AcDbEntity
  8
実形
100
AcDbLine
 10
136.6585344226587
 20
891.2206743119487
 30
0.0
 11
136.6585344226587
 21
891.2206743119487
 31
0.0
  0
ARC
  5
1239
330
1206
100
AcDbEntity
  8
実形
100
AcDbCircle
 10
136.6585344226587
 20
876.2206743119486
 30
0.0
 40
15.0
100
AcDbArc
 50
0.0
 51
90.0
  0
ARC
  5
123A
330
1206
100
AcDbEntity
  8
実形
100
AcDbCircle
 10
136.6585344226587
 20
876.2206743119486
 30
0.0
 40
15.0
100
AcDbArc
 50
90.0
 51
180.0
  0
ARC
  5
123B
330
1206
100
AcDbEntity
  8
実形
100
AcDbCircle
 10
136.6585344226587
 20
831.2206743119483
 30
0.0
 40
15.0
100
AcDbArc
 50
270.0
 51
0.0
  0
ARC
  5
123C
330
1206
100
AcDbEntity
  8
実形
100
AcDbCircle
 10
136.6585344226587
 20
831.2206743119483
 30
0.0
 40
15.0
100
AcDbArc
 50
180.0
 51
270.0
  0
DIMENSION
  5
123D
330
1206
100
AcDbEntity
  8
寸法
100
AcDbDimension
  2
*D37
 10
136.6585344226587
 20
952.7398855582513
 30
0.0
 11
126.621058893219
 21
982.5855713196132
 31
0.0
 12
-1537.018080944794
 22
-505.1394272221614
 32
0.0
 70
   128
 71
     5
 42
50.0
  3
ISO-25
100
AcDbAlignedDimension
 13
86.6585344226587
 23
816.2206743119487
 33
0.0
 14
136.6585344226587
 24
877.3402631274937
 34
0.0
100
AcDbRotatedDimension
1001
ACAD
1000
DSTYLE
1002
{
1070
   279
1070
     2
1070
   371
1070
    18
1002
}
  0
DIMENSION
  5
123E
330
1206
100
AcDbEntity
  8
0
100
AcDbDimension
  2
*D38
 10
371.8529505584174
 20
1068.720674311949
 30
0.0
 11
353.102950558417
 21
961.2206743119488
 31
0.0
 12
-1537.018080944794
 22
-505.1394272221614
 32
0.0
 71
     5
 42
215.0
  3
ISO-25
100
AcDbAlignedDimension
 13
151.6585344226587
 23
853.7206743119487
 33
0.0
 14
246.6585344226591
 24
1068.720674311949
 34
0.0
 50
90.0
100
AcDbRotatedDimension
1001
ACAD
1000
DSTYLE
1002
{
1070
   279
1070
     1
1002
}
  0
LINE
  5
123F
330
1206
100
AcDbEntity
  8
センター
 48
0.5
100
AcDbLine
 10
786.7909754761076
 20
213.4890247620738
 30
0.0
 11
786.7909754761076
 21
-0.000003995803354
 31
0.0
  0
DIMENSION
  5
1240
330
1206
100
AcDbEntity
  8
寸法
100
AcDbDimension
  2
*D39
 10
911.7909754761075
 20
255.6284076564444
 30
0.0
 11
786.7909754761076
 21
274.3784076564444
 31
0.0
 12
-1537.018080944794
 22
-505.1394272221614
 32
0.0
  1
50
 71
     5
 42
250.0
  3
ISO-25
100
AcDbAlignedDimension
 13
661.7909754761076
 23
156.7445103831352
 33
0.0
 14
911.7909754761075
 24
156.7445103831352
 34
0.0
100
AcDbRotatedDimension
1001
ACAD
1000
DSTYLE
1002
{
1070
   371
1070
    18
1070
   372
1070
    18
1002
}
  0
DIMENSION
  5
1241
330
1206
100
AcDbEntity
  8
寸法
100
AcDbDimension
  2
*D40
 10
626.7909754761076
 20
306.6632471217255
 30
0.0
 11
786.7909754761076
 21
325.4132471217255
 31
0.0
 12
-1537.018080944794
 22
-505.1394272221614
 32
0.0
  1
64
 71
     5
 42
320.0
  3
ISO-25
100
AcDbAlignedDimension
 13
946.7909754761077
 23
156.7445103831352
 33
0.0
 14
626.7909754761076
 24
156.7445103831352
 34
0.0
100
AcDbRotatedDimension
1001
ACAD
1000
DSTYLE
1002
{
1070
   371
1070
    18
1070
   372
1070
    18
1002
}
  0
DIMENSION
  5
1242
330
1206
100
AcDbEntity
  8
寸法
100
AcDbDimension
  2
*D41
 10
974.2909754761075
 20
353.8704737461159
 30
0.0
 11
786.7909754761076
 21
372.6204737461159
 31
0.0
 12
-1537.018080944794
 22
-505.1394272221614
 32
0.0
  1
75
 71
     5
 42
375.0
  3
ISO-25
100
AcDbAlignedDimension
 13
599.2909754761076
 23
156.7445103831352
 33
0.0
 14
974.2909754761075
 24
156.7445103831352
 34
0.0
100
AcDbRotatedDimension
1001
ACAD
1000
DSTYLE
1002
{
1070
   371
1070
    18
1070
   372
1070
    18
1002
}
  0
ARC
  5
1243
330
1206
100
AcDbEntity
  8
実形
100
AcDbCircle
 10
674.7909754761076
 20
106.7445103831351
 30
0.0
 40
75.5
100
AcDbArc
 50
180.0
 51
270.0
  0
ARC
  5
1244
330
1206
100
AcDbEntity
  8
実形
100
AcDbCircle
 10
674.7909754761076
 20
106.7445103831351
 30
0.0
 40
75.5
100
AcDbArc
 50
90.0
 51
180.0
  0
ARC
  5
1245
330
1206
100
AcDbEntity
  8
実形
100
AcDbCircle
 10
674.7909754761076
 20
106.7445103831351
 30
0.0
 40
70.5
100
AcDbArc
 50
180.0
 51
270.0
  0
ARC
  5
1246
330
1206
100
AcDbEntity
  8
実形
100
AcDbCircle
 10
674.7909754761076
 20
106.7445103831351
 30
0.0
 40
70.5
100
AcDbArc
 50
90.0
 51
180.0
  0
LINE
  5
1247
330
1206
100
AcDbEntity
  8
センター
 48
0.5
100
AcDbLine
 10
575.9345067147278
 20
106.7445103831351
 30
0.0
 11
997.6474442374874
 21
106.7445103831351
 31
0.0
  0
LINE
  5
1248
330
1206
100
AcDbEntity
  8
実形
100
AcDbLine
 10
599.2909754761076
 20
106.7445103831351
 30
0.0
 11
599.2909754761076
 21
106.7445103831351
 31
0.0
  0
ARC
  5
1249
330
1206
100
AcDbEntity
  8
実形
100
AcDbCircle
 10
898.7909754761076
 20
106.7445103831351
 30
0.0
 40
75.5
100
AcDbArc
 50
0.0
 51
90.0
  0
ARC
  5
124A
330
1206
100
AcDbEntity
  8
実形
100
AcDbCircle
 10
898.7909754761076
 20
106.7445103831351
 30
0.0
 40
75.5
100
AcDbArc
 50
270.0
 51
0.0
  0
ARC
  5
124B
330
1206
100
AcDbEntity
  8
実形
100
AcDbCircle
 10
898.7909754761076
 20
106.7445103831351
 30
0.0
 40
70.5
100
AcDbArc
 50
0.0
 51
90.0
  0
ARC
  5
124C
330
1206
100
AcDbEntity
  8
実形
100
AcDbCircle
 10
898.7909754761076
 20
106.7445103831351
 30
0.0
 40
70.5
100
AcDbArc
 50
270.0
 51
0.0
  0
ARC
  5
124D
330
1206
100
AcDbEntity
  8
実形
100
AcDbCircle
 10
861.7909754761075
 20
106.7445103831351
 30
0.0
 40
50.0
100
AcDbArc
 50
0.0
 51
90.0
  0
ARC
  5
124E
330
1206
100
AcDbEntity
  8
実形
100
AcDbCircle
 10
861.7909754761075
 20
106.7445103831351
 30
0.0
 40
50.0
100
AcDbArc
 50
270.0
 51
0.0
  0
LINE
  5
124F
330
1206
100
AcDbEntity
  8
実形
100
AcDbLine
 10
661.7909754761076
 20
106.7445103831351
 30
0.0
 11
661.7909754761076
 21
106.7445103831351
 31
0.0
  0
ARC
  5
1250
330
1206
100
AcDbEntity
  8
実形
100
AcDbCircle
 10
711.7909754761076
 20
106.7445103831351
 30
0.0
 40
50.0
100
AcDbArc
 50
180.0
 51
270.0
  0
ARC
  5
1251
330
1206
100
AcDbEntity
  8
実形
100
AcDbCircle
 10
711.7909754761076
 20
106.7445103831351
 30
0.0
 40
50.0
100
AcDbArc
 50
90.0
 51
180.0
  0
CIRCLE
  5
1252
330
1206
100
AcDbEntity
  8
実形
100
AcDbCircle
 10
626.7909754761076
 20
106.7445103831351
 30
0.0
 40
8.966055913162964
  0
LINE
  5
1253
330
1206
100
AcDbEntity
  8
実形
100
AcDbLine
 10
674.7909754761076
 20
31.24451038313509
 30
0.0
 11
898.7909754761076
 21
31.24451038313509
 31
0.0
  0
LINE
  5
1254
330
1206
100
AcDbEntity
  8
実形
100
AcDbLine
 10
898.7909754761076
 20
182.2445103831351
 30
0.0
 11
674.7909754761076
 21
182.2445103831351
 31
0.0
  0
LINE
  5
1255
330
1206
100
AcDbEntity
  8
実形
100
AcDbLine
 10
711.7909754761076
 20
56.7445103831351
 30
0.0
 11
861.7909754761075
 21
56.7445103831351
 31
0.0
  0
LINE
  5
1256
330
1206
100
AcDbEntity
  8
実形
100
AcDbLine
 10
861.7909754761075
 20
156.7445103831351
 30
0.0
 11
711.7909754761076
 21
156.7445103831351
 31
0.0
  0
LINE
  5
1257
330
1206
100
AcDbEntity
  8
実形
100
AcDbLine
 10
898.7909754761076
 20
177.2445103831351
 30
0.0
 11
674.7909754761076
 21
177.2445103831351
 31
0.0
  0
LINE
  5
1258
330
1206
100
AcDbEntity
  8
実形
100
AcDbLine
 10
674.7909754761076
 20
36.24451038313509
 30
0.0
 11
898.7909754761076
 21
36.24451038313509
 31
0.0
  0
LINE
  5
1259
330
1206
100
AcDbEntity
  8
実形
100
AcDbLine
 10
974.2909754761075
 20
106.7445103831351
 30
0.0
 11
974.2909754761075
 21
106.7445103831351
 31
0.0
  0
LINE
  5
125A
330
1206
100
AcDbEntity
  8
実形
100
AcDbLine
 10
911.7909754761075
 20
106.7445103831351
 30
0.0
 11
911.7909754761075
 21
106.7445103831351
 31
0.0
  0
CIRCLE
  5
125B
330
1206
100
AcDbEntity
  8
実形
100
AcDbCircle
 10
946.7909754761077
 20
106.7445103831351
 30
0.0
 40
8.966055913162964
  0
DIMENSION
  5
125C
330
1206
100
AcDbEntity
  8
寸法
100
AcDbDimension
  2
*D42
 10
1075.743988246699
 20
56.7445103831352
 30
0.0
 11
1056.993988246699
 21
106.7445103831356
 31
0.0
 12
-1537.018080944794
 22
-505.1394272221614
 32
0.0
  1
20
 71
     5
 42
100.0
  3
ISO-25
100
AcDbAlignedDimension
 13
974.2909754761075
 23
156.7445103831352
 33
0.0
 14
974.2909754761075
 24
56.7445103831352
 34
0.0
 50
90.0
100
AcDbRotatedDimension
1001
ACAD
1000
DSTYLE
1002
{
1070
   371
1070
    18
1070
   372
1070
    18
1002
}
  0
DIMENSION
  5
125D
330
1206
100
AcDbEntity
  8
寸法
100
AcDbDimension
  2
*D43
 10
1121.71165353581
 20
31.24451038313521
 30
0.0
 11
1102.96165353581
 21
106.7445103831356
 31
0.0
 12
-1537.018080944794
 22
-505.1394272221614
 32
0.0
  1
31
 71
     5
 42
151.0
  3
ISO-25
100
AcDbAlignedDimension
 13
974.2909754761075
 23
182.2445103831352
 33
0.0
 14
974.2909754761075
 24
31.24451038313521
 34
0.0
 50
90.0
100
AcDbRotatedDimension
1001
ACAD
1000
DSTYLE
1002
{
1070
   371
1070
    18
1070
   372
1070
    18
1002
}
  0
TEXT
  5
125E
330
1206
100
AcDbEntity
  8
0
100
AcDbText
 10
629.6237943654777
 20
464.8851222281264
 30
0.0
 40
30.0
  1
オーバーフロー詳細
100
AcDbText
  0
LINE
  5
125F
330
1206
100
AcDbEntity
  8
実形
100
AcDbLine
 10
614.5510668437291
 20
453.58950389876
 30
0.0
 11
964.9920338169577
 21
453.58950389876
 31
0.0
  0
LINE
  5
1260
330
1206
100
AcDbEntity
  8
実形
100
AcDbLine
 10
614.5510668437291
 20
446.5895038987601
 30
0.0
 11
964.9920338169577
 21
446.5895038987601
 31
0.0
  0
ENDBLK
  5
1262
330
1206
100
AcDbEntity
  8
0
100
AcDbBlockEnd
  0
BLOCK
  5
14CE
330
14C4
100
AcDbEntity
  8
0
100
AcDbBlockBegin
  2
*D45
 70
     1
 10
0.0
 20
0.0
 30
0.0
  3
*D45
  1

  0
LINE
  5
1B91
330
14C4
100
AcDbEntity
  8
0
 62
     0
370
    15
100
AcDbLine
 10
1998.282654517615
 20
778.6400588455417
 30
0.0
 11
1998.282654517615
 21
819.8170003677196
 31
0.0
  0
LINE
  5
1B92
330
14C4
100
AcDbEntity
  8
0
 62
     0
370
    15
100
AcDbLine
 10
1828.282654517615
 20
778.6400588455417
 30
0.0
 11
1828.282654517615
 21
819.8170003677196
 31
0.0
  0
LINE
  5
1B93
330
14C4
100
AcDbEntity
  8
0
 62
     0
370
    15
100
AcDbLine
 10
1998.282654517615
 20
819.8170003677196
 30
0.0
 11
1828.282654517615
 21
819.8170003677196
 31
0.0
  0
INSERT
  5
1B94
330
14C4
100
AcDbEntity
  8
0
 62
     0
370
    15
100
AcDbBlockReference
  2
_DotSmall
 10
1998.282654517615
 20
819.8170003677196
 30
0.0
 41
30.0
 42
30.0
 43
30.0
  0
INSERT
  5
1B95
330
14C4
100
AcDbEntity
  8
0
 62
     0
370
    15
100
AcDbBlockReference
  2
_DotSmall
 10
1828.282654517615
 20
819.8170003677196
 30
0.0
 41
30.0
 42
30.0
 43
30.0
 50
180.0
  0
MTEXT
  5
1B96
330
14C4
100
AcDbEntity
  8
0
 62
     0
100
AcDbMText
 10
1913.282654517615
 20
838.5670003677196
 30
0.0
 40
25.0
 41
0.0
 71
     5
 72
     1
  1
17
 73
     1
 44
1.0
1001
ACAD
1000
MTEXTBEGIN
1070
    73
1070
     1
1070
    44
1040
1.0
1070
    74
1070
     0
1000
MTEXTEND
  0
POINT
  5
1B97
330
14C4
100
AcDbEntity
  8
Defpoints
 62
     0
100
AcDbPoint
 10
1998.282654517615
 20
713.6400588455416
 30
0.0
  0
POINT
  5
1B98
330
14C4
100
AcDbEntity
  8
Defpoints
 62
     0
100
AcDbPoint
 10
1828.282654517615
 20
713.6400588455416
 30
0.0
  0
POINT
  5
1B99
330
14C4
100
AcDbEntity
  8
Defpoints
 62
     0
100
AcDbPoint
 10
1828.282654517615
 20
819.8170003677196
 30
0.0
  0
ENDBLK
  5
14CF
330
14C4
100
AcDbEntity
  8
0
100
AcDbBlockEnd
  0
BLOCK
  5
14DA
330
14D0
100
AcDbEntity
  8
0
100
AcDbBlockBegin
  2
*D46
 70
     1
 10
0.0
 20
0.0
 30
0.0
  3
*D46
  1

  0
LINE
  5
1B9A
330
14D0
100
AcDbEntity
  8
寸法
 62
     0
370
    15
100
AcDbLine
 10
1728.446844228746
 20
1307.937554242499
 30
0.0
 11
1728.446844228746
 21
1379.456765488801
 31
0.0
  0
LINE
  5
1B9B
330
14D0
100
AcDbEntity
  8
寸法
 62
     0
370
    15
100
AcDbLine
 10
1778.446844228746
 20
1369.057143058044
 30
0.0
 11
1778.446844228746
 21
1379.456765488801
 31
0.0
  0
LINE
  5
1B9C
330
14D0
100
AcDbEntity
  8
寸法
 62
     0
370
    18
100
AcDbLine
 10
1728.446844228746
 20
1379.456765488801
 30
0.0
 11
1778.446844228746
 21
1379.456765488801
 31
0.0
  0
MTEXT
  5
1B9D
330
14D0
100
AcDbEntity
  8
寸法
 62
     0
100
AcDbMText
 10
1768.409368699306
 20
1409.302451250163
 30
0.0
 40
25.0
 41
0.0
 71
     5
 72
     1
  1
50
 73
     1
 44
1.0
1001
ACAD
1000
MTEXTBEGIN
1070
    73
1070
     1
1070
    44
1040
1.0
1070
    74
1070
     0
1000
MTEXTEND
  0
INSERT
  5
1B9E
330
14D0
100
AcDbEntity
  8
寸法
 62
     0
370
    18
100
AcDbBlockReference
  2
_DotSmall
 10
1728.446844228746
 20
1379.456765488801
 30
0.0
 41
30.0
 42
30.0
 43
30.0
 50
180.0
  0
INSERT
  5
1B9F
330
14D0
100
AcDbEntity
  8
寸法
 62
     0
370
    18
100
AcDbBlockReference
  2
_DotSmall
 10
1778.446844228746
 20
1379.456765488801
 30
0.0
 41
30.0
 42
30.0
 43
30.0
  0
POINT
  5
1BA0
330
14D0
100
AcDbEntity
  8
Defpoints
 62
     0
100
AcDbPoint
 10
1728.446844228746
 20
1242.937554242498
 30
0.0
  0
POINT
  5
1BA1
330
14D0
100
AcDbEntity
  8
Defpoints
 62
     0
100
AcDbPoint
 10
1778.446844228746
 20
1304.057143058044
 30
0.0
  0
POINT
  5
1BA2
330
14D0
100
AcDbEntity
  8
Defpoints
 62
     0
100
AcDbPoint
 10
1778.446844228746
 20
1379.456765488801
 30
0.0
  0
ENDBLK
  5
14DB
330
14D0
100
AcDbEntity
  8
0
100
AcDbBlockEnd
  0
BLOCK
  5
14E6
330
14DC
100
AcDbEntity
  8
0
100
AcDbBlockBegin
  2
*D47
 70
     1
 10
0.0
 20
0.0
 30
0.0
  3
*D47
  1

  0
LINE
  5
1BA3
330
14DC
100
AcDbEntity
  8
0
 62
     0
370
    15
100
AcDbLine
 10
1858.446844228746
 20
1280.437554242499
 30
0.0
 11
2013.641260364505
 21
1280.437554242499
 31
0.0
  0
LINE
  5
1BA4
330
14DC
100
AcDbEntity
  8
0
 62
     0
370
    15
100
AcDbLine
 10
1953.446844228746
 20
1495.437554242499
 30
0.0
 11
2013.641260364505
 21
1495.437554242499
 31
0.0
  0
LINE
  5
1BA5
330
14DC
100
AcDbEntity
  8
0
 62
     0
370
    15
100
AcDbLine
 10
2013.641260364505
 20
1280.437554242499
 30
0.0
 11
2013.641260364505
 21
1495.437554242499
 31
0.0
  0
INSERT
  5
1BA6
330
14DC
100
AcDbEntity
  8
0
 62
     0
370
    15
100
AcDbBlockReference
  2
_DotSmall
 10
2013.641260364505
 20
1280.437554242499
 30
0.0
 41
30.0
 42
30.0
 43
30.0
 50
270.0
  0
INSERT
  5
1BA7
330
14DC
100
AcDbEntity
  8
0
 62
     0
370
    15
100
AcDbBlockReference
  2
_DotSmall
 10
2013.641260364505
 20
1495.437554242499
 30
0.0
 41
30.0
 42
30.0
 43
30.0
 50
90.0
  0
MTEXT
  5
1BA8
330
14DC
100
AcDbEntity
  8
0
 62
     0
100
AcDbMText
 10
1994.891260364505
 20
1387.937554242499
 30
0.0
 40
25.0
 41
0.0
 71
     5
 72
     1
  1
215
 11
0.0000000000000001
 21
1.0
 31
0.0
 73
     1
 44
1.0
1001
ACAD
1000
MTEXTBEGIN
1070
    73
1070
     1
1070
    44
1040
1.0
1070
    74
1070
     0
1000
MTEXTEND
  0
POINT
  5
1BA9
330
14DC
100
AcDbEntity
  8
Defpoints
 62
     0
100
AcDbPoint
 10
1793.446844228746
 20
1280.437554242499
 30
0.0
  0
POINT
  5
1BAA
330
14DC
100
AcDbEntity
  8
Defpoints
 62
     0
100
AcDbPoint
 10
1888.446844228747
 20
1495.437554242499
 30
0.0
  0
POINT
  5
1BAB
330
14DC
100
AcDbEntity
  8
Defpoints
 62
     0
100
AcDbPoint
 10
2013.641260364505
 20
1495.437554242499
 30
0.0
  0
ENDBLK
  5
14E7
330
14DC
100
AcDbEntity
  8
0
100
AcDbBlockEnd
  0
BLOCK
  5
17FC
330
17F2
100
AcDbEntity
  8
0
100
AcDbBlockBegin
  2
*D48
 70
     1
 10
0.0
 20
0.0
 30
0.0
  3
*D48
  1

  0
LINE
  5
1BAC
330
17F2
100
AcDbEntity
  8
実形
 62
     0
370
    15
100
AcDbLine
 10
515.9236754825351
 20
1495.093561842788
 30
0.0
 11
447.7351071738121
 21
1495.093561842789
 31
0.0
  0
LINE
  5
1BAD
330
17F2
100
AcDbEntity
  8
実形
 62
     0
370
    15
100
AcDbLine
 10
515.9236754825351
 20
1280.093561842788
 30
0.0
 11
447.7351071738121
 21
1280.093561842788
 31
0.0
  0
LINE
  5
1BAE
330
17F2
100
AcDbEntity
  8
実形
 62
     0
370
    15
100
AcDbLine
 10
447.7351071738121
 20
1495.093561842789
 30
0.0
 11
447.7351071738121
 21
1280.093561842788
 31
0.0
  0
INSERT
  5
1BAF
330
17F2
100
AcDbEntity
  8
実形
 62
     0
370
    15
100
AcDbBlockReference
  2
_DotSmall
 10
447.7351071738121
 20
1495.093561842789
 30
0.0
 41
30.0
 42
30.0
 43
30.0
 50
90.0
  0
INSERT
  5
1BB0
330
17F2
100
AcDbEntity
  8
実形
 62
     0
370
    15
100
AcDbBlockReference
  2
_DotSmall
 10
447.7351071738121
 20
1280.093561842788
 30
0.0
 41
30.0
 42
30.0
 43
30.0
 50
270.0
  0
MTEXT
  5
1BB1
330
17F2
100
AcDbEntity
  8
実形
 62
     0
100
AcDbMText
 10
428.9851071738119
 20
1387.593561842789
 30
0.0
 40
25.0
 41
0.0
 71
     5
 72
     1
  1
215
 11
0.0000000000000001
 21
1.0
 31
0.0
 73
     1
 44
1.0
1001
ACAD
1000
MTEXTBEGIN
1070
    73
1070
     1
1070
    44
1040
1.0
1070
    74
1070
     0
1000
MTEXTEND
  0
POINT
  5
1BB2
330
17F2
100
AcDbEntity
  8
Defpoints
 62
     0
100
AcDbPoint
 10
580.9236754825351
 20
1495.093561842788
 30
0.0
  0
POINT
  5
1BB3
330
17F2
100
AcDbEntity
  8
Defpoints
 62
     0
100
AcDbPoint
 10
580.9236754825351
 20
1280.093561842788
 30
0.0
  0
POINT
  5
1BB4
330
17F2
100
AcDbEntity
  8
Defpoints
 62
     0
100
AcDbPoint
 10
447.7351071738121
 20
1280.093561842788
 30
0.0
  0
ENDBLK
  5
17FD
330
17F2
100
AcDbEntity
  8
0
100
AcDbBlockEnd
  0
BLOCK
  5
1D3D
330
1D33
100
AcDbEntity
  8
0
100
AcDbBlockBegin
  2
*D49
 70
     1
 10
0.0
 20
0.0
 30
0.0
  3
*D49
  1

  0
LINE
  5
1D87
330
1D33
100
AcDbEntity
  8
寸法
 62
     0
370
    18
100
AcDbLine
 10
2206.534691201232
 20
628.192790940043
 30
0.0
 11
2206.534691201232
 21
662.0766882133522
 31
0.0
  0
LINE
  5
1D88
330
1D33
100
AcDbEntity
  8
寸法
 62
     0
370
    18
100
AcDbLine
 10
2456.534691201232
 20
628.192790940043
 30
0.0
 11
2456.534691201232
 21
662.0766882133522
 31
0.0
  0
LINE
  5
1D89
330
1D33
100
AcDbEntity
  8
寸法
 62
     0
370
    18
100
AcDbLine
 10
2206.534691201232
 20
662.0766882133522
 30
0.0
 11
2456.534691201232
 21
662.0766882133522
 31
0.0
  0
INSERT
  5
1D8A
330
1D33
100
AcDbEntity
  8
寸法
 62
     0
370
    18
100
AcDbBlockReference
  2
_DotSmall
 10
2206.534691201232
 20
662.0766882133522
 30
0.0
 41
30.0
 42
30.0
 43
30.0
 50
180.0
  0
INSERT
  5
1D8B
330
1D33
100
AcDbEntity
  8
寸法
 62
     0
370
    18
100
AcDbBlockReference
  2
_DotSmall
 10
2456.534691201232
 20
662.0766882133522
 30
0.0
 41
30.0
 42
30.0
 43
30.0
  0
MTEXT
  5
1D8C
330
1D33
100
AcDbEntity
  8
寸法
 62
     0
100
AcDbMText
 10
2331.534691201232
 20
680.8266882133522
 30
0.0
 40
25.0
 41
0.0
 71
     5
 72
     1
  1
50
 73
     1
 44
1.0
1001
ACAD
1000
MTEXTBEGIN
1070
    73
1070
     1
1070
    44
1040
1.0
1070
    74
1070
     0
1000
MTEXTEND
  0
POINT
  5
1D8D
330
1D33
100
AcDbEntity
  8
Defpoints
 62
     0
100
AcDbPoint
 10
2206.534691201232
 20
563.1927909400429
 30
0.0
  0
POINT
  5
1D8E
330
1D33
100
AcDbEntity
  8
Defpoints
 62
     0
100
AcDbPoint
 10
2456.534691201232
 20
563.1927909400429
 30
0.0
  0
POINT
  5
1D8F
330
1D33
100
AcDbEntity
  8
Defpoints
 62
     0
100
AcDbPoint
 10
2456.534691201232
 20
662.0766882133522
 30
0.0
  0
ENDBLK
  5
1D3E
330
1D33
100
AcDbEntity
  8
0
100
AcDbBlockEnd
  0
BLOCK
  5
1D49
330
1D3F
100
AcDbEntity
  8
0
100
AcDbBlockBegin
  2
*D50
 70
     1
 10
0.0
 20
0.0
 30
0.0
  3
*D50
  1

  0
LINE
  5
1D90
330
1D3F
100
AcDbEntity
  8
寸法
 62
     0
370
    18
100
AcDbLine
 10
2491.534691201232
 20
628.192790940043
 30
0.0
 11
2491.534691201232
 21
713.1115276786332
 31
0.0
  0
LINE
  5
1D91
330
1D3F
100
AcDbEntity
  8
寸法
 62
     0
370
    18
100
AcDbLine
 10
2171.534691201232
 20
628.192790940043
 30
0.0
 11
2171.534691201232
 21
713.1115276786332
 31
0.0
  0
LINE
  5
1D92
330
1D3F
100
AcDbEntity
  8
寸法
 62
     0
370
    18
100
AcDbLine
 10
2491.534691201232
 20
713.1115276786332
 30
0.0
 11
2171.534691201232
 21
713.1115276786332
 31
0.0
  0
INSERT
  5
1D93
330
1D3F
100
AcDbEntity
  8
寸法
 62
     0
370
    18
100
AcDbBlockReference
  2
_DotSmall
 10
2491.534691201232
 20
713.1115276786332
 30
0.0
 41
30.0
 42
30.0
 43
30.0
  0
INSERT
  5
1D94
330
1D3F
100
AcDbEntity
  8
寸法
 62
     0
370
    18
100
AcDbBlockReference
  2
_DotSmall
 10
2171.534691201232
 20
713.1115276786332
 30
0.0
 41
30.0
 42
30.0
 43
30.0
 50
180.0
  0
MTEXT
  5
1D95
330
1D3F
100
AcDbEntity
  8
寸法
 62
     0
100
AcDbMText
 10
2331.534691201232
 20
731.8615276786332
 30
0.0
 40
25.0
 41
0.0
 71
     5
 72
     1
  1
64
 73
     1
 44
1.0
1001
ACAD
1000
MTEXTBEGIN
1070
    73
1070
     1
1070
    44
1040
1.0
1070
    74
1070
     0
1000
MTEXTEND
  0
POINT
  5
1D96
330
1D3F
100
AcDbEntity
  8
Defpoints
 62
     0
100
AcDbPoint
 10
2491.534691201232
 20
563.1927909400429
 30
0.0
  0
POINT
  5
1D97
330
1D3F
100
AcDbEntity
  8
Defpoints
 62
     0
100
AcDbPoint
 10
2171.534691201232
 20
563.1927909400429
 30
0.0
  0
POINT
  5
1D98
330
1D3F
100
AcDbEntity
  8
Defpoints
 62
     0
100
AcDbPoint
 10
2171.534691201232
 20
713.1115276786332
 30
0.0
  0
ENDBLK
  5
1D4A
330
1D3F
100
AcDbEntity
  8
0
100
AcDbBlockEnd
  0
BLOCK
  5
1D55
330
1D4B
100
AcDbEntity
  8
0
100
AcDbBlockBegin
  2
*D51
 70
     1
 10
0.0
 20
0.0
 30
0.0
  3
*D51
  1

  0
LINE
  5
1D99
330
1D4B
100
AcDbEntity
  8
寸法
 62
     0
370
    18
100
AcDbLine
 10
2584.034691201232
 20
563.1927909400429
 30
0.0
 11
2620.487703971824
 21
563.1927909400429
 31
0.0
  0
LINE
  5
1D9A
330
1D4B
100
AcDbEntity
  8
寸法
 62
     0
370
    18
100
AcDbLine
 10
2584.034691201232
 20
463.1927909400429
 30
0.0
 11
2620.487703971824
 21
463.1927909400429
 31
0.0
  0
LINE
  5
1D9B
330
1D4B
100
AcDbEntity
  8
寸法
 62
     0
370
    18
100
AcDbLine
 10
2620.487703971824
 20
563.1927909400429
 30
0.0
 11
2620.487703971824
 21
463.1927909400429
 31
0.0
  0
INSERT
  5
1D9C
330
1D4B
100
AcDbEntity
  8
寸法
 62
     0
370
    18
100
AcDbBlockReference
  2
_DotSmall
 10
2620.487703971824
 20
563.1927909400429
 30
0.0
 41
30.0
 42
30.0
 43
30.0
 50
90.0
  0
INSERT
  5
1D9D
330
1D4B
100
AcDbEntity
  8
寸法
 62
     0
370
    18
100
AcDbBlockReference
  2
_DotSmall
 10
2620.487703971824
 20
463.1927909400429
 30
0.0
 41
30.0
 42
30.0
 43
30.0
 50
270.0
  0
MTEXT
  5
1D9E
330
1D4B
100
AcDbEntity
  8
寸法
 62
     0
100
AcDbMText
 10
2601.737703971824
 20
513.1927909400434
 30
0.0
 40
25.0
 41
0.0
 71
     5
 72
     1
  1
20
 11
0.0000000000000001
 21
1.0
 31
0.0
 73
     1
 44
1.0
1001
ACAD
1000
MTEXTBEGIN
1070
    73
1070
     1
1070
    44
1040
1.0
1070
    74
1070
     0
1000
MTEXTEND
  0
POINT
  5
1D9F
330
1D4B
100
AcDbEntity
  8
Defpoints
 62
     0
100
AcDbPoint
 10
2519.034691201232
 20
563.1927909400429
 30
0.0
  0
POINT
  5
1DA0
330
1D4B
100
AcDbEntity
  8
Defpoints
 62
     0
100
AcDbPoint
 10
2519.034691201232
 20
463.1927909400429
 30
0.0
  0
POINT
  5
1DA1
330
1D4B
100
AcDbEntity
  8
Defpoints
 62
     0
100
AcDbPoint
 10
2620.487703971824
 20
463.1927909400429
 30
0.0
  0
ENDBLK
  5
1D56
330
1D4B
100
AcDbEntity
  8
0
100
AcDbBlockEnd
  0
BLOCK
  5
1D61
330
1D57
100
AcDbEntity
  8
0
100
AcDbBlockBegin
  2
*D52
 70
     1
 10
0.0
 20
0.0
 30
0.0
  3
*D52
  1

  0
LINE
  5
1DA2
330
1D57
100
AcDbEntity
  8
寸法
 62
     0
370
    18
100
AcDbLine
 10
2584.034691201232
 20
588.6927909400429
 30
0.0
 11
2708.450719295179
 21
588.6927909400429
 31
0.0
  0
LINE
  5
1DA3
330
1D57
100
AcDbEntity
  8
寸法
 62
     0
370
    18
100
AcDbLine
 10
2582.517120896033
 20
437.6927909400429
 30
0.0
 11
2708.450719295179
 21
437.6927909400428
 31
0.0
  0
LINE
  5
1DA4
330
1D57
100
AcDbEntity
  8
寸法
 62
     0
370
    18
100
AcDbLine
 10
2708.450719295179
 20
588.6927909400429
 30
0.0
 11
2708.450719295179
 21
437.6927909400428
 31
0.0
  0
INSERT
  5
1DA5
330
1D57
100
AcDbEntity
  8
寸法
 62
     0
370
    18
100
AcDbBlockReference
  2
_DotSmall
 10
2708.450719295179
 20
588.6927909400429
 30
0.0
 41
30.0
 42
30.0
 43
30.0
 50
90.0
  0
INSERT
  5
1DA6
330
1D57
100
AcDbEntity
  8
寸法
 62
     0
370
    18
100
AcDbBlockReference
  2
_DotSmall
 10
2708.450719295179
 20
437.6927909400428
 30
0.0
 41
30.0
 42
30.0
 43
30.0
 50
270.0
  0
MTEXT
  5
1DA7
330
1D57
100
AcDbEntity
  8
寸法
 62
     0
100
AcDbMText
 10
2689.700719295179
 20
513.1927909400434
 30
0.0
 40
25.0
 41
0.0
 71
     5
 72
     1
  1
35
 11
0.0000000000000001
 21
1.0
 31
0.0
 73
     1
 44
1.0
1001
ACAD
1000
MTEXTBEGIN
1070
    73
1070
     1
1070
    44
1040
1.0
1070
    74
1070
     0
1000
MTEXTEND
  0
POINT
  5
1DA8
330
1D57
100
AcDbEntity
  8
Defpoints
 62
     0
100
AcDbPoint
 10
2519.034691201232
 20
588.6927909400429
 30
0.0
  0
POINT
  5
1DA9
330
1D57
100
AcDbEntity
  8
Defpoints
 62
     0
100
AcDbPoint
 10
2517.517120896033
 20
437.6927909400429
 30
0.0
  0
POINT
  5
1DAA
330
1D57
100
AcDbEntity
  8
Defpoints
 62
     0
100
AcDbPoint
 10
2708.450719295179
 20
437.6927909400428
 30
0.0
  0
ENDBLK
  5
1D62
330
1D57
100
AcDbEntity
  8
0
100
AcDbBlockEnd
  0
BLOCK
  5
1D6D
330
1D63
100
AcDbEntity
  8
0
100
AcDbBlockBegin
  2
*D53
 70
     1
 10
0.0
 20
0.0
 30
0.0
  3
*D53
  1

  0
LINE
  5
1DAB
330
1D63
100
AcDbEntity
  8
実形
 62
     0
370
    15
100
AcDbLine
 10
2149.034691201232
 20
627.3107254207434
 30
0.0
 11
2149.034691201232
 21
760.3187543030236
 31
0.0
  0
LINE
  5
1DAC
330
1D63
100
AcDbEntity
  8
実形
 62
     0
370
    15
100
AcDbLine
 10
2514.034691201232
 20
627.3107254207434
 30
0.0
 11
2514.034691201232
 21
760.3187543030236
 31
0.0
  0
LINE
  5
1DAD
330
1D63
100
AcDbEntity
  8
実形
 62
     0
370
    15
100
AcDbLine
 10
2149.034691201232
 20
760.3187543030236
 30
0.0
 11
2514.034691201232
 21
760.3187543030236
 31
0.0
  0
INSERT
  5
1DAE
330
1D63
100
AcDbEntity
  8
実形
 62
     0
370
    15
100
AcDbBlockReference
  2
_DotSmall
 10
2149.034691201232
 20
760.3187543030236
 30
0.0
 41
30.0
 42
30.0
 43
30.0
 50
180.0
  0
INSERT
  5
1DAF
330
1D63
100
AcDbEntity
  8
実形
 62
     0
370
    15
100
AcDbBlockReference
  2
_DotSmall
 10
2514.034691201232
 20
760.3187543030236
 30
0.0
 41
30.0
 42
30.0
 43
30.0
  0
MTEXT
  5
1DB0
330
1D63
100
AcDbEntity
  8
実形
 62
     0
100
AcDbMText
 10
2331.534691201232
 20
779.0687543030236
 30
0.0
 40
25.0
 41
0.0
 71
     5
 72
     1
  1
75
 73
     1
 44
1.0
1001
ACAD
1000
MTEXTBEGIN
1070
    73
1070
     1
1070
    44
1040
1.0
1070
    74
1070
     0
1000
MTEXTEND
  0
POINT
  5
1DB1
330
1D63
100
AcDbEntity
  8
Defpoints
 62
     0
100
AcDbPoint
 10
2149.034691201232
 20
562.3107254207434
 30
0.0
  0
POINT
  5
1DB2
330
1D63
100
AcDbEntity
  8
Defpoints
 62
     0
100
AcDbPoint
 10
2514.034691201232
 20
562.3107254207434
 30
0.0
  0
POINT
  5
1DB3
330
1D63
100
AcDbEntity
  8
Defpoints
 62
     0
100
AcDbPoint
 10
2514.034691201232
 20
760.3187543030236
 30
0.0
  0
ENDBLK
  5
1D6E
330
1D63
100
AcDbEntity
  8
0
100
AcDbBlockEnd
  0
BLOCK
  5
1D79
330
1D6F
100
AcDbEntity
  8
0
100
AcDbBlockBegin
  2
*D54
 70
     1
 10
0.0
 20
0.0
 30
0.0
  3
*D54
  1

  0
LINE
  5
1DB4
330
1D6F
100
AcDbEntity
  8
実形
 62
     0
370
    15
100
AcDbLine
 10
2144.034691201232
 20
626.3450208309113
 30
0.0
 11
2144.034691201232
 21
810.4969804965586
 31
0.0
  0
LINE
  5
1DB5
330
1D6F
100
AcDbEntity
  8
実形
 62
     0
370
    15
100
AcDbLine
 10
2519.034691201232
 20
627.3403943819158
 30
0.0
 11
2519.034691201232
 21
810.4969804965586
 31
0.0
  0
LINE
  5
1DB6
330
1D6F
100
AcDbEntity
  8
実形
 62
     0
370
    15
100
AcDbLine
 10
2144.034691201232
 20
810.4969804965586
 30
0.0
 11
2519.034691201232
 21
810.4969804965586
 31
0.0
  0
INSERT
  5
1DB7
330
1D6F
100
AcDbEntity
  8
実形
 62
     0
370
    15
100
AcDbBlockReference
  2
_DotSmall
 10
2144.034691201232
 20
810.4969804965586
 30
0.0
 41
30.0
 42
30.0
 43
30.0
 50
180.0
  0
INSERT
  5
1DB8
330
1D6F
100
AcDbEntity
  8
実形
 62
     0
370
    15
100
AcDbBlockReference
  2
_DotSmall
 10
2519.034691201232
 20
810.4969804965586
 30
0.0
 41
30.0
 42
30.0
 43
30.0
  0
MTEXT
  5
1DB9
330
1D6F
100
AcDbEntity
  8
実形
 62
     0
100
AcDbMText
 10
2331.534691201232
 20
829.2469804965586
 30
0.0
 40
25.0
 41
0.0
 71
     5
 72
     1
  1
79
 73
     1
 44
1.0
1001
ACAD
1000
MTEXTBEGIN
1070
    73
1070
     1
1070
    44
1040
1.0
1070
    74
1070
     0
1000
MTEXTEND
  0
POINT
  5
1DBA
330
1D6F
100
AcDbEntity
  8
Defpoints
 62
     0
100
AcDbPoint
 10
2144.034691201232
 20
561.3450208309114
 30
0.0
  0
POINT
  5
1DBB
330
1D6F
100
AcDbEntity
  8
Defpoints
 62
     0
100
AcDbPoint
 10
2519.034691201232
 20
562.3403943819157
 30
0.0
  0
POINT
  5
1DBC
330
1D6F
100
AcDbEntity
  8
Defpoints
 62
     0
100
AcDbPoint
 10
2519.034691201232
 20
810.4969804965586
 30
0.0
  0
ENDBLK
  5
1D7A
330
1D6F
100
AcDbEntity
  8
0
100
AcDbBlockEnd
  0
BLOCK
  5
1D85
330
1D7B
100
AcDbEntity
  8
0
100
AcDbBlockBegin
  2
*D55
 70
     1
 10
0.0
 20
0.0
 30
0.0
  3
*D55
  1

  0
LINE
  5
1DBD
330
1D7B
100
AcDbEntity
  8
実形
 62
     0
370
    15
100
AcDbLine
 10
2584.604207466344
 20
583.6927909400428
 30
0.0
 11
2664.580369260935
 21
583.6927909400428
 31
0.0
  0
LINE
  5
1DBE
330
1D7B
100
AcDbEntity
  8
実形
 62
     0
370
    15
100
AcDbLine
 10
2582.218966597225
 20
442.6927909400428
 30
0.0
 11
2664.580369260935
 21
442.6927909400428
 31
0.0
  0
LINE
  5
1DBF
330
1D7B
100
AcDbEntity
  8
実形
 62
     0
370
    15
100
AcDbLine
 10
2664.580369260935
 20
583.6927909400428
 30
0.0
 11
2664.580369260935
 21
442.6927909400428
 31
0.0
  0
INSERT
  5
1DC0
330
1D7B
100
AcDbEntity
  8
実形
 62
     0
370
    15
100
AcDbBlockReference
  2
_DotSmall
 10
2664.580369260935
 20
583.6927909400428
 30
0.0
 41
30.0
 42
30.0
 43
30.0
 50
90.0
  0
INSERT
  5
1DC1
330
1D7B
100
AcDbEntity
  8
実形
 62
     0
370
    15
100
AcDbBlockReference
  2
_DotSmall
 10
2664.580369260935
 20
442.6927909400428
 30
0.0
 41
30.0
 42
30.0
 43
30.0
 50
270.0
  0
MTEXT
  5
1DC2
330
1D7B
100
AcDbEntity
  8
実形
 62
     0
100
AcDbMText
 10
2645.830369260935
 20
513.1927909400433
 30
0.0
 40
25.0
 41
0.0
 71
     5
 72
     1
  1
31
 11
0.0000000000000001
 21
1.0
 31
0.0
 73
     1
 44
1.0
1001
ACAD
1000
MTEXTBEGIN
1070
    73
1070
     1
1070
    44
1040
1.0
1070
    74
1070
     0
1000
MTEXTEND
  0
POINT
  5
1DC3
330
1D7B
100
AcDbEntity
  8
Defpoints
 62
     0
100
AcDbPoint
 10
2519.604207466344
 20
583.6927909400428
 30
0.0
  0
POINT
  5
1DC4
330
1D7B
100
AcDbEntity
  8
Defpoints
 62
     0
100
AcDbPoint
 10
2517.218966597225
 20
442.6927909400428
 30
0.0
  0
POINT
  5
1DC5
330
1D7B
100
AcDbEntity
  8
Defpoints
 62
     0
100
AcDbPoint
 10
2664.580369260935
 20
442.6927909400428
 30
0.0
  0
ENDBLK
  5
1D86
330
1D7B
100
AcDbEntity
  8
0
100
AcDbBlockEnd
  0
BLOCK
  5
1E54
330
1E4A
100
AcDbEntity
  8
0
100
AcDbBlockBegin
  2
*D56
 70
     1
 10
0.0
 20
0.0
 30
0.0
  3
*D56
  1

  0
LINE
  5
1E7A
330
1E4A
100
AcDbEntity
  8
実形
 62
     0
370
    15
100
AcDbLine
 10
532.9236754825354
 20
642.5263667117397
 30
0.0
 11
479.8030080261124
 21
642.5263667117397
 31
0.0
  0
LINE
  5
1E7B
330
1E4A
100
AcDbEntity
  8
実形
 62
     0
370
    15
100
AcDbLine
 10
532.9236754825355
 20
627.5263667117398
 30
0.0
 11
479.8030080261123
 21
627.5263667117398
 31
0.0
  0
LINE
  5
1E7C
330
1E4A
100
AcDbEntity
  8
実形
 62
     0
370
    15
100
AcDbLine
 10
479.8030080261124
 20
642.5263667117397
 30
0.0
 11
479.8030080261123
 21
627.5263667117398
 31
0.0
  0
MTEXT
  5
1E7D
330
1E4A
100
AcDbEntity
  8
実形
 62
     0
100
AcDbMText
 10
445.9055316149988
 20
675.8928637825411
 30
0.0
 40
25.0
 41
0.0
 71
     5
 72
     1
  1
15
 11
0.0000000000000001
 21
1.0
 31
0.0
 73
     1
 44
1.0
1001
ACAD
1000
MTEXTBEGIN
1070
    73
1070
     1
1070
    44
1040
1.0
1070
    74
1070
     0
1000
MTEXTEND
  0
INSERT
  5
1E7E
330
1E4A
100
AcDbEntity
  8
実形
 62
     0
370
    15
100
AcDbBlockReference
  2
_DotSmall
 10
479.8030080261124
 20
642.5263667117397
 30
0.0
 41
30.0
 42
30.0
 43
30.0
 50
90.0
  0
INSERT
  5
1E7F
330
1E4A
100
AcDbEntity
  8
実形
 62
     0
370
    15
100
AcDbBlockReference
  2
_DotSmall
 10
479.8030080261123
 20
627.5263667117398
 30
0.0
 41
30.0
 42
30.0
 43
30.0
 50
270.0
  0
POINT
  5
1E80
330
1E4A
100
AcDbEntity
  8
Defpoints
 62
     0
100
AcDbPoint
 10
597.9236754825353
 20
642.5263667117397
 30
0.0
  0
POINT
  5
1E81
330
1E4A
100
AcDbEntity
  8
Defpoints
 62
     0
100
AcDbPoint
 10
597.9236754825356
 20
627.5263667117398
 30
0.0
  0
POINT
  5
1E82
330
1E4A
100
AcDbEntity
  8
Defpoints
 62
     0
100
AcDbPoint
 10
479.8030080261123
 20
627.5263667117398
 30
0.0
  0
ENDBLK
  5
1E55
330
1E4A
100
AcDbEntity
  8
0
100
AcDbBlockEnd
  0
BLOCK
  5
1E60
330
1E56
100
AcDbEntity
  8
0
100
AcDbBlockBegin
  2
*D57
 70
     1
 10
0.0
 20
0.0
 30
0.0
  3
*D57
  1

  0
LINE
  5
1E83
330
1E56
100
AcDbEntity
  8
実形
 62
     0
370
    15
100
AcDbLine
 10
532.1057665653333
 20
472.5263667117397
 30
0.0
 11
479.8030080261123
 21
472.5263667117397
 31
0.0
  0
LINE
  5
1E84
330
1E56
100
AcDbEntity
  8
実形
 62
     0
370
    15
100
AcDbLine
 10
532.1057665653333
 20
452.5263667117398
 30
0.0
 11
479.8030080261123
 21
452.5263667117398
 31
0.0
  0
LINE
  5
1E85
330
1E56
100
AcDbEntity
  8
実形
 62
     0
370
    15
100
AcDbLine
 10
479.8030080261123
 20
472.5263667117397
 30
0.0
 11
479.8030080261123
 21
452.5263667117398
 31
0.0
  0
MTEXT
  5
1E86
330
1E56
100
AcDbEntity
  8
実形
 62
     0
100
AcDbMText
 10
446.3212248427171
 20
481.64971000061
 30
0.0
 40
25.0
 41
0.0
 71
     5
 72
     1
  1
20
 11
0.0000000000000001
 21
1.0
 31
0.0
 73
     1
 44
1.0
1001
ACAD
1000
MTEXTBEGIN
1070
    73
1070
     1
1070
    44
1040
1.0
1070
    74
1070
     0
1000
MTEXTEND
  0
INSERT
  5
1E87
330
1E56
100
AcDbEntity
  8
実形
 62
     0
370
    15
100
AcDbBlockReference
  2
_DotSmall
 10
479.8030080261123
 20
472.5263667117397
 30
0.0
 41
30.0
 42
30.0
 43
30.0
 50
90.0
  0
INSERT
  5
1E88
330
1E56
100
AcDbEntity
  8
実形
 62
     0
370
    15
100
AcDbBlockReference
  2
_DotSmall
 10
479.8030080261123
 20
452.5263667117398
 30
0.0
 41
30.0
 42
30.0
 43
30.0
 50
270.0
  0
POINT
  5
1E89
330
1E56
100
AcDbEntity
  8
Defpoints
 62
     0
100
AcDbPoint
 10
597.1057665653334
 20
472.5263667117397
 30
0.0
  0
POINT
  5
1E8A
330
1E56
100
AcDbEntity
  8
Defpoints
 62
     0
100
AcDbPoint
 10
597.1057665653334
 20
452.5263667117398
 30
0.0
  0
POINT
  5
1E8B
330
1E56
100
AcDbEntity
  8
Defpoints
 62
     0
100
AcDbPoint
 10
479.8030080261123
 20
452.5263667117398
 30
0.0
  0
ENDBLK
  5
1E61
330
1E56
100
AcDbEntity
  8
0
100
AcDbBlockEnd
  0
BLOCK
  5
1E6C
330
1E62
100
AcDbEntity
  8
0
100
AcDbBlockBegin
  2
*D58
 70
     1
 10
0.0
 20
0.0
 30
0.0
  3
*D58
  1

  0
LINE
  5
1E8C
330
1E62
100
AcDbEntity
  8
実形
 62
     0
370
    15
100
AcDbLine
 10
532.5051923162082
 20
442.5263667117397
 30
0.0
 11
479.8030080261123
 21
442.5263667117397
 31
0.0
  0
LINE
  5
1E8D
330
1E62
100
AcDbEntity
  8
実形
 62
     0
370
    15
100
AcDbLine
 10
503.7222641962452
 20
472.5263667117397
 30
0.0
 11
479.8030080261123
 21
472.5263667117397
 31
0.0
  0
LINE
  5
1E8E
330
1E62
100
AcDbEntity
  8
実形
 62
     0
370
    15
100
AcDbLine
 10
479.8030080261123
 20
442.5263667117397
 30
0.0
 11
479.8030080261123
 21
472.5263667117397
 31
0.0
  0
MTEXT
  5
1E8F
330
1E62
100
AcDbEntity
  8
実形
 62
     0
100
AcDbMText
 10
449.9995688280669
 20
428.3214551270821
 30
0.0
 40
25.0
 41
0.0
 71
     5
 72
     1
  1
7
 11
0.0000000000000001
 21
1.0
 31
0.0
 73
     1
 44
1.0
1001
ACAD
1000
MTEXTBEGIN
1070
    73
1070
     1
1070
    44
1040
1.0
1070
    74
1070
     0
1000
MTEXTEND
  0
INSERT
  5
1E90
330
1E62
100
AcDbEntity
  8
実形
 62
     0
370
    15
100
AcDbBlockReference
  2
_DotSmall
 10
479.8030080261123
 20
442.5263667117397
 30
0.0
 41
30.0
 42
30.0
 43
30.0
 50
270.0
  0
INSERT
  5
1E91
330
1E62
100
AcDbEntity
  8
実形
 62
     0
370
    15
100
AcDbBlockReference
  2
_DotSmall
 10
479.8030080261123
 20
472.5263667117397
 30
0.0
 41
30.0
 42
30.0
 43
30.0
 50
90.0
  0
POINT
  5
1E92
330
1E62
100
AcDbEntity
  8
Defpoints
 62
     0
100
AcDbPoint
 10
597.5051923162082
 20
442.5263667117397
 30
0.0
  0
POINT
  5
1E93
330
1E62
100
AcDbEntity
  8
Defpoints
 62
     0
100
AcDbPoint
 10
568.7222641962453
 20
472.5263667117397
 30
0.0
  0
POINT
  5
1E94
330
1E62
100
AcDbEntity
  8
Defpoints
 62
     0
100
AcDbPoint
 10
479.8030080261123
 20
472.5263667117397
 30
0.0
  0
ENDBLK
  5
1E6D
330
1E62
100
AcDbEntity
  8
0
100
AcDbBlockEnd
  0
BLOCK
  5
1E78
330
1E6E
100
AcDbEntity
  8
0
100
AcDbBlockBegin
  2
*D59
 70
     1
 10
0.0
 20
0.0
 30
0.0
  3
*D59
  1

  0
LINE
  5
1E95
330
1E6E
100
AcDbEntity
  8
実形
 62
     0
370
    15
100
AcDbLine
 10
497.547542153674
 20
642.5263667117397
 30
0.0
 11
393.2621095879259
 21
642.5263667117397
 31
0.0
  0
LINE
  5
1E96
330
1E6E
100
AcDbEntity
  8
実形
 62
     0
370
    15
100
AcDbLine
 10
497.5475421536739
 20
452.5263667117398
 30
0.0
 11
393.2621095879258
 21
452.5263667117398
 31
0.0
  0
LINE
  5
1E97
330
1E6E
100
AcDbEntity
  8
実形
 62
     0
370
    15
100
AcDbLine
 10
393.2621095879259
 20
642.5263667117397
 30
0.0
 11
393.2621095879258
 21
452.5263667117398
 31
0.0
  0
INSERT
  5
1E98
330
1E6E
100
AcDbEntity
  8
実形
 62
     0
370
    15
100
AcDbBlockReference
  2
_DotSmall
 10
393.2621095879259
 20
642.5263667117397
 30
0.0
 41
30.0
 42
30.0
 43
30.0
 50
90.0
  0
INSERT
  5
1E99
330
1E6E
100
AcDbEntity
  8
実形
 62
     0
370
    15
100
AcDbBlockReference
  2
_DotSmall
 10
393.2621095879258
 20
452.5263667117398
 30
0.0
 41
30.0
 42
30.0
 43
30.0
 50
270.0
  0
MTEXT
  5
1E9A
330
1E6E
100
AcDbEntity
  8
実形
 62
     0
100
AcDbMText
 10
374.5121095879258
 20
547.5263667117399
 30
0.0
 40
25.0
 41
0.0
 71
     5
 72
     1
  1
190
 11
0.0000000000000001
 21
1.0
 31
0.0
 73
     1
 44
1.0
1001
ACAD
1000
MTEXTBEGIN
1070
    73
1070
     1
1070
    44
1040
1.0
1070
    74
1070
     0
1000
MTEXTEND
  0
POINT
  5
1E9B
330
1E6E
100
AcDbEntity
  8
Defpoints
 62
     0
100
AcDbPoint
 10
562.5475421536739
 20
642.5263667117397
 30
0.0
  0
POINT
  5
1E9C
330
1E6E
100
AcDbEntity
  8
Defpoints
 62
     0
100
AcDbPoint
 10
562.5475421536739
 20
452.5263667117398
 30
0.0
  0
POINT
  5
1E9D
330
1E6E
100
AcDbEntity
  8
Defpoints
 62
     0
100
AcDbPoint
 10
393.2621095879258
 20
452.5263667117398
 30
0.0
  0
ENDBLK
  5
1E79
330
1E6E
100
AcDbEntity
  8
0
100
AcDbBlockEnd
  0
ENDSEC
  0
SECTION
  2
ENTITIES
  0
LINE
  5
9C
330
1F
100
AcDbEntity
  8
補助
100
AcDbLine
 10
111.0
 20
4.0
 30
0.0
 11
2784.0
 21
4.0
 31
0.0
  0
LINE
  5
A0
330
1F
100
AcDbEntity
  8
補助
100
AcDbLine
 10
2784.0
 20
2024.0
 30
0.0
 11
111.0
 21
2024.0
 31
0.0
  0
LINE
  5
A5
330
1F
100
AcDbEntity
  8
補助
100
AcDbLine
 10
2784.0
 20
4.0
 30
0.0
 11
2784.0
 21
2024.0
 31
0.0
  0
LINE
  5
A8
330
1F
100
AcDbEntity
  8
補助
100
AcDbLine
 10
2184.0
 20
69.0
 30
0.0
 11
2184.0
 21
199.0
 31
0.0
  0
LINE
  5
A9
330
1F
100
AcDbEntity
  8
補助
100
AcDbLine
 10
2184.0
 20
69.0
 30
0.0
 11
2784.0
 21
69.0
 31
0.0
  0
LINE
  5
AA
330
1F
100
AcDbEntity
  8
補助
100
AcDbLine
 10
2064.0
 20
134.0
 30
0.0
 11
2784.0
 21
134.0
 31
0.0
  0
LINE
  5
AB
330
1F
100
AcDbEntity
  8
補助
100
AcDbLine
 10
2064.0
 20
199.0
 30
0.0
 11
2784.0
 21
199.0
 31
0.0
  0
LINE
  5
AD
330
1F
100
AcDbEntity
  8
補助
100
AcDbLine
 10
2784.0
 20
4.0
 30
0.0
 11
2784.0
 21
69.0
 31
0.0
  0
LINE
  5
25F
330
1F
100
AcDbEntity
  8
0
 62
     0
100
AcDbLine
 10
712.9236754825351
 20
1050.093561842788
 30
0.0
 11
1282.923675482535
 21
1050.093561842788
 31
0.0
  0
LINE
  5
260
330
1F
100
AcDbEntity
  8
0
 62
     0
100
AcDbLine
 10
1397.923675482535
 20
1180.093561842788
 30
0.0
 11
1397.923675482535
 21
1510.093561842788
 31
0.0
  0
LINE
  5
261
330
1F
100
AcDbEntity
  8
0
 62
     0
100
AcDbLine
 10
1337.923675482535
 20
1570.093561842788
 30
0.0
 11
657.9236754825351
 21
1570.093561842788
 31
0.0
  0
LINE
  5
262
330
1F
100
AcDbEntity
  8
0
 62
     0
100
AcDbLine
 10
597.9236754825351
 20
1510.093561842788
 30
0.0
 11
597.9236754825351
 21
1180.093561842788
 31
0.0
  0
LINE
  5
263
330
1F
100
AcDbEntity
  8
0
 62
     0
100
AcDbLine
 10
712.9236754825351
 20
1033.093561842788
 30
0.0
 11
1282.923675482535
 21
1033.093561842788
 31
0.0
  0
LINE
  5
264
330
1F
100
AcDbEntity
  8
0
 62
     0
100
AcDbLine
 10
1414.923675482535
 20
1165.093561842788
 30
0.0
 11
1414.923675482535
 21
1510.093561842788
 31
0.0
  0
LINE
  5
265
330
1F
100
AcDbEntity
  8
0
 62
     0
100
AcDbLine
 10
1337.923675482535
 20
1587.093561842788
 30
0.0
 11
657.9236754825351
 21
1587.093561842788
 31
0.0
  0
LINE
  5
266
330
1F
100
AcDbEntity
  8
0
 62
     0
100
AcDbLine
 10
580.9236754825351
 20
1510.093561842788
 30
0.0
 11
580.9236754825351
 21
1165.093561842788
 31
0.0
  0
LINE
  5
267
330
1F
100
AcDbEntity
  8
0
 62
     0
100
AcDbLine
 10
1282.923675482535
 20
1495.093561842788
 30
0.0
 11
1187.923675482535
 21
1495.093561842788
 31
0.0
  0
LINE
  5
26B
330
1F
100
AcDbEntity
  8
0
 62
     0
100
AcDbLine
 10
712.9236754825351
 20
1065.093561842788
 30
0.0
 11
1282.923675482535
 21
1065.093561842788
 31
0.0
  0
DIMENSION
  5
270
330
1F
100
AcDbEntity
  8
0
 62
     0
100
AcDbDimension
  2
*D4
 10
394.97104319546
 20
1065.093561842789
 30
0.0
 11
376.2210431954598
 21
1118.010228509455
 31
0.0
 70
    32
 71
     5
 42
15.0
  3
ISO-25
100
AcDbAlignedDimension
 13
512.7215453123563
 23
1050.093561842788
 33
0.0
 14
512.7215453123563
 24
1065.093561842788
 34
0.0
 50
90.0
100
AcDbRotatedDimension
  0
DIMENSION
  5
27E
330
1F
100
AcDbEntity
  8
0
 62
     0
100
AcDbDimension
  2
*D5
 10
394.9710431954601
 20
1495.093561842788
 30
0.0
 11
376.2210431954598
 21
1280.093561842788
 31
0.0
 70
    32
 71
     5
 42
430.0
  3
ISO-25
100
AcDbAlignedDimension
 13
578.7999235918086
 23
1065.093561842788
 33
0.0
 14
512.7215453123564
 24
1495.093561842788
 34
0.0
 50
90.0
100
AcDbRotatedDimension
1001
ACAD
1000
DSTYLE
1002
{
1070
   279
1070
     1
1002
}
  0
DIMENSION
  5
28B
330
1F
100
AcDbEntity
  8
0
 62
     0
100
AcDbDimension
  2
*D6
 10
394.9710431954601
 20
1570.093561842788
 30
0.0
 11
376.2210431954599
 21
1532.593561842788
 31
0.0
 70
    32
 71
     5
 42
75.0
  3
ISO-25
100
AcDbAlignedDimension
 13
512.7215453123564
 23
1495.093561842788
 33
0.0
 14
512.7215453123564
 24
1570.093561842788
 34
0.0
 50
90.0
100
AcDbRotatedDimension
1001
ACAD
1000
DSTYLE
1002
{
1070
   279
1070
     1
1002
}
  0
DIMENSION
  5
298
330
1F
100
AcDbEntity
  8
0
 62
     0
100
AcDbDimension
  2
*D7
 10
322.3426232923277
 20
1050.093561842788
 30
0.0
 11
322.3426232923275
 21
1103.010228509455
 31
0.0
 70
   160
 71
     5
 42
17.0
  3
ISO-25
100
AcDbAlignedDimension
 13
512.7215453123563
 23
1033.093561842788
 33
0.0
 14
512.7215453123563
 24
1050.093561842788
 34
0.0
 50
90.0
100
AcDbRotatedDimension
  0
DIMENSION
  5
2A6
330
1F
100
AcDbEntity
  8
0
 62
     0
100
AcDbDimension
  2
*D8
 10
322.3426232923277
 20
1570.093561842788
 30
0.0
 11
303.5926232923273
 21
1310.093561842788
 31
0.0
 70
    32
 71
     5
 42
520.0
  3
ISO-25
100
AcDbAlignedDimension
 13
578.7999235918086
 23
1050.093561842788
 33
0.0
 14
580.7236378548459
 24
1570.093561842788
 34
0.0
 50
90.0
100
AcDbRotatedDimension
1001
ACAD
1000
DSTYLE
1002
{
1070
   279
1070
     1
1002
}
  0
DIMENSION
  5
2B3
330
1F
100
AcDbEntity
  8
0
 62
     0
100
AcDbDimension
  2
*D9
 10
322.3426232923277
 20
1587.093561842788
 30
0.0
 11
304.7060766162222
 21
1555.523807371525
 31
0.0
 70
   160
 71
     5
 42
17.0
  3
ISO-25
100
AcDbAlignedDimension
 13
512.7215453123564
 23
1570.093561842788
 33
0.0
 14
512.7215453123563
 24
1587.093561842788
 34
0.0
 50
90.0
100
AcDbRotatedDimension
1001
ACAD
1000
DSTYLE
1002
{
1070
   279
1070
     1
1002
}
  0
DIMENSION
  5
2DC
330
1F
100
AcDbEntity
  8
0
 62
     0
100
AcDbDimension
  2
*D10
 10
227.6575087058645
 20
1587.093561842788
 30
0.0
 11
208.9075087058643
 21
1310.093561842788
 31
0.0
 70
    32
 71
     5
 42
554.0
  3
ISO-25
100
AcDbAlignedDimension
 13
578.0811230160161
 23
1033.093561842788
 33
0.0
 14
581.1598264312715
 24
1587.093561842788
 34
0.0
 50
90.0
100
AcDbRotatedDimension
  0
DIMENSION
  5
2E9
330
1F
100
AcDbEntity
  8
0
 62
     0
100
AcDbDimension
  2
*D11
 10
597.9236754825351
 20
916.1857900480718
 30
0.0
 11
650.8403421492017
 21
934.9357900480718
 31
0.0
 70
    32
 71
     5
 42
17.0
  3
ISO-25
100
AcDbAlignedDimension
 13
580.9236754825351
 23
1033.093561842788
 33
0.0
 14
597.9236754825351
 24
1033.093561842788
 34
0.0
100
AcDbRotatedDimension
  0
DIMENSION
  5
2F7
330
1F
100
AcDbEntity
  8
0
 62
     0
100
AcDbDimension
  2
*D12
 10
1397.923675482535
 20
916.1857900480718
 30
0.0
 11
997.923675482535
 21
934.9357900480718
 31
0.0
 70
    32
 71
     5
 42
800.0
  3
ISO-25
100
AcDbAlignedDimension
 13
597.9236754825351
 23
1033.093561842788
 33
0.0
 14
1397.923675482535
 24
1033.093561842788
 34
0.0
100
AcDbRotatedDimension
1001
ACAD
1000
DSTYLE
1002
{
1070
   279
1070
     1
1002
}
  0
DIMENSION
  5
304
330
1F
100
AcDbEntity
  8
0
 62
     0
100
AcDbDimension
  2
*D13
 10
1414.923675482535
 20
916.1857900480718
 30
0.0
 11
1354.465459898079
 21
916.1857900480718
 31
0.0
 70
   160
 71
     5
 42
17.0
  3
ISO-25
100
AcDbAlignedDimension
 13
1397.923675482535
 23
1033.093561842788
 33
0.0
 14
1414.923675482535
 24
1033.093561842788
 34
0.0
100
AcDbRotatedDimension
1001
ACAD
1000
DSTYLE
1002
{
1070
   279
1070
     1
1002
}
  0
DIMENSION
  5
31C
330
1F
100
AcDbEntity
  8
0
100
AcDbDimension
  2
*D14
 10
1414.923675482535
 20
845.8270180928648
 30
0.0
 11
997.923675482535
 21
864.5770180928648
 31
0.0
 70
    32
 71
     5
 42
834.0
  3
ISO-25
100
AcDbAlignedDimension
 13
580.9236754825351
 23
1033.093561842788
 33
0.0
 14
1414.923675482535
 24
1033.093561842788
 34
0.0
100
AcDbRotatedDimension
  0
ARC
  5
32A
330
1F
100
AcDbEntity
  8
0
 62
     0
100
AcDbCircle
 10
712.9236754825351
 20
1180.093561842788
 30
0.0
 40
115.0
100
AcDbArc
 50
180.0
 51
270.0
  0
ARC
  5
32B
330
1F
100
AcDbEntity
  8
0
 62
     0
100
AcDbCircle
 10
1282.923675482535
 20
1180.093561842788
 30
0.0
 40
115.0
100
AcDbArc
 50
270.0
 51
0.0
  0
LINE
  5
32C
330
1F
100
AcDbEntity
  8
0
 62
     0
100
AcDbLine
 10
597.9236754825351
 20
1380.093561842788
 30
0.0
 11
597.9236754825351
 21
1165.093561842788
 31
0.0
  0
LINE
  5
32D
330
1F
100
AcDbEntity
  8
0
 62
     0
100
AcDbLine
 10
1397.923675482535
 20
1165.093561842788
 30
0.0
 11
1397.923675482535
 21
1380.093561842788
 31
0.0
  0
ARC
  5
32E
330
1F
100
AcDbEntity
  8
0
 62
     0
100
AcDbCircle
 10
712.9236754825351
 20
1165.093561842788
 30
0.0
 40
115.0
100
AcDbArc
 50
180.0
 51
270.0
  0
ARC
  5
32F
330
1F
100
AcDbEntity
  8
0
 62
     0
100
AcDbCircle
 10
1282.923675482535
 20
1165.093561842788
 30
0.0
 40
115.0
100
AcDbArc
 50
270.0
 51
0.0
  0
ARC
  5
330
330
1F
100
AcDbEntity
  8
0
 62
     0
100
AcDbCircle
 10
712.9236754825351
 20
1165.093561842788
 30
0.0
 40
132.0
100
AcDbArc
 50
180.0
 51
270.0
  0
ARC
  5
331
330
1F
100
AcDbEntity
  8
0
 62
     0
100
AcDbCircle
 10
1282.923675482535
 20
1165.093561842788
 30
0.0
 40
132.0
100
AcDbArc
 50
270.0
 51
0.0
  0
CIRCLE
  5
334
330
1F
100
AcDbEntity
  8
0
 62
     0
100
AcDbCircle
 10
997.923675482535
 20
1400.093561842788
 30
0.0
 40
79.5
  0
CIRCLE
  5
335
330
1F
100
AcDbEntity
  8
0
 62
     0
100
AcDbCircle
 10
997.923675482535
 20
1400.093561842788
 30
0.0
 40
90.5
  0
ARC
  5
339
330
1F
100
AcDbEntity
  8
0
 62
     0
100
AcDbCircle
 10
1282.923675482535
 20
1380.093561842788
 30
0.0
 40
115.0
100
AcDbArc
 50
0.0
 51
90.0
  0
ARC
  5
33A
330
1F
100
AcDbEntity
  8
0
 62
     0
100
AcDbCircle
 10
712.9236754825351
 20
1380.093561842788
 30
0.0
 40
115.0
100
AcDbArc
 50
90.00000000000003
 51
180.0
  0
ARC
  5
33C
330
1F
100
AcDbEntity
  8
0
 62
     0
100
AcDbCircle
 10
1187.923675482535
 20
1595.093561842788
 30
0.0
 40
100.0
100
AcDbArc
 50
212.8664647390864
 51
270.0
  0
ARC
  5
33E
330
1F
100
AcDbEntity
  8
0
 62
     0
100
AcDbCircle
 10
807.9236754825352
 20
1595.093561842788
 30
0.0
 40
100.0
100
AcDbArc
 50
270.0
 51
327.1335352609136
  0
ARC
  5
33F
330
1F
100
AcDbEntity
  8
0
 62
     0
100
AcDbCircle
 10
945.6734486220941
 20
1506.093561842788
 30
0.0
 40
64.0
100
AcDbArc
 50
90.0
 51
147.1335352609138
  0
ARC
  5
340
330
1F
100
AcDbEntity
  8
0
 62
     0
100
AcDbCircle
 10
1050.173902342976
 20
1506.093561842788
 30
0.0
 40
64.0
100
AcDbArc
 50
32.8664647390862
 51
90.0
  0
LINE
  5
341
330
1F
100
AcDbEntity
  8
0
 62
     0
100
AcDbLine
 10
807.9236754825352
 20
1495.093561842788
 30
0.0
 11
712.9236754825351
 21
1495.093561842788
 31
0.0
  0
ARC
  5
370
330
1F
100
AcDbEntity
  8
0
 62
     0
100
AcDbCircle
 10
657.9236754825351
 20
1510.093561842788
 30
0.0
 40
60.0
100
AcDbArc
 50
90.0
 51
180.0
  0
ARC
  5
371
330
1F
100
AcDbEntity
  8
0
 62
     0
100
AcDbCircle
 10
1337.923675482535
 20
1510.093561842788
 30
0.0
 40
60.0
100
AcDbArc
 50
0.0
 51
89.99999999999998
  0
ARC
  5
372
330
1F
100
AcDbEntity
  8
0
 62
     0
100
AcDbCircle
 10
657.9236754825351
 20
1510.093561842788
 30
0.0
 40
77.0
100
AcDbArc
 50
90.0
 51
180.0
  0
ARC
  5
373
330
1F
100
AcDbEntity
  8
0
 62
     0
100
AcDbCircle
 10
1337.923675482535
 20
1510.093561842788
 30
0.0
 40
77.0
100
AcDbArc
 50
0.0
 51
89.99999999999998
  0
DIMENSION
  5
376
330
1F
100
AcDbEntity
  8
0
 62
     0
100
AcDbDimension
  2
*D15
 10
597.9236754825351
 20
1202.556483900574
 30
0.0
 11
797.9236754825351
 21
1221.306483900574
 31
0.0
 70
    32
 71
     5
 42
400.0
  3
ISO-25
100
AcDbAlignedDimension
 13
997.923675482535
 23
1309.593561842788
 33
0.0
 14
597.9236754825351
 24
1380.093561842788
 34
0.0
100
AcDbRotatedDimension
  0
DIMENSION
  5
384
330
1F
100
AcDbEntity
  8
0
 62
     0
100
AcDbDimension
  2
*D16
 10
1241.834028728584
 20
1570.093561842788
 30
0.0
 11
1241.834028728584
 21
1455.076764407947
 31
0.0
 70
   160
 71
     5
 42
170.0000000000002
  3
ISO-25
100
AcDbAlignedDimension
 13
1088.423675482535
 23
1400.093561842788
 33
0.0
 14
657.9236754825352
 24
1570.093561842788
 34
0.0
 50
90.0
100
AcDbRotatedDimension
  0
LINE
  5
39A
330
1F
100
AcDbEntity
  8
Cen
 62
     0
100
AcDbLine
 10
1153.423675482535
 20
1400.093561842788
 30
0.0
 11
863.8161138034565
 21
1400.093561842788
 31
0.0
  0
LINE
  5
39B
330
1F
100
AcDbEntity
  8
Cen
 62
     0
100
AcDbLine
 10
997.923675482535
 20
1244.593561842788
 30
0.0
 11
997.923675482535
 21
1669.899624974813
 31
0.0
  0
DIMENSION
  5
3B2
330
1F
100
AcDbEntity
  8
0
 62
     0
100
AcDbDimension
  2
*D17
 10
1062.923675482535
 20
1735.737145145187
 30
0.0
 11
997.923675482535
 21
1754.487145145187
 31
0.0
 70
    32
 71
     5
 42
130.0
  3
ISO-25
100
AcDbAlignedDimension
 13
932.9236754825352
 23
1652.093561842789
 33
0.0
 14
1062.923675482535
 24
1652.093561842789
 34
0.0
100
AcDbRotatedDimension
  0
DIMENSION
  5
3BF
330
1F
100
AcDbEntity
  8
0
 62
     0
100
AcDbDimension
  2
*D18
 10
1127.923675482535
 20
1799.395076462493
 30
0.0
 11
997.923675482535
 21
1818.145076462493
 31
0.0
 70
    32
 71
     5
 42
260.0
  3
ISO-25
100
AcDbAlignedDimension
 13
867.9236754825351
 23
1652.093561842789
 33
0.0
 14
1127.923675482535
 24
1652.093561842789
 34
0.0
100
AcDbRotatedDimension
  0
LINE
  5
3DD
330
1F
100
AcDbEntity
  8
Cen
 62
     0
100
AcDbLine
 10
1127.923675482535
 20
1717.093561842788
 30
0.0
 11
1127.923675482535
 21
1523.093561842788
 31
0.0
  0
LINE
  5
3DE
330
1F
100
AcDbEntity
  8
Cen
 62
     0
100
AcDbLine
 10
867.9236754825351
 20
1717.093561842788
 30
0.0
 11
867.9236754825351
 21
1523.093561842788
 31
0.0
  0
CIRCLE
  5
3DF
330
1F
100
AcDbEntity
  8
Cen
 62
     0
100
AcDbCircle
 10
1127.923675482535
 20
1555.093561842788
 30
0.0
 40
6.0
  0
CIRCLE
  5
3E0
330
1F
100
AcDbEntity
  8
Cen
 62
     0
100
AcDbCircle
 10
867.9236754825351
 20
1555.093561842789
 30
0.0
 40
6.0
  0
LINE
  5
3E3
330
1F
100
AcDbEntity
  8
Cen
 62
     0
100
AcDbLine
 10
932.9236754825352
 20
1717.093561842788
 30
0.0
 11
932.9236754825352
 21
1555.093561842788
 31
0.0
  0
LINE
  5
3E4
330
1F
100
AcDbEntity
  8
Cen
 62
     0
100
AcDbLine
 10
1062.923675482535
 20
1717.093561842788
 30
0.0
 11
1062.923675482535
 21
1555.093561842788
 31
0.0
  0
LINE
  5
407
330
1F
100
AcDbEntity
  8
0
100
AcDbLine
 10
580.9236754825351
 20
642.5263667117397
 30
0.0
 11
1414.923675482535
 21
642.5263667117397
 31
0.0
  0
LINE
  5
40A
330
1F
100
AcDbEntity
  8
0
100
AcDbLine
 10
597.9236754825353
 20
642.5263667117397
 30
0.0
 11
597.9236754825353
 21
502.5334606621454
 31
0.0
  0
LINE
  5
40D
330
1F
100
AcDbEntity
  8
0
100
AcDbLine
 10
597.9236754825356
 20
627.5263667117398
 30
0.0
 11
1397.923675482535
 21
627.5263667117396
 31
0.0
  0
LINE
  5
41E
330
1F
100
AcDbEntity
  8
0
100
AcDbLine
 10
907.4236754825351
 20
452.5263667117398
 30
0.0
 11
1088.423675482535
 21
452.5263667117396
 31
0.0
  0
DIMENSION
  5
473
330
1F
100
AcDbEntity
  8
0
100
AcDbDimension
  2
*D19
 10
918.4236754825349
 20
323.1318920137246
 30
0.0
 11
997.923675482535
 21
341.8818920137246
 31
0.0
 70
    32
  1
158
 71
     5
 42
159.0000000000002
  3
ISO-25
100
AcDbAlignedDimension
 13
1077.423675482535
 23
444.5263667117397
 33
0.0
 14
918.4236754825349
 24
444.5263667117398
 34
0.0
100
AcDbRotatedDimension
  0
DIMENSION
  5
480
330
1F
100
AcDbEntity
  8
0
100
AcDbDimension
  2
*D20
 10
907.4236754825351
 20
554.6793912497114
 30
0.0
 11
997.923675482535
 21
573.4293912497114
 31
0.0
 70
    32
 71
     5
 42
181.0
  3
ISO-25
100
AcDbAlignedDimension
 13
1088.423675482535
 23
452.5263667117396
 33
0.0
 14
907.4236754825351
 24
452.5263667117398
 34
0.0
100
AcDbRotatedDimension
  0
LINE
  5
48E
330
1F
100
AcDbEntity
  8
Cen
100
AcDbLine
 10
997.923675482535
 20
535.8319586669749
 30
0.0
 11
997.923675482535
 21
420.2718247666153
 31
0.0
  0
CIRCLE
  5
4AF
330
1F
100
AcDbEntity
  8
Cen
  6
HIDDEN2
 48
1.5
100
AcDbCircle
 10
1395.95401532711
 20
635.1483773395966
 30
0.0
 40
64.39211969241114
  0
ARC
  5
4B0
330
1F
100
AcDbEntity
  8
Cen
  6
Continuous
100
AcDbCircle
 10
1629.375434626183
 20
458.2099143352634
 30
0.0
 40
302.1247328958318
100
AcDbArc
 50
90.0
 51
130.5390852135428
  0
LINE
  5
4B4
330
1F
100
AcDbEntity
  8
Cen
100
AcDbLine
 10
1609.267723806237
 20
768.6801884038577
 30
0.0
 11
1629.375434626183
 21
760.3346472310952
 31
0.0
  0
LINE
  5
4B5
330
1F
100
AcDbEntity
  8
Cen
100
AcDbLine
 10
1629.375434626183
 20
760.3346472310952
 30
0.0
 11
1610.352782623025
 21
749.8873271991032
 31
0.0
  0
LEADER
  5
50F
330
1F
100
AcDbEntity
  8
0
 62
     0
100
AcDbLeader
  3
ISO-25
 40
25.0
 41
41.66666666666666
 76
     2
 10
860.4123277028774
 20
1561.039802583458
 30
0.0
 10
763.8541701474405
 20
1706.8674057583
 30
0.0
213
0.0
223
12.5
233
0.0
1001
ACAD
1000
DSTYLE
1002
{
1070
   147
1040
6.25
1070
    77
1070
     0
1070
    73
1070
     1
1070
    74
1070
     1
1070
   342
1005
DA
1002
}
  0
TEXT
  5
511
330
1F
100
AcDbEntity
  8
0
 62
     0
100
AcDbText
 10
690.7791345793945
 20
1703.572211241846
 30
0.0
 40
25.0
  1
12%%C
 72
     2
 11
749.1124679127278
 21
1700.238877908513
 31
0.0
100
AcDbText
 73
     1
  0
LEADER
  5
52C
330
1F
100
AcDbEntity
  8
0
 62
     0
100
AcDbLeader
  3
ISO-25
 40
33.33333333333333
 41
66.66666666666668
 76
     2
 10
1354.633422975537
 20
1055.35295273199
 30
0.0
 10
1271.055514057107
 20
1093.104907441788
 30
0.0
213
0.0
223
12.5
233
0.0
1001
ACAD
1000
DSTYLE
1002
{
1070
   147
1040
6.25
1070
    77
1070
     0
1070
    73
1070
     1
1070
    74
1070
     1
1070
   279
1070
     1
1070
   342
1005
DA
1002
}
  0
TEXT
  5
52E
330
1F
100
AcDbEntity
  8
0
 62
     0
100
AcDbText
 10
1180.852755902639
 20
1080.422260133395
 30
0.0
 40
25.0
  1
132R
 72
     2
 11
1264.186089235973
 21
1077.088926800062
 31
0.0
100
AcDbText
 73
     1
  0
MTEXT
  5
532
330
1F
100
AcDbEntity
  8
0
100
AcDbMText
 10
1469.226616777811
 20
1181.110374981098
 30
0.0
 40
25.0
 41
0.0
 71
     9
 72
     1
  1

 73
     1
 44
1.0
1001
ACAD
1000
MTEXTBEGIN
1070
    73
1070
     1
1070
    44
1040
1.0
1070
    74
1070
     0
1000
MTEXTEND
  0
LEADER
  5
533
330
1F
100
AcDbEntity
  8
0
 62
     0
100
AcDbLeader
  3
ISO-25
 40
25.0
 41
16.66666666666666
 76
     2
 10
1363.792653292112
 20
1085.096919501044
 30
0.0
 10
1273.345319552549
 20
1141.152854127202
 30
0.0
213
-97.31675022588753
223
44.53196128345098
233
0.0
1001
ACAD
1000
DSTYLE
1002
{
1070
   147
1040
6.25
1070
    77
1070
     0
1070
    73
1070
     1
1070
    74
1070
     1
1070
   279
1070
     1
1070
   342
1005
DA
1002
}
  0
TEXT
  5
537
330
1F
100
AcDbEntity
  8
0
 62
     0
100
AcDbText
 10
1188.041186488251
 20
1136.478199519792
 30
0.0
 40
25.0
  1
115R
 72
     2
 11
1263.041186488252
 21
1133.144866186459
 31
0.0
100
AcDbText
 73
     1
  0
LEADER
  5
53A
330
1F
100
AcDbEntity
  8
0
 62
     0
100
AcDbLeader
  3
ISO-25
 40
25.0
 41
16.66666666666666
 76
     2
 10
1379.821291760205
 20
1121.704874573524
 30
0.0
 10
1316.85163230075
 20
1181.192808111634
 30
0.0
213
0.0
223
12.5
233
0.0
1001
ACAD
1000
DSTYLE
1002
{
1070
   147
1040
6.25
1070
    77
1070
     0
1070
    73
1070
     1
1070
    74
1070
     1
1070
   279
1070
     1
1070
   342
1005
DA
1002
}
  0
TEXT
  5
53C
330
1F
100
AcDbEntity
  8
0
 62
     0
100
AcDbText
 10
1234.982207479614
 20
1179.950147655937
 30
0.0
 40
25.0
  1
115R
 72
     2
 11
1309.982207479614
 21
1176.616814322604
 31
0.0
100
AcDbText
 73
     1
  0
LEADER
  5
53D
330
1F
100
AcDbEntity
  8
0
 62
     0
100
AcDbLeader
  3
ISO-25
 40
25.0
 41
16.66666666666666
 76
     2
 10
818.8188453592902
 20
1066.792939584684
 30
0.0
 10
876.0639910801401
 20
1114.840886270099
 30
0.0
213
0.0
223
-12.5
233
0.0
1001
ACAD
1000
DSTYLE
1002
{
1070
   147
1040
6.25
1070
    77
1070
     0
1070
    73
1070
     1
1070
    74
1070
     1
1070
   279
1070
     1
1070
   342
1005
DA
1002
}
  0
TEXT
  5
53F
330
1F
100
AcDbEntity
  8
0
 62
     0
100
AcDbText
 10
886.3681241444373
 20
1107.878227627815
 30
0.0
 40
25.0
  1
10000R
 11
886.3681241444373
 21
1104.544894294482
 31
0.0
100
AcDbText
 73
     1
  0
LEADER
  5
540
330
1F
100
AcDbEntity
  8
0
 62
     0
100
AcDbLeader
  3
ISO-25
 76
     2
 10
1396.994832976017
 20
1336.417088717426
 30
0.0
 10
1300.822985497849
 20
1336.417088717426
 30
0.0
1001
ACAD
1000
DSTYLE
1002
{
1070
   147
1040
6.25
1070
    77
1070
     0
1070
    73
1070
     1
1070
    74
1070
     1
1070
   279
1070
     1
1070
   342
1005
DA
1002
}
  0
TEXT
  5
54B
330
1F
100
AcDbEntity
  8
0
 62
     0
100
AcDbText
 10
1186.352194101694
 20
1323.917088717426
 30
0.0
 40
25.0
  1
5000R
 72
     2
 11
1290.518860768361
 21
1336.417088717426
 31
0.0
100
AcDbText
 73
     2
  0
TEXT
  5
54E
330
1F
100
AcDbEntity
  8
0
 62
     0
100
AcDbText
 10
1274.69946234059
 20
1505.823864689383
 30
0.0
 40
25.0
  1
60R
 72
     2
 11
1337.19946234059
 21
1502.49053135605
 31
0.0
100
AcDbText
 73
     1
  0
LEADER
  5
558
330
1F
100
AcDbEntity
  8
0
 62
     0
100
AcDbLeader
  3
ISO-25
 40
25.0
 41
16.66666666666666
 76
     2
 10
916.1355955851776
 20
1561.000368764965
 30
0.0
 10
969.9460330628662
 20
1532.400401633227
 30
0.0
213
0.0
223
-12.5
233
0.0
1001
ACAD
1000
DSTYLE
1002
{
1070
   147
1040
6.25
1070
    77
1070
     0
1070
    73
1070
     1
1070
    74
1070
     1
1070
   279
1070
     1
1070
   342
1005
DA
1002
}
  0
TEXT
  5
55A
330
1F
100
AcDbEntity
  8
0
 62
     0
100
AcDbText
 10
977.9603522969118
 20
1519.816415143215
 30
0.0
 40
25.0
  1
64R
 11
977.9603522969118
 21
1516.483081809882
 31
0.0
100
AcDbText
 73
     1
  0
MTEXT
  5
55C
330
1F
100
AcDbEntity
  8
0
100
AcDbMText
 10
1010.02660136874
 20
1423.470120422065
 30
0.0
 40
25.0
 41
0.0
 71
     1
 72
     1
  1

 73
     1
 44
1.0
1001
ACAD
1000
MTEXTBEGIN
1070
    73
1070
     1
1070
    44
1040
1.0
1070
    74
1070
     0
1000
MTEXTEND
  0
LEADER
  5
55D
330
1F
100
AcDbEntity
  8
0
 62
     0
100
AcDbLeader
  3
ISO-25
 40
25.0
 41
16.66666666666666
 76
     2
 10
759.2838941429981
 20
1490.072453134399
 30
0.0
 10
783.3183335068224
 20
1434.05600491825
 30
0.0
213
0.0
223
-12.5
233
0.0
1001
ACAD
1000
DSTYLE
1002
{
1070
   147
1040
6.25
1070
    77
1070
     0
1070
    73
1070
     1
1070
    74
1070
     1
1070
   279
1070
     1
1070
   342
1005
DA
1002
}
  0
TEXT
  5
55F
330
1F
100
AcDbEntity
  8
0
 62
     0
100
AcDbText
 10
752.5056530148703
 20
1404.87547020154
 30
0.0
 40
23.0
  1
10000R
 11
752.5056530148703
 21
1427.87547020154
 31
0.0
100
AcDbText
 73
     3
  0
LEADER
  5
560
330
1F
100
AcDbEntity
  8
0
 62
     0
100
AcDbLeader
  3
ISO-25
 40
25.0
 41
16.66666666666666
 76
     2
 10
636.7792751324413
 20
1463.760480517058
 30
0.0
 10
657.3875329262264
 20
1372.240585695497
 30
0.0
213
0.0
223
-12.5
233
0.0
1001
ACAD
1000
DSTYLE
1002
{
1070
   147
1040
6.25
1070
    77
1070
     0
1070
    73
1070
     1
1070
    74
1070
     1
1070
   279
1070
     1
1070
   342
1005
DA
1002
}
  0
TEXT
  5
562
330
1F
100
AcDbEntity
  8
0
 62
     0
100
AcDbText
 10
656.2426301785053
 20
1334.656603965724
 30
0.0
 40
25.0
  1
115R
 11
656.2426301785053
 21
1359.656603965724
 31
0.0
100
AcDbText
 73
     3
  0
LEADER
  5
563
330
1F
100
AcDbEntity
  8
0
 62
     0
100
AcDbLeader
  3
ISO-25
 40
33.33333333333333
 41
16.66666666666667
 76
     2
 10
602.432184366009
 20
1561.000368764965
 30
0.0
 10
656.2426301785053
 20
1532.400401633227
 30
0.0
213
0.0
223
-12.5
233
0.0
1001
ACAD
1000
DSTYLE
1002
{
1070
   147
1040
6.25
1070
    77
1070
     0
1070
    73
1070
     1
1070
    74
1070
     1
1070
   279
1070
     1
1070
   342
1005
DA
1002
}
  0
TEXT
  5
565
330
1F
100
AcDbEntity
  8
0
 62
     0
100
AcDbText
 10
663.1120466648298
 20
1501.68040820688
 30
0.0
 40
25.0
  1
77R
 11
663.1120466648298
 21
1526.68040820688
 31
0.0
100
AcDbText
 73
     3
  0
LEADER
  5
566
330
1F
100
AcDbEntity
  8
0
 62
     0
100
AcDbLeader
  3
ISO-25
 40
25.0
 41
16.66666666666666
 76
     2
 10
858.8904498643278
 20
1508.37642829052
 30
0.0
 10
792.4860821617112
 20
1543.840388485923
 30
0.0
213
0.0
223
12.5
233
0.0
1001
ACAD
1000
DSTYLE
1002
{
1070
   147
1040
6.25
1070
    77
1070
     0
1070
    73
1070
     1
1070
    74
1070
     1
1070
   279
1070
     1
1070
   342
1005
DA
1002
}
  0
TEXT
  5
568
330
1F
100
AcDbEntity
  8
0
 62
     0
100
AcDbText
 10
712.342873151636
 20
1540.309728755591
 30
0.0
 40
25.0
  1
100R
 11
712.342873151636
 21
1536.976395422258
 31
0.0
100
AcDbText
 73
     1
  0
LINE
  5
56A
330
1F
100
AcDbEntity
  8
補助
100
AcDbLine
 10
2784.0
 20
134.0
 30
0.0
 11
2784.0
 21
199.0
 31
0.0
  0
TEXT
  5
56C
330
1F
100
AcDbEntity
  8
0
100
AcDbText
 10
2266.4
 20
149.4
 30
0.0
 40
35.0
  1
PRS800-520GRM-OFR
  7
ms明朝
 72
     4
 11
2484.0
 21
166.5
 31
0.0
100
AcDbText
  0
DIMENSION
  5
586
330
1F
100
AcDbEntity
  8
0
 62
     0
100
AcDbDimension
  2
*D21
 10
1219.732917794685
 20
1570.093561842788
 30
0.0
 11
1209.787419905171
 21
1522.587485159131
 31
0.0
 70
   160
 71
     5
 42
15.00000000000023
  3
ISO-25
100
AcDbAlignedDimension
 13
1155.053838301794
 23
1555.093561842788
 33
0.0
 14
1062.923675482535
 24
1570.093561842788
 34
0.0
 50
90.0
100
AcDbRotatedDimension
1001
ACAD
1000
DSTYLE
1002
{
1070
   279
1070
     2
1002
}
  0
LINE
  5
59F
330
1F
100
AcDbEntity
  8
Cen
 62
     0
100
AcDbLine
 10
848.9155250986359
 20
1555.093561842789
 30
0.0
 11
883.4362466128686
 21
1555.093561842789
 31
0.0
  0
LINE
  5
5A0
330
1F
100
AcDbEntity
  8
Cen
 62
     0
100
AcDbLine
 10
1112.13601310059
 20
1555.093561842788
 30
0.0
 11
1145.038573058983
 21
1555.093561842788
 31
0.0
  0
LINE
  5
5A1
330
1F
100
AcDbEntity
  8
Cen
 62
     0
100
AcDbLine
 10
1111.596625915309
 20
1555.093561842788
 30
0.0
 11
1220.053838301795
 21
1555.093561842788
 31
0.0
  0
MTEXT
  5
5A9
330
1F
100
AcDbEntity
  8
Cen
100
AcDbMText
 10
1527.939315450184
 20
552.4831097022406
 30
0.0
 40
25.0
 41
0.0
 71
     9
 72
     1
  1

 73
     1
 44
1.0
1001
ACAD
1000
MTEXTBEGIN
1070
    73
1070
     1
1070
    44
1040
1.0
1070
    74
1070
     0
1000
MTEXTEND
  0
LEADER
  5
5AA
330
1F
100
AcDbEntity
  8
Cen
100
AcDbLeader
  3
ISO-25
 40
25.0
 41
16.66666666666666
 76
     2
 10
1378.503999355989
 20
485.4659101582133
 30
0.0
 10
1329.389034631456
 20
521.337991454221
 30
0.0
213
0.0
223
12.5
233
0.0
1001
ACAD
1000
DSTYLE
1002
{
1070
   147
1040
6.25
1070
    77
1070
     0
1070
   279
1070
     1
1002
}
  0
TEXT
  5
5AD
330
1F
100
AcDbEntity
  8
0
100
AcDbText
 10
1258.196891675002
 20
517.3859962349443
 30
0.0
 40
25.0
  1
30R
100
AcDbText
  0
LINE
  5
5D0
330
1F
100
AcDbEntity
  8
補助
100
AcDbLine
 10
2784.0
 20
69.0
 30
0.0
 11
2784.0
 21
134.0
 31
0.0
  0
TEXT
  5
5D2
330
1F
100
AcDbEntity
  8
0
100
AcDbText
 10
2420.0
 20
84.40000000000001
 30
0.0
 40
35.0
  1
1：10
  7
ms明朝
 72
     4
 11
2484.0
 21
101.5
 31
0.0
100
AcDbText
  0
TEXT
  5
5D8
330
1F
100
AcDbEntity
  8
0
100
AcDbText
 10
231.1659029702105
 20
53.51169987015055
 30
0.0
 40
25.0
  1
※実寸には製造上の誤差が多少生ずる場合があります。シンクの穴あけ加工は現物合わせにてお願いします。
  7
ms明朝
100
AcDbText
  0
TEXT
  5
5F4
330
1F
100
AcDbEntity
  8
補助
100
AcDbText
 10
2283.455774665347
 20
18.5
 30
0.0
 40
35.0
  1
中外交易株式会社
  7
ms明朝
 72
     4
 11
2488.255774665347
 21
36.5
 31
0.0
100
AcDbText
  0
LINE
  5
5F5
330
1F
100
AcDbEntity
  8
補助
100
AcDbLine
 10
2064.0
 20
69.0
 30
0.0
 11
2784.0
 21
69.0
 31
0.0
  0
HATCH
  5
5F6
330
1F
100
AcDbEntity
  8
補助
100
AcDbHatch
 10
0.0
 20
0.0
 30
0.0
210
0.0
220
0.0
230
1.0
  2
SOLID
 70
     1
 71
     1
 91
        3
 92
        1
 93
        4
 72
     2
 10
2257.166198313996
 20
36.5
 40
20.0
 50
11.6477236670766
 51
342.6561058784691
 73
     1
 72
     1
 10
2276.256852341323
 20
30.53787547858514
 11
2252.166198313995
 21
30.53787547858519
 72
     1
 10
2252.166198313995
 20
30.53787547858519
 11
2252.166198313995
 21
40.53787547858519
 72
     1
 10
2252.166198313995
 20
40.53787547858519
 11
2276.75434681301
 21
40.53787547858519
 97
        4
330
5F7
330
5F9
330
5FA
330
5FB
 92
        1
 93
        4
 72
     2
 10
2188.255774665348
 20
36.5
 40
20.0
 50
11.6477236670766
 51
342.6561058784691
 73
     1
 72
     1
 10
2207.346428692676
 20
30.53787547858514
 11
2183.255774665347
 21
30.53787547858519
 72
     1
 10
2183.255774665347
 20
30.53787547858519
 11
2183.255774665347
 21
40.53787547858519
 72
     1
 10
2183.255774665347
 20
40.53787547858519
 11
2207.843923164362
 21
40.53787547858519
 97
        4
330
5F8
330
601
330
602
330
603
 92
        1
 93
        5
 72
     1
 10
2245.64189404294
 20
56.5
 11
2210.641894042939
 21
56.5
 72
     1
 10
2210.641894042939
 20
56.5
 11
2210.641894042939
 21
16.5
 72
     1
 10
2210.641894042939
 20
16.5
 11
2245.64189404294
 21
16.5
 72
     1
 10
2245.64189404294
 20
16.5
 11
2210.641894042939
 21
36.5
 72
     1
 10
2210.641894042939
 20
36.5
 11
2245.64189404294
 21
56.5
 97
        5
330
5FC
330
600
330
5FF
330
5FE
330
5FD
 75
     0
 76
     1
 98
        1
 10
-60.0
 20
0.0
  0
ARC
  5
5F7
102
{ACAD_REACTORS
330
5F6
102
}
330
1F
100
AcDbEntity
  8
補助
370
     5
100
AcDbCircle
 10
2257.166198313996
 20
36.5
 30
0.0
 40
20.0
100
AcDbArc
 50
11.6477236670766
 51
342.6561058784691
  0
ARC
  5
5F8
102
{ACAD_REACTORS
330
5F6
102
}
330
1F
100
AcDbEntity
  8
補助
370
     5
100
AcDbCircle
 10
2188.255774665348
 20
36.5
 30
0.0
 40
20.0
100
AcDbArc
 50
11.6477236670766
 51
342.6561058784691
  0
LINE
  5
5F9
102
{ACAD_REACTORS
330
5F6
102
}
330
1F
100
AcDbEntity
  8
補助
370
     5
100
AcDbLine
 10
2252.166198313995
 20
30.53787547858519
 30
0.0
 11
2276.256852341323
 21
30.53787547858514
 31
0.0
  0
LINE
  5
5FA
102
{ACAD_REACTORS
330
5F6
102
}
330
1F
100
AcDbEntity
  8
補助
370
     5
100
AcDbLine
 10
2252.166198313995
 20
40.53787547858519
 30
0.0
 11
2252.166198313995
 21
30.53787547858519
 31
0.0
  0
LINE
  5
5FB
102
{ACAD_REACTORS
330
5F6
102
}
330
1F
100
AcDbEntity
  8
補助
370
     5
100
AcDbLine
 10
2276.75434681301
 20
40.53787547858519
 30
0.0
 11
2252.166198313995
 21
40.53787547858519
 31
0.0
  0
LINE
  5
5FC
102
{ACAD_REACTORS
330
5F6
102
}
330
1F
100
AcDbEntity
  8
補助
370
     5
100
AcDbLine
 10
2245.64189404294
 20
56.5
 30
0.0
 11
2210.641894042939
 21
56.5
 31
0.0
  0
LINE
  5
5FD
102
{ACAD_REACTORS
330
5F6
102
}
330
1F
100
AcDbEntity
  8
補助
370
     5
100
AcDbLine
 10
2210.641894042939
 20
36.5
 30
0.0
 11
2245.64189404294
 21
56.5
 31
0.0
  0
LINE
  5
5FE
102
{ACAD_REACTORS
330
5F6
102
}
330
1F
100
AcDbEntity
  8
補助
370
     5
100
AcDbLine
 10
2245.64189404294
 20
16.5
 30
0.0
 11
2210.641894042939
 21
36.5
 31
0.0
  0
LINE
  5
5FF
102
{ACAD_REACTORS
330
5F6
102
}
330
1F
100
AcDbEntity
  8
補助
370
     5
100
AcDbLine
 10
2210.641894042939
 20
16.5
 30
0.0
 11
2245.64189404294
 21
16.5
 31
0.0
  0
LINE
  5
600
102
{ACAD_REACTORS
330
5F6
102
}
330
1F
100
AcDbEntity
  8
補助
370
     5
100
AcDbLine
 10
2210.641894042939
 20
56.5
 30
0.0
 11
2210.641894042939
 21
16.5
 31
0.0
  0
LINE
  5
601
102
{ACAD_REACTORS
330
5F6
102
}
330
1F
100
AcDbEntity
  8
補助
370
     5
100
AcDbLine
 10
2183.255774665347
 20
30.53787547858519
 30
0.0
 11
2207.346428692676
 21
30.53787547858514
 31
0.0
  0
LINE
  5
602
102
{ACAD_REACTORS
330
5F6
102
}
330
1F
100
AcDbEntity
  8
補助
370
     5
100
AcDbLine
 10
2183.255774665347
 20
40.53787547858519
 30
0.0
 11
2183.255774665347
 21
30.53787547858519
 31
0.0
  0
LINE
  5
603
102
{ACAD_REACTORS
330
5F6
102
}
330
1F
100
AcDbEntity
  8
補助
370
     5
100
AcDbLine
 10
2207.843923164362
 20
40.53787547858519
 30
0.0
 11
2183.255774665347
 21
40.53787547858519
 31
0.0
  0
LINE
  5
A29
330
1F
100
AcDbEntity
  8
補助
100
AcDbLine
 10
2064.0
 20
4.0
 30
0.0
 11
2064.0
 21
199.0
 31
0.0
  0
TEXT
  5
A2C
330
1F
100
AcDbEntity
  8
補助
100
AcDbText
 10
2086.666666666667
 20
149.0
 30
0.0
 40
35.0
  1
品番
 72
     4
 11
2124.0
 21
166.5
 31
0.0
100
AcDbText
  0
TEXT
  5
A2D
330
1F
100
AcDbEntity
  8
補助
100
AcDbText
 10
2086.666666666667
 20
84.0
 30
0.0
 40
35.0
  1
尺度
 72
     4
 11
2124.0
 21
101.5
 31
0.0
100
AcDbText
  0
CIRCLE
  5
C46
330
1F
100
AcDbEntity
  8
0
 62
     0
100
AcDbCircle
 10
997.923675482535
 20
1400.093561842788
 30
0.0
 40
110.5
  0
LINE
  5
C4E
330
1F
100
AcDbEntity
  8
実形
100
AcDbLine
 10
907.4236754825351
 20
452.5263667117398
 30
0.0
 11
625.7898185469926
 21
472.6094459819819
 31
0.0
  0
ARC
  5
C50
330
1F
100
AcDbEntity
  8
実形
100
AcDbCircle
 10
627.9236754825354
 20
502.5334606621454
 30
0.0
 40
30.0
100
AcDbArc
 50
179.9999999999999
 51
265.9211892046446
  0
LINE
  5
CB1
330
1F
100
AcDbEntity
  8
0
100
AcDbLine
 10
1397.923675482535
 20
642.5263667117397
 30
0.0
 11
1397.923675482535
 21
502.5334606621454
 31
0.0
  0
ARC
  5
CB2
330
1F
100
AcDbEntity
  8
実形
100
AcDbCircle
 10
1367.923675482535
 20
502.5334606621454
 30
0.0
 40
30.0
100
AcDbArc
 50
274.0788107953554
 51
0.0000000000000579
  0
LINE
  5
CB3
330
1F
100
AcDbEntity
  8
実形
100
AcDbLine
 10
1088.423675482535
 20
452.5263667117398
 30
0.0
 11
1370.057532418077
 21
472.6094459819819
 31
0.0
  0
LINE
  5
CBC
330
1F
100
AcDbEntity
  8
実形
 62
     0
100
AcDbLine
 10
1094.624223489349
 20
1303.067511487161
 30
0.0
 11
1319.246966191211
 21
1437.733424377966
 31
0.0
  0
ARC
  5
CD3
330
1F
100
AcDbEntity
  8
実形
 62
     0
100
AcDbCircle
 10
997.923675482535
 20
1495.093561842788
 30
0.0
 40
215.0
100
AcDbArc
 50
270.0
 51
296.7511366344175
  0
ARC
  5
CDA
330
1F
100
AcDbEntity
  8
実形
 62
     0
100
AcDbCircle
 10
997.923675482535
 20
1495.093561842788
 30
0.0
 40
210.0
100
AcDbArc
 50
270.0
 51
296.5613888603681
  0
LINE
  5
CDD
330
1F
100
AcDbEntity
  8
実形
 62
     0
100
AcDbLine
 10
1091.826524367373
 20
1307.257849127364
 30
0.0
 11
1319.246966191211
 21
1437.733424377966
 31
0.0
  0
LINE
  5
CE8
330
1F
100
AcDbEntity
  8
実形
 62
     0
100
AcDbLine
 10
903.0823056110202
 20
1301.249416880503
 30
0.0
 11
675.9437969995697
 21
1431.627262158703
 31
0.0
  0
ARC
  5
CE9
330
1F
100
AcDbEntity
  8
実形
 62
     0
100
AcDbCircle
 10
996.1203790588042
 20
1495.076445153457
 30
0.0
 40
215.0
100
AcDbArc
 50
244.3365210504766
 51
271.0876576848941
  0
ARC
  5
CEA
330
1F
100
AcDbEntity
  8
実形
 62
     0
100
AcDbCircle
 10
996.1203790588042
 20
1495.076445153457
 30
0.0
 40
210.0
100
AcDbArc
 50
244.526268824526
 51
271.0876576848941
  0
LINE
  5
CEB
330
1F
100
AcDbEntity
  8
実形
 62
     0
100
AcDbLine
 10
905.7999593832334
 20
1305.492105637693
 30
0.0
 11
675.9437969995697
 21
1431.627262158703
 31
0.0
  0
LINE
  5
D92
330
1F
100
AcDbEntity
  8
実形
100
AcDbLine
 10
1344.676698077845
 20
1520.414132047738
 30
0.0
 11
1377.111096992474
 21
1546.352386043539
 31
0.0
  0
LINE
  5
D93
330
1F
100
AcDbEntity
  8
実形
100
AcDbLine
 10
1377.111096992474
 20
1546.352386043539
 30
0.0
 11
1344.676698077845
 21
1520.414132047738
 31
0.0
  0
LINE
  5
D94
330
1F
100
AcDbEntity
  8
実形
100
AcDbLine
 10
1377.522626433116
 20
1546.481878471012
 30
0.0
 11
1362.339921418575
 21
1519.181769311167
 31
0.0
  0
LINE
  5
D95
330
1F
100
AcDbEntity
  8
実形
100
AcDbLine
 10
1376.932737107096
 20
1546.1386910355
 30
0.0
 11
1348.103602119421
 21
1535.222463765275
 31
0.0
  0
LINE
  5
DC4
330
1F
100
AcDbEntity
  8
実形
100
AcDbLine
 10
1088.423675482535
 20
517.5263667117397
 30
0.0
 11
1088.423675482535
 21
554.6793912497114
 31
0.0
  0
LINE
  5
E44
330
1F
100
AcDbEntity
  8
実形
100
AcDbLine
 10
907.4236754825351
 20
517.5263667117397
 30
0.0
 11
907.4236754825351
 21
552.8043912497114
 31
0.0
  0
DIMENSION
  5
E79
330
1F
100
AcDbEntity
  8
実形
100
AcDbDimension
  2
*D24
 10
1108.423675482535
 20
554.5770817450962
 30
0.0
 11
895.8627290524672
 21
555.2705090514105
 31
0.0
 70
   160
  1
20
 71
     5
 42
221.0
  3
ISO-25
100
AcDbAlignedDimension
 13
887.4236754825352
 23
451.7157443787113
 33
0.0
 14
1108.423675482535
 24
452.3704268963724
 34
0.0
100
AcDbRotatedDimension
1001
ACAD
1000
DSTYLE
1002
{
1070
   279
1070
     1
1002
}
  0
TEXT
  5
EDC
330
1F
100
AcDbEntity
  8
実形
100
AcDbText
 10
1078.277547701384
 20
562.9714614338904
 30
0.0
 40
25.0
  1
20
100
AcDbText
  0
LEADER
  5
EE7
330
1F
100
AcDbEntity
  8
0
 62
     0
100
AcDbLeader
  3
ISO-25
 40
25.0
 41
16.66666666666666
 76
     2
 10
712.9844411435933
 20
470.8682155088099
 30
0.0
 10
770.2295868644433
 20
518.9161621942248
 30
0.0
213
0.0
223
-12.5
233
0.0
1001
ACAD
1000
DSTYLE
1002
{
1070
   147
1040
6.25
1070
    77
1070
     0
1070
    73
1070
     1
1070
    74
1070
     1
1070
   279
1070
     1
1070
   342
1005
DA
1002
}
  0
TEXT
  5
EE8
330
1F
100
AcDbEntity
  8
0
 62
     0
100
AcDbText
 10
721.9287675157229
 20
526.0601011878442
 30
0.0
 40
25.0
  1
4500R
 11
721.9287675157229
 21
522.7267678545108
 31
0.0
100
AcDbText
 73
     1
  0
LINE
  5
1080
330
1F
100
AcDbEntity
  8
実形
  6
ACAD_ISO08W100
 48
0.8
100
AcDbLine
 10
997.923675482535
 20
1280.093561842788
 30
0.0
 11
711.1683951190052
 21
1280.093561842788
 31
0.0
  0
LINE
  5
1081
330
1F
100
AcDbEntity
  8
実形
100
AcDbLine
 10
910.3493481155393
 20
1280.093561842788
 30
0.0
 11
900.5843002342844
 21
1280.093561842788
 31
0.0
  0
DIMENSION
  5
1083
330
1F
100
AcDbEntity
  8
実形
100
AcDbDimension
  2
*D26
 10
597.9236754825351
 20
1280.093561842788
 30
0.0
 11
798.728232493557
 21
1321.396309906916
 31
0.0
 70
   162
 71
     5
 42
0.5210835588631254
  3
ISO-25
100
AcDb2LineAngularDimension
 13
903.0823056110202
 23
1301.249416880503
 33
0.0
 14
675.9437969995697
 24
1431.627262158703
 34
0.0
 15
997.923675482535
 25
1280.093561842788
 35
0.0
 16
821.8363743702647
 26
1300.816177260889
 36
0.0
1001
ACAD
1000
DSTYLE
1002
{
1070
   279
1070
     2
1002
}
  0
LINE
  5
146A
330
1F
100
AcDbEntity
  8
0
100
AcDbLine
 10
1728.446844228746
 20
1587.437554242498
 30
0.0
 11
1728.446844228746
 21
1033.437554242498
 31
0.0
  0
LINE
  5
146B
330
1F
100
AcDbEntity
  8
0
100
AcDbLine
 10
1728.446844228746
 20
1570.437554242499
 30
0.0
 11
1881.984028173971
 21
1570.437554242499
 31
0.0
  0
LINE
  5
146C
330
1F
100
AcDbEntity
  8
0
100
AcDbLine
 10
1746.446844228746
 20
1495.437554242499
 30
0.0
 11
1888.446844228747
 21
1495.437554242499
 31
0.0
  0
LINE
  5
146D
330
1F
100
AcDbEntity
  8
0
100
AcDbLine
 10
1728.446844228746
 20
1050.437554242498
 30
0.0
 11
1740.446844228745
 21
1050.437554242498
 31
0.0
  0
LINE
  5
146E
330
1F
100
AcDbEntity
  8
0
100
AcDbLine
 10
1746.446844228746
 20
1065.437554242498
 30
0.0
 11
1879.648756679319
 21
1065.437554242498
 31
0.0
  0
LINE
  5
146F
330
1F
100
AcDbEntity
  8
0
100
AcDbLine
 10
1743.446844228746
 20
1062.437554242498
 30
0.0
 11
1743.446844228746
 21
1053.437554242498
 31
0.0
  0
ARC
  5
1470
330
1F
100
AcDbEntity
  8
0
100
AcDbCircle
 10
1740.446844228745
 20
1053.437554242498
 30
0.0
 40
3.0
100
AcDbArc
 50
270.0
 51
0.0
  0
ARC
  5
1471
330
1F
100
AcDbEntity
  8
0
100
AcDbCircle
 10
1746.446844228746
 20
1062.437554242498
 30
0.0
 40
3.0
100
AcDbArc
 50
90.0
 51
180.0
  0
LINE
  5
1472
330
1F
100
AcDbEntity
  8
0
100
AcDbLine
 10
1743.446844228746
 20
1570.437554242499
 30
0.0
 11
1743.446844228746
 21
1498.437554242499
 31
0.0
  0
ARC
  5
1473
330
1F
100
AcDbEntity
  8
0
100
AcDbCircle
 10
1746.446844228746
 20
1498.437554242499
 30
0.0
 40
3.0
100
AcDbArc
 50
180.0
 51
270.0
  0
LINE
  5
1474
330
1F
100
AcDbEntity
  8
0
100
AcDbLine
 10
1743.446844228746
 20
1498.437554242499
 30
0.0
 11
1743.446844228746
 21
1053.437554242498
 31
0.0
  0
LINE
  5
1475
330
1F
100
AcDbEntity
  8
0
100
AcDbLine
 10
1918.446844228746
 20
1465.437554242498
 30
0.0
 11
1918.446844228746
 21
1309.937554242503
 31
0.0
  0
LINE
  5
1479
330
1F
100
AcDbEntity
  8
0
100
AcDbLine
 10
1918.446844228746
 20
1309.937554242499
 30
0.0
 11
1909.62369621659
 21
1094.211585345268
 31
0.0
  0
ARC
  5
147B
330
1F
100
AcDbEntity
  8
0
100
AcDbCircle
 10
1879.648756679319
 20
1095.437554242498
 30
0.0
 40
30.0
100
AcDbArc
 50
270.0
 51
357.6579196915294
  0
ARC
  5
147C
330
1F
100
AcDbEntity
  8
0
100
AcDbCircle
 10
1888.446844228747
 20
1465.437554242498
 30
0.0
 40
30.0
100
AcDbArc
 50
0.0
 51
90.0
  0
LINE
  5
147E
330
1F
100
AcDbEntity
  8
Cen
100
AcDbLine
 10
1823.853014448538
 20
1398.562554242499
 30
0.0
 11
1954.507426683861
 21
1398.562554242499
 31
0.0
  0
LINE
  5
147F
330
1F
100
AcDbEntity
  8
0
100
AcDbLine
 10
1676.261357571286
 20
713.6400588455419
 30
0.0
 11
1998.282654517615
 21
713.6400588455416
 31
0.0
  0
LINE
  5
1480
330
1F
100
AcDbEntity
  8
0
100
AcDbLine
 10
1828.282654517615
 20
683.6400588455417
 30
0.0
 11
1828.282654517615
 21
538.9618619644015
 31
0.0
  0
DIMENSION
  5
1481
330
1F
100
AcDbEntity
  8
0
100
AcDbDimension
  2
*D45
 10
1828.282654517615
 20
819.8170003677196
 30
0.0
 11
1913.282654517615
 21
838.5670003677196
 31
0.0
 70
    32
  1
17
 71
     5
 42
170.0
  3
ISO-25
100
AcDbAlignedDimension
 13
1998.282654517615
 23
713.6400588455416
 33
0.0
 14
1828.282654517615
 24
713.6400588455416
 34
0.0
100
AcDbRotatedDimension
  0
ARC
  5
1482
330
1F
100
AcDbEntity
  8
0
100
AcDbCircle
 10
1858.282654517615
 20
683.6400588455417
 30
0.0
 40
30.0
100
AcDbArc
 50
90.0
 51
180.0
  0
LINE
  5
1483
330
1F
100
AcDbEntity
  8
0
100
AcDbLine
 10
1858.282654517615
 20
703.6400588455417
 30
0.0
 11
1998.282654517615
 21
703.6400588455417
 31
0.0
  0
ARC
  5
1484
330
1F
100
AcDbEntity
  8
0
100
AcDbCircle
 10
1858.282654517615
 20
683.6400588455417
 30
0.0
 40
20.0
100
AcDbArc
 50
90.0
 51
180.0
  0
LINE
  5
1485
330
1F
100
AcDbEntity
  8
0
100
AcDbLine
 10
1838.282654517615
 20
683.6400588455417
 30
0.0
 11
1838.282654517615
 21
538.9618619644015
 31
0.0
  0
LINE
  5
1486
330
1F
100
AcDbEntity
  8
0
100
AcDbLine
 10
1998.282654517615
 20
713.6400588455416
 30
0.0
 11
1998.282654517615
 21
703.6400588455417
 31
0.0
  0
LEADER
  5
1487
330
1F
100
AcDbEntity
  8
Cen
100
AcDbLeader
  3
ISO-25
 40
25.0
 41
16.66666666666666
 76
     2
 10
1837.749826611723
 20
705.5124839096953
 30
0.0
 10
1892.438853219375
 20
637.0025495516492
 30
0.0
213
0.0
223
-12.5
233
0.0
1001
ACAD
1000
DSTYLE
1002
{
1070
    41
1040
25.0
1070
   147
1040
6.25
1070
    77
1070
     0
1070
   279
1070
     1
1002
}
  0
TEXT
  5
1488
330
1F
100
AcDbEntity
  8
0
100
AcDbText
 10
1899.821747118904
 20
612.7636439535117
 30
0.0
 40
25.0
  1
3R
100
AcDbText
  0
LEADER
  5
1489
330
1F
100
AcDbEntity
  8
Cen
100
AcDbLeader
  3
ISO-25
 40
25.0
 41
16.66666666666666
 76
     2
 10
1744.927291227783
 20
1495.85086549484
 30
0.0
 10
1689.754362456015
 20
1459.816591891538
 30
0.0
213
0.0
223
12.5
233
0.0
1001
ACAD
1000
DSTYLE
1002
{
1070
    41
1040
25.0
1070
   147
1040
6.25
1070
    77
1070
     0
1070
   279
1070
     1
1002
}
  0
LEADER
  5
148A
330
1F
100
AcDbEntity
  8
Cen
100
AcDbLeader
  3
ISO-25
 76
     2
 10
1744.537369090427
 20
1064.751404863463
 30
0.0
 10
1800.333968139324
 20
1020.879487358277
 30
0.0
1001
ACAD
1000
DSTYLE
1002
{
1070
    41
1040
25.0
1070
   147
1040
6.25
1070
    77
1070
     0
1070
   279
1070
     1
1002
}
  0
TEXT
  5
148B
330
1F
100
AcDbEntity
  8
0
100
AcDbText
 10
1804.253359762047
 20
992.3135729899396
 30
0.0
 40
25.0
  1
3R
100
AcDbText
  0
LEADER
  5
148C
330
1F
100
AcDbEntity
  8
Cen
100
AcDbLeader
  3
ISO-25
 76
     2
 10
1742.491984205243
 20
1051.242696051969
 30
0.0
 10
1691.513257107564
 20
1087.226128563367
 30
0.0
1001
ACAD
1000
DSTYLE
1002
{
1070
    41
1040
25.0
1070
   147
1040
6.25
1070
    77
1070
     0
1070
   279
1070
     1
1002
}
  0
TEXT
  5
148D
330
1F
100
AcDbEntity
  8
0
100
AcDbText
 10
1644.480565968799
 20
1077.320204802842
 30
0.0
 40
25.0
  1
3R
100
AcDbText
  0
TEXT
  5
148E
330
1F
100
AcDbEntity
  8
0
100
AcDbText
 10
1641.788307823742
 20
1427.037135709562
 30
0.0
 40
25.0
  1
3R
100
AcDbText
  0
LINE
  5
148F
330
1F
100
AcDbEntity
  8
0
100
AcDbLine
 10
1676.261357571286
 20
563.6400588455416
 30
0.0
 11
1798.282654517615
 21
563.6400588455416
 31
0.0
  0
LINE
  5
1490
330
1F
100
AcDbEntity
  8
実形
100
AcDbLine
 10
1828.282654517615
 20
683.6400588455417
 30
0.0
 11
1828.282654517615
 21
593.6400588455417
 31
0.0
  0
ARC
  5
1491
330
1F
100
AcDbEntity
  8
実形
100
AcDbCircle
 10
1798.282654517615
 20
593.6400588455417
 30
0.0
 40
30.0
100
AcDbArc
 50
270.0
 51
0.0
  0
LINE
  5
1492
330
1F
100
AcDbEntity
  8
0
100
AcDbLine
 10
1676.261357571286
 20
553.6400588455417
 30
0.0
 11
1798.282654517615
 21
553.6400588455417
 31
0.0
  0
ARC
  5
1493
330
1F
100
AcDbEntity
  8
実形
100
AcDbCircle
 10
1798.282654517615
 20
593.6400588455417
 30
0.0
 40
40.0
100
AcDbArc
 50
270.0
 51
318.5903778907278
  0
LEADER
  5
1494
330
1F
100
AcDbEntity
  8
Cen
100
AcDbLeader
  3
ISO-25
 40
25.0
 41
16.66666666666666
 76
     2
 10
1812.823419122628
 20
579.9836297542206
 30
0.0
 10
1774.496544031382
 20
620.8648361211904
 30
0.0
213
0.0
223
-12.5
233
0.0
1001
ACAD
1000
DSTYLE
1002
{
1070
    41
1040
25.0
1070
   147
1040
6.25
1070
    77
1070
     0
1070
   279
1070
     1
1002
}
  0
TEXT
  5
1495
330
1F
100
AcDbEntity
  8
0
100
AcDbText
 10
1728.26545423031
 20
630.764952678353
 30
0.0
 40
25.0
  1
3R
100
AcDbText
  0
LINE
  5
1496
330
1F
100
AcDbEntity
  8
センター
 48
0.4
370
    15
100
AcDbLine
 10
1778.446844228746
 20
1371.290504275024
 30
0.0
 11
1778.446844228746
 21
1187.959517529558
 31
0.0
  0
LINE
  5
1497
330
1F
100
AcDbEntity
  8
センター
 48
0.7
370
    15
100
AcDbLine
 10
1677.019895149344
 20
1280.437554242499
 30
0.0
 11
1976.266293076395
 21
1280.437554242499
 31
0.0
  0
LINE
  5
1498
330
1F
100
AcDbEntity
  8
実形
100
AcDbLine
 10
1763.446844228746
 20
1302.937554242499
 30
0.0
 11
1763.446844228746
 21
1257.937554242498
 31
0.0
  0
LINE
  5
1499
330
1F
100
AcDbEntity
  8
実形
100
AcDbLine
 10
1778.446844228745
 20
1242.937554242498
 30
0.0
 11
1778.446844228746
 21
1242.937554242498
 31
0.0
  0
LINE
  5
149A
330
1F
100
AcDbEntity
  8
実形
100
AcDbLine
 10
1793.446844228746
 20
1257.937554242498
 30
0.0
 11
1793.446844228746
 21
1302.937554242499
 31
0.0
  0
LINE
  5
149B
330
1F
100
AcDbEntity
  8
実形
100
AcDbLine
 10
1778.446844228746
 20
1317.937554242498
 30
0.0
 11
1778.446844228746
 21
1317.937554242498
 31
0.0
  0
ARC
  5
149C
330
1F
100
AcDbEntity
  8
実形
100
AcDbCircle
 10
1778.446844228746
 20
1302.937554242499
 30
0.0
 40
15.0
100
AcDbArc
 50
0.0
 51
90.0
  0
ARC
  5
149D
330
1F
100
AcDbEntity
  8
実形
100
AcDbCircle
 10
1778.446844228746
 20
1302.937554242499
 30
0.0
 40
15.0
100
AcDbArc
 50
90.0
 51
180.0
  0
ARC
  5
149E
330
1F
100
AcDbEntity
  8
実形
100
AcDbCircle
 10
1778.446844228746
 20
1257.937554242498
 30
0.0
 40
15.0
100
AcDbArc
 50
270.0
 51
0.0
  0
ARC
  5
149F
330
1F
100
AcDbEntity
  8
実形
100
AcDbCircle
 10
1778.446844228746
 20
1257.937554242498
 30
0.0
 40
15.0
100
AcDbArc
 50
180.0
 51
270.0
  0
DIMENSION
  5
14A0
330
1F
100
AcDbEntity
  8
寸法
100
AcDbDimension
  2
*D46
 10
1778.446844228746
 20
1379.456765488801
 30
0.0
 11
1768.409368699306
 21
1409.302451250163
 31
0.0
 70
   160
 71
     5
 42
50.0
  3
ISO-25
100
AcDbAlignedDimension
 13
1728.446844228746
 23
1242.937554242498
 33
0.0
 14
1778.446844228746
 24
1304.057143058044
 34
0.0
100
AcDbRotatedDimension
1001
ACAD
1000
DSTYLE
1002
{
1070
   279
1070
     2
1070
   371
1070
    18
1002
}
  0
DIMENSION
  5
14A1
330
1F
100
AcDbEntity
  8
0
100
AcDbDimension
  2
*D47
 10
2013.641260364505
 20
1495.437554242499
 30
0.0
 11
1994.891260364505
 21
1387.937554242499
 31
0.0
 70
    32
 71
     5
 42
215.0
  3
ISO-25
100
AcDbAlignedDimension
 13
1793.446844228746
 23
1280.437554242499
 33
0.0
 14
1888.446844228747
 24
1495.437554242499
 34
0.0
 50
90.0
100
AcDbRotatedDimension
1001
ACAD
1000
DSTYLE
1002
{
1070
   279
1070
     1
1002
}
  0
DIMENSION
  5
17F1
330
1F
100
AcDbEntity
  8
実形
100
AcDbDimension
  2
*D48
 10
447.7351071738121
 20
1280.093561842788
 30
0.0
 11
428.9851071738119
 21
1387.593561842789
 31
0.0
 70
    32
 71
     5
 42
215.0000000000002
  3
ISO-25
100
AcDbAlignedDimension
 13
580.9236754825351
 23
1495.093561842788
 33
0.0
 14
580.9236754825351
 24
1280.093561842788
 34
0.0
 50
90.0
100
AcDbRotatedDimension
1001
ACAD
1000
DSTYLE
1002
{
1070
   279
1070
     1
1002
}
  0
LINE
  5
1BE1
330
1F
100
AcDbEntity
  8
0
  6
HIDDEN2
 62
     0
100
AcDbLine
 10
1407.923675482536
 20
1242.593561842788
 30
0.0
 11
1407.923675482535
 21
1317.593561842789
 31
0.0
  0
LINE
  5
1BE2
330
1F
100
AcDbEntity
  8
実形
 62
     0
100
AcDbLine
 10
1407.923675482535
 20
1317.593561842789
 30
0.0
 11
1397.923675482535
 21
1317.593561842789
 31
0.0
  0
LINE
  5
1BE3
330
1F
100
AcDbEntity
  8
実形
100
AcDbLine
 10
1407.923675482535
 20
1242.593561842788
 30
0.0
 11
1397.923675482535
 21
1242.593561842788
 31
0.0
  0
LINE
  5
1D0F
330
1F
100
AcDbEntity
  8
センター
 48
0.5
100
AcDbLine
 10
2331.534691201232
 20
619.9373053189815
 30
0.0
 11
2331.534691201232
 21
406.4482765611044
 31
0.0
  0
DIMENSION
  5
1D10
330
1F
100
AcDbEntity
  8
寸法
100
AcDbDimension
  2
*D49
 10
2456.534691201232
 20
662.0766882133522
 30
0.0
 11
2331.534691201232
 21
680.8266882133522
 31
0.0
 70
    32
  1
50
 71
     5
 42
250.0
  3
ISO-25
100
AcDbAlignedDimension
 13
2206.534691201232
 23
563.1927909400429
 33
0.0
 14
2456.534691201232
 24
563.1927909400429
 34
0.0
100
AcDbRotatedDimension
1001
ACAD
1000
DSTYLE
1002
{
1070
   371
1070
    18
1070
   372
1070
    18
1002
}
  0
DIMENSION
  5
1D11
330
1F
100
AcDbEntity
  8
寸法
100
AcDbDimension
  2
*D50
 10
2171.534691201232
 20
713.1115276786332
 30
0.0
 11
2331.534691201232
 21
731.8615276786332
 31
0.0
 70
    32
  1
64
 71
     5
 42
320.0
  3
ISO-25
100
AcDbAlignedDimension
 13
2491.534691201232
 23
563.1927909400429
 33
0.0
 14
2171.534691201232
 24
563.1927909400429
 34
0.0
100
AcDbRotatedDimension
1001
ACAD
1000
DSTYLE
1002
{
1070
   371
1070
    18
1070
   372
1070
    18
1002
}
  0
ARC
  5
1D12
330
1F
100
AcDbEntity
  8
実形
100
AcDbCircle
 10
2219.534691201232
 20
513.1927909400428
 30
0.0
 40
75.5
100
AcDbArc
 50
180.0
 51
270.0
  0
ARC
  5
1D13
330
1F
100
AcDbEntity
  8
実形
100
AcDbCircle
 10
2219.534691201232
 20
513.1927909400428
 30
0.0
 40
75.5
100
AcDbArc
 50
90.0
 51
180.0
  0
ARC
  5
1D14
330
1F
100
AcDbEntity
  8
実形
100
AcDbCircle
 10
2219.534691201232
 20
513.1927909400428
 30
0.0
 40
70.5
100
AcDbArc
 50
180.0
 51
270.0
  0
ARC
  5
1D15
330
1F
100
AcDbEntity
  8
実形
100
AcDbCircle
 10
2219.534691201232
 20
513.1927909400428
 30
0.0
 40
70.5
100
AcDbArc
 50
90.0
 51
180.0
  0
LINE
  5
1D16
330
1F
100
AcDbEntity
  8
センター
 48
0.5
100
AcDbLine
 10
2120.678222439852
 20
513.1927909400428
 30
0.0
 11
2542.391159962612
 21
513.1927909400428
 31
0.0
  0
LINE
  5
1D17
330
1F
100
AcDbEntity
  8
実形
100
AcDbLine
 10
2144.034691201232
 20
513.1927909400428
 30
0.0
 11
2144.034691201232
 21
513.1927909400428
 31
0.0
  0
ARC
  5
1D18
330
1F
100
AcDbEntity
  8
実形
100
AcDbCircle
 10
2443.534691201232
 20
513.1927909400428
 30
0.0
 40
75.5
100
AcDbArc
 50
0.0
 51
90.0
  0
ARC
  5
1D19
330
1F
100
AcDbEntity
  8
実形
100
AcDbCircle
 10
2443.534691201232
 20
513.1927909400428
 30
0.0
 40
75.5
100
AcDbArc
 50
270.0
 51
0.0
  0
ARC
  5
1D1A
330
1F
100
AcDbEntity
  8
実形
100
AcDbCircle
 10
2443.534691201232
 20
513.1927909400428
 30
0.0
 40
70.5
100
AcDbArc
 50
0.0
 51
90.0
  0
ARC
  5
1D1B
330
1F
100
AcDbEntity
  8
実形
100
AcDbCircle
 10
2443.534691201232
 20
513.1927909400428
 30
0.0
 40
70.5
100
AcDbArc
 50
270.0
 51
0.0
  0
ARC
  5
1D1C
330
1F
100
AcDbEntity
  8
実形
100
AcDbCircle
 10
2406.534691201232
 20
513.1927909400428
 30
0.0
 40
50.0
100
AcDbArc
 50
0.0
 51
90.0
  0
ARC
  5
1D1D
330
1F
100
AcDbEntity
  8
実形
100
AcDbCircle
 10
2406.534691201232
 20
513.1927909400428
 30
0.0
 40
50.0
100
AcDbArc
 50
270.0
 51
0.0
  0
LINE
  5
1D1E
330
1F
100
AcDbEntity
  8
実形
100
AcDbLine
 10
2206.534691201232
 20
513.1927909400428
 30
0.0
 11
2206.534691201232
 21
513.1927909400428
 31
0.0
  0
ARC
  5
1D1F
330
1F
100
AcDbEntity
  8
実形
100
AcDbCircle
 10
2256.534691201232
 20
513.1927909400428
 30
0.0
 40
50.0
100
AcDbArc
 50
180.0
 51
270.0
  0
ARC
  5
1D20
330
1F
100
AcDbEntity
  8
実形
100
AcDbCircle
 10
2256.534691201232
 20
513.1927909400428
 30
0.0
 40
50.0
100
AcDbArc
 50
90.0
 51
180.0
  0
CIRCLE
  5
1D21
330
1F
100
AcDbEntity
  8
実形
100
AcDbCircle
 10
2171.534691201232
 20
513.1927909400428
 30
0.0
 40
8.966055913162964
  0
LINE
  5
1D22
330
1F
100
AcDbEntity
  8
実形
100
AcDbLine
 10
2219.534691201232
 20
437.6927909400428
 30
0.0
 11
2443.534691201232
 21
437.6927909400428
 31
0.0
  0
LINE
  5
1D23
330
1F
100
AcDbEntity
  8
実形
100
AcDbLine
 10
2443.534691201232
 20
588.6927909400428
 30
0.0
 11
2219.534691201232
 21
588.6927909400428
 31
0.0
  0
LINE
  5
1D24
330
1F
100
AcDbEntity
  8
実形
100
AcDbLine
 10
2256.534691201232
 20
463.1927909400428
 30
0.0
 11
2406.534691201232
 21
463.1927909400428
 31
0.0
  0
LINE
  5
1D25
330
1F
100
AcDbEntity
  8
実形
100
AcDbLine
 10
2406.534691201232
 20
563.1927909400428
 30
0.0
 11
2256.534691201232
 21
563.1927909400428
 31
0.0
  0
LINE
  5
1D26
330
1F
100
AcDbEntity
  8
実形
100
AcDbLine
 10
2443.534691201232
 20
583.6927909400428
 30
0.0
 11
2219.534691201232
 21
583.6927909400428
 31
0.0
  0
LINE
  5
1D27
330
1F
100
AcDbEntity
  8
実形
100
AcDbLine
 10
2219.534691201232
 20
442.6927909400428
 30
0.0
 11
2443.534691201232
 21
442.6927909400428
 31
0.0
  0
LINE
  5
1D28
330
1F
100
AcDbEntity
  8
実形
100
AcDbLine
 10
2519.034691201232
 20
513.1927909400428
 30
0.0
 11
2519.034691201232
 21
513.1927909400428
 31
0.0
  0
LINE
  5
1D29
330
1F
100
AcDbEntity
  8
実形
100
AcDbLine
 10
2456.534691201232
 20
513.1927909400428
 30
0.0
 11
2456.534691201232
 21
513.1927909400428
 31
0.0
  0
CIRCLE
  5
1D2A
330
1F
100
AcDbEntity
  8
実形
100
AcDbCircle
 10
2491.534691201232
 20
513.1927909400428
 30
0.0
 40
8.966055913162964
  0
DIMENSION
  5
1D2B
330
1F
100
AcDbEntity
  8
寸法
100
AcDbDimension
  2
*D51
 10
2620.487703971824
 20
463.1927909400429
 30
0.0
 11
2601.737703971824
 21
513.1927909400434
 31
0.0
 70
    32
  1
20
 71
     5
 42
100.0
  3
ISO-25
100
AcDbAlignedDimension
 13
2519.034691201232
 23
563.1927909400429
 33
0.0
 14
2519.034691201232
 24
463.1927909400429
 34
0.0
 50
90.0
100
AcDbRotatedDimension
1001
ACAD
1000
DSTYLE
1002
{
1070
   371
1070
    18
1070
   372
1070
    18
1002
}
  0
DIMENSION
  5
1D2C
330
1F
100
AcDbEntity
  8
寸法
100
AcDbDimension
  2
*D52
 10
2708.450719295179
 20
437.6927909400428
 30
0.0
 11
2689.700719295179
 21
513.1927909400434
 31
0.0
 70
    32
  1
35
 71
     5
 42
151.0
  3
ISO-25
100
AcDbAlignedDimension
 13
2519.034691201232
 23
588.6927909400429
 33
0.0
 14
2517.517120896033
 24
437.6927909400429
 34
0.0
 50
90.0
100
AcDbRotatedDimension
1001
ACAD
1000
DSTYLE
1002
{
1070
   371
1070
    18
1070
   372
1070
    18
1002
}
  0
TEXT
  5
1D2D
330
1F
100
AcDbEntity
  8
0
100
AcDbText
 10
2174.367510090602
 20
913.8244387032527
 30
0.0
 40
30.0
  1
オーバーフロー詳細
100
AcDbText
  0
LINE
  5
1D2E
330
1F
100
AcDbEntity
  8
実形
100
AcDbLine
 10
2159.294782568853
 20
902.5288203738865
 30
0.0
 11
2509.735749542082
 21
902.5288203738865
 31
0.0
  0
LINE
  5
1D2F
330
1F
100
AcDbEntity
  8
実形
100
AcDbLine
 10
2159.294782568853
 20
895.5288203738865
 30
0.0
 11
2509.735749542082
 21
895.5288203738865
 31
0.0
  0
DIMENSION
  5
1D30
330
1F
100
AcDbEntity
  8
実形
100
AcDbDimension
  2
*D53
 10
2514.034691201232
 20
760.3187543030236
 30
0.0
 11
2331.534691201232
 21
779.0687543030236
 31
0.0
 70
    32
  1
75
 71
     5
 42
365.0
  3
ISO-25
100
AcDbAlignedDimension
 13
2149.034691201232
 23
562.3107254207434
 33
0.0
 14
2514.034691201232
 24
562.3107254207434
 34
0.0
100
AcDbRotatedDimension
1001
ACAD
1000
DSTYLE
1002
{
1070
   279
1070
     1
1002
}
  0
DIMENSION
  5
1D31
330
1F
100
AcDbEntity
  8
実形
100
AcDbDimension
  2
*D54
 10
2519.034691201232
 20
810.4969804965586
 30
0.0
 11
2331.534691201232
 21
829.2469804965586
 31
0.0
 70
    32
  1
79
 71
     5
 42
375.0
  3
ISO-25
100
AcDbAlignedDimension
 13
2144.034691201232
 23
561.3450208309114
 33
0.0
 14
2519.034691201232
 24
562.3403943819157
 34
0.0
100
AcDbRotatedDimension
1001
ACAD
1000
DSTYLE
1002
{
1070
   279
1070
     1
1002
}
  0
DIMENSION
  5
1D32
330
1F
100
AcDbEntity
  8
実形
100
AcDbDimension
  2
*D55
 10
2664.580369260935
 20
442.6927909400428
 30
0.0
 11
2645.830369260935
 21
513.1927909400433
 31
0.0
 70
    32
  1
31
 71
     5
 42
141.0
  3
ISO-25
100
AcDbAlignedDimension
 13
2519.604207466344
 23
583.6927909400428
 33
0.0
 14
2517.218966597225
 24
442.6927909400428
 34
0.0
 50
90.0
100
AcDbRotatedDimension
1001
ACAD
1000
DSTYLE
1002
{
1070
   279
1070
     1
1002
}
  0
DIMENSION
  5
1E46
330
1F
100
AcDbEntity
  8
実形
100
AcDbDimension
  2
*D56
 10
479.8030080261123
 20
627.5263667117398
 30
0.0
 11
464.6555316149988
 21
675.8928637825411
 31
0.0
 70
   160
 71
     5
 42
15.0
  3
ISO-25
100
AcDbAlignedDimension
 13
597.9236754825353
 23
642.5263667117397
 33
0.0
 14
597.9236754825356
 24
627.5263667117398
 34
0.0
 50
90.0
100
AcDbRotatedDimension
1001
ACAD
1000
DSTYLE
1002
{
1070
   279
1070
     1
1002
}
  0
DIMENSION
  5
1E47
330
1F
100
AcDbEntity
  8
実形
100
AcDbDimension
  2
*D57
 10
479.8030080261123
 20
452.5263667117398
 30
0.0
 11
465.0712248427171
 21
481.6497100006099
 31
0.0
 70
   160
 71
     5
 42
19.99999999999994
  3
ISO-25
100
AcDbAlignedDimension
 13
597.1057665653334
 23
472.5263667117397
 33
0.0
 14
597.1057665653334
 24
452.5263667117398
 34
0.0
 50
90.0
100
AcDbRotatedDimension
1001
ACAD
1000
DSTYLE
1002
{
1070
   279
1070
     1
1002
}
  0
DIMENSION
  5
1E48
330
1F
100
AcDbEntity
  8
実形
100
AcDbDimension
  2
*D58
 10
479.8030080261123
 20
472.5263667117397
 30
0.0
 11
468.7495688280669
 21
428.3214551270821
 31
0.0
 70
   160
  1
7
 71
     5
 42
30.0
  3
ISO-25
100
AcDbAlignedDimension
 13
597.5051923162082
 23
442.5263667117397
 33
0.0
 14
568.7222641962453
 24
472.5263667117397
 34
0.0
 50
90.0
100
AcDbRotatedDimension
1001
ACAD
1000
DSTYLE
1002
{
1070
   279
1070
     1
1002
}
  0
DIMENSION
  5
1E49
330
1F
100
AcDbEntity
  8
実形
100
AcDbDimension
  2
*D59
 10
393.2621095879258
 20
452.5263667117398
 30
0.0
 11
374.5121095879258
 21
547.5263667117399
 31
0.0
 70
    32
 71
     5
 42
189.9999999999999
  3
ISO-25
100
AcDbAlignedDimension
 13
562.5475421536739
 23
642.5263667117397
 33
0.0
 14
562.5475421536739
 24
452.5263667117398
 34
0.0
 50
90.0
100
AcDbRotatedDimension
1001
ACAD
1000
DSTYLE
1002
{
1070
   279
1070
     1
1002
}
  0
LINE
  5
1EB0
330
1F
100
AcDbEntity
  8
0
100
AcDbLine
 10
907.4236754825351
 20
442.5263667117397
 30
0.0
 11
1088.423675482535
 21
442.5263667117397
 31
0.0
  0
LINE
  5
1EB1
330
1F
100
AcDbEntity
  8
実形
100
AcDbLine
 10
907.4236754825351
 20
452.5263667117398
 30
0.0
 11
907.4236754825353
 21
442.5263667117397
 31
0.0
  0
LINE
  5
1EB2
330
1F
100
AcDbEntity
  8
実形
100
AcDbLine
 10
1088.423675482535
 20
452.5263667117398
 30
0.0
 11
1088.423675482535
 21
442.5263667117396
 31
0.0
  0
LINE
  5
1EBC
330
1F
100
AcDbEntity
  8
0
100
AcDbLine
 10
1928.446844228747
 20
1490.937554242498
 30
0.0
 11
1928.446844228746
 21
1309.937554242503
 31
0.0
  0
LINE
  5
1EBD
330
1F
100
AcDbEntity
  8
実形
100
AcDbLine
 10
1918.446844228746
 20
1490.937554242498
 30
0.0
 11
1928.446844228747
 21
1490.937554242498
 31
0.0
  0
LINE
  5
1EBE
330
1F
100
AcDbEntity
  8
実形
100
AcDbLine
 10
1918.446844228746
 20
1309.937554242503
 30
0.0
 11
1928.446844228746
 21
1309.937554242503
 31
0.0
  0
ARC
  5
1EE8
330
1F
100
AcDbEntity
  8
実形
100
AcDbCircle
 10
1881.984028173971
 20
1540.437554242499
 30
0.0
 40
30.0
100
AcDbArc
 50
7.16936291862036
 51
90.0
  0
LINE
  5
1EE9
330
1F
100
AcDbEntity
  8
0
100
AcDbLine
 10
1918.446844228746
 20
1490.937554242498
 30
0.0
 11
1918.446844228746
 21
1465.437554242498
 31
0.0
  0
LINE
  5
1EEA
330
1F
100
AcDbEntity
  8
実形
100
AcDbLine
 10
1911.749475496146
 20
1544.181635666672
 30
0.0
 11
1918.446844228746
 21
1490.937554242498
 31
0.0
  0
LINE
  5
1F29
330
1F
100
AcDbEntity
  8
補助
100
AcDbLine
 10
2784.000000000001
 20
1959.0
 30
0.0
 11
2019.387286519283
 21
1959.0
 31
0.0
  0
LINE
  5
1F2A
330
1F
100
AcDbEntity
  8
補助
100
AcDbLine
 10
2784.000000000001
 20
1894.0
 30
0.0
 11
2019.387286519283
 21
1894.0
 31
0.0
  0
LINE
  5
1F2B
330
1F
100
AcDbEntity
  8
補助
100
AcDbLine
 10
2202.547653420927
 20
1894.0
 30
0.0
 11
2202.547653420927
 21
2024.0
 31
0.0
  0
LINE
  5
1F2C
330
1F
100
AcDbEntity
  8
補助
100
AcDbLine
 10
2019.387286519283
 20
1894.0
 30
0.0
 11
2019.387286519283
 21
2024.0
 31
0.0
  0
TEXT
  5
1F2D
330
1F
100
AcDbEntity
  8
補助
100
AcDbText
 10
2050.295698850121
 20
1976.328571428572
 30
0.0
 40
30.0
  1
部品名
  7
明朝
 72
     4
 11
2116.124270278692
 21
1991.5
 31
0.0
100
AcDbText
  0
TEXT
  5
1F2E
330
1F
100
AcDbEntity
  8
補助
100
AcDbText
 10
2627.614285714287
 20
1976.071428571429
 30
0.0
 40
30.0
  1
厚さ
  7
明朝
 72
     4
 11
2671.5
 21
1991.5
 31
0.0
100
AcDbText
  0
LINE
  5
1F2F
330
1F
100
AcDbEntity
  8
補助
100
AcDbLine
 10
2559.0
 20
1894.0
 30
0.0
 11
2559.000000000001
 21
2024.0
 31
0.0
  0
TEXT
  5
1F30
330
1F
100
AcDbEntity
  8
補助
100
AcDbText
 10
2338.490869919937
 20
1975.947979478154
 30
0.0
 40
30.0
  1
材質
  7
明朝
 72
     4
 11
2382.376584205651
 21
1991.119408049583
 31
0.0
100
AcDbText
  0
TEXT
  5
1F31
330
1F
100
AcDbEntity
  8
実形
100
AcDbText
 10
2048.227810657787
 20
1910.557142857143
 30
0.0
 40
30.0
  1
ボウル
  7
明朝
 72
     4
 11
2114.056382086359
 21
1926.5
 31
0.0
100
AcDbText
  0
TEXT
  5
1F32
330
1F
100
AcDbEntity
  8
実形
100
AcDbText
 10
2594.7
 20
1911.842857142856
 30
0.0
 40
30.0
  1
0.7ｍｍ
  7
明朝
 72
     4
 11
2671.5
 21
1926.5
 31
0.0
100
AcDbText
  0
TEXT
  5
1F33
330
1F
100
AcDbEntity
  8
実形
100
AcDbText
 10
2261.016869107866
 20
1910.728571428571
 30
0.0
 40
30.0
  1
SUS304（BA）
  7
明朝
 72
     4
 11
2392.674011965008
 21
1926.5
 31
0.0
100
AcDbText
  0
LINE
  5
1F34
330
1F
100
AcDbEntity
  8
補助
100
AcDbLine
 10
111.0
 20
2024.0
 30
0.0
 11
111.0
 21
4.0
 31
0.0
  0
VIEWPORT
  5
2E
102
{ACAD_XDICTIONARY
360
1F6D
102
}
330
1B
100
AcDbEntity
 67
     1
  8
0
100
AcDbViewport
 10
144.7270812988281
 20
101.2295806407928
 30
0.0
 40
411.6736216682419
 41
222.1517806396485
 68
     1
 69
     1
 12
144.7270812988281
 22
101.2295806407928
 13
0.0
 23
0.0
 14
10.0
 24
10.0
 15
10.0
 25
10.0
 16
0.0
 26
0.0
 36
1.0
 17
0.0
 27
0.0
 37
0.0
 42
50.0
 43
0.0
 44
0.0
 45
222.1517806396485
 50
0.0
 51
0.0
 72
   100
 90
    32800
  1

281
     0
 71
     1
 74
     0
110
0.0
120
0.0
130
0.0
111
1.0
121
0.0
131
0.0
112
0.0
122
1.0
132
0.0
 79
     0
146
0.0
  0
VIEWPORT
  5
30
102
{ACAD_XDICTIONARY
360
1F6F
102
}
330
1B
100
AcDbEntity
 67
     1
  8
0
100
AcDbViewport
 10
139.2237563133239
 20
101.2295821905136
 30
0.0
 40
222.7580101013184
 41
161.9673315048218
 68
     2
 69
     2
 12
210.0
 22
148.5
 13
0.0
 23
0.0
 14
10.0
 24
10.0
 15
10.0
 25
10.0
 16
0.0
 26
0.0
 36
1.0
 17
0.0
 27
0.0
 37
0.0
 42
50.0
 43
0.0
 44
0.0
 45
309.0686705647124
 50
0.0
 51
0.0
 72
   100
 90
    32864
  1

281
     0
 71
     1
 74
     0
110
0.0
120
0.0
130
0.0
111
1.0
121
0.0
131
0.0
112
0.0
122
1.0
132
0.0
 79
     0
146
0.0
  0
ENDSEC
  0
SECTION
  2
OBJECTS
  0
DICTIONARY
  5
C
330
0
100
AcDbDictionary
281
     1
  3
ACAD_COLOR
350
C13
  3
ACAD_GROUP
350
D
  3
ACAD_LAYOUT
350
1A
  3
ACAD_MATERIAL
350
C12
  3
ACAD_MLINESTYLE
350
17
  3
ACAD_PLOTSETTINGS
350
19
  3
ACAD_PLOTSTYLENAME
350
E
  3
ACAD_TABLESTYLE
350
C14
  3
AcadDim
350
5B1
  3
ACDBHEADERROUNDTRIPXREC
350
1F66
  3
AcDbVariableDictionary
350
96D
  0
DICTIONARY
  5
DE1
330
2
100
AcDbDictionary
280
     1
281
     1
  3
ACAD_LAYERFILTERS
360
E0B
  3
ACAD_LAYERSTATES
360
DE2
  3
ACLYDICTIONARY
360
E0A
  0
DICTIONARY
  5
C47
330
1F
100
AcDbDictionary
280
     1
281
     1
  3
ACAD_SORTENTS
360
C48
  0
DICTIONARY
  5
DE5
330
DE3
100
AcDbDictionary
280
     1
281
     1
  3
ACAD_SORTENTS
360
DE6
  0
DICTIONARY
  5
FC3
330
FBF
100
AcDbDictionary
280
     1
281
     1
  3
ACAD_SORTENTS
360
FC4
  0
DICTIONARY
  5
1F6D
330
2E
100
AcDbDictionary
280
     1
281
     1
  3
ACAD_XREC_ROUNDTRIP
360
1F6E
  0
DICTIONARY
  5
1F6F
330
30
100
AcDbDictionary
280
     1
281
     1
  3
ACAD_XREC_ROUNDTRIP
360
1F70
  0
DICTIONARY
  5
C13
102
{ACAD_REACTORS
330
C
102
}
330
C
100
AcDbDictionary
281
     1
  0
DICTIONARY
  5
D
102
{ACAD_REACTORS
330
C
102
}
330
C
100
AcDbDictionary
281
     1
  0
DICTIONARY
  5
1A
102
{ACAD_REACTORS
330
C
102
}
330
C
100
AcDbDictionary
281
     1
  3
Model
350
22
  3
ﾚｲｱｳﾄ1
350
1E
  3
ﾚｲｱｳﾄ2
350
26
  0
DICTIONARY
  5
C12
102
{ACAD_REACTORS
330
C
102
}
330
C
100
AcDbDictionary
281
     1
  0
DICTIONARY
  5
17
102
{ACAD_REACTORS
330
C
102
}
330
C
100
AcDbDictionary
281
     1
  3
Standard
350
18
  0
DICTIONARY
  5
19
102
{ACAD_REACTORS
330
C
102
}
330
C
100
AcDbDictionary
281
     1
  0
ACDBDICTIONARYWDFLT
  5
E
102
{ACAD_REACTORS
330
C
102
}
330
C
100
AcDbDictionary
281
     1
  3
Normal
350
F
100
AcDbDictionaryWithDefault
340
F
  0
DICTIONARY
  5
C14
102
{ACAD_REACTORS
330
C
102
}
330
C
100
AcDbDictionary
281
     1
  3
Standard
350
C15
  0
XRECORD
  5
5B1
102
{ACAD_REACTORS
330
C
102
}
330
C
100
AcDbXrecord
280
     1
 90
   990106
  3

 60
     0
 61
     0
 62
     1
 63
     3
 64
     0
 65
     0
 66
     0
 67
     3
 68
     1
 69
     0
 70
     0
 71
     0
 72
     0
 40
5.637859010809637
170
     0
340
0
  0
DICTIONARY
  5
1F66
102
{ACAD_REACTORS
330
C
102
}
330
C
100
AcDbDictionary
281
     1
  0
DICTIONARY
  5
96D
102
{ACAD_REACTORS
330
C
102
}
330
C
100
AcDbDictionary
281
     1
  3
CTABLESTYLE
350
C23
  3
DIMASSOC
350
1F63
  3
PROJECTNAME
350
1F64
  3
SORTENTS
350
96E
  0
DICTIONARY
  5
E0B
102
{ACAD_REACTORS
330
DE1
102
}
330
DE1
100
AcDbDictionary
281
     1
  0
DICTIONARY
  5
DE2
102
{ACAD_REACTORS
330
DE1
102
}
330
DE1
100
AcDbDictionary
281
     1
  0
DICTIONARY
  5
E0A
102
{ACAD_REACTORS
330
DE1
102
}
330
DE1
100
AcDbDictionary
281
     1
1001
ACAD
1000
<All
  0
SORTENTSTABLE
  5
C48
102
{ACAD_REACTORS
330
C47
102
}
330
C47
100
AcDbSortentsTable
330
1F
331
149C
  5
149F
331
146D
  5
1470
331
1F30
  5
1F31
331
1475
  5
147B
331
CBC
  5
CE9
331
A2D
  5
CB3
331
5F6
  5
5FC
331
260
  5
261
331
473
  5
4B5
331
532
  5
53F
331
1D15
  5
1D16
331
1D1D
  5
1D1E
331
1EB1
  5
1EB2
331
1485
  5
1488
331
1D25
  5
1D26
331
148D
  5
1490
331
5FE
  5
96C
331
1EE9
  5
1EEA
331
1D2D
  5
1D2E
331
1495
  5
1498
331
D94
  5
EDC
331
59F
  5
5AE
331
DC4
  5
EE8
331
A9
  5
AA
331
270
  5
298
331
53A
  5
54C
331
3E4
  5
414
331
32E
  5
331
331
55A
  5
563
331
149D
  5
14A0
331
1F29
  5
1F2A
331
146E
  5
1471
331
1F31
  5
1F32
331
E44
  5
F28
331
298
  5
2DC
331
CDD
  5
D92
331
5F7
  5
5FD
331
1083
  5
146C
331
2F7
  5
32A
331
33E
  5
370
331
562
  5
56C
331
261
  5
263
331
56A
  5
5A9
331
376
  5
3B2
331
533
  5
540
331
1D16
  5
1D17
331
147E
  5
1481
331
1D1E
  5
1D1F
331
1EB2
  5
1EBC
331
1486
  5
1489
331
1D26
  5
1D27
331
148E
  5
1491
331
5FF
  5
97A
331
1EEA
  5
1F29
331
1D2E
  5
1D2F
331
1496
  5
1499
331
C46
  5
33E
331
5A0
  5
5B0
331
D95
  5
EE7
331
C4E
  5
CD3
331
EDC
  5
1011
331
AA
  5
AB
331
3DD
  5
3E4
331
32F
  5
334
331
54B
  5
55F
331
40D
  5
48F
331
4B4
  5
532
331
149E
  5
14A1
331
1F2A
  5
1F2B
331
146F
  5
1472
331
1F32
  5
1F33
331
1D0F
  5
1D10
331
5D0
  5
5F7
331
5D8
  5
5F9
331
33F
  5
371
331
563
  5
586
331
262
  5
265
331
52C
  5
53C
331
1D17
  5
1D18
331
147F
  5
1482
331
1D1F
  5
1D20
331
1487
  5
148A
331
1D27
  5
1D28
331
148F
  5
1492
331
5F8
  5
5FE
331
1D2F
  5
1D30
331
1497
  5
149A
331
600
  5
A29
331
5A1
  5
5B7
331
AB
  5
AD
331
5A9
  5
5F4
331
3DE
  5
407
331
53C
  5
54E
331
2E9
  5
31C
331
330
  5
335
331
4B5
  5
533
331
55C
  5
565
331
149F
  5
14A2
331
1F2B
  5
1F2C
331
1470
  5
1473
331
1F33
  5
1F34
331
9C
  5
9C
331
340
  5
372
331
41E
  5
493
331
370
  5
376
331
263
  5
266
331
3BF
  5
3E3
331
56C
  5
5AA
331
26B
  5
28B
331
1D10
  5
1D11
331
1D18
  5
1D19
331
1480
  5
1483
331
1D20
  5
1D21
331
1488
  5
148B
331
1D28
  5
1D29
331
1EBC
  5
1EBD
331
1490
  5
1493
331
5F9
  5
5FF
331
601
  5
A2C
331
C50
  5
41E
331
5AA
  5
5F5
331
3DF
  5
40A
331
53D
  5
55A
331
28B
  5
2B3
331
48E
  5
4B8
331
331
  5
339
331
407
  5
415
331
55D
  5
566
331
1498
  5
149B
331
1D30
  5
1D31
331
14A0
  5
14A3
331
1BE1
  5
262
331
1F2C
  5
1F2D
331
1471
  5
1474
331
1E46
  5
1E47
331
1F34
  5
A0
331
5D2
  5
5F8
331
A29
  5
A34
331
A5
  5
A8
331
339
  5
33F
331
341
  5
373
331
565
  5
59F
331
2B3
  5
2F7
331
264
  5
267
331
371
  5
384
331
52E
  5
53D
331
1479
  5
147D
331
1D11
  5
1D12
331
1481
  5
1484
331
1D19
  5
1D1A
331
1489
  5
148C
331
1D21
  5
1D22
331
CE8
  5
D93
331
5FA
  5
600
331
1491
  5
1494
331
1D29
  5
1D2A
331
1EBD
  5
1EBE
331
602
  5
A2D
331
AD
  5
25F
331
3E0
  5
40B
331
EE7
  5
1012
331
32A
  5
32D
331
4AF
  5
52C
331
54E
  5
560
331
1499
  5
149C
331
1D31
  5
1D32
331
14A1
  5
1BE0
331
146A
  5
146D
331
1BE2
  5
1D0F
331
1F2D
  5
1F2E
331
1472
  5
1475
331
1E47
  5
1E48
331
CB1
  5
CD7
331
33A
  5
340
331
50F
  5
537
331
566
  5
5A0
331
265
  5
26B
331
372
  5
39A
331
586
  5
5AD
331
537
  5
54B
331
1D12
  5
1D13
331
1482
  5
1485
331
1D1A
  5
1D1B
331
148A
  5
148D
331
1D22
  5
1D23
331
CE9
  5
D94
331
5FB
  5
601
331
17F1
  5
1BE2
331
1492
  5
1495
331
1D2A
  5
1D2B
331
1EBE
  5
1EE8
331
603
  5
A31
331
480
  5
4B7
331
2DC
  5
304
331
53F
  5
55C
331
32B
  5
32E
331
39A
  5
3DE
331
4B0
  5
52E
331
55F
  5
568
331
149A
  5
149D
331
1D32
  5
1E46
331
146B
  5
146E
331
1F2E
  5
1F2F
331
1E48
  5
1E49
331
1473
  5
1476
331
CB2
  5
CDD
331
EE8
  5
1083
331
3B2
  5
3E0
331
CDA
  5
CEB
331
5F4
  5
5FA
331
1080
  5
146A
331
266
  5
270
331
304
  5
32B
331
373
  5
39B
331
1D13
  5
1D14
331
147B
  5
147E
331
1D1B
  5
1D1C
331
1483
  5
1486
331
1D23
  5
1D24
331
148B
  5
148E
331
CEA
  5
D95
331
5FC
  5
602
331
E79
  5
F29
331
1D2B
  5
1D2C
331
1493
  5
1496
331
D92
  5
E44
331
31C
  5
32C
331
5AD
  5
5F6
331
27E
  5
2A6
331
540
  5
55D
331
32C
  5
32F
331
39B
  5
3DF
331
334
  5
33A
331
40A
  5
419
331
558
  5
562
331
149B
  5
149E
331
146C
  5
146F
331
1F2F
  5
1F30
331
1E49
  5
1EB0
331
1474
  5
1477
331
CB3
  5
CE8
331
A0
  5
A5
331
A2C
  5
A3C
331
CD3
  5
CEA
331
33C
  5
341
331
560
  5
56A
331
1081
  5
146B
331
5F5
  5
5FB
331
25F
  5
260
331
2A6
  5
2E9
331
511
  5
53A
331
568
  5
5A1
331
267
  5
27E
331
1D14
  5
1D15
331
147C
  5
1480
331
1D1C
  5
1D1D
331
1EB0
  5
1EB1
331
1484
  5
1487
331
1D24
  5
1D25
331
148C
  5
148F
331
CEB
  5
DC4
331
5FD
  5
603
331
1EE8
  5
1EE9
331
1D2C
  5
1D2D
331
1494
  5
1497
331
D93
  5
E79
331
A8
  5
A9
331
384
  5
3CC
331
3E3
  5
40D
331
32D
  5
330
331
335
  5
33C
  0
SORTENTSTABLE
  5
DE6
102
{ACAD_REACTORS
330
DE5
102
}
330
DE5
100
AcDbSortentsTable
330
DE3
  0
SORTENTSTABLE
  5
FC4
102
{ACAD_REACTORS
330
FC3
102
}
330
FC3
100
AcDbSortentsTable
330
FBF
  0
XRECORD
  5
1F6E
102
{ACAD_REACTORS
330
1F6D
102
}
330
1F6D
100
AcDbXrecord
280
     1
102
SHADEPLOT
 70
     0
  0
XRECORD
  5
1F70
102
{ACAD_REACTORS
330
1F6F
102
}
330
1F6F
100
AcDbXrecord
280
     1
102
SHADEPLOT
 70
     0
  0
LAYOUT
  5
22
102
{ACAD_XDICTIONARY
360
1F69
102
}
102
{ACAD_REACTORS
330
1A
102
}
330
1A
100
AcDbPlotSettings
  1

  2
EPSON PM-800C
  4
A4
  6

 40
3.757083177566528
 41
14.7637300491333
 42
3.757080078125
 43
3.757080078125
 44
209.9733276367187
 45
296.9683227539062
 46
0.0
 47
0.0
 48
0.0
 49
0.0
140
0.0
141
0.0
142
1.0
143
10.0
 70
 11952
 72
     1
 73
     1
 74
     2
  7

 75
    20
147
0.1
148
0.0
149
0.0
100
AcDbLayout
  1
Model
 70
     1
 71
     0
 10
0.0
 20
0.0
 11
12.0
 21
9.0
 12
0.0
 22
0.0
 32
0.0
 14
0.0
 24
0.0
 34
0.0
 15
0.0
 25
0.0
 35
0.0
146
0.0
 13
0.0
 23
0.0
 33
0.0
 16
1.0
 26
0.0
 36
0.0
 17
0.0
 27
1.0
 37
0.0
 76
     0
330
1F
  0
LAYOUT
  5
1E
102
{ACAD_XDICTIONARY
360
1F67
102
}
102
{ACAD_REACTORS
330
1A
102
}
330
1A
100
AcDbPlotSettings
  1

  2
EPSON PM-800C
  4
A4
  6

 40
3.757083177566528
 41
14.7637300491333
 42
3.757080078125
 43
3.757080078125
 44
209.9733276367187
 45
296.9683227539062
 46
0.0
 47
0.0
 48
0.0
 49
0.0
140
0.0
141
0.0
142
1.0
143
1.0
 70
   688
 72
     1
 73
     1
 74
     5
  7

 75
    16
147
1.0
148
0.0
149
0.0
100
AcDbLayout
  1
ﾚｲｱｳﾄ1
 70
     1
 71
     1
 10
-3.757080078125
 20
-3.757083177566528
 11
293.2112426757813
 21
206.2162444591522
 12
0.0
 22
0.0
 32
0.0
 14
27.8447512626648
 24
20.24591643810271
 34
0.0
 15
250.6027613639831
 25
182.2132479429245
 35
0.0
146
0.0
 13
0.0
 23
0.0
 33
0.0
 16
1.0
 26
0.0
 36
0.0
 17
0.0
 27
1.0
 37
0.0
 76
     0
330
1B
331
2E
  0
LAYOUT
  5
26
102
{ACAD_XDICTIONARY
360
1F6B
102
}
102
{ACAD_REACTORS
330
1A
102
}
330
1A
100
AcDbPlotSettings
  1

  2
EPSON PM-800C
  4

  6

 40
0.0
 41
0.0
 42
0.0
 43
0.0
 44
0.0
 45
0.0
 46
0.0
 47
0.0
 48
0.0
 49
0.0
140
0.0
141
0.0
142
1.0
143
1.0
 70
   688
 72
     0
 73
     0
 74
     5
  7

 75
    16
147
1.0
148
0.0
149
0.0
100
AcDbLayout
  1
ﾚｲｱｳﾄ2
 70
     1
 71
     2
 10
0.0
 20
0.0
 11
12.0
 21
9.0
 12
0.0
 22
0.0
 32
0.0
 14
0.0
 24
0.0
 34
0.0
 15
0.0
 25
0.0
 35
0.0
146
0.0
 13
0.0
 23
0.0
 33
0.0
 16
1.0
 26
0.0
 36
0.0
 17
0.0
 27
1.0
 37
0.0
 76
     0
330
23
  0
MLINESTYLE
  5
18
102
{ACAD_REACTORS
330
17
102
}
330
17
100
AcDbMlineStyle
  2
STANDARD
 70
     0
  3

 62
   256
 51
90.0
 52
90.0
 71
     2
 49
0.5
 62
   256
  6
BYLAYER
 49
-0.5
 62
   256
  6
BYLAYER
  0
ACDBPLACEHOLDER
  5
F
102
{ACAD_REACTORS
330
E
102
}
330
E
  0
TABLESTYLE
  5
C15
102
{ACAD_REACTORS
330
C14
102
}
330
C14
100
AcDbTableStyle
  3
Standard
 70
     0
 71
     0
 40
1.5
 41
1.5
280
     0
281
     0
  7
Standard
140
4.5
170
     2
 62
     0
 63
     7
283
     0
274
    -2
284
     1
 64
     0
275
    -2
285
     1
 65
     0
276
    -2
286
     1
 66
     0
277
    -2
287
     1
 67
     0
278
    -2
288
     1
 68
     0
279
    -2
289
     1
 69
     0
  7
Standard
140
6.0
170
     5
 62
     0
 63
     7
283
     0
274
    -2
284
     1
 64
     0
275
    -2
285
     1
 65
     0
276
    -2
286
     1
 66
     0
277
    -2
287
     1
 67
     0
278
    -2
288
     1
 68
     0
279
    -2
289
     1
 69
     0
  7
Standard
140
4.5
170
     5
 62
     0
 63
     7
283
     0
274
    -2
284
     1
 64
     0
275
    -2
285
     1
 65
     0
276
    -2
286
     1
 66
     0
277
    -2
287
     1
 67
     0
278
    -2
288
     1
 68
     0
279
    -2
289
     1
 69
     0
  0
DICTIONARYVAR
  5
C23
102
{ACAD_REACTORS
330
96D
102
}
330
96D
100
DictionaryVariables
280
     0
  1
STANDARD
  0
DICTIONARYVAR
  5
1F63
102
{ACAD_REACTORS
330
96D
102
}
330
96D
100
DictionaryVariables
280
     0
  1
1
  0
DICTIONARYVAR
  5
1F64
102
{ACAD_REACTORS
330
96D
102
}
330
96D
100
DictionaryVariables
280
     0
  1

  0
DICTIONARYVAR
  5
96E
102
{ACAD_REACTORS
330
96D
102
}
330
96D
100
DictionaryVariables
280
     0
  1
96
  0
DICTIONARY
  5
1F69
330
22
100
AcDbDictionary
280
     1
281
     1
  3
ACAD_XREC_ROUNDTRIP
360
1F6A
  0
DICTIONARY
  5
1F67
330
1E
100
AcDbDictionary
280
     1
281
     1
  3
ACAD_XREC_ROUNDTRIP
360
1F68
  0
DICTIONARY
  5
1F6B
330
26
100
AcDbDictionary
280
     1
281
     1
  3
ACAD_XREC_ROUNDTRIP
360
1F6C
  0
XRECORD
  5
1F6A
102
{ACAD_REACTORS
330
1F69
102
}
330
1F69
100
AcDbXrecord
280
     1
102
SHADEPLOT
 70
     0
102
SHADEPLOTRESLEVEL
 70
     2
102
SHADEPLOTCUSTOMDPI
 70
   300
  0
XRECORD
  5
1F68
102
{ACAD_REACTORS
330
1F67
102
}
330
1F67
100
AcDbXrecord
280
     1
102
SHADEPLOT
 70
     0
102
SHADEPLOTRESLEVEL
 70
     2
102
SHADEPLOTCUSTOMDPI
 70
   300
  0
XRECORD
  5
1F6C
102
{ACAD_REACTORS
330
1F6B
102
}
330
1F6B
100
AcDbXrecord
280
     1
102
SHADEPLOT
 70
     0
102
SHADEPLOTRESLEVEL
 70
     2
102
SHADEPLOTCUSTOMDPI
 70
   300
  0
ENDSEC
  0
EOF
