  0
SECTION
  2
HEADER
  9
$ACADVER
  1
AC1015
  9
$ACADMAINTVER
 70
    20
  9
$DWGCODEPAGE
  3
ANSI_932
  9
$INSBASE
 10
0.0
 20
0.0
 30
0.0
  9
$EXTMIN
 10
126.0
 20
4.0
 30
0.0
  9
$EXTMAX
 10
2784.0
 20
2024.0
 30
0.0
  9
$LIMMIN
 10
0.0
 20
0.0
  9
$LIMMAX
 10
29700.0
 20
21000.0
  9
$ORTHOMODE
 70
     1
  9
$REGENMODE
 70
     1
  9
$FILLMODE
 70
     1
  9
$QTEXTMODE
 70
     0
  9
$MIRRTEXT
 70
     1
  9
$LTSCALE
 40
4.0
  9
$ATTMODE
 70
     1
  9
$TEXTSIZE
 40
35.0
  9
$TRACEWID
 40
1.0
  9
$TEXTSTYLE
  7
Standard
  9
$CLAYER
  8
実形
  9
$CELTYPE
  6
ByLayer
  9
$CECOLOR
 62
   256
  9
$CELTSCALE
 40
1.0
  9
$DISPSILH
 70
     0
  9
$DIMSCALE
 40
1.0
  9
$DIMASZ
 40
20.0
  9
$DIMEXO
 40
65.0
  9
$DIMDLI
 40
3.75
  9
$DIMRND
 40
0.0
  9
$DIMDLE
 40
0.0
  9
$DIMEXE
 40
0.0
  9
$DIMTP
 40
0.0
  9
$DIMTM
 40
0.0
  9
$DIMTXT
 40
25.0
  9
$DIMCEN
 40
2.5
  9
$DIMTSZ
 40
0.0
  9
$DIMTOL
 70
     0
  9
$DIMLIM
 70
     0
  9
$DIMTIH
 70
     0
  9
$DIMTOH
 70
     0
  9
$DIMSE1
 70
     0
  9
$DIMSE2
 70
     0
  9
$DIMTAD
 70
     1
  9
$DIMZIN
 70
     8
  9
$DIMBLK
  1
Open30
  9
$DIMASO
 70
     1
  9
$DIMSHO
 70
     1
  9
$DIMPOST
  1

  9
$DIMAPOST
  1

  9
$DIMALT
 70
     0
  9
$DIMALTD
 70
     3
  9
$DIMALTF
 40
0.03937007874016
  9
$DIMLFAC
 40
1.0
  9
$DIMTOFL
 70
     1
  9
$DIMTVP
 40
0.0
  9
$DIMTIX
 70
     0
  9
$DIMSOXD
 70
     0
  9
$DIMSAH
 70
     0
  9
$DIMBLK1
  1

  9
$DIMBLK2
  1

  9
$DIMSTYLE
  2
ISO-25
  9
$DIMCLRD
 70
     0
  9
$DIMCLRE
 70
     0
  9
$DIMCLRT
 70
     0
  9
$DIMTFAC
 40
1.0
  9
$DIMGAP
 40
6.25
  9
$DIMJUST
 70
     0
  9
$DIMSD1
 70
     0
  9
$DIMSD2
 70
     0
  9
$DIMTOLJ
 70
     0
  9
$DIMTZIN
 70
     8
  9
$DIMALTZ
 70
     0
  9
$DIMALTTZ
 70
     0
  9
$DIMUPT
 70
     0
  9
$DIMDEC
 70
     2
  9
$DIMTDEC
 70
     2
  9
$DIMALTU
 70
     2
  9
$DIMALTTD
 70
     3
  9
$DIMTXSTY
  7
Standard
  9
$DIMAUNIT
 70
     0
  9
$DIMADEC
 70
     0
  9
$DIMALTRND
 40
0.0
  9
$DIMAZIN
 70
     0
  9
$DIMDSEP
 70
    46
  9
$DIMATFIT
 70
     3
  9
$DIMFRAC
 70
     0
  9
$DIMLDRBLK
  1
Open30
  9
$DIMLUNIT
 70
     2
  9
$DIMLWD
 70
    15
  9
$DIMLWE
 70
    15
  9
$DIMTMOVE
 70
     0
  9
$LUNITS
 70
     2
  9
$LUPREC
 70
     2
  9
$SKETCHINC
 40
1.0
  9
$FILLETRAD
 40
3.0
  9
$AUNITS
 70
     0
  9
$AUPREC
 70
     0
  9
$MENU
  1
.
  9
$ELEVATION
 40
0.0
  9
$PELEVATION
 40
0.0
  9
$THICKNESS
 40
0.0
  9
$LIMCHECK
 70
     1
  9
$CHAMFERA
 40
10.0
  9
$CHAMFERB
 40
10.0
  9
$CHAMFERC
 40
20.0
  9
$CHAMFERD
 40
0.0
  9
$SKPOLY
 70
     0
  9
$TDCREATE
 40
2451673.575802199
  9
$TDUCREATE
 40
2451673.200802199
  9
$TDUPDATE
 40
2458807.476643912
  9
$TDUUPDATE
 40
2458807.101643912
  9
$TDINDWG
 40
1.3369723495
  9
$TDUSRTIMER
 40
1.3369716551
  9
$USRTIMER
 70
     1
  9
$ANGBASE
 50
0.0
  9
$ANGDIR
 70
     0
  9
$PDMODE
 70
     0
  9
$PDSIZE
 40
0.0
  9
$PLINEWID
 40
0.0
  9
$SPLFRAME
 70
     0
  9
$SPLINETYPE
 70
     6
  9
$SPLINESEGS
 70
     8
  9
$HANDSEED
  5
195A
  9
$SURFTAB1
 70
     6
  9
$SURFTAB2
 70
     6
  9
$SURFTYPE
 70
     6
  9
$SURFU
 70
     6
  9
$SURFV
 70
     6
  9
$UCSBASE
  2

  9
$UCSNAME
  2

  9
$UCSORG
 10
0.0
 20
0.0
 30
0.0
  9
$UCSXDIR
 10
1.0
 20
0.0
 30
0.0
  9
$UCSYDIR
 10
0.0
 20
1.0
 30
0.0
  9
$UCSORTHOREF
  2

  9
$UCSORTHOVIEW
 70
     0
  9
$UCSORGTOP
 10
0.0
 20
0.0
 30
0.0
  9
$UCSORGBOTTOM
 10
0.0
 20
0.0
 30
0.0
  9
$UCSORGLEFT
 10
0.0
 20
0.0
 30
0.0
  9
$UCSORGRIGHT
 10
0.0
 20
0.0
 30
0.0
  9
$UCSORGFRONT
 10
0.0
 20
0.0
 30
0.0
  9
$UCSORGBACK
 10
0.0
 20
0.0
 30
0.0
  9
$PUCSBASE
  2

  9
$PUCSNAME
  2

  9
$PUCSORG
 10
0.0
 20
0.0
 30
0.0
  9
$PUCSXDIR
 10
1.0
 20
0.0
 30
0.0
  9
$PUCSYDIR
 10
0.0
 20
1.0
 30
0.0
  9
$PUCSORTHOREF
  2

  9
$PUCSORTHOVIEW
 70
     0
  9
$PUCSORGTOP
 10
0.0
 20
0.0
 30
0.0
  9
$PUCSORGBOTTOM
 10
0.0
 20
0.0
 30
0.0
  9
$PUCSORGLEFT
 10
0.0
 20
0.0
 30
0.0
  9
$PUCSORGRIGHT
 10
0.0
 20
0.0
 30
0.0
  9
$PUCSORGFRONT
 10
0.0
 20
0.0
 30
0.0
  9
$PUCSORGBACK
 10
0.0
 20
0.0
 30
0.0
  9
$USERI1
 70
     0
  9
$USERI2
 70
     0
  9
$USERI3
 70
     0
  9
$USERI4
 70
     0
  9
$USERI5
 70
     0
  9
$USERR1
 40
0.0
  9
$USERR2
 40
0.0
  9
$USERR3
 40
0.0
  9
$USERR4
 40
0.0
  9
$USERR5
 40
0.0
  9
$WORLDVIEW
 70
     1
  9
$SHADEDGE
 70
     3
  9
$SHADEDIF
 70
    70
  9
$TILEMODE
 70
     1
  9
$MAXACTVP
 70
    64
  9
$PINSBASE
 10
0.0
 20
0.0
 30
0.0
  9
$PLIMCHECK
 70
     0
  9
$PEXTMIN
 10
27.8447512626648
 20
20.24591643810271
 30
0.0
  9
$PEXTMAX
 10
250.6027613639831
 20
182.2132479429245
 30
0.0
  9
$PLIMMIN
 10
-3.757080078125
 20
-3.757083177566528
  9
$PLIMMAX
 10
293.2112426757813
 20
206.2162444591522
  9
$UNITMODE
 70
     0
  9
$VISRETAIN
 70
     1
  9
$PLINEGEN
 70
     0
  9
$PSLTSCALE
 70
     1
  9
$TREEDEPTH
 70
  3020
  9
$CMLSTYLE
  2
Standard
  9
$CMLJUST
 70
     0
  9
$CMLSCALE
 40
20.0
  9
$PROXYGRAPHICS
 70
     1
  9
$MEASUREMENT
 70
     1
  9
$CELWEIGHT
370
    -1
  9
$ENDCAPS
280
     0
  9
$JOINSTYLE
280
     0
  9
$LWDISPLAY
290
     0
  9
$INSUNITS
 70
     4
  9
$HYPERLINKBASE
  1

  9
$STYLESHEET
  1

  9
$XEDIT
290
     1
  9
$CEPSNTYPE
380
     0
  9
$PSTYLEMODE
290
     1
  9
$FINGERPRINTGUID
  2
{C8EA1F16-24C9-11D4-9416-CE0A3B32152F}
  9
$VERSIONGUID
  2
{5BCE254B-45DE-4A1D-AC3B-24E48A5B08AE}
  9
$EXTNAMES
290
     1
  9
$PSVPSCALE
 40
0.0
  9
$OLESTARTUP
290
     0
  0
ENDSEC
  0
SECTION
  2
CLASSES
  0
CLASS
  1
ACDBDICTIONARYWDFLT
  2
AcDbDictionaryWithDefault
  3
ObjectDBX Classes
 90
        0
280
     0
281
     0
  0
CLASS
  1
ACDBPLACEHOLDER
  2
AcDbPlaceHolder
  3
ObjectDBX Classes
 90
        0
280
     0
281
     0
  0
CLASS
  1
LAYOUT
  2
AcDbLayout
  3
ObjectDBX Classes
 90
        0
280
     0
281
     0
  0
CLASS
  1
DICTIONARYVAR
  2
AcDbDictionaryVar
  3
ObjectDBX Classes
 90
        0
280
     0
281
     0
  0
CLASS
  1
TABLESTYLE
  2
AcDbTableStyle
  3
ObjectDBX Classes
 90
     2047
280
     0
281
     0
  0
CLASS
  1
SORTENTSTABLE
  2
AcDbSortentsTable
  3
ObjectDBX Classes
 90
        0
280
     0
281
     0
  0
ENDSEC
  0
SECTION
  2
TABLES
  0
TABLE
  2
VPORT
  5
8
330
0
100
AcDbSymbolTable
 70
     2
  0
VPORT
  5
194E
330
8
100
AcDbSymbolTableRecord
100
AcDbViewportTableRecord
  2
*Active
 70
     0
 10
0.0
 20
0.0
 11
1.0
 21
1.0
 12
1457.100704846167
 22
991.8173529456012
 13
0.0
 23
0.0
 14
10.0
 24
10.0
 15
10.0
 25
10.0
 16
0.0
 26
0.0
 36
1.0
 17
0.0
 27
0.0
 37
0.0
 40
2162.980367360616
 41
1.29038112522686
 42
50.0
 43
0.0
 44
0.0
 50
0.0
 51
0.0
 71
     0
 72
   100
 73
     1
 74
     3
 75
     0
 76
     0
 77
     0
 78
     0
281
     0
 65
     1
110
0.0
120
0.0
130
0.0
111
1.0
121
0.0
131
0.0
112
0.0
122
1.0
132
0.0
 79
     0
146
0.0
  0
ENDTAB
  0
TABLE
  2
LTYPE
  5
5
330
0
100
AcDbSymbolTable
 70
    46
  0
LTYPE
  5
14
330
5
100
AcDbSymbolTableRecord
100
AcDbLinetypeTableRecord
  2
ByBlock
 70
     0
  3

 72
    65
 73
     0
 40
0.0
  0
LTYPE
  5
15
330
5
100
AcDbSymbolTableRecord
100
AcDbLinetypeTableRecord
  2
ByLayer
 70
     0
  3

 72
    65
 73
     0
 40
0.0
  0
LTYPE
  5
16
330
5
100
AcDbSymbolTableRecord
100
AcDbLinetypeTableRecord
  2
Continuous
 70
     0
  3
Solid line
 72
    65
 73
     0
 40
0.0
  0
LTYPE
  5
34
330
5
100
AcDbSymbolTableRecord
100
AcDbLinetypeTableRecord
  2
ACAD_ISO02W100
 70
     0
  3
ISO dash __ __ __ __ __ __ __ __ __ __ __ __ __
 72
    65
 73
     2
 40
15.0
 49
12.0
 74
     0
 49
-3.0
 74
     0
  0
LTYPE
  5
35
330
5
100
AcDbSymbolTableRecord
100
AcDbLinetypeTableRecord
  2
ACAD_ISO03W100
 70
     0
  3
ISO dash space __    __    __    __    __    __
 72
    65
 73
     2
 40
30.0
 49
12.0
 74
     0
 49
-18.0
 74
     0
  0
LTYPE
  5
36
330
5
100
AcDbSymbolTableRecord
100
AcDbLinetypeTableRecord
  2
ACAD_ISO04W100
 70
     0
  3
ISO long-dash dot ____ . ____ . ____ . ____ . _
 72
    65
 73
     4
 40
30.0
 49
24.0
 74
     0
 49
-3.0
 74
     0
 49
0.0
 74
     0
 49
-3.0
 74
     0
  0
LTYPE
  5
37
330
5
100
AcDbSymbolTableRecord
100
AcDbLinetypeTableRecord
  2
ACAD_ISO05W100
 70
     0
  3
ISO long-dash double-dot ____ .. ____ .. ____ .
 72
    65
 73
     6
 40
34.0
 49
24.0
 74
     0
 49
-3.0
 74
     0
 49
0.5
 74
     0
 49
-3.0
 74
     0
 49
0.5
 74
     0
 49
-3.0
 74
     0
  0
LTYPE
  5
38
330
5
100
AcDbSymbolTableRecord
100
AcDbLinetypeTableRecord
  2
ACAD_ISO06W100
 70
     0
  3
ISO long-dash triple-dot ____ ... ____ ... ____
 72
    65
 73
     8
 40
37.5
 49
24.0
 74
     0
 49
-3.0
 74
     0
 49
0.5
 74
     0
 49
-3.0
 74
     0
 49
0.5
 74
     0
 49
-3.0
 74
     0
 49
0.5
 74
     0
 49
-3.0
 74
     0
  0
LTYPE
  5
39
330
5
100
AcDbSymbolTableRecord
100
AcDbLinetypeTableRecord
  2
ACAD_ISO07W100
 70
     0
  3
ISO dot . . . . . . . . . . . . . . . . . . . .
 72
    65
 73
     2
 40
3.0
 49
0.0
 74
     0
 49
-3.0
 74
     0
  0
LTYPE
  5
3A
330
5
100
AcDbSymbolTableRecord
100
AcDbLinetypeTableRecord
  2
ACAD_ISO08W100
 70
     0
  3
ISO long-dash short-dash ____ __ ____ __ ____ _
 72
    65
 73
     4
 40
36.0
 49
24.0
 74
     0
 49
-3.0
 74
     0
 49
6.0
 74
     0
 49
-3.0
 74
     0
  0
LTYPE
  5
3B
330
5
100
AcDbSymbolTableRecord
100
AcDbLinetypeTableRecord
  2
ACAD_ISO09W100
 70
     0
  3
ISO long-dash double-short-dash ____ __ __ ____
 72
    65
 73
     6
 40
45.0
 49
24.0
 74
     0
 49
-3.0
 74
     0
 49
6.0
 74
     0
 49
-3.0
 74
     0
 49
6.0
 74
     0
 49
-3.0
 74
     0
  0
LTYPE
  5
3C
330
5
100
AcDbSymbolTableRecord
100
AcDbLinetypeTableRecord
  2
ACAD_ISO10W100
 70
     0
  3
ISO dash dot __ . __ . __ . __ . __ . __ . __ .
 72
    65
 73
     4
 40
18.0
 49
12.0
 74
     0
 49
-3.0
 74
     0
 49
0.0
 74
     0
 49
-3.0
 74
     0
  0
LTYPE
  5
3D
330
5
100
AcDbSymbolTableRecord
100
AcDbLinetypeTableRecord
  2
ACAD_ISO11W100
 70
     0
  3
ISO double-dash dot __ __ . __ __ . __ __ . __ 
 72
    65
 73
     6
 40
33.0
 49
12.0
 74
     0
 49
-3.0
 74
     0
 49
12.0
 74
     0
 49
-3.0
 74
     0
 49
0.0
 74
     0
 49
-3.0
 74
     0
  0
LTYPE
  5
3E
330
5
100
AcDbSymbolTableRecord
100
AcDbLinetypeTableRecord
  2
ACAD_ISO12W100
 70
     0
  3
ISO dash double-dot __ . . __ . . __ . . __ . .
 72
    65
 73
     6
 40
21.0
 49
12.0
 74
     0
 49
-3.0
 74
     0
 49
0.0
 74
     0
 49
-3.0
 74
     0
 49
0.0
 74
     0
 49
-3.0
 74
     0
  0
LTYPE
  5
3F
330
5
100
AcDbSymbolTableRecord
100
AcDbLinetypeTableRecord
  2
ACAD_ISO13W100
 70
     0
  3
ISO double-dash double-dot __ __ . . __ __ . . 
 72
    65
 73
     8
 40
36.0
 49
12.0
 74
     0
 49
-3.0
 74
     0
 49
12.0
 74
     0
 49
-3.0
 74
     0
 49
0.0
 74
     0
 49
-3.0
 74
     0
 49
0.0
 74
     0
 49
-3.0
 74
     0
  0
LTYPE
  5
40
330
5
100
AcDbSymbolTableRecord
100
AcDbLinetypeTableRecord
  2
ACAD_ISO14W100
 70
     0
  3
ISO dash triple-dot __ . . . __ . . . __ . . . 
 72
    65
 73
     8
 40
24.0
 49
12.0
 74
     0
 49
-3.0
 74
     0
 49
0.0
 74
     0
 49
-3.0
 74
     0
 49
0.0
 74
     0
 49
-3.0
 74
     0
 49
0.0
 74
     0
 49
-3.0
 74
     0
  0
LTYPE
  5
41
330
5
100
AcDbSymbolTableRecord
100
AcDbLinetypeTableRecord
  2
ACAD_ISO15W100
 70
     0
  3
ISO double-dash triple-dot __ __ . . . __ __ . 
 72
    65
 73
    10
 40
39.0
 49
12.0
 74
     0
 49
-3.0
 74
     0
 49
12.0
 74
     0
 49
-3.0
 74
     0
 49
0.0
 74
     0
 49
-3.0
 74
     0
 49
0.0
 74
     0
 49
-3.0
 74
     0
 49
0.0
 74
     0
 49
-3.0
 74
     0
  0
LTYPE
  5
42
330
5
100
AcDbSymbolTableRecord
100
AcDbLinetypeTableRecord
  2
BATTING
 70
     0
  3
Batting SSSSSSSSSSSSSSSSSSSSSSSSSSSSSSSSSSSSSSS
 72
    65
 73
     4
 40
10.16254
 49
0.00254
 74
     0
 49
-2.54
 74
     4
 75
   134
340
33
 46
2.54
 50
0.0
 44
-2.54
 45
0.0
 49
-5.08
 74
     4
 75
   134
340
33
 46
2.54
 50
180.0
 44
2.54
 45
0.0
 49
-2.54
 74
     0
  0
LTYPE
  5
43
330
5
100
AcDbSymbolTableRecord
100
AcDbLinetypeTableRecord
  2
BORDER
 70
     0
  3
Border __ __ . __ __ . __ __ . __ __ . __ __ .
 72
    65
 73
     6
 40
44.45
 49
12.7
 74
     0
 49
-6.349999999999999
 74
     0
 49
12.7
 74
     0
 49
-6.349999999999999
 74
     0
 49
0.0
 74
     0
 49
-6.349999999999999
 74
     0
  0
LTYPE
  5
44
330
5
100
AcDbSymbolTableRecord
100
AcDbLinetypeTableRecord
  2
BORDER2
 70
     0
  3
Border (.5x) __.__.__.__.__.__.__.__.__.__.__.
 72
    65
 73
     6
 40
22.225
 49
6.349999999999999
 74
     0
 49
-3.174999999999999
 74
     0
 49
6.349999999999999
 74
     0
 49
-3.174999999999999
 74
     0
 49
0.0
 74
     0
 49
-3.174999999999999
 74
     0
  0
LTYPE
  5
45
330
5
100
AcDbSymbolTableRecord
100
AcDbLinetypeTableRecord
  2
BORDERX2
 70
     0
  3
Border (2x) ____  ____  .  ____  ____  .  ___
 72
    65
 73
     6
 40
88.9
 49
25.4
 74
     0
 49
-12.7
 74
     0
 49
25.4
 74
     0
 49
-12.7
 74
     0
 49
0.0
 74
     0
 49
-12.7
 74
     0
  0
LTYPE
  5
46
330
5
100
AcDbSymbolTableRecord
100
AcDbLinetypeTableRecord
  2
CENTER
 70
     0
  3
Center ____ _ ____ _ ____ _ ____ _ ____ _ ____
 72
    65
 73
     4
 40
50.8
 49
31.75
 74
     0
 49
-6.349999999999999
 74
     0
 49
6.349999999999999
 74
     0
 49
-6.349999999999999
 74
     0
  0
LTYPE
  5
47
330
5
100
AcDbSymbolTableRecord
100
AcDbLinetypeTableRecord
  2
CENTER2
 70
     0
  3
Center (.5x) ___ _ ___ _ ___ _ ___ _ ___ _ ___
 72
    65
 73
     4
 40
28.575
 49
19.05
 74
     0
 49
-3.174999999999999
 74
     0
 49
3.174999999999999
 74
     0
 49
-3.174999999999999
 74
     0
  0
LTYPE
  5
48
330
5
100
AcDbSymbolTableRecord
100
AcDbLinetypeTableRecord
  2
CENTERX2
 70
     0
  3
Center (2x) ________  __  ________  __  _____
 72
    65
 73
     4
 40
101.6
 49
63.5
 74
     0
 49
-12.7
 74
     0
 49
12.7
 74
     0
 49
-12.7
 74
     0
  0
LTYPE
  5
49
330
5
100
AcDbSymbolTableRecord
100
AcDbLinetypeTableRecord
  2
DASHDOT
 70
     0
  3
Dash dot __ . __ . __ . __ . __ . __ . __ . __
 72
    65
 73
     4
 40
25.4
 49
12.7
 74
     0
 49
-6.349999999999999
 74
     0
 49
0.0
 74
     0
 49
-6.349999999999999
 74
     0
  0
LTYPE
  5
4A
330
5
100
AcDbSymbolTableRecord
100
AcDbLinetypeTableRecord
  2
DASHDOT2
 70
     0
  3
Dash dot (.5x) _._._._._._._._._._._._._._._.
 72
    65
 73
     4
 40
12.7
 49
6.349999999999999
 74
     0
 49
-3.174999999999999
 74
     0
 49
0.0
 74
     0
 49
-3.174999999999999
 74
     0
  0
LTYPE
  5
4B
330
5
100
AcDbSymbolTableRecord
100
AcDbLinetypeTableRecord
  2
DASHDOTX2
 70
     0
  3
Dash dot (2x) ____  .  ____  .  ____  .  ___
 72
    65
 73
     4
 40
50.8
 49
25.4
 74
     0
 49
-12.7
 74
     0
 49
0.0
 74
     0
 49
-12.7
 74
     0
  0
LTYPE
  5
4C
330
5
100
AcDbSymbolTableRecord
100
AcDbLinetypeTableRecord
  2
DASHED
 70
     0
  3
Dashed __ __ __ __ __ __ __ __ __ __ __ __ __ _
 72
    65
 73
     2
 40
19.05
 49
12.7
 74
     0
 49
-6.349999999999999
 74
     0
  0
LTYPE
  5
4D
330
5
100
AcDbSymbolTableRecord
100
AcDbLinetypeTableRecord
  2
DASHED2
 70
     0
  3
Dashed (.5x) _ _ _ _ _ _ _ _ _ _ _ _ _ _ _ _ _
 72
    65
 73
     2
 40
9.524999999999998
 49
6.349999999999999
 74
     0
 49
-3.174999999999999
 74
     0
  0
LTYPE
  5
4E
330
5
100
AcDbSymbolTableRecord
100
AcDbLinetypeTableRecord
  2
DASHEDX2
 70
     0
  3
Dashed (2x) ____  ____  ____  ____  ____  ___
 72
    65
 73
     2
 40
38.1
 49
25.4
 74
     0
 49
-12.7
 74
     0
  0
LTYPE
  5
4F
330
5
100
AcDbSymbolTableRecord
100
AcDbLinetypeTableRecord
  2
DIVIDE
 70
     0
  3
Divide ____ . . ____ . . ____ . . ____ . . ____
 72
    65
 73
     6
 40
31.75
 49
12.7
 74
     0
 49
-6.349999999999999
 74
     0
 49
0.0
 74
     0
 49
-6.349999999999999
 74
     0
 49
0.0
 74
     0
 49
-6.349999999999999
 74
     0
  0
LTYPE
  5
50
330
5
100
AcDbSymbolTableRecord
100
AcDbLinetypeTableRecord
  2
DIVIDE2
 70
     0
  3
Divide (.5x) __..__..__..__..__..__..__..__.._
 72
    65
 73
     6
 40
15.875
 49
6.349999999999999
 74
     0
 49
-3.174999999999999
 74
     0
 49
0.0
 74
     0
 49
-3.174999999999999
 74
     0
 49
0.0
 74
     0
 49
-3.174999999999999
 74
     0
  0
LTYPE
  5
51
330
5
100
AcDbSymbolTableRecord
100
AcDbLinetypeTableRecord
  2
DIVIDEX2
 70
     0
  3
Divide (2x) ________  .  .  ________  .  .  _
 72
    65
 73
     6
 40
63.49999999999999
 49
25.4
 74
     0
 49
-12.7
 74
     0
 49
0.0
 74
     0
 49
-12.7
 74
     0
 49
0.0
 74
     0
 49
-12.7
 74
     0
  0
LTYPE
  5
52
330
5
100
AcDbSymbolTableRecord
100
AcDbLinetypeTableRecord
  2
DOT
 70
     0
  3
Dot . . . . . . . . . . . . . . . . . . . . . .
 72
    65
 73
     2
 40
6.349999999999999
 49
0.0
 74
     0
 49
-6.349999999999999
 74
     0
  0
LTYPE
  5
53
330
5
100
AcDbSymbolTableRecord
100
AcDbLinetypeTableRecord
  2
DOT2
 70
     0
  3
Dot (.5x) .....................................
 72
    65
 73
     2
 40
3.174999999999999
 49
0.0
 74
     0
 49
-3.174999999999999
 74
     0
  0
LTYPE
  5
54
330
5
100
AcDbSymbolTableRecord
100
AcDbLinetypeTableRecord
  2
DOTX2
 70
     0
  3
Dot (2x) .  .  .  .  .  .  .  .  .  .  .  .  . 
 72
    65
 73
     2
 40
12.7
 49
0.0
 74
     0
 49
-12.7
 74
     0
  0
LTYPE
  5
55
330
5
100
AcDbSymbolTableRecord
100
AcDbLinetypeTableRecord
  2
FENCELINE1
 70
     0
  3
Fenceline circle ----0-----0----0-----0----0---
 72
    65
 73
     4
 40
36.83
 49
6.349999999999999
 74
     0
 49
-2.54
 74
     4
 75
   133
340
33
 46
2.54
 50
0.0
 44
-2.54
 45
0.0
 49
-2.54
 74
     0
 49
25.4
 74
     0
  0
LTYPE
  5
56
330
5
100
AcDbSymbolTableRecord
100
AcDbLinetypeTableRecord
  2
FENCELINE2
 70
     0
  3
Fenceline square ----[]-----[]----[]-----[]----
 72
    65
 73
     4
 40
36.83
 49
6.349999999999999
 74
     0
 49
-2.54
 74
     4
 75
   132
340
33
 46
2.54
 50
0.0
 44
-2.54
 45
0.0
 49
-2.54
 74
     0
 49
25.4
 74
     0
  0
LTYPE
  5
57
330
5
100
AcDbSymbolTableRecord
100
AcDbLinetypeTableRecord
  2
GAS_LINE
 70
     0
  3
Gas line ----GAS----GAS----GAS----GAS----GAS---
 72
    65
 73
     3
 40
24.13
 49
12.7
 74
     0
 49
-5.08
 74
     2
 75
     0
340
11
 46
2.54
 50
0.0
 44
-2.54
 45
-1.27
  9
GAS
 49
-6.349999999999999
 74
     0
  0
LTYPE
  5
58
330
5
100
AcDbSymbolTableRecord
100
AcDbLinetypeTableRecord
  2
HIDDEN
 70
     0
  3
Hidden __ __ __ __ __ __ __ __ __ __ __ __ __ _
 72
    65
 73
     2
 40
9.524999999999998
 49
6.349999999999999
 74
     0
 49
-3.174999999999999
 74
     0
  0
LTYPE
  5
59
330
5
100
AcDbSymbolTableRecord
100
AcDbLinetypeTableRecord
  2
HIDDEN2
 70
     0
  3
Hidden (.5x) _ _ _ _ _ _ _ _ _ _ _ _ _ _ _ _ _
 72
    65
 73
     2
 40
4.762499999999999
 49
3.174999999999999
 74
     0
 49
-1.587499999999999
 74
     0
  0
LTYPE
  5
5A
330
5
100
AcDbSymbolTableRecord
100
AcDbLinetypeTableRecord
  2
HIDDENX2
 70
     0
  3
Hidden (2x) ____ ____ ____ ____ ____ ____ ____
 72
    65
 73
     2
 40
19.05
 49
12.7
 74
     0
 49
-6.349999999999999
 74
     0
  0
LTYPE
  5
5B
330
5
100
AcDbSymbolTableRecord
100
AcDbLinetypeTableRecord
  2
HOT_WATER_SUPPLY
 70
     0
  3
Hot water supply ---- HW ---- HW ---- HW ----
 72
    65
 73
     3
 40
22.86
 49
12.7
 74
     0
 49
-5.08
 74
     2
 75
     0
340
11
 46
2.54
 50
0.0
 44
-2.54
 45
-1.27
  9
HW
 49
-5.08
 74
     0
  0
LTYPE
  5
5C
330
5
100
AcDbSymbolTableRecord
100
AcDbLinetypeTableRecord
  2
PHANTOM
 70
     0
  3
Phantom ______  __  __  ______  __  __  ______
 72
    65
 73
     6
 40
63.5
 49
31.75
 74
     0
 49
-6.349999999999999
 74
     0
 49
6.349999999999999
 74
     0
 49
-6.349999999999999
 74
     0
 49
6.349999999999999
 74
     0
 49
-6.349999999999999
 74
     0
  0
LTYPE
  5
5D
330
5
100
AcDbSymbolTableRecord
100
AcDbLinetypeTableRecord
  2
PHANTOM2
 70
     0
  3
Phantom (.5x) ___ _ _ ___ _ _ ___ _ _ ___ _ _
 72
    65
 73
     6
 40
31.75
 49
15.875
 74
     0
 49
-3.174999999999999
 74
     0
 49
3.174999999999999
 74
     0
 49
-3.174999999999999
 74
     0
 49
3.174999999999999
 74
     0
 49
-3.174999999999999
 74
     0
  0
LTYPE
  5
5E
330
5
100
AcDbSymbolTableRecord
100
AcDbLinetypeTableRecord
  2
PHANTOMX2
 70
     0
  3
Phantom (2x) ____________    ____    ____   _
 72
    65
 73
     6
 40
127.0
 49
63.5
 74
     0
 49
-12.7
 74
     0
 49
12.7
 74
     0
 49
-12.7
 74
     0
 49
12.7
 74
     0
 49
-12.7
 74
     0
  0
LTYPE
  5
5F
330
5
100
AcDbSymbolTableRecord
100
AcDbLinetypeTableRecord
  2
TRACKS
 70
     0
  3
Tracks -|-|-|-|-|-|-|-|-|-|-|-|-|-|-|-|-|-|-|-|
 72
    65
 73
     2
 40
7.62
 49
3.81
 74
     4
 75
   130
340
33
 46
6.349999999999999
 50
0.0
 44
0.0
 45
0.0
 49
3.81
 74
     0
  0
LTYPE
  5
60
330
5
100
AcDbSymbolTableRecord
100
AcDbLinetypeTableRecord
  2
ZIGZAG
 70
     0
  3
Zig zag /\/\/\/\/\/\/\/\/\/\/\/\/\/\/\/\/\/\/\/
 72
    65
 73
     4
 40
20.32254
 49
0.00254
 74
     0
 49
-5.08
 74
     4
 75
   131
340
33
 46
5.08
 50
0.0
 44
-5.08
 45
0.0
 49
-10.16
 74
     4
 75
   131
340
33
 46
5.08
 50
180.0
 44
5.08
 45
0.0
 49
-5.08
 74
     0
  0
ENDTAB
  0
TABLE
  2
LAYER
  5
2
102
{ACAD_XDICTIONARY
360
1359
102
}
330
0
100
AcDbSymbolTable
 70
     9
  0
LAYER
  5
10
330
2
100
AcDbSymbolTableRecord
100
AcDbLayerTableRecord
  2
0
 70
     0
 62
     7
  6
Continuous
370
    -3
390
F
  0
LAYER
  5
C3
330
2
100
AcDbSymbolTableRecord
100
AcDbLayerTableRecord
  2
Defpoints
 70
     0
 62
     7
  6
Continuous
290
     0
370
    -3
390
F
  0
LAYER
  5
256
330
2
100
AcDbSymbolTableRecord
100
AcDbLayerTableRecord
  2
センター
 70
     0
 62
     7
  6
CENTER2
370
    15
390
F
  0
LAYER
  5
268
330
2
100
AcDbSymbolTableRecord
100
AcDbLayerTableRecord
  2
実形
 70
     0
 62
     7
  6
Continuous
370
    -3
390
F
  0
LAYER
  5
269
330
2
100
AcDbSymbolTableRecord
100
AcDbLayerTableRecord
  2
補助
 70
     0
 62
     7
  6
Continuous
370
    -3
390
F
  0
LAYER
  5
26A
330
2
100
AcDbSymbolTableRecord
100
AcDbLayerTableRecord
  2
寸法
 70
     0
 62
     7
  6
Continuous
370
    -3
390
F
  0
LAYER
  5
26B
330
2
100
AcDbSymbolTableRecord
100
AcDbLayerTableRecord
  2
ハッチング
 70
     0
 62
     7
  6
Continuous
370
    18
390
F
  0
LAYER
  5
26D
330
2
100
AcDbSymbolTableRecord
100
AcDbLayerTableRecord
  2
文字
 70
     0
 62
     7
  6
Continuous
370
    -3
390
F
  0
LAYER
  5
FCC
330
2
100
AcDbSymbolTableRecord
100
AcDbLayerTableRecord
  2
Cen
 70
     0
 62
     7
  6
CENTER2
370
    15
390
F
  0
ENDTAB
  0
TABLE
  2
STYLE
  5
3
330
0
100
AcDbSymbolTable
 70
     5
  0
STYLE
  5
11
330
3
100
AcDbSymbolTableRecord
100
AcDbTextStyleTableRecord
  2
Standard
 70
     0
 40
0.0
 41
1.0
 50
0.0
 71
     0
 42
35.0
  3
txt.shx
  4

  0
STYLE
  5
33
330
3
100
AcDbSymbolTableRecord
100
AcDbTextStyleTableRecord
  2

 70
     1
 40
0.0
 41
1.0
 50
0.0
 71
     0
 42
2.5
  3
ltypeshp.shx
  4

  0
STYLE
  5
1358
330
3
100
AcDbSymbolTableRecord
100
AcDbTextStyleTableRecord
  2
MS明朝
 70
     0
 40
0.0
 41
1.0
 50
0.0
 71
     0
 42
35.0
  3
MS Mincho.ttf
  4

1001
ACAD
1000
MS Mincho
1071
    32785
  0
STYLE
  5
15E5
330
3
100
AcDbSymbolTableRecord
100
AcDbTextStyleTableRecord
  2
ｍｓ明朝
 70
     0
 40
0.0
 41
1.0
 50
0.0
 71
     0
 42
35.0
  3
MS Mincho.ttf
  4

1001
ACAD
1000
MS Mincho
1071
    32785
  0
STYLE
  5
1910
330
3
100
AcDbSymbolTableRecord
100
AcDbTextStyleTableRecord
  2
明朝
 70
     0
 40
0.0
 41
1.0
 50
0.0
 71
     0
 42
25.0
  3
MS Mincho.ttf
  4

1001
ACAD
1000
MS Mincho
1071
    32785
  0
ENDTAB
  0
TABLE
  2
VIEW
  5
6
330
0
100
AcDbSymbolTable
 70
     0
  0
ENDTAB
  0
TABLE
  2
UCS
  5
7
330
0
100
AcDbSymbolTable
 70
     0
  0
ENDTAB
  0
TABLE
  2
APPID
  5
9
330
0
100
AcDbSymbolTable
 70
     2
  0
APPID
  5
12
330
9
100
AcDbSymbolTableRecord
100
AcDbRegAppTableRecord
  2
ACAD
 70
     0
  0
APPID
  5
1364
330
9
100
AcDbSymbolTableRecord
100
AcDbRegAppTableRecord
  2
ACAD_PSEXT
 70
     0
  0
ENDTAB
  0
TABLE
  2
DIMSTYLE
  5
A
330
0
100
AcDbSymbolTable
 70
     1
100
AcDbDimStyleTable
 71
     1
340
27
  0
DIMSTYLE
105
27
102
{ACAD_REACTORS
330
63C
330
66C
330
6AA
330
6EA
330
77B
330
EB5
330
4FD
330
522
330
3E9
330
40C
330
41A
330
427
330
459
330
466
330
47C
330
492
330
4C3
330
15ED
330
1668
330
16A7
330
1726
330
1727
330
177B
330
177C
102
}
330
A
100
AcDbSymbolTableRecord
100
AcDbDimStyleTableRecord
  2
ISO-25
 70
     0
 41
35.0
 42
65.0
 43
3.75
 44
0.0
 73
     0
 74
     0
 77
     1
 78
     8
140
25.0
141
2.5
143
0.03937007874016
147
6.25
171
     3
172
     1
271
     2
272
     2
274
     3
283
     0
284
     8
340
11
341
DA
342
D0
371
    15
372
    15
  0
ENDTAB
  0
TABLE
  2
BLOCK_RECORD
  5
1
330
0
100
AcDbSymbolTable
 70
    30
  0
BLOCK_RECORD
  5
1F
102
{ACAD_XDICTIONARY
360
126E
102
}
330
1
100
AcDbSymbolTableRecord
100
AcDbBlockTableRecord
  2
*Model_Space
340
22
  0
BLOCK_RECORD
  5
1B
330
1
100
AcDbSymbolTableRecord
100
AcDbBlockTableRecord
  2
*Paper_Space
340
1E
  0
BLOCK_RECORD
  5
23
330
1
100
AcDbSymbolTableRecord
100
AcDbBlockTableRecord
  2
*Paper_Space0
340
26
  0
BLOCK_RECORD
  5
D0
330
1
100
AcDbSymbolTableRecord
100
AcDbBlockTableRecord
  2
_DotSmall
340
0
102
{BLKREFS
331
17DB
331
17DC
331
17E5
331
17E6
331
17EE
331
17EF
331
17F7
331
17F8
331
1801
331
1802
331
1809
331
180A
331
1812
331
1813
331
181C
331
181D
331
1824
331
1825
331
182E
331
182F
331
1837
331
1838
331
1849
331
184A
331
1852
331
1853
331
1866
331
1867
331
186F
331
1870
331
1878
331
1879
331
1882
331
1883
331
188A
331
188B
331
1894
331
1895
331
189D
331
189E
331
18CE
331
18CF
331
18D7
331
18D8
102
}
  0
BLOCK_RECORD
  5
D4
330
1
100
AcDbSymbolTableRecord
100
AcDbBlockTableRecord
  2
_Origin2
340
0
  0
BLOCK_RECORD
  5
DA
330
1
100
AcDbSymbolTableRecord
100
AcDbBlockTableRecord
  2
_Open30
340
0
  0
BLOCK_RECORD
  5
3EA
330
1
100
AcDbSymbolTableRecord
100
AcDbBlockTableRecord
  2
*D4
340
0
  0
BLOCK_RECORD
  5
40D
330
1
100
AcDbSymbolTableRecord
100
AcDbBlockTableRecord
  2
*D5
340
0
  0
BLOCK_RECORD
  5
41B
330
1
100
AcDbSymbolTableRecord
100
AcDbBlockTableRecord
  2
*D6
340
0
  0
BLOCK_RECORD
  5
428
330
1
100
AcDbSymbolTableRecord
100
AcDbBlockTableRecord
  2
*D7
340
0
  0
BLOCK_RECORD
  5
45A
330
1
100
AcDbSymbolTableRecord
100
AcDbBlockTableRecord
  2
*D8
340
0
  0
BLOCK_RECORD
  5
467
330
1
100
AcDbSymbolTableRecord
100
AcDbBlockTableRecord
  2
*D9
340
0
  0
BLOCK_RECORD
  5
47D
330
1
100
AcDbSymbolTableRecord
100
AcDbBlockTableRecord
  2
*D10
340
0
  0
BLOCK_RECORD
  5
493
330
1
100
AcDbSymbolTableRecord
100
AcDbBlockTableRecord
  2
*D11
340
0
  0
BLOCK_RECORD
  5
4C4
330
1
100
AcDbSymbolTableRecord
100
AcDbBlockTableRecord
  2
*D12
340
0
  0
BLOCK_RECORD
  5
4FE
330
1
100
AcDbSymbolTableRecord
100
AcDbBlockTableRecord
  2
*D13
340
0
  0
BLOCK_RECORD
  5
523
330
1
100
AcDbSymbolTableRecord
100
AcDbBlockTableRecord
  2
*D14
340
0
  0
BLOCK_RECORD
  5
63D
330
1
100
AcDbSymbolTableRecord
100
AcDbBlockTableRecord
  2
*D15
340
0
  0
BLOCK_RECORD
  5
66D
330
1
100
AcDbSymbolTableRecord
100
AcDbBlockTableRecord
  2
*D16
340
0
  0
BLOCK_RECORD
  5
6AB
330
1
100
AcDbSymbolTableRecord
100
AcDbBlockTableRecord
  2
*D17
340
0
  0
BLOCK_RECORD
  5
6EB
330
1
100
AcDbSymbolTableRecord
100
AcDbBlockTableRecord
  2
*D18
340
0
  0
BLOCK_RECORD
  5
77C
330
1
100
AcDbSymbolTableRecord
100
AcDbBlockTableRecord
  2
*D19
340
0
  0
BLOCK_RECORD
  5
EB6
330
1
100
AcDbSymbolTableRecord
100
AcDbBlockTableRecord
  2
*D20
340
0
  0
BLOCK_RECORD
  5
12B5
330
1
100
AcDbSymbolTableRecord
100
AcDbBlockTableRecord
  2
_Dot
340
0
  0
BLOCK_RECORD
  5
15EE
330
1
100
AcDbSymbolTableRecord
100
AcDbBlockTableRecord
  2
*D22
340
0
  0
BLOCK_RECORD
  5
1669
330
1
100
AcDbSymbolTableRecord
100
AcDbBlockTableRecord
  2
*D23
340
0
  0
BLOCK_RECORD
  5
16A8
330
1
100
AcDbSymbolTableRecord
100
AcDbBlockTableRecord
  2
*D24
340
0
  0
BLOCK_RECORD
  5
172D
330
1
100
AcDbSymbolTableRecord
100
AcDbBlockTableRecord
  2
*D25
340
0
  0
BLOCK_RECORD
  5
1739
330
1
100
AcDbSymbolTableRecord
100
AcDbBlockTableRecord
  2
*D26
340
0
  0
BLOCK_RECORD
  5
1783
330
1
100
AcDbSymbolTableRecord
100
AcDbBlockTableRecord
  2
*D27
340
0
  0
BLOCK_RECORD
  5
178F
330
1
100
AcDbSymbolTableRecord
100
AcDbBlockTableRecord
  2
*D28
340
0
  0
BLOCK_RECORD
  5
17D0
102
{ACAD_XDICTIONARY
360
17D2
102
}
330
1
100
AcDbSymbolTableRecord
100
AcDbBlockTableRecord
  2
A$C4249135D
340
0
  0
ENDTAB
  0
ENDSEC
  0
SECTION
  2
BLOCKS
  0
BLOCK
  5
20
330
1F
100
AcDbEntity
  8
0
100
AcDbBlockBegin
  2
*Model_Space
 70
     0
 10
0.0
 20
0.0
 30
0.0
  3
*Model_Space
  1

  0
ENDBLK
  5
21
330
1F
100
AcDbEntity
  8
0
100
AcDbBlockEnd
  0
BLOCK
  5
1C
330
1B
100
AcDbEntity
 67
     1
  8
0
100
AcDbBlockBegin
  2
*Paper_Space
 70
     0
 10
0.0
 20
0.0
 30
0.0
  3
*Paper_Space
  1

  0
ENDBLK
  5
1D
330
1B
100
AcDbEntity
 67
     1
  8
0
100
AcDbBlockEnd
  0
BLOCK
  5
24
330
23
100
AcDbEntity
  8
0
100
AcDbBlockBegin
  2
*Paper_Space0
 70
     0
 10
0.0
 20
0.0
 30
0.0
  3
*Paper_Space0
  1

  0
ENDBLK
  5
25
330
23
100
AcDbEntity
  8
0
100
AcDbBlockEnd
  0
BLOCK
  5
D2
330
D0
100
AcDbEntity
  8
0
100
AcDbBlockBegin
  2
_DotSmall
 70
     0
 10
0.0
 20
0.0
 30
0.0
  3
_DotSmall
  1

  0
LWPOLYLINE
  5
D1
330
D0
100
AcDbEntity
  8
0
 62
     0
100
AcDbPolyline
 90
        2
 70
     1
 43
0.5
 10
-0.0625
 20
0.0
 42
1.0
 10
0.0625
 20
0.0
 42
1.0
  0
ENDBLK
  5
D3
330
D0
100
AcDbEntity
  8
0
100
AcDbBlockEnd
  0
BLOCK
  5
D8
330
D4
100
AcDbEntity
  8
0
100
AcDbBlockBegin
  2
_Origin2
 70
     0
 10
0.0
 20
0.0
 30
0.0
  3
_Origin2
  1

  0
CIRCLE
  5
D5
330
D4
100
AcDbEntity
  8
0
 62
     0
370
    -2
100
AcDbCircle
 10
0.0
 20
0.0
 30
0.0
 40
0.5
  0
CIRCLE
  5
D6
330
D4
100
AcDbEntity
  8
0
 62
     0
370
    -2
100
AcDbCircle
 10
0.0
 20
0.0
 30
0.0
 40
0.25
  0
LINE
  5
D7
330
D4
100
AcDbEntity
  8
0
 62
     0
370
    -2
100
AcDbLine
 10
-0.5
 20
0.0
 30
0.0
 11
-1.0
 21
0.0
 31
0.0
  0
ENDBLK
  5
D9
330
D4
100
AcDbEntity
  8
0
100
AcDbBlockEnd
  0
BLOCK
  5
DE
330
DA
100
AcDbEntity
  8
0
100
AcDbBlockBegin
  2
_Open30
 70
     0
 10
0.0
 20
0.0
 30
0.0
  3
_Open30
  1

  0
LINE
  5
DB
330
DA
100
AcDbEntity
  8
0
 62
     0
370
    -2
100
AcDbLine
 10
-1.0
 20
0.26794919
 30
0.0
 11
0.0
 21
0.0
 31
0.0
  0
LINE
  5
DC
330
DA
100
AcDbEntity
  8
0
 62
     0
370
    -2
100
AcDbLine
 10
0.0
 20
0.0
 30
0.0
 11
-1.0
 21
-0.26794919
 31
0.0
  0
LINE
  5
DD
330
DA
100
AcDbEntity
  8
0
 62
     0
370
    -2
100
AcDbLine
 10
0.0
 20
0.0
 30
0.0
 11
-1.0
 21
0.0
 31
0.0
  0
ENDBLK
  5
DF
330
DA
100
AcDbEntity
  8
0
100
AcDbBlockEnd
  0
BLOCK
  5
3F4
330
3EA
100
AcDbEntity
  8
0
100
AcDbBlockBegin
  2
*D4
 70
     1
 10
0.0
 20
0.0
 30
0.0
  3
*D4
  1

  0
LINE
  5
1863
330
3EA
100
AcDbEntity
  8
実形
 62
     0
370
    15
100
AcDbLine
 10
1368.496834872259
 20
1337.0779087747
 30
0.0
 11
1438.465082587068
 21
1337.0779087747
 31
0.0
  0
LINE
  5
1864
330
3EA
100
AcDbEntity
  8
実形
 62
     0
370
    15
100
AcDbLine
 10
1368.496834872259
 20
1487.0779087747
 30
0.0
 11
1438.465082587068
 21
1487.0779087747
 31
0.0
  0
LINE
  5
1865
330
3EA
100
AcDbEntity
  8
実形
 62
     0
370
    15
100
AcDbLine
 10
1438.465082587068
 20
1337.0779087747
 30
0.0
 11
1438.465082587068
 21
1487.0779087747
 31
0.0
  0
INSERT
  5
1866
330
3EA
100
AcDbEntity
  8
実形
 62
     0
370
    15
100
AcDbBlockReference
  2
_DotSmall
 10
1438.465082587068
 20
1337.0779087747
 30
0.0
 41
35.0
 42
35.0
 43
35.0
 50
270.0
  0
INSERT
  5
1867
330
3EA
100
AcDbEntity
  8
実形
 62
     0
370
    15
100
AcDbBlockReference
  2
_DotSmall
 10
1438.465082587068
 20
1487.0779087747
 30
0.0
 41
35.0
 42
35.0
 43
35.0
 50
90.0
  0
MTEXT
  5
1868
330
3EA
100
AcDbEntity
  8
実形
 62
     0
100
AcDbMText
 10
1419.715082587068
 20
1412.077908774701
 30
0.0
 40
25.0
 41
0.0
 71
     5
 72
     1
  1
150
 11
0.0000000000000001
 21
1.0
 31
0.0
 73
     1
 44
1.0
1001
ACAD
1000
MTEXTBEGIN
1070
    73
1070
     1
1070
    44
1040
1.0
1070
    74
1070
     0
1000
MTEXTEND
  0
POINT
  5
1869
330
3EA
100
AcDbEntity
  8
Defpoints
 62
     0
100
AcDbPoint
 10
1303.496834872258
 20
1337.0779087747
 30
0.0
  0
POINT
  5
186A
330
3EA
100
AcDbEntity
  8
Defpoints
 62
     0
100
AcDbPoint
 10
1303.496834872258
 20
1487.0779087747
 30
0.0
  0
POINT
  5
186B
330
3EA
100
AcDbEntity
  8
Defpoints
 62
     0
100
AcDbPoint
 10
1438.465082587068
 20
1487.0779087747
 30
0.0
  0
ENDBLK
  5
3F5
330
3EA
100
AcDbEntity
  8
0
100
AcDbBlockEnd
  0
BLOCK
  5
418
330
40D
100
AcDbEntity
  8
0
100
AcDbBlockBegin
  2
*D5
 70
     1
 10
0.0
 20
0.0
 30
0.0
  3
*D5
  1

  0
LINE
  5
182A
330
40D
100
AcDbEntity
  8
実形
 62
     0
370
    15
100
AcDbLine
 10
898.4968348722587
 20
1062.0779087747
 30
0.0
 11
859.7011740106992
 21
1062.0779087747
 31
0.0
  0
LINE
  5
182B
330
40D
100
AcDbEntity
  8
実形
 62
     0
370
    15
100
AcDbLine
 10
898.4968348722587
 20
1077.0779087747
 30
0.0
 11
859.7011740106992
 21
1077.0779087747
 31
0.0
  0
LINE
  5
182C
330
40D
100
AcDbEntity
  8
実形
 62
     0
370
    15
100
AcDbLine
 10
859.7011740106992
 20
1062.0779087747
 30
0.0
 11
859.7011740106992
 21
1077.0779087747
 31
0.0
  0
LINE
  5
182D
330
40D
100
AcDbEntity
  8
実形
 62
     0
370
    15
100
AcDbLine
 10
859.7011740106992
 20
1077.0779087747
 30
0.0
 11
859.7011740106992
 21
1157.911242108033
 31
0.0
  0
INSERT
  5
182E
330
40D
100
AcDbEntity
  8
実形
 62
     0
370
    15
100
AcDbBlockReference
  2
_DotSmall
 10
859.7011740106992
 20
1062.0779087747
 30
0.0
 41
35.0
 42
35.0
 43
35.0
 50
270.0
  0
INSERT
  5
182F
330
40D
100
AcDbEntity
  8
実形
 62
     0
370
    15
100
AcDbBlockReference
  2
_DotSmall
 10
859.7011740106992
 20
1077.0779087747
 30
0.0
 41
35.0
 42
35.0
 43
35.0
 50
90.0
  0
MTEXT
  5
1830
330
40D
100
AcDbEntity
  8
実形
 62
     0
100
AcDbMText
 10
840.951174010699
 20
1134.994575441367
 30
0.0
 40
25.0
 41
0.0
 71
     5
 72
     1
  1
15
 11
0.0000000000000001
 21
1.0
 31
0.0
 73
     1
 44
1.0
1001
ACAD
1000
MTEXTBEGIN
1070
    73
1070
     1
1070
    44
1040
1.0
1070
    74
1070
     0
1000
MTEXTEND
  0
POINT
  5
1831
330
40D
100
AcDbEntity
  8
Defpoints
 62
     0
100
AcDbPoint
 10
963.4968348722587
 20
1062.0779087747
 30
0.0
  0
POINT
  5
1832
330
40D
100
AcDbEntity
  8
Defpoints
 62
     0
100
AcDbPoint
 10
963.4968348722587
 20
1077.0779087747
 30
0.0
  0
POINT
  5
1833
330
40D
100
AcDbEntity
  8
Defpoints
 62
     0
100
AcDbPoint
 10
859.7011740106992
 20
1077.0779087747
 30
0.0
  0
ENDBLK
  5
419
330
40D
100
AcDbEntity
  8
0
100
AcDbBlockEnd
  0
BLOCK
  5
425
330
41B
100
AcDbEntity
  8
0
100
AcDbBlockBegin
  2
*D6
 70
     1
 10
0.0
 20
0.0
 30
0.0
  3
*D6
  1

  0
LINE
  5
1821
330
41B
100
AcDbEntity
  8
実形
 62
     0
370
    15
100
AcDbLine
 10
898.4968348722587
 20
1077.0779087747
 30
0.0
 11
859.701174010699
 21
1077.0779087747
 31
0.0
  0
LINE
  5
1822
330
41B
100
AcDbEntity
  8
実形
 62
     0
370
    15
100
AcDbLine
 10
898.4968348722587
 20
1487.0779087747
 30
0.0
 11
859.7011740106992
 21
1487.0779087747
 31
0.0
  0
LINE
  5
1823
330
41B
100
AcDbEntity
  8
実形
 62
     0
370
    15
100
AcDbLine
 10
859.701174010699
 20
1077.0779087747
 30
0.0
 11
859.7011740106992
 21
1487.0779087747
 31
0.0
  0
INSERT
  5
1824
330
41B
100
AcDbEntity
  8
実形
 62
     0
370
    15
100
AcDbBlockReference
  2
_DotSmall
 10
859.701174010699
 20
1077.0779087747
 30
0.0
 41
35.0
 42
35.0
 43
35.0
 50
270.0
  0
INSERT
  5
1825
330
41B
100
AcDbEntity
  8
実形
 62
     0
370
    15
100
AcDbBlockReference
  2
_DotSmall
 10
859.7011740106992
 20
1487.0779087747
 30
0.0
 41
35.0
 42
35.0
 43
35.0
 50
90.0
  0
MTEXT
  5
1826
330
41B
100
AcDbEntity
  8
実形
 62
     0
100
AcDbMText
 10
840.9511740106989
 20
1282.077908774701
 30
0.0
 40
25.0
 41
0.0
 71
     5
 72
     1
  1
410
 11
0.0000000000000001
 21
1.0
 31
0.0
 73
     1
 44
1.0
1001
ACAD
1000
MTEXTBEGIN
1070
    73
1070
     1
1070
    44
1040
1.0
1070
    74
1070
     0
1000
MTEXTEND
  0
POINT
  5
1827
330
41B
100
AcDbEntity
  8
Defpoints
 62
     0
100
AcDbPoint
 10
963.4968348722587
 20
1077.0779087747
 30
0.0
  0
POINT
  5
1828
330
41B
100
AcDbEntity
  8
Defpoints
 62
     0
100
AcDbPoint
 10
963.4968348722587
 20
1487.0779087747
 30
0.0
  0
POINT
  5
1829
330
41B
100
AcDbEntity
  8
Defpoints
 62
     0
100
AcDbPoint
 10
859.7011740106992
 20
1487.0779087747
 30
0.0
  0
ENDBLK
  5
426
330
41B
100
AcDbEntity
  8
0
100
AcDbBlockEnd
  0
BLOCK
  5
432
330
428
100
AcDbEntity
  8
0
100
AcDbBlockBegin
  2
*D7
 70
     1
 10
0.0
 20
0.0
 30
0.0
  3
*D7
  1

  0
LINE
  5
1818
330
428
100
AcDbEntity
  8
実形
 62
     0
370
    15
100
AcDbLine
 10
898.4968348722587
 20
1487.0779087747
 30
0.0
 11
859.7011740106992
 21
1487.0779087747
 31
0.0
  0
LINE
  5
1819
330
428
100
AcDbEntity
  8
実形
 62
     0
370
    15
100
AcDbLine
 10
898.4968348722587
 20
1502.0779087747
 30
0.0
 11
859.7011740106992
 21
1502.0779087747
 31
0.0
  0
LINE
  5
181A
330
428
100
AcDbEntity
  8
実形
 62
     0
370
    15
100
AcDbLine
 10
859.7011740106992
 20
1487.0779087747
 30
0.0
 11
859.7011740106992
 21
1502.0779087747
 31
0.0
  0
MTEXT
  5
181B
330
428
100
AcDbEntity
  8
実形
 62
     0
100
AcDbMText
 10
840.951174010699
 20
1449.514034193272
 30
0.0
 40
25.0
 41
0.0
 71
     5
 72
     1
  1
15
 11
0.0000000000000001
 21
1.0
 31
0.0
 73
     1
 44
1.0
1001
ACAD
1000
MTEXTBEGIN
1070
    73
1070
     1
1070
    44
1040
1.0
1070
    74
1070
     0
1000
MTEXTEND
  0
INSERT
  5
181C
330
428
100
AcDbEntity
  8
実形
 62
     0
370
    15
100
AcDbBlockReference
  2
_DotSmall
 10
859.7011740106992
 20
1487.0779087747
 30
0.0
 41
35.0
 42
35.0
 43
35.0
 50
270.0
  0
INSERT
  5
181D
330
428
100
AcDbEntity
  8
実形
 62
     0
370
    15
100
AcDbBlockReference
  2
_DotSmall
 10
859.7011740106992
 20
1502.0779087747
 30
0.0
 41
35.0
 42
35.0
 43
35.0
 50
90.0
  0
POINT
  5
181E
330
428
100
AcDbEntity
  8
Defpoints
 62
     0
100
AcDbPoint
 10
963.4968348722587
 20
1487.0779087747
 30
0.0
  0
POINT
  5
181F
330
428
100
AcDbEntity
  8
Defpoints
 62
     0
100
AcDbPoint
 10
963.4968348722587
 20
1502.0779087747
 30
0.0
  0
POINT
  5
1820
330
428
100
AcDbEntity
  8
Defpoints
 62
     0
100
AcDbPoint
 10
859.7011740106992
 20
1502.0779087747
 30
0.0
  0
ENDBLK
  5
433
330
428
100
AcDbEntity
  8
0
100
AcDbBlockEnd
  0
BLOCK
  5
464
330
45A
100
AcDbEntity
  8
0
100
AcDbBlockBegin
  2
*D8
 70
     1
 10
0.0
 20
0.0
 30
0.0
  3
*D8
  1

  0
LINE
  5
180F
330
45A
100
AcDbEntity
  8
実形
 62
     0
370
    15
100
AcDbLine
 10
898.4968348722587
 20
1502.0779087747
 30
0.0
 11
783.2087317711422
 21
1502.0779087747
 31
0.0
  0
LINE
  5
1810
330
45A
100
AcDbEntity
  8
実形
 62
     0
370
    15
100
AcDbLine
 10
898.4968348722587
 20
1062.0779087747
 30
0.0
 11
783.2087317711421
 21
1062.0779087747
 31
0.0
  0
LINE
  5
1811
330
45A
100
AcDbEntity
  8
実形
 62
     0
370
    15
100
AcDbLine
 10
783.2087317711422
 20
1502.0779087747
 30
0.0
 11
783.2087317711421
 21
1062.0779087747
 31
0.0
  0
INSERT
  5
1812
330
45A
100
AcDbEntity
  8
実形
 62
     0
370
    15
100
AcDbBlockReference
  2
_DotSmall
 10
783.2087317711422
 20
1502.0779087747
 30
0.0
 41
35.0
 42
35.0
 43
35.0
 50
90.0
  0
INSERT
  5
1813
330
45A
100
AcDbEntity
  8
実形
 62
     0
370
    15
100
AcDbBlockReference
  2
_DotSmall
 10
783.2087317711421
 20
1062.0779087747
 30
0.0
 41
35.0
 42
35.0
 43
35.0
 50
270.0
  0
MTEXT
  5
1814
330
45A
100
AcDbEntity
  8
実形
 62
     0
100
AcDbMText
 10
764.4587317711419
 20
1282.077908774701
 30
0.0
 40
25.0
 41
0.0
 71
     5
 72
     1
  1
440
 11
0.0000000000000001
 21
1.0
 31
0.0
 73
     1
 44
1.0
1001
ACAD
1000
MTEXTBEGIN
1070
    73
1070
     1
1070
    44
1040
1.0
1070
    74
1070
     0
1000
MTEXTEND
  0
POINT
  5
1815
330
45A
100
AcDbEntity
  8
Defpoints
 62
     0
100
AcDbPoint
 10
963.4968348722587
 20
1502.0779087747
 30
0.0
  0
POINT
  5
1816
330
45A
100
AcDbEntity
  8
Defpoints
 62
     0
100
AcDbPoint
 10
963.4968348722587
 20
1062.0779087747
 30
0.0
  0
POINT
  5
1817
330
45A
100
AcDbEntity
  8
Defpoints
 62
     0
100
AcDbPoint
 10
783.2087317711421
 20
1062.0779087747
 30
0.0
  0
ENDBLK
  5
465
330
45A
100
AcDbEntity
  8
0
100
AcDbBlockEnd
  0
BLOCK
  5
471
330
467
100
AcDbEntity
  8
0
100
AcDbBlockBegin
  2
*D9
 70
     1
 10
0.0
 20
0.0
 30
0.0
  3
*D9
  1

  0
LINE
  5
1806
330
467
100
AcDbEntity
  8
実形
 62
     0
370
    15
100
AcDbLine
 10
898.4968348722587
 20
1502.0779087747
 30
0.0
 11
783.2087317711421
 21
1502.0779087747
 31
0.0
  0
LINE
  5
1807
330
467
100
AcDbEntity
  8
実形
 62
     0
370
    15
100
AcDbLine
 10
898.4968348722587
 20
1582.0779087747
 30
0.0
 11
783.2087317711421
 21
1582.0779087747
 31
0.0
  0
LINE
  5
1808
330
467
100
AcDbEntity
  8
実形
 62
     0
370
    15
100
AcDbLine
 10
783.2087317711421
 20
1502.0779087747
 30
0.0
 11
783.2087317711421
 21
1582.0779087747
 31
0.0
  0
INSERT
  5
1809
330
467
100
AcDbEntity
  8
実形
 62
     0
370
    15
100
AcDbBlockReference
  2
_DotSmall
 10
783.2087317711421
 20
1502.0779087747
 30
0.0
 41
35.0
 42
35.0
 43
35.0
 50
270.0
  0
INSERT
  5
180A
330
467
100
AcDbEntity
  8
実形
 62
     0
370
    15
100
AcDbBlockReference
  2
_DotSmall
 10
783.2087317711421
 20
1582.0779087747
 30
0.0
 41
35.0
 42
35.0
 43
35.0
 50
90.0
  0
MTEXT
  5
180B
330
467
100
AcDbEntity
  8
実形
 62
     0
100
AcDbMText
 10
764.4587317711418
 20
1542.0779087747
 30
0.0
 40
25.0
 41
0.0
 71
     5
 72
     1
  1
80
 11
0.0000000000000001
 21
1.0
 31
0.0
 73
     1
 44
1.0
1001
ACAD
1000
MTEXTBEGIN
1070
    73
1070
     1
1070
    44
1040
1.0
1070
    74
1070
     0
1000
MTEXTEND
  0
POINT
  5
180C
330
467
100
AcDbEntity
  8
Defpoints
 62
     0
100
AcDbPoint
 10
963.4968348722587
 20
1502.0779087747
 30
0.0
  0
POINT
  5
180D
330
467
100
AcDbEntity
  8
Defpoints
 62
     0
100
AcDbPoint
 10
963.4968348722587
 20
1582.0779087747
 30
0.0
  0
POINT
  5
180E
330
467
100
AcDbEntity
  8
Defpoints
 62
     0
100
AcDbPoint
 10
783.2087317711421
 20
1582.0779087747
 30
0.0
  0
ENDBLK
  5
472
330
467
100
AcDbEntity
  8
0
100
AcDbBlockEnd
  0
BLOCK
  5
487
330
47D
100
AcDbEntity
  8
0
100
AcDbBlockBegin
  2
*D10
 70
     1
 10
0.0
 20
0.0
 30
0.0
  3
*D10
  1

  0
LINE
  5
17FD
330
47D
100
AcDbEntity
  8
実形
 62
     0
370
    15
100
AcDbLine
 10
898.4968348722587
 20
1582.0779087747
 30
0.0
 11
783.2087317711421
 21
1582.0779087747
 31
0.0
  0
LINE
  5
17FE
330
47D
100
AcDbEntity
  8
実形
 62
     0
370
    15
100
AcDbLine
 10
898.4968348722587
 20
1597.0779087747
 30
0.0
 11
783.2087317711421
 21
1597.0779087747
 31
0.0
  0
LINE
  5
17FF
330
47D
100
AcDbEntity
  8
実形
 62
     0
370
    15
100
AcDbLine
 10
783.2087317711421
 20
1582.0779087747
 30
0.0
 11
783.2087317711421
 21
1597.0779087747
 31
0.0
  0
MTEXT
  5
1800
330
47D
100
AcDbEntity
  8
実形
 62
     0
100
AcDbMText
 10
774.9738220765439
 20
1624.004628055033
 30
0.0
 40
25.0
 41
0.0
 71
     5
 72
     1
  1
15
 11
0.0000000000000001
 21
1.0
 31
0.0
 73
     1
 44
1.0
1001
ACAD
1000
MTEXTBEGIN
1070
    73
1070
     1
1070
    44
1040
1.0
1070
    74
1070
     0
1000
MTEXTEND
  0
INSERT
  5
1801
330
47D
100
AcDbEntity
  8
実形
 62
     0
370
    15
100
AcDbBlockReference
  2
_DotSmall
 10
783.2087317711421
 20
1582.0779087747
 30
0.0
 41
35.0
 42
35.0
 43
35.0
 50
270.0
  0
INSERT
  5
1802
330
47D
100
AcDbEntity
  8
実形
 62
     0
370
    15
100
AcDbBlockReference
  2
_DotSmall
 10
783.2087317711421
 20
1597.0779087747
 30
0.0
 41
35.0
 42
35.0
 43
35.0
 50
90.0
  0
POINT
  5
1803
330
47D
100
AcDbEntity
  8
Defpoints
 62
     0
100
AcDbPoint
 10
963.4968348722587
 20
1582.0779087747
 30
0.0
  0
POINT
  5
1804
330
47D
100
AcDbEntity
  8
Defpoints
 62
     0
100
AcDbPoint
 10
963.4968348722587
 20
1597.0779087747
 30
0.0
  0
POINT
  5
1805
330
47D
100
AcDbEntity
  8
Defpoints
 62
     0
100
AcDbPoint
 10
783.2087317711421
 20
1597.0779087747
 30
0.0
  0
ENDBLK
  5
488
330
47D
100
AcDbEntity
  8
0
100
AcDbBlockEnd
  0
BLOCK
  5
49D
330
493
100
AcDbEntity
  8
0
100
AcDbBlockBegin
  2
*D11
 70
     1
 10
0.0
 20
0.0
 30
0.0
  3
*D11
  1

  0
LINE
  5
17F4
330
493
100
AcDbEntity
  8
実形
 62
     0
370
    15
100
AcDbLine
 10
898.4968348722587
 20
1597.0779087747
 30
0.0
 11
705.659948060964
 21
1597.0779087747
 31
0.0
  0
LINE
  5
17F5
330
493
100
AcDbEntity
  8
実形
 62
     0
370
    15
100
AcDbLine
 10
898.4968348722587
 20
1047.0779087747
 30
0.0
 11
705.6599480609638
 21
1047.0779087747
 31
0.0
  0
LINE
  5
17F6
330
493
100
AcDbEntity
  8
実形
 62
     0
370
    15
100
AcDbLine
 10
705.659948060964
 20
1597.0779087747
 30
0.0
 11
705.6599480609638
 21
1047.0779087747
 31
0.0
  0
INSERT
  5
17F7
330
493
100
AcDbEntity
  8
実形
 62
     0
370
    15
100
AcDbBlockReference
  2
_DotSmall
 10
705.659948060964
 20
1597.0779087747
 30
0.0
 41
35.0
 42
35.0
 43
35.0
 50
90.0
  0
INSERT
  5
17F8
330
493
100
AcDbEntity
  8
実形
 62
     0
370
    15
100
AcDbBlockReference
  2
_DotSmall
 10
705.6599480609638
 20
1047.0779087747
 30
0.0
 41
35.0
 42
35.0
 43
35.0
 50
270.0
  0
MTEXT
  5
17F9
330
493
100
AcDbEntity
  8
実形
 62
     0
100
AcDbMText
 10
686.9099480609637
 20
1322.077908774701
 30
0.0
 40
25.0
 41
0.0
 71
     5
 72
     1
  1
550
 11
0.0000000000000001
 21
1.0
 31
0.0
 73
     1
 44
1.0
1001
ACAD
1000
MTEXTBEGIN
1070
    73
1070
     1
1070
    44
1040
1.0
1070
    74
1070
     0
1000
MTEXTEND
  0
POINT
  5
17FA
330
493
100
AcDbEntity
  8
Defpoints
 62
     0
100
AcDbPoint
 10
963.4968348722587
 20
1597.0779087747
 30
0.0
  0
POINT
  5
17FB
330
493
100
AcDbEntity
  8
Defpoints
 62
     0
100
AcDbPoint
 10
963.4968348722587
 20
1047.0779087747
 30
0.0
  0
POINT
  5
17FC
330
493
100
AcDbEntity
  8
Defpoints
 62
     0
100
AcDbPoint
 10
705.6599480609638
 20
1047.0779087747
 30
0.0
  0
ENDBLK
  5
49E
330
493
100
AcDbEntity
  8
0
100
AcDbBlockEnd
  0
BLOCK
  5
4CF
330
4C4
100
AcDbEntity
  8
0
100
AcDbBlockBegin
  2
*D12
 70
     1
 10
0.0
 20
0.0
 30
0.0
  3
*D12
  1

  0
LINE
  5
17EA
330
4C4
100
AcDbEntity
  8
実形
 62
     0
370
    15
100
AcDbLine
 10
898.4968348722587
 20
1062.0779087747
 30
0.0
 11
783.2087317711421
 21
1062.0779087747
 31
0.0
  0
LINE
  5
17EB
330
4C4
100
AcDbEntity
  8
実形
 62
     0
370
    15
100
AcDbLine
 10
898.4968348722587
 20
1047.0779087747
 30
0.0
 11
783.2087317711421
 21
1047.0779087747
 31
0.0
  0
LINE
  5
17EC
330
4C4
100
AcDbEntity
  8
実形
 62
     0
370
    15
100
AcDbLine
 10
783.2087317711421
 20
1047.0779087747
 30
0.0
 11
783.2087317711421
 21
1062.0779087747
 31
0.0
  0
LINE
  5
17ED
330
4C4
100
AcDbEntity
  8
実形
 62
     0
370
    15
100
AcDbLine
 10
783.2087317711421
 20
1062.0779087747
 30
0.0
 11
783.2087317711421
 21
1142.911242108034
 31
0.0
  0
INSERT
  5
17EE
330
4C4
100
AcDbEntity
  8
実形
 62
     0
370
    15
100
AcDbBlockReference
  2
_DotSmall
 10
783.2087317711421
 20
1047.0779087747
 30
0.0
 41
35.0
 42
35.0
 43
35.0
 50
270.0
  0
INSERT
  5
17EF
330
4C4
100
AcDbEntity
  8
実形
 62
     0
370
    15
100
AcDbBlockReference
  2
_DotSmall
 10
783.2087317711421
 20
1062.0779087747
 30
0.0
 41
35.0
 42
35.0
 43
35.0
 50
90.0
  0
MTEXT
  5
17F0
330
4C4
100
AcDbEntity
  8
実形
 62
     0
100
AcDbMText
 10
764.4587317711419
 20
1119.994575441367
 30
0.0
 40
25.0
 41
0.0
 71
     5
 72
     1
  1
15
 11
0.0000000000000001
 21
1.0
 31
0.0
 73
     1
 44
1.0
1001
ACAD
1000
MTEXTBEGIN
1070
    73
1070
     1
1070
    44
1040
1.0
1070
    74
1070
     0
1000
MTEXTEND
  0
POINT
  5
17F1
330
4C4
100
AcDbEntity
  8
Defpoints
 62
     0
100
AcDbPoint
 10
963.4968348722587
 20
1062.0779087747
 30
0.0
  0
POINT
  5
17F2
330
4C4
100
AcDbEntity
  8
Defpoints
 62
     0
100
AcDbPoint
 10
963.4968348722587
 20
1047.0779087747
 30
0.0
  0
POINT
  5
17F3
330
4C4
100
AcDbEntity
  8
Defpoints
 62
     0
100
AcDbPoint
 10
783.2087317711421
 20
1047.0779087747
 30
0.0
  0
ENDBLK
  5
4D0
330
4C4
100
AcDbEntity
  8
0
100
AcDbBlockEnd
  0
BLOCK
  5
508
330
4FE
100
AcDbEntity
  8
0
100
AcDbBlockBegin
  2
*D13
 70
     1
 10
0.0
 20
0.0
 30
0.0
  3
*D13
  1

  0
LINE
  5
1875
330
4FE
100
AcDbEntity
  8
実形
 62
     0
370
    15
100
AcDbLine
 10
978.4968348722586
 20
982.0779087747006
 30
0.0
 11
978.4968348722586
 21
929.8545833737954
 31
0.0
  0
LINE
  5
1876
330
4FE
100
AcDbEntity
  8
実形
 62
     0
370
    15
100
AcDbLine
 10
1628.496834872258
 20
982.0779087747006
 30
0.0
 11
1628.496834872258
 21
929.8545833737954
 31
0.0
  0
LINE
  5
1877
330
4FE
100
AcDbEntity
  8
実形
 62
     0
370
    15
100
AcDbLine
 10
978.4968348722586
 20
929.8545833737954
 30
0.0
 11
1628.496834872258
 21
929.8545833737954
 31
0.0
  0
INSERT
  5
1878
330
4FE
100
AcDbEntity
  8
実形
 62
     0
370
    15
100
AcDbBlockReference
  2
_DotSmall
 10
978.4968348722586
 20
929.8545833737954
 30
0.0
 41
35.0
 42
35.0
 43
35.0
 50
180.0
  0
INSERT
  5
1879
330
4FE
100
AcDbEntity
  8
実形
 62
     0
370
    15
100
AcDbBlockReference
  2
_DotSmall
 10
1628.496834872258
 20
929.8545833737954
 30
0.0
 41
35.0
 42
35.0
 43
35.0
  0
MTEXT
  5
187A
330
4FE
100
AcDbEntity
  8
実形
 62
     0
100
AcDbMText
 10
1303.496834872258
 20
948.6045833737954
 30
0.0
 40
25.0
 41
0.0
 71
     5
 72
     1
  1
650
 73
     1
 44
1.0
1001
ACAD
1000
MTEXTBEGIN
1070
    73
1070
     1
1070
    44
1040
1.0
1070
    74
1070
     0
1000
MTEXTEND
  0
POINT
  5
187B
330
4FE
100
AcDbEntity
  8
Defpoints
 62
     0
100
AcDbPoint
 10
978.4968348722586
 20
1047.0779087747
 30
0.0
  0
POINT
  5
187C
330
4FE
100
AcDbEntity
  8
Defpoints
 62
     0
100
AcDbPoint
 10
1628.496834872258
 20
1047.0779087747
 30
0.0
  0
POINT
  5
187D
330
4FE
100
AcDbEntity
  8
Defpoints
 62
     0
100
AcDbPoint
 10
1628.496834872258
 20
929.8545833737954
 30
0.0
  0
ENDBLK
  5
509
330
4FE
100
AcDbEntity
  8
0
100
AcDbBlockEnd
  0
BLOCK
  5
52D
330
523
100
AcDbEntity
  8
0
100
AcDbBlockBegin
  2
*D14
 70
     1
 10
0.0
 20
0.0
 30
0.0
  3
*D14
  1

  0
LINE
  5
186C
330
523
100
AcDbEntity
  8
実形
 62
     0
370
    15
100
AcDbLine
 10
963.4968348722587
 20
982.0779087747006
 30
0.0
 11
963.4968348722587
 21
855.7341681401357
 31
0.0
  0
LINE
  5
186D
330
523
100
AcDbEntity
  8
実形
 62
     0
370
    15
100
AcDbLine
 10
1643.496834872259
 20
982.0779087747006
 30
0.0
 11
1643.496834872259
 21
855.7341681401357
 31
0.0
  0
LINE
  5
186E
330
523
100
AcDbEntity
  8
実形
 62
     0
370
    15
100
AcDbLine
 10
963.4968348722587
 20
855.7341681401357
 30
0.0
 11
1643.496834872259
 21
855.7341681401357
 31
0.0
  0
INSERT
  5
186F
330
523
100
AcDbEntity
  8
実形
 62
     0
370
    15
100
AcDbBlockReference
  2
_DotSmall
 10
963.4968348722587
 20
855.7341681401357
 30
0.0
 41
35.0
 42
35.0
 43
35.0
 50
180.0
  0
INSERT
  5
1870
330
523
100
AcDbEntity
  8
実形
 62
     0
370
    15
100
AcDbBlockReference
  2
_DotSmall
 10
1643.496834872259
 20
855.7341681401357
 30
0.0
 41
35.0
 42
35.0
 43
35.0
  0
MTEXT
  5
1871
330
523
100
AcDbEntity
  8
実形
 62
     0
100
AcDbMText
 10
1303.496834872258
 20
874.4841681401357
 30
0.0
 40
25.0
 41
0.0
 71
     5
 72
     1
  1
680
 73
     1
 44
1.0
1001
ACAD
1000
MTEXTBEGIN
1070
    73
1070
     1
1070
    44
1040
1.0
1070
    74
1070
     0
1000
MTEXTEND
  0
POINT
  5
1872
330
523
100
AcDbEntity
  8
Defpoints
 62
     0
100
AcDbPoint
 10
963.4968348722587
 20
1047.0779087747
 30
0.0
  0
POINT
  5
1873
330
523
100
AcDbEntity
  8
Defpoints
 62
     0
100
AcDbPoint
 10
1643.496834872259
 20
1047.0779087747
 30
0.0
  0
POINT
  5
1874
330
523
100
AcDbEntity
  8
Defpoints
 62
     0
100
AcDbPoint
 10
1643.496834872259
 20
855.7341681401357
 30
0.0
  0
ENDBLK
  5
52E
330
523
100
AcDbEntity
  8
0
100
AcDbBlockEnd
  0
BLOCK
  5
649
330
63D
100
AcDbEntity
  8
0
100
AcDbBlockBegin
  2
*D15
 70
     1
 10
0.0
 20
0.0
 30
0.0
  3
*D15
  1

  0
LINE
  5
185D
330
63D
100
AcDbEntity
  8
実形
 62
     0
370
    15
100
AcDbLine
 10
1912.975253562778
 20
1437.0779087747
 30
0.0
 11
1912.975253562778
 21
1383.68017662416
 31
0.0
  0
LINE
  5
185E
330
63D
100
AcDbEntity
  8
実形
 62
     0
370
    15
100
AcDbLine
 10
1919.375253562778
 20
1437.0779087747
 30
0.0
 11
1919.375253562778
 21
1383.68017662416
 31
0.0
  0
MTEXT
  5
185F
330
63D
100
AcDbEntity
  8
実形
 62
     0
100
AcDbMText
 10
1875.934290263009
 20
1391.944180305505
 30
0.0
 40
25.0
 41
0.0
 71
     5
 72
     1
  1
6.4
 73
     1
 44
1.0
1001
ACAD
1000
MTEXTBEGIN
1070
    73
1070
     1
1070
    44
1040
1.0
1070
    74
1070
     0
1000
MTEXTEND
  0
POINT
  5
1860
330
63D
100
AcDbEntity
  8
Defpoints
 62
     0
100
AcDbPoint
 10
1912.975253562778
 20
1502.0779087747
 30
0.0
  0
POINT
  5
1861
330
63D
100
AcDbEntity
  8
Defpoints
 62
     0
100
AcDbPoint
 10
1919.375253562778
 20
1502.0779087747
 30
0.0
  0
POINT
  5
1862
330
63D
100
AcDbEntity
  8
Defpoints
 62
     0
100
AcDbPoint
 10
1919.375253562778
 20
1383.68017662416
 30
0.0
  0
ENDBLK
  5
64A
330
63D
100
AcDbEntity
  8
0
100
AcDbBlockEnd
  0
BLOCK
  5
67C
330
66D
100
AcDbEntity
  8
0
100
AcDbBlockBegin
  2
*D16
 70
     1
 10
0.0
 20
0.0
 30
0.0
  3
*D16
  1

  0
LINE
  5
1857
330
66D
100
AcDbEntity
  8
実形
 62
     0
370
    15
100
AcDbLine
 10
1919.375253562778
 20
1437.0779087747
 30
0.0
 11
1919.375253562778
 21
1383.68017662416
 31
0.0
  0
LINE
  5
1858
330
66D
100
AcDbEntity
  8
実形
 62
     0
370
    15
100
AcDbLine
 10
1927.975253562777
 20
1437.0779087747
 30
0.0
 11
1927.975253562777
 21
1383.68017662416
 31
0.0
  0
MTEXT
  5
1859
330
66D
100
AcDbEntity
  8
実形
 62
     0
100
AcDbMText
 10
1962.113616767069
 20
1391.563352498199
 30
0.0
 40
25.0
 41
0.0
 71
     5
 72
     1
  1
8.6
 73
     1
 44
1.0
1001
ACAD
1000
MTEXTBEGIN
1070
    73
1070
     1
1070
    44
1040
1.0
1070
    74
1070
     0
1000
MTEXTEND
  0
POINT
  5
185A
330
66D
100
AcDbEntity
  8
Defpoints
 62
     0
100
AcDbPoint
 10
1919.375253562778
 20
1502.0779087747
 30
0.0
  0
POINT
  5
185B
330
66D
100
AcDbEntity
  8
Defpoints
 62
     0
100
AcDbPoint
 10
1927.975253562777
 20
1502.0779087747
 30
0.0
  0
POINT
  5
185C
330
66D
100
AcDbEntity
  8
Defpoints
 62
     0
100
AcDbPoint
 10
1927.975253562777
 20
1383.68017662416
 30
0.0
  0
ENDBLK
  5
67D
330
66D
100
AcDbEntity
  8
0
100
AcDbBlockEnd
  0
BLOCK
  5
6B6
330
6AB
100
AcDbEntity
  8
0
100
AcDbBlockBegin
  2
*D17
 70
     1
 10
0.0
 20
0.0
 30
0.0
  3
*D17
  1

  0
LINE
  5
184E
330
6AB
100
AcDbEntity
  8
実形
 62
     0
370
    15
100
AcDbLine
 10
1912.975253562778
 20
1422.0779087747
 30
0.0
 11
1912.975253562778
 21
1334.095835324805
 31
0.0
  0
LINE
  5
184F
330
6AB
100
AcDbEntity
  8
実形
 62
     0
370
    15
100
AcDbLine
 10
1927.975253562777
 20
1422.0779087747
 30
0.0
 11
1927.975253562777
 21
1334.095835324805
 31
0.0
  0
LINE
  5
1850
330
6AB
100
AcDbEntity
  8
実形
 62
     0
370
    15
100
AcDbLine
 10
1912.975253562778
 20
1334.095835324805
 30
0.0
 11
1927.975253562777
 21
1334.095835324805
 31
0.0
  0
MTEXT
  5
1851
330
6AB
100
AcDbEntity
  8
実形
 62
     0
100
AcDbMText
 10
1873.315707761106
 20
1334.380763936077
 30
0.0
 40
25.0
 41
0.0
 71
     5
 72
     1
  1
15
 73
     1
 44
1.0
1001
ACAD
1000
MTEXTBEGIN
1070
    73
1070
     1
1070
    44
1040
1.0
1070
    74
1070
     0
1000
MTEXTEND
  0
INSERT
  5
1852
330
6AB
100
AcDbEntity
  8
実形
 62
     0
370
    15
100
AcDbBlockReference
  2
_DotSmall
 10
1912.975253562778
 20
1334.095835324805
 30
0.0
 41
35.0
 42
35.0
 43
35.0
 50
180.0
  0
INSERT
  5
1853
330
6AB
100
AcDbEntity
  8
実形
 62
     0
370
    15
100
AcDbBlockReference
  2
_DotSmall
 10
1927.975253562777
 20
1334.095835324805
 30
0.0
 41
35.0
 42
35.0
 43
35.0
  0
POINT
  5
1854
330
6AB
100
AcDbEntity
  8
Defpoints
 62
     0
100
AcDbPoint
 10
1912.975253562778
 20
1487.0779087747
 30
0.0
  0
POINT
  5
1855
330
6AB
100
AcDbEntity
  8
Defpoints
 62
     0
100
AcDbPoint
 10
1927.975253562777
 20
1487.0779087747
 30
0.0
  0
POINT
  5
1856
330
6AB
100
AcDbEntity
  8
Defpoints
 62
     0
100
AcDbPoint
 10
1927.975253562777
 20
1334.095835324805
 30
0.0
  0
ENDBLK
  5
6B7
330
6AB
100
AcDbEntity
  8
0
100
AcDbBlockEnd
  0
BLOCK
  5
6F5
330
6EB
100
AcDbEntity
  8
0
100
AcDbBlockBegin
  2
*D18
 70
     1
 10
0.0
 20
0.0
 30
0.0
  3
*D18
  1

  0
LINE
  5
18CB
330
6EB
100
AcDbEntity
  8
実形
 62
     0
370
    15
100
AcDbLine
 10
2174.975253562778
 20
1416.5779087747
 30
0.0
 11
2221.547098234166
 21
1416.5779087747
 31
0.0
  0
LINE
  5
18CC
330
6EB
100
AcDbEntity
  8
実形
 62
     0
370
    15
100
AcDbLine
 10
2174.975253562778
 20
1257.5779087747
 30
0.0
 11
2221.547098234166
 21
1257.5779087747
 31
0.0
  0
LINE
  5
18CD
330
6EB
100
AcDbEntity
  8
実形
 62
     0
370
    15
100
AcDbLine
 10
2221.547098234166
 20
1416.5779087747
 30
0.0
 11
2221.547098234166
 21
1257.5779087747
 31
0.0
  0
INSERT
  5
18CE
330
6EB
100
AcDbEntity
  8
実形
 62
     0
370
    15
100
AcDbBlockReference
  2
_DotSmall
 10
2221.547098234166
 20
1416.5779087747
 30
0.0
 41
35.0
 42
35.0
 43
35.0
 50
90.0
  0
INSERT
  5
18CF
330
6EB
100
AcDbEntity
  8
実形
 62
     0
370
    15
100
AcDbBlockReference
  2
_DotSmall
 10
2221.547098234166
 20
1257.5779087747
 30
0.0
 41
35.0
 42
35.0
 43
35.0
 50
270.0
  0
MTEXT
  5
18D0
330
6EB
100
AcDbEntity
  8
実形
 62
     0
100
AcDbMText
 10
2202.797098234166
 20
1336.285900731827
 30
0.0
 40
25.0
 41
0.0
 71
     5
 72
     1
  1
158%%C
 11
0.0000000000000001
 21
1.0
 31
0.0
 73
     1
 44
1.0
1001
ACAD
1000
MTEXTBEGIN
1070
    73
1070
     1
1070
    44
1040
1.0
1070
    74
1070
     0
1000
MTEXTEND
  0
POINT
  5
18D1
330
6EB
100
AcDbEntity
  8
Defpoints
 62
     0
100
AcDbPoint
 10
2109.975253562778
 20
1416.5779087747
 30
0.0
  0
POINT
  5
18D2
330
6EB
100
AcDbEntity
  8
Defpoints
 62
     0
100
AcDbPoint
 10
2109.975253562778
 20
1257.5779087747
 30
0.0
  0
POINT
  5
18D3
330
6EB
100
AcDbEntity
  8
Defpoints
 62
     0
100
AcDbPoint
 10
2221.547098234166
 20
1257.5779087747
 30
0.0
  0
ENDBLK
  5
6F6
330
6EB
100
AcDbEntity
  8
0
100
AcDbBlockEnd
  0
BLOCK
  5
786
330
77C
100
AcDbEntity
  8
0
100
AcDbBlockBegin
  2
*D19
 70
     1
 10
0.0
 20
0.0
 30
0.0
  3
*D19
  1

  0
LINE
  5
18D4
330
77C
100
AcDbEntity
  8
実形
 62
     0
370
    15
100
AcDbLine
 10
2092.214639385908
 20
1427.5779087747
 30
0.0
 11
2049.511514796633
 21
1427.5779087747
 31
0.0
  0
LINE
  5
18D5
330
77C
100
AcDbEntity
  8
実形
 62
     0
370
    15
100
AcDbLine
 10
2092.214639385908
 20
1246.5779087747
 30
0.0
 11
2049.511514796633
 21
1246.5779087747
 31
0.0
  0
LINE
  5
18D6
330
77C
100
AcDbEntity
  8
実形
 62
     0
370
    15
100
AcDbLine
 10
2049.511514796633
 20
1427.5779087747
 30
0.0
 11
2049.511514796633
 21
1246.5779087747
 31
0.0
  0
INSERT
  5
18D7
330
77C
100
AcDbEntity
  8
実形
 62
     0
370
    15
100
AcDbBlockReference
  2
_DotSmall
 10
2049.511514796633
 20
1427.5779087747
 30
0.0
 41
35.0
 42
35.0
 43
35.0
 50
90.0
  0
INSERT
  5
18D8
330
77C
100
AcDbEntity
  8
実形
 62
     0
370
    15
100
AcDbBlockReference
  2
_DotSmall
 10
2049.511514796633
 20
1246.5779087747
 30
0.0
 41
35.0
 42
35.0
 43
35.0
 50
270.0
  0
MTEXT
  5
18D9
330
77C
100
AcDbEntity
  8
実形
 62
     0
100
AcDbMText
 10
2030.761514796633
 20
1337.077908774701
 30
0.0
 40
25.0
 41
0.0
 71
     5
 72
     1
  1
181%%C
 11
0.0000000000000001
 21
1.0
 31
0.0
 73
     1
 44
1.0
1001
ACAD
1000
MTEXTBEGIN
1070
    73
1070
     1
1070
    44
1040
1.0
1070
    74
1070
     0
1000
MTEXTEND
  0
POINT
  5
18DA
330
77C
100
AcDbEntity
  8
Defpoints
 62
     0
100
AcDbPoint
 10
2157.214639385909
 20
1427.5779087747
 30
0.0
  0
POINT
  5
18DB
330
77C
100
AcDbEntity
  8
Defpoints
 62
     0
100
AcDbPoint
 10
2157.214639385909
 20
1246.5779087747
 30
0.0
  0
POINT
  5
18DC
330
77C
100
AcDbEntity
  8
Defpoints
 62
     0
100
AcDbPoint
 10
2049.511514796633
 20
1246.5779087747
 30
0.0
  0
ENDBLK
  5
787
330
77C
100
AcDbEntity
  8
0
100
AcDbBlockEnd
  0
BLOCK
  5
EC2
330
EB6
100
AcDbEntity
  8
0
100
AcDbBlockBegin
  2
*D20
 70
     1
 10
0.0
 20
0.0
 30
0.0
  3
*D20
  1

  0
LINE
  5
1846
330
EB6
100
AcDbEntity
  8
実形
 62
     0
370
    15
100
AcDbLine
 10
1927.975253562777
 20
1437.0779087747
 30
0.0
 11
1927.975253562777
 21
1383.68017662416
 31
0.0
  0
LINE
  5
1847
330
EB6
100
AcDbEntity
  8
実形
 62
     0
370
    15
100
AcDbLine
 10
1912.975253562778
 20
1437.0779087747
 30
0.0
 11
1912.975253562778
 21
1383.68017662416
 31
0.0
  0
LINE
  5
1848
330
EB6
100
AcDbEntity
  8
実形
 62
     0
370
    15
100
AcDbLine
 10
1927.975253562777
 20
1383.68017662416
 30
0.0
 11
1912.975253562778
 21
1383.68017662416
 31
0.0
  0
INSERT
  5
1849
330
EB6
100
AcDbEntity
  8
実形
 62
     0
370
    15
100
AcDbBlockReference
  2
_DotSmall
 10
1927.975253562777
 20
1383.68017662416
 30
0.0
 41
30.0
 42
30.0
 43
30.0
  0
INSERT
  5
184A
330
EB6
100
AcDbEntity
  8
実形
 62
     0
370
    15
100
AcDbBlockReference
  2
_DotSmall
 10
1912.975253562778
 20
1383.68017662416
 30
0.0
 41
30.0
 42
30.0
 43
30.0
 50
180.0
  0
POINT
  5
184B
330
EB6
100
AcDbEntity
  8
Defpoints
 62
     0
100
AcDbPoint
 10
1927.975253562777
 20
1502.0779087747
 30
0.0
  0
POINT
  5
184C
330
EB6
100
AcDbEntity
  8
Defpoints
 62
     0
100
AcDbPoint
 10
1912.975253562778
 20
1502.0779087747
 30
0.0
  0
POINT
  5
184D
330
EB6
100
AcDbEntity
  8
Defpoints
 62
     0
100
AcDbPoint
 10
1912.975253562778
 20
1383.68017662416
 30
0.0
  0
ENDBLK
  5
EC3
330
EB6
100
AcDbEntity
  8
0
100
AcDbBlockEnd
  0
BLOCK
  5
12B8
330
12B5
100
AcDbEntity
  8
0
100
AcDbBlockBegin
  2
_Dot
 70
     0
 10
0.0
 20
0.0
 30
0.0
  3
_Dot
  1

  0
LWPOLYLINE
  5
12B6
330
12B5
100
AcDbEntity
  8
0
  6
ByBlock
 62
     0
100
AcDbPolyline
 90
        2
 70
     1
 43
0.5
 10
-0.25
 20
0.0
 42
1.0
 10
0.25
 20
0.0
 42
1.0
  0
LINE
  5
12B7
330
12B5
100
AcDbEntity
  8
0
  6
ByBlock
 62
     0
370
    -2
100
AcDbLine
 10
-0.5
 20
0.0
 30
0.0
 11
-1.0
 21
0.0
 31
0.0
  0
ENDBLK
  5
12B9
330
12B5
100
AcDbEntity
  8
0
100
AcDbBlockEnd
  0
BLOCK
  5
15F8
330
15EE
100
AcDbEntity
  8
0
100
AcDbBlockBegin
  2
*D22
 70
     1
 10
0.0
 20
0.0
 30
0.0
  3
*D22
  1

  0
LINE
  5
187E
330
15EE
100
AcDbEntity
  8
実形
 62
     0
370
    15
100
AcDbLine
 10
978.4968348722586
 20
982.0779087747006
 30
0.0
 11
978.4968348722586
 21
929.8545833737954
 31
0.0
  0
LINE
  5
187F
330
15EE
100
AcDbEntity
  8
実形
 62
     0
370
    15
100
AcDbLine
 10
963.4968348722587
 20
982.0779087747006
 30
0.0
 11
963.4968348722587
 21
929.8545833737954
 31
0.0
  0
LINE
  5
1880
330
15EE
100
AcDbEntity
  8
実形
 62
     0
370
    15
100
AcDbLine
 10
978.4968348722586
 20
929.8545833737954
 30
0.0
 11
963.4968348722587
 21
929.8545833737954
 31
0.0
  0
MTEXT
  5
1881
330
15EE
100
AcDbEntity
  8
実形
 62
     0
100
AcDbMText
 10
1010.059657954702
 20
953.9847189135716
 30
0.0
 40
25.0
 41
0.0
 71
     5
 72
     1
  1
15
 73
     1
 44
1.0
1001
ACAD
1000
MTEXTBEGIN
1070
    73
1070
     1
1070
    44
1040
1.0
1070
    74
1070
     0
1000
MTEXTEND
  0
INSERT
  5
1882
330
15EE
100
AcDbEntity
  8
実形
 62
     0
370
    15
100
AcDbBlockReference
  2
_DotSmall
 10
978.4968348722586
 20
929.8545833737954
 30
0.0
 41
35.0
 42
35.0
 43
35.0
  0
INSERT
  5
1883
330
15EE
100
AcDbEntity
  8
実形
 62
     0
370
    15
100
AcDbBlockReference
  2
_DotSmall
 10
963.4968348722587
 20
929.8545833737954
 30
0.0
 41
35.0
 42
35.0
 43
35.0
 50
180.0
  0
POINT
  5
1884
330
15EE
100
AcDbEntity
  8
Defpoints
 62
     0
100
AcDbPoint
 10
978.4968348722586
 20
1047.0779087747
 30
0.0
  0
POINT
  5
1885
330
15EE
100
AcDbEntity
  8
Defpoints
 62
     0
100
AcDbPoint
 10
963.4968348722587
 20
1047.0779087747
 30
0.0
  0
POINT
  5
1886
330
15EE
100
AcDbEntity
  8
Defpoints
 62
     0
100
AcDbPoint
 10
963.4968348722587
 20
929.8545833737954
 30
0.0
  0
ENDBLK
  5
15F9
330
15EE
100
AcDbEntity
  8
0
100
AcDbBlockEnd
  0
BLOCK
  5
1673
330
1669
100
AcDbEntity
  8
0
100
AcDbBlockBegin
  2
*D23
 70
     1
 10
0.0
 20
0.0
 30
0.0
  3
*D23
  1

  0
LINE
  5
1890
330
1669
100
AcDbEntity
  8
実形
 62
     0
370
    15
100
AcDbLine
 10
1643.496834872259
 20
982.0779087747006
 30
0.0
 11
1643.496834872259
 21
929.8545833737954
 31
0.0
  0
LINE
  5
1891
330
1669
100
AcDbEntity
  8
実形
 62
     0
370
    15
100
AcDbLine
 10
1628.496834872258
 20
982.0779087747006
 30
0.0
 11
1628.496834872258
 21
929.8545833737954
 31
0.0
  0
LINE
  5
1892
330
1669
100
AcDbEntity
  8
実形
 62
     0
370
    15
100
AcDbLine
 10
1643.496834872259
 20
929.8545833737954
 30
0.0
 11
1628.496834872258
 21
929.8545833737954
 31
0.0
  0
MTEXT
  5
1893
330
1669
100
AcDbEntity
  8
実形
 62
     0
100
AcDbMText
 10
1597.096736801193
 20
948.9008942390192
 30
0.0
 40
25.0
 41
0.0
 71
     5
 72
     1
  1
15
 73
     1
 44
1.0
1001
ACAD
1000
MTEXTBEGIN
1070
    73
1070
     1
1070
    44
1040
1.0
1070
    74
1070
     0
1000
MTEXTEND
  0
INSERT
  5
1894
330
1669
100
AcDbEntity
  8
実形
 62
     0
370
    15
100
AcDbBlockReference
  2
_DotSmall
 10
1643.496834872259
 20
929.8545833737954
 30
0.0
 41
35.0
 42
35.0
 43
35.0
  0
INSERT
  5
1895
330
1669
100
AcDbEntity
  8
実形
 62
     0
370
    15
100
AcDbBlockReference
  2
_DotSmall
 10
1628.496834872258
 20
929.8545833737954
 30
0.0
 41
35.0
 42
35.0
 43
35.0
 50
180.0
  0
POINT
  5
1896
330
1669
100
AcDbEntity
  8
Defpoints
 62
     0
100
AcDbPoint
 10
1643.496834872259
 20
1047.0779087747
 30
0.0
  0
POINT
  5
1897
330
1669
100
AcDbEntity
  8
Defpoints
 62
     0
100
AcDbPoint
 10
1628.496834872258
 20
1047.0779087747
 30
0.0
  0
POINT
  5
1898
330
1669
100
AcDbEntity
  8
Defpoints
 62
     0
100
AcDbPoint
 10
1628.496834872258
 20
929.8545833737954
 30
0.0
  0
ENDBLK
  5
1674
330
1669
100
AcDbEntity
  8
0
100
AcDbBlockEnd
  0
BLOCK
  5
16B2
330
16A8
100
AcDbEntity
  8
0
100
AcDbBlockBegin
  2
*D24
 70
     1
 10
0.0
 20
0.0
 30
0.0
  3
*D24
  1

  0
LINE
  5
1887
330
16A8
100
AcDbEntity
  8
実形
 62
     0
370
    15
100
AcDbLine
 10
978.4968348722586
 20
1217.0779087747
 30
0.0
 11
978.4968348722586
 21
1281.118055788709
 31
0.0
  0
LINE
  5
1888
330
16A8
100
AcDbEntity
  8
実形
 62
     0
370
    15
100
AcDbLine
 10
1303.496834872258
 20
1272.0779087747
 30
0.0
 11
1303.496834872258
 21
1281.118055788709
 31
0.0
  0
LINE
  5
1889
330
16A8
100
AcDbEntity
  8
実形
 62
     0
370
    15
100
AcDbLine
 10
978.4968348722586
 20
1281.118055788709
 30
0.0
 11
1303.496834872258
 21
1281.118055788709
 31
0.0
  0
INSERT
  5
188A
330
16A8
100
AcDbEntity
  8
実形
 62
     0
370
    15
100
AcDbBlockReference
  2
_DotSmall
 10
978.4968348722586
 20
1281.118055788709
 30
0.0
 41
35.0
 42
35.0
 43
35.0
 50
180.0
  0
INSERT
  5
188B
330
16A8
100
AcDbEntity
  8
実形
 62
     0
370
    15
100
AcDbBlockReference
  2
_DotSmall
 10
1303.496834872258
 20
1281.118055788709
 30
0.0
 41
35.0
 42
35.0
 43
35.0
  0
MTEXT
  5
188C
330
16A8
100
AcDbEntity
  8
実形
 62
     0
100
AcDbMText
 10
1140.996834872258
 20
1299.868055788709
 30
0.0
 40
25.0
 41
0.0
 71
     5
 72
     1
  1
325
 73
     1
 44
1.0
1001
ACAD
1000
MTEXTBEGIN
1070
    73
1070
     1
1070
    44
1040
1.0
1070
    74
1070
     0
1000
MTEXTEND
  0
POINT
  5
188D
330
16A8
100
AcDbEntity
  8
Defpoints
 62
     0
100
AcDbPoint
 10
978.4968348722586
 20
1282.0779087747
 30
0.0
  0
POINT
  5
188E
330
16A8
100
AcDbEntity
  8
Defpoints
 62
     0
100
AcDbPoint
 10
1303.496834872258
 20
1337.0779087747
 30
0.0
  0
POINT
  5
188F
330
16A8
100
AcDbEntity
  8
Defpoints
 62
     0
100
AcDbPoint
 10
1303.496834872258
 20
1281.118055788709
 30
0.0
  0
ENDBLK
  5
16B3
330
16A8
100
AcDbEntity
  8
0
100
AcDbBlockEnd
  0
BLOCK
  5
1737
330
172D
100
AcDbEntity
  8
0
100
AcDbBlockBegin
  2
*D25
 70
     1
 10
0.0
 20
0.0
 30
0.0
  3
*D25
  1

  0
LINE
  5
17E1
330
172D
100
AcDbEntity
  8
実形
 62
     0
370
    15
100
AcDbLine
 10
880.3229363377422
 20
647.0779087747005
 30
0.0
 11
825.8880681012643
 21
647.0779087747005
 31
0.0
  0
LINE
  5
17E2
330
172D
100
AcDbEntity
  8
実形
 62
     0
370
    15
100
AcDbLine
 10
880.3229363377422
 20
632.0779087747005
 30
0.0
 11
825.8880681012643
 21
632.0779087747005
 31
0.0
  0
LINE
  5
17E3
330
172D
100
AcDbEntity
  8
実形
 62
     0
370
    15
100
AcDbLine
 10
825.8880681012643
 20
647.0779087747005
 30
0.0
 11
825.8880681012643
 21
632.0779087747005
 31
0.0
  0
MTEXT
  5
17E4
330
172D
100
AcDbEntity
  8
実形
 62
     0
100
AcDbMText
 10
795.1270335187455
 20
622.6449149591744
 30
0.0
 40
25.0
 41
0.0
 71
     5
 72
     1
  1
15
 11
0.0000000000000001
 21
1.0
 31
0.0
 73
     1
 44
1.0
1001
ACAD
1000
MTEXTBEGIN
1070
    73
1070
     1
1070
    44
1040
1.0
1070
    74
1070
     0
1000
MTEXTEND
  0
INSERT
  5
17E5
330
172D
100
AcDbEntity
  8
実形
 62
     0
370
    15
100
AcDbBlockReference
  2
_DotSmall
 10
825.8880681012643
 20
647.0779087747005
 30
0.0
 41
20.0
 42
20.0
 43
20.0
 50
90.0
  0
INSERT
  5
17E6
330
172D
100
AcDbEntity
  8
実形
 62
     0
370
    15
100
AcDbBlockReference
  2
_DotSmall
 10
825.8880681012643
 20
632.0779087747005
 30
0.0
 41
20.0
 42
20.0
 43
20.0
 50
270.0
  0
POINT
  5
17E7
330
172D
100
AcDbEntity
  8
Defpoints
 62
     0
100
AcDbPoint
 10
945.322936337742
 20
647.0779087747005
 30
0.0
  0
POINT
  5
17E8
330
172D
100
AcDbEntity
  8
Defpoints
 62
     0
100
AcDbPoint
 10
945.322936337742
 20
632.0779087747005
 30
0.0
  0
POINT
  5
17E9
330
172D
100
AcDbEntity
  8
Defpoints
 62
     0
100
AcDbPoint
 10
825.8880681012643
 20
632.0779087747005
 30
0.0
  0
ENDBLK
  5
1738
330
172D
100
AcDbEntity
  8
0
100
AcDbBlockEnd
  0
BLOCK
  5
1743
330
1739
100
AcDbEntity
  8
0
100
AcDbBlockBegin
  2
*D26
 70
     1
 10
0.0
 20
0.0
 30
0.0
  3
*D26
  1

  0
LINE
  5
17D8
330
1739
100
AcDbEntity
  8
実形
 62
     0
370
    15
100
AcDbLine
 10
880.3229363377422
 20
647.0779087747005
 30
0.0
 11
763.0970147439247
 21
647.0779087747006
 31
0.0
  0
LINE
  5
17D9
330
1739
100
AcDbEntity
  8
実形
 62
     0
370
    15
100
AcDbLine
 10
880.3229363377424
 20
457.0779087747006
 30
0.0
 11
763.0970147439247
 21
457.0779087747006
 31
0.0
  0
LINE
  5
17DA
330
1739
100
AcDbEntity
  8
実形
 62
     0
370
    15
100
AcDbLine
 10
763.0970147439247
 20
647.0779087747006
 30
0.0
 11
763.0970147439247
 21
457.0779087747006
 31
0.0
  0
INSERT
  5
17DB
330
1739
100
AcDbEntity
  8
実形
 62
     0
370
    15
100
AcDbBlockReference
  2
_DotSmall
 10
763.0970147439247
 20
647.0779087747006
 30
0.0
 41
20.0
 42
20.0
 43
20.0
 50
90.0
  0
INSERT
  5
17DC
330
1739
100
AcDbEntity
  8
実形
 62
     0
370
    15
100
AcDbBlockReference
  2
_DotSmall
 10
763.0970147439247
 20
457.0779087747006
 30
0.0
 41
20.0
 42
20.0
 43
20.0
 50
270.0
  0
MTEXT
  5
17DD
330
1739
100
AcDbEntity
  8
実形
 62
     0
100
AcDbMText
 10
744.3470147439247
 20
552.0779087747007
 30
0.0
 40
25.0
 41
0.0
 71
     5
 72
     1
  1
190
 11
0.0000000000000001
 21
1.0
 31
0.0
 73
     1
 44
1.0
1001
ACAD
1000
MTEXTBEGIN
1070
    73
1070
     1
1070
    44
1040
1.0
1070
    74
1070
     0
1000
MTEXTEND
  0
POINT
  5
17DE
330
1739
100
AcDbEntity
  8
Defpoints
 62
     0
100
AcDbPoint
 10
945.3229363377422
 20
647.0779087747005
 30
0.0
  0
POINT
  5
17DF
330
1739
100
AcDbEntity
  8
Defpoints
 62
     0
100
AcDbPoint
 10
945.3229363377424
 20
457.0779087747006
 30
0.0
  0
POINT
  5
17E0
330
1739
100
AcDbEntity
  8
Defpoints
 62
     0
100
AcDbPoint
 10
763.0970147439247
 20
457.0779087747006
 30
0.0
  0
ENDBLK
  5
1744
330
1739
100
AcDbEntity
  8
0
100
AcDbBlockEnd
  0
BLOCK
  5
178D
330
1783
100
AcDbEntity
  8
0
100
AcDbBlockBegin
  2
*D27
 70
     1
 10
0.0
 20
0.0
 30
0.0
  3
*D27
  1

  0
LINE
  5
1899
330
1783
100
AcDbEntity
  8
実形
 62
     0
370
    15
100
AcDbLine
 10
1912.975253562778
 20
987.336701084655
 30
0.0
 11
1912.975253562778
 21
932.8155574861776
 31
0.0
  0
LINE
  5
189A
330
1783
100
AcDbEntity
  8
実形
 62
     0
370
    15
100
AcDbLine
 10
1927.975253562777
 20
987.336701084655
 30
0.0
 11
1927.975253562777
 21
932.8155574861776
 31
0.0
  0
LINE
  5
189B
330
1783
100
AcDbEntity
  8
実形
 62
     0
370
    15
100
AcDbLine
 10
1912.975253562778
 20
932.8155574861776
 30
0.0
 11
1927.975253562777
 21
932.8155574861776
 31
0.0
  0
MTEXT
  5
189C
330
1783
100
AcDbEntity
  8
実形
 62
     0
100
AcDbMText
 10
1958.138333396186
 20
948.3175908169432
 30
0.0
 40
25.0
 41
0.0
 71
     5
 72
     1
  1
15
 73
     1
 44
1.0
1001
ACAD
1000
MTEXTBEGIN
1070
    73
1070
     1
1070
    44
1040
1.0
1070
    74
1070
     0
1000
MTEXTEND
  0
INSERT
  5
189D
330
1783
100
AcDbEntity
  8
実形
 62
     0
370
    15
100
AcDbBlockReference
  2
_DotSmall
 10
1912.975253562778
 20
932.8155574861776
 30
0.0
 41
20.0
 42
20.0
 43
20.0
 50
180.0
  0
INSERT
  5
189E
330
1783
100
AcDbEntity
  8
実形
 62
     0
370
    15
100
AcDbBlockReference
  2
_DotSmall
 10
1927.975253562777
 20
932.8155574861776
 30
0.0
 41
20.0
 42
20.0
 43
20.0
  0
POINT
  5
189F
330
1783
100
AcDbEntity
  8
Defpoints
 62
     0
100
AcDbPoint
 10
1912.975253562778
 20
1052.336701084655
 30
0.0
  0
POINT
  5
18A0
330
1783
100
AcDbEntity
  8
Defpoints
 62
     0
100
AcDbPoint
 10
1927.975253562777
 20
1052.336701084655
 30
0.0
  0
POINT
  5
18A1
330
1783
100
AcDbEntity
  8
Defpoints
 62
     0
100
AcDbPoint
 10
1927.975253562777
 20
932.8155574861776
 30
0.0
  0
ENDBLK
  5
178E
330
1783
100
AcDbEntity
  8
0
100
AcDbBlockEnd
  0
BLOCK
  5
1799
330
178F
100
AcDbEntity
  8
0
100
AcDbBlockBegin
  2
*D28
 70
     1
 10
0.0
 20
0.0
 30
0.0
  3
*D28
  1

  0
LINE
  5
1834
330
178F
100
AcDbEntity
  8
実形
 62
     0
370
    15
100
AcDbLine
 10
1912.975253562778
 20
987.336701084655
 30
0.0
 11
1912.975253562778
 21
870.0357129788262
 31
0.0
  0
LINE
  5
1835
330
178F
100
AcDbEntity
  8
実形
 62
     0
370
    15
100
AcDbLine
 10
2102.975253562778
 20
987.336701084655
 30
0.0
 11
2102.975253562778
 21
870.0357129788262
 31
0.0
  0
LINE
  5
1836
330
178F
100
AcDbEntity
  8
実形
 62
     0
370
    15
100
AcDbLine
 10
1912.975253562778
 20
870.0357129788262
 30
0.0
 11
2102.975253562778
 21
870.0357129788262
 31
0.0
  0
INSERT
  5
1837
330
178F
100
AcDbEntity
  8
実形
 62
     0
370
    15
100
AcDbBlockReference
  2
_DotSmall
 10
1912.975253562778
 20
870.0357129788262
 30
0.0
 41
20.0
 42
20.0
 43
20.0
 50
180.0
  0
INSERT
  5
1838
330
178F
100
AcDbEntity
  8
実形
 62
     0
370
    15
100
AcDbBlockReference
  2
_DotSmall
 10
2102.975253562778
 20
870.0357129788262
 30
0.0
 41
20.0
 42
20.0
 43
20.0
  0
MTEXT
  5
1839
330
178F
100
AcDbEntity
  8
実形
 62
     0
100
AcDbMText
 10
2007.975253562777
 20
888.7857129788262
 30
0.0
 40
25.0
 41
0.0
 71
     5
 72
     1
  1
190
 73
     1
 44
1.0
1001
ACAD
1000
MTEXTBEGIN
1070
    73
1070
     1
1070
    44
1040
1.0
1070
    74
1070
     0
1000
MTEXTEND
  0
POINT
  5
183A
330
178F
100
AcDbEntity
  8
Defpoints
 62
     0
100
AcDbPoint
 10
1912.975253562778
 20
1052.336701084655
 30
0.0
  0
POINT
  5
183B
330
178F
100
AcDbEntity
  8
Defpoints
 62
     0
100
AcDbPoint
 10
2102.975253562778
 20
1052.336701084655
 30
0.0
  0
POINT
  5
183C
330
178F
100
AcDbEntity
  8
Defpoints
 62
     0
100
AcDbPoint
 10
2102.975253562778
 20
870.0357129788262
 30
0.0
  0
ENDBLK
  5
179A
330
178F
100
AcDbEntity
  8
0
100
AcDbBlockEnd
  0
BLOCK
  5
17D4
330
17D0
100
AcDbEntity
  8
0
100
AcDbBlockBegin
  2
A$C4249135D
 70
     0
 10
0.0
 20
0.0
 30
0.0
  3
A$C4249135D
  1

  0
LINE
  5
17D1
330
17D0
100
AcDbEntity
  8
0
 62
     4
100
AcDbLine
 10
-15.0
 20
0.0
 30
0.0
 11
-15.0
 21
-30.75535338355531
 31
0.0
  0
ENDBLK
  5
17D5
330
17D0
100
AcDbEntity
  8
0
100
AcDbBlockEnd
  0
ENDSEC
  0
SECTION
  2
ENTITIES
  0
LINE
  5
9C
330
1F
100
AcDbEntity
  8
実形
100
AcDbLine
 10
126.0
 20
4.0
 30
0.0
 11
2784.0
 21
4.0
 31
0.0
  0
LINE
  5
A0
330
1F
100
AcDbEntity
  8
実形
100
AcDbLine
 10
2784.0
 20
2024.0
 30
0.0
 11
126.0
 21
2024.0
 31
0.0
  0
LINE
  5
A5
330
1F
100
AcDbEntity
  8
実形
100
AcDbLine
 10
2784.0
 20
4.0
 30
0.0
 11
2784.0
 21
2024.0
 31
0.0
  0
LINE
  5
2D8
330
1F
100
AcDbEntity
  8
実形
100
AcDbLine
 10
963.4968348722587
 20
1522.0779087747
 30
0.0
 11
963.4968348722587
 21
1122.0779087747
 31
0.0
  0
LINE
  5
2D9
330
1F
100
AcDbEntity
  8
実形
100
AcDbLine
 10
1038.496834872258
 20
1047.0779087747
 30
0.0
 11
1568.496834872258
 21
1047.0779087747
 31
0.0
  0
LINE
  5
2DA
330
1F
100
AcDbEntity
  8
実形
100
AcDbLine
 10
1643.496834872259
 20
1122.0779087747
 30
0.0
 11
1643.496834872259
 21
1522.0779087747
 31
0.0
  0
LINE
  5
2DB
330
1F
100
AcDbEntity
  8
実形
100
AcDbLine
 10
1568.496834872258
 20
1597.0779087747
 30
0.0
 11
1038.496834872258
 21
1597.0779087747
 31
0.0
  0
LINE
  5
2DD
330
1F
100
AcDbEntity
  8
実形
100
AcDbLine
 10
1038.496834872258
 20
1062.0779087747
 30
0.0
 11
1568.496834872258
 21
1062.0779087747
 31
0.0
  0
LINE
  5
2E0
330
1F
100
AcDbEntity
  8
実形
100
AcDbLine
 10
1038.496834872258
 20
1582.0779087747
 30
0.0
 11
1568.496834872258
 21
1582.0779087747
 31
0.0
  0
LINE
  5
2F1
330
1F
100
AcDbEntity
  8
実形
100
AcDbLine
 10
978.4968348722586
 20
1380.136376600876
 30
0.0
 11
978.4968348722586
 21
1184.019440948525
 31
0.0
  0
LINE
  5
2F2
330
1F
100
AcDbEntity
  8
実形
100
AcDbLine
 10
1628.496834872258
 20
1380.136376600876
 30
0.0
 11
1628.496834872258
 21
1184.019440948525
 31
0.0
  0
ARC
  5
2F4
330
1F
100
AcDbEntity
  8
実形
100
AcDbCircle
 10
1303.496834872258
 20
4827.0779087747
 30
0.0
 40
3750.0
100
AcDbArc
 50
266.4658276845697
 51
273.5341723154303
  0
ARC
  5
2F7
330
1F
100
AcDbEntity
  8
実形
100
AcDbCircle
 10
1303.496834872258
 20
-2262.9220912253
 30
0.0
 40
3750.0
100
AcDbArc
 50
86.46582768456978
 51
93.53417231543021
  0
ARC
  5
2F8
330
1F
100
AcDbEntity
  8
実形
100
AcDbCircle
 10
1078.496834872258
 20
1380.136376600876
 30
0.0
 40
100.0
100
AcDbArc
 50
93.53417231542977
 51
180.0
  0
ARC
  5
2FA
330
1F
100
AcDbEntity
  8
実形
100
AcDbCircle
 10
1078.496834872258
 20
1184.019440948525
 30
0.0
 40
100.0
100
AcDbArc
 50
180.0
 51
266.4658276845687
  0
ARC
  5
2FB
330
1F
100
AcDbEntity
  8
実形
100
AcDbCircle
 10
1528.496834872258
 20
1184.019440948525
 30
0.0
 40
100.0
100
AcDbArc
 50
273.5341723154304
 51
0.0
  0
ARC
  5
2FC
330
1F
100
AcDbEntity
  8
実形
100
AcDbCircle
 10
1528.496834872258
 20
1380.136376600876
 30
0.0
 40
100.0
100
AcDbArc
 50
0.0
 51
86.46582768456996
  0
LINE
  5
2FD
330
1F
100
AcDbEntity
  8
実形
100
AcDbLine
 10
978.4968348722586
 20
1442.0779087747
 30
0.0
 11
978.4968348722586
 21
1122.0779087747
 31
0.0
  0
LINE
  5
2FE
330
1F
100
AcDbEntity
  8
実形
100
AcDbLine
 10
1038.496834872258
 20
1502.0779087747
 30
0.0
 11
1568.496834872259
 21
1502.0779087747
 31
0.0
  0
LINE
  5
2FF
330
1F
100
AcDbEntity
  8
実形
100
AcDbLine
 10
1628.496834872259
 20
1442.0779087747
 30
0.0
 11
1628.496834872258
 21
1122.0779087747
 31
0.0
  0
ARC
  5
300
330
1F
100
AcDbEntity
  8
実形
100
AcDbCircle
 10
1038.496834872258
 20
1442.0779087747
 30
0.0
 40
60.0
100
AcDbArc
 50
90.0
 51
180.0
  0
ARC
  5
301
330
1F
100
AcDbEntity
  8
実形
100
AcDbCircle
 10
1038.496834872258
 20
1122.0779087747
 30
0.0
 40
60.0
100
AcDbArc
 50
180.0
 51
270.0
  0
ARC
  5
302
330
1F
100
AcDbEntity
  8
実形
100
AcDbCircle
 10
1568.496834872258
 20
1122.0779087747
 30
0.0
 40
60.0
100
AcDbArc
 50
270.0
 51
0.0
  0
ARC
  5
303
330
1F
100
AcDbEntity
  8
実形
100
AcDbCircle
 10
1568.496834872259
 20
1442.0779087747
 30
0.0
 40
60.0
100
AcDbArc
 50
0.0
 51
90.0
  0
LINE
  5
306
330
1F
100
AcDbEntity
  8
実形
100
AcDbLine
 10
978.4968348722587
 20
1522.0779087747
 30
0.0
 11
978.4968348722586
 21
1184.019440948525
 31
0.0
  0
LINE
  5
307
330
1F
100
AcDbEntity
  8
実形
100
AcDbLine
 10
1628.496834872258
 20
1522.0779087747
 30
0.0
 11
1628.496834872258
 21
1184.019440948525
 31
0.0
  0
ARC
  5
308
330
1F
100
AcDbEntity
  8
実形
100
AcDbCircle
 10
1038.496834872258
 20
1522.0779087747
 30
0.0
 40
60.0
100
AcDbArc
 50
90.0
 51
180.0
  0
ARC
  5
309
330
1F
100
AcDbEntity
  8
実形
100
AcDbCircle
 10
1568.496834872258
 20
1522.0779087747
 30
0.0
 40
60.0
100
AcDbArc
 50
0.0
 51
90.0
  0
ARC
  5
30A
330
1F
100
AcDbEntity
  8
実形
100
AcDbCircle
 10
1038.496834872258
 20
1522.0779087747
 30
0.0
 40
75.0
100
AcDbArc
 50
90.0
 51
180.0
  0
ARC
  5
30B
330
1F
100
AcDbEntity
  8
実形
100
AcDbCircle
 10
1038.496834872258
 20
1122.0779087747
 30
0.0
 40
75.0
100
AcDbArc
 50
180.0
 51
270.0
  0
ARC
  5
30C
330
1F
100
AcDbEntity
  8
実形
100
AcDbCircle
 10
1568.496834872258
 20
1122.0779087747
 30
0.0
 40
75.0
100
AcDbArc
 50
270.0
 51
0.0
  0
ARC
  5
30D
330
1F
100
AcDbEntity
  8
実形
100
AcDbCircle
 10
1568.496834872258
 20
1522.0779087747
 30
0.0
 40
75.0
100
AcDbArc
 50
0.0
 51
90.0
  0
LINE
  5
317
330
1F
100
AcDbEntity
  8
実形
100
AcDbLine
 10
963.4968348722587
 20
647.0779087747005
 30
0.0
 11
1643.496834872259
 21
647.0779087747005
 31
0.0
  0
LINE
  5
31B
330
1F
100
AcDbEntity
  8
実形
100
AcDbLine
 10
1628.496834872258
 20
497.025749784933
 30
0.0
 11
1628.496834872258
 21
647.0779087747005
 31
0.0
  0
ARC
  5
324
330
1F
100
AcDbEntity
  8
実形
100
AcDbCircle
 10
1598.496834872259
 20
497.025749784933
 30
0.0
 40
30.0
100
AcDbArc
 50
271.5
 51
0.000000000000007
  0
LINE
  5
326
330
1F
100
AcDbEntity
  8
実形
100
AcDbLine
 10
978.4968348722586
 20
640.6779087747005
 30
0.0
 11
1628.496834872258
 21
640.6779087747005
 31
0.0
  0
LINE
  5
327
330
1F
100
AcDbEntity
  8
実形
100
AcDbLine
 10
978.4968348722586
 20
632.0779087747005
 30
0.0
 11
1628.496834872258
 21
632.0779087747005
 31
0.0
  0
LINE
  5
336
330
1F
100
AcDbEntity
  8
実形
100
AcDbLine
 10
1913.975253562778
 20
1062.0779087747
 30
0.0
 11
1924.975253562777
 21
1062.0779087747
 31
0.0
  0
LINE
  5
337
330
1F
100
AcDbEntity
  8
実形
100
AcDbLine
 10
1927.975253562777
 20
1065.0779087747
 30
0.0
 11
1927.975253562777
 21
1072.0779087747
 31
0.0
  0
LINE
  5
338
330
1F
100
AcDbEntity
  8
実形
100
AcDbLine
 10
1932.975253562777
 20
1077.0779087747
 30
0.0
 11
2068.788315297766
 21
1077.0779087747
 31
0.0
  0
LINE
  5
339
330
1F
100
AcDbEntity
  8
実形
100
AcDbLine
 10
2102.975253562777
 20
1266.5779087747
 30
0.0
 11
2102.975253562778
 21
1457.0779087747
 31
0.0
  0
LINE
  5
33A
330
1F
100
AcDbEntity
  8
実形
100
AcDbLine
 10
2072.975253562778
 20
1487.0779087747
 30
0.0
 11
1932.975253562778
 21
1487.0779087747
 31
0.0
  0
LINE
  5
33B
330
1F
100
AcDbEntity
  8
実形
100
AcDbLine
 10
1927.975253562778
 20
1492.0779087747
 30
0.0
 11
1927.975253562777
 21
1499.0779087747
 31
0.0
  0
LINE
  5
33C
330
1F
100
AcDbEntity
  8
実形
100
AcDbLine
 10
1924.975253562777
 20
1502.0779087747
 30
0.0
 11
1922.375253562777
 21
1502.0779087747
 31
0.0
  0
LINE
  5
33D
330
1F
100
AcDbEntity
  8
実形
100
AcDbLine
 10
1919.375253562778
 20
1505.0779087747
 30
0.0
 11
1919.375253562778
 21
1579.0779087747
 31
0.0
  0
LINE
  5
342
330
1F
100
AcDbEntity
  8
実形
100
AcDbLine
 10
1916.375253562778
 20
1582.0779087747
 30
0.0
 11
1913.975253562778
 21
1582.0779087747
 31
0.0
  0
LINE
  5
352
330
1F
100
AcDbEntity
  8
実形
100
AcDbLine
 10
1912.975253562778
 20
1583.0779087747
 30
0.0
 11
1912.975253562778
 21
1597.0779087747
 31
0.0
  0
LINE
  5
353
330
1F
100
AcDbEntity
  8
実形
100
AcDbLine
 10
1912.975253562778
 20
1061.0779087747
 30
0.0
 11
1912.975253562778
 21
1047.0779087747
 31
0.0
  0
ARC
  5
354
330
1F
100
AcDbEntity
  8
実形
100
AcDbCircle
 10
1913.975253562778
 20
1583.0779087747
 30
0.0
 40
1.0
100
AcDbArc
 50
180.0
 51
270.0
  0
ARC
  5
355
330
1F
100
AcDbEntity
  8
実形
100
AcDbCircle
 10
1913.975253562778
 20
1061.0779087747
 30
0.0
 40
1.0
100
AcDbArc
 50
90.0
 51
180.0
  0
ARC
  5
359
330
1F
100
AcDbEntity
  8
実形
100
AcDbCircle
 10
1922.375253562777
 20
1505.0779087747
 30
0.0
 40
3.0
100
AcDbArc
 50
180.0
 51
270.0
  0
ARC
  5
35A
330
1F
100
AcDbEntity
  8
実形
100
AcDbCircle
 10
1924.975253562777
 20
1499.0779087747
 30
0.0
 40
3.0
100
AcDbArc
 50
0.0
 51
90.00000000000234
  0
ARC
  5
35C
330
1F
100
AcDbEntity
  8
実形
100
AcDbCircle
 10
1932.975253562777
 20
1072.0779087747
 30
0.0
 40
5.0
100
AcDbArc
 50
90.0
 51
180.0
  0
ARC
  5
35D
330
1F
100
AcDbEntity
  8
実形
100
AcDbCircle
 10
1932.975253562778
 20
1492.0779087747
 30
0.0
 40
5.0
100
AcDbArc
 50
180.0
 51
270.0
  0
ARC
  5
360
330
1F
100
AcDbEntity
  8
実形
100
AcDbCircle
 10
2072.975253562778
 20
1457.0779087747
 30
0.0
 40
30.0
100
AcDbArc
 50
0.0
 51
90.0
  0
LINE
  5
361
330
1F
100
AcDbEntity
  8
実形
100
AcDbLine
 10
2102.975253562778
 20
1266.5779087747
 30
0.0
 11
2098.778035047033
 21
1106.292600325464
 31
0.0
  0
ARC
  5
362
330
1F
100
AcDbEntity
  8
実形
100
AcDbCircle
 10
2068.788315297766
 20
1107.0779087747
 30
0.0
 40
30.0
100
AcDbArc
 50
270.0
 51
358.4999999999999
  0
LINE
  5
363
330
1F
100
AcDbEntity
  8
実形
100
AcDbLine
 10
1912.975253562778
 20
1597.0779087747
 30
0.0
 11
1912.975253562778
 21
1047.0779087747
 31
0.0
  0
ARC
  5
377
330
1F
100
AcDbEntity
  8
実形
100
AcDbCircle
 10
1924.975253562777
 20
1065.0779087747
 30
0.0
 40
3.0
100
AcDbArc
 50
270.0
 51
0.0
  0
DIMENSION
  5
3E9
330
1F
100
AcDbEntity
  8
実形
100
AcDbDimension
  2
*D4
 10
1438.465082587068
 20
1487.0779087747
 30
0.0
 11
1419.715082587068
 21
1412.077908774701
 31
0.0
 70
    32
 71
     5
 42
150.0
  3
ISO-25
100
AcDbAlignedDimension
 13
1303.496834872258
 23
1337.0779087747
 33
0.0
 14
1303.496834872258
 24
1487.0779087747
 34
0.0
 50
90.0
100
AcDbRotatedDimension
  0
DIMENSION
  5
40C
330
1F
100
AcDbEntity
  8
実形
100
AcDbDimension
  2
*D5
 10
859.7011740106992
 20
1077.0779087747
 30
0.0
 11
859.701174010699
 21
1134.994575441367
 31
0.0
 70
   160
 71
     5
 42
15.0
  3
ISO-25
100
AcDbAlignedDimension
 13
963.4968348722587
 23
1062.0779087747
 33
0.0
 14
963.4968348722587
 24
1077.0779087747
 34
0.0
 50
90.0
100
AcDbRotatedDimension
  0
DIMENSION
  5
41A
330
1F
100
AcDbEntity
  8
実形
100
AcDbDimension
  2
*D6
 10
859.7011740106992
 20
1487.0779087747
 30
0.0
 11
840.9511740106989
 21
1282.077908774701
 31
0.0
 70
    32
 71
     5
 42
410.0
  3
ISO-25
100
AcDbAlignedDimension
 13
963.4968348722587
 23
1077.0779087747
 33
0.0
 14
963.4968348722587
 24
1487.0779087747
 34
0.0
 50
90.0
100
AcDbRotatedDimension
1001
ACAD
1000
DSTYLE
1002
{
1070
   279
1070
     1
1002
}
  0
DIMENSION
  5
427
330
1F
100
AcDbEntity
  8
実形
100
AcDbDimension
  2
*D7
 10
859.7011740106992
 20
1502.0779087747
 30
0.0
 11
859.701174010699
 21
1449.514034193272
 31
0.0
 70
   160
 71
     5
 42
15.0
  3
ISO-25
100
AcDbAlignedDimension
 13
963.4968348722587
 23
1487.0779087747
 33
0.0
 14
963.4968348722587
 24
1502.0779087747
 34
0.0
 50
90.0
100
AcDbRotatedDimension
1001
ACAD
1000
DSTYLE
1002
{
1070
   279
1070
     1
1002
}
  0
DIMENSION
  5
459
330
1F
100
AcDbEntity
  8
実形
100
AcDbDimension
  2
*D8
 10
783.2087317711421
 20
1062.0779087747
 30
0.0
 11
764.4587317711419
 21
1282.077908774701
 31
0.0
 70
    32
 71
     5
 42
440.0
  3
ISO-25
100
AcDbAlignedDimension
 13
963.4968348722587
 23
1502.0779087747
 33
0.0
 14
963.4968348722587
 24
1062.0779087747
 34
0.0
 50
90.0
100
AcDbRotatedDimension
  0
DIMENSION
  5
466
330
1F
100
AcDbEntity
  8
実形
100
AcDbDimension
  2
*D9
 10
783.2087317711421
 20
1582.0779087747
 30
0.0
 11
764.4587317711418
 21
1542.0779087747
 31
0.0
 70
    32
 71
     5
 42
80.0
  3
ISO-25
100
AcDbAlignedDimension
 13
963.4968348722587
 23
1502.0779087747
 33
0.0
 14
963.4968348722587
 24
1582.0779087747
 34
0.0
 50
90.0
100
AcDbRotatedDimension
  0
DIMENSION
  5
47C
330
1F
100
AcDbEntity
  8
実形
100
AcDbDimension
  2
*D10
 10
783.2087317711421
 20
1597.0779087747
 30
0.0
 11
793.7238220765439
 21
1624.004628055033
 31
0.0
 70
   160
 71
     5
 42
15.0
  3
ISO-25
100
AcDbAlignedDimension
 13
963.4968348722587
 23
1582.0779087747
 33
0.0
 14
963.4968348722587
 24
1597.0779087747
 34
0.0
 50
90.0
100
AcDbRotatedDimension
1001
ACAD
1000
DSTYLE
1002
{
1070
   279
1070
     1
1002
}
  0
DIMENSION
  5
492
330
1F
100
AcDbEntity
  8
実形
100
AcDbDimension
  2
*D11
 10
705.6599480609638
 20
1047.0779087747
 30
0.0
 11
686.9099480609637
 21
1322.077908774701
 31
0.0
 70
    32
 71
     5
 42
550.0
  3
ISO-25
100
AcDbAlignedDimension
 13
963.4968348722587
 23
1597.0779087747
 33
0.0
 14
963.4968348722587
 24
1047.0779087747
 34
0.0
 50
90.0
100
AcDbRotatedDimension
  0
DIMENSION
  5
4C3
330
1F
100
AcDbEntity
  8
実形
100
AcDbDimension
  2
*D12
 10
783.2087317711421
 20
1047.0779087747
 30
0.0
 11
783.208731771142
 21
1119.994575441367
 31
0.0
 70
   160
 71
     5
 42
15.0
  3
ISO-25
100
AcDbAlignedDimension
 13
963.4968348722587
 23
1062.0779087747
 33
0.0
 14
963.4968348722587
 24
1047.0779087747
 34
0.0
 50
90.0
100
AcDbRotatedDimension
  0
DIMENSION
  5
4FD
330
1F
100
AcDbEntity
  8
実形
100
AcDbDimension
  2
*D13
 10
1628.496834872258
 20
929.8545833737954
 30
0.0
 11
1303.496834872258
 21
948.6045833737954
 31
0.0
 70
    32
 71
     5
 42
650.0
  3
ISO-25
100
AcDbAlignedDimension
 13
978.4968348722586
 23
1047.0779087747
 33
0.0
 14
1628.496834872258
 24
1047.0779087747
 34
0.0
100
AcDbRotatedDimension
1001
ACAD
1000
DSTYLE
1002
{
1070
   279
1070
     1
1002
}
  0
DIMENSION
  5
522
330
1F
100
AcDbEntity
  8
実形
100
AcDbDimension
  2
*D14
 10
1643.496834872259
 20
855.7341681401357
 30
0.0
 11
1303.496834872258
 21
874.4841681401357
 31
0.0
 70
    33
 71
     5
 42
680.0
  3
ISO-25
100
AcDbAlignedDimension
 13
963.4968348722587
 23
1047.0779087747
 33
0.0
 14
1643.496834872259
 24
1047.0779087747
 34
0.0
1001
ACAD
1000
DSTYLE
1002
{
1070
   340
1005
11
1002
}
  0
DIMENSION
  5
63C
330
1F
100
AcDbEntity
  8
実形
100
AcDbDimension
  2
*D15
 10
1919.375253562778
 20
1383.68017662416
 30
0.0
 11
1875.934290263009
 21
1391.944180305505
 31
0.0
 70
   160
 71
     5
 42
6.40000000000009
  3
ISO-25
100
AcDbAlignedDimension
 13
1912.975253562778
 23
1502.0779087747
 33
0.0
 14
1919.375253562778
 24
1502.0779087747
 34
0.0
100
AcDbRotatedDimension
1001
ACAD
1000
DSTYLE
1002
{
1070
   282
1070
     1
1070
   281
1070
     1
1070
   279
1070
     2
1002
}
  0
DIMENSION
  5
66C
330
1F
100
AcDbEntity
  8
実形
100
AcDbDimension
  2
*D16
 10
1927.975253562777
 20
1383.68017662416
 30
0.0
 11
1962.113616767069
 21
1391.563352498199
 31
0.0
 70
   160
 71
     5
 42
8.599999999999909
  3
ISO-25
100
AcDbAlignedDimension
 13
1919.375253562778
 23
1502.0779087747
 33
0.0
 14
1927.975253562777
 24
1502.0779087747
 34
0.0
100
AcDbRotatedDimension
1001
ACAD
1000
DSTYLE
1002
{
1070
   282
1070
     1
1070
   281
1070
     1
1070
   279
1070
     2
1002
}
  0
DIMENSION
  5
6AA
330
1F
100
AcDbEntity
  8
実形
100
AcDbDimension
  2
*D17
 10
1927.975253562777
 20
1334.095835324805
 30
0.0
 11
1873.315707761106
 21
1334.380763936077
 31
0.0
 70
   160
 71
     5
 42
15.0
  3
ISO-25
100
AcDbAlignedDimension
 13
1912.975253562778
 23
1487.0779087747
 33
0.0
 14
1927.975253562777
 24
1487.0779087747
 34
0.0
100
AcDbRotatedDimension
1001
ACAD
1000
DSTYLE
1002
{
1070
   279
1070
     2
1002
}
  0
DIMENSION
  5
6EA
330
1F
100
AcDbEntity
  8
実形
100
AcDbDimension
  2
*D18
 10
2221.547098234166
 20
1257.5779087747
 30
0.0
 11
2221.547098234165
 21
1336.285900731827
 31
0.0
 70
   160
  1
158%%C
 71
     5
 42
159.0
  3
ISO-25
100
AcDbAlignedDimension
 13
2109.975253562778
 23
1416.5779087747
 33
0.0
 14
2109.975253562778
 24
1257.5779087747
 34
0.0
 50
90.0
100
AcDbRotatedDimension
  0
DIMENSION
  5
77B
330
1F
100
AcDbEntity
  8
実形
100
AcDbDimension
  2
*D19
 10
2049.511514796633
 20
1246.5779087747
 30
0.0
 11
2049.511514796633
 21
1337.077908774701
 31
0.0
 70
   160
  1
181%%C
 71
     5
 42
181.0
  3
ISO-25
100
AcDbAlignedDimension
 13
2157.214639385909
 23
1427.5779087747
 33
0.0
 14
2157.214639385909
 24
1246.5779087747
 34
0.0
 50
90.0
100
AcDbRotatedDimension
  0
MTEXT
  5
8A3
330
1F
100
AcDbEntity
  8
実形
100
AcDbMText
 10
1506.250223184087
 20
1546.232370282516
 30
0.0
 40
25.0
 41
32.83443361350692
 71
     9
 72
     1
  1
75R
 73
     1
 44
1.0
1001
ACAD
1000
MTEXTBEGIN
1070
    73
1070
     1
1070
    44
1040
1.0
1070
    74
1070
     0
1000
MTEXTEND
  0
LEADER
  5
8A7
330
1F
100
AcDbEntity
  8
実形
100
AcDbLeader
  3
ISO-25
 40
25.0
 41
66.66666666666666
 76
     2
 10
1595.569518003161
 20
1584.809376751466
 30
0.0
 10
1518.861024785824
 20
1560.785405812428
 30
0.0
213
0.0
223
12.5
233
0.0
1001
ACAD
1000
DSTYLE
1002
{
1070
   147
1040
6.25
1070
    77
1070
     0
1070
    41
1040
20.0
1070
   342
1005
DA
1002
}
  0
LEADER
  5
8DB
330
1F
100
AcDbEntity
  8
実形
100
AcDbLeader
  3
ISO-25
 40
66.66666666666666
 41
87.5
 76
     2
 10
1185.025146347604
 20
1085.686233766178
 30
0.0
 10
1213.168944206639
 20
1125.52512049304
 30
0.0
213
0.0
223
-12.5
233
0.0
1001
ACAD
1000
DSTYLE
1002
{
1070
   147
1040
6.25
1070
    77
1070
     0
1070
    41
1040
20.0
1070
   342
1005
DA
1002
}
  0
TEXT
  5
8DD
330
1F
100
AcDbEntity
  8
実形
100
AcDbText
 10
1223.722870487253
 20
1130.3432580787
 30
0.0
 40
25.0
  1
3750R
 11
1223.722870487253
 21
1122.009924745367
 31
0.0
100
AcDbText
 73
     1
  0
LEADER
  5
914
330
1F
100
AcDbEntity
  8
実形
100
AcDbLeader
  3
ISO-25
 40
25.0
 41
62.5
 76
     2
 10
2098.303506864394
 20
1476.06074221716
 30
0.0
 10
2154.882530740652
 20
1508.515637876426
 30
0.0
213
0.0
223
-12.5
233
0.0
1001
ACAD
1000
DSTYLE
1002
{
1070
   147
1040
6.25
1070
    77
1070
     0
1070
    41
1040
25.0
1070
   342
1005
DA
1002
}
  0
TEXT
  5
918
330
1F
100
AcDbEntity
  8
実形
100
AcDbText
 10
2165.360126828785
 20
1512.468704222992
 30
0.0
 40
25.0
  1
30R
 11
2165.360126828785
 21
1504.135370889658
 31
0.0
100
AcDbText
 73
     1
  0
CIRCLE
  5
BD6
330
1F
100
AcDbEntity
  8
実形
  6
HIDDEN2
 48
2.5
100
AcDbCircle
 10
981.5654806867124
 20
646.976610513685
 30
0.0
 40
52.44287595353882
  0
ARC
  5
BD7
330
1F
100
AcDbEntity
  8
実形
  6
Continuous
100
AcDbCircle
 10
668.0077921030406
 20
463.6352227820589
 30
0.0
 40
353.8763136327953
100
AcDbArc
 50
38.56928211716186
 51
80.6584250076038
  0
LINE
  5
BD9
330
1F
100
AcDbEntity
  8
実形
100
AcDbLine
 10
768.0720241283388
 20
817.7414862279784
 30
0.0
 11
725.4489462274761
 21
812.8184972428918
 31
0.0
  0
LINE
  5
BDA
330
1F
100
AcDbEntity
  8
実形
100
AcDbLine
 10
725.4489462274761
 20
812.8184972428918
 30
0.0
 11
763.9832709845368
 21
787.1000151942371
 31
0.0
  0
LINE
  5
BDC
330
1F
100
AcDbEntity
  8
実形
100
AcDbLine
 10
378.4097917478284
 20
885.7291359742566
 30
0.0
 11
518.4097917478283
 21
885.7291359742568
 31
0.0
  0
LINE
  5
BDD
330
1F
100
AcDbEntity
  8
実形
100
AcDbLine
 10
528.4097917478284
 20
875.7291359742568
 30
0.0
 11
528.4097917478284
 21
685.7291359742567
 31
0.0
  0
ARC
  5
BDE
330
1F
100
AcDbEntity
  8
実形
100
AcDbCircle
 10
518.4097917478283
 20
875.7291359742568
 30
0.0
 40
10.0
100
AcDbArc
 50
0.0
 51
90.0
  0
LINE
  5
BDF
330
1F
100
AcDbEntity
  8
実形
100
AcDbLine
 10
378.4097917478284
 20
875.7291359742566
 30
0.0
 11
518.4097917478283
 21
875.7291359742568
 31
0.0
  0
LINE
  5
BE0
330
1F
100
AcDbEntity
  8
実形
100
AcDbLine
 10
518.4097917478283
 20
875.7291359742568
 30
0.0
 11
518.4097917478283
 21
685.7291359742567
 31
0.0
  0
LINE
  5
BE1
330
1F
100
AcDbEntity
  8
実形
100
AcDbLine
 10
378.4097917478284
 20
885.7291359742566
 30
0.0
 11
378.4097917478284
 21
875.7291359742566
 31
0.0
  0
LINE
  5
BE2
330
1F
100
AcDbEntity
  8
実形
100
AcDbLine
 10
378.4097917478284
 20
885.7291359742566
 30
0.0
 11
655.8490899883845
 21
885.7291359742566
 31
0.0
  0
LINE
  5
BE3
330
1F
100
AcDbEntity
  8
実形
100
AcDbLine
 10
558.4097917478284
 20
821.7291359742567
 30
0.0
 11
655.8490899883845
 21
821.7291359742567
 31
0.0
  0
LINE
  5
BE4
330
1F
100
AcDbEntity
  8
実形
100
AcDbLine
 10
558.4097917478284
 20
735.7291359742567
 30
0.0
 11
655.8490899883845
 21
735.7291359742567
 31
0.0
  0
LINE
  5
BE5
330
1F
100
AcDbEntity
  8
実形
100
AcDbLine
 10
528.4097917478284
 20
851.7291359742566
 30
0.0
 11
528.4097917478284
 21
875.7291359742568
 31
0.0
  0
ARC
  5
BE6
330
1F
100
AcDbEntity
  8
実形
100
AcDbCircle
 10
558.4097917478284
 20
851.7291359742566
 30
0.0
 40
30.0
100
AcDbArc
 50
180.0
 51
270.0
  0
LINE
  5
BE8
330
1F
100
AcDbEntity
  8
実形
100
AcDbLine
 10
528.4097917478284
 20
765.7291359742567
 30
0.0
 11
528.4097917478284
 21
851.7291359742566
 31
0.0
  0
ARC
  5
BE9
330
1F
100
AcDbEntity
  8
実形
100
AcDbCircle
 10
558.4097917478284
 20
765.7291359742567
 30
0.0
 40
30.0
100
AcDbArc
 50
180.0
 51
270.0
  0
LEADER
  5
C15
330
1F
100
AcDbEntity
  8
実形
100
AcDbLeader
  3
ISO-25
 40
25.0
 41
33.33333333333332
 76
     2
 10
527.8579581922695
 20
884.7073526794911
 30
0.0
 10
561.7251703954834
 20
912.9077443778724
 30
0.0
213
0.0
223
-12.5
233
0.0
1001
ACAD
1000
DSTYLE
1002
{
1070
   147
1040
6.25
1070
    77
1070
     0
1070
    41
1040
20.0
1070
   342
1005
DA
1002
}
  0
LEADER
  5
C18
330
1F
100
AcDbEntity
  8
実形
100
AcDbLeader
  3
ISO-25
 40
25.0
 41
8.333333333333332
 76
     2
 10
543.7956840475144
 20
829.5648202090596
 30
0.0
 10
581.1907279036404
 20
848.6000813926565
 30
0.0
213
0.0
223
-12.5
233
0.0
1001
ACAD
1000
DSTYLE
1002
{
1070
   147
1040
6.25
1070
    77
1070
     0
1070
    41
1040
20.0
1070
   342
1005
DA
1002
}
  0
LEADER
  5
C1A
330
1F
100
AcDbEntity
  8
実形
100
AcDbLeader
  3
ISO-25
 40
25.0
 41
8.333333333333332
 76
     2
 10
545.9123780389218
 20
744.2586449598866
 30
0.0
 10
580.4851632398376
 20
766.8189545108162
 30
0.0
213
0.0
223
-12.5
233
0.0
1001
ACAD
1000
DSTYLE
1002
{
1070
   147
1040
6.25
1070
    77
1070
     0
1070
    41
1040
20.0
1070
   342
1005
DA
1002
}
  0
TEXT
  5
C1C
330
1F
100
AcDbEntity
  8
実形
100
AcDbText
 10
569.4864066990094
 20
912.7809616296074
 30
0.0
 40
25.0
  1
1R
 11
569.4864066990094
 21
904.4476282962742
 31
0.0
100
AcDbText
 73
     1
  0
TEXT
  5
C1D
330
1F
100
AcDbEntity
  8
実形
100
AcDbText
 10
588.9519642071664
 20
845.6532599505248
 30
0.0
 40
25.0
  1
3R
 11
588.9519642071664
 21
837.3199266171914
 31
0.0
100
AcDbText
 73
     1
  0
TEXT
  5
C1E
330
1F
100
AcDbEntity
  8
実形
100
AcDbText
 10
586.8352702157599
 20
765.2821524156182
 30
0.0
 40
25.0
  1
3R
 11
586.8352702157599
 21
756.9488190822848
 31
0.0
100
AcDbText
 73
     1
  0
LEADER
  5
C20
330
1F
100
AcDbEntity
  8
実形
100
AcDbLeader
  3
ISO-25
 40
25.0
 41
16.66666666666666
 76
     2
 10
1608.438903564493
 20
1557.812169845634
 30
0.0
 10
1562.931979048508
 20
1532.414190201784
 30
0.0
213
0.0
223
12.5
233
0.0
1001
ACAD
1000
DSTYLE
1002
{
1070
   147
1040
6.25
1070
    77
1070
     0
1070
    41
1040
20.0
1070
   342
1005
DA
1002
}
  0
LEADER
  5
C24
330
1F
100
AcDbEntity
  8
実形
100
AcDbLeader
  3
ISO-25
 40
25.0
 41
16.66666666666666
 76
     2
 10
1600.870105317515
 20
1484.501333032225
 30
0.0
 10
1532.599859391915
 20
1454.393524991538
 30
0.0
213
0.0
223
12.5
233
0.0
1001
ACAD
1000
DSTYLE
1002
{
1070
   147
1040
6.25
1070
    77
1070
     0
1070
    41
1040
20.0
1070
   342
1005
DA
1002
}
  0
LEADER
  5
C26
330
1F
100
AcDbEntity
  8
実形
100
AcDbLeader
  3
ISO-25
 40
25.0
 41
16.66666666666666
 76
     2
 10
1597.610666112122
 20
1443.240139299883
 30
0.0
 10
1560.088785635847
 20
1401.730380509489
 30
0.0
213
0.0
223
12.5
233
0.0
1001
ACAD
1000
DSTYLE
1002
{
1070
   147
1040
6.25
1070
    77
1070
     0
1070
    41
1040
20.0
1070
   342
1005
DA
1002
}
  0
LEADER
  5
C29
330
1F
100
AcDbEntity
  8
実形
100
AcDbLeader
  3
ISO-25
 40
74.99999999999999
 41
41.66666666666666
 76
     2
 10
1621.627417569215
 20
1282.171991867024
 30
0.0
 10
1562.34047214355
 20
1282.171991867024
 30
0.0
213
0.0
223
12.5
233
0.0
1001
ACAD
1000
DSTYLE
1002
{
1070
   147
1040
6.25
1070
    77
1070
     0
1070
    41
1040
20.0
1070
   342
1005
DA
1002
}
  0
TEXT
  5
C2B
330
1F
100
AcDbEntity
  8
実形
100
AcDbText
 10
1460.426757631408
 20
1441.628756116451
 30
0.0
 40
25.0
  1
60R
 72
     2
 11
1522.926757631408
 21
1433.295422783118
 31
0.0
100
AcDbText
 73
     1
  0
TEXT
  5
C2C
330
1F
100
AcDbEntity
  8
実形
100
AcDbText
 10
1480.823987182953
 20
1377.392764989538
 30
0.0
 40
25.0
  1
100R
 72
     2
 11
1555.823987182953
 21
1369.059431656205
 31
0.0
100
AcDbText
 73
     1
  0
TEXT
  5
C2D
330
1F
100
AcDbEntity
  8
実形
100
AcDbText
 10
1491.260520152394
 20
1508.580665166042
 30
0.0
 40
25.0
  1
60R
 72
     2
 11
1553.760520152394
 21
1533.580665166042
 31
0.0
100
AcDbText
 73
     3
  0
TEXT
  5
C2E
330
1F
100
AcDbEntity
  8
実形
100
AcDbText
 10
1446.801015158435
 20
1269.671991867024
 30
0.0
 40
25.0
  1
2000R
 72
     2
 11
1550.967681825102
 21
1282.171991867024
 31
0.0
100
AcDbText
 73
     2
  0
LEADER
  5
CB8
330
1F
100
AcDbEntity
  8
実形
100
AcDbLeader
  3
ISO-25
 76
     2
 10
1611.603818662217
 20
480.3801909243426
 30
0.0
 10
1568.411988112511
 20
519.351658448465
 30
0.0
1001
ACAD
1000
DSTYLE
1002
{
1070
   147
1040
6.25
1070
    77
1070
     0
1070
    41
1040
20.0
1070
   342
1005
DA
1002
}
  0
LEADER
  5
CB9
330
1F
100
AcDbEntity
  8
実形
100
AcDbLeader
  3
ISO-25
 76
     2
 10
1002.454478931722
 20
476.7079666847974
 30
0.0
 10
1043.104232573053
 20
517.3400634321569
 30
0.0
1001
ACAD
1000
DSTYLE
1002
{
1070
   147
1040
6.25
1070
    77
1070
     0
1070
    41
1040
20.0
1070
   342
1005
DA
1002
}
  0
LEADER
  5
CBA
330
1F
100
AcDbEntity
  8
実形
100
AcDbLeader
  3
ISO-25
 76
     2
 10
1933.11076463392
 20
1072.89552841614
 30
0.0
 10
1967.72505200626
 20
1035.173547228066
 30
0.0
1001
ACAD
1000
DSTYLE
1002
{
1070
   147
1040
6.25
1070
    77
1070
     0
1070
    41
1040
20.0
1070
   342
1005
DA
1002
}
  0
LEADER
  5
CBD
330
1F
100
AcDbEntity
  8
実形
100
AcDbLeader
  3
ISO-25
 76
     2
 10
1924.221347695433
 20
1065.398373298435
 30
0.0
 10
1873.818913894685
 20
1101.360461761564
 30
0.0
1001
ACAD
1000
DSTYLE
1002
{
1070
   147
1040
6.25
1070
    77
1070
     0
1070
    41
1040
20.0
1070
   342
1005
DA
1002
}
  0
LEADER
  5
CBE
330
1F
100
AcDbEntity
  8
実形
100
AcDbLeader
  3
ISO-25
 76
     2
 10
2088.083023530675
 20
1090.348775030742
 30
0.0
 10
2050.428253020163
 20
1126.588127719699
 30
0.0
1001
ACAD
1000
DSTYLE
1002
{
1070
   147
1040
6.25
1070
    77
1070
     0
1070
    41
1040
20.0
1070
   342
1005
DA
1002
}
  0
TEXT
  5
CBF
330
1F
100
AcDbEntity
  8
実形
100
AcDbText
 10
1978.429468912672
 20
1129.63822289314
 30
0.0
 40
25.0
  1
30R
 11
1978.429468912672
 21
1121.304889559807
 31
0.0
100
AcDbText
 73
     1
  0
TEXT
  5
CC0
330
1F
100
AcDbEntity
  8
実形
100
AcDbText
 10
1824.388642990153
 20
1099.82751332579
 30
0.0
 40
25.0
  1
3R
 11
1824.388642990153
 21
1091.494179992457
 31
0.0
100
AcDbText
 73
     1
  0
TEXT
  5
CC1
330
1F
100
AcDbEntity
  8
実形
100
AcDbText
 10
1977.693688471622
 20
1018.685985003679
 30
0.0
 40
25.0
  1
5R
 11
1977.693688471622
 21
1010.352651670346
 31
0.0
100
AcDbText
 73
     1
  0
TEXT
  5
CC2
330
1F
100
AcDbEntity
  8
実形
100
AcDbText
 10
1497.116196438524
 20
517.8549093940595
 30
0.0
 40
25.0
  1
30R
 11
1497.116196438524
 21
509.5215760607261
 31
0.0
100
AcDbText
 73
     1
  0
TEXT
  5
CC3
330
1F
100
AcDbEntity
  8
実形
100
AcDbText
 10
1044.116672107156
 20
520.1742221545761
 30
0.0
 40
25.0
  1
30R
 11
1044.116672107156
 21
511.8408888212427
 31
0.0
100
AcDbText
 73
     1
  0
TEXT
  5
DC3
330
1F
100
AcDbEntity
  8
実形
100
AcDbText
 10
191.7098177320886
 20
90.06009540427749
 30
0.0
 40
25.0
  1
※実寸には製造上の誤差が多少生ずる場合があります。シンクの穴あけ加工は現物合わせにてお願いします。
  7
MS明朝
100
AcDbText
  0
DIMENSION
  5
EB5
330
1F
100
AcDbEntity
  8
実形
100
AcDbDimension
  2
*D20
 10
1912.975253562778
 20
1383.68017662416
 30
0.0
 11
1920.475253562777
 21
1383.68017662416
 31
0.0
 70
    32
  1
 
 71
     5
 42
15.0
  3
ISO-25
100
AcDbAlignedDimension
 13
1927.975253562777
 23
1502.0779087747
 33
0.0
 14
1912.975253562778
 24
1502.0779087747
 34
0.0
100
AcDbRotatedDimension
1001
ACAD
1000
DSTYLE
1002
{
1070
   279
1070
     2
1070
   343
1005
D0
1070
   173
1070
     1
1070
   344
1005
D0
1070
    41
1040
30.0
1070
   342
1005
0
1002
}
  0
CIRCLE
  5
EFC
330
1F
100
AcDbEntity
  8
実形
100
AcDbCircle
 10
1919.375253562778
 20
1383.68017662416
 30
0.0
 40
2.5
  0
HATCH
  5
F0C
330
1F
100
AcDbEntity
  8
実形
100
AcDbHatch
 10
0.0
 20
0.0
 30
0.0
210
0.0
220
0.0
230
1.0
  2
SOLID
 70
     1
 71
     0
 91
        1
 92
        7
 72
     1
 73
     1
 93
        2
 10
1921.875253562778
 20
1383.68017662416
 42
1.0
 10
1916.875253562778
 20
1383.68017662416
 42
1.0
 97
        0
 75
     0
 76
     1
 47
0.4047791916358173
 98
        1
 10
1919.413778542818
 20
1384.087744285036
  0
TEXT
  5
FFB
330
1F
100
AcDbEntity
  8
実形
100
AcDbText
 10
2077.151164740479
 20
85.79362836235922
 30
0.0
 40
30.0
  1
尺度
  7
MS明朝
 72
     4
 11
2121.036879026193
 21
101.9936283623592
 31
0.0
100
AcDbText
  0
TEXT
  5
FFC
330
1F
100
AcDbEntity
  8
実形
100
AcDbText
 10
2080.114285714286
 20
151.8428571428571
 30
0.0
 40
30.0
  1
品番
  7
MS明朝
 72
     4
 11
2124.0
 21
166.5
 31
0.0
100
AcDbText
  0
LINE
  5
FFD
330
1F
100
AcDbEntity
  8
実形
100
AcDbLine
 10
2064.0
 20
69.0
 30
0.0
 11
2784.0
 21
69.0
 31
0.0
  0
LINE
  5
FFE
330
1F
100
AcDbEntity
  8
実形
100
AcDbLine
 10
2064.0
 20
199.0
 30
0.0
 11
2784.0
 21
199.0
 31
0.0
  0
LINE
  5
FFF
330
1F
100
AcDbEntity
  8
実形
100
AcDbLine
 10
2064.0
 20
134.0
 30
0.0
 11
2784.0
 21
134.0
 31
0.0
  0
LINE
  5
1000
330
1F
100
AcDbEntity
  8
実形
100
AcDbLine
 10
2064.0
 20
4.0
 30
0.0
 11
2064.0
 21
199.0
 31
0.0
  0
TEXT
  5
1001
330
1F
100
AcDbEntity
  8
実形
100
AcDbText
 10
2283.455774665347
 20
18.5
 30
0.0
 40
35.0
  1
中外交易株式会社
  7
MS明朝
 72
     4
 11
2488.255774665347
 21
36.5
 31
0.0
100
AcDbText
  0
TEXT
  5
1002
330
1F
100
AcDbEntity
  8
実形
100
AcDbText
 10
2330.4
 20
149.4
 30
0.0
 40
35.0
  1
PRS650-520HC
  7
MS明朝
 72
     4
 11
2484.0
 21
166.5
 31
0.0
100
AcDbText
  0
LINE
  5
1003
330
1F
100
AcDbEntity
  8
実形
100
AcDbLine
 10
2184.0
 20
69.0
 30
0.0
 11
2784.0
 21
69.0
 31
0.0
  0
LINE
  5
1004
102
{ACAD_REACTORS
330
1011
102
}
330
1F
100
AcDbEntity
  8
実形
370
     5
100
AcDbLine
 10
2207.843923164362
 20
40.53787547858519
 30
0.0
 11
2183.255774665347
 21
40.53787547858519
 31
0.0
  0
LINE
  5
1005
102
{ACAD_REACTORS
330
1011
102
}
330
1F
100
AcDbEntity
  8
実形
370
     5
100
AcDbLine
 10
2183.255774665347
 20
40.53787547858519
 30
0.0
 11
2183.255774665347
 21
30.53787547858519
 31
0.0
  0
LINE
  5
1006
102
{ACAD_REACTORS
330
1011
102
}
330
1F
100
AcDbEntity
  8
実形
370
     5
100
AcDbLine
 10
2183.255774665347
 20
30.53787547858519
 30
0.0
 11
2207.346428692676
 21
30.53787547858514
 31
0.0
  0
LINE
  5
1007
102
{ACAD_REACTORS
330
1011
102
}
330
1F
100
AcDbEntity
  8
実形
370
     5
100
AcDbLine
 10
2210.641894042939
 20
56.5
 30
0.0
 11
2210.641894042939
 21
16.5
 31
0.0
  0
LINE
  5
1008
102
{ACAD_REACTORS
330
1011
102
}
330
1F
100
AcDbEntity
  8
実形
370
     5
100
AcDbLine
 10
2210.641894042939
 20
16.5
 30
0.0
 11
2245.64189404294
 21
16.5
 31
0.0
  0
LINE
  5
1009
102
{ACAD_REACTORS
330
1011
102
}
330
1F
100
AcDbEntity
  8
実形
370
     5
100
AcDbLine
 10
2245.64189404294
 20
16.5
 30
0.0
 11
2210.641894042939
 21
36.5
 31
0.0
  0
LINE
  5
100A
102
{ACAD_REACTORS
330
1011
102
}
330
1F
100
AcDbEntity
  8
実形
370
     5
100
AcDbLine
 10
2210.641894042939
 20
36.5
 30
0.0
 11
2245.64189404294
 21
56.5
 31
0.0
  0
LINE
  5
100B
102
{ACAD_REACTORS
330
1011
102
}
330
1F
100
AcDbEntity
  8
実形
370
     5
100
AcDbLine
 10
2245.64189404294
 20
56.5
 30
0.0
 11
2210.641894042939
 21
56.5
 31
0.0
  0
LINE
  5
100C
102
{ACAD_REACTORS
330
1011
102
}
330
1F
100
AcDbEntity
  8
実形
370
     5
100
AcDbLine
 10
2276.75434681301
 20
40.53787547858519
 30
0.0
 11
2252.166198313995
 21
40.53787547858519
 31
0.0
  0
LINE
  5
100D
102
{ACAD_REACTORS
330
1011
102
}
330
1F
100
AcDbEntity
  8
実形
370
     5
100
AcDbLine
 10
2252.166198313995
 20
40.53787547858519
 30
0.0
 11
2252.166198313995
 21
30.53787547858519
 31
0.0
  0
LINE
  5
100E
102
{ACAD_REACTORS
330
1011
102
}
330
1F
100
AcDbEntity
  8
実形
370
     5
100
AcDbLine
 10
2252.166198313995
 20
30.53787547858519
 30
0.0
 11
2276.256852341323
 21
30.53787547858514
 31
0.0
  0
ARC
  5
100F
102
{ACAD_REACTORS
330
1011
102
}
330
1F
100
AcDbEntity
  8
実形
370
     5
100
AcDbCircle
 10
2188.255774665348
 20
36.5
 30
0.0
 40
20.0
100
AcDbArc
 50
11.6477236670766
 51
342.6561058784746
  0
ARC
  5
1010
102
{ACAD_REACTORS
330
1011
102
}
330
1F
100
AcDbEntity
  8
実形
370
     5
100
AcDbCircle
 10
2257.166198313996
 20
36.5
 30
0.0
 40
20.0
100
AcDbArc
 50
11.6477236670766
 51
342.6561058784746
  0
HATCH
  5
1011
330
1F
100
AcDbEntity
  8
実形
100
AcDbHatch
 10
0.0
 20
0.0
 30
0.0
210
0.0
220
0.0
230
1.0
  2
SOLID
 70
     1
 71
     1
 91
        3
 92
        1
 93
        4
 72
     2
 10
2257.166198313996
 20
36.5
 40
20.0
 50
11.6477236670766
 51
342.6561058784746
 73
     1
 72
     1
 10
2276.256852341323
 20
30.53787547858514
 11
2252.166198313995
 21
30.53787547858519
 72
     1
 10
2252.166198313995
 20
30.53787547858519
 11
2252.166198313995
 21
40.53787547858519
 72
     1
 10
2252.166198313995
 20
40.53787547858519
 11
2276.75434681301
 21
40.53787547858519
 97
        4
330
1010
330
100E
330
100D
330
100C
 92
        1
 93
        4
 72
     2
 10
2188.255774665348
 20
36.5
 40
20.0
 50
11.6477236670766
 51
342.6561058784746
 73
     1
 72
     1
 10
2207.346428692676
 20
30.53787547858514
 11
2183.255774665347
 21
30.53787547858519
 72
     1
 10
2183.255774665347
 20
30.53787547858519
 11
2183.255774665347
 21
40.53787547858519
 72
     1
 10
2183.255774665347
 20
40.53787547858519
 11
2207.843923164362
 21
40.53787547858519
 97
        4
330
100F
330
1006
330
1005
330
1004
 92
        1
 93
        5
 72
     1
 10
2245.64189404294
 20
56.5
 11
2210.641894042939
 21
56.5
 72
     1
 10
2210.641894042939
 20
56.5
 11
2210.641894042939
 21
16.5
 72
     1
 10
2210.641894042939
 20
16.5
 11
2245.64189404294
 21
16.5
 72
     1
 10
2245.64189404294
 20
16.5
 11
2210.641894042939
 21
36.5
 72
     1
 10
2210.641894042939
 20
36.5
 11
2245.64189404294
 21
56.5
 97
        5
330
100B
330
1007
330
1008
330
1009
330
100A
 75
     0
 76
     1
 98
        1
 10
-60.0
 20
0.0
  0
LINE
  5
1012
330
1F
100
AcDbEntity
  8
実形
100
AcDbLine
 10
2184.0
 20
69.0
 30
0.0
 11
2184.0
 21
199.0
 31
0.0
  0
TEXT
  5
1013
330
1F
100
AcDbEntity
  8
実形
100
AcDbText
 10
2420.0
 20
84.40000000000001
 30
0.0
 40
35.0
  1
1：10
  7
MS明朝
 72
     4
 11
2484.0
 21
101.5
 31
0.0
100
AcDbText
  0
LINE
  5
1014
330
1F
100
AcDbEntity
  8
実形
100
AcDbLine
 10
2784.0
 20
69.0
 30
0.0
 11
2784.0
 21
134.0
 31
0.0
  0
LINE
  5
1015
330
1F
100
AcDbEntity
  8
実形
100
AcDbLine
 10
2784.0
 20
134.0
 30
0.0
 11
2784.0
 21
199.0
 31
0.0
  0
LINE
  5
1016
330
1F
100
AcDbEntity
  8
実形
100
AcDbLine
 10
2784.0
 20
4.0
 30
0.0
 11
2784.0
 21
69.0
 31
0.0
  0
ARC
  5
1183
330
1F
100
AcDbEntity
  8
実形
100
AcDbCircle
 10
1916.375253562778
 20
1579.0779087747
 30
0.0
 40
3.0
100
AcDbArc
 50
359.9999999999998
 51
90.00000000000122
  0
LINE
  5
11AD
330
1F
100
AcDbEntity
  8
実形
100
AcDbLine
 10
1962.975253562777
 20
1319.5779087747
 30
0.0
 11
1962.975253562778
 21
1319.5779087747
 31
0.0
  0
LINE
  5
1279
330
1F
100
AcDbEntity
  8
実形
  6
CENTER2
100
AcDbLine
 10
1303.496834872258
 20
1491.206032088039
 30
0.0
 11
1303.496834872258
 21
1202.35783932375
 31
0.0
  0
LINE
  5
128E
330
1F
100
AcDbEntity
  8
実形
  6
CENTER2
100
AcDbLine
 10
1157.779724353704
 20
1337.0779087747
 30
0.0
 11
1440.652582587068
 21
1337.0779087747
 31
0.0
  0
CIRCLE
  5
1290
330
1F
100
AcDbEntity
  8
実形
100
AcDbCircle
 10
1303.496834872258
 20
1337.0779087747
 30
0.0
 40
79.5
  0
CIRCLE
  5
1291
330
1F
100
AcDbEntity
  8
実形
100
AcDbCircle
 10
1303.496834872258
 20
1337.0779087747
 30
0.0
 40
90.5
  0
LINE
  5
130D
330
1F
100
AcDbEntity
  8
実形
  6
CENTER2
 48
0.5
100
AcDbLine
 10
1303.496834872258
 20
529.3254595931148
 30
0.0
 11
1303.496834872258
 21
367.3798057355016
 31
0.0
  0
LINE
  5
1343
330
1F
100
AcDbEntity
  8
実形
100
AcDbLine
 10
1393.93209980685
 20
457.0779087747005
 30
0.0
 11
1599.282143321495
 21
467.0360300356663
 31
0.0
  0
LINE
  5
1344
330
1F
100
AcDbEntity
  8
実形
100
AcDbLine
 10
978.4968348722591
 20
497.025749784933
 30
0.0
 11
978.4968348722591
 21
647.0779087747005
 31
0.0
  0
ARC
  5
1347
330
1F
100
AcDbEntity
  8
実形
100
AcDbCircle
 10
1008.496834872259
 20
497.025749784933
 30
0.0
 40
30.0
100
AcDbArc
 50
180.0
 51
268.5
  0
LINE
  5
1348
330
1F
100
AcDbEntity
  8
実形
  6
ACAD_ISO08W100
100
AcDbLine
 10
1387.996834872263
 20
457.0779087747004
 30
0.0
 11
984.3683097544577
 21
457.0779087747004
 31
0.0
  0
ARC
  5
1349
330
1F
100
AcDbEntity
  8
実形
100
AcDbCircle
 10
1387.996834872263
 20
457.0779087747004
 30
0.0
 40
346.6490970545442
100
AcDbArc
 50
178.4999999999999
 51
180.0
  0
LINE
  5
134A
330
1F
100
AcDbEntity
  8
実形
100
AcDbLine
 10
1213.061569937668
 20
457.0779087747005
 30
0.0
 11
1007.711526423022
 21
467.0360300356663
 31
0.0
  0
TEXT
  5
1355
330
1F
100
AcDbEntity
  8
実形
100
AcDbText
 10
1019.876289493635
 20
418.6775206360028
 30
0.0
 40
25.0
  1
1.5°
 11
1019.876289493635
 21
410.3441873026695
 31
0.0
100
AcDbText
 73
     1
  0
LINE
  5
1356
330
1F
100
AcDbEntity
  8
実形
100
AcDbLine
 10
1393.93209980685
 20
457.0779087747005
 30
0.0
 11
1387.996834872263
 21
457.0779087747004
 31
0.0
  0
LINE
  5
157C
330
1F
100
AcDbEntity
  8
実形
100
AcDbLine
 10
1213.06156993767
 20
457.0779087747004
 30
0.0
 11
1393.93209980685
 21
457.0779087747005
 31
0.0
  0
DIMENSION
  5
15ED
330
1F
100
AcDbEntity
  8
実形
100
AcDbDimension
  2
*D22
 10
963.4968348722587
 20
929.8545833737954
 30
0.0
 11
1010.059657954702
 21
935.2347189135716
 31
0.0
 70
   160
 71
     5
 42
15.0
  3
ISO-25
100
AcDbAlignedDimension
 13
978.4968348722586
 23
1047.0779087747
 33
0.0
 14
963.4968348722587
 24
1047.0779087747
 34
0.0
 50
180.0
100
AcDbRotatedDimension
1001
ACAD
1000
DSTYLE
1002
{
1070
   279
1070
     1
1002
}
  0
DIMENSION
  5
1668
330
1F
100
AcDbEntity
  8
実形
100
AcDbDimension
  2
*D23
 10
1628.496834872258
 20
929.8545833737954
 30
0.0
 11
1597.096736801193
 21
948.9008942390192
 31
0.0
 70
   160
 71
     5
 42
15.0
  3
ISO-25
100
AcDbAlignedDimension
 13
1643.496834872259
 23
1047.0779087747
 33
0.0
 14
1628.496834872258
 24
1047.0779087747
 34
0.0
 50
180.0
100
AcDbRotatedDimension
1001
ACAD
1000
DSTYLE
1002
{
1070
   279
1070
     2
1002
}
  0
DIMENSION
  5
16A7
330
1F
100
AcDbEntity
  8
実形
100
AcDbDimension
  2
*D24
 10
1303.496834872258
 20
1281.118055788709
 30
0.0
 11
1140.996834872258
 21
1299.868055788709
 31
0.0
 70
    32
 71
     5
 42
325.0
  3
ISO-25
100
AcDbAlignedDimension
 13
978.4968348722586
 23
1282.0779087747
 33
0.0
 14
1303.496834872258
 24
1337.0779087747
 34
0.0
100
AcDbRotatedDimension
1001
ACAD
1000
DSTYLE
1002
{
1070
   343
1005
D0
1070
   173
1070
     1
1070
   344
1005
D0
1070
    41
1040
35.0
1070
   342
1005
0
1002
}
  0
DIMENSION
  5
1726
330
1F
100
AcDbEntity
  8
実形
100
AcDbDimension
  2
*D25
 10
825.8880681012643
 20
632.0779087747005
 30
0.0
 11
795.1270335187455
 21
622.6449149591744
 31
0.0
 70
   160
 71
     5
 42
15.0
  3
ISO-25
100
AcDbAlignedDimension
 13
945.322936337742
 23
647.0779087747005
 33
0.0
 14
945.322936337742
 24
632.0779087747005
 34
0.0
 50
90.0
100
AcDbRotatedDimension
1001
ACAD
1000
DSTYLE
1002
{
1070
    41
1040
20.0
1070
   279
1070
     2
1002
}
  0
DIMENSION
  5
1727
330
1F
100
AcDbEntity
  8
実形
100
AcDbDimension
  2
*D26
 10
763.0970147439247
 20
457.0779087747006
 30
0.0
 11
744.3470147439247
 21
552.0779087747007
 31
0.0
 70
    32
 71
     5
 42
189.9999999999999
  3
ISO-25
100
AcDbAlignedDimension
 13
945.3229363377422
 23
647.0779087747005
 33
0.0
 14
945.3229363377424
 24
457.0779087747006
 34
0.0
 50
90.0
100
AcDbRotatedDimension
1001
ACAD
1000
DSTYLE
1002
{
1070
    41
1040
20.0
1070
   279
1070
     2
1002
}
  0
LINE
  5
1728
330
1F
100
AcDbEntity
  8
実形
100
AcDbLine
 10
880.3229363377424
 20
450.0779087747004
 30
0.0
 11
825.8880681012643
 21
450.0779087747004
 31
0.0
  0
LINE
  5
1729
330
1F
100
AcDbEntity
  8
実形
100
AcDbLine
 10
825.8880681012643
 20
457.0779087747006
 30
0.0
 11
825.8880681012643
 21
450.0779087747006
 31
0.0
  0
TEXT
  5
172A
330
1F
100
AcDbEntity
  8
実形
370
    18
100
AcDbText
 10
828.9075228826868
 20
454.441242693375
 30
0.0
 40
6.0
  1
●
 71
     2
100
AcDbText
  0
TEXT
  5
172B
330
1F
100
AcDbEntity
  8
実形
370
    18
100
AcDbText
 10
828.9075228826868
 20
447.0001039276985
 30
0.0
 40
6.0
  1
●
 71
     2
100
AcDbText
  0
TEXT
  5
172C
330
1F
100
AcDbEntity
  8
実形
370
    18
100
AcDbText
 10
809.3387555105792
 20
425.4288785552671
 30
0.0
 40
25.0
  1
7
 50
89.97509673302152
100
AcDbText
  0
DIMENSION
  5
177B
330
1F
100
AcDbEntity
  8
実形
100
AcDbDimension
  2
*D27
 10
1927.975253562777
 20
932.8155574861776
 30
0.0
 11
1958.138333396186
 21
948.3175908169432
 31
0.0
 70
   160
 71
     5
 42
15.0
  3
ISO-25
100
AcDbAlignedDimension
 13
1912.975253562778
 23
1052.336701084655
 33
0.0
 14
1927.975253562777
 24
1052.336701084655
 34
0.0
100
AcDbRotatedDimension
1001
ACAD
1000
DSTYLE
1002
{
1070
    41
1040
20.0
1070
   279
1070
     2
1002
}
  0
DIMENSION
  5
177C
330
1F
100
AcDbEntity
  8
実形
100
AcDbDimension
  2
*D28
 10
2102.975253562778
 20
870.0357129788262
 30
0.0
 11
2007.975253562777
 21
888.7857129788262
 31
0.0
 70
    32
 71
     5
 42
190.0
  3
ISO-25
100
AcDbAlignedDimension
 13
1912.975253562778
 23
1052.336701084655
 33
0.0
 14
2102.975253562778
 24
1052.336701084655
 34
0.0
100
AcDbRotatedDimension
1001
ACAD
1000
DSTYLE
1002
{
1070
    41
1040
20.0
1070
   279
1070
     2
1002
}
  0
LINE
  5
177D
330
1F
100
AcDbEntity
  8
実形
100
AcDbLine
 10
2102.975253562778
 20
931.5812566962817
 30
0.0
 11
2109.975253562778
 21
931.5812566962817
 31
0.0
  0
LINE
  5
177E
330
1F
100
AcDbEntity
  8
実形
100
AcDbLine
 10
2109.975253562778
 20
931.5812566962817
 30
0.0
 11
2109.975253562777
 21
987.336701084655
 31
0.0
  0
LINE
  5
177F
330
1F
100
AcDbEntity
  8
実形
100
AcDbLine
 10
2102.975253562778
 20
928.6862070317406
 30
0.0
 11
2102.975253562778
 21
987.3367010846552
 31
0.0
  0
TEXT
  5
1780
330
1F
100
AcDbEntity
  8
実形
370
    18
100
AcDbText
 10
2105.807907995099
 20
929.3794614413799
 30
0.0
 40
6.0
  1
●
 71
     2
100
AcDbText
  0
TEXT
  5
1781
330
1F
100
AcDbEntity
  8
実形
370
    18
100
AcDbText
 10
2112.681188323679
 20
929.1712089031598
 30
0.0
 40
6.0
  1
●
 71
     2
100
AcDbText
  0
TEXT
  5
1782
330
1F
100
AcDbEntity
  8
実形
370
    18
100
AcDbText
 10
2119.681407164939
 20
933.6619889280356
 30
0.0
 40
25.0
  1
7
100
AcDbText
  0
LINE
  5
17B6
330
1F
100
AcDbEntity
  8
実形
100
AcDbLine
 10
1393.99683487226
 20
450.0779087747004
 30
0.0
 11
1212.99683487226
 21
450.0779087747005
 31
0.0
  0
LINE
  5
17B7
330
1F
100
AcDbEntity
  8
実形
100
AcDbLine
 10
1212.99683487226
 20
457.0779087747006
 30
0.0
 11
1212.99683487226
 21
450.0779087747005
 31
0.0
  0
LINE
  5
17B8
330
1F
100
AcDbEntity
  8
実形
100
AcDbLine
 10
1393.99683487226
 20
457.0779087747006
 30
0.0
 11
1393.99683487226
 21
450.0779087747005
 31
0.0
  0
LINE
  5
17C0
330
1F
100
AcDbEntity
  8
実形
100
AcDbLine
 10
2109.975253562778
 20
1427.5779087747
 30
0.0
 11
2109.975253562778
 21
1246.577908774685
 31
0.0
  0
LINE
  5
17C1
330
1F
100
AcDbEntity
  8
実形
100
AcDbLine
 10
2102.975253562778
 20
1427.5779087747
 30
0.0
 11
2109.975253562778
 21
1427.5779087747
 31
0.0
  0
LINE
  5
17C2
330
1F
100
AcDbEntity
  8
実形
100
AcDbLine
 10
2102.975253562777
 20
1246.577908774683
 30
0.0
 11
2109.975253562778
 21
1246.577908774685
 31
0.0
  0
LINE
  5
1922
330
1F
100
AcDbEntity
  8
補助
100
AcDbLine
 10
2784.0
 20
1959.0
 30
0.0
 11
2019.387286519283
 21
1959.000000000001
 31
0.0
  0
LINE
  5
1923
330
1F
100
AcDbEntity
  8
補助
100
AcDbLine
 10
2784.0
 20
1894.0
 30
0.0
 11
2019.387286519283
 21
1894.0
 31
0.0
  0
LINE
  5
1924
330
1F
100
AcDbEntity
  8
補助
100
AcDbLine
 10
2202.547653420927
 20
1894.0
 30
0.0
 11
2202.547653420927
 21
2024.0
 31
0.0
  0
LINE
  5
1925
330
1F
100
AcDbEntity
  8
補助
100
AcDbLine
 10
2019.387286519283
 20
1894.0
 30
0.0
 11
2019.387286519283
 21
2024.0
 31
0.0
  0
TEXT
  5
1926
330
1F
100
AcDbEntity
  8
補助
100
AcDbText
 10
2050.295698850121
 20
1976.328571428572
 30
0.0
 40
30.0
  1
部品名
  7
明朝
 72
     4
 11
2116.124270278692
 21
1991.5
 31
0.0
100
AcDbText
  0
TEXT
  5
1927
330
1F
100
AcDbEntity
  8
補助
100
AcDbText
 10
2627.614285714286
 20
1976.071428571429
 30
0.0
 40
30.0
  1
厚さ
  7
明朝
 72
     4
 11
2671.5
 21
1991.5
 31
0.0
100
AcDbText
  0
LINE
  5
1928
330
1F
100
AcDbEntity
  8
補助
100
AcDbLine
 10
2559.0
 20
1894.0
 30
0.0
 11
2559.0
 21
2024.0
 31
0.0
  0
TEXT
  5
1929
330
1F
100
AcDbEntity
  8
補助
100
AcDbText
 10
2338.490869919937
 20
1975.947979478155
 30
0.0
 40
30.0
  1
材質
  7
明朝
 72
     4
 11
2382.376584205651
 21
1991.119408049583
 31
0.0
100
AcDbText
  0
TEXT
  5
192A
330
1F
100
AcDbEntity
  8
実形
100
AcDbText
 10
2048.227810657788
 20
1910.557142857143
 30
0.0
 40
30.0
  1
ボウル
  7
明朝
 72
     4
 11
2114.056382086359
 21
1926.5
 31
0.0
100
AcDbText
  0
TEXT
  5
192B
330
1F
100
AcDbEntity
  8
実形
100
AcDbText
 10
2594.700000000001
 20
1911.842857142857
 30
0.0
 40
30.0
  1
0.8ｍｍ
  7
明朝
 72
     4
 11
2671.500000000001
 21
1926.5
 31
0.0
100
AcDbText
  0
TEXT
  5
192C
330
1F
100
AcDbEntity
  8
実形
100
AcDbText
 10
2239.074011965008
 20
1910.728571428572
 30
0.0
 40
30.0
  1
SUS304（No.4）
  7
明朝
 72
     4
 11
2392.674011965008
 21
1926.5
 31
0.0
100
AcDbText
  0
LINE
  5
192D
330
1F
100
AcDbEntity
  8
実形
100
AcDbLine
 10
126.0
 20
2024.0
 30
0.0
 11
126.0
 21
4.0
 31
0.0
  0
VIEWPORT
  5
2E
102
{ACAD_XDICTIONARY
360
1956
102
}
330
1B
100
AcDbEntity
 67
     1
  8
0
100
AcDbViewport
 10
144.7270812988281
 20
101.2295806407928
 30
0.0
 40
411.6736216682419
 41
222.1517806396485
 68
     1
 69
     1
 12
144.7270812988281
 22
101.2295806407928
 13
0.0
 23
0.0
 14
10.0
 24
10.0
 15
10.0
 25
10.0
 16
0.0
 26
0.0
 36
1.0
 17
0.0
 27
0.0
 37
0.0
 42
50.0
 43
0.0
 44
0.0
 45
222.1517806396485
 50
0.0
 51
0.0
 72
   100
 90
    32800
  1

281
     0
 71
     1
 74
     0
110
0.0
120
0.0
130
0.0
111
1.0
121
0.0
131
0.0
112
0.0
122
1.0
132
0.0
 79
     0
146
0.0
  0
VIEWPORT
  5
30
102
{ACAD_XDICTIONARY
360
1958
102
}
330
1B
100
AcDbEntity
 67
     1
  8
0
100
AcDbViewport
 10
139.2237563133239
 20
101.2295821905136
 30
0.0
 40
222.7580101013184
 41
161.9673315048218
 68
     2
 69
     2
 12
210.0
 22
148.5
 13
0.0
 23
0.0
 14
10.0
 24
10.0
 15
10.0
 25
10.0
 16
0.0
 26
0.0
 36
1.0
 17
0.0
 27
0.0
 37
0.0
 42
50.0
 43
0.0
 44
0.0
 45
309.0686705647124
 50
0.0
 51
0.0
 72
   100
 90
    32864
  1

281
     0
 71
     1
 74
     0
110
0.0
120
0.0
130
0.0
111
1.0
121
0.0
131
0.0
112
0.0
122
1.0
132
0.0
 79
     0
146
0.0
  0
ENDSEC
  0
SECTION
  2
OBJECTS
  0
DICTIONARY
  5
C
330
0
100
AcDbDictionary
281
     1
  3
ACAD_COLOR
350
1247
  3
ACAD_GROUP
350
D
  3
ACAD_LAYOUT
350
1A
  3
ACAD_MATERIAL
350
1246
  3
ACAD_MLINESTYLE
350
17
  3
ACAD_PLOTSETTINGS
350
19
  3
ACAD_PLOTSTYLENAME
350
E
  3
ACAD_TABLESTYLE
350
1248
  3
AcadDim
350
CBC
  3
ACDBHEADERROUNDTRIPXREC
350
194F
  3
AcDbVariableDictionary
350
EFD
  0
DICTIONARY
  5
1359
330
2
100
AcDbDictionary
280
     1
281
     1
  3
ACAD_LAYERFILTERS
360
1905
  3
ACAD_LAYERSTATES
360
171A
  3
ACLYDICTIONARY
360
1904
  0
DICTIONARY
  5
126E
330
1F
100
AcDbDictionary
280
     1
281
     1
  3
ACAD_SORTENTS
360
126F
  0
DICTIONARY
  5
17D2
330
17D0
100
AcDbDictionary
280
     1
281
     1
  3
ACAD_SORTENTS
360
17D3
  0
DICTIONARY
  5
1956
330
2E
100
AcDbDictionary
280
     1
281
     1
  3
ACAD_XREC_ROUNDTRIP
360
1957
  0
DICTIONARY
  5
1958
330
30
100
AcDbDictionary
280
     1
281
     1
  3
ACAD_XREC_ROUNDTRIP
360
1959
  0
DICTIONARY
  5
1247
102
{ACAD_REACTORS
330
C
102
}
330
C
100
AcDbDictionary
281
     1
  0
DICTIONARY
  5
D
102
{ACAD_REACTORS
330
C
102
}
330
C
100
AcDbDictionary
281
     1
  0
DICTIONARY
  5
1A
102
{ACAD_REACTORS
330
C
102
}
330
C
100
AcDbDictionary
281
     1
  3
Model
350
22
  3
ﾚｲｱｳﾄ1
350
1E
  3
ﾚｲｱｳﾄ2
350
26
  0
DICTIONARY
  5
1246
102
{ACAD_REACTORS
330
C
102
}
330
C
100
AcDbDictionary
281
     1
  0
DICTIONARY
  5
17
102
{ACAD_REACTORS
330
C
102
}
330
C
100
AcDbDictionary
281
     1
  3
Standard
350
18
  0
DICTIONARY
  5
19
102
{ACAD_REACTORS
330
C
102
}
330
C
100
AcDbDictionary
281
     1
  0
ACDBDICTIONARYWDFLT
  5
E
102
{ACAD_REACTORS
330
C
102
}
330
C
100
AcDbDictionary
281
     1
  3
Normal
350
F
100
AcDbDictionaryWithDefault
340
F
  0
DICTIONARY
  5
1248
102
{ACAD_REACTORS
330
C
102
}
330
C
100
AcDbDictionary
281
     1
  3
Standard
350
1249
  0
XRECORD
  5
CBC
102
{ACAD_REACTORS
330
C
102
}
330
C
100
AcDbXrecord
280
     1
 90
   990106
  3

 60
     0
 61
     0
 62
     1
 63
     3
 64
     0
 65
     0
 66
     0
 67
     3
 68
     1
 69
     0
 70
     0
 71
     0
 72
     0
 40
30.0
170
     0
  0
DICTIONARY
  5
194F
102
{ACAD_REACTORS
330
C
102
}
330
C
100
AcDbDictionary
281
     1
  0
DICTIONARY
  5
EFD
102
{ACAD_REACTORS
330
C
102
}
330
C
100
AcDbDictionary
281
     1
  3
CTABLESTYLE
350
124F
  3
DIMASSOC
350
194C
  3
PROJECTNAME
350
194D
  3
SORTENTS
350
EFE
  0
DICTIONARY
  5
1905
102
{ACAD_REACTORS
330
1359
102
}
330
1359
100
AcDbDictionary
281
     1
  0
DICTIONARY
  5
171A
102
{ACAD_REACTORS
330
1359
102
}
330
1359
100
AcDbDictionary
281
     1
  0
DICTIONARY
  5
1904
102
{ACAD_REACTORS
330
1359
102
}
330
1359
100
AcDbDictionary
281
     1
1001
ACAD
1000
<All
  0
SORTENTSTABLE
  5
126F
102
{ACAD_REACTORS
330
126E
102
}
330
126E
100
AcDbSortentsTable
330
1F
331
FFD
  5
1004
331
BDF
  5
BE6
331
CBE
  5
EB5
331
1343
  5
1345
331
1923
  5
1924
331
1005
  5
100C
331
1729
  5
172A
331
192B
  5
192C
331
40C
  5
4C3
331
33D
  5
354
331
2FE
  5
300
331
100D
  5
1014
331
306
  5
308
331
17B8
  5
17C0
331
1015
  5
101F
331
355
  5
362
331
17C0
  5
17C1
331
918
  5
BDE
331
35D
  5
3F6
331
522
  5
7A0
331
11AD
  5
130B
331
A0
  5
A5
331
326
  5
33A
331
1781
  5
1782
331
FFE
  5
1005
331
BE0
  5
BE8
331
336
  5
33D
331
4C3
  5
571
331
CBF
  5
EFC
331
1344
  5
1348
331
1924
  5
1925
331
1006
  5
100D
331
2F7
  5
2FA
331
172A
  5
172B
331
192C
  5
192D
331
BE8
  5
C1E
331
2FF
  5
301
331
100E
  5
1015
331
47C
  5
52F
331
307
  5
309
331
1016
  5
1291
331
C18
  5
C26
331
6AA
  5
7D7
331
17C1
  5
17C2
331
C20
  5
C2E
331
317
  5
324
331
157C
  5
1668
331
6EA
  5
8A3
331
2D8
  5
2D9
331
1782
  5
17B6
331
CB8
  5
CC1
331
BD9
  5
BE1
331
327
  5
33B
331
2E0
  5
2F2
331
130D
  5
33C
331
FFF
  5
1006
331
BE1
  5
BE9
331
337
  5
342
331
CC0
  5
F0C
331
1925
  5
1926
331
1007
  5
100E
331
172B
  5
172C
331
192D
  5
A0
331
2F8
  5
2FB
331
BE9
  5
C20
331
300
  5
302
331
1355
  5
157C
331
100F
  5
1016
331
308
  5
30A
331
128E
  5
322
331
17C2
  5
17D7
331
177B
  5
177C
331
C29
  5
CBA
331
2D9
  5
2DA
331
CB9
  5
CC2
331
BDA
  5
BE2
331
63C
  5
7AD
331
377
  5
47C
331
1000
  5
1007
331
BE2
  5
C15
331
77B
  5
BD6
331
2F1
  5
2F4
331
466
  5
522
331
CC1
  5
FFB
331
15ED
  5
1699
331
1926
  5
1927
331
172C
  5
177B
331
338
  5
346
331
1008
  5
100F
331
8A3
  5
BD7
331
66C
  5
7CA
331
301
  5
303
331
1010
  5
1019
331
8DB
  5
BDA
331
4FD
  5
63C
331
309
  5
30B
331
1356
  5
15ED
331
C1A
  5
C29
331
427
  5
4FD
331
177C
  5
177D
331
360
  5
40C
331
2DA
  5
2DB
331
CBA
  5
CC3
331
1001
  5
1008
331
BE3
  5
C18
331
2F2
  5
2F7
331
CC2
  5
FFC
331
1347
  5
1349
331
1927
  5
1928
331
339
  5
347
331
2FA
  5
2FC
331
1009
  5
1010
331
302
  5
306
331
1011
  5
101A
331
30A
  5
30C
331
1290
  5
1343
331
914
  5
BDD
331
359
  5
363
331
177D
  5
177E
331
9C
  5
9C
331
361
  5
41A
331
C2B
  5
CBD
331
2DB
  5
2DD
331
BDC
  5
BE3
331
3E9
  5
492
331
1726
  5
1727
331
1002
  5
1009
331
BE4
  5
C1A
331
CC3
  5
FFD
331
1348
  5
134A
331
1928
  5
1929
331
DC3
  5
FFE
331
1279
  5
31B
331
33A
  5
348
331
2FB
  5
2FD
331
100A
  5
1011
331
342
  5
35C
331
303
  5
307
331
1012
  5
101B
331
352
  5
35D
331
30B
  5
30D
331
8DD
  5
BDC
331
1291
  5
1344
331
C1C
  5
C2B
331
35A
  5
377
331
16A7
  5
1726
331
C24
  5
CB8
331
177E
  5
177F
331
362
  5
427
331
31B
  5
336
331
C2C
  5
CBE
331
459
  5
50A
331
A5
  5
2D8
331
FFB
  5
1002
331
BDD
  5
BE4
331
1727
  5
1728
331
1003
  5
100A
331
BE5
  5
C1C
331
2F4
  5
2F8
331
1349
  5
1355
331
1929
  5
192A
331
1668
  5
16A7
331
17B6
  5
17B7
331
33B
  5
352
331
2FC
  5
2FE
331
100B
  5
1012
331
41A
  5
4E5
331
1013
  5
101D
331
C15
  5
C24
331
353
  5
360
331
30C
  5
317
331
EFC
  5
1000
331
C1D
  5
C2C
331
1183
  5
12FE
331
F0C
  5
1001
331
177F
  5
1780
331
363
  5
459
331
C2D
  5
CBF
331
BD6
  5
BDF
331
2DD
  5
2F1
331
324
  5
337
331
FFC
  5
1003
331
CBD
  5
DC3
331
BDE
  5
BE5
331
1922
  5
1923
331
1728
  5
1729
331
1004
  5
100B
331
BE6
  5
C1D
331
134A
  5
1356
331
192A
  5
192B
331
17B7
  5
17B8
331
33C
  5
353
331
2FD
  5
2FF
331
100C
  5
1013
331
EB5
  5
FFF
331
8A7
  5
BD9
331
1014
  5
101E
331
354
  5
361
331
30D
  5
31A
331
C1E
  5
C2D
331
35C
  5
3E9
331
C26
  5
CB9
331
492
  5
556
331
C2E
  5
CC0
331
BD7
  5
BE0
331
1780
  5
1781
  0
SORTENTSTABLE
  5
17D3
102
{ACAD_REACTORS
330
17D2
102
}
330
17D2
100
AcDbSortentsTable
330
17D0
  0
XRECORD
  5
1957
102
{ACAD_REACTORS
330
1956
102
}
330
1956
100
AcDbXrecord
280
     1
102
SHADEPLOT
 70
     0
  0
XRECORD
  5
1959
102
{ACAD_REACTORS
330
1958
102
}
330
1958
100
AcDbXrecord
280
     1
102
SHADEPLOT
 70
     0
  0
LAYOUT
  5
22
102
{ACAD_XDICTIONARY
360
1952
102
}
102
{ACAD_REACTORS
330
1A
102
}
330
1A
100
AcDbPlotSettings
  1

  2
EPSON PX-V700
  4
A4
  6

 40
3.757083177566528
 41
14.7637300491333
 42
3.757080078125
 43
3.757080078125
 44
209.9733276367187
 45
296.9683227539062
 46
0.0
 47
0.0
 48
0.0
 49
0.0
140
0.0
141
0.0
142
1.0
143
10.0
 70
 11952
 72
     1
 73
     1
 74
     2
  7

 75
    20
147
0.1
148
0.0
149
0.0
100
AcDbLayout
  1
Model
 70
     1
 71
     0
 10
0.0
 20
0.0
 11
12.0
 21
9.0
 12
0.0
 22
0.0
 32
0.0
 14
0.0
 24
0.0
 34
0.0
 15
0.0
 25
0.0
 35
0.0
146
0.0
 13
0.0
 23
0.0
 33
0.0
 16
1.0
 26
0.0
 36
0.0
 17
0.0
 27
1.0
 37
0.0
 76
     0
330
1F
1001
ACAD_PSEXT
1000
EPSON PX-V700
1000
EPSON PX-V700
1000
USB001
1000

1070
     0
  0
LAYOUT
  5
1E
102
{ACAD_XDICTIONARY
360
1950
102
}
102
{ACAD_REACTORS
330
1A
102
}
330
1A
100
AcDbPlotSettings
  1

  2
EPSON PM-800C
  4
A4
  6

 40
3.757083177566528
 41
14.7637300491333
 42
3.757080078125
 43
3.757080078125
 44
209.9733276367187
 45
296.9683227539062
 46
0.0
 47
0.0
 48
0.0
 49
0.0
140
0.0
141
0.0
142
1.0
143
1.0
 70
   688
 72
     1
 73
     1
 74
     5
  7

 75
    16
147
1.0
148
0.0
149
0.0
100
AcDbLayout
  1
ﾚｲｱｳﾄ1
 70
     1
 71
     1
 10
-3.757080078125
 20
-3.757083177566528
 11
293.2112426757813
 21
206.2162444591522
 12
0.0
 22
0.0
 32
0.0
 14
27.8447512626648
 24
20.24591643810271
 34
0.0
 15
250.6027613639831
 25
182.2132479429245
 35
0.0
146
0.0
 13
0.0
 23
0.0
 33
0.0
 16
1.0
 26
0.0
 36
0.0
 17
0.0
 27
1.0
 37
0.0
 76
     0
330
1B
331
2E
  0
LAYOUT
  5
26
102
{ACAD_XDICTIONARY
360
1954
102
}
102
{ACAD_REACTORS
330
1A
102
}
330
1A
100
AcDbPlotSettings
  1

  2
EPSON PM-800C
  4

  6

 40
0.0
 41
0.0
 42
0.0
 43
0.0
 44
0.0
 45
0.0
 46
0.0
 47
0.0
 48
0.0
 49
0.0
140
0.0
141
0.0
142
1.0
143
1.0
 70
   688
 72
     0
 73
     0
 74
     5
  7

 75
    16
147
1.0
148
0.0
149
0.0
100
AcDbLayout
  1
ﾚｲｱｳﾄ2
 70
     1
 71
     2
 10
0.0
 20
0.0
 11
12.0
 21
9.0
 12
0.0
 22
0.0
 32
0.0
 14
0.0
 24
0.0
 34
0.0
 15
0.0
 25
0.0
 35
0.0
146
0.0
 13
0.0
 23
0.0
 33
0.0
 16
1.0
 26
0.0
 36
0.0
 17
0.0
 27
1.0
 37
0.0
 76
     0
330
23
  0
MLINESTYLE
  5
18
102
{ACAD_REACTORS
330
17
102
}
330
17
100
AcDbMlineStyle
  2
STANDARD
 70
     0
  3

 62
   256
 51
90.0
 52
90.0
 71
     2
 49
0.5
 62
   256
  6
BYLAYER
 49
-0.5
 62
   256
  6
BYLAYER
  0
ACDBPLACEHOLDER
  5
F
102
{ACAD_REACTORS
330
E
102
}
330
E
  0
TABLESTYLE
  5
1249
102
{ACAD_REACTORS
330
1248
102
}
330
1248
100
AcDbTableStyle
  3
Standard
 70
     0
 71
     0
 40
1.5
 41
1.5
280
     0
281
     0
  7
Standard
140
4.5
170
     2
 62
     0
 63
     7
283
     0
274
    -2
284
     1
 64
     0
275
    -2
285
     1
 65
     0
276
    -2
286
     1
 66
     0
277
    -2
287
     1
 67
     0
278
    -2
288
     1
 68
     0
279
    -2
289
     1
 69
     0
  7
Standard
140
6.0
170
     5
 62
     0
 63
     7
283
     0
274
    -2
284
     1
 64
     0
275
    -2
285
     1
 65
     0
276
    -2
286
     1
 66
     0
277
    -2
287
     1
 67
     0
278
    -2
288
     1
 68
     0
279
    -2
289
     1
 69
     0
  7
Standard
140
4.5
170
     5
 62
     0
 63
     7
283
     0
274
    -2
284
     1
 64
     0
275
    -2
285
     1
 65
     0
276
    -2
286
     1
 66
     0
277
    -2
287
     1
 67
     0
278
    -2
288
     1
 68
     0
279
    -2
289
     1
 69
     0
  0
DICTIONARYVAR
  5
124F
102
{ACAD_REACTORS
330
EFD
102
}
330
EFD
100
DictionaryVariables
280
     0
  1
STANDARD
  0
DICTIONARYVAR
  5
194C
102
{ACAD_REACTORS
330
EFD
102
}
330
EFD
100
DictionaryVariables
280
     0
  1
1
  0
DICTIONARYVAR
  5
194D
102
{ACAD_REACTORS
330
EFD
102
}
330
EFD
100
DictionaryVariables
280
     0
  1

  0
DICTIONARYVAR
  5
EFE
102
{ACAD_REACTORS
330
EFD
102
}
330
EFD
100
DictionaryVariables
280
     0
  1
96
  0
DICTIONARY
  5
1952
330
22
100
AcDbDictionary
280
     1
281
     1
  3
ACAD_XREC_ROUNDTRIP
360
1953
  0
DICTIONARY
  5
1950
330
1E
100
AcDbDictionary
280
     1
281
     1
  3
ACAD_XREC_ROUNDTRIP
360
1951
  0
DICTIONARY
  5
1954
330
26
100
AcDbDictionary
280
     1
281
     1
  3
ACAD_XREC_ROUNDTRIP
360
1955
  0
XRECORD
  5
1953
102
{ACAD_REACTORS
330
1952
102
}
330
1952
100
AcDbXrecord
280
     1
102
SHADEPLOT
 70
     0
102
SHADEPLOTRESLEVEL
 70
     2
102
SHADEPLOTCUSTOMDPI
 70
   300
  0
XRECORD
  5
1951
102
{ACAD_REACTORS
330
1950
102
}
330
1950
100
AcDbXrecord
280
     1
102
SHADEPLOT
 70
     0
102
SHADEPLOTRESLEVEL
 70
     2
102
SHADEPLOTCUSTOMDPI
 70
   300
  0
XRECORD
  5
1955
102
{ACAD_REACTORS
330
1954
102
}
330
1954
100
AcDbXrecord
280
     1
102
SHADEPLOT
 70
     0
102
SHADEPLOTRESLEVEL
 70
     2
102
SHADEPLOTCUSTOMDPI
 70
   300
  0
ENDSEC
  0
EOF
