  0
SECTION
  2
HEADER
  9
$ACADVER
  1
AC1015
  9
$ACADMAINTVER
 70
    20
  9
$DWGCODEPAGE
  3
ANSI_932
  9
$INSBASE
 10
0.0
 20
0.0
 30
0.0
  9
$EXTMIN
 10
111.0
 20
4.0
 30
0.0
  9
$EXTMAX
 10
2784.0
 20
2024.0
 30
0.0
  9
$LIMMIN
 10
0.0
 20
0.0
  9
$LIMMAX
 10
29700.0
 20
21000.0
  9
$ORTHOMODE
 70
     1
  9
$REGENMODE
 70
     1
  9
$FILLMODE
 70
     1
  9
$QTEXTMODE
 70
     0
  9
$MIRRTEXT
 70
     1
  9
$LTSCALE
 40
4.0
  9
$ATTMODE
 70
     1
  9
$TEXTSIZE
 40
35.0
  9
$TRACEWID
 40
1.0
  9
$TEXTSTYLE
  7
Standard
  9
$CLAYER
  8
実形
  9
$CELTYPE
  6
ByLayer
  9
$CECOLOR
 62
   256
  9
$CELTSCALE
 40
1.0
  9
$DISPSILH
 70
     0
  9
$DIMSCALE
 40
1.0
  9
$DIMASZ
 40
35.0
  9
$DIMEXO
 40
65.0
  9
$DIMDLI
 40
3.75
  9
$DIMRND
 40
0.0
  9
$DIMDLE
 40
0.0
  9
$DIMEXE
 40
0.0
  9
$DIMTP
 40
0.0
  9
$DIMTM
 40
0.0
  9
$DIMTXT
 40
25.0
  9
$DIMCEN
 40
2.5
  9
$DIMTSZ
 40
0.0
  9
$DIMTOL
 70
     0
  9
$DIMLIM
 70
     0
  9
$DIMTIH
 70
     0
  9
$DIMTOH
 70
     0
  9
$DIMSE1
 70
     0
  9
$DIMSE2
 70
     0
  9
$DIMTAD
 70
     1
  9
$DIMZIN
 70
     8
  9
$DIMBLK
  1
DotSmall
  9
$DIMASO
 70
     1
  9
$DIMSHO
 70
     1
  9
$DIMPOST
  1

  9
$DIMAPOST
  1

  9
$DIMALT
 70
     0
  9
$DIMALTD
 70
     3
  9
$DIMALTF
 40
0.03937007874016
  9
$DIMLFAC
 40
1.0
  9
$DIMTOFL
 70
     1
  9
$DIMTVP
 40
0.0
  9
$DIMTIX
 70
     0
  9
$DIMSOXD
 70
     0
  9
$DIMSAH
 70
     0
  9
$DIMBLK1
  1

  9
$DIMBLK2
  1

  9
$DIMSTYLE
  2
ISO-25
  9
$DIMCLRD
 70
     0
  9
$DIMCLRE
 70
     0
  9
$DIMCLRT
 70
     0
  9
$DIMTFAC
 40
1.0
  9
$DIMGAP
 40
6.25
  9
$DIMJUST
 70
     0
  9
$DIMSD1
 70
     0
  9
$DIMSD2
 70
     0
  9
$DIMTOLJ
 70
     0
  9
$DIMTZIN
 70
     8
  9
$DIMALTZ
 70
     0
  9
$DIMALTTZ
 70
     0
  9
$DIMUPT
 70
     0
  9
$DIMDEC
 70
     2
  9
$DIMTDEC
 70
     2
  9
$DIMALTU
 70
     2
  9
$DIMALTTD
 70
     3
  9
$DIMTXSTY
  7
Standard
  9
$DIMAUNIT
 70
     0
  9
$DIMADEC
 70
     0
  9
$DIMALTRND
 40
0.0
  9
$DIMAZIN
 70
     0
  9
$DIMDSEP
 70
    46
  9
$DIMATFIT
 70
     2
  9
$DIMFRAC
 70
     0
  9
$DIMLDRBLK
  1
Open30
  9
$DIMLUNIT
 70
     2
  9
$DIMLWD
 70
    15
  9
$DIMLWE
 70
    15
  9
$DIMTMOVE
 70
     2
  9
$LUNITS
 70
     2
  9
$LUPREC
 70
     2
  9
$SKETCHINC
 40
1.0
  9
$FILLETRAD
 40
3.0
  9
$AUNITS
 70
     0
  9
$AUPREC
 70
     0
  9
$MENU
  1
.
  9
$ELEVATION
 40
0.0
  9
$PELEVATION
 40
0.0
  9
$THICKNESS
 40
0.0
  9
$LIMCHECK
 70
     1
  9
$CHAMFERA
 40
10.0
  9
$CHAMFERB
 40
10.0
  9
$CHAMFERC
 40
20.0
  9
$CHAMFERD
 40
0.0
  9
$SKPOLY
 70
     0
  9
$TDCREATE
 40
2451673.575802199
  9
$TDUCREATE
 40
2451673.200802199
  9
$TDUPDATE
 40
2458807.460831250
  9
$TDUUPDATE
 40
2458807.085831250
  9
$TDINDWG
 40
0.8466701505
  9
$TDUSRTIMER
 40
0.8466694560
  9
$USRTIMER
 70
     1
  9
$ANGBASE
 50
0.0
  9
$ANGDIR
 70
     0
  9
$PDMODE
 70
     0
  9
$PDSIZE
 40
0.0
  9
$PLINEWID
 40
0.0
  9
$SPLFRAME
 70
     0
  9
$SPLINETYPE
 70
     6
  9
$SPLINESEGS
 70
     8
  9
$HANDSEED
  5
1A1E
  9
$SURFTAB1
 70
     6
  9
$SURFTAB2
 70
     6
  9
$SURFTYPE
 70
     6
  9
$SURFU
 70
     6
  9
$SURFV
 70
     6
  9
$UCSBASE
  2

  9
$UCSNAME
  2

  9
$UCSORG
 10
0.0
 20
0.0
 30
0.0
  9
$UCSXDIR
 10
1.0
 20
0.0
 30
0.0
  9
$UCSYDIR
 10
0.0
 20
1.0
 30
0.0
  9
$UCSORTHOREF
  2

  9
$UCSORTHOVIEW
 70
     0
  9
$UCSORGTOP
 10
0.0
 20
0.0
 30
0.0
  9
$UCSORGBOTTOM
 10
0.0
 20
0.0
 30
0.0
  9
$UCSORGLEFT
 10
0.0
 20
0.0
 30
0.0
  9
$UCSORGRIGHT
 10
0.0
 20
0.0
 30
0.0
  9
$UCSORGFRONT
 10
0.0
 20
0.0
 30
0.0
  9
$UCSORGBACK
 10
0.0
 20
0.0
 30
0.0
  9
$PUCSBASE
  2

  9
$PUCSNAME
  2

  9
$PUCSORG
 10
0.0
 20
0.0
 30
0.0
  9
$PUCSXDIR
 10
1.0
 20
0.0
 30
0.0
  9
$PUCSYDIR
 10
0.0
 20
1.0
 30
0.0
  9
$PUCSORTHOREF
  2

  9
$PUCSORTHOVIEW
 70
     0
  9
$PUCSORGTOP
 10
0.0
 20
0.0
 30
0.0
  9
$PUCSORGBOTTOM
 10
0.0
 20
0.0
 30
0.0
  9
$PUCSORGLEFT
 10
0.0
 20
0.0
 30
0.0
  9
$PUCSORGRIGHT
 10
0.0
 20
0.0
 30
0.0
  9
$PUCSORGFRONT
 10
0.0
 20
0.0
 30
0.0
  9
$PUCSORGBACK
 10
0.0
 20
0.0
 30
0.0
  9
$USERI1
 70
     0
  9
$USERI2
 70
     0
  9
$USERI3
 70
     0
  9
$USERI4
 70
     0
  9
$USERI5
 70
     0
  9
$USERR1
 40
0.0
  9
$USERR2
 40
0.0
  9
$USERR3
 40
0.0
  9
$USERR4
 40
0.0
  9
$USERR5
 40
0.0
  9
$WORLDVIEW
 70
     1
  9
$SHADEDGE
 70
     3
  9
$SHADEDIF
 70
    70
  9
$TILEMODE
 70
     1
  9
$MAXACTVP
 70
    64
  9
$PINSBASE
 10
0.0
 20
0.0
 30
0.0
  9
$PLIMCHECK
 70
     0
  9
$PEXTMIN
 10
27.8447512626648
 20
20.24591643810271
 30
0.0
  9
$PEXTMAX
 10
250.6027613639831
 20
182.2132479429245
 30
0.0
  9
$PLIMMIN
 10
-3.757080078125
 20
-3.757083177566528
  9
$PLIMMAX
 10
293.2112426757813
 20
206.2162444591522
  9
$UNITMODE
 70
     0
  9
$VISRETAIN
 70
     1
  9
$PLINEGEN
 70
     0
  9
$PSLTSCALE
 70
     1
  9
$TREEDEPTH
 70
  3020
  9
$CMLSTYLE
  2
Standard
  9
$CMLJUST
 70
     0
  9
$CMLSCALE
 40
20.0
  9
$PROXYGRAPHICS
 70
     1
  9
$MEASUREMENT
 70
     1
  9
$CELWEIGHT
370
    -1
  9
$ENDCAPS
280
     0
  9
$JOINSTYLE
280
     0
  9
$LWDISPLAY
290
     0
  9
$INSUNITS
 70
     4
  9
$HYPERLINKBASE
  1

  9
$STYLESHEET
  1

  9
$XEDIT
290
     1
  9
$CEPSNTYPE
380
     0
  9
$PSTYLEMODE
290
     1
  9
$FINGERPRINTGUID
  2
{C8EA1F16-24C9-11D4-9416-CE0A3B32152F}
  9
$VERSIONGUID
  2
{D905F21E-6A36-46AA-B6D1-1B9294899CF9}
  9
$EXTNAMES
290
     1
  9
$PSVPSCALE
 40
0.0
  9
$OLESTARTUP
290
     0
  0
ENDSEC
  0
SECTION
  2
CLASSES
  0
CLASS
  1
ACDBDICTIONARYWDFLT
  2
AcDbDictionaryWithDefault
  3
ObjectDBX Classes
 90
        0
280
     0
281
     0
  0
CLASS
  1
ACDBPLACEHOLDER
  2
AcDbPlaceHolder
  3
ObjectDBX Classes
 90
        0
280
     0
281
     0
  0
CLASS
  1
LAYOUT
  2
AcDbLayout
  3
ObjectDBX Classes
 90
        0
280
     0
281
     0
  0
CLASS
  1
DICTIONARYVAR
  2
AcDbDictionaryVar
  3
ObjectDBX Classes
 90
        0
280
     0
281
     0
  0
CLASS
  1
TABLESTYLE
  2
AcDbTableStyle
  3
ObjectDBX Classes
 90
     2047
280
     0
281
     0
  0
CLASS
  1
SORTENTSTABLE
  2
AcDbSortentsTable
  3
ObjectDBX Classes
 90
        0
280
     0
281
     0
  0
ENDSEC
  0
SECTION
  2
TABLES
  0
TABLE
  2
VPORT
  5
8
330
0
100
AcDbSymbolTable
 70
     2
  0
VPORT
  5
1A12
330
8
100
AcDbSymbolTableRecord
100
AcDbViewportTableRecord
  2
*Active
 70
     0
 10
0.0
 20
0.0
 11
1.0
 21
1.0
 12
1335.579711894909
 22
1127.555690890651
 13
0.0
 23
0.0
 14
10.0
 24
10.0
 15
10.0
 25
10.0
 16
0.0
 26
0.0
 36
1.0
 17
0.0
 27
0.0
 37
0.0
 40
2406.871867374436
 41
1.29038112522686
 42
50.0
 43
0.0
 44
0.0
 50
0.0
 51
0.0
 71
     0
 72
   100
 73
     1
 74
     3
 75
     0
 76
     0
 77
     0
 78
     0
281
     0
 65
     1
110
0.0
120
0.0
130
0.0
111
1.0
121
0.0
131
0.0
112
0.0
122
1.0
132
0.0
 79
     0
146
0.0
  0
ENDTAB
  0
TABLE
  2
LTYPE
  5
5
330
0
100
AcDbSymbolTable
 70
    46
  0
LTYPE
  5
14
330
5
100
AcDbSymbolTableRecord
100
AcDbLinetypeTableRecord
  2
ByBlock
 70
     0
  3

 72
    65
 73
     0
 40
0.0
  0
LTYPE
  5
15
330
5
100
AcDbSymbolTableRecord
100
AcDbLinetypeTableRecord
  2
ByLayer
 70
     0
  3

 72
    65
 73
     0
 40
0.0
  0
LTYPE
  5
16
330
5
100
AcDbSymbolTableRecord
100
AcDbLinetypeTableRecord
  2
Continuous
 70
     0
  3
Solid line
 72
    65
 73
     0
 40
0.0
  0
LTYPE
  5
34
330
5
100
AcDbSymbolTableRecord
100
AcDbLinetypeTableRecord
  2
ACAD_ISO02W100
 70
     0
  3
ISO dash __ __ __ __ __ __ __ __ __ __ __ __ __
 72
    65
 73
     2
 40
15.0
 49
12.0
 74
     0
 49
-3.0
 74
     0
  0
LTYPE
  5
35
330
5
100
AcDbSymbolTableRecord
100
AcDbLinetypeTableRecord
  2
ACAD_ISO03W100
 70
     0
  3
ISO dash space __    __    __    __    __    __
 72
    65
 73
     2
 40
30.0
 49
12.0
 74
     0
 49
-18.0
 74
     0
  0
LTYPE
  5
36
330
5
100
AcDbSymbolTableRecord
100
AcDbLinetypeTableRecord
  2
ACAD_ISO04W100
 70
     0
  3
ISO long-dash dot ____ . ____ . ____ . ____ . _
 72
    65
 73
     4
 40
30.0
 49
24.0
 74
     0
 49
-3.0
 74
     0
 49
0.0
 74
     0
 49
-3.0
 74
     0
  0
LTYPE
  5
37
330
5
100
AcDbSymbolTableRecord
100
AcDbLinetypeTableRecord
  2
ACAD_ISO05W100
 70
     0
  3
ISO long-dash double-dot ____ .. ____ .. ____ .
 72
    65
 73
     6
 40
34.0
 49
24.0
 74
     0
 49
-3.0
 74
     0
 49
0.5
 74
     0
 49
-3.0
 74
     0
 49
0.5
 74
     0
 49
-3.0
 74
     0
  0
LTYPE
  5
38
330
5
100
AcDbSymbolTableRecord
100
AcDbLinetypeTableRecord
  2
ACAD_ISO06W100
 70
     0
  3
ISO long-dash triple-dot ____ ... ____ ... ____
 72
    65
 73
     8
 40
37.5
 49
24.0
 74
     0
 49
-3.0
 74
     0
 49
0.5
 74
     0
 49
-3.0
 74
     0
 49
0.5
 74
     0
 49
-3.0
 74
     0
 49
0.5
 74
     0
 49
-3.0
 74
     0
  0
LTYPE
  5
39
330
5
100
AcDbSymbolTableRecord
100
AcDbLinetypeTableRecord
  2
ACAD_ISO07W100
 70
     0
  3
ISO dot . . . . . . . . . . . . . . . . . . . .
 72
    65
 73
     2
 40
3.0
 49
0.0
 74
     0
 49
-3.0
 74
     0
  0
LTYPE
  5
3A
330
5
100
AcDbSymbolTableRecord
100
AcDbLinetypeTableRecord
  2
ACAD_ISO08W100
 70
     0
  3
ISO long-dash short-dash ____ __ ____ __ ____ _
 72
    65
 73
     4
 40
36.0
 49
24.0
 74
     0
 49
-3.0
 74
     0
 49
6.0
 74
     0
 49
-3.0
 74
     0
  0
LTYPE
  5
3B
330
5
100
AcDbSymbolTableRecord
100
AcDbLinetypeTableRecord
  2
ACAD_ISO09W100
 70
     0
  3
ISO long-dash double-short-dash ____ __ __ ____
 72
    65
 73
     6
 40
45.0
 49
24.0
 74
     0
 49
-3.0
 74
     0
 49
6.0
 74
     0
 49
-3.0
 74
     0
 49
6.0
 74
     0
 49
-3.0
 74
     0
  0
LTYPE
  5
3C
330
5
100
AcDbSymbolTableRecord
100
AcDbLinetypeTableRecord
  2
ACAD_ISO10W100
 70
     0
  3
ISO dash dot __ . __ . __ . __ . __ . __ . __ .
 72
    65
 73
     4
 40
18.0
 49
12.0
 74
     0
 49
-3.0
 74
     0
 49
0.0
 74
     0
 49
-3.0
 74
     0
  0
LTYPE
  5
3D
330
5
100
AcDbSymbolTableRecord
100
AcDbLinetypeTableRecord
  2
ACAD_ISO11W100
 70
     0
  3
ISO double-dash dot __ __ . __ __ . __ __ . __ 
 72
    65
 73
     6
 40
33.0
 49
12.0
 74
     0
 49
-3.0
 74
     0
 49
12.0
 74
     0
 49
-3.0
 74
     0
 49
0.0
 74
     0
 49
-3.0
 74
     0
  0
LTYPE
  5
3E
330
5
100
AcDbSymbolTableRecord
100
AcDbLinetypeTableRecord
  2
ACAD_ISO12W100
 70
     0
  3
ISO dash double-dot __ . . __ . . __ . . __ . .
 72
    65
 73
     6
 40
21.0
 49
12.0
 74
     0
 49
-3.0
 74
     0
 49
0.0
 74
     0
 49
-3.0
 74
     0
 49
0.0
 74
     0
 49
-3.0
 74
     0
  0
LTYPE
  5
3F
330
5
100
AcDbSymbolTableRecord
100
AcDbLinetypeTableRecord
  2
ACAD_ISO13W100
 70
     0
  3
ISO double-dash double-dot __ __ . . __ __ . . 
 72
    65
 73
     8
 40
36.0
 49
12.0
 74
     0
 49
-3.0
 74
     0
 49
12.0
 74
     0
 49
-3.0
 74
     0
 49
0.0
 74
     0
 49
-3.0
 74
     0
 49
0.0
 74
     0
 49
-3.0
 74
     0
  0
LTYPE
  5
40
330
5
100
AcDbSymbolTableRecord
100
AcDbLinetypeTableRecord
  2
ACAD_ISO14W100
 70
     0
  3
ISO dash triple-dot __ . . . __ . . . __ . . . 
 72
    65
 73
     8
 40
24.0
 49
12.0
 74
     0
 49
-3.0
 74
     0
 49
0.0
 74
     0
 49
-3.0
 74
     0
 49
0.0
 74
     0
 49
-3.0
 74
     0
 49
0.0
 74
     0
 49
-3.0
 74
     0
  0
LTYPE
  5
41
330
5
100
AcDbSymbolTableRecord
100
AcDbLinetypeTableRecord
  2
ACAD_ISO15W100
 70
     0
  3
ISO double-dash triple-dot __ __ . . . __ __ . 
 72
    65
 73
    10
 40
39.0
 49
12.0
 74
     0
 49
-3.0
 74
     0
 49
12.0
 74
     0
 49
-3.0
 74
     0
 49
0.0
 74
     0
 49
-3.0
 74
     0
 49
0.0
 74
     0
 49
-3.0
 74
     0
 49
0.0
 74
     0
 49
-3.0
 74
     0
  0
LTYPE
  5
42
330
5
100
AcDbSymbolTableRecord
100
AcDbLinetypeTableRecord
  2
BATTING
 70
     0
  3
Batting SSSSSSSSSSSSSSSSSSSSSSSSSSSSSSSSSSSSSSS
 72
    65
 73
     4
 40
10.16254
 49
0.00254
 74
     0
 49
-2.54
 74
     4
 75
   134
340
33
 46
2.54
 50
0.0
 44
-2.54
 45
0.0
 49
-5.08
 74
     4
 75
   134
340
33
 46
2.54
 50
180.0
 44
2.54
 45
0.0
 49
-2.54
 74
     0
  0
LTYPE
  5
43
330
5
100
AcDbSymbolTableRecord
100
AcDbLinetypeTableRecord
  2
BORDER
 70
     0
  3
Border __ __ . __ __ . __ __ . __ __ . __ __ .
 72
    65
 73
     6
 40
44.45
 49
12.7
 74
     0
 49
-6.349999999999999
 74
     0
 49
12.7
 74
     0
 49
-6.349999999999999
 74
     0
 49
0.0
 74
     0
 49
-6.349999999999999
 74
     0
  0
LTYPE
  5
44
330
5
100
AcDbSymbolTableRecord
100
AcDbLinetypeTableRecord
  2
BORDER2
 70
     0
  3
Border (.5x) __.__.__.__.__.__.__.__.__.__.__.
 72
    65
 73
     6
 40
22.225
 49
6.349999999999999
 74
     0
 49
-3.174999999999999
 74
     0
 49
6.349999999999999
 74
     0
 49
-3.174999999999999
 74
     0
 49
0.0
 74
     0
 49
-3.174999999999999
 74
     0
  0
LTYPE
  5
45
330
5
100
AcDbSymbolTableRecord
100
AcDbLinetypeTableRecord
  2
BORDERX2
 70
     0
  3
Border (2x) ____  ____  .  ____  ____  .  ___
 72
    65
 73
     6
 40
88.9
 49
25.4
 74
     0
 49
-12.7
 74
     0
 49
25.4
 74
     0
 49
-12.7
 74
     0
 49
0.0
 74
     0
 49
-12.7
 74
     0
  0
LTYPE
  5
46
330
5
100
AcDbSymbolTableRecord
100
AcDbLinetypeTableRecord
  2
CENTER
 70
     0
  3
Center ____ _ ____ _ ____ _ ____ _ ____ _ ____
 72
    65
 73
     4
 40
50.8
 49
31.75
 74
     0
 49
-6.349999999999999
 74
     0
 49
6.349999999999999
 74
     0
 49
-6.349999999999999
 74
     0
  0
LTYPE
  5
47
330
5
100
AcDbSymbolTableRecord
100
AcDbLinetypeTableRecord
  2
CENTER2
 70
     0
  3
Center (.5x) ___ _ ___ _ ___ _ ___ _ ___ _ ___
 72
    65
 73
     4
 40
28.575
 49
19.05
 74
     0
 49
-3.174999999999999
 74
     0
 49
3.174999999999999
 74
     0
 49
-3.174999999999999
 74
     0
  0
LTYPE
  5
48
330
5
100
AcDbSymbolTableRecord
100
AcDbLinetypeTableRecord
  2
CENTERX2
 70
     0
  3
Center (2x) ________  __  ________  __  _____
 72
    65
 73
     4
 40
101.6
 49
63.5
 74
     0
 49
-12.7
 74
     0
 49
12.7
 74
     0
 49
-12.7
 74
     0
  0
LTYPE
  5
49
330
5
100
AcDbSymbolTableRecord
100
AcDbLinetypeTableRecord
  2
DASHDOT
 70
     0
  3
Dash dot __ . __ . __ . __ . __ . __ . __ . __
 72
    65
 73
     4
 40
25.4
 49
12.7
 74
     0
 49
-6.349999999999999
 74
     0
 49
0.0
 74
     0
 49
-6.349999999999999
 74
     0
  0
LTYPE
  5
4A
330
5
100
AcDbSymbolTableRecord
100
AcDbLinetypeTableRecord
  2
DASHDOT2
 70
     0
  3
Dash dot (.5x) _._._._._._._._._._._._._._._.
 72
    65
 73
     4
 40
12.7
 49
6.349999999999999
 74
     0
 49
-3.174999999999999
 74
     0
 49
0.0
 74
     0
 49
-3.174999999999999
 74
     0
  0
LTYPE
  5
4B
330
5
100
AcDbSymbolTableRecord
100
AcDbLinetypeTableRecord
  2
DASHDOTX2
 70
     0
  3
Dash dot (2x) ____  .  ____  .  ____  .  ___
 72
    65
 73
     4
 40
50.8
 49
25.4
 74
     0
 49
-12.7
 74
     0
 49
0.0
 74
     0
 49
-12.7
 74
     0
  0
LTYPE
  5
4C
330
5
100
AcDbSymbolTableRecord
100
AcDbLinetypeTableRecord
  2
DASHED
 70
     0
  3
Dashed __ __ __ __ __ __ __ __ __ __ __ __ __ _
 72
    65
 73
     2
 40
19.05
 49
12.7
 74
     0
 49
-6.349999999999999
 74
     0
  0
LTYPE
  5
4D
330
5
100
AcDbSymbolTableRecord
100
AcDbLinetypeTableRecord
  2
DASHED2
 70
     0
  3
Dashed (.5x) _ _ _ _ _ _ _ _ _ _ _ _ _ _ _ _ _
 72
    65
 73
     2
 40
9.524999999999998
 49
6.349999999999999
 74
     0
 49
-3.174999999999999
 74
     0
  0
LTYPE
  5
4E
330
5
100
AcDbSymbolTableRecord
100
AcDbLinetypeTableRecord
  2
DASHEDX2
 70
     0
  3
Dashed (2x) ____  ____  ____  ____  ____  ___
 72
    65
 73
     2
 40
38.1
 49
25.4
 74
     0
 49
-12.7
 74
     0
  0
LTYPE
  5
4F
330
5
100
AcDbSymbolTableRecord
100
AcDbLinetypeTableRecord
  2
DIVIDE
 70
     0
  3
Divide ____ . . ____ . . ____ . . ____ . . ____
 72
    65
 73
     6
 40
31.75
 49
12.7
 74
     0
 49
-6.349999999999999
 74
     0
 49
0.0
 74
     0
 49
-6.349999999999999
 74
     0
 49
0.0
 74
     0
 49
-6.349999999999999
 74
     0
  0
LTYPE
  5
50
330
5
100
AcDbSymbolTableRecord
100
AcDbLinetypeTableRecord
  2
DIVIDE2
 70
     0
  3
Divide (.5x) __..__..__..__..__..__..__..__.._
 72
    65
 73
     6
 40
15.875
 49
6.349999999999999
 74
     0
 49
-3.174999999999999
 74
     0
 49
0.0
 74
     0
 49
-3.174999999999999
 74
     0
 49
0.0
 74
     0
 49
-3.174999999999999
 74
     0
  0
LTYPE
  5
51
330
5
100
AcDbSymbolTableRecord
100
AcDbLinetypeTableRecord
  2
DIVIDEX2
 70
     0
  3
Divide (2x) ________  .  .  ________  .  .  _
 72
    65
 73
     6
 40
63.49999999999999
 49
25.4
 74
     0
 49
-12.7
 74
     0
 49
0.0
 74
     0
 49
-12.7
 74
     0
 49
0.0
 74
     0
 49
-12.7
 74
     0
  0
LTYPE
  5
52
330
5
100
AcDbSymbolTableRecord
100
AcDbLinetypeTableRecord
  2
DOT
 70
     0
  3
Dot . . . . . . . . . . . . . . . . . . . . . .
 72
    65
 73
     2
 40
6.349999999999999
 49
0.0
 74
     0
 49
-6.349999999999999
 74
     0
  0
LTYPE
  5
53
330
5
100
AcDbSymbolTableRecord
100
AcDbLinetypeTableRecord
  2
DOT2
 70
     0
  3
Dot (.5x) .....................................
 72
    65
 73
     2
 40
3.174999999999999
 49
0.0
 74
     0
 49
-3.174999999999999
 74
     0
  0
LTYPE
  5
54
330
5
100
AcDbSymbolTableRecord
100
AcDbLinetypeTableRecord
  2
DOTX2
 70
     0
  3
Dot (2x) .  .  .  .  .  .  .  .  .  .  .  .  . 
 72
    65
 73
     2
 40
12.7
 49
0.0
 74
     0
 49
-12.7
 74
     0
  0
LTYPE
  5
55
330
5
100
AcDbSymbolTableRecord
100
AcDbLinetypeTableRecord
  2
FENCELINE1
 70
     0
  3
Fenceline circle ----0-----0----0-----0----0---
 72
    65
 73
     4
 40
36.83
 49
6.349999999999999
 74
     0
 49
-2.54
 74
     4
 75
   133
340
33
 46
2.54
 50
0.0
 44
-2.54
 45
0.0
 49
-2.54
 74
     0
 49
25.4
 74
     0
  0
LTYPE
  5
56
330
5
100
AcDbSymbolTableRecord
100
AcDbLinetypeTableRecord
  2
FENCELINE2
 70
     0
  3
Fenceline square ----[]-----[]----[]-----[]----
 72
    65
 73
     4
 40
36.83
 49
6.349999999999999
 74
     0
 49
-2.54
 74
     4
 75
   132
340
33
 46
2.54
 50
0.0
 44
-2.54
 45
0.0
 49
-2.54
 74
     0
 49
25.4
 74
     0
  0
LTYPE
  5
57
330
5
100
AcDbSymbolTableRecord
100
AcDbLinetypeTableRecord
  2
GAS_LINE
 70
     0
  3
Gas line ----GAS----GAS----GAS----GAS----GAS---
 72
    65
 73
     3
 40
24.13
 49
12.7
 74
     0
 49
-5.08
 74
     2
 75
     0
340
11
 46
2.54
 50
0.0
 44
-2.54
 45
-1.27
  9
GAS
 49
-6.349999999999999
 74
     0
  0
LTYPE
  5
58
330
5
100
AcDbSymbolTableRecord
100
AcDbLinetypeTableRecord
  2
HIDDEN
 70
     0
  3
Hidden __ __ __ __ __ __ __ __ __ __ __ __ __ _
 72
    65
 73
     2
 40
9.524999999999998
 49
6.349999999999999
 74
     0
 49
-3.174999999999999
 74
     0
  0
LTYPE
  5
59
330
5
100
AcDbSymbolTableRecord
100
AcDbLinetypeTableRecord
  2
HIDDEN2
 70
     0
  3
Hidden (.5x) _ _ _ _ _ _ _ _ _ _ _ _ _ _ _ _ _
 72
    65
 73
     2
 40
4.762499999999999
 49
3.174999999999999
 74
     0
 49
-1.587499999999999
 74
     0
  0
LTYPE
  5
5A
330
5
100
AcDbSymbolTableRecord
100
AcDbLinetypeTableRecord
  2
HIDDENX2
 70
     0
  3
Hidden (2x) ____ ____ ____ ____ ____ ____ ____
 72
    65
 73
     2
 40
19.05
 49
12.7
 74
     0
 49
-6.349999999999999
 74
     0
  0
LTYPE
  5
5B
330
5
100
AcDbSymbolTableRecord
100
AcDbLinetypeTableRecord
  2
HOT_WATER_SUPPLY
 70
     0
  3
Hot water supply ---- HW ---- HW ---- HW ----
 72
    65
 73
     3
 40
22.86
 49
12.7
 74
     0
 49
-5.08
 74
     2
 75
     0
340
11
 46
2.54
 50
0.0
 44
-2.54
 45
-1.27
  9
HW
 49
-5.08
 74
     0
  0
LTYPE
  5
5C
330
5
100
AcDbSymbolTableRecord
100
AcDbLinetypeTableRecord
  2
PHANTOM
 70
     0
  3
Phantom ______  __  __  ______  __  __  ______
 72
    65
 73
     6
 40
63.5
 49
31.75
 74
     0
 49
-6.349999999999999
 74
     0
 49
6.349999999999999
 74
     0
 49
-6.349999999999999
 74
     0
 49
6.349999999999999
 74
     0
 49
-6.349999999999999
 74
     0
  0
LTYPE
  5
5D
330
5
100
AcDbSymbolTableRecord
100
AcDbLinetypeTableRecord
  2
PHANTOM2
 70
     0
  3
Phantom (.5x) ___ _ _ ___ _ _ ___ _ _ ___ _ _
 72
    65
 73
     6
 40
31.75
 49
15.875
 74
     0
 49
-3.174999999999999
 74
     0
 49
3.174999999999999
 74
     0
 49
-3.174999999999999
 74
     0
 49
3.174999999999999
 74
     0
 49
-3.174999999999999
 74
     0
  0
LTYPE
  5
5E
330
5
100
AcDbSymbolTableRecord
100
AcDbLinetypeTableRecord
  2
PHANTOMX2
 70
     0
  3
Phantom (2x) ____________    ____    ____   _
 72
    65
 73
     6
 40
127.0
 49
63.5
 74
     0
 49
-12.7
 74
     0
 49
12.7
 74
     0
 49
-12.7
 74
     0
 49
12.7
 74
     0
 49
-12.7
 74
     0
  0
LTYPE
  5
5F
330
5
100
AcDbSymbolTableRecord
100
AcDbLinetypeTableRecord
  2
TRACKS
 70
     0
  3
Tracks -|-|-|-|-|-|-|-|-|-|-|-|-|-|-|-|-|-|-|-|
 72
    65
 73
     2
 40
7.62
 49
3.81
 74
     4
 75
   130
340
33
 46
6.349999999999999
 50
0.0
 44
0.0
 45
0.0
 49
3.81
 74
     0
  0
LTYPE
  5
60
330
5
100
AcDbSymbolTableRecord
100
AcDbLinetypeTableRecord
  2
ZIGZAG
 70
     0
  3
Zig zag /\/\/\/\/\/\/\/\/\/\/\/\/\/\/\/\/\/\/\/
 72
    65
 73
     4
 40
20.32254
 49
0.00254
 74
     0
 49
-5.08
 74
     4
 75
   131
340
33
 46
5.08
 50
0.0
 44
-5.08
 45
0.0
 49
-10.16
 74
     4
 75
   131
340
33
 46
5.08
 50
180.0
 44
5.08
 45
0.0
 49
-5.08
 74
     0
  0
ENDTAB
  0
TABLE
  2
LAYER
  5
2
102
{ACAD_XDICTIONARY
360
1738
102
}
330
0
100
AcDbSymbolTable
 70
     9
  0
LAYER
  5
10
330
2
100
AcDbSymbolTableRecord
100
AcDbLayerTableRecord
  2
0
 70
     0
 62
     7
  6
Continuous
370
    -3
390
F
  0
LAYER
  5
C3
330
2
100
AcDbSymbolTableRecord
100
AcDbLayerTableRecord
  2
Defpoints
 70
     0
 62
     7
  6
Continuous
290
     0
370
    -3
390
F
  0
LAYER
  5
256
330
2
100
AcDbSymbolTableRecord
100
AcDbLayerTableRecord
  2
センター
 70
     0
 62
     7
  6
CENTER2
370
    15
390
F
  0
LAYER
  5
268
330
2
100
AcDbSymbolTableRecord
100
AcDbLayerTableRecord
  2
実形
 70
     0
 62
     7
  6
Continuous
370
    -3
390
F
  0
LAYER
  5
269
330
2
100
AcDbSymbolTableRecord
100
AcDbLayerTableRecord
  2
補助
 70
     0
 62
     7
  6
Continuous
370
    -3
390
F
  0
LAYER
  5
26A
330
2
100
AcDbSymbolTableRecord
100
AcDbLayerTableRecord
  2
寸法
 70
     0
 62
     7
  6
Continuous
370
    -3
390
F
  0
LAYER
  5
26B
330
2
100
AcDbSymbolTableRecord
100
AcDbLayerTableRecord
  2
ハッチング
 70
     0
 62
     7
  6
Continuous
370
    18
390
F
  0
LAYER
  5
26D
330
2
100
AcDbSymbolTableRecord
100
AcDbLayerTableRecord
  2
文字
 70
     0
 62
     7
  6
Continuous
370
    -3
390
F
  0
LAYER
  5
FCC
330
2
100
AcDbSymbolTableRecord
100
AcDbLayerTableRecord
  2
Cen
 70
     0
 62
     7
  6
CENTER2
370
    15
390
F
  0
ENDTAB
  0
TABLE
  2
STYLE
  5
3
330
0
100
AcDbSymbolTable
 70
     4
  0
STYLE
  5
11
330
3
100
AcDbSymbolTableRecord
100
AcDbTextStyleTableRecord
  2
Standard
 70
     0
 40
0.0
 41
1.0
 50
0.0
 71
     0
 42
35.0
  3
txt.shx
  4
bigfont.shx
  0
STYLE
  5
33
330
3
100
AcDbSymbolTableRecord
100
AcDbTextStyleTableRecord
  2

 70
     1
 40
0.0
 41
1.0
 50
0.0
 71
     0
 42
2.5
  3
ltypeshp.shx
  4

  0
STYLE
  5
172F
330
3
100
AcDbSymbolTableRecord
100
AcDbTextStyleTableRecord
  2
ms明朝
 70
     0
 40
0.0
 41
1.0
 50
0.0
 71
     0
 42
35.0
  3
MS Mincho.ttf
  4

1001
ACAD
1000
MS Mincho
1071
    32785
  0
STYLE
  5
19D1
330
3
100
AcDbSymbolTableRecord
100
AcDbTextStyleTableRecord
  2
明朝
 70
     0
 40
0.0
 41
1.0
 50
0.0
 71
     0
 42
25.0
  3
MS Mincho.ttf
  4

1001
ACAD
1000
MS Mincho
1071
    32785
  0
ENDTAB
  0
TABLE
  2
VIEW
  5
6
330
0
100
AcDbSymbolTable
 70
     0
  0
ENDTAB
  0
TABLE
  2
UCS
  5
7
330
0
100
AcDbSymbolTable
 70
     0
  0
ENDTAB
  0
TABLE
  2
APPID
  5
9
330
0
100
AcDbSymbolTable
 70
     1
  0
APPID
  5
12
330
9
100
AcDbSymbolTableRecord
100
AcDbRegAppTableRecord
  2
ACAD
 70
     0
  0
ENDTAB
  0
TABLE
  2
DIMSTYLE
  5
A
330
0
100
AcDbSymbolTable
 70
     1
100
AcDbDimStyleTable
 71
     1
340
27
  0
DIMSTYLE
105
27
102
{ACAD_REACTORS
330
63C
330
66C
330
6AA
330
6EA
330
77B
330
EB5
330
50A
330
3F6
330
4E5
330
4FD
330
522
330
3E9
330
40C
330
41A
330
427
330
459
330
466
330
47C
330
492
330
4C3
330
8A7
330
8DB
330
914
330
C15
330
C18
330
C1A
330
C20
330
C24
330
C26
330
C29
330
CB8
330
CB9
330
CBA
330
CBD
330
CBE
330
16D6
330
177D
330
177E
330
17E6
330
17E7
102
}
330
A
100
AcDbSymbolTableRecord
100
AcDbDimStyleTableRecord
  2
ISO-25
 70
     0
 41
35.0
 42
65.0
 43
3.75
 44
0.0
 73
     0
 74
     0
 77
     1
 78
     8
140
25.0
141
2.5
143
0.03937007874016
147
6.25
171
     3
172
     1
271
     2
272
     2
274
     3
279
     2
283
     0
284
     8
289
     2
340
11
341
DA
342
D0
371
    15
372
    15
  0
ENDTAB
  0
TABLE
  2
BLOCK_RECORD
  5
1
330
0
100
AcDbSymbolTable
 70
    32
  0
BLOCK_RECORD
  5
1F
102
{ACAD_XDICTIONARY
360
19EF
102
}
330
1
100
AcDbSymbolTableRecord
100
AcDbBlockTableRecord
  2
*Model_Space
340
22
  0
BLOCK_RECORD
  5
1B
330
1
100
AcDbSymbolTableRecord
100
AcDbBlockTableRecord
  2
*Paper_Space
340
1E
  0
BLOCK_RECORD
  5
23
330
1
100
AcDbSymbolTableRecord
100
AcDbBlockTableRecord
  2
*Paper_Space0
340
26
  0
BLOCK_RECORD
  5
D0
330
1
100
AcDbSymbolTableRecord
100
AcDbBlockTableRecord
  2
_DotSmall
340
0
102
{BLKREFS
331
182C
331
182D
331
1835
331
1836
331
183F
331
1840
331
1847
331
1848
331
1850
331
1851
331
185A
331
185B
331
1862
331
1863
331
186B
331
186C
331
1875
331
1876
331
187D
331
187E
331
1887
331
1888
331
1890
331
1891
331
1899
331
189A
331
18A1
331
18A2
331
18AA
331
18AB
331
18B3
331
18B4
331
18BC
331
18BD
331
18D0
331
18D1
331
18DA
331
18DB
331
18E3
331
18E4
331
18EC
331
18ED
331
18F5
331
18F6
331
191B
331
191C
331
1945
331
1946
331
1950
331
1951
102
}
  0
BLOCK_RECORD
  5
D4
330
1
100
AcDbSymbolTableRecord
100
AcDbBlockTableRecord
  2
_Origin2
340
0
  0
BLOCK_RECORD
  5
DA
330
1
100
AcDbSymbolTableRecord
100
AcDbBlockTableRecord
  2
_Open30
340
0
  0
BLOCK_RECORD
  5
3EA
330
1
100
AcDbSymbolTableRecord
100
AcDbBlockTableRecord
  2
*D4
340
0
  0
BLOCK_RECORD
  5
3F7
330
1
100
AcDbSymbolTableRecord
100
AcDbBlockTableRecord
  2
*D5
340
0
  0
BLOCK_RECORD
  5
40D
330
1
100
AcDbSymbolTableRecord
100
AcDbBlockTableRecord
  2
*D6
340
0
  0
BLOCK_RECORD
  5
41B
330
1
100
AcDbSymbolTableRecord
100
AcDbBlockTableRecord
  2
*D7
340
0
  0
BLOCK_RECORD
  5
428
330
1
100
AcDbSymbolTableRecord
100
AcDbBlockTableRecord
  2
*D8
340
0
  0
BLOCK_RECORD
  5
45A
330
1
100
AcDbSymbolTableRecord
100
AcDbBlockTableRecord
  2
*D9
340
0
  0
BLOCK_RECORD
  5
467
330
1
100
AcDbSymbolTableRecord
100
AcDbBlockTableRecord
  2
*D10
340
0
  0
BLOCK_RECORD
  5
47D
330
1
100
AcDbSymbolTableRecord
100
AcDbBlockTableRecord
  2
*D11
340
0
  0
BLOCK_RECORD
  5
493
330
1
100
AcDbSymbolTableRecord
100
AcDbBlockTableRecord
  2
*D12
340
0
  0
BLOCK_RECORD
  5
4C4
330
1
100
AcDbSymbolTableRecord
100
AcDbBlockTableRecord
  2
*D13
340
0
  0
BLOCK_RECORD
  5
4E6
330
1
100
AcDbSymbolTableRecord
100
AcDbBlockTableRecord
  2
*D14
340
0
  0
BLOCK_RECORD
  5
4FE
330
1
100
AcDbSymbolTableRecord
100
AcDbBlockTableRecord
  2
*D15
340
0
  0
BLOCK_RECORD
  5
50B
330
1
100
AcDbSymbolTableRecord
100
AcDbBlockTableRecord
  2
*D16
340
0
  0
BLOCK_RECORD
  5
523
330
1
100
AcDbSymbolTableRecord
100
AcDbBlockTableRecord
  2
*D17
340
0
  0
BLOCK_RECORD
  5
63D
330
1
100
AcDbSymbolTableRecord
100
AcDbBlockTableRecord
  2
*D18
340
0
  0
BLOCK_RECORD
  5
66D
330
1
100
AcDbSymbolTableRecord
100
AcDbBlockTableRecord
  2
*D19
340
0
  0
BLOCK_RECORD
  5
6AB
330
1
100
AcDbSymbolTableRecord
100
AcDbBlockTableRecord
  2
*D20
340
0
  0
BLOCK_RECORD
  5
6EB
330
1
100
AcDbSymbolTableRecord
100
AcDbBlockTableRecord
  2
*D21
340
0
  0
BLOCK_RECORD
  5
77C
330
1
100
AcDbSymbolTableRecord
100
AcDbBlockTableRecord
  2
*D22
340
0
  0
BLOCK_RECORD
  5
EB6
330
1
100
AcDbSymbolTableRecord
100
AcDbBlockTableRecord
  2
*D23
340
0
  0
BLOCK_RECORD
  5
16D7
330
1
100
AcDbSymbolTableRecord
100
AcDbBlockTableRecord
  2
*D24
340
0
  0
BLOCK_RECORD
  5
1784
330
1
100
AcDbSymbolTableRecord
100
AcDbBlockTableRecord
  2
*D25
340
0
  0
BLOCK_RECORD
  5
1790
330
1
100
AcDbSymbolTableRecord
100
AcDbBlockTableRecord
  2
*D26
340
0
  0
BLOCK_RECORD
  5
17EE
330
1
100
AcDbSymbolTableRecord
100
AcDbBlockTableRecord
  2
*D27
340
0
  0
BLOCK_RECORD
  5
17FA
330
1
100
AcDbSymbolTableRecord
100
AcDbBlockTableRecord
  2
*D28
340
0
  0
BLOCK_RECORD
  5
193F
330
1
100
AcDbSymbolTableRecord
100
AcDbBlockTableRecord
  2
*D29
340
0
  0
BLOCK_RECORD
  5
194B
330
1
100
AcDbSymbolTableRecord
100
AcDbBlockTableRecord
  2
*D30
340
0
  0
BLOCK_RECORD
  5
1957
330
1
100
AcDbSymbolTableRecord
100
AcDbBlockTableRecord
  2
A$C29E94953
340
0
  0
ENDTAB
  0
ENDSEC
  0
SECTION
  2
BLOCKS
  0
BLOCK
  5
20
330
1F
100
AcDbEntity
  8
0
100
AcDbBlockBegin
  2
*Model_Space
 70
     0
 10
0.0
 20
0.0
 30
0.0
  3
*Model_Space
  1

  0
ENDBLK
  5
21
330
1F
100
AcDbEntity
  8
0
100
AcDbBlockEnd
  0
BLOCK
  5
1C
330
1B
100
AcDbEntity
 67
     1
  8
0
100
AcDbBlockBegin
  2
*Paper_Space
 70
     0
 10
0.0
 20
0.0
 30
0.0
  3
*Paper_Space
  1

  0
ENDBLK
  5
1D
330
1B
100
AcDbEntity
 67
     1
  8
0
100
AcDbBlockEnd
  0
BLOCK
  5
24
330
23
100
AcDbEntity
  8
0
100
AcDbBlockBegin
  2
*Paper_Space0
 70
     0
 10
0.0
 20
0.0
 30
0.0
  3
*Paper_Space0
  1

  0
ENDBLK
  5
25
330
23
100
AcDbEntity
  8
0
100
AcDbBlockEnd
  0
BLOCK
  5
D2
330
D0
100
AcDbEntity
  8
0
100
AcDbBlockBegin
  2
_DotSmall
 70
     0
 10
0.0
 20
0.0
 30
0.0
  3
_DotSmall
  1

  0
LWPOLYLINE
  5
D1
330
D0
100
AcDbEntity
  8
0
 62
     0
100
AcDbPolyline
 90
        2
 70
     1
 43
0.5
 10
-0.0625
 20
0.0
 42
1.0
 10
0.0625
 20
0.0
 42
1.0
  0
ENDBLK
  5
D3
330
D0
100
AcDbEntity
  8
0
100
AcDbBlockEnd
  0
BLOCK
  5
D8
330
D4
100
AcDbEntity
  8
0
100
AcDbBlockBegin
  2
_Origin2
 70
     0
 10
0.0
 20
0.0
 30
0.0
  3
_Origin2
  1

  0
CIRCLE
  5
D5
330
D4
100
AcDbEntity
  8
0
 62
     0
370
    -2
100
AcDbCircle
 10
0.0
 20
0.0
 30
0.0
 40
0.5
  0
CIRCLE
  5
D6
330
D4
100
AcDbEntity
  8
0
 62
     0
370
    -2
100
AcDbCircle
 10
0.0
 20
0.0
 30
0.0
 40
0.25
  0
LINE
  5
D7
330
D4
100
AcDbEntity
  8
0
 62
     0
370
    -2
100
AcDbLine
 10
-0.5
 20
0.0
 30
0.0
 11
-1.0
 21
0.0
 31
0.0
  0
ENDBLK
  5
D9
330
D4
100
AcDbEntity
  8
0
100
AcDbBlockEnd
  0
BLOCK
  5
DE
330
DA
100
AcDbEntity
  8
0
100
AcDbBlockBegin
  2
_Open30
 70
     0
 10
0.0
 20
0.0
 30
0.0
  3
_Open30
  1

  0
LINE
  5
DB
330
DA
100
AcDbEntity
  8
0
 62
     0
370
    -2
100
AcDbLine
 10
-1.0
 20
0.26794919
 30
0.0
 11
0.0
 21
0.0
 31
0.0
  0
LINE
  5
DC
330
DA
100
AcDbEntity
  8
0
 62
     0
370
    -2
100
AcDbLine
 10
0.0
 20
0.0
 30
0.0
 11
-1.0
 21
-0.26794919
 31
0.0
  0
LINE
  5
DD
330
DA
100
AcDbEntity
  8
0
 62
     0
370
    -2
100
AcDbLine
 10
0.0
 20
0.0
 30
0.0
 11
-1.0
 21
0.0
 31
0.0
  0
ENDBLK
  5
DF
330
DA
100
AcDbEntity
  8
0
100
AcDbBlockEnd
  0
BLOCK
  5
3F4
330
3EA
100
AcDbEntity
  8
0
100
AcDbBlockBegin
  2
*D4
 70
     1
 10
0.0
 20
0.0
 30
0.0
  3
*D4
  1

  0
LINE
  5
18CD
330
3EA
100
AcDbEntity
  8
実形
 62
     0
370
    15
100
AcDbLine
 10
1199.257276458185
 20
1357.0779087747
 30
0.0
 11
1310.08066871827
 21
1357.0779087747
 31
0.0
  0
LINE
  5
18CE
330
3EA
100
AcDbEntity
  8
実形
 62
     0
370
    15
100
AcDbLine
 10
1308.092514045068
 20
1487.0779087747
 30
0.0
 11
1310.08066871827
 21
1487.0779087747
 31
0.0
  0
LINE
  5
18CF
330
3EA
100
AcDbEntity
  8
実形
 62
     0
370
    15
100
AcDbLine
 10
1310.08066871827
 20
1357.0779087747
 30
0.0
 11
1310.08066871827
 21
1487.0779087747
 31
0.0
  0
INSERT
  5
18D0
330
3EA
100
AcDbEntity
  8
実形
 62
     0
370
    15
100
AcDbBlockReference
  2
_DotSmall
 10
1310.08066871827
 20
1357.0779087747
 30
0.0
 41
35.0
 42
35.0
 43
35.0
 50
270.0
  0
INSERT
  5
18D1
330
3EA
100
AcDbEntity
  8
実形
 62
     0
370
    15
100
AcDbBlockReference
  2
_DotSmall
 10
1310.08066871827
 20
1487.0779087747
 30
0.0
 41
35.0
 42
35.0
 43
35.0
 50
90.0
  0
MTEXT
  5
18D2
330
3EA
100
AcDbEntity
  8
実形
 62
     0
100
AcDbMText
 10
1291.33066871827
 20
1422.077908774701
 30
0.0
 40
25.0
 41
0.0
 71
     5
 72
     1
  1
130
 11
0.0000000000000001
 21
1.0
 31
0.0
 73
     1
 44
1.0
1001
ACAD
1000
MTEXTBEGIN
1070
    73
1070
     1
1070
    44
1040
1.0
1070
    74
1070
     0
1000
MTEXTEND
  0
POINT
  5
18D3
330
3EA
100
AcDbEntity
  8
Defpoints
 62
     0
100
AcDbPoint
 10
1134.257276458185
 20
1357.0779087747
 30
0.0
  0
POINT
  5
18D4
330
3EA
100
AcDbEntity
  8
Defpoints
 62
     0
100
AcDbPoint
 10
1243.092514045068
 20
1487.0779087747
 30
0.0
  0
POINT
  5
18D5
330
3EA
100
AcDbEntity
  8
Defpoints
 62
     0
100
AcDbPoint
 10
1310.08066871827
 20
1487.0779087747
 30
0.0
  0
ENDBLK
  5
3F5
330
3EA
100
AcDbEntity
  8
0
100
AcDbBlockEnd
  0
BLOCK
  5
401
330
3F7
100
AcDbEntity
  8
0
100
AcDbBlockBegin
  2
*D5
 70
     1
 10
0.0
 20
0.0
 30
0.0
  3
*D5
  1

  0
LINE
  5
1844
330
3F7
100
AcDbEntity
  8
実形
 62
     0
370
    15
100
AcDbLine
 10
1068.092514045068
 20
1212.5779087747
 30
0.0
 11
1068.092514045068
 21
1204.485142503699
 31
0.0
  0
LINE
  5
1845
330
3F7
100
AcDbEntity
  8
実形
 62
     0
370
    15
100
AcDbLine
 10
918.092514045068
 20
1201.5779087747
 30
0.0
 11
918.092514045068
 21
1204.485142503699
 31
0.0
  0
LINE
  5
1846
330
3F7
100
AcDbEntity
  8
実形
 62
     0
370
    15
100
AcDbLine
 10
1068.092514045068
 20
1204.485142503699
 30
0.0
 11
918.092514045068
 21
1204.485142503699
 31
0.0
  0
INSERT
  5
1847
330
3F7
100
AcDbEntity
  8
実形
 62
     0
370
    15
100
AcDbBlockReference
  2
_DotSmall
 10
1068.092514045068
 20
1204.485142503699
 30
0.0
 41
35.0
 42
35.0
 43
35.0
  0
INSERT
  5
1848
330
3F7
100
AcDbEntity
  8
実形
 62
     0
370
    15
100
AcDbBlockReference
  2
_DotSmall
 10
918.092514045068
 20
1204.485142503699
 30
0.0
 41
35.0
 42
35.0
 43
35.0
 50
180.0
  0
MTEXT
  5
1849
330
3F7
100
AcDbEntity
  8
実形
 62
     0
100
AcDbMText
 10
993.092514045068
 20
1223.235142503699
 30
0.0
 40
25.0
 41
0.0
 71
     5
 72
     1
  1
150
 73
     1
 44
1.0
1001
ACAD
1000
MTEXTBEGIN
1070
    73
1070
     1
1070
    44
1040
1.0
1070
    74
1070
     0
1000
MTEXTEND
  0
POINT
  5
184A
330
3F7
100
AcDbEntity
  8
Defpoints
 62
     0
100
AcDbPoint
 10
1068.092514045068
 20
1277.577908774701
 30
0.0
  0
POINT
  5
184B
330
3F7
100
AcDbEntity
  8
Defpoints
 62
     0
100
AcDbPoint
 10
918.092514045068
 20
1266.5779087747
 30
0.0
  0
POINT
  5
184C
330
3F7
100
AcDbEntity
  8
Defpoints
 62
     0
100
AcDbPoint
 10
918.092514045068
 20
1204.485142503699
 30
0.0
  0
ENDBLK
  5
402
330
3F7
100
AcDbEntity
  8
0
100
AcDbBlockEnd
  0
BLOCK
  5
418
330
40D
100
AcDbEntity
  8
0
100
AcDbBlockBegin
  2
*D6
 70
     1
 10
0.0
 20
0.0
 30
0.0
  3
*D6
  1

  0
LINE
  5
188C
330
40D
100
AcDbEntity
  8
実形
 62
     0
370
    15
100
AcDbLine
 10
838.0925140450681
 20
1062.0779087747
 30
0.0
 11
799.2968531835087
 21
1062.0779087747
 31
0.0
  0
LINE
  5
188D
330
40D
100
AcDbEntity
  8
実形
 62
     0
370
    15
100
AcDbLine
 10
838.0925140450681
 20
1077.0779087747
 30
0.0
 11
799.2968531835087
 21
1077.0779087747
 31
0.0
  0
LINE
  5
188E
330
40D
100
AcDbEntity
  8
実形
 62
     0
370
    15
100
AcDbLine
 10
799.2968531835087
 20
1062.0779087747
 30
0.0
 11
799.2968531835087
 21
1077.0779087747
 31
0.0
  0
MTEXT
  5
188F
330
40D
100
AcDbEntity
  8
実形
 62
     0
100
AcDbMText
 10
773.3966019939253
 20
1085.507032827037
 30
0.0
 40
25.0
 41
0.0
 71
     5
 72
     1
  1
15
 11
0.0000000000000001
 21
1.0
 31
0.0
 73
     1
 44
1.0
1001
ACAD
1000
MTEXTBEGIN
1070
    73
1070
     1
1070
    44
1040
1.0
1070
    74
1070
     0
1000
MTEXTEND
  0
INSERT
  5
1890
330
40D
100
AcDbEntity
  8
実形
 62
     0
370
    15
100
AcDbBlockReference
  2
_DotSmall
 10
799.2968531835087
 20
1062.0779087747
 30
0.0
 41
35.0
 42
35.0
 43
35.0
 50
270.0
  0
INSERT
  5
1891
330
40D
100
AcDbEntity
  8
実形
 62
     0
370
    15
100
AcDbBlockReference
  2
_DotSmall
 10
799.2968531835087
 20
1077.0779087747
 30
0.0
 41
35.0
 42
35.0
 43
35.0
 50
90.0
  0
POINT
  5
1892
330
40D
100
AcDbEntity
  8
Defpoints
 62
     0
100
AcDbPoint
 10
903.0925140450682
 20
1062.0779087747
 30
0.0
  0
POINT
  5
1893
330
40D
100
AcDbEntity
  8
Defpoints
 62
     0
100
AcDbPoint
 10
903.0925140450682
 20
1077.0779087747
 30
0.0
  0
POINT
  5
1894
330
40D
100
AcDbEntity
  8
Defpoints
 62
     0
100
AcDbPoint
 10
799.2968531835087
 20
1077.0779087747
 30
0.0
  0
ENDBLK
  5
419
330
40D
100
AcDbEntity
  8
0
100
AcDbBlockEnd
  0
BLOCK
  5
425
330
41B
100
AcDbEntity
  8
0
100
AcDbBlockBegin
  2
*D7
 70
     1
 10
0.0
 20
0.0
 30
0.0
  3
*D7
  1

  0
LINE
  5
187A
330
41B
100
AcDbEntity
  8
実形
 62
     0
370
    15
100
AcDbLine
 10
838.0925140450681
 20
1077.0779087747
 30
0.0
 11
799.2968531835085
 21
1077.0779087747
 31
0.0
  0
LINE
  5
187B
330
41B
100
AcDbEntity
  8
実形
 62
     0
370
    15
100
AcDbLine
 10
838.0925140450681
 20
1487.0779087747
 30
0.0
 11
799.2968531835087
 21
1487.0779087747
 31
0.0
  0
LINE
  5
187C
330
41B
100
AcDbEntity
  8
実形
 62
     0
370
    15
100
AcDbLine
 10
799.2968531835085
 20
1077.0779087747
 30
0.0
 11
799.2968531835087
 21
1487.0779087747
 31
0.0
  0
INSERT
  5
187D
330
41B
100
AcDbEntity
  8
実形
 62
     0
370
    15
100
AcDbBlockReference
  2
_DotSmall
 10
799.2968531835085
 20
1077.0779087747
 30
0.0
 41
35.0
 42
35.0
 43
35.0
 50
270.0
  0
INSERT
  5
187E
330
41B
100
AcDbEntity
  8
実形
 62
     0
370
    15
100
AcDbBlockReference
  2
_DotSmall
 10
799.2968531835087
 20
1487.0779087747
 30
0.0
 41
35.0
 42
35.0
 43
35.0
 50
90.0
  0
MTEXT
  5
187F
330
41B
100
AcDbEntity
  8
実形
 62
     0
100
AcDbMText
 10
780.5468531835084
 20
1282.077908774701
 30
0.0
 40
25.0
 41
0.0
 71
     5
 72
     1
  1
410
 11
0.0000000000000001
 21
1.0
 31
0.0
 73
     1
 44
1.0
1001
ACAD
1000
MTEXTBEGIN
1070
    73
1070
     1
1070
    44
1040
1.0
1070
    74
1070
     0
1000
MTEXTEND
  0
POINT
  5
1880
330
41B
100
AcDbEntity
  8
Defpoints
 62
     0
100
AcDbPoint
 10
903.0925140450682
 20
1077.0779087747
 30
0.0
  0
POINT
  5
1881
330
41B
100
AcDbEntity
  8
Defpoints
 62
     0
100
AcDbPoint
 10
903.0925140450682
 20
1487.0779087747
 30
0.0
  0
POINT
  5
1882
330
41B
100
AcDbEntity
  8
Defpoints
 62
     0
100
AcDbPoint
 10
799.2968531835087
 20
1487.0779087747
 30
0.0
  0
ENDBLK
  5
426
330
41B
100
AcDbEntity
  8
0
100
AcDbBlockEnd
  0
BLOCK
  5
432
330
428
100
AcDbEntity
  8
0
100
AcDbBlockBegin
  2
*D8
 70
     1
 10
0.0
 20
0.0
 30
0.0
  3
*D8
  1

  0
LINE
  5
1871
330
428
100
AcDbEntity
  8
実形
 62
     0
370
    15
100
AcDbLine
 10
838.0925140450681
 20
1487.0779087747
 30
0.0
 11
799.2968531835087
 21
1487.0779087747
 31
0.0
  0
LINE
  5
1872
330
428
100
AcDbEntity
  8
実形
 62
     0
370
    15
100
AcDbLine
 10
838.0925140450681
 20
1502.0779087747
 30
0.0
 11
799.2968531835087
 21
1502.0779087747
 31
0.0
  0
LINE
  5
1873
330
428
100
AcDbEntity
  8
実形
 62
     0
370
    15
100
AcDbLine
 10
799.2968531835087
 20
1487.0779087747
 30
0.0
 11
799.2968531835087
 21
1502.0779087747
 31
0.0
  0
MTEXT
  5
1874
330
428
100
AcDbEntity
  8
実形
 62
     0
100
AcDbMText
 10
771.9287023661963
 20
1477.971618678417
 30
0.0
 40
25.0
 41
0.0
 71
     5
 72
     1
  1
15
 11
0.0000000000000001
 21
1.0
 31
0.0
 73
     1
 44
1.0
1001
ACAD
1000
MTEXTBEGIN
1070
    73
1070
     1
1070
    44
1040
1.0
1070
    74
1070
     0
1000
MTEXTEND
  0
INSERT
  5
1875
330
428
100
AcDbEntity
  8
実形
 62
     0
370
    15
100
AcDbBlockReference
  2
_DotSmall
 10
799.2968531835087
 20
1487.0779087747
 30
0.0
 41
35.0
 42
35.0
 43
35.0
 50
270.0
  0
INSERT
  5
1876
330
428
100
AcDbEntity
  8
実形
 62
     0
370
    15
100
AcDbBlockReference
  2
_DotSmall
 10
799.2968531835087
 20
1502.0779087747
 30
0.0
 41
35.0
 42
35.0
 43
35.0
 50
90.0
  0
POINT
  5
1877
330
428
100
AcDbEntity
  8
Defpoints
 62
     0
100
AcDbPoint
 10
903.0925140450682
 20
1487.0779087747
 30
0.0
  0
POINT
  5
1878
330
428
100
AcDbEntity
  8
Defpoints
 62
     0
100
AcDbPoint
 10
903.0925140450682
 20
1502.0779087747
 30
0.0
  0
POINT
  5
1879
330
428
100
AcDbEntity
  8
Defpoints
 62
     0
100
AcDbPoint
 10
799.2968531835087
 20
1502.0779087747
 30
0.0
  0
ENDBLK
  5
433
330
428
100
AcDbEntity
  8
0
100
AcDbBlockEnd
  0
BLOCK
  5
464
330
45A
100
AcDbEntity
  8
0
100
AcDbBlockBegin
  2
*D9
 70
     1
 10
0.0
 20
0.0
 30
0.0
  3
*D9
  1

  0
LINE
  5
1868
330
45A
100
AcDbEntity
  8
実形
 62
     0
370
    15
100
AcDbLine
 10
838.0925140450681
 20
1502.0779087747
 30
0.0
 11
722.8044109439516
 21
1502.0779087747
 31
0.0
  0
LINE
  5
1869
330
45A
100
AcDbEntity
  8
実形
 62
     0
370
    15
100
AcDbLine
 10
838.0925140450681
 20
1062.0779087747
 30
0.0
 11
722.8044109439515
 21
1062.0779087747
 31
0.0
  0
LINE
  5
186A
330
45A
100
AcDbEntity
  8
実形
 62
     0
370
    15
100
AcDbLine
 10
722.8044109439516
 20
1502.0779087747
 30
0.0
 11
722.8044109439515
 21
1062.0779087747
 31
0.0
  0
INSERT
  5
186B
330
45A
100
AcDbEntity
  8
実形
 62
     0
370
    15
100
AcDbBlockReference
  2
_DotSmall
 10
722.8044109439516
 20
1502.0779087747
 30
0.0
 41
35.0
 42
35.0
 43
35.0
 50
90.0
  0
INSERT
  5
186C
330
45A
100
AcDbEntity
  8
実形
 62
     0
370
    15
100
AcDbBlockReference
  2
_DotSmall
 10
722.8044109439515
 20
1062.0779087747
 30
0.0
 41
35.0
 42
35.0
 43
35.0
 50
270.0
  0
MTEXT
  5
186D
330
45A
100
AcDbEntity
  8
実形
 62
     0
100
AcDbMText
 10
704.0544109439514
 20
1282.077908774701
 30
0.0
 40
25.0
 41
0.0
 71
     5
 72
     1
  1
440
 11
0.0000000000000001
 21
1.0
 31
0.0
 73
     1
 44
1.0
1001
ACAD
1000
MTEXTBEGIN
1070
    73
1070
     1
1070
    44
1040
1.0
1070
    74
1070
     0
1000
MTEXTEND
  0
POINT
  5
186E
330
45A
100
AcDbEntity
  8
Defpoints
 62
     0
100
AcDbPoint
 10
903.0925140450682
 20
1502.0779087747
 30
0.0
  0
POINT
  5
186F
330
45A
100
AcDbEntity
  8
Defpoints
 62
     0
100
AcDbPoint
 10
903.0925140450682
 20
1062.0779087747
 30
0.0
  0
POINT
  5
1870
330
45A
100
AcDbEntity
  8
Defpoints
 62
     0
100
AcDbPoint
 10
722.8044109439515
 20
1062.0779087747
 30
0.0
  0
ENDBLK
  5
465
330
45A
100
AcDbEntity
  8
0
100
AcDbBlockEnd
  0
BLOCK
  5
471
330
467
100
AcDbEntity
  8
0
100
AcDbBlockBegin
  2
*D10
 70
     1
 10
0.0
 20
0.0
 30
0.0
  3
*D10
  1

  0
LINE
  5
189E
330
467
100
AcDbEntity
  8
実形
 62
     0
370
    15
100
AcDbLine
 10
838.0925140450681
 20
1502.0779087747
 30
0.0
 11
722.8044109439515
 21
1502.0779087747
 31
0.0
  0
LINE
  5
189F
330
467
100
AcDbEntity
  8
実形
 62
     0
370
    15
100
AcDbLine
 10
838.0925140450681
 20
1582.0779087747
 30
0.0
 11
722.8044109439515
 21
1582.0779087747
 31
0.0
  0
LINE
  5
18A0
330
467
100
AcDbEntity
  8
実形
 62
     0
370
    15
100
AcDbLine
 10
722.8044109439515
 20
1502.0779087747
 30
0.0
 11
722.8044109439515
 21
1582.0779087747
 31
0.0
  0
INSERT
  5
18A1
330
467
100
AcDbEntity
  8
実形
 62
     0
370
    15
100
AcDbBlockReference
  2
_DotSmall
 10
722.8044109439515
 20
1502.0779087747
 30
0.0
 41
35.0
 42
35.0
 43
35.0
 50
270.0
  0
INSERT
  5
18A2
330
467
100
AcDbEntity
  8
実形
 62
     0
370
    15
100
AcDbBlockReference
  2
_DotSmall
 10
722.8044109439515
 20
1582.0779087747
 30
0.0
 41
35.0
 42
35.0
 43
35.0
 50
90.0
  0
MTEXT
  5
18A3
330
467
100
AcDbEntity
  8
実形
 62
     0
100
AcDbMText
 10
704.0544109439513
 20
1542.0779087747
 30
0.0
 40
25.0
 41
0.0
 71
     5
 72
     1
  1
80
 11
0.0000000000000001
 21
1.0
 31
0.0
 73
     1
 44
1.0
1001
ACAD
1000
MTEXTBEGIN
1070
    73
1070
     1
1070
    44
1040
1.0
1070
    74
1070
     0
1000
MTEXTEND
  0
POINT
  5
18A4
330
467
100
AcDbEntity
  8
Defpoints
 62
     0
100
AcDbPoint
 10
903.0925140450682
 20
1502.0779087747
 30
0.0
  0
POINT
  5
18A5
330
467
100
AcDbEntity
  8
Defpoints
 62
     0
100
AcDbPoint
 10
903.0925140450682
 20
1582.0779087747
 30
0.0
  0
POINT
  5
18A6
330
467
100
AcDbEntity
  8
Defpoints
 62
     0
100
AcDbPoint
 10
722.8044109439515
 20
1582.0779087747
 30
0.0
  0
ENDBLK
  5
472
330
467
100
AcDbEntity
  8
0
100
AcDbBlockEnd
  0
BLOCK
  5
487
330
47D
100
AcDbEntity
  8
0
100
AcDbBlockBegin
  2
*D11
 70
     1
 10
0.0
 20
0.0
 30
0.0
  3
*D11
  1

  0
LINE
  5
1895
330
47D
100
AcDbEntity
  8
実形
 62
     0
370
    15
100
AcDbLine
 10
838.0925140450681
 20
1582.0779087747
 30
0.0
 11
722.8044109439515
 21
1582.0779087747
 31
0.0
  0
LINE
  5
1896
330
47D
100
AcDbEntity
  8
実形
 62
     0
370
    15
100
AcDbLine
 10
838.0925140450681
 20
1597.0779087747
 30
0.0
 11
722.8044109439515
 21
1597.0779087747
 31
0.0
  0
LINE
  5
1897
330
47D
100
AcDbEntity
  8
実形
 62
     0
370
    15
100
AcDbLine
 10
722.8044109439515
 20
1582.0779087747
 30
0.0
 11
722.8044109439515
 21
1597.0779087747
 31
0.0
  0
MTEXT
  5
1898
330
47D
100
AcDbEntity
  8
実形
 62
     0
100
AcDbMText
 10
714.5695012493534
 20
1624.004628055033
 30
0.0
 40
25.0
 41
0.0
 71
     5
 72
     1
  1
15
 11
0.0000000000000001
 21
1.0
 31
0.0
 73
     1
 44
1.0
1001
ACAD
1000
MTEXTBEGIN
1070
    73
1070
     1
1070
    44
1040
1.0
1070
    74
1070
     0
1000
MTEXTEND
  0
INSERT
  5
1899
330
47D
100
AcDbEntity
  8
実形
 62
     0
370
    15
100
AcDbBlockReference
  2
_DotSmall
 10
722.8044109439515
 20
1582.0779087747
 30
0.0
 41
35.0
 42
35.0
 43
35.0
 50
270.0
  0
INSERT
  5
189A
330
47D
100
AcDbEntity
  8
実形
 62
     0
370
    15
100
AcDbBlockReference
  2
_DotSmall
 10
722.8044109439515
 20
1597.0779087747
 30
0.0
 41
35.0
 42
35.0
 43
35.0
 50
90.0
  0
POINT
  5
189B
330
47D
100
AcDbEntity
  8
Defpoints
 62
     0
100
AcDbPoint
 10
903.0925140450682
 20
1582.0779087747
 30
0.0
  0
POINT
  5
189C
330
47D
100
AcDbEntity
  8
Defpoints
 62
     0
100
AcDbPoint
 10
903.0925140450682
 20
1597.0779087747
 30
0.0
  0
POINT
  5
189D
330
47D
100
AcDbEntity
  8
Defpoints
 62
     0
100
AcDbPoint
 10
722.8044109439515
 20
1597.0779087747
 30
0.0
  0
ENDBLK
  5
488
330
47D
100
AcDbEntity
  8
0
100
AcDbBlockEnd
  0
BLOCK
  5
49D
330
493
100
AcDbEntity
  8
0
100
AcDbBlockBegin
  2
*D12
 70
     1
 10
0.0
 20
0.0
 30
0.0
  3
*D12
  1

  0
LINE
  5
185F
330
493
100
AcDbEntity
  8
実形
 62
     0
370
    15
100
AcDbLine
 10
838.0925140450681
 20
1597.0779087747
 30
0.0
 11
645.2556272337734
 21
1597.0779087747
 31
0.0
  0
LINE
  5
1860
330
493
100
AcDbEntity
  8
実形
 62
     0
370
    15
100
AcDbLine
 10
838.0925140450681
 20
1047.0779087747
 30
0.0
 11
645.2556272337733
 21
1047.0779087747
 31
0.0
  0
LINE
  5
1861
330
493
100
AcDbEntity
  8
実形
 62
     0
370
    15
100
AcDbLine
 10
645.2556272337734
 20
1597.0779087747
 30
0.0
 11
645.2556272337733
 21
1047.0779087747
 31
0.0
  0
INSERT
  5
1862
330
493
100
AcDbEntity
  8
実形
 62
     0
370
    15
100
AcDbBlockReference
  2
_DotSmall
 10
645.2556272337734
 20
1597.0779087747
 30
0.0
 41
35.0
 42
35.0
 43
35.0
 50
90.0
  0
INSERT
  5
1863
330
493
100
AcDbEntity
  8
実形
 62
     0
370
    15
100
AcDbBlockReference
  2
_DotSmall
 10
645.2556272337733
 20
1047.0779087747
 30
0.0
 41
35.0
 42
35.0
 43
35.0
 50
270.0
  0
MTEXT
  5
1864
330
493
100
AcDbEntity
  8
実形
 62
     0
100
AcDbMText
 10
626.5056272337732
 20
1322.077908774701
 30
0.0
 40
25.0
 41
0.0
 71
     5
 72
     1
  1
550
 11
0.0000000000000001
 21
1.0
 31
0.0
 73
     1
 44
1.0
1001
ACAD
1000
MTEXTBEGIN
1070
    73
1070
     1
1070
    44
1040
1.0
1070
    74
1070
     0
1000
MTEXTEND
  0
POINT
  5
1865
330
493
100
AcDbEntity
  8
Defpoints
 62
     0
100
AcDbPoint
 10
903.0925140450682
 20
1597.0779087747
 30
0.0
  0
POINT
  5
1866
330
493
100
AcDbEntity
  8
Defpoints
 62
     0
100
AcDbPoint
 10
903.0925140450682
 20
1047.0779087747
 30
0.0
  0
POINT
  5
1867
330
493
100
AcDbEntity
  8
Defpoints
 62
     0
100
AcDbPoint
 10
645.2556272337733
 20
1047.0779087747
 30
0.0
  0
ENDBLK
  5
49E
330
493
100
AcDbEntity
  8
0
100
AcDbBlockEnd
  0
BLOCK
  5
4CF
330
4C4
100
AcDbEntity
  8
0
100
AcDbBlockBegin
  2
*D13
 70
     1
 10
0.0
 20
0.0
 30
0.0
  3
*D13
  1

  0
LINE
  5
1883
330
4C4
100
AcDbEntity
  8
実形
 62
     0
370
    15
100
AcDbLine
 10
838.0925140450681
 20
1062.0779087747
 30
0.0
 11
722.8044109439515
 21
1062.0779087747
 31
0.0
  0
LINE
  5
1884
330
4C4
100
AcDbEntity
  8
実形
 62
     0
370
    15
100
AcDbLine
 10
838.0925140450681
 20
1047.0779087747
 30
0.0
 11
722.8044109439515
 21
1047.0779087747
 31
0.0
  0
LINE
  5
1885
330
4C4
100
AcDbEntity
  8
実形
 62
     0
370
    15
100
AcDbLine
 10
722.8044109439515
 20
1062.0779087747
 30
0.0
 11
722.8044109439515
 21
1047.0779087747
 31
0.0
  0
MTEXT
  5
1886
330
4C4
100
AcDbEntity
  8
実形
 62
     0
100
AcDbMText
 10
694.8416247507557
 20
1074.518016231283
 30
0.0
 40
25.0
 41
0.0
 71
     5
 72
     1
  1
15
 11
0.0000000000000001
 21
1.0
 31
0.0
 73
     1
 44
1.0
1001
ACAD
1000
MTEXTBEGIN
1070
    73
1070
     1
1070
    44
1040
1.0
1070
    74
1070
     0
1000
MTEXTEND
  0
INSERT
  5
1887
330
4C4
100
AcDbEntity
  8
実形
 62
     0
370
    15
100
AcDbBlockReference
  2
_DotSmall
 10
722.8044109439515
 20
1062.0779087747
 30
0.0
 41
35.0
 42
35.0
 43
35.0
 50
90.0
  0
INSERT
  5
1888
330
4C4
100
AcDbEntity
  8
実形
 62
     0
370
    15
100
AcDbBlockReference
  2
_DotSmall
 10
722.8044109439515
 20
1047.0779087747
 30
0.0
 41
35.0
 42
35.0
 43
35.0
 50
270.0
  0
POINT
  5
1889
330
4C4
100
AcDbEntity
  8
Defpoints
 62
     0
100
AcDbPoint
 10
903.0925140450682
 20
1062.0779087747
 30
0.0
  0
POINT
  5
188A
330
4C4
100
AcDbEntity
  8
Defpoints
 62
     0
100
AcDbPoint
 10
903.0925140450682
 20
1047.0779087747
 30
0.0
  0
POINT
  5
188B
330
4C4
100
AcDbEntity
  8
Defpoints
 62
     0
100
AcDbPoint
 10
722.8044109439515
 20
1047.0779087747
 30
0.0
  0
ENDBLK
  5
4D0
330
4C4
100
AcDbEntity
  8
0
100
AcDbBlockEnd
  0
BLOCK
  5
4F1
330
4E6
100
AcDbEntity
  8
0
100
AcDbBlockBegin
  2
*D14
 70
     1
 10
0.0
 20
0.0
 30
0.0
  3
*D14
  1

  0
LINE
  5
183B
330
4E6
100
AcDbEntity
  8
実形
 62
     0
370
    15
100
AcDbLine
 10
903.0925140450682
 20
982.0779087747006
 30
0.0
 11
903.0925140450682
 21
929.8545833737954
 31
0.0
  0
LINE
  5
183C
330
4E6
100
AcDbEntity
  8
実形
 62
     0
370
    15
100
AcDbLine
 10
918.092514045068
 20
982.0779087747006
 30
0.0
 11
918.092514045068
 21
929.8545833737954
 31
0.0
  0
LINE
  5
183D
330
4E6
100
AcDbEntity
  8
実形
 62
     0
370
    15
100
AcDbLine
 10
903.0925140450682
 20
929.8545833737954
 30
0.0
 11
918.092514045068
 21
929.8545833737954
 31
0.0
  0
MTEXT
  5
183E
330
4E6
100
AcDbEntity
  8
実形
 62
     0
100
AcDbMText
 10
953.9869354323164
 20
949.402462475864
 30
0.0
 40
25.0
 41
0.0
 71
     5
 72
     1
  1
15
 73
     1
 44
1.0
1001
ACAD
1000
MTEXTBEGIN
1070
    73
1070
     1
1070
    44
1040
1.0
1070
    74
1070
     0
1000
MTEXTEND
  0
INSERT
  5
183F
330
4E6
100
AcDbEntity
  8
実形
 62
     0
370
    15
100
AcDbBlockReference
  2
_DotSmall
 10
903.0925140450682
 20
929.8545833737954
 30
0.0
 41
35.0
 42
35.0
 43
35.0
 50
180.0
  0
INSERT
  5
1840
330
4E6
100
AcDbEntity
  8
実形
 62
     0
370
    15
100
AcDbBlockReference
  2
_DotSmall
 10
918.092514045068
 20
929.8545833737954
 30
0.0
 41
35.0
 42
35.0
 43
35.0
  0
POINT
  5
1841
330
4E6
100
AcDbEntity
  8
Defpoints
 62
     0
100
AcDbPoint
 10
903.0925140450682
 20
1047.0779087747
 30
0.0
  0
POINT
  5
1842
330
4E6
100
AcDbEntity
  8
Defpoints
 62
     0
100
AcDbPoint
 10
918.092514045068
 20
1047.0779087747
 30
0.0
  0
POINT
  5
1843
330
4E6
100
AcDbEntity
  8
Defpoints
 62
     0
100
AcDbPoint
 10
918.092514045068
 20
929.8545833737954
 30
0.0
  0
ENDBLK
  5
4F2
330
4E6
100
AcDbEntity
  8
0
100
AcDbBlockEnd
  0
BLOCK
  5
508
330
4FE
100
AcDbEntity
  8
0
100
AcDbBlockBegin
  2
*D15
 70
     1
 10
0.0
 20
0.0
 30
0.0
  3
*D15
  1

  0
LINE
  5
1832
330
4FE
100
AcDbEntity
  8
実形
 62
     0
370
    15
100
AcDbLine
 10
918.092514045068
 20
982.0779087747006
 30
0.0
 11
918.092514045068
 21
929.8545833737954
 31
0.0
  0
LINE
  5
1833
330
4FE
100
AcDbEntity
  8
実形
 62
     0
370
    15
100
AcDbLine
 10
1718.092514045068
 20
982.0779087747006
 30
0.0
 11
1718.092514045068
 21
929.8545833737954
 31
0.0
  0
LINE
  5
1834
330
4FE
100
AcDbEntity
  8
実形
 62
     0
370
    15
100
AcDbLine
 10
918.092514045068
 20
929.8545833737954
 30
0.0
 11
1718.092514045068
 21
929.8545833737954
 31
0.0
  0
INSERT
  5
1835
330
4FE
100
AcDbEntity
  8
実形
 62
     0
370
    15
100
AcDbBlockReference
  2
_DotSmall
 10
918.092514045068
 20
929.8545833737954
 30
0.0
 41
35.0
 42
35.0
 43
35.0
 50
180.0
  0
INSERT
  5
1836
330
4FE
100
AcDbEntity
  8
実形
 62
     0
370
    15
100
AcDbBlockReference
  2
_DotSmall
 10
1718.092514045068
 20
929.8545833737954
 30
0.0
 41
35.0
 42
35.0
 43
35.0
  0
MTEXT
  5
1837
330
4FE
100
AcDbEntity
  8
実形
 62
     0
100
AcDbMText
 10
1318.092514045068
 20
948.6045833737954
 30
0.0
 40
25.0
 41
0.0
 71
     5
 72
     1
  1
800
 73
     1
 44
1.0
1001
ACAD
1000
MTEXTBEGIN
1070
    73
1070
     1
1070
    44
1040
1.0
1070
    74
1070
     0
1000
MTEXTEND
  0
POINT
  5
1838
330
4FE
100
AcDbEntity
  8
Defpoints
 62
     0
100
AcDbPoint
 10
918.092514045068
 20
1047.0779087747
 30
0.0
  0
POINT
  5
1839
330
4FE
100
AcDbEntity
  8
Defpoints
 62
     0
100
AcDbPoint
 10
1718.092514045068
 20
1047.0779087747
 30
0.0
  0
POINT
  5
183A
330
4FE
100
AcDbEntity
  8
Defpoints
 62
     0
100
AcDbPoint
 10
1718.092514045068
 20
929.8545833737954
 30
0.0
  0
ENDBLK
  5
509
330
4FE
100
AcDbEntity
  8
0
100
AcDbBlockEnd
  0
BLOCK
  5
517
330
50B
100
AcDbEntity
  8
0
100
AcDbBlockBegin
  2
*D16
 70
     1
 10
0.0
 20
0.0
 30
0.0
  3
*D16
  1

  0
LINE
  5
18D6
330
50B
100
AcDbEntity
  8
実形
 62
     0
370
    15
100
AcDbLine
 10
1718.092514045068
 20
982.0779087747006
 30
0.0
 11
1718.092514045068
 21
929.8545833737954
 31
0.0
  0
LINE
  5
18D7
330
50B
100
AcDbEntity
  8
実形
 62
     0
370
    15
100
AcDbLine
 10
1733.092514045068
 20
982.0779087747006
 30
0.0
 11
1733.092514045068
 21
929.8545833737954
 31
0.0
  0
LINE
  5
18D8
330
50B
100
AcDbEntity
  8
実形
 62
     0
370
    15
100
AcDbLine
 10
1718.092514045068
 20
929.8545833737954
 30
0.0
 11
1733.092514045068
 21
929.8545833737954
 31
0.0
  0
MTEXT
  5
18D9
330
50B
100
AcDbEntity
  8
実形
 62
     0
100
AcDbMText
 10
1676.459736238329
 20
948.6045833737954
 30
0.0
 40
25.0
 41
0.0
 71
     5
 72
     1
  1
15
 73
     1
 44
1.0
1001
ACAD
1000
MTEXTBEGIN
1070
    73
1070
     1
1070
    44
1040
1.0
1070
    74
1070
     0
1000
MTEXTEND
  0
INSERT
  5
18DA
330
50B
100
AcDbEntity
  8
実形
 62
     0
370
    15
100
AcDbBlockReference
  2
_DotSmall
 10
1718.092514045068
 20
929.8545833737954
 30
0.0
 41
35.0
 42
35.0
 43
35.0
 50
180.0
  0
INSERT
  5
18DB
330
50B
100
AcDbEntity
  8
実形
 62
     0
370
    15
100
AcDbBlockReference
  2
_DotSmall
 10
1733.092514045068
 20
929.8545833737954
 30
0.0
 41
35.0
 42
35.0
 43
35.0
  0
POINT
  5
18DC
330
50B
100
AcDbEntity
  8
Defpoints
 62
     0
100
AcDbPoint
 10
1718.092514045068
 20
1047.0779087747
 30
0.0
  0
POINT
  5
18DD
330
50B
100
AcDbEntity
  8
Defpoints
 62
     0
100
AcDbPoint
 10
1733.092514045068
 20
1047.0779087747
 30
0.0
  0
POINT
  5
18DE
330
50B
100
AcDbEntity
  8
Defpoints
 62
     0
100
AcDbPoint
 10
1733.092514045068
 20
929.8545833737954
 30
0.0
  0
ENDBLK
  5
518
330
50B
100
AcDbEntity
  8
0
100
AcDbBlockEnd
  0
BLOCK
  5
52D
330
523
100
AcDbEntity
  8
0
100
AcDbBlockBegin
  2
*D17
 70
     1
 10
0.0
 20
0.0
 30
0.0
  3
*D17
  1

  0
LINE
  5
1829
330
523
100
AcDbEntity
  8
実形
 62
     0
370
    15
100
AcDbLine
 10
903.0925140450682
 20
982.0779087747006
 30
0.0
 11
903.0925140450682
 21
855.7341681401357
 31
0.0
  0
LINE
  5
182A
330
523
100
AcDbEntity
  8
実形
 62
     0
370
    15
100
AcDbLine
 10
1733.092514045068
 20
982.0779087747006
 30
0.0
 11
1733.092514045068
 21
855.7341681401357
 31
0.0
  0
LINE
  5
182B
330
523
100
AcDbEntity
  8
実形
 62
     0
370
    15
100
AcDbLine
 10
903.0925140450682
 20
855.7341681401357
 30
0.0
 11
1733.092514045068
 21
855.7341681401357
 31
0.0
  0
INSERT
  5
182C
330
523
100
AcDbEntity
  8
実形
 62
     0
370
    15
100
AcDbBlockReference
  2
_DotSmall
 10
903.0925140450682
 20
855.7341681401357
 30
0.0
 41
35.0
 42
35.0
 43
35.0
 50
180.0
  0
INSERT
  5
182D
330
523
100
AcDbEntity
  8
実形
 62
     0
370
    15
100
AcDbBlockReference
  2
_DotSmall
 10
1733.092514045068
 20
855.7341681401357
 30
0.0
 41
35.0
 42
35.0
 43
35.0
  0
MTEXT
  5
182E
330
523
100
AcDbEntity
  8
実形
 62
     0
100
AcDbMText
 10
1318.092514045068
 20
874.4841681401357
 30
0.0
 40
25.0
 41
0.0
 71
     5
 72
     1
  1
830
 73
     1
 44
1.0
1001
ACAD
1000
MTEXTBEGIN
1070
    73
1070
     1
1070
    44
1040
1.0
1070
    74
1070
     0
1000
MTEXTEND
  0
POINT
  5
182F
330
523
100
AcDbEntity
  8
Defpoints
 62
     0
100
AcDbPoint
 10
903.0925140450682
 20
1047.0779087747
 30
0.0
  0
POINT
  5
1830
330
523
100
AcDbEntity
  8
Defpoints
 62
     0
100
AcDbPoint
 10
1733.092514045068
 20
1047.0779087747
 30
0.0
  0
POINT
  5
1831
330
523
100
AcDbEntity
  8
Defpoints
 62
     0
100
AcDbPoint
 10
1733.092514045068
 20
855.7341681401357
 30
0.0
  0
ENDBLK
  5
52E
330
523
100
AcDbEntity
  8
0
100
AcDbBlockEnd
  0
BLOCK
  5
649
330
63D
100
AcDbEntity
  8
0
100
AcDbBlockBegin
  2
*D18
 70
     1
 10
0.0
 20
0.0
 30
0.0
  3
*D18
  1

  0
LINE
  5
18C7
330
63D
100
AcDbEntity
  8
実形
 62
     0
370
    15
100
AcDbLine
 10
2002.570932735587
 20
1437.0779087747
 30
0.0
 11
2002.570932735587
 21
1383.68017662416
 31
0.0
  0
LINE
  5
18C8
330
63D
100
AcDbEntity
  8
実形
 62
     0
370
    15
100
AcDbLine
 10
2008.970932735588
 20
1437.0779087747
 30
0.0
 11
2008.970932735588
 21
1383.68017662416
 31
0.0
  0
MTEXT
  5
18C9
330
63D
100
AcDbEntity
  8
実形
 62
     0
100
AcDbMText
 10
1965.529969435819
 20
1391.944180305505
 30
0.0
 40
25.0
 41
0.0
 71
     5
 72
     1
  1
6.4
 73
     1
 44
1.0
1001
ACAD
1000
MTEXTBEGIN
1070
    73
1070
     1
1070
    44
1040
1.0
1070
    74
1070
     0
1000
MTEXTEND
  0
POINT
  5
18CA
330
63D
100
AcDbEntity
  8
Defpoints
 62
     0
100
AcDbPoint
 10
2002.570932735587
 20
1502.0779087747
 30
0.0
  0
POINT
  5
18CB
330
63D
100
AcDbEntity
  8
Defpoints
 62
     0
100
AcDbPoint
 10
2008.970932735588
 20
1502.0779087747
 30
0.0
  0
POINT
  5
18CC
330
63D
100
AcDbEntity
  8
Defpoints
 62
     0
100
AcDbPoint
 10
2008.970932735588
 20
1383.68017662416
 30
0.0
  0
ENDBLK
  5
64A
330
63D
100
AcDbEntity
  8
0
100
AcDbBlockEnd
  0
BLOCK
  5
67C
330
66D
100
AcDbEntity
  8
0
100
AcDbBlockBegin
  2
*D19
 70
     1
 10
0.0
 20
0.0
 30
0.0
  3
*D19
  1

  0
LINE
  5
18C1
330
66D
100
AcDbEntity
  8
実形
 62
     0
370
    15
100
AcDbLine
 10
2008.970932735588
 20
1437.0779087747
 30
0.0
 11
2008.970932735588
 21
1383.68017662416
 31
0.0
  0
LINE
  5
18C2
330
66D
100
AcDbEntity
  8
実形
 62
     0
370
    15
100
AcDbLine
 10
2017.570932735587
 20
1437.0779087747
 30
0.0
 11
2017.570932735587
 21
1383.68017662416
 31
0.0
  0
MTEXT
  5
18C3
330
66D
100
AcDbEntity
  8
実形
 62
     0
100
AcDbMText
 10
2051.709295939879
 20
1391.563352498199
 30
0.0
 40
25.0
 41
0.0
 71
     5
 72
     1
  1
8.6
 73
     1
 44
1.0
1001
ACAD
1000
MTEXTBEGIN
1070
    73
1070
     1
1070
    44
1040
1.0
1070
    74
1070
     0
1000
MTEXTEND
  0
POINT
  5
18C4
330
66D
100
AcDbEntity
  8
Defpoints
 62
     0
100
AcDbPoint
 10
2008.970932735588
 20
1502.0779087747
 30
0.0
  0
POINT
  5
18C5
330
66D
100
AcDbEntity
  8
Defpoints
 62
     0
100
AcDbPoint
 10
2017.570932735587
 20
1502.0779087747
 30
0.0
  0
POINT
  5
18C6
330
66D
100
AcDbEntity
  8
Defpoints
 62
     0
100
AcDbPoint
 10
2017.570932735587
 20
1383.68017662416
 30
0.0
  0
ENDBLK
  5
67D
330
66D
100
AcDbEntity
  8
0
100
AcDbBlockEnd
  0
BLOCK
  5
6B6
330
6AB
100
AcDbEntity
  8
0
100
AcDbBlockBegin
  2
*D20
 70
     1
 10
0.0
 20
0.0
 30
0.0
  3
*D20
  1

  0
LINE
  5
18B8
330
6AB
100
AcDbEntity
  8
実形
 62
     0
370
    15
100
AcDbLine
 10
2002.570932735587
 20
1422.0779087747
 30
0.0
 11
2002.570932735587
 21
1334.095835324805
 31
0.0
  0
LINE
  5
18B9
330
6AB
100
AcDbEntity
  8
実形
 62
     0
370
    15
100
AcDbLine
 10
2017.570932735587
 20
1422.0779087747
 30
0.0
 11
2017.570932735587
 21
1334.095835324805
 31
0.0
  0
LINE
  5
18BA
330
6AB
100
AcDbEntity
  8
実形
 62
     0
370
    15
100
AcDbLine
 10
2002.570932735587
 20
1334.095835324805
 30
0.0
 11
2017.570932735587
 21
1334.095835324805
 31
0.0
  0
MTEXT
  5
18BB
330
6AB
100
AcDbEntity
  8
実形
 62
     0
100
AcDbMText
 10
1962.911386933915
 20
1334.380763936077
 30
0.0
 40
25.0
 41
0.0
 71
     5
 72
     1
  1
15
 73
     1
 44
1.0
1001
ACAD
1000
MTEXTBEGIN
1070
    73
1070
     1
1070
    44
1040
1.0
1070
    74
1070
     0
1000
MTEXTEND
  0
INSERT
  5
18BC
330
6AB
100
AcDbEntity
  8
実形
 62
     0
370
    15
100
AcDbBlockReference
  2
_DotSmall
 10
2002.570932735587
 20
1334.095835324805
 30
0.0
 41
35.0
 42
35.0
 43
35.0
 50
180.0
  0
INSERT
  5
18BD
330
6AB
100
AcDbEntity
  8
実形
 62
     0
370
    15
100
AcDbBlockReference
  2
_DotSmall
 10
2017.570932735587
 20
1334.095835324805
 30
0.0
 41
35.0
 42
35.0
 43
35.0
  0
POINT
  5
18BE
330
6AB
100
AcDbEntity
  8
Defpoints
 62
     0
100
AcDbPoint
 10
2002.570932735587
 20
1487.0779087747
 30
0.0
  0
POINT
  5
18BF
330
6AB
100
AcDbEntity
  8
Defpoints
 62
     0
100
AcDbPoint
 10
2017.570932735587
 20
1487.0779087747
 30
0.0
  0
POINT
  5
18C0
330
6AB
100
AcDbEntity
  8
Defpoints
 62
     0
100
AcDbPoint
 10
2017.570932735587
 20
1334.095835324805
 30
0.0
  0
ENDBLK
  5
6B7
330
6AB
100
AcDbEntity
  8
0
100
AcDbBlockEnd
  0
BLOCK
  5
6F5
330
6EB
100
AcDbEntity
  8
0
100
AcDbBlockBegin
  2
*D21
 70
     1
 10
0.0
 20
0.0
 30
0.0
  3
*D21
  1

  0
LINE
  5
1917
330
6EB
100
AcDbEntity
  8
実形
 62
     0
370
    15
100
AcDbLine
 10
2274.570932735587
 20
1436.5779087747
 30
0.0
 11
2321.142777406976
 21
1436.5779087747
 31
0.0
  0
LINE
  5
1918
330
6EB
100
AcDbEntity
  8
実形
 62
     0
370
    15
100
AcDbLine
 10
2274.570932735587
 20
1277.577908774701
 30
0.0
 11
2321.142777406976
 21
1277.577908774701
 31
0.0
  0
LINE
  5
1919
330
6EB
100
AcDbEntity
  8
実形
 62
     0
370
    15
100
AcDbLine
 10
2321.142777406976
 20
1436.5779087747
 30
0.0
 11
2321.142777406976
 21
1277.577908774701
 31
0.0
  0
MTEXT
  5
191A
330
6EB
100
AcDbEntity
  8
実形
 62
     0
100
AcDbMText
 10
2300.339974750881
 20
1358.731023597767
 30
0.0
 40
25.0
 41
0.0
 71
     5
 72
     1
  1
158%%C
 11
0.0000000000000001
 21
1.0
 31
0.0
 73
     1
 44
1.0
1001
ACAD
1000
MTEXTBEGIN
1070
    73
1070
     1
1070
    44
1040
1.0
1070
    74
1070
     0
1000
MTEXTEND
  0
INSERT
  5
191B
330
6EB
100
AcDbEntity
  8
実形
 62
     0
370
    15
100
AcDbBlockReference
  2
_DotSmall
 10
2321.142777406976
 20
1436.5779087747
 30
0.0
 41
35.0
 42
35.0
 43
35.0
 50
90.0
  0
INSERT
  5
191C
330
6EB
100
AcDbEntity
  8
実形
 62
     0
370
    15
100
AcDbBlockReference
  2
_DotSmall
 10
2321.142777406976
 20
1277.577908774701
 30
0.0
 41
35.0
 42
35.0
 43
35.0
 50
270.0
  0
POINT
  5
191D
330
6EB
100
AcDbEntity
  8
Defpoints
 62
     0
100
AcDbPoint
 10
2209.570932735587
 20
1436.5779087747
 30
0.0
  0
POINT
  5
191E
330
6EB
100
AcDbEntity
  8
Defpoints
 62
     0
100
AcDbPoint
 10
2209.570932735587
 20
1277.577908774701
 30
0.0
  0
POINT
  5
191F
330
6EB
100
AcDbEntity
  8
Defpoints
 62
     0
100
AcDbPoint
 10
2321.142777406976
 20
1277.577908774701
 30
0.0
  0
ENDBLK
  5
6F6
330
6EB
100
AcDbEntity
  8
0
100
AcDbBlockEnd
  0
BLOCK
  5
786
330
77C
100
AcDbEntity
  8
0
100
AcDbBlockBegin
  2
*D22
 70
     1
 10
0.0
 20
0.0
 30
0.0
  3
*D22
  1

  0
LINE
  5
18F1
330
77C
100
AcDbEntity
  8
実形
 62
     0
370
    15
100
AcDbLine
 10
2191.810318558718
 20
1447.5779087747
 30
0.0
 11
2149.107193969443
 21
1447.5779087747
 31
0.0
  0
LINE
  5
18F2
330
77C
100
AcDbEntity
  8
実形
 62
     0
370
    15
100
AcDbLine
 10
2191.810318558718
 20
1266.5779087747
 30
0.0
 11
2149.107193969443
 21
1266.5779087747
 31
0.0
  0
LINE
  5
18F3
330
77C
100
AcDbEntity
  8
実形
 62
     0
370
    15
100
AcDbLine
 10
2149.107193969443
 20
1447.5779087747
 30
0.0
 11
2149.107193969443
 21
1266.5779087747
 31
0.0
  0
MTEXT
  5
18F4
330
77C
100
AcDbEntity
  8
実形
 62
     0
100
AcDbMText
 10
2125.481938505436
 20
1359.348412269141
 30
0.0
 40
25.0
 41
0.0
 71
     5
 72
     1
  1
181%%C
 11
0.0000000000000001
 21
1.0
 31
0.0
 73
     1
 44
1.0
1001
ACAD
1000
MTEXTBEGIN
1070
    73
1070
     1
1070
    44
1040
1.0
1070
    74
1070
     0
1000
MTEXTEND
  0
INSERT
  5
18F5
330
77C
100
AcDbEntity
  8
実形
 62
     0
370
    15
100
AcDbBlockReference
  2
_DotSmall
 10
2149.107193969443
 20
1447.5779087747
 30
0.0
 41
35.0
 42
35.0
 43
35.0
 50
90.0
  0
INSERT
  5
18F6
330
77C
100
AcDbEntity
  8
実形
 62
     0
370
    15
100
AcDbBlockReference
  2
_DotSmall
 10
2149.107193969443
 20
1266.5779087747
 30
0.0
 41
35.0
 42
35.0
 43
35.0
 50
270.0
  0
POINT
  5
18F7
330
77C
100
AcDbEntity
  8
Defpoints
 62
     0
100
AcDbPoint
 10
2256.810318558718
 20
1447.5779087747
 30
0.0
  0
POINT
  5
18F8
330
77C
100
AcDbEntity
  8
Defpoints
 62
     0
100
AcDbPoint
 10
2256.810318558718
 20
1266.5779087747
 30
0.0
  0
POINT
  5
18F9
330
77C
100
AcDbEntity
  8
Defpoints
 62
     0
100
AcDbPoint
 10
2149.107193969443
 20
1266.5779087747
 30
0.0
  0
ENDBLK
  5
787
330
77C
100
AcDbEntity
  8
0
100
AcDbBlockEnd
  0
BLOCK
  5
EC2
330
EB6
100
AcDbEntity
  8
0
100
AcDbBlockBegin
  2
*D23
 70
     1
 10
0.0
 20
0.0
 30
0.0
  3
*D23
  1

  0
LINE
  5
18B0
330
EB6
100
AcDbEntity
  8
実形
 62
     0
370
    15
100
AcDbLine
 10
2017.570932735587
 20
1437.0779087747
 30
0.0
 11
2017.570932735587
 21
1383.68017662416
 31
0.0
  0
LINE
  5
18B1
330
EB6
100
AcDbEntity
  8
実形
 62
     0
370
    15
100
AcDbLine
 10
2002.570932735587
 20
1437.0779087747
 30
0.0
 11
2002.570932735587
 21
1383.68017662416
 31
0.0
  0
LINE
  5
18B2
330
EB6
100
AcDbEntity
  8
実形
 62
     0
370
    15
100
AcDbLine
 10
2017.570932735587
 20
1383.68017662416
 30
0.0
 11
2002.570932735587
 21
1383.68017662416
 31
0.0
  0
INSERT
  5
18B3
330
EB6
100
AcDbEntity
  8
実形
 62
     0
370
    15
100
AcDbBlockReference
  2
_DotSmall
 10
2017.570932735587
 20
1383.68017662416
 30
0.0
 41
30.0
 42
30.0
 43
30.0
  0
INSERT
  5
18B4
330
EB6
100
AcDbEntity
  8
実形
 62
     0
370
    15
100
AcDbBlockReference
  2
_DotSmall
 10
2002.570932735587
 20
1383.68017662416
 30
0.0
 41
30.0
 42
30.0
 43
30.0
 50
180.0
  0
POINT
  5
18B5
330
EB6
100
AcDbEntity
  8
Defpoints
 62
     0
100
AcDbPoint
 10
2017.570932735587
 20
1502.0779087747
 30
0.0
  0
POINT
  5
18B6
330
EB6
100
AcDbEntity
  8
Defpoints
 62
     0
100
AcDbPoint
 10
2002.570932735587
 20
1502.0779087747
 30
0.0
  0
POINT
  5
18B7
330
EB6
100
AcDbEntity
  8
Defpoints
 62
     0
100
AcDbPoint
 10
2002.570932735587
 20
1383.68017662416
 30
0.0
  0
ENDBLK
  5
EC3
330
EB6
100
AcDbEntity
  8
0
100
AcDbBlockEnd
  0
BLOCK
  5
16E1
330
16D7
100
AcDbEntity
  8
0
100
AcDbBlockBegin
  2
*D24
 70
     1
 10
0.0
 20
0.0
 30
0.0
  3
*D24
  1

  0
LINE
  5
18E8
330
16D7
100
AcDbEntity
  8
実形
 62
     0
370
    15
100
AcDbLine
 10
2002.570932735587
 20
1179.5779087747
 30
0.0
 11
2002.570932735587
 21
1185.301244811298
 31
0.0
  0
LINE
  5
18E9
330
16D7
100
AcDbEntity
  8
実形
 62
     0
370
    15
100
AcDbLine
 10
2052.570932735587
 20
1239.5779087747
 30
0.0
 11
2052.570932735587
 21
1185.301244811298
 31
0.0
  0
LINE
  5
18EA
330
16D7
100
AcDbEntity
  8
実形
 62
     0
370
    18
100
AcDbLine
 10
2002.570932735587
 20
1185.301244811298
 30
0.0
 11
2052.570932735587
 21
1185.301244811298
 31
0.0
  0
MTEXT
  5
18EB
330
16D7
100
AcDbEntity
  8
実形
 62
     0
100
AcDbMText
 10
2027.570932735587
 20
1205.145911912493
 30
0.0
 40
25.0
 41
0.0
 71
     5
 72
     1
  1
50
 73
     1
 44
1.0
1001
ACAD
1000
MTEXTBEGIN
1070
    73
1070
     1
1070
    44
1040
1.0
1070
    74
1070
     0
1000
MTEXTEND
  0
INSERT
  5
18EC
330
16D7
100
AcDbEntity
  8
実形
 62
     0
370
    18
100
AcDbBlockReference
  2
_DotSmall
 10
2002.570932735587
 20
1185.301244811298
 30
0.0
 41
35.0
 42
35.0
 43
35.0
 50
180.0
  0
INSERT
  5
18ED
330
16D7
100
AcDbEntity
  8
実形
 62
     0
370
    18
100
AcDbBlockReference
  2
_DotSmall
 10
2052.570932735587
 20
1185.301244811298
 30
0.0
 41
35.0
 42
35.0
 43
35.0
  0
POINT
  5
18EE
330
16D7
100
AcDbEntity
  8
Defpoints
 62
     0
100
AcDbPoint
 10
2002.570932735587
 20
1244.5779087747
 30
0.0
  0
POINT
  5
18EF
330
16D7
100
AcDbEntity
  8
Defpoints
 62
     0
100
AcDbPoint
 10
2052.570932735587
 20
1304.5779087747
 30
0.0
  0
POINT
  5
18F0
330
16D7
100
AcDbEntity
  8
Defpoints
 62
     0
100
AcDbPoint
 10
2052.570932735587
 20
1185.301244811298
 30
0.0
  0
ENDBLK
  5
16E2
330
16D7
100
AcDbEntity
  8
0
100
AcDbBlockEnd
  0
BLOCK
  5
178E
330
1784
100
AcDbEntity
  8
0
100
AcDbBlockBegin
  2
*D25
 70
     1
 10
0.0
 20
0.0
 30
0.0
  3
*D25
  1

  0
LINE
  5
1856
330
1784
100
AcDbEntity
  8
実形
 62
     0
370
    15
100
AcDbLine
 10
819.9186155105516
 20
647.0779087747005
 30
0.0
 11
765.4837472740737
 21
647.0779087747006
 31
0.0
  0
LINE
  5
1857
330
1784
100
AcDbEntity
  8
実形
 62
     0
370
    15
100
AcDbLine
 10
819.9186155105516
 20
632.0779087747005
 30
0.0
 11
765.4837472740737
 21
632.0779087747006
 31
0.0
  0
LINE
  5
1858
330
1784
100
AcDbEntity
  8
実形
 62
     0
370
    15
100
AcDbLine
 10
765.4837472740737
 20
647.0779087747006
 30
0.0
 11
765.4837472740737
 21
632.0779087747006
 31
0.0
  0
MTEXT
  5
1859
330
1784
100
AcDbEntity
  8
実形
 62
     0
100
AcDbMText
 10
734.722712691555
 20
622.6449149591744
 30
0.0
 40
25.0
 41
0.0
 71
     5
 72
     1
  1
15
 11
0.0000000000000001
 21
1.0
 31
0.0
 73
     1
 44
1.0
1001
ACAD
1000
MTEXTBEGIN
1070
    73
1070
     1
1070
    44
1040
1.0
1070
    74
1070
     0
1000
MTEXTEND
  0
INSERT
  5
185A
330
1784
100
AcDbEntity
  8
実形
 62
     0
370
    15
100
AcDbBlockReference
  2
_DotSmall
 10
765.4837472740737
 20
647.0779087747006
 30
0.0
 41
20.0
 42
20.0
 43
20.0
 50
90.0
  0
INSERT
  5
185B
330
1784
100
AcDbEntity
  8
実形
 62
     0
370
    15
100
AcDbBlockReference
  2
_DotSmall
 10
765.4837472740737
 20
632.0779087747006
 30
0.0
 41
20.0
 42
20.0
 43
20.0
 50
270.0
  0
POINT
  5
185C
330
1784
100
AcDbEntity
  8
Defpoints
 62
     0
100
AcDbPoint
 10
884.9186155105515
 20
647.0779087747005
 30
0.0
  0
POINT
  5
185D
330
1784
100
AcDbEntity
  8
Defpoints
 62
     0
100
AcDbPoint
 10
884.9186155105515
 20
632.0779087747005
 30
0.0
  0
POINT
  5
185E
330
1784
100
AcDbEntity
  8
Defpoints
 62
     0
100
AcDbPoint
 10
765.4837472740737
 20
632.0779087747006
 30
0.0
  0
ENDBLK
  5
178F
330
1784
100
AcDbEntity
  8
0
100
AcDbBlockEnd
  0
BLOCK
  5
179A
330
1790
100
AcDbEntity
  8
0
100
AcDbBlockBegin
  2
*D26
 70
     1
 10
0.0
 20
0.0
 30
0.0
  3
*D26
  1

  0
LINE
  5
184D
330
1790
100
AcDbEntity
  8
実形
 62
     0
370
    15
100
AcDbLine
 10
819.9186155105516
 20
647.0779087747005
 30
0.0
 11
702.6926939167342
 21
647.0779087747006
 31
0.0
  0
LINE
  5
184E
330
1790
100
AcDbEntity
  8
実形
 62
     0
370
    15
100
AcDbLine
 10
819.9186155105518
 20
447.0779087747005
 30
0.0
 11
702.6926939167342
 21
447.0779087747005
 31
0.0
  0
LINE
  5
184F
330
1790
100
AcDbEntity
  8
実形
 62
     0
370
    15
100
AcDbLine
 10
702.6926939167342
 20
647.0779087747006
 30
0.0
 11
702.6926939167342
 21
447.0779087747005
 31
0.0
  0
INSERT
  5
1850
330
1790
100
AcDbEntity
  8
実形
 62
     0
370
    15
100
AcDbBlockReference
  2
_DotSmall
 10
702.6926939167342
 20
647.0779087747006
 30
0.0
 41
20.0
 42
20.0
 43
20.0
 50
90.0
  0
INSERT
  5
1851
330
1790
100
AcDbEntity
  8
実形
 62
     0
370
    15
100
AcDbBlockReference
  2
_DotSmall
 10
702.6926939167342
 20
447.0779087747005
 30
0.0
 41
20.0
 42
20.0
 43
20.0
 50
270.0
  0
MTEXT
  5
1852
330
1790
100
AcDbEntity
  8
実形
 62
     0
100
AcDbMText
 10
683.9426939167341
 20
547.0779087747007
 30
0.0
 40
25.0
 41
0.0
 71
     5
 72
     1
  1
200
 11
0.0000000000000001
 21
1.0
 31
0.0
 73
     1
 44
1.0
1001
ACAD
1000
MTEXTBEGIN
1070
    73
1070
     1
1070
    44
1040
1.0
1070
    74
1070
     0
1000
MTEXTEND
  0
POINT
  5
1853
330
1790
100
AcDbEntity
  8
Defpoints
 62
     0
100
AcDbPoint
 10
884.9186155105517
 20
647.0779087747005
 30
0.0
  0
POINT
  5
1854
330
1790
100
AcDbEntity
  8
Defpoints
 62
     0
100
AcDbPoint
 10
884.9186155105519
 20
447.0779087747005
 30
0.0
  0
POINT
  5
1855
330
1790
100
AcDbEntity
  8
Defpoints
 62
     0
100
AcDbPoint
 10
702.6926939167342
 20
447.0779087747005
 30
0.0
  0
ENDBLK
  5
179B
330
1790
100
AcDbEntity
  8
0
100
AcDbBlockEnd
  0
BLOCK
  5
17F8
330
17EE
100
AcDbEntity
  8
0
100
AcDbBlockBegin
  2
*D27
 70
     1
 10
0.0
 20
0.0
 30
0.0
  3
*D27
  1

  0
LINE
  5
18DF
330
17EE
100
AcDbEntity
  8
実形
 62
     0
370
    15
100
AcDbLine
 10
2002.570932735587
 20
987.336701084655
 30
0.0
 11
2002.570932735587
 21
932.8155574861776
 31
0.0
  0
LINE
  5
18E0
330
17EE
100
AcDbEntity
  8
実形
 62
     0
370
    15
100
AcDbLine
 10
2017.570932735587
 20
987.336701084655
 30
0.0
 11
2017.570932735587
 21
932.8155574861776
 31
0.0
  0
LINE
  5
18E1
330
17EE
100
AcDbEntity
  8
実形
 62
     0
370
    15
100
AcDbLine
 10
2002.570932735587
 20
932.8155574861776
 30
0.0
 11
2017.570932735587
 21
932.8155574861776
 31
0.0
  0
MTEXT
  5
18E2
330
17EE
100
AcDbEntity
  8
実形
 62
     0
100
AcDbMText
 10
2047.734012568995
 20
948.3175908169432
 30
0.0
 40
25.0
 41
0.0
 71
     5
 72
     1
  1
15
 73
     1
 44
1.0
1001
ACAD
1000
MTEXTBEGIN
1070
    73
1070
     1
1070
    44
1040
1.0
1070
    74
1070
     0
1000
MTEXTEND
  0
INSERT
  5
18E3
330
17EE
100
AcDbEntity
  8
実形
 62
     0
370
    15
100
AcDbBlockReference
  2
_DotSmall
 10
2002.570932735587
 20
932.8155574861776
 30
0.0
 41
20.0
 42
20.0
 43
20.0
 50
180.0
  0
INSERT
  5
18E4
330
17EE
100
AcDbEntity
  8
実形
 62
     0
370
    15
100
AcDbBlockReference
  2
_DotSmall
 10
2017.570932735587
 20
932.8155574861776
 30
0.0
 41
20.0
 42
20.0
 43
20.0
  0
POINT
  5
18E5
330
17EE
100
AcDbEntity
  8
Defpoints
 62
     0
100
AcDbPoint
 10
2002.570932735587
 20
1052.336701084655
 30
0.0
  0
POINT
  5
18E6
330
17EE
100
AcDbEntity
  8
Defpoints
 62
     0
100
AcDbPoint
 10
2017.570932735587
 20
1052.336701084655
 30
0.0
  0
POINT
  5
18E7
330
17EE
100
AcDbEntity
  8
Defpoints
 62
     0
100
AcDbPoint
 10
2017.570932735587
 20
932.8155574861776
 30
0.0
  0
ENDBLK
  5
17F9
330
17EE
100
AcDbEntity
  8
0
100
AcDbBlockEnd
  0
BLOCK
  5
1804
330
17FA
100
AcDbEntity
  8
0
100
AcDbBlockBegin
  2
*D28
 70
     1
 10
0.0
 20
0.0
 30
0.0
  3
*D28
  1

  0
LINE
  5
18A7
330
17FA
100
AcDbEntity
  8
実形
 62
     0
370
    15
100
AcDbLine
 10
2002.570932735587
 20
987.336701084655
 30
0.0
 11
2002.570932735587
 21
870.0357129788262
 31
0.0
  0
LINE
  5
18A8
330
17FA
100
AcDbEntity
  8
実形
 62
     0
370
    15
100
AcDbLine
 10
2202.570932735588
 20
987.336701084655
 30
0.0
 11
2202.570932735588
 21
870.0357129788262
 31
0.0
  0
LINE
  5
18A9
330
17FA
100
AcDbEntity
  8
実形
 62
     0
370
    15
100
AcDbLine
 10
2002.570932735587
 20
870.0357129788262
 30
0.0
 11
2202.570932735588
 21
870.0357129788262
 31
0.0
  0
INSERT
  5
18AA
330
17FA
100
AcDbEntity
  8
実形
 62
     0
370
    15
100
AcDbBlockReference
  2
_DotSmall
 10
2002.570932735587
 20
870.0357129788262
 30
0.0
 41
20.0
 42
20.0
 43
20.0
 50
180.0
  0
INSERT
  5
18AB
330
17FA
100
AcDbEntity
  8
実形
 62
     0
370
    15
100
AcDbBlockReference
  2
_DotSmall
 10
2202.570932735588
 20
870.0357129788262
 30
0.0
 41
20.0
 42
20.0
 43
20.0
  0
MTEXT
  5
18AC
330
17FA
100
AcDbEntity
  8
実形
 62
     0
100
AcDbMText
 10
2102.570932735587
 20
888.7857129788262
 30
0.0
 40
25.0
 41
0.0
 71
     5
 72
     1
  1
200
 73
     1
 44
1.0
1001
ACAD
1000
MTEXTBEGIN
1070
    73
1070
     1
1070
    44
1040
1.0
1070
    74
1070
     0
1000
MTEXTEND
  0
POINT
  5
18AD
330
17FA
100
AcDbEntity
  8
Defpoints
 62
     0
100
AcDbPoint
 10
2002.570932735587
 20
1052.336701084655
 30
0.0
  0
POINT
  5
18AE
330
17FA
100
AcDbEntity
  8
Defpoints
 62
     0
100
AcDbPoint
 10
2202.570932735588
 20
1052.336701084655
 30
0.0
  0
POINT
  5
18AF
330
17FA
100
AcDbEntity
  8
Defpoints
 62
     0
100
AcDbPoint
 10
2202.570932735588
 20
870.0357129788262
 30
0.0
  0
ENDBLK
  5
1805
330
17FA
100
AcDbEntity
  8
0
100
AcDbBlockEnd
  0
BLOCK
  5
1940
330
193F
100
AcDbEntity
  8
0
100
AcDbBlockBegin
  2
*D29
 70
     1
 10
0.0
 20
0.0
 30
0.0
  3
*D29
  1

  0
LINE
  5
1941
330
193F
100
AcDbEntity
  8
実形
 62
     0
370
    15
100
AcDbLine
 10
819.9186155105516
 20
647.0779087747005
 30
0.0
 11
765.4837472740737
 21
647.0779087747006
 31
0.0
  0
LINE
  5
1942
330
193F
100
AcDbEntity
  8
実形
 62
     0
370
    15
100
AcDbLine
 10
819.9186155105516
 20
632.0779087747005
 30
0.0
 11
765.4837472740737
 21
632.0779087747006
 31
0.0
  0
LINE
  5
1943
330
193F
100
AcDbEntity
  8
実形
 62
     0
370
    15
100
AcDbLine
 10
765.4837472740737
 20
647.0779087747006
 30
0.0
 11
765.4837472740737
 21
632.0779087747006
 31
0.0
  0
MTEXT
  5
1944
330
193F
100
AcDbEntity
  8
実形
 62
     0
100
AcDbMText
 10
734.722712691555
 20
622.6449149591744
 30
0.0
 40
25.0
 41
0.0
 71
     5
 72
     1
  1
15
 11
0.0000000000000001
 21
1.0
 31
0.0
 73
     1
 44
1.0
1001
ACAD
1000
MTEXTBEGIN
1070
    73
1070
     1
1070
    44
1040
1.0
1070
    74
1070
     0
1000
MTEXTEND
  0
INSERT
  5
1945
330
193F
100
AcDbEntity
  8
実形
 62
     0
370
    15
100
AcDbBlockReference
  2
_DotSmall
 10
765.4837472740737
 20
647.0779087747006
 30
0.0
 41
20.0
 42
20.0
 43
20.0
 50
90.0
  0
INSERT
  5
1946
330
193F
100
AcDbEntity
  8
実形
 62
     0
370
    15
100
AcDbBlockReference
  2
_DotSmall
 10
765.4837472740737
 20
632.0779087747006
 30
0.0
 41
20.0
 42
20.0
 43
20.0
 50
270.0
  0
POINT
  5
1947
330
193F
100
AcDbEntity
  8
Defpoints
 62
     0
100
AcDbPoint
 10
884.9186155105515
 20
647.0779087747005
 30
0.0
  0
POINT
  5
1948
330
193F
100
AcDbEntity
  8
Defpoints
 62
     0
100
AcDbPoint
 10
884.9186155105515
 20
632.0779087747005
 30
0.0
  0
POINT
  5
1949
330
193F
100
AcDbEntity
  8
Defpoints
 62
     0
100
AcDbPoint
 10
765.4837472740737
 20
632.0779087747006
 30
0.0
  0
ENDBLK
  5
194A
330
193F
100
AcDbEntity
  8
0
100
AcDbBlockEnd
  0
BLOCK
  5
194C
330
194B
100
AcDbEntity
  8
0
100
AcDbBlockBegin
  2
*D30
 70
     1
 10
0.0
 20
0.0
 30
0.0
  3
*D30
  1

  0
LINE
  5
194D
330
194B
100
AcDbEntity
  8
実形
 62
     0
370
    15
100
AcDbLine
 10
819.9186155105516
 20
647.0779087747005
 30
0.0
 11
702.6926939167342
 21
647.0779087747006
 31
0.0
  0
LINE
  5
194E
330
194B
100
AcDbEntity
  8
実形
 62
     0
370
    15
100
AcDbLine
 10
819.9186155105518
 20
447.0779087747005
 30
0.0
 11
702.6926939167342
 21
447.0779087747005
 31
0.0
  0
LINE
  5
194F
330
194B
100
AcDbEntity
  8
実形
 62
     0
370
    15
100
AcDbLine
 10
702.6926939167342
 20
647.0779087747006
 30
0.0
 11
702.6926939167342
 21
447.0779087747005
 31
0.0
  0
INSERT
  5
1950
330
194B
100
AcDbEntity
  8
実形
 62
     0
370
    15
100
AcDbBlockReference
  2
_DotSmall
 10
702.6926939167342
 20
647.0779087747006
 30
0.0
 41
20.0
 42
20.0
 43
20.0
 50
90.0
  0
INSERT
  5
1951
330
194B
100
AcDbEntity
  8
実形
 62
     0
370
    15
100
AcDbBlockReference
  2
_DotSmall
 10
702.6926939167342
 20
447.0779087747005
 30
0.0
 41
20.0
 42
20.0
 43
20.0
 50
270.0
  0
MTEXT
  5
1952
330
194B
100
AcDbEntity
  8
実形
 62
     0
100
AcDbMText
 10
683.9426939167341
 20
547.0779087747007
 30
0.0
 40
25.0
 41
0.0
 71
     5
 72
     1
  1
200
 11
0.0000000000000001
 21
1.0
 31
0.0
 73
     1
 44
1.0
1001
ACAD
1000
MTEXTBEGIN
1070
    73
1070
     1
1070
    44
1040
1.0
1070
    74
1070
     0
1000
MTEXTEND
  0
POINT
  5
1953
330
194B
100
AcDbEntity
  8
Defpoints
 62
     0
100
AcDbPoint
 10
884.9186155105517
 20
647.0779087747005
 30
0.0
  0
POINT
  5
1954
330
194B
100
AcDbEntity
  8
Defpoints
 62
     0
100
AcDbPoint
 10
884.9186155105519
 20
447.0779087747005
 30
0.0
  0
POINT
  5
1955
330
194B
100
AcDbEntity
  8
Defpoints
 62
     0
100
AcDbPoint
 10
702.6926939167342
 20
447.0779087747005
 30
0.0
  0
ENDBLK
  5
1956
330
194B
100
AcDbEntity
  8
0
100
AcDbBlockEnd
  0
BLOCK
  5
195F
330
1957
100
AcDbEntity
  8
0
100
AcDbBlockBegin
  2
A$C29E94953
 70
     0
 10
0.0
 20
0.0
 30
0.0
  3
A$C29E94953
  1

  0
DIMENSION
  5
1958
330
1957
100
AcDbEntity
  8
実形
100
AcDbDimension
  2
*D29
 10
-137.6087667709944
 20
-14.99999999999988
 30
0.0
 11
-168.3698013535131
 21
-24.43299381552606
 31
0.0
 12
-903.0925140450682
 22
-647.0779087747005
 32
0.0
 70
   128
 71
     5
 42
15.0
  3
ISO-25
100
AcDbAlignedDimension
 13
-18.17389853451652
 23
0.0
 33
0.0
 14
-18.17389853451652
 24
-15.0
 34
0.0
 50
90.0
100
AcDbRotatedDimension
1001
ACAD
1000
DSTYLE
1002
{
1070
    41
1040
20.0
1070
   279
1070
     2
1002
}
  0
DIMENSION
  5
1959
330
1957
100
AcDbEntity
  8
実形
100
AcDbDimension
  2
*D30
 10
-200.3998201283339
 20
-199.9999999999999
 30
0.0
 11
-219.149820128334
 21
-99.99999999999978
 31
0.0
 12
-903.0925140450682
 22
-647.0779087747005
 32
0.0
 71
     5
 42
200.0
  3
ISO-25
100
AcDbAlignedDimension
 13
-18.17389853451641
 23
0.0
 33
0.0
 14
-18.17389853451629
 24
-199.9999999999999
 34
0.0
 50
90.0
100
AcDbRotatedDimension
1001
ACAD
1000
DSTYLE
1002
{
1070
    41
1040
20.0
1070
   279
1070
     2
1002
}
  0
LINE
  5
195A
330
1957
100
AcDbEntity
  8
実形
100
AcDbLine
 10
-83.17389853451629
 20
-207.0
 30
0.0
 11
-137.6087667709943
 21
-207.0
 31
0.0
  0
LINE
  5
195B
330
1957
100
AcDbEntity
  8
実形
100
AcDbLine
 10
-137.6087667709944
 20
-199.9999999999999
 30
0.0
 11
-137.6087667709943
 21
-206.9999999999999
 31
0.0
  0
TEXT
  5
195C
330
1957
100
AcDbEntity
  8
実形
370
    18
100
AcDbText
 10
-134.5893119895718
 20
-202.6366660813255
 30
0.0
 40
6.0
  1
●
 71
     2
100
AcDbText
  0
TEXT
  5
195D
330
1957
100
AcDbEntity
  8
実形
370
    18
100
AcDbText
 10
-134.5893119895718
 20
-210.077804847002
 30
0.0
 40
6.0
  1
●
 71
     2
100
AcDbText
  0
TEXT
  5
195E
330
1957
100
AcDbEntity
  8
実形
370
    18
100
AcDbText
 10
-154.1580793616795
 20
-231.6490302194334
 30
0.0
 40
25.0
  1
7
 50
89.97509673302152
100
AcDbText
  0
ENDBLK
  5
1960
330
1957
100
AcDbEntity
  8
0
100
AcDbBlockEnd
  0
ENDSEC
  0
SECTION
  2
ENTITIES
  0
LINE
  5
9C
330
1F
100
AcDbEntity
  8
実形
100
AcDbLine
 10
111.0
 20
4.0
 30
0.0
 11
2784.0
 21
4.0
 31
0.0
  0
LINE
  5
A0
330
1F
100
AcDbEntity
  8
実形
100
AcDbLine
 10
2784.0
 20
2024.0
 30
0.0
 11
111.0
 21
2024.0
 31
0.0
  0
LINE
  5
A5
330
1F
100
AcDbEntity
  8
実形
100
AcDbLine
 10
2784.0
 20
4.0
 30
0.0
 11
2784.0
 21
2024.0
 31
0.0
  0
LINE
  5
2D8
330
1F
100
AcDbEntity
  8
実形
100
AcDbLine
 10
903.0925140450682
 20
1522.0779087747
 30
0.0
 11
903.0925140450682
 21
1122.0779087747
 31
0.0
  0
LINE
  5
2D9
330
1F
100
AcDbEntity
  8
実形
100
AcDbLine
 10
978.0925140450682
 20
1047.0779087747
 30
0.0
 11
1658.092514045068
 21
1047.0779087747
 31
0.0
  0
LINE
  5
2DA
330
1F
100
AcDbEntity
  8
実形
100
AcDbLine
 10
1733.092514045068
 20
1122.0779087747
 30
0.0
 11
1733.092514045068
 21
1522.0779087747
 31
0.0
  0
LINE
  5
2DB
330
1F
100
AcDbEntity
  8
実形
100
AcDbLine
 10
1658.092514045068
 20
1597.0779087747
 30
0.0
 11
978.0925140450682
 21
1597.0779087747
 31
0.0
  0
LINE
  5
2DD
330
1F
100
AcDbEntity
  8
実形
100
AcDbLine
 10
978.0925140450682
 20
1062.0779087747
 30
0.0
 11
1658.092514045068
 21
1062.0779087747
 31
0.0
  0
LINE
  5
2E0
330
1F
100
AcDbEntity
  8
実形
100
AcDbLine
 10
978.0925140450682
 20
1582.0779087747
 30
0.0
 11
1658.092514045068
 21
1582.0779087747
 31
0.0
  0
CIRCLE
  5
2E8
330
1F
100
AcDbEntity
  8
実形
100
AcDbCircle
 10
1068.092514045068
 20
1357.0779087747
 30
0.0
 40
90.5
  0
CIRCLE
  5
2E9
330
1F
100
AcDbEntity
  8
実形
100
AcDbCircle
 10
1068.092514045068
 20
1357.0779087747
 30
0.0
 40
79.5
  0
LINE
  5
2F1
330
1F
100
AcDbEntity
  8
実形
100
AcDbLine
 10
918.092514045068
 20
1380.136376600876
 30
0.0
 11
918.092514045068
 21
1184.019440948525
 31
0.0
  0
LINE
  5
2F2
330
1F
100
AcDbEntity
  8
実形
100
AcDbLine
 10
1718.092514045068
 20
1380.136376600876
 30
0.0
 11
1718.092514045068
 21
1184.019440948525
 31
0.0
  0
LINE
  5
2FD
330
1F
100
AcDbEntity
  8
実形
100
AcDbLine
 10
918.092514045068
 20
1442.0779087747
 30
0.0
 11
918.092514045068
 21
1122.0779087747
 31
0.0
  0
LINE
  5
2FE
330
1F
100
AcDbEntity
  8
実形
100
AcDbLine
 10
978.0925140450682
 20
1502.0779087747
 30
0.0
 11
1658.092514045068
 21
1502.0779087747
 31
0.0
  0
LINE
  5
2FF
330
1F
100
AcDbEntity
  8
実形
100
AcDbLine
 10
1718.092514045068
 20
1442.0779087747
 30
0.0
 11
1718.092514045068
 21
1122.0779087747
 31
0.0
  0
ARC
  5
300
330
1F
100
AcDbEntity
  8
実形
100
AcDbCircle
 10
978.0925140450682
 20
1442.0779087747
 30
0.0
 40
60.0
100
AcDbArc
 50
90.0
 51
180.0
  0
ARC
  5
301
330
1F
100
AcDbEntity
  8
実形
100
AcDbCircle
 10
978.0925140450682
 20
1122.0779087747
 30
0.0
 40
60.0
100
AcDbArc
 50
180.0
 51
270.0
  0
ARC
  5
302
330
1F
100
AcDbEntity
  8
実形
100
AcDbCircle
 10
1658.092514045068
 20
1122.0779087747
 30
0.0
 40
60.0
100
AcDbArc
 50
270.0
 51
0.0
  0
ARC
  5
303
330
1F
100
AcDbEntity
  8
実形
100
AcDbCircle
 10
1658.092514045068
 20
1442.0779087747
 30
0.0
 40
60.0
100
AcDbArc
 50
0.0
 51
90.0
  0
LINE
  5
306
330
1F
100
AcDbEntity
  8
実形
100
AcDbLine
 10
918.092514045068
 20
1522.0779087747
 30
0.0
 11
918.092514045068
 21
1184.019440948525
 31
0.0
  0
LINE
  5
307
330
1F
100
AcDbEntity
  8
実形
100
AcDbLine
 10
1718.092514045068
 20
1522.0779087747
 30
0.0
 11
1718.092514045068
 21
1184.019440948525
 31
0.0
  0
ARC
  5
308
330
1F
100
AcDbEntity
  8
実形
100
AcDbCircle
 10
978.0925140450682
 20
1522.0779087747
 30
0.0
 40
60.0
100
AcDbArc
 50
90.0
 51
180.0
  0
ARC
  5
309
330
1F
100
AcDbEntity
  8
実形
100
AcDbCircle
 10
1658.092514045068
 20
1522.0779087747
 30
0.0
 40
60.0
100
AcDbArc
 50
0.0
 51
90.0
  0
ARC
  5
30A
330
1F
100
AcDbEntity
  8
実形
100
AcDbCircle
 10
978.0925140450682
 20
1522.0779087747
 30
0.0
 40
75.0
100
AcDbArc
 50
90.0
 51
180.0
  0
ARC
  5
30B
330
1F
100
AcDbEntity
  8
実形
100
AcDbCircle
 10
978.0925140450682
 20
1122.0779087747
 30
0.0
 40
75.0
100
AcDbArc
 50
180.0
 51
270.0
  0
ARC
  5
30C
330
1F
100
AcDbEntity
  8
実形
100
AcDbCircle
 10
1658.092514045068
 20
1122.0779087747
 30
0.0
 40
75.0
100
AcDbArc
 50
270.0
 51
0.0
  0
ARC
  5
30D
330
1F
100
AcDbEntity
  8
実形
100
AcDbCircle
 10
1658.092514045068
 20
1522.0779087747
 30
0.0
 40
75.0
100
AcDbArc
 50
0.0
 51
90.0
  0
LINE
  5
315
330
1F
100
AcDbEntity
  8
実形
  6
ACAD_ISO08W100
 48
0.5
100
AcDbLine
 10
1068.092514045068
 20
1491.206032088039
 30
0.0
 11
1068.092514045068
 21
1202.35783932375
 31
0.0
  0
LINE
  5
316
330
1F
100
AcDbEntity
  8
実形
  6
ACAD_ISO08W100
 48
0.5
100
AcDbLine
 10
931.5242000147737
 20
1357.0779087747
 30
0.0
 11
1204.69907193278
 21
1357.0779087747
 31
0.0
  0
LINE
  5
317
330
1F
100
AcDbEntity
  8
実形
100
AcDbLine
 10
903.0925140450682
 20
647.0779087747005
 30
0.0
 11
1733.092514045068
 21
647.0779087747005
 31
0.0
  0
LINE
  5
319
330
1F
100
AcDbEntity
  8
実形
100
AcDbLine
 10
918.092514045068
 20
647.0779087747005
 30
0.0
 11
918.092514045068
 21
477.0779087747004
 31
0.0
  0
LINE
  5
31A
330
1F
100
AcDbEntity
  8
実形
100
AcDbLine
 10
948.0925140450681
 20
447.0779087747003
 30
0.0
 11
1158.592514045067
 21
447.0779087747003
 31
0.0
  0
LINE
  5
31B
330
1F
100
AcDbEntity
  8
実形
100
AcDbLine
 10
1718.092514045068
 20
487.025749784933
 30
0.0
 11
1718.092514045068
 21
647.0779087747005
 31
0.0
  0
LINE
  5
323
330
1F
100
AcDbEntity
  8
実形
100
AcDbLine
 10
1158.592514045068
 20
447.0779087747005
 30
0.0
 11
1688.877822494304
 21
457.0360300356663
 31
0.0
  0
ARC
  5
324
330
1F
100
AcDbEntity
  8
実形
100
AcDbCircle
 10
1688.092514045068
 20
487.025749784933
 30
0.0
 40
30.0
100
AcDbArc
 50
271.5
 51
0.000000000000007
  0
ARC
  5
325
330
1F
100
AcDbEntity
  8
実形
100
AcDbCircle
 10
948.0925140450681
 20
477.0779087747004
 30
0.0
 40
30.0
100
AcDbArc
 50
180.0
 51
270.0
  0
LINE
  5
326
330
1F
100
AcDbEntity
  8
実形
100
AcDbLine
 10
918.092514045068
 20
640.6779087747005
 30
0.0
 11
1718.092514045068
 21
640.6779087747005
 31
0.0
  0
LINE
  5
327
330
1F
100
AcDbEntity
  8
実形
100
AcDbLine
 10
918.092514045068
 20
632.0779087747005
 30
0.0
 11
1718.092514045068
 21
632.0779087747005
 31
0.0
  0
LINE
  5
328
330
1F
100
AcDbEntity
  8
実形
  6
ACAD_ISO08W100
100
AcDbLine
 10
1158.592514045064
 20
447.0779087747003
 30
0.0
 11
1712.221039162869
 21
447.0779087747003
 31
0.0
  0
LINE
  5
329
330
1F
100
AcDbEntity
  8
実形
  6
ACAD_ISO08W100
 48
0.5
100
AcDbLine
 10
1068.092514045068
 20
519.3254595931148
 30
0.0
 11
1068.092514045068
 21
357.3798057355016
 31
0.0
  0
LINE
  5
336
330
1F
100
AcDbEntity
  8
実形
100
AcDbLine
 10
2003.570932735587
 20
1062.0779087747
 30
0.0
 11
2014.570932735587
 21
1062.0779087747
 31
0.0
  0
LINE
  5
337
330
1F
100
AcDbEntity
  8
実形
100
AcDbLine
 10
2017.570932735587
 20
1065.0779087747
 30
0.0
 11
2017.570932735587
 21
1072.0779087747
 31
0.0
  0
LINE
  5
338
330
1F
100
AcDbEntity
  8
実形
100
AcDbLine
 10
2022.570932735587
 20
1077.0779087747
 30
0.0
 11
2168.383994470575
 21
1077.0779087747
 31
0.0
  0
LINE
  5
339
330
1F
100
AcDbEntity
  8
実形
100
AcDbLine
 10
2202.570932735587
 20
1266.5779087747
 30
0.0
 11
2202.570932735588
 21
1457.0779087747
 31
0.0
  0
LINE
  5
33A
330
1F
100
AcDbEntity
  8
実形
100
AcDbLine
 10
2172.570932735587
 20
1487.0779087747
 30
0.0
 11
2022.570932735587
 21
1487.0779087747
 31
0.0
  0
LINE
  5
33B
330
1F
100
AcDbEntity
  8
実形
100
AcDbLine
 10
2017.570932735587
 20
1492.0779087747
 30
0.0
 11
2017.570932735587
 21
1499.0779087747
 31
0.0
  0
LINE
  5
33C
330
1F
100
AcDbEntity
  8
実形
100
AcDbLine
 10
2014.570932735587
 20
1502.0779087747
 30
0.0
 11
2011.970932735587
 21
1502.0779087747
 31
0.0
  0
LINE
  5
33D
330
1F
100
AcDbEntity
  8
実形
100
AcDbLine
 10
2008.970932735587
 20
1505.0779087747
 30
0.0
 11
2008.970932735595
 21
1579.0779087747
 31
0.0
  0
LINE
  5
342
330
1F
100
AcDbEntity
  8
実形
100
AcDbLine
 10
2005.970932735595
 20
1582.0779087747
 30
0.0
 11
2003.570932735587
 21
1582.0779087747
 31
0.0
  0
LINE
  5
352
330
1F
100
AcDbEntity
  8
実形
100
AcDbLine
 10
2002.570932735587
 20
1583.0779087747
 30
0.0
 11
2002.570932735587
 21
1597.0779087747
 31
0.0
  0
LINE
  5
353
330
1F
100
AcDbEntity
  8
実形
100
AcDbLine
 10
2002.570932735587
 20
1061.0779087747
 30
0.0
 11
2002.570932735587
 21
1047.0779087747
 31
0.0
  0
ARC
  5
354
330
1F
100
AcDbEntity
  8
実形
100
AcDbCircle
 10
2003.570932735587
 20
1583.0779087747
 30
0.0
 40
1.0
100
AcDbArc
 50
180.0
 51
270.0
  0
ARC
  5
355
330
1F
100
AcDbEntity
  8
実形
100
AcDbCircle
 10
2003.570932735587
 20
1061.0779087747
 30
0.0
 40
1.0
100
AcDbArc
 50
90.0
 51
180.0
  0
ARC
  5
359
330
1F
100
AcDbEntity
  8
実形
100
AcDbCircle
 10
2011.970932735587
 20
1505.0779087747
 30
0.0
 40
3.0
100
AcDbArc
 50
180.0
 51
270.0
  0
ARC
  5
35A
330
1F
100
AcDbEntity
  8
実形
100
AcDbCircle
 10
2014.570932735587
 20
1499.0779087747
 30
0.0
 40
3.0
100
AcDbArc
 50
0.0
 51
90.00000000000234
  0
ARC
  5
35C
330
1F
100
AcDbEntity
  8
実形
100
AcDbCircle
 10
2022.570932735587
 20
1072.0779087747
 30
0.0
 40
5.0
100
AcDbArc
 50
90.0
 51
180.0
  0
ARC
  5
35D
330
1F
100
AcDbEntity
  8
実形
100
AcDbCircle
 10
2022.570932735587
 20
1492.0779087747
 30
0.0
 40
5.0
100
AcDbArc
 50
180.0
 51
270.0
  0
ARC
  5
360
330
1F
100
AcDbEntity
  8
実形
100
AcDbCircle
 10
2172.570932735587
 20
1457.0779087747
 30
0.0
 40
30.0
100
AcDbArc
 50
0.0
 51
90.0
  0
LINE
  5
361
330
1F
100
AcDbEntity
  8
実形
100
AcDbLine
 10
2202.570932735588
 20
1266.5779087747
 30
0.0
 11
2198.373714219842
 21
1106.292600325464
 31
0.0
  0
ARC
  5
362
330
1F
100
AcDbEntity
  8
実形
100
AcDbCircle
 10
2168.383994470575
 20
1107.0779087747
 30
0.0
 40
30.0
100
AcDbArc
 50
270.0
 51
358.4999999999999
  0
LINE
  5
363
330
1F
100
AcDbEntity
  8
実形
100
AcDbLine
 10
2002.570932735587
 20
1597.0779087747
 30
0.0
 11
2002.570932735587
 21
1047.0779087747
 31
0.0
  0
ARC
  5
377
330
1F
100
AcDbEntity
  8
実形
100
AcDbCircle
 10
2014.570932735587
 20
1065.0779087747
 30
0.0
 40
3.0
100
AcDbArc
 50
270.0
 51
0.0
  0
DIMENSION
  5
3E9
330
1F
100
AcDbEntity
  8
実形
100
AcDbDimension
  2
*D4
 10
1310.08066871827
 20
1487.0779087747
 30
0.0
 11
1291.33066871827
 21
1422.077908774701
 31
0.0
 70
    32
 71
     5
 42
130.0
  3
ISO-25
100
AcDbAlignedDimension
 13
1134.257276458185
 23
1357.0779087747
 33
0.0
 14
1243.092514045068
 24
1487.0779087747
 34
0.0
 50
90.0
100
AcDbRotatedDimension
  0
DIMENSION
  5
3F6
330
1F
100
AcDbEntity
  8
実形
100
AcDbDimension
  2
*D5
 10
918.092514045068
 20
1204.485142503699
 30
0.0
 11
993.092514045068
 21
1223.235142503699
 31
0.0
 70
    32
 71
     5
 42
150.0
  3
ISO-25
100
AcDbAlignedDimension
 13
1068.092514045068
 23
1277.577908774701
 33
0.0
 14
918.092514045068
 24
1266.5779087747
 34
0.0
100
AcDbRotatedDimension
  0
DIMENSION
  5
40C
330
1F
100
AcDbEntity
  8
実形
100
AcDbDimension
  2
*D6
 10
799.2968531835087
 20
1077.0779087747
 30
0.0
 11
773.3966019939253
 21
1085.507032827037
 31
0.0
 70
   160
 71
     5
 42
15.0
  3
ISO-25
100
AcDbAlignedDimension
 13
903.0925140450682
 23
1062.0779087747
 33
0.0
 14
903.0925140450682
 24
1077.0779087747
 34
0.0
 50
90.0
100
AcDbRotatedDimension
  0
DIMENSION
  5
41A
330
1F
100
AcDbEntity
  8
実形
100
AcDbDimension
  2
*D7
 10
799.2968531835087
 20
1487.0779087747
 30
0.0
 11
780.5468531835084
 21
1282.077908774701
 31
0.0
 70
    32
 71
     5
 42
410.0
  3
ISO-25
100
AcDbAlignedDimension
 13
903.0925140450682
 23
1077.0779087747
 33
0.0
 14
903.0925140450682
 24
1487.0779087747
 34
0.0
 50
90.0
100
AcDbRotatedDimension
1001
ACAD
1000
DSTYLE
1002
{
1070
   279
1070
     1
1002
}
  0
DIMENSION
  5
427
330
1F
100
AcDbEntity
  8
実形
100
AcDbDimension
  2
*D8
 10
799.2968531835087
 20
1502.0779087747
 30
0.0
 11
790.6787023661963
 21
1477.971618678417
 31
0.0
 70
   160
 71
     5
 42
15.0
  3
ISO-25
100
AcDbAlignedDimension
 13
903.0925140450682
 23
1487.0779087747
 33
0.0
 14
903.0925140450682
 24
1502.0779087747
 34
0.0
 50
90.0
100
AcDbRotatedDimension
1001
ACAD
1000
DSTYLE
1002
{
1070
   279
1070
     1
1002
}
  0
DIMENSION
  5
459
330
1F
100
AcDbEntity
  8
実形
100
AcDbDimension
  2
*D9
 10
722.8044109439515
 20
1062.0779087747
 30
0.0
 11
704.0544109439514
 21
1282.077908774701
 31
0.0
 70
    32
 71
     5
 42
440.0
  3
ISO-25
100
AcDbAlignedDimension
 13
903.0925140450682
 23
1502.0779087747
 33
0.0
 14
903.0925140450682
 24
1062.0779087747
 34
0.0
 50
90.0
100
AcDbRotatedDimension
  0
DIMENSION
  5
466
330
1F
100
AcDbEntity
  8
実形
100
AcDbDimension
  2
*D10
 10
722.8044109439515
 20
1582.0779087747
 30
0.0
 11
704.0544109439513
 21
1542.0779087747
 31
0.0
 70
    32
 71
     5
 42
80.0
  3
ISO-25
100
AcDbAlignedDimension
 13
903.0925140450682
 23
1502.0779087747
 33
0.0
 14
903.0925140450682
 24
1582.0779087747
 34
0.0
 50
90.0
100
AcDbRotatedDimension
  0
DIMENSION
  5
47C
330
1F
100
AcDbEntity
  8
実形
100
AcDbDimension
  2
*D11
 10
722.8044109439515
 20
1597.0779087747
 30
0.0
 11
733.3195012493534
 21
1624.004628055033
 31
0.0
 70
   160
 71
     5
 42
15.0
  3
ISO-25
100
AcDbAlignedDimension
 13
903.0925140450682
 23
1582.0779087747
 33
0.0
 14
903.0925140450682
 24
1597.0779087747
 34
0.0
 50
90.0
100
AcDbRotatedDimension
1001
ACAD
1000
DSTYLE
1002
{
1070
   279
1070
     1
1002
}
  0
DIMENSION
  5
492
330
1F
100
AcDbEntity
  8
実形
100
AcDbDimension
  2
*D12
 10
645.2556272337733
 20
1047.0779087747
 30
0.0
 11
626.5056272337732
 21
1322.077908774701
 31
0.0
 70
    32
 71
     5
 42
550.0
  3
ISO-25
100
AcDbAlignedDimension
 13
903.0925140450682
 23
1597.0779087747
 33
0.0
 14
903.0925140450682
 24
1047.0779087747
 34
0.0
 50
90.0
100
AcDbRotatedDimension
  0
DIMENSION
  5
4C3
330
1F
100
AcDbEntity
  8
実形
100
AcDbDimension
  2
*D13
 10
722.8044109439515
 20
1047.0779087747
 30
0.0
 11
694.8416247507557
 21
1074.518016231283
 31
0.0
 70
   160
 71
     5
 42
15.0
  3
ISO-25
100
AcDbAlignedDimension
 13
903.0925140450682
 23
1062.0779087747
 33
0.0
 14
903.0925140450682
 24
1047.0779087747
 34
0.0
 50
90.0
100
AcDbRotatedDimension
  0
DIMENSION
  5
4E5
330
1F
100
AcDbEntity
  8
実形
100
AcDbDimension
  2
*D14
 10
918.092514045068
 20
929.8545833737954
 30
0.0
 11
953.9869354323164
 21
949.402462475864
 31
0.0
 70
   160
 71
     5
 42
15.0
  3
ISO-25
100
AcDbAlignedDimension
 13
903.0925140450682
 23
1047.0779087747
 33
0.0
 14
918.092514045068
 24
1047.0779087747
 34
0.0
100
AcDbRotatedDimension
  0
DIMENSION
  5
4FD
330
1F
100
AcDbEntity
  8
実形
100
AcDbDimension
  2
*D15
 10
1718.092514045068
 20
929.8545833737954
 30
0.0
 11
1318.092514045068
 21
948.6045833737954
 31
0.0
 70
    32
 71
     5
 42
800.0
  3
ISO-25
100
AcDbAlignedDimension
 13
918.092514045068
 23
1047.0779087747
 33
0.0
 14
1718.092514045068
 24
1047.0779087747
 34
0.0
100
AcDbRotatedDimension
1001
ACAD
1000
DSTYLE
1002
{
1070
   279
1070
     1
1002
}
  0
DIMENSION
  5
50A
330
1F
100
AcDbEntity
  8
実形
100
AcDbDimension
  2
*D16
 10
1733.092514045068
 20
929.8545833737954
 30
0.0
 11
1676.459736238329
 21
929.8545833737954
 31
0.0
 70
   160
 71
     5
 42
15.0
  3
ISO-25
100
AcDbAlignedDimension
 13
1718.092514045068
 23
1047.0779087747
 33
0.0
 14
1733.092514045068
 24
1047.0779087747
 34
0.0
100
AcDbRotatedDimension
1001
ACAD
1000
DSTYLE
1002
{
1070
   279
1070
     1
1002
}
  0
DIMENSION
  5
522
330
1F
100
AcDbEntity
  8
実形
100
AcDbDimension
  2
*D17
 10
1733.092514045068
 20
855.7341681401357
 30
0.0
 11
1318.092514045068
 21
874.4841681401357
 31
0.0
 70
    33
 71
     5
 42
830.0
  3
ISO-25
100
AcDbAlignedDimension
 13
903.0925140450682
 23
1047.0779087747
 33
0.0
 14
1733.092514045068
 24
1047.0779087747
 34
0.0
  0
ARC
  5
570
330
1F
100
AcDbEntity
  8
実形
100
AcDbCircle
 10
1308.592514045064
 20
447.0779087747003
 30
0.0
 40
346.6490970545442
100
AcDbArc
 50
0.0
 51
1.500000000000023
  0
TEXT
  5
571
330
1F
100
AcDbEntity
  8
実形
100
AcDbText
 10
1635.169063654
 20
405.4516115703803
 30
0.0
 40
25.0
  1
1.5゜
 11
1635.169063654
 21
402.118278237047
 31
0.0
100
AcDbText
 73
     1
  0
DIMENSION
  5
63C
330
1F
100
AcDbEntity
  8
実形
100
AcDbDimension
  2
*D18
 10
2008.970932735588
 20
1383.68017662416
 30
0.0
 11
1965.529969435819
 21
1391.944180305505
 31
0.0
 70
   160
 71
     5
 42
6.40000000000009
  3
ISO-25
100
AcDbAlignedDimension
 13
2002.570932735587
 23
1502.0779087747
 33
0.0
 14
2008.970932735588
 24
1502.0779087747
 34
0.0
100
AcDbRotatedDimension
1001
ACAD
1000
DSTYLE
1002
{
1070
   282
1070
     1
1070
   281
1070
     1
1070
   279
1070
     2
1002
}
  0
DIMENSION
  5
66C
330
1F
100
AcDbEntity
  8
実形
100
AcDbDimension
  2
*D19
 10
2017.570932735587
 20
1383.68017662416
 30
0.0
 11
2051.709295939879
 21
1391.563352498199
 31
0.0
 70
   160
 71
     5
 42
8.599999999999909
  3
ISO-25
100
AcDbAlignedDimension
 13
2008.970932735588
 23
1502.0779087747
 33
0.0
 14
2017.570932735587
 24
1502.0779087747
 34
0.0
100
AcDbRotatedDimension
1001
ACAD
1000
DSTYLE
1002
{
1070
   282
1070
     1
1070
   281
1070
     1
1070
   279
1070
     2
1002
}
  0
DIMENSION
  5
6AA
330
1F
100
AcDbEntity
  8
実形
100
AcDbDimension
  2
*D20
 10
2017.570932735587
 20
1334.095835324805
 30
0.0
 11
1962.911386933915
 21
1334.380763936077
 31
0.0
 70
   160
 71
     5
 42
15.0
  3
ISO-25
100
AcDbAlignedDimension
 13
2002.570932735587
 23
1487.0779087747
 33
0.0
 14
2017.570932735587
 24
1487.0779087747
 34
0.0
100
AcDbRotatedDimension
1001
ACAD
1000
DSTYLE
1002
{
1070
   279
1070
     2
1002
}
  0
DIMENSION
  5
6EA
330
1F
100
AcDbEntity
  8
実形
100
AcDbDimension
  2
*D21
 10
2321.142777406976
 20
1277.577908774701
 30
0.0
 11
2300.339974750881
 21
1358.731023597767
 31
0.0
 70
   160
  1
158%%C
 71
     5
 42
159.0
  3
ISO-25
100
AcDbAlignedDimension
 13
2209.570932735587
 23
1436.5779087747
 33
0.0
 14
2209.570932735587
 24
1277.577908774701
 34
0.0
 50
90.0
100
AcDbRotatedDimension
  0
DIMENSION
  5
77B
330
1F
100
AcDbEntity
  8
実形
100
AcDbDimension
  2
*D22
 10
2149.107193969443
 20
1266.5779087747
 30
0.0
 11
2125.481938505436
 21
1359.348412269141
 31
0.0
 70
   160
  1
181%%C
 71
     5
 42
181.0
  3
ISO-25
100
AcDbAlignedDimension
 13
2256.810318558718
 23
1447.5779087747
 33
0.0
 14
2256.810318558718
 24
1266.5779087747
 34
0.0
 50
90.0
100
AcDbRotatedDimension
  0
MTEXT
  5
8A3
330
1F
100
AcDbEntity
  8
実形
100
AcDbMText
 10
1595.845902356896
 20
1546.232370282516
 30
0.0
 40
25.0
 41
32.83443361350692
 71
     9
 72
     1
  1
75R
 73
     1
 44
1.0
1001
ACAD
1000
MTEXTBEGIN
1070
    73
1070
     1
1070
    44
1040
1.0
1070
    74
1070
     0
1000
MTEXTEND
  0
LEADER
  5
8A7
330
1F
100
AcDbEntity
  8
実形
100
AcDbLeader
  3
ISO-25
 40
25.0
 41
66.66666666666666
 76
     2
 10
1685.16519717597
 20
1584.809376751466
 30
0.0
 10
1608.456703958633
 20
1560.785405812428
 30
0.0
213
0.0
223
12.5
233
0.0
1001
ACAD
1000
DSTYLE
1002
{
1070
   147
1040
6.25
1070
    77
1070
     0
1070
    41
1040
20.0
1070
   342
1005
DA
1002
}
  0
LEADER
  5
8DB
330
1F
100
AcDbEntity
  8
実形
100
AcDbLeader
  3
ISO-25
 40
66.66666666666666
 41
87.5
 76
     2
 10
1124.620825520413
 20
1085.686233766178
 30
0.0
 10
1152.764623379448
 20
1125.52512049304
 30
0.0
213
0.0
223
-12.5
233
0.0
1001
ACAD
1000
DSTYLE
1002
{
1070
   147
1040
6.25
1070
    77
1070
     0
1070
    41
1040
20.0
1070
   342
1005
DA
1002
}
  0
TEXT
  5
8DD
330
1F
100
AcDbEntity
  8
実形
100
AcDbText
 10
1163.318549660062
 20
1125.3432580787
 30
0.0
 40
25.0
  1
4600R
 11
1163.318549660062
 21
1122.009924745367
 31
0.0
100
AcDbText
 73
     1
  0
LEADER
  5
914
330
1F
100
AcDbEntity
  8
実形
100
AcDbLeader
  3
ISO-25
 40
25.0
 41
62.5
 76
     2
 10
2197.899186037203
 20
1476.06074221716
 30
0.0
 10
2254.478209913462
 20
1508.515637876426
 30
0.0
213
0.0
223
-12.5
233
0.0
1001
ACAD
1000
DSTYLE
1002
{
1070
   147
1040
6.25
1070
    77
1070
     0
1070
    41
1040
25.0
1070
   342
1005
DA
1002
}
  0
TEXT
  5
918
330
1F
100
AcDbEntity
  8
実形
100
AcDbText
 10
2264.955806001594
 20
1507.468704222991
 30
0.0
 40
25.0
  1
30R
 11
2264.955806001594
 21
1504.135370889658
 31
0.0
100
AcDbText
 73
     1
  0
CIRCLE
  5
BD6
330
1F
100
AcDbEntity
  8
実形
  6
HIDDEN2
 48
2.5
100
AcDbCircle
 10
921.1611598595219
 20
646.976610513685
 30
0.0
 40
52.44287595353882
  0
ARC
  5
BD7
330
1F
100
AcDbEntity
  8
実形
  6
Continuous
100
AcDbCircle
 10
607.6034712758501
 20
463.6352227820589
 30
0.0
 40
353.8763136327953
100
AcDbArc
 50
38.56928211716186
 51
80.6584250076038
  0
LINE
  5
BD9
330
1F
100
AcDbEntity
  8
実形
100
AcDbLine
 10
707.6677033011483
 20
817.7414862279784
 30
0.0
 11
665.0446254002856
 21
812.8184972428918
 31
0.0
  0
LINE
  5
BDA
330
1F
100
AcDbEntity
  8
実形
100
AcDbLine
 10
665.0446254002856
 20
812.8184972428918
 30
0.0
 11
703.5789501573463
 21
787.1000151942371
 31
0.0
  0
LINE
  5
BDC
330
1F
100
AcDbEntity
  8
実形
100
AcDbLine
 10
318.0054709206379
 20
885.7291359742566
 30
0.0
 11
458.0054709206378
 21
885.7291359742568
 31
0.0
  0
LINE
  5
BDD
330
1F
100
AcDbEntity
  8
実形
100
AcDbLine
 10
468.0054709206379
 20
875.7291359742568
 30
0.0
 11
468.0054709206379
 21
685.7291359742567
 31
0.0
  0
ARC
  5
BDE
330
1F
100
AcDbEntity
  8
実形
100
AcDbCircle
 10
458.0054709206378
 20
875.7291359742568
 30
0.0
 40
10.0
100
AcDbArc
 50
0.0
 51
90.0
  0
LINE
  5
BDF
330
1F
100
AcDbEntity
  8
実形
100
AcDbLine
 10
318.0054709206379
 20
875.7291359742566
 30
0.0
 11
458.0054709206378
 21
875.7291359742568
 31
0.0
  0
LINE
  5
BE0
330
1F
100
AcDbEntity
  8
実形
100
AcDbLine
 10
458.0054709206378
 20
875.7291359742568
 30
0.0
 11
458.0054709206378
 21
685.7291359742567
 31
0.0
  0
LINE
  5
BE1
330
1F
100
AcDbEntity
  8
実形
100
AcDbLine
 10
318.0054709206379
 20
885.7291359742566
 30
0.0
 11
318.0054709206379
 21
875.7291359742566
 31
0.0
  0
LINE
  5
BE2
330
1F
100
AcDbEntity
  8
実形
100
AcDbLine
 10
318.0054709206379
 20
885.7291359742566
 30
0.0
 11
595.444769161194
 21
885.7291359742566
 31
0.0
  0
LINE
  5
BE3
330
1F
100
AcDbEntity
  8
実形
100
AcDbLine
 10
498.0054709206378
 20
821.7291359742567
 30
0.0
 11
595.444769161194
 21
821.7291359742567
 31
0.0
  0
LINE
  5
BE4
330
1F
100
AcDbEntity
  8
実形
100
AcDbLine
 10
498.0054709206378
 20
735.7291359742567
 30
0.0
 11
595.444769161194
 21
735.7291359742567
 31
0.0
  0
LINE
  5
BE5
330
1F
100
AcDbEntity
  8
実形
100
AcDbLine
 10
468.0054709206379
 20
851.7291359742566
 30
0.0
 11
468.0054709206379
 21
875.7291359742568
 31
0.0
  0
ARC
  5
BE6
330
1F
100
AcDbEntity
  8
実形
100
AcDbCircle
 10
498.0054709206378
 20
851.7291359742566
 30
0.0
 40
30.0
100
AcDbArc
 50
180.0
 51
270.0
  0
LINE
  5
BE8
330
1F
100
AcDbEntity
  8
実形
100
AcDbLine
 10
468.0054709206379
 20
765.7291359742567
 30
0.0
 11
468.0054709206379
 21
851.7291359742566
 31
0.0
  0
ARC
  5
BE9
330
1F
100
AcDbEntity
  8
実形
100
AcDbCircle
 10
498.0054709206378
 20
765.7291359742567
 30
0.0
 40
30.0
100
AcDbArc
 50
180.0
 51
270.0
  0
LEADER
  5
C15
330
1F
100
AcDbEntity
  8
実形
100
AcDbLeader
  3
ISO-25
 40
25.0
 41
33.33333333333332
 76
     2
 10
467.453637365079
 20
884.7073526794911
 30
0.0
 10
501.3208495682929
 20
912.9077443778724
 30
0.0
213
0.0
223
-12.5
233
0.0
1001
ACAD
1000
DSTYLE
1002
{
1070
   147
1040
6.25
1070
    77
1070
     0
1070
    41
1040
20.0
1070
   342
1005
DA
1002
}
  0
LEADER
  5
C18
330
1F
100
AcDbEntity
  8
実形
100
AcDbLeader
  3
ISO-25
 40
25.0
 41
8.333333333333332
 76
     2
 10
483.3913632203238
 20
829.5648202090596
 30
0.0
 10
520.7864070764498
 20
848.6000813926565
 30
0.0
213
0.0
223
-12.5
233
0.0
1001
ACAD
1000
DSTYLE
1002
{
1070
   147
1040
6.25
1070
    77
1070
     0
1070
    41
1040
20.0
1070
   342
1005
DA
1002
}
  0
LEADER
  5
C1A
330
1F
100
AcDbEntity
  8
実形
100
AcDbLeader
  3
ISO-25
 40
25.0
 41
8.333333333333332
 76
     2
 10
485.5080572117312
 20
744.2586449598866
 30
0.0
 10
520.0808424126471
 20
766.8189545108162
 30
0.0
213
0.0
223
-12.5
233
0.0
1001
ACAD
1000
DSTYLE
1002
{
1070
   147
1040
6.25
1070
    77
1070
     0
1070
    41
1040
20.0
1070
   342
1005
DA
1002
}
  0
TEXT
  5
C1C
330
1F
100
AcDbEntity
  8
実形
100
AcDbText
 10
509.0820858718188
 20
907.7809616296075
 30
0.0
 40
25.0
  1
1R
 11
509.0820858718188
 21
904.4476282962742
 31
0.0
100
AcDbText
 73
     1
  0
TEXT
  5
C1D
330
1F
100
AcDbEntity
  8
実形
100
AcDbText
 10
528.5476433799758
 20
840.6532599505247
 30
0.0
 40
25.0
  1
3R
 11
528.5476433799758
 21
837.3199266171914
 31
0.0
100
AcDbText
 73
     1
  0
TEXT
  5
C1E
330
1F
100
AcDbEntity
  8
実形
100
AcDbText
 10
526.4309493885694
 20
760.2821524156182
 30
0.0
 40
25.0
  1
3R
 11
526.4309493885694
 21
756.9488190822848
 31
0.0
100
AcDbText
 73
     1
  0
LEADER
  5
C20
330
1F
100
AcDbEntity
  8
実形
100
AcDbLeader
  3
ISO-25
 40
25.0
 41
16.66666666666666
 76
     2
 10
1698.034582737302
 20
1557.812169845634
 30
0.0
 10
1652.527658221318
 20
1532.414190201784
 30
0.0
213
0.0
223
12.5
233
0.0
1001
ACAD
1000
DSTYLE
1002
{
1070
   147
1040
6.25
1070
    77
1070
     0
1070
    41
1040
20.0
1070
   342
1005
DA
1002
}
  0
LEADER
  5
C24
330
1F
100
AcDbEntity
  8
実形
100
AcDbLeader
  3
ISO-25
 40
25.0
 41
16.66666666666666
 76
     2
 10
1690.465784490324
 20
1484.501333032225
 30
0.0
 10
1622.195538564724
 20
1454.393524991538
 30
0.0
213
0.0
223
12.5
233
0.0
1001
ACAD
1000
DSTYLE
1002
{
1070
   147
1040
6.25
1070
    77
1070
     0
1070
    41
1040
20.0
1070
   342
1005
DA
1002
}
  0
LEADER
  5
C26
330
1F
100
AcDbEntity
  8
実形
100
AcDbLeader
  3
ISO-25
 40
25.0
 41
16.66666666666666
 76
     2
 10
1687.206345284932
 20
1443.240139299883
 30
0.0
 10
1649.684464808656
 20
1401.730380509489
 30
0.0
213
0.0
223
12.5
233
0.0
1001
ACAD
1000
DSTYLE
1002
{
1070
   147
1040
6.25
1070
    77
1070
     0
1070
    41
1040
20.0
1070
   342
1005
DA
1002
}
  0
LEADER
  5
C29
330
1F
100
AcDbEntity
  8
実形
100
AcDbLeader
  3
ISO-25
 40
74.99999999999999
 41
41.66666666666666
 76
     2
 10
1711.223096742024
 20
1282.171991867024
 30
0.0
 10
1651.936151316359
 20
1282.171991867024
 30
0.0
213
0.0
223
12.5
233
0.0
1001
ACAD
1000
DSTYLE
1002
{
1070
   147
1040
6.25
1070
    77
1070
     0
1070
    41
1040
20.0
1070
   342
1005
DA
1002
}
  0
TEXT
  5
C2B
330
1F
100
AcDbEntity
  8
実形
100
AcDbText
 10
1550.022436804217
 20
1436.628756116451
 30
0.0
 40
25.0
  1
60R
 72
     2
 11
1612.522436804217
 21
1433.295422783118
 31
0.0
100
AcDbText
 73
     1
  0
TEXT
  5
C2C
330
1F
100
AcDbEntity
  8
実形
100
AcDbText
 10
1570.419666355762
 20
1372.392764989538
 30
0.0
 40
25.0
  1
100R
 72
     2
 11
1645.419666355762
 21
1369.059431656205
 31
0.0
100
AcDbText
 73
     1
  0
TEXT
  5
C2D
330
1F
100
AcDbEntity
  8
実形
100
AcDbText
 10
1580.856199325203
 20
1508.580665166042
 30
0.0
 40
25.0
  1
60R
 72
     2
 11
1643.356199325203
 21
1533.580665166042
 31
0.0
100
AcDbText
 73
     3
  0
TEXT
  5
C2E
330
1F
100
AcDbEntity
  8
実形
100
AcDbText
 10
1536.396694331244
 20
1269.671991867024
 30
0.0
 40
25.0
  1
2000R
 72
     2
 11
1640.563360997911
 21
1282.171991867024
 31
0.0
100
AcDbText
 73
     2
  0
LEADER
  5
CB8
330
1F
100
AcDbEntity
  8
実形
100
AcDbLeader
  3
ISO-25
 76
     2
 10
1701.199497835027
 20
470.3801909243426
 30
0.0
 10
1658.00766728532
 20
509.3516584484651
 30
0.0
1001
ACAD
1000
DSTYLE
1002
{
1070
   147
1040
6.25
1070
    77
1070
     0
1070
    41
1040
20.0
1070
   342
1005
DA
1002
}
  0
LEADER
  5
CB9
330
1F
100
AcDbEntity
  8
実形
100
AcDbLeader
  3
ISO-25
 76
     2
 10
934.2182459878307
 20
458.879574336818
 30
0.0
 10
974.867999629162
 20
499.5116710841775
 30
0.0
1001
ACAD
1000
DSTYLE
1002
{
1070
   147
1040
6.25
1070
    77
1070
     0
1070
    41
1040
20.0
1070
   342
1005
DA
1002
}
  0
LEADER
  5
CBA
330
1F
100
AcDbEntity
  8
実形
100
AcDbLeader
  3
ISO-25
 76
     2
 10
2022.706443806729
 20
1072.89552841614
 30
0.0
 10
2057.320731179069
 20
1035.173547228066
 30
0.0
1001
ACAD
1000
DSTYLE
1002
{
1070
   147
1040
6.25
1070
    77
1070
     0
1070
    41
1040
20.0
1070
   342
1005
DA
1002
}
  0
LEADER
  5
CBD
330
1F
100
AcDbEntity
  8
実形
100
AcDbLeader
  3
ISO-25
 76
     2
 10
2013.817026868243
 20
1065.398373298435
 30
0.0
 10
1963.414593067494
 20
1101.360461761564
 30
0.0
1001
ACAD
1000
DSTYLE
1002
{
1070
   147
1040
6.25
1070
    77
1070
     0
1070
    41
1040
20.0
1070
   342
1005
DA
1002
}
  0
LEADER
  5
CBE
330
1F
100
AcDbEntity
  8
実形
100
AcDbLeader
  3
ISO-25
 76
     2
 10
2187.678702703484
 20
1090.348775030742
 30
0.0
 10
2150.023932192972
 20
1126.588127719699
 30
0.0
1001
ACAD
1000
DSTYLE
1002
{
1070
   147
1040
6.25
1070
    77
1070
     0
1070
    41
1040
20.0
1070
   342
1005
DA
1002
}
  0
TEXT
  5
CBF
330
1F
100
AcDbEntity
  8
実形
100
AcDbText
 10
2068.025148085482
 20
1124.638222893141
 30
0.0
 40
25.0
  1
30R
 11
2068.025148085482
 21
1121.304889559807
 31
0.0
100
AcDbText
 73
     1
  0
TEXT
  5
CC0
330
1F
100
AcDbEntity
  8
実形
100
AcDbText
 10
1913.984322162962
 20
1094.82751332579
 30
0.0
 40
25.0
  1
3R
 11
1913.984322162962
 21
1091.494179992457
 31
0.0
100
AcDbText
 73
     1
  0
TEXT
  5
CC1
330
1F
100
AcDbEntity
  8
実形
100
AcDbText
 10
2067.289367644432
 20
1013.685985003679
 30
0.0
 40
25.0
  1
5R
 11
2067.289367644432
 21
1010.352651670346
 31
0.0
100
AcDbText
 73
     1
  0
TEXT
  5
CC2
330
1F
100
AcDbEntity
  8
実形
100
AcDbText
 10
1586.711875611333
 20
502.8549093940594
 30
0.0
 40
25.0
  1
30R
 11
1586.711875611333
 21
499.5215760607261
 31
0.0
100
AcDbText
 73
     1
  0
TEXT
  5
CC3
330
1F
100
AcDbEntity
  8
実形
100
AcDbText
 10
983.7123512799653
 20
505.174222154576
 30
0.0
 40
25.0
  1
30R
 11
983.7123512799653
 21
501.8408888212427
 31
0.0
100
AcDbText
 73
     1
  0
TEXT
  5
DC3
330
1F
100
AcDbEntity
  8
実形
100
AcDbText
 10
191.7098177320886
 20
90.06009540427749
 30
0.0
 40
25.0
  1
※実寸には製造上の誤差が多少生ずる場合があります。シンクの穴あけ加工は現物合わせにてお願いします。
100
AcDbText
  0
DIMENSION
  5
EB5
330
1F
100
AcDbEntity
  8
実形
100
AcDbDimension
  2
*D23
 10
2002.570932735587
 20
1383.68017662416
 30
0.0
 11
2010.070932735587
 21
1383.68017662416
 31
0.0
 70
    32
  1
 
 71
     5
 42
15.0
  3
ISO-25
100
AcDbAlignedDimension
 13
2017.570932735587
 23
1502.0779087747
 33
0.0
 14
2002.570932735587
 24
1502.0779087747
 34
0.0
100
AcDbRotatedDimension
1001
ACAD
1000
DSTYLE
1002
{
1070
   279
1070
     2
1070
   343
1005
D0
1070
   173
1070
     1
1070
   344
1005
D0
1070
    41
1040
30.0
1070
   342
1005
0
1002
}
  0
CIRCLE
  5
EFC
330
1F
100
AcDbEntity
  8
実形
100
AcDbCircle
 10
2008.970932735588
 20
1383.68017662416
 30
0.0
 40
2.5
  0
HATCH
  5
F0C
330
1F
100
AcDbEntity
  8
実形
100
AcDbHatch
 10
0.0
 20
0.0
 30
0.0
210
0.0
220
0.0
230
1.0
  2
SOLID
 70
     1
 71
     0
 91
        1
 92
        7
 72
     1
 73
     1
 93
        2
 10
2011.470932735587
 20
1383.68017662416
 42
1.0
 10
2006.470932735587
 20
1383.68017662416
 42
1.0
 97
        0
 75
     0
 76
     1
 47
0.4047791916358173
 98
        1
 10
2009.009457715628
 20
1384.087744285036
  0
TEXT
  5
FFB
330
1F
100
AcDbEntity
  8
実形
100
AcDbText
 10
2086.666666666667
 20
84.0
 30
0.0
 40
35.0
  1
尺度
 72
     4
 11
2124.0
 21
101.5
 31
0.0
100
AcDbText
  0
TEXT
  5
FFC
330
1F
100
AcDbEntity
  8
実形
100
AcDbText
 10
2086.666666666667
 20
149.0
 30
0.0
 40
35.0
  1
品番
 72
     4
 11
2124.0
 21
166.5
 31
0.0
100
AcDbText
  0
LINE
  5
FFD
330
1F
100
AcDbEntity
  8
実形
100
AcDbLine
 10
2064.0
 20
69.0
 30
0.0
 11
2784.0
 21
69.0
 31
0.0
  0
LINE
  5
FFE
330
1F
100
AcDbEntity
  8
実形
100
AcDbLine
 10
2064.0
 20
199.0
 30
0.0
 11
2784.0
 21
199.0
 31
0.0
  0
LINE
  5
FFF
330
1F
100
AcDbEntity
  8
実形
100
AcDbLine
 10
2064.0
 20
134.0
 30
0.0
 11
2784.0
 21
134.0
 31
0.0
  0
LINE
  5
1000
330
1F
100
AcDbEntity
  8
実形
100
AcDbLine
 10
2064.0
 20
4.0
 30
0.0
 11
2064.0
 21
199.0
 31
0.0
  0
TEXT
  5
1001
330
1F
100
AcDbEntity
  8
実形
100
AcDbText
 10
2300.255774665348
 20
16.49999999999999
 30
0.0
 40
40.0
  1
中外交易株式会社
 72
     4
 11
2488.255774665347
 21
36.5
 31
0.0
100
AcDbText
  0
TEXT
  5
1002
330
1F
100
AcDbEntity
  8
実形
100
AcDbText
 10
2271.083333333334
 20
149.0
 30
0.0
 40
35.0
  1
PRS800-520OFL
 72
     4
 11
2484.0
 21
166.5
 31
0.0
100
AcDbText
  0
LINE
  5
1003
330
1F
100
AcDbEntity
  8
実形
100
AcDbLine
 10
2184.0
 20
69.0
 30
0.0
 11
2784.0
 21
69.0
 31
0.0
  0
LINE
  5
1004
102
{ACAD_REACTORS
330
1011
102
}
330
1F
100
AcDbEntity
  8
実形
370
     5
100
AcDbLine
 10
2175.932392278731
 20
40.53787547858519
 30
0.0
 11
2151.344243779717
 21
40.53787547858519
 31
0.0
  0
LINE
  5
1005
102
{ACAD_REACTORS
330
1011
102
}
330
1F
100
AcDbEntity
  8
実形
370
     5
100
AcDbLine
 10
2151.344243779717
 20
40.53787547858519
 30
0.0
 11
2151.344243779717
 21
30.53787547858519
 31
0.0
  0
LINE
  5
1006
102
{ACAD_REACTORS
330
1011
102
}
330
1F
100
AcDbEntity
  8
実形
370
     5
100
AcDbLine
 10
2151.344243779717
 20
30.53787547858519
 30
0.0
 11
2175.434897807045
 21
30.53787547858514
 31
0.0
  0
LINE
  5
1007
102
{ACAD_REACTORS
330
1011
102
}
330
1F
100
AcDbEntity
  8
実形
370
     5
100
AcDbLine
 10
2178.730363157308
 20
56.5
 30
0.0
 11
2178.730363157308
 21
16.5
 31
0.0
  0
LINE
  5
1008
102
{ACAD_REACTORS
330
1011
102
}
330
1F
100
AcDbEntity
  8
実形
370
     5
100
AcDbLine
 10
2178.730363157308
 20
16.5
 30
0.0
 11
2213.730363157309
 21
16.5
 31
0.0
  0
LINE
  5
1009
102
{ACAD_REACTORS
330
1011
102
}
330
1F
100
AcDbEntity
  8
実形
370
     5
100
AcDbLine
 10
2213.730363157309
 20
16.5
 30
0.0
 11
2178.730363157308
 21
36.5
 31
0.0
  0
LINE
  5
100A
102
{ACAD_REACTORS
330
1011
102
}
330
1F
100
AcDbEntity
  8
実形
370
     5
100
AcDbLine
 10
2178.730363157308
 20
36.5
 30
0.0
 11
2213.730363157309
 21
56.5
 31
0.0
  0
LINE
  5
100B
102
{ACAD_REACTORS
330
1011
102
}
330
1F
100
AcDbEntity
  8
実形
370
     5
100
AcDbLine
 10
2213.730363157309
 20
56.5
 30
0.0
 11
2178.730363157308
 21
56.5
 31
0.0
  0
LINE
  5
100C
102
{ACAD_REACTORS
330
1011
102
}
330
1F
100
AcDbEntity
  8
実形
370
     5
100
AcDbLine
 10
2244.842815927379
 20
40.53787547858519
 30
0.0
 11
2220.254667428365
 21
40.53787547858519
 31
0.0
  0
LINE
  5
100D
102
{ACAD_REACTORS
330
1011
102
}
330
1F
100
AcDbEntity
  8
実形
370
     5
100
AcDbLine
 10
2220.254667428365
 20
40.53787547858519
 30
0.0
 11
2220.254667428365
 21
30.53787547858519
 31
0.0
  0
LINE
  5
100E
102
{ACAD_REACTORS
330
1011
102
}
330
1F
100
AcDbEntity
  8
実形
370
     5
100
AcDbLine
 10
2220.254667428365
 20
30.53787547858519
 30
0.0
 11
2244.345321455693
 21
30.53787547858514
 31
0.0
  0
ARC
  5
100F
102
{ACAD_REACTORS
330
1011
102
}
330
1F
100
AcDbEntity
  8
実形
370
     5
100
AcDbCircle
 10
2156.344243779717
 20
36.5
 30
0.0
 40
20.0
100
AcDbArc
 50
11.6477236670766
 51
342.6561058784746
  0
ARC
  5
1010
102
{ACAD_REACTORS
330
1011
102
}
330
1F
100
AcDbEntity
  8
実形
370
     5
100
AcDbCircle
 10
2225.254667428365
 20
36.5
 30
0.0
 40
20.0
100
AcDbArc
 50
11.6477236670766
 51
342.6561058784746
  0
HATCH
  5
1011
330
1F
100
AcDbEntity
  8
実形
100
AcDbHatch
 10
0.0
 20
0.0
 30
0.0
210
0.0
220
0.0
230
1.0
  2
SOLID
 70
     1
 71
     1
 91
        3
 92
        1
 93
        4
 72
     2
 10
2225.254667428365
 20
36.5
 40
20.0
 50
11.6477236670766
 51
342.6561058784746
 73
     1
 72
     1
 10
2244.345321455693
 20
30.53787547858514
 11
2220.254667428365
 21
30.53787547858519
 72
     1
 10
2220.254667428365
 20
30.53787547858519
 11
2220.254667428365
 21
40.53787547858519
 72
     1
 10
2220.254667428365
 20
40.53787547858519
 11
2244.842815927379
 21
40.53787547858519
 97
        4
330
1010
330
100E
330
100D
330
100C
 92
        1
 93
        4
 72
     2
 10
2156.344243779717
 20
36.5
 40
20.0
 50
11.6477236670766
 51
342.6561058784746
 73
     1
 72
     1
 10
2175.434897807045
 20
30.53787547858514
 11
2151.344243779717
 21
30.53787547858519
 72
     1
 10
2151.344243779717
 20
30.53787547858519
 11
2151.344243779717
 21
40.53787547858519
 72
     1
 10
2151.344243779717
 20
40.53787547858519
 11
2175.932392278731
 21
40.53787547858519
 97
        4
330
100F
330
1006
330
1005
330
1004
 92
        1
 93
        5
 72
     1
 10
2213.730363157309
 20
56.5
 11
2178.730363157308
 21
56.5
 72
     1
 10
2178.730363157308
 20
56.5
 11
2178.730363157308
 21
16.5
 72
     1
 10
2178.730363157308
 20
16.5
 11
2213.730363157309
 21
16.5
 72
     1
 10
2213.730363157309
 20
16.5
 11
2178.730363157308
 21
36.5
 72
     1
 10
2178.730363157308
 20
36.5
 11
2213.730363157309
 21
56.5
 97
        5
330
100B
330
1007
330
1008
330
1009
330
100A
 75
     0
 76
     1
 98
        1
 10
-91.91153088563078
 20
0.0
  0
LINE
  5
1012
330
1F
100
AcDbEntity
  8
実形
100
AcDbLine
 10
2184.0
 20
69.0
 30
0.0
 11
2184.0
 21
199.0
 31
0.0
  0
TEXT
  5
1013
330
1F
100
AcDbEntity
  8
実形
100
AcDbText
 10
2430.916666666667
 20
84.0
 30
0.0
 40
35.0
  1
1：10
 72
     4
 11
2484.0
 21
101.5
 31
0.0
100
AcDbText
  0
LINE
  5
1014
330
1F
100
AcDbEntity
  8
実形
100
AcDbLine
 10
2784.0
 20
69.0
 30
0.0
 11
2784.0
 21
134.0
 31
0.0
  0
LINE
  5
1015
330
1F
100
AcDbEntity
  8
実形
100
AcDbLine
 10
2784.0
 20
134.0
 30
0.0
 11
2784.0
 21
199.0
 31
0.0
  0
LINE
  5
1016
330
1F
100
AcDbEntity
  8
実形
100
AcDbLine
 10
2784.0
 20
4.0
 30
0.0
 11
2784.0
 21
69.0
 31
0.0
  0
ARC
  5
12E5
330
1F
100
AcDbEntity
  8
実形
100
AcDbCircle
 10
2918.092514045068
 20
1282.0779087747
 30
0.0
 40
2000.0
100
AcDbArc
 50
177.1295622366263
 51
182.8704377633737
  0
ARC
  5
12E7
330
1F
100
AcDbEntity
  8
実形
100
AcDbCircle
 10
1318.092514045068
 20
5677.077908774701
 30
0.0
 40
4600.0
100
AcDbArc
 50
266.2078658679419
 51
273.7921341320581
  0
ARC
  5
12E8
330
1F
100
AcDbEntity
  8
実形
100
AcDbCircle
 10
1318.092514045068
 20
-3112.9220912253
 30
0.0
 40
4600.0
100
AcDbArc
 50
86.20786586794189
 51
93.79213413205809
  0
ARC
  5
12E9
330
1F
100
AcDbEntity
  8
実形
100
AcDbCircle
 10
-281.9074859549319
 20
1282.0779087747
 30
0.0
 40
2000.0
100
AcDbArc
 50
357.1295622366263
 51
2.870437763373696
  0
ARC
  5
12EA
330
1F
100
AcDbEntity
  8
実形
100
AcDbCircle
 10
1615.708637430389
 20
1377.225416719299
 30
0.0
 40
100.0
100
AcDbArc
 50
2.870437763373678
 51
86.20786586794194
  0
ARC
  5
12EB
330
1F
100
AcDbEntity
  8
実形
100
AcDbCircle
 10
1615.708637430389
 20
1186.930400830101
 30
0.0
 40
100.0
100
AcDbArc
 50
273.7921341320579
 51
357.1295622366263
  0
ARC
  5
12EC
330
1F
100
AcDbEntity
  8
実形
100
AcDbCircle
 10
1020.476390659747
 20
1186.930400830101
 30
0.0
 40
100.0
100
AcDbArc
 50
182.8704377633737
 51
266.207865867941
  0
ARC
  5
12ED
330
1F
100
AcDbEntity
  8
実形
100
AcDbCircle
 10
1020.476390659747
 20
1377.225416719299
 30
0.0
 40
100.0
100
AcDbArc
 50
93.79213413205766
 51
177.1295622366261
  0
ARC
  5
16AA
330
1F
100
AcDbEntity
  8
実形
100
AcDbCircle
 10
2005.970932735595
 20
1579.0779087747
 30
0.0
 40
3.0
100
AcDbArc
 50
359.9999999999934
 51
90.00000000000122
  0
LINE
  5
16C9
330
1F
100
AcDbEntity
  8
実形
  6
HIDDEN2
100
AcDbLine
 10
918.0705633711014
 20
1319.5779087747
 30
0.0
 11
908.539386636186
 21
1319.5779087747
 31
0.0
  0
LINE
  5
16CA
330
1F
100
AcDbEntity
  8
実形
  6
HIDDEN2
100
AcDbLine
 10
908.539386636186
 20
1244.5779087747
 30
0.0
 11
918.0705633711014
 21
1244.577908774701
 31
0.0
  0
LINE
  5
16CB
330
1F
100
AcDbEntity
  8
実形
  6
HIDDEN2
100
AcDbLine
 10
908.539386636186
 20
1319.5779087747
 30
0.0
 11
908.539386636186
 21
1244.5779087747
 31
0.0
  0
LINE
  5
16CC
330
1F
100
AcDbEntity
  8
実形
  6
ACAD_ISO08W100
 48
0.5
370
    15
100
AcDbLine
 10
1985.969622665009
 20
1282.0779087747
 30
0.0
 11
2129.172242806166
 21
1282.0779087747
 31
0.0
  0
LINE
  5
16CD
330
1F
100
AcDbEntity
  8
実形
100
AcDbLine
 10
2037.570932735587
 20
1304.5779087747
 30
0.0
 11
2037.570932735587
 21
1259.5779087747
 31
0.0
  0
LINE
  5
16CE
330
1F
100
AcDbEntity
  8
実形
100
AcDbLine
 10
2067.570932735587
 20
1259.5779087747
 30
0.0
 11
2067.570932735587
 21
1304.5779087747
 31
0.0
  0
LINE
  5
16CF
330
1F
100
AcDbEntity
  8
実形
100
AcDbLine
 10
2052.570932735587
 20
1319.5779087747
 30
0.0
 11
2052.570932735587
 21
1319.5779087747
 31
0.0
  0
ARC
  5
16D0
330
1F
100
AcDbEntity
  8
実形
100
AcDbCircle
 10
2052.570932735587
 20
1304.5779087747
 30
0.0
 40
15.0
100
AcDbArc
 50
0.0
 51
90.0
  0
ARC
  5
16D1
330
1F
100
AcDbEntity
  8
実形
100
AcDbCircle
 10
2052.570932735587
 20
1304.5779087747
 30
0.0
 40
15.0
100
AcDbArc
 50
90.0
 51
180.0
  0
LINE
  5
16D2
330
1F
100
AcDbEntity
  8
実形
100
AcDbLine
 10
2052.570932735587
 20
1244.5779087747
 30
0.0
 11
2052.570932735587
 21
1244.5779087747
 31
0.0
  0
ARC
  5
16D3
330
1F
100
AcDbEntity
  8
実形
100
AcDbCircle
 10
2052.570932735587
 20
1259.5779087747
 30
0.0
 40
15.0
100
AcDbArc
 50
270.0
 51
0.0
  0
ARC
  5
16D4
330
1F
100
AcDbEntity
  8
実形
100
AcDbCircle
 10
2052.570932735587
 20
1259.5779087747
 30
0.0
 40
15.0
100
AcDbArc
 50
180.0
 51
270.0
  0
LINE
  5
16D5
330
1F
100
AcDbEntity
  8
実形
  6
ACAD_ISO08W100
 48
0.5
370
    15
100
AcDbLine
 10
2052.570932735587
 20
1348.679218845279
 30
0.0
 11
2052.570932735587
 21
1215.476598704122
 31
0.0
  0
DIMENSION
  5
16D6
330
1F
100
AcDbEntity
  8
実形
100
AcDbDimension
  2
*D24
 10
2052.570932735587
 20
1185.301244811298
 30
0.0
 11
2027.570932735587
 21
1205.145911912493
 31
0.0
 70
   160
 71
     5
 42
50.0
  3
ISO-25
100
AcDbAlignedDimension
 13
2002.570932735587
 23
1244.5779087747
 33
0.0
 14
2052.570932735587
 24
1304.5779087747
 34
0.0
100
AcDbRotatedDimension
1001
ACAD
1000
DSTYLE
1002
{
1070
   371
1070
    18
1002
}
  0
DIMENSION
  5
177D
330
1F
100
AcDbEntity
  8
実形
100
AcDbDimension
  2
*D25
 10
765.4837472740737
 20
632.0779087747006
 30
0.0
 11
734.722712691555
 21
622.6449149591744
 31
0.0
 70
   160
 71
     5
 42
15.0
  3
ISO-25
100
AcDbAlignedDimension
 13
884.9186155105515
 23
647.0779087747005
 33
0.0
 14
884.9186155105515
 24
632.0779087747005
 34
0.0
 50
90.0
100
AcDbRotatedDimension
1001
ACAD
1000
DSTYLE
1002
{
1070
    41
1040
20.0
1070
   279
1070
     2
1002
}
  0
DIMENSION
  5
177E
330
1F
100
AcDbEntity
  8
実形
100
AcDbDimension
  2
*D26
 10
702.6926939167342
 20
447.0779087747005
 30
0.0
 11
683.9426939167341
 21
547.0779087747007
 31
0.0
 70
    32
 71
     5
 42
200.0
  3
ISO-25
100
AcDbAlignedDimension
 13
884.9186155105517
 23
647.0779087747005
 33
0.0
 14
884.9186155105519
 24
447.0779087747005
 34
0.0
 50
90.0
100
AcDbRotatedDimension
1001
ACAD
1000
DSTYLE
1002
{
1070
    41
1040
20.0
1070
   279
1070
     2
1002
}
  0
LINE
  5
177F
330
1F
100
AcDbEntity
  8
実形
100
AcDbLine
 10
819.9186155105518
 20
440.0779087747005
 30
0.0
 11
765.4837472740738
 21
440.0779087747005
 31
0.0
  0
LINE
  5
1780
330
1F
100
AcDbEntity
  8
実形
100
AcDbLine
 10
765.4837472740737
 20
447.0779087747006
 30
0.0
 11
765.4837472740738
 21
440.0779087747006
 31
0.0
  0
TEXT
  5
1781
330
1F
100
AcDbEntity
  8
実形
370
    18
100
AcDbText
 10
768.5032020554963
 20
444.441242693375
 30
0.0
 40
6.0
  1
●
 71
     2
100
AcDbText
  0
TEXT
  5
1782
330
1F
100
AcDbEntity
  8
実形
370
    18
100
AcDbText
 10
768.5032020554963
 20
437.0001039276985
 30
0.0
 40
6.0
  1
●
 71
     2
100
AcDbText
  0
TEXT
  5
1783
330
1F
100
AcDbEntity
  8
実形
370
    18
100
AcDbText
 10
748.9344346833886
 20
415.4288785552671
 30
0.0
 40
25.0
  1
7
 50
89.97509673302152
100
AcDbText
  0
DIMENSION
  5
17E6
330
1F
100
AcDbEntity
  8
実形
100
AcDbDimension
  2
*D27
 10
2017.570932735587
 20
932.8155574861776
 30
0.0
 11
2047.734012568995
 21
948.3175908169432
 31
0.0
 70
   160
 71
     5
 42
15.0
  3
ISO-25
100
AcDbAlignedDimension
 13
2002.570932735587
 23
1052.336701084655
 33
0.0
 14
2017.570932735587
 24
1052.336701084655
 34
0.0
100
AcDbRotatedDimension
1001
ACAD
1000
DSTYLE
1002
{
1070
    41
1040
20.0
1070
   279
1070
     2
1002
}
  0
DIMENSION
  5
17E7
330
1F
100
AcDbEntity
  8
実形
100
AcDbDimension
  2
*D28
 10
2202.570932735588
 20
870.0357129788262
 30
0.0
 11
2102.570932735587
 21
888.7857129788262
 31
0.0
 70
    32
 71
     5
 42
200.0
  3
ISO-25
100
AcDbAlignedDimension
 13
2002.570932735587
 23
1052.336701084655
 33
0.0
 14
2202.570932735588
 24
1052.336701084655
 34
0.0
100
AcDbRotatedDimension
1001
ACAD
1000
DSTYLE
1002
{
1070
    41
1040
20.0
1070
   279
1070
     2
1002
}
  0
LINE
  5
17E8
330
1F
100
AcDbEntity
  8
実形
100
AcDbLine
 10
2202.570932735588
 20
931.5812566962817
 30
0.0
 11
2209.570932735587
 21
931.5812566962817
 31
0.0
  0
LINE
  5
17E9
330
1F
100
AcDbEntity
  8
実形
100
AcDbLine
 10
2209.570932735587
 20
931.5812566962817
 30
0.0
 11
2209.570932735587
 21
987.336701084655
 31
0.0
  0
LINE
  5
17EA
330
1F
100
AcDbEntity
  8
実形
100
AcDbLine
 10
2202.570932735588
 20
928.6862070317406
 30
0.0
 11
2202.570932735588
 21
987.3367010846552
 31
0.0
  0
TEXT
  5
17EB
330
1F
100
AcDbEntity
  8
実形
370
    18
100
AcDbText
 10
2205.403587167908
 20
929.3794614413799
 30
0.0
 40
6.0
  1
●
 71
     2
100
AcDbText
  0
TEXT
  5
17EC
330
1F
100
AcDbEntity
  8
実形
370
    18
100
AcDbText
 10
2212.276867496488
 20
929.1712089031598
 30
0.0
 40
6.0
  1
●
 71
     2
100
AcDbText
  0
TEXT
  5
17ED
330
1F
100
AcDbEntity
  8
実形
370
    18
100
AcDbText
 10
2219.277086337749
 20
933.6619889280356
 30
0.0
 40
25.0
  1
7
100
AcDbText
  0
LINE
  5
1927
330
1F
100
AcDbEntity
  8
実形
100
AcDbLine
 10
1158.592514045068
 20
440.0779087747004
 30
0.0
 11
977.5925140450681
 21
440.0779087747005
 31
0.0
  0
LINE
  5
1928
330
1F
100
AcDbEntity
  8
実形
100
AcDbLine
 10
977.5925140450681
 20
447.0779087747005
 30
0.0
 11
977.5925140450679
 21
440.0779087747005
 31
0.0
  0
LINE
  5
1929
330
1F
100
AcDbEntity
  8
実形
100
AcDbLine
 10
1158.592514045068
 20
447.0779087747005
 30
0.0
 11
1158.592514045068
 21
440.0779087747005
 31
0.0
  0
LINE
  5
1931
330
1F
100
AcDbEntity
  8
実形
100
AcDbLine
 10
2209.570932735587
 20
1447.5779087747
 30
0.0
 11
2209.570932735587
 21
1266.577908774685
 31
0.0
  0
LINE
  5
1932
330
1F
100
AcDbEntity
  8
実形
100
AcDbLine
 10
2202.570932735588
 20
1447.5779087747
 30
0.0
 11
2209.570932735587
 21
1447.5779087747
 31
0.0
  0
LINE
  5
1933
330
1F
100
AcDbEntity
  8
実形
100
AcDbLine
 10
2202.570932735587
 20
1266.577908774683
 30
0.0
 11
2209.570932735588
 21
1266.577908774685
 31
0.0
  0
LINE
  5
19E3
330
1F
100
AcDbEntity
  8
補助
100
AcDbLine
 10
2784.0
 20
1959.0
 30
0.0
 11
2019.387286519283
 21
1959.000000000001
 31
0.0
  0
LINE
  5
19E4
330
1F
100
AcDbEntity
  8
補助
100
AcDbLine
 10
2784.0
 20
1894.0
 30
0.0
 11
2019.387286519283
 21
1894.0
 31
0.0
  0
LINE
  5
19E5
330
1F
100
AcDbEntity
  8
補助
100
AcDbLine
 10
2202.547653420927
 20
1894.0
 30
0.0
 11
2202.547653420927
 21
2024.0
 31
0.0
  0
LINE
  5
19E6
330
1F
100
AcDbEntity
  8
補助
100
AcDbLine
 10
2019.387286519283
 20
1894.0
 30
0.0
 11
2019.387286519283
 21
2024.0
 31
0.0
  0
TEXT
  5
19E7
330
1F
100
AcDbEntity
  8
補助
100
AcDbText
 10
2050.295698850121
 20
1976.328571428572
 30
0.0
 40
30.0
  1
部品名
  7
明朝
 72
     4
 11
2116.124270278692
 21
1991.5
 31
0.0
100
AcDbText
  0
TEXT
  5
19E8
330
1F
100
AcDbEntity
  8
補助
100
AcDbText
 10
2627.614285714286
 20
1976.071428571429
 30
0.0
 40
30.0
  1
厚さ
  7
明朝
 72
     4
 11
2671.5
 21
1991.5
 31
0.0
100
AcDbText
  0
LINE
  5
19E9
330
1F
100
AcDbEntity
  8
補助
100
AcDbLine
 10
2559.0
 20
1894.0
 30
0.0
 11
2559.0
 21
2024.0
 31
0.0
  0
TEXT
  5
19EA
330
1F
100
AcDbEntity
  8
補助
100
AcDbText
 10
2338.490869919937
 20
1975.947979478155
 30
0.0
 40
30.0
  1
材質
  7
明朝
 72
     4
 11
2382.376584205651
 21
1991.119408049583
 31
0.0
100
AcDbText
  0
TEXT
  5
19EB
330
1F
100
AcDbEntity
  8
実形
100
AcDbText
 10
2048.227810657788
 20
1910.557142857143
 30
0.0
 40
30.0
  1
ボウル
  7
明朝
 72
     4
 11
2114.056382086359
 21
1926.5
 31
0.0
100
AcDbText
  0
TEXT
  5
19EC
330
1F
100
AcDbEntity
  8
実形
100
AcDbText
 10
2594.700000000001
 20
1911.842857142857
 30
0.0
 40
30.0
  1
0.8ｍｍ
  7
明朝
 72
     4
 11
2671.500000000001
 21
1926.5
 31
0.0
100
AcDbText
  0
TEXT
  5
19ED
330
1F
100
AcDbEntity
  8
実形
100
AcDbText
 10
2239.074011965008
 20
1910.728571428572
 30
0.0
 40
30.0
  1
SUS304（No.4）
  7
明朝
 72
     4
 11
2392.674011965008
 21
1926.5
 31
0.0
100
AcDbText
  0
LINE
  5
19EE
330
1F
100
AcDbEntity
  8
実形
100
AcDbLine
 10
111.0
 20
2024.0
 30
0.0
 11
111.0
 21
4.0
 31
0.0
  0
VIEWPORT
  5
2E
102
{ACAD_XDICTIONARY
360
1A1A
102
}
330
1B
100
AcDbEntity
 67
     1
  8
0
100
AcDbViewport
 10
144.7270812988281
 20
101.2295806407928
 30
0.0
 40
411.6736216682419
 41
222.1517806396485
 68
     1
 69
     1
 12
144.7270812988281
 22
101.2295806407928
 13
0.0
 23
0.0
 14
10.0
 24
10.0
 15
10.0
 25
10.0
 16
0.0
 26
0.0
 36
1.0
 17
0.0
 27
0.0
 37
0.0
 42
50.0
 43
0.0
 44
0.0
 45
222.1517806396485
 50
0.0
 51
0.0
 72
   100
 90
    32800
  1

281
     0
 71
     1
 74
     0
110
0.0
120
0.0
130
0.0
111
1.0
121
0.0
131
0.0
112
0.0
122
1.0
132
0.0
 79
     0
146
0.0
  0
VIEWPORT
  5
30
102
{ACAD_XDICTIONARY
360
1A1C
102
}
330
1B
100
AcDbEntity
 67
     1
  8
0
100
AcDbViewport
 10
139.2237563133239
 20
101.2295821905136
 30
0.0
 40
222.7580101013184
 41
161.9673315048218
 68
     2
 69
     2
 12
210.0
 22
148.5
 13
0.0
 23
0.0
 14
10.0
 24
10.0
 15
10.0
 25
10.0
 16
0.0
 26
0.0
 36
1.0
 17
0.0
 27
0.0
 37
0.0
 42
50.0
 43
0.0
 44
0.0
 45
309.0686705647124
 50
0.0
 51
0.0
 72
   100
 90
    32864
  1

281
     0
 71
     1
 74
     0
110
0.0
120
0.0
130
0.0
111
1.0
121
0.0
131
0.0
112
0.0
122
1.0
132
0.0
 79
     0
146
0.0
  0
ENDSEC
  0
SECTION
  2
OBJECTS
  0
DICTIONARY
  5
C
330
0
100
AcDbDictionary
281
     1
  3
ACAD_COLOR
350
171C
  3
ACAD_GROUP
350
D
  3
ACAD_LAYOUT
350
1A
  3
ACAD_MATERIAL
350
171B
  3
ACAD_MLINESTYLE
350
17
  3
ACAD_PLOTSETTINGS
350
19
  3
ACAD_PLOTSTYLENAME
350
E
  3
ACAD_TABLESTYLE
350
171D
  3
AcadDim
350
CBC
  3
ACDBHEADERROUNDTRIPXREC
350
1A13
  3
AcDbVariableDictionary
350
EFD
  0
DICTIONARY
  5
1738
330
2
100
AcDbDictionary
280
     1
281
     1
  3
ACAD_LAYERFILTERS
360
173A
  3
ACAD_LAYERSTATES
360
176F
  3
ACLYDICTIONARY
360
1739
  0
DICTIONARY
  5
19EF
330
1F
100
AcDbDictionary
280
     1
281
     1
  3
ACAD_SORTENTS
360
19F0
  0
DICTIONARY
  5
1A1A
330
2E
100
AcDbDictionary
280
     1
281
     1
  3
ACAD_XREC_ROUNDTRIP
360
1A1B
  0
DICTIONARY
  5
1A1C
330
30
100
AcDbDictionary
280
     1
281
     1
  3
ACAD_XREC_ROUNDTRIP
360
1A1D
  0
DICTIONARY
  5
171C
102
{ACAD_REACTORS
330
C
102
}
330
C
100
AcDbDictionary
281
     1
  0
DICTIONARY
  5
D
102
{ACAD_REACTORS
330
C
102
}
330
C
100
AcDbDictionary
281
     1
  0
DICTIONARY
  5
1A
102
{ACAD_REACTORS
330
C
102
}
330
C
100
AcDbDictionary
281
     1
  3
Model
350
22
  3
ﾚｲｱｳﾄ1
350
1E
  3
ﾚｲｱｳﾄ2
350
26
  0
DICTIONARY
  5
171B
102
{ACAD_REACTORS
330
C
102
}
330
C
100
AcDbDictionary
281
     1
  0
DICTIONARY
  5
17
102
{ACAD_REACTORS
330
C
102
}
330
C
100
AcDbDictionary
281
     1
  3
Standard
350
18
  0
DICTIONARY
  5
19
102
{ACAD_REACTORS
330
C
102
}
330
C
100
AcDbDictionary
281
     1
  0
ACDBDICTIONARYWDFLT
  5
E
102
{ACAD_REACTORS
330
C
102
}
330
C
100
AcDbDictionary
281
     1
  3
Normal
350
F
100
AcDbDictionaryWithDefault
340
F
  0
DICTIONARY
  5
171D
102
{ACAD_REACTORS
330
C
102
}
330
C
100
AcDbDictionary
281
     1
  3
Standard
350
171E
  0
XRECORD
  5
CBC
102
{ACAD_REACTORS
330
C
102
}
330
C
100
AcDbXrecord
280
     1
 90
   990106
  3

 60
     0
 61
     0
 62
     1
 63
     3
 64
     0
 65
     0
 66
     0
 67
     3
 68
     1
 69
     0
 70
     0
 71
     0
 72
     0
 40
30.0
170
     0
  0
DICTIONARY
  5
1A13
102
{ACAD_REACTORS
330
C
102
}
330
C
100
AcDbDictionary
281
     1
  0
DICTIONARY
  5
EFD
102
{ACAD_REACTORS
330
C
102
}
330
C
100
AcDbDictionary
281
     1
  3
CTABLESTYLE
350
1724
  3
DIMASSOC
350
1A10
  3
PROJECTNAME
350
1A11
  3
SORTENTS
350
EFE
  0
DICTIONARY
  5
173A
102
{ACAD_REACTORS
330
1738
102
}
330
1738
100
AcDbDictionary
281
     1
  0
DICTIONARY
  5
176F
102
{ACAD_REACTORS
330
1738
102
}
330
1738
100
AcDbDictionary
281
     1
  0
DICTIONARY
  5
1739
102
{ACAD_REACTORS
330
1738
102
}
330
1738
100
AcDbDictionary
281
     1
1001
ACAD
1000
<All
  0
SORTENTSTABLE
  5
19F0
102
{ACAD_REACTORS
330
19EF
102
}
330
19EF
100
AcDbSortentsTable
330
1F
331
1927
  5
1928
331
A5
  5
2D8
331
352
  5
353
331
17E9
  5
17EA
331
C2D
  5
C2E
331
F0C
  5
FFB
331
31B
  5
323
331
35A
  5
35C
331
16CB
  5
16CC
331
BD6
  5
BD7
331
CBD
  5
CBE
331
362
  5
363
331
323
  5
324
331
16D3
  5
16D4
331
FFC
  5
FFD
331
BDE
  5
BDF
331
1782
  5
1783
331
BE6
  5
BE8
331
1004
  5
1005
331
19E6
  5
19E7
331
19EE
  5
A0
331
100C
  5
100D
331
459
  5
466
331
1014
  5
1015
331
8A7
  5
8DB
331
EB5
  5
EFC
331
33B
  5
33C
331
C1E
  5
C20
331
30C
  5
30D
331
12EC
  5
12ED
331
C26
  5
C29
331
41A
  5
427
331
353
  5
354
331
C2E
  5
CB8
331
17EA
  5
17EB
331
2DD
  5
2E0
331
CBE
  5
CBF
331
BD7
  5
BD9
331
16CC
  5
16CD
331
324
  5
325
331
363
  5
377
331
16D4
  5
16D5
331
BDF
  5
BE0
331
FFD
  5
FFE
331
1783
  5
17E6
331
1005
  5
1006
331
1928
  5
1929
331
19E7
  5
19E8
331
100D
  5
100E
331
2FD
  5
2FE
331
1015
  5
1016
331
33C
  5
33D
331
12E5
  5
12E7
331
30D
  5
315
331
12ED
  5
16AA
331
918
  5
BD6
331
315
  5
316
331
354
  5
355
331
17EB
  5
17EC
331
570
  5
571
331
35C
  5
35D
331
16CD
  5
16CE
331
CBF
  5
CC0
331
325
  5
326
331
16D5
  5
16D6
331
FFE
  5
FFF
331
BE0
  5
BE1
331
492
  5
4C3
331
1006
  5
1007
331
1929
  5
1931
331
1931
  5
1932
331
19E8
  5
19E9
331
BE8
  5
BE9
331
100E
  5
100F
331
2FE
  5
2FF
331
C18
  5
C1A
331
1016
  5
12E5
331
306
  5
307
331
33D
  5
342
331
C20
  5
C24
331
40C
  5
41A
331
A0
  5
A5
331
355
  5
359
331
316
  5
317
331
CB8
  5
CB9
331
17EC
  5
17ED
331
35D
  5
360
331
571
  5
63C
331
CC0
  5
CC1
331
BD9
  5
BDA
331
16CE
  5
16CF
331
326
  5
327
331
177D
  5
177E
331
16D6
  5
177D
331
BE1
  5
BE2
331
FFF
  5
1000
331
1007
  5
1008
331
1932
  5
1933
331
19E9
  5
19EA
331
BE9
  5
C15
331
50A
  5
522
331
100F
  5
1010
331
4C3
  5
4E5
331
336
  5
337
331
2FF
  5
300
331
307
  5
308
331
12E7
  5
12E8
331
522
  5
570
331
C29
  5
C2B
331
47C
  5
492
331
317
  5
319
331
2D8
  5
2D9
331
17ED
  5
1927
331
CB9
  5
CBA
331
2E0
  5
2E8
331
16CF
  5
16D0
331
BDA
  5
BDC
331
CC1
  5
CC2
331
2E8
  5
2E9
331
327
  5
328
331
1000
  5
1001
331
BE2
  5
BE3
331
177E
  5
177F
331
1933
  5
19E3
331
19EA
  5
19EB
331
1008
  5
1009
331
1010
  5
1011
331
8A3
  5
8A7
331
337
  5
338
331
300
  5
301
331
3F6
  5
40C
331
C1A
  5
C1C
331
8DB
  5
8DD
331
6AA
  5
6EA
331
308
  5
309
331
12E8
  5
12E9
331
17E6
  5
17E7
331
2D9
  5
2DA
331
6EA
  5
77B
331
CBA
  5
CBD
331
CC2
  5
CC3
331
16D0
  5
16D1
331
2E9
  5
2F1
331
177F
  5
1780
331
BE3
  5
BE4
331
1001
  5
1002
331
377
  5
3E9
331
19E3
  5
19E4
331
19EB
  5
19EC
331
2F1
  5
2F2
331
328
  5
329
331
1009
  5
100A
331
1011
  5
1012
331
338
  5
339
331
301
  5
302
331
466
  5
47C
331
309
  5
30A
331
12E9
  5
12EA
331
914
  5
918
331
17E7
  5
17E8
331
C2B
  5
C2C
331
319
  5
31A
331
4E5
  5
4FD
331
2DA
  5
2DB
331
16C9
  5
16CA
331
427
  5
459
331
360
  5
361
331
16D1
  5
16D2
331
CC3
  5
DC3
331
BDC
  5
BDD
331
77B
  5
8A3
331
4FD
  5
50A
331
63C
  5
66C
331
1002
  5
1003
331
BE4
  5
BE5
331
1780
  5
1781
331
19E4
  5
19E5
331
19EC
  5
19ED
331
329
  5
336
331
2F2
  5
2FD
331
DC3
  5
EB5
331
100A
  5
100B
331
66C
  5
6AA
331
1012
  5
1013
331
302
  5
303
331
339
  5
33A
331
C1C
  5
C1D
331
8DD
  5
914
331
30A
  5
30B
331
12EA
  5
12EB
331
C24
  5
C26
331
9C
  5
9C
331
16AA
  5
16C9
331
C2C
  5
C2D
331
17E8
  5
17E9
331
359
  5
35A
331
31A
  5
31B
331
2DB
  5
2DD
331
16CA
  5
16CB
331
361
  5
362
331
16D2
  5
16D3
331
BDD
  5
BDE
331
FFB
  5
FFC
331
1781
  5
1782
331
BE5
  5
BE6
331
1003
  5
1004
331
19E5
  5
19E6
331
19ED
  5
19EE
331
3E9
  5
3F6
331
100B
  5
100C
331
1013
  5
1014
331
C15
  5
C18
331
33A
  5
33B
331
303
  5
306
331
C1D
  5
C1E
331
342
  5
352
331
30B
  5
30C
331
12EB
  5
12EC
331
EFC
  5
F0C
  0
XRECORD
  5
1A1B
102
{ACAD_REACTORS
330
1A1A
102
}
330
1A1A
100
AcDbXrecord
280
     1
102
SHADEPLOT
 70
     0
  0
XRECORD
  5
1A1D
102
{ACAD_REACTORS
330
1A1C
102
}
330
1A1C
100
AcDbXrecord
280
     1
102
SHADEPLOT
 70
     0
  0
LAYOUT
  5
22
102
{ACAD_XDICTIONARY
360
1A16
102
}
102
{ACAD_REACTORS
330
1A
102
}
330
1A
100
AcDbPlotSettings
  1

  2
EPSON PM-800C
  4
A4
  6

 40
3.757083177566528
 41
14.7637300491333
 42
3.757080078125
 43
3.757080078125
 44
209.9733276367187
 45
296.9683227539062
 46
0.0
 47
0.0
 48
0.0
 49
0.0
140
0.0
141
0.0
142
1.0
143
10.0
 70
 11952
 72
     1
 73
     1
 74
     2
  7

 75
    20
147
0.1
148
0.0
149
0.0
100
AcDbLayout
  1
Model
 70
     1
 71
     0
 10
0.0
 20
0.0
 11
12.0
 21
9.0
 12
0.0
 22
0.0
 32
0.0
 14
0.0
 24
0.0
 34
0.0
 15
0.0
 25
0.0
 35
0.0
146
0.0
 13
0.0
 23
0.0
 33
0.0
 16
1.0
 26
0.0
 36
0.0
 17
0.0
 27
1.0
 37
0.0
 76
     0
330
1F
  0
LAYOUT
  5
1E
102
{ACAD_XDICTIONARY
360
1A14
102
}
102
{ACAD_REACTORS
330
1A
102
}
330
1A
100
AcDbPlotSettings
  1

  2
EPSON PM-800C
  4
A4
  6

 40
3.757083177566528
 41
14.7637300491333
 42
3.757080078125
 43
3.757080078125
 44
209.9733276367187
 45
296.9683227539062
 46
0.0
 47
0.0
 48
0.0
 49
0.0
140
0.0
141
0.0
142
1.0
143
1.0
 70
   688
 72
     1
 73
     1
 74
     5
  7

 75
    16
147
1.0
148
0.0
149
0.0
100
AcDbLayout
  1
ﾚｲｱｳﾄ1
 70
     1
 71
     1
 10
-3.757080078125
 20
-3.757083177566528
 11
293.2112426757813
 21
206.2162444591522
 12
0.0
 22
0.0
 32
0.0
 14
27.8447512626648
 24
20.24591643810271
 34
0.0
 15
250.6027613639831
 25
182.2132479429245
 35
0.0
146
0.0
 13
0.0
 23
0.0
 33
0.0
 16
1.0
 26
0.0
 36
0.0
 17
0.0
 27
1.0
 37
0.0
 76
     0
330
1B
331
2E
  0
LAYOUT
  5
26
102
{ACAD_XDICTIONARY
360
1A18
102
}
102
{ACAD_REACTORS
330
1A
102
}
330
1A
100
AcDbPlotSettings
  1

  2
EPSON PM-800C
  4

  6

 40
0.0
 41
0.0
 42
0.0
 43
0.0
 44
0.0
 45
0.0
 46
0.0
 47
0.0
 48
0.0
 49
0.0
140
0.0
141
0.0
142
1.0
143
1.0
 70
   688
 72
     0
 73
     0
 74
     5
  7

 75
    16
147
1.0
148
0.0
149
0.0
100
AcDbLayout
  1
ﾚｲｱｳﾄ2
 70
     1
 71
     2
 10
0.0
 20
0.0
 11
12.0
 21
9.0
 12
0.0
 22
0.0
 32
0.0
 14
0.0
 24
0.0
 34
0.0
 15
0.0
 25
0.0
 35
0.0
146
0.0
 13
0.0
 23
0.0
 33
0.0
 16
1.0
 26
0.0
 36
0.0
 17
0.0
 27
1.0
 37
0.0
 76
     0
330
23
  0
MLINESTYLE
  5
18
102
{ACAD_REACTORS
330
17
102
}
330
17
100
AcDbMlineStyle
  2
STANDARD
 70
     0
  3

 62
   256
 51
90.0
 52
90.0
 71
     2
 49
0.5
 62
   256
  6
BYLAYER
 49
-0.5
 62
   256
  6
BYLAYER
  0
ACDBPLACEHOLDER
  5
F
102
{ACAD_REACTORS
330
E
102
}
330
E
  0
TABLESTYLE
  5
171E
102
{ACAD_REACTORS
330
171D
102
}
330
171D
100
AcDbTableStyle
  3
Standard
 70
     0
 71
     0
 40
1.5
 41
1.5
280
     0
281
     0
  7
Standard
140
4.5
170
     2
 62
     0
 63
     7
283
     0
274
    -2
284
     1
 64
     0
275
    -2
285
     1
 65
     0
276
    -2
286
     1
 66
     0
277
    -2
287
     1
 67
     0
278
    -2
288
     1
 68
     0
279
    -2
289
     1
 69
     0
  7
Standard
140
6.0
170
     5
 62
     0
 63
     7
283
     0
274
    -2
284
     1
 64
     0
275
    -2
285
     1
 65
     0
276
    -2
286
     1
 66
     0
277
    -2
287
     1
 67
     0
278
    -2
288
     1
 68
     0
279
    -2
289
     1
 69
     0
  7
Standard
140
4.5
170
     5
 62
     0
 63
     7
283
     0
274
    -2
284
     1
 64
     0
275
    -2
285
     1
 65
     0
276
    -2
286
     1
 66
     0
277
    -2
287
     1
 67
     0
278
    -2
288
     1
 68
     0
279
    -2
289
     1
 69
     0
  0
DICTIONARYVAR
  5
1724
102
{ACAD_REACTORS
330
EFD
102
}
330
EFD
100
DictionaryVariables
280
     0
  1
STANDARD
  0
DICTIONARYVAR
  5
1A10
102
{ACAD_REACTORS
330
EFD
102
}
330
EFD
100
DictionaryVariables
280
     0
  1
1
  0
DICTIONARYVAR
  5
1A11
102
{ACAD_REACTORS
330
EFD
102
}
330
EFD
100
DictionaryVariables
280
     0
  1

  0
DICTIONARYVAR
  5
EFE
102
{ACAD_REACTORS
330
EFD
102
}
330
EFD
100
DictionaryVariables
280
     0
  1
96
  0
DICTIONARY
  5
1A16
330
22
100
AcDbDictionary
280
     1
281
     1
  3
ACAD_XREC_ROUNDTRIP
360
1A17
  0
DICTIONARY
  5
1A14
330
1E
100
AcDbDictionary
280
     1
281
     1
  3
ACAD_XREC_ROUNDTRIP
360
1A15
  0
DICTIONARY
  5
1A18
330
26
100
AcDbDictionary
280
     1
281
     1
  3
ACAD_XREC_ROUNDTRIP
360
1A19
  0
XRECORD
  5
1A17
102
{ACAD_REACTORS
330
1A16
102
}
330
1A16
100
AcDbXrecord
280
     1
102
SHADEPLOT
 70
     0
102
SHADEPLOTRESLEVEL
 70
     2
102
SHADEPLOTCUSTOMDPI
 70
   300
  0
XRECORD
  5
1A15
102
{ACAD_REACTORS
330
1A14
102
}
330
1A14
100
AcDbXrecord
280
     1
102
SHADEPLOT
 70
     0
102
SHADEPLOTRESLEVEL
 70
     2
102
SHADEPLOTCUSTOMDPI
 70
   300
  0
XRECORD
  5
1A19
102
{ACAD_REACTORS
330
1A18
102
}
330
1A18
100
AcDbXrecord
280
     1
102
SHADEPLOT
 70
     0
102
SHADEPLOTRESLEVEL
 70
     2
102
SHADEPLOTCUSTOMDPI
 70
   300
  0
ENDSEC
  0
EOF
