  0
SECTION
  2
HEADER
  9
$ACADVER
  1
AC1015
  9
$ACADMAINTVER
 70
    20
  9
$DWGCODEPAGE
  3
ANSI_932
  9
$INSBASE
 10
0.0
 20
0.0
 30
0.0
  9
$EXTMIN
 10
111.0
 20
4.0
 30
0.0
  9
$EXTMAX
 10
2784.0
 20
2024.0
 30
0.0
  9
$LIMMIN
 10
0.0
 20
0.0
  9
$LIMMAX
 10
29700.0
 20
21000.0
  9
$ORTHOMODE
 70
     1
  9
$REGENMODE
 70
     1
  9
$FILLMODE
 70
     1
  9
$QTEXTMODE
 70
     0
  9
$MIRRTEXT
 70
     1
  9
$LTSCALE
 40
4.0
  9
$ATTMODE
 70
     1
  9
$TEXTSIZE
 40
35.0
  9
$TRACEWID
 40
1.0
  9
$TEXTSTYLE
  7
Standard
  9
$CLAYER
  8
実形
  9
$CELTYPE
  6
ByLayer
  9
$CECOLOR
 62
   256
  9
$CELTSCALE
 40
1.0
  9
$DISPSILH
 70
     0
  9
$DIMSCALE
 40
1.0
  9
$DIMASZ
 40
35.0
  9
$DIMEXO
 40
65.0
  9
$DIMDLI
 40
3.75
  9
$DIMRND
 40
0.0
  9
$DIMDLE
 40
0.0
  9
$DIMEXE
 40
0.0
  9
$DIMTP
 40
0.0
  9
$DIMTM
 40
0.0
  9
$DIMTXT
 40
25.0
  9
$DIMCEN
 40
2.5
  9
$DIMTSZ
 40
0.0
  9
$DIMTOL
 70
     0
  9
$DIMLIM
 70
     0
  9
$DIMTIH
 70
     0
  9
$DIMTOH
 70
     0
  9
$DIMSE1
 70
     0
  9
$DIMSE2
 70
     0
  9
$DIMTAD
 70
     1
  9
$DIMZIN
 70
     8
  9
$DIMBLK
  1
DotSmall
  9
$DIMASO
 70
     1
  9
$DIMSHO
 70
     1
  9
$DIMPOST
  1

  9
$DIMAPOST
  1

  9
$DIMALT
 70
     0
  9
$DIMALTD
 70
     3
  9
$DIMALTF
 40
0.03937007874016
  9
$DIMLFAC
 40
1.0
  9
$DIMTOFL
 70
     1
  9
$DIMTVP
 40
0.0
  9
$DIMTIX
 70
     0
  9
$DIMSOXD
 70
     0
  9
$DIMSAH
 70
     0
  9
$DIMBLK1
  1

  9
$DIMBLK2
  1

  9
$DIMSTYLE
  2
ISO-25
  9
$DIMCLRD
 70
     0
  9
$DIMCLRE
 70
     0
  9
$DIMCLRT
 70
     0
  9
$DIMTFAC
 40
1.0
  9
$DIMGAP
 40
6.25
  9
$DIMJUST
 70
     0
  9
$DIMSD1
 70
     0
  9
$DIMSD2
 70
     0
  9
$DIMTOLJ
 70
     0
  9
$DIMTZIN
 70
     8
  9
$DIMALTZ
 70
     0
  9
$DIMALTTZ
 70
     0
  9
$DIMUPT
 70
     0
  9
$DIMDEC
 70
     2
  9
$DIMTDEC
 70
     2
  9
$DIMALTU
 70
     2
  9
$DIMALTTD
 70
     3
  9
$DIMTXSTY
  7
Standard
  9
$DIMAUNIT
 70
     0
  9
$DIMADEC
 70
     0
  9
$DIMALTRND
 40
0.0
  9
$DIMAZIN
 70
     0
  9
$DIMDSEP
 70
    46
  9
$DIMATFIT
 70
     2
  9
$DIMFRAC
 70
     0
  9
$DIMLDRBLK
  1
Open30
  9
$DIMLUNIT
 70
     2
  9
$DIMLWD
 70
    15
  9
$DIMLWE
 70
    15
  9
$DIMTMOVE
 70
     2
  9
$LUNITS
 70
     2
  9
$LUPREC
 70
     2
  9
$SKETCHINC
 40
1.0
  9
$FILLETRAD
 40
3.0
  9
$AUNITS
 70
     0
  9
$AUPREC
 70
     0
  9
$MENU
  1
.
  9
$ELEVATION
 40
0.0
  9
$PELEVATION
 40
0.0
  9
$THICKNESS
 40
0.0
  9
$LIMCHECK
 70
     1
  9
$CHAMFERA
 40
10.0
  9
$CHAMFERB
 40
10.0
  9
$CHAMFERC
 40
20.0
  9
$CHAMFERD
 40
0.0
  9
$SKPOLY
 70
     0
  9
$TDCREATE
 40
2451673.575802199
  9
$TDUCREATE
 40
2451673.200802199
  9
$TDUPDATE
 40
2458807.462092315
  9
$TDUUPDATE
 40
2458807.087092315
  9
$TDINDWG
 40
0.7420924884
  9
$TDUSRTIMER
 40
0.7420917940
  9
$USRTIMER
 70
     1
  9
$ANGBASE
 50
0.0
  9
$ANGDIR
 70
     0
  9
$PDMODE
 70
     0
  9
$PDSIZE
 40
0.0
  9
$PLINEWID
 40
0.0
  9
$SPLFRAME
 70
     0
  9
$SPLINETYPE
 70
     6
  9
$SPLINESEGS
 70
     8
  9
$HANDSEED
  5
1A9A
  9
$SURFTAB1
 70
     6
  9
$SURFTAB2
 70
     6
  9
$SURFTYPE
 70
     6
  9
$SURFU
 70
     6
  9
$SURFV
 70
     6
  9
$UCSBASE
  2

  9
$UCSNAME
  2

  9
$UCSORG
 10
0.0
 20
0.0
 30
0.0
  9
$UCSXDIR
 10
1.0
 20
0.0
 30
0.0
  9
$UCSYDIR
 10
0.0
 20
1.0
 30
0.0
  9
$UCSORTHOREF
  2

  9
$UCSORTHOVIEW
 70
     0
  9
$UCSORGTOP
 10
0.0
 20
0.0
 30
0.0
  9
$UCSORGBOTTOM
 10
0.0
 20
0.0
 30
0.0
  9
$UCSORGLEFT
 10
0.0
 20
0.0
 30
0.0
  9
$UCSORGRIGHT
 10
0.0
 20
0.0
 30
0.0
  9
$UCSORGFRONT
 10
0.0
 20
0.0
 30
0.0
  9
$UCSORGBACK
 10
0.0
 20
0.0
 30
0.0
  9
$PUCSBASE
  2

  9
$PUCSNAME
  2

  9
$PUCSORG
 10
0.0
 20
0.0
 30
0.0
  9
$PUCSXDIR
 10
1.0
 20
0.0
 30
0.0
  9
$PUCSYDIR
 10
0.0
 20
1.0
 30
0.0
  9
$PUCSORTHOREF
  2

  9
$PUCSORTHOVIEW
 70
     0
  9
$PUCSORGTOP
 10
0.0
 20
0.0
 30
0.0
  9
$PUCSORGBOTTOM
 10
0.0
 20
0.0
 30
0.0
  9
$PUCSORGLEFT
 10
0.0
 20
0.0
 30
0.0
  9
$PUCSORGRIGHT
 10
0.0
 20
0.0
 30
0.0
  9
$PUCSORGFRONT
 10
0.0
 20
0.0
 30
0.0
  9
$PUCSORGBACK
 10
0.0
 20
0.0
 30
0.0
  9
$USERI1
 70
     0
  9
$USERI2
 70
     0
  9
$USERI3
 70
     0
  9
$USERI4
 70
     0
  9
$USERI5
 70
     0
  9
$USERR1
 40
0.0
  9
$USERR2
 40
0.0
  9
$USERR3
 40
0.0
  9
$USERR4
 40
0.0
  9
$USERR5
 40
0.0
  9
$WORLDVIEW
 70
     1
  9
$SHADEDGE
 70
     3
  9
$SHADEDIF
 70
    70
  9
$TILEMODE
 70
     1
  9
$MAXACTVP
 70
    64
  9
$PINSBASE
 10
0.0
 20
0.0
 30
0.0
  9
$PLIMCHECK
 70
     0
  9
$PEXTMIN
 10
27.8447512626648
 20
20.24591643810271
 30
0.0
  9
$PEXTMAX
 10
250.6027613639831
 20
182.2132479429245
 30
0.0
  9
$PLIMMIN
 10
-3.757080078125
 20
-3.757083177566528
  9
$PLIMMAX
 10
293.2112426757813
 20
206.2162444591522
  9
$UNITMODE
 70
     0
  9
$VISRETAIN
 70
     1
  9
$PLINEGEN
 70
     0
  9
$PSLTSCALE
 70
     1
  9
$TREEDEPTH
 70
  3020
  9
$CMLSTYLE
  2
Standard
  9
$CMLJUST
 70
     0
  9
$CMLSCALE
 40
20.0
  9
$PROXYGRAPHICS
 70
     1
  9
$MEASUREMENT
 70
     1
  9
$CELWEIGHT
370
    -1
  9
$ENDCAPS
280
     0
  9
$JOINSTYLE
280
     0
  9
$LWDISPLAY
290
     0
  9
$INSUNITS
 70
     4
  9
$HYPERLINKBASE
  1

  9
$STYLESHEET
  1

  9
$XEDIT
290
     1
  9
$CEPSNTYPE
380
     0
  9
$PSTYLEMODE
290
     1
  9
$FINGERPRINTGUID
  2
{C8EA1F16-24C9-11D4-9416-CE0A3B32152F}
  9
$VERSIONGUID
  2
{99B3446F-B94A-48CA-80A1-D7B13CED9B32}
  9
$EXTNAMES
290
     1
  9
$PSVPSCALE
 40
0.0
  9
$OLESTARTUP
290
     0
  0
ENDSEC
  0
SECTION
  2
CLASSES
  0
CLASS
  1
ACDBDICTIONARYWDFLT
  2
AcDbDictionaryWithDefault
  3
ObjectDBX Classes
 90
        0
280
     0
281
     0
  0
CLASS
  1
ACDBPLACEHOLDER
  2
AcDbPlaceHolder
  3
ObjectDBX Classes
 90
        0
280
     0
281
     0
  0
CLASS
  1
LAYOUT
  2
AcDbLayout
  3
ObjectDBX Classes
 90
        0
280
     0
281
     0
  0
CLASS
  1
DICTIONARYVAR
  2
AcDbDictionaryVar
  3
ObjectDBX Classes
 90
        0
280
     0
281
     0
  0
CLASS
  1
TABLESTYLE
  2
AcDbTableStyle
  3
ObjectDBX Classes
 90
     2047
280
     0
281
     0
  0
CLASS
  1
SORTENTSTABLE
  2
AcDbSortentsTable
  3
ObjectDBX Classes
 90
        0
280
     0
281
     0
  0
ENDSEC
  0
SECTION
  2
TABLES
  0
TABLE
  2
VPORT
  5
8
330
0
100
AcDbSymbolTable
 70
     2
  0
VPORT
  5
1A8E
330
8
100
AcDbSymbolTableRecord
100
AcDbViewportTableRecord
  2
*Active
 70
     0
 10
0.0
 20
0.0
 11
1.0
 21
1.0
 12
1968.473648684821
 22
1011.023387781863
 13
0.0
 23
0.0
 14
10.0
 24
10.0
 15
10.0
 25
10.0
 16
0.0
 26
0.0
 36
1.0
 17
0.0
 27
0.0
 37
0.0
 40
2302.238503250997
 41
1.29038112522686
 42
50.0
 43
0.0
 44
0.0
 50
0.0
 51
0.0
 71
     0
 72
   100
 73
     1
 74
     3
 75
     0
 76
     0
 77
     0
 78
     0
281
     0
 65
     1
110
0.0
120
0.0
130
0.0
111
1.0
121
0.0
131
0.0
112
0.0
122
1.0
132
0.0
 79
     0
146
0.0
  0
ENDTAB
  0
TABLE
  2
LTYPE
  5
5
330
0
100
AcDbSymbolTable
 70
    46
  0
LTYPE
  5
14
330
5
100
AcDbSymbolTableRecord
100
AcDbLinetypeTableRecord
  2
ByBlock
 70
     0
  3

 72
    65
 73
     0
 40
0.0
  0
LTYPE
  5
15
330
5
100
AcDbSymbolTableRecord
100
AcDbLinetypeTableRecord
  2
ByLayer
 70
     0
  3

 72
    65
 73
     0
 40
0.0
  0
LTYPE
  5
16
330
5
100
AcDbSymbolTableRecord
100
AcDbLinetypeTableRecord
  2
Continuous
 70
     0
  3
Solid line
 72
    65
 73
     0
 40
0.0
  0
LTYPE
  5
34
330
5
100
AcDbSymbolTableRecord
100
AcDbLinetypeTableRecord
  2
ACAD_ISO02W100
 70
     0
  3
ISO dash __ __ __ __ __ __ __ __ __ __ __ __ __
 72
    65
 73
     2
 40
15.0
 49
12.0
 74
     0
 49
-3.0
 74
     0
  0
LTYPE
  5
35
330
5
100
AcDbSymbolTableRecord
100
AcDbLinetypeTableRecord
  2
ACAD_ISO03W100
 70
     0
  3
ISO dash space __    __    __    __    __    __
 72
    65
 73
     2
 40
30.0
 49
12.0
 74
     0
 49
-18.0
 74
     0
  0
LTYPE
  5
36
330
5
100
AcDbSymbolTableRecord
100
AcDbLinetypeTableRecord
  2
ACAD_ISO04W100
 70
     0
  3
ISO long-dash dot ____ . ____ . ____ . ____ . _
 72
    65
 73
     4
 40
30.0
 49
24.0
 74
     0
 49
-3.0
 74
     0
 49
0.0
 74
     0
 49
-3.0
 74
     0
  0
LTYPE
  5
37
330
5
100
AcDbSymbolTableRecord
100
AcDbLinetypeTableRecord
  2
ACAD_ISO05W100
 70
     0
  3
ISO long-dash double-dot ____ .. ____ .. ____ .
 72
    65
 73
     6
 40
34.0
 49
24.0
 74
     0
 49
-3.0
 74
     0
 49
0.5
 74
     0
 49
-3.0
 74
     0
 49
0.5
 74
     0
 49
-3.0
 74
     0
  0
LTYPE
  5
38
330
5
100
AcDbSymbolTableRecord
100
AcDbLinetypeTableRecord
  2
ACAD_ISO06W100
 70
     0
  3
ISO long-dash triple-dot ____ ... ____ ... ____
 72
    65
 73
     8
 40
37.5
 49
24.0
 74
     0
 49
-3.0
 74
     0
 49
0.5
 74
     0
 49
-3.0
 74
     0
 49
0.5
 74
     0
 49
-3.0
 74
     0
 49
0.5
 74
     0
 49
-3.0
 74
     0
  0
LTYPE
  5
39
330
5
100
AcDbSymbolTableRecord
100
AcDbLinetypeTableRecord
  2
ACAD_ISO07W100
 70
     0
  3
ISO dot . . . . . . . . . . . . . . . . . . . .
 72
    65
 73
     2
 40
3.0
 49
0.0
 74
     0
 49
-3.0
 74
     0
  0
LTYPE
  5
3A
330
5
100
AcDbSymbolTableRecord
100
AcDbLinetypeTableRecord
  2
ACAD_ISO08W100
 70
     0
  3
ISO long-dash short-dash ____ __ ____ __ ____ _
 72
    65
 73
     4
 40
36.0
 49
24.0
 74
     0
 49
-3.0
 74
     0
 49
6.0
 74
     0
 49
-3.0
 74
     0
  0
LTYPE
  5
3B
330
5
100
AcDbSymbolTableRecord
100
AcDbLinetypeTableRecord
  2
ACAD_ISO09W100
 70
     0
  3
ISO long-dash double-short-dash ____ __ __ ____
 72
    65
 73
     6
 40
45.0
 49
24.0
 74
     0
 49
-3.0
 74
     0
 49
6.0
 74
     0
 49
-3.0
 74
     0
 49
6.0
 74
     0
 49
-3.0
 74
     0
  0
LTYPE
  5
3C
330
5
100
AcDbSymbolTableRecord
100
AcDbLinetypeTableRecord
  2
ACAD_ISO10W100
 70
     0
  3
ISO dash dot __ . __ . __ . __ . __ . __ . __ .
 72
    65
 73
     4
 40
18.0
 49
12.0
 74
     0
 49
-3.0
 74
     0
 49
0.0
 74
     0
 49
-3.0
 74
     0
  0
LTYPE
  5
3D
330
5
100
AcDbSymbolTableRecord
100
AcDbLinetypeTableRecord
  2
ACAD_ISO11W100
 70
     0
  3
ISO double-dash dot __ __ . __ __ . __ __ . __ 
 72
    65
 73
     6
 40
33.0
 49
12.0
 74
     0
 49
-3.0
 74
     0
 49
12.0
 74
     0
 49
-3.0
 74
     0
 49
0.0
 74
     0
 49
-3.0
 74
     0
  0
LTYPE
  5
3E
330
5
100
AcDbSymbolTableRecord
100
AcDbLinetypeTableRecord
  2
ACAD_ISO12W100
 70
     0
  3
ISO dash double-dot __ . . __ . . __ . . __ . .
 72
    65
 73
     6
 40
21.0
 49
12.0
 74
     0
 49
-3.0
 74
     0
 49
0.0
 74
     0
 49
-3.0
 74
     0
 49
0.0
 74
     0
 49
-3.0
 74
     0
  0
LTYPE
  5
3F
330
5
100
AcDbSymbolTableRecord
100
AcDbLinetypeTableRecord
  2
ACAD_ISO13W100
 70
     0
  3
ISO double-dash double-dot __ __ . . __ __ . . 
 72
    65
 73
     8
 40
36.0
 49
12.0
 74
     0
 49
-3.0
 74
     0
 49
12.0
 74
     0
 49
-3.0
 74
     0
 49
0.0
 74
     0
 49
-3.0
 74
     0
 49
0.0
 74
     0
 49
-3.0
 74
     0
  0
LTYPE
  5
40
330
5
100
AcDbSymbolTableRecord
100
AcDbLinetypeTableRecord
  2
ACAD_ISO14W100
 70
     0
  3
ISO dash triple-dot __ . . . __ . . . __ . . . 
 72
    65
 73
     8
 40
24.0
 49
12.0
 74
     0
 49
-3.0
 74
     0
 49
0.0
 74
     0
 49
-3.0
 74
     0
 49
0.0
 74
     0
 49
-3.0
 74
     0
 49
0.0
 74
     0
 49
-3.0
 74
     0
  0
LTYPE
  5
41
330
5
100
AcDbSymbolTableRecord
100
AcDbLinetypeTableRecord
  2
ACAD_ISO15W100
 70
     0
  3
ISO double-dash triple-dot __ __ . . . __ __ . 
 72
    65
 73
    10
 40
39.0
 49
12.0
 74
     0
 49
-3.0
 74
     0
 49
12.0
 74
     0
 49
-3.0
 74
     0
 49
0.0
 74
     0
 49
-3.0
 74
     0
 49
0.0
 74
     0
 49
-3.0
 74
     0
 49
0.0
 74
     0
 49
-3.0
 74
     0
  0
LTYPE
  5
42
330
5
100
AcDbSymbolTableRecord
100
AcDbLinetypeTableRecord
  2
BATTING
 70
     0
  3
Batting SSSSSSSSSSSSSSSSSSSSSSSSSSSSSSSSSSSSSSS
 72
    65
 73
     4
 40
10.16254
 49
0.00254
 74
     0
 49
-2.54
 74
     4
 75
   134
340
33
 46
2.54
 50
0.0
 44
-2.54
 45
0.0
 49
-5.08
 74
     4
 75
   134
340
33
 46
2.54
 50
180.0
 44
2.54
 45
0.0
 49
-2.54
 74
     0
  0
LTYPE
  5
43
330
5
100
AcDbSymbolTableRecord
100
AcDbLinetypeTableRecord
  2
BORDER
 70
     0
  3
Border __ __ . __ __ . __ __ . __ __ . __ __ .
 72
    65
 73
     6
 40
44.45
 49
12.7
 74
     0
 49
-6.349999999999999
 74
     0
 49
12.7
 74
     0
 49
-6.349999999999999
 74
     0
 49
0.0
 74
     0
 49
-6.349999999999999
 74
     0
  0
LTYPE
  5
44
330
5
100
AcDbSymbolTableRecord
100
AcDbLinetypeTableRecord
  2
BORDER2
 70
     0
  3
Border (.5x) __.__.__.__.__.__.__.__.__.__.__.
 72
    65
 73
     6
 40
22.225
 49
6.349999999999999
 74
     0
 49
-3.174999999999999
 74
     0
 49
6.349999999999999
 74
     0
 49
-3.174999999999999
 74
     0
 49
0.0
 74
     0
 49
-3.174999999999999
 74
     0
  0
LTYPE
  5
45
330
5
100
AcDbSymbolTableRecord
100
AcDbLinetypeTableRecord
  2
BORDERX2
 70
     0
  3
Border (2x) ____  ____  .  ____  ____  .  ___
 72
    65
 73
     6
 40
88.9
 49
25.4
 74
     0
 49
-12.7
 74
     0
 49
25.4
 74
     0
 49
-12.7
 74
     0
 49
0.0
 74
     0
 49
-12.7
 74
     0
  0
LTYPE
  5
46
330
5
100
AcDbSymbolTableRecord
100
AcDbLinetypeTableRecord
  2
CENTER
 70
     0
  3
Center ____ _ ____ _ ____ _ ____ _ ____ _ ____
 72
    65
 73
     4
 40
50.8
 49
31.75
 74
     0
 49
-6.349999999999999
 74
     0
 49
6.349999999999999
 74
     0
 49
-6.349999999999999
 74
     0
  0
LTYPE
  5
47
330
5
100
AcDbSymbolTableRecord
100
AcDbLinetypeTableRecord
  2
CENTER2
 70
     0
  3
Center (.5x) ___ _ ___ _ ___ _ ___ _ ___ _ ___
 72
    65
 73
     4
 40
28.575
 49
19.05
 74
     0
 49
-3.174999999999999
 74
     0
 49
3.174999999999999
 74
     0
 49
-3.174999999999999
 74
     0
  0
LTYPE
  5
48
330
5
100
AcDbSymbolTableRecord
100
AcDbLinetypeTableRecord
  2
CENTERX2
 70
     0
  3
Center (2x) ________  __  ________  __  _____
 72
    65
 73
     4
 40
101.6
 49
63.5
 74
     0
 49
-12.7
 74
     0
 49
12.7
 74
     0
 49
-12.7
 74
     0
  0
LTYPE
  5
49
330
5
100
AcDbSymbolTableRecord
100
AcDbLinetypeTableRecord
  2
DASHDOT
 70
     0
  3
Dash dot __ . __ . __ . __ . __ . __ . __ . __
 72
    65
 73
     4
 40
25.4
 49
12.7
 74
     0
 49
-6.349999999999999
 74
     0
 49
0.0
 74
     0
 49
-6.349999999999999
 74
     0
  0
LTYPE
  5
4A
330
5
100
AcDbSymbolTableRecord
100
AcDbLinetypeTableRecord
  2
DASHDOT2
 70
     0
  3
Dash dot (.5x) _._._._._._._._._._._._._._._.
 72
    65
 73
     4
 40
12.7
 49
6.349999999999999
 74
     0
 49
-3.174999999999999
 74
     0
 49
0.0
 74
     0
 49
-3.174999999999999
 74
     0
  0
LTYPE
  5
4B
330
5
100
AcDbSymbolTableRecord
100
AcDbLinetypeTableRecord
  2
DASHDOTX2
 70
     0
  3
Dash dot (2x) ____  .  ____  .  ____  .  ___
 72
    65
 73
     4
 40
50.8
 49
25.4
 74
     0
 49
-12.7
 74
     0
 49
0.0
 74
     0
 49
-12.7
 74
     0
  0
LTYPE
  5
4C
330
5
100
AcDbSymbolTableRecord
100
AcDbLinetypeTableRecord
  2
DASHED
 70
     0
  3
Dashed __ __ __ __ __ __ __ __ __ __ __ __ __ _
 72
    65
 73
     2
 40
19.05
 49
12.7
 74
     0
 49
-6.349999999999999
 74
     0
  0
LTYPE
  5
4D
330
5
100
AcDbSymbolTableRecord
100
AcDbLinetypeTableRecord
  2
DASHED2
 70
     0
  3
Dashed (.5x) _ _ _ _ _ _ _ _ _ _ _ _ _ _ _ _ _
 72
    65
 73
     2
 40
9.524999999999998
 49
6.349999999999999
 74
     0
 49
-3.174999999999999
 74
     0
  0
LTYPE
  5
4E
330
5
100
AcDbSymbolTableRecord
100
AcDbLinetypeTableRecord
  2
DASHEDX2
 70
     0
  3
Dashed (2x) ____  ____  ____  ____  ____  ___
 72
    65
 73
     2
 40
38.1
 49
25.4
 74
     0
 49
-12.7
 74
     0
  0
LTYPE
  5
4F
330
5
100
AcDbSymbolTableRecord
100
AcDbLinetypeTableRecord
  2
DIVIDE
 70
     0
  3
Divide ____ . . ____ . . ____ . . ____ . . ____
 72
    65
 73
     6
 40
31.75
 49
12.7
 74
     0
 49
-6.349999999999999
 74
     0
 49
0.0
 74
     0
 49
-6.349999999999999
 74
     0
 49
0.0
 74
     0
 49
-6.349999999999999
 74
     0
  0
LTYPE
  5
50
330
5
100
AcDbSymbolTableRecord
100
AcDbLinetypeTableRecord
  2
DIVIDE2
 70
     0
  3
Divide (.5x) __..__..__..__..__..__..__..__.._
 72
    65
 73
     6
 40
15.875
 49
6.349999999999999
 74
     0
 49
-3.174999999999999
 74
     0
 49
0.0
 74
     0
 49
-3.174999999999999
 74
     0
 49
0.0
 74
     0
 49
-3.174999999999999
 74
     0
  0
LTYPE
  5
51
330
5
100
AcDbSymbolTableRecord
100
AcDbLinetypeTableRecord
  2
DIVIDEX2
 70
     0
  3
Divide (2x) ________  .  .  ________  .  .  _
 72
    65
 73
     6
 40
63.49999999999999
 49
25.4
 74
     0
 49
-12.7
 74
     0
 49
0.0
 74
     0
 49
-12.7
 74
     0
 49
0.0
 74
     0
 49
-12.7
 74
     0
  0
LTYPE
  5
52
330
5
100
AcDbSymbolTableRecord
100
AcDbLinetypeTableRecord
  2
DOT
 70
     0
  3
Dot . . . . . . . . . . . . . . . . . . . . . .
 72
    65
 73
     2
 40
6.349999999999999
 49
0.0
 74
     0
 49
-6.349999999999999
 74
     0
  0
LTYPE
  5
53
330
5
100
AcDbSymbolTableRecord
100
AcDbLinetypeTableRecord
  2
DOT2
 70
     0
  3
Dot (.5x) .....................................
 72
    65
 73
     2
 40
3.174999999999999
 49
0.0
 74
     0
 49
-3.174999999999999
 74
     0
  0
LTYPE
  5
54
330
5
100
AcDbSymbolTableRecord
100
AcDbLinetypeTableRecord
  2
DOTX2
 70
     0
  3
Dot (2x) .  .  .  .  .  .  .  .  .  .  .  .  . 
 72
    65
 73
     2
 40
12.7
 49
0.0
 74
     0
 49
-12.7
 74
     0
  0
LTYPE
  5
55
330
5
100
AcDbSymbolTableRecord
100
AcDbLinetypeTableRecord
  2
FENCELINE1
 70
     0
  3
Fenceline circle ----0-----0----0-----0----0---
 72
    65
 73
     4
 40
36.83
 49
6.349999999999999
 74
     0
 49
-2.54
 74
     4
 75
   133
340
33
 46
2.54
 50
0.0
 44
-2.54
 45
0.0
 49
-2.54
 74
     0
 49
25.4
 74
     0
  0
LTYPE
  5
56
330
5
100
AcDbSymbolTableRecord
100
AcDbLinetypeTableRecord
  2
FENCELINE2
 70
     0
  3
Fenceline square ----[]-----[]----[]-----[]----
 72
    65
 73
     4
 40
36.83
 49
6.349999999999999
 74
     0
 49
-2.54
 74
     4
 75
   132
340
33
 46
2.54
 50
0.0
 44
-2.54
 45
0.0
 49
-2.54
 74
     0
 49
25.4
 74
     0
  0
LTYPE
  5
57
330
5
100
AcDbSymbolTableRecord
100
AcDbLinetypeTableRecord
  2
GAS_LINE
 70
     0
  3
Gas line ----GAS----GAS----GAS----GAS----GAS---
 72
    65
 73
     3
 40
24.13
 49
12.7
 74
     0
 49
-5.08
 74
     2
 75
     0
340
11
 46
2.54
 50
0.0
 44
-2.54
 45
-1.27
  9
GAS
 49
-6.349999999999999
 74
     0
  0
LTYPE
  5
58
330
5
100
AcDbSymbolTableRecord
100
AcDbLinetypeTableRecord
  2
HIDDEN
 70
     0
  3
Hidden __ __ __ __ __ __ __ __ __ __ __ __ __ _
 72
    65
 73
     2
 40
9.524999999999998
 49
6.349999999999999
 74
     0
 49
-3.174999999999999
 74
     0
  0
LTYPE
  5
59
330
5
100
AcDbSymbolTableRecord
100
AcDbLinetypeTableRecord
  2
HIDDEN2
 70
     0
  3
Hidden (.5x) _ _ _ _ _ _ _ _ _ _ _ _ _ _ _ _ _
 72
    65
 73
     2
 40
4.762499999999999
 49
3.174999999999999
 74
     0
 49
-1.587499999999999
 74
     0
  0
LTYPE
  5
5A
330
5
100
AcDbSymbolTableRecord
100
AcDbLinetypeTableRecord
  2
HIDDENX2
 70
     0
  3
Hidden (2x) ____ ____ ____ ____ ____ ____ ____
 72
    65
 73
     2
 40
19.05
 49
12.7
 74
     0
 49
-6.349999999999999
 74
     0
  0
LTYPE
  5
5B
330
5
100
AcDbSymbolTableRecord
100
AcDbLinetypeTableRecord
  2
HOT_WATER_SUPPLY
 70
     0
  3
Hot water supply ---- HW ---- HW ---- HW ----
 72
    65
 73
     3
 40
22.86
 49
12.7
 74
     0
 49
-5.08
 74
     2
 75
     0
340
11
 46
2.54
 50
0.0
 44
-2.54
 45
-1.27
  9
HW
 49
-5.08
 74
     0
  0
LTYPE
  5
5C
330
5
100
AcDbSymbolTableRecord
100
AcDbLinetypeTableRecord
  2
PHANTOM
 70
     0
  3
Phantom ______  __  __  ______  __  __  ______
 72
    65
 73
     6
 40
63.5
 49
31.75
 74
     0
 49
-6.349999999999999
 74
     0
 49
6.349999999999999
 74
     0
 49
-6.349999999999999
 74
     0
 49
6.349999999999999
 74
     0
 49
-6.349999999999999
 74
     0
  0
LTYPE
  5
5D
330
5
100
AcDbSymbolTableRecord
100
AcDbLinetypeTableRecord
  2
PHANTOM2
 70
     0
  3
Phantom (.5x) ___ _ _ ___ _ _ ___ _ _ ___ _ _
 72
    65
 73
     6
 40
31.75
 49
15.875
 74
     0
 49
-3.174999999999999
 74
     0
 49
3.174999999999999
 74
     0
 49
-3.174999999999999
 74
     0
 49
3.174999999999999
 74
     0
 49
-3.174999999999999
 74
     0
  0
LTYPE
  5
5E
330
5
100
AcDbSymbolTableRecord
100
AcDbLinetypeTableRecord
  2
PHANTOMX2
 70
     0
  3
Phantom (2x) ____________    ____    ____   _
 72
    65
 73
     6
 40
127.0
 49
63.5
 74
     0
 49
-12.7
 74
     0
 49
12.7
 74
     0
 49
-12.7
 74
     0
 49
12.7
 74
     0
 49
-12.7
 74
     0
  0
LTYPE
  5
5F
330
5
100
AcDbSymbolTableRecord
100
AcDbLinetypeTableRecord
  2
TRACKS
 70
     0
  3
Tracks -|-|-|-|-|-|-|-|-|-|-|-|-|-|-|-|-|-|-|-|
 72
    65
 73
     2
 40
7.62
 49
3.81
 74
     4
 75
   130
340
33
 46
6.349999999999999
 50
0.0
 44
0.0
 45
0.0
 49
3.81
 74
     0
  0
LTYPE
  5
60
330
5
100
AcDbSymbolTableRecord
100
AcDbLinetypeTableRecord
  2
ZIGZAG
 70
     0
  3
Zig zag /\/\/\/\/\/\/\/\/\/\/\/\/\/\/\/\/\/\/\/
 72
    65
 73
     4
 40
20.32254
 49
0.00254
 74
     0
 49
-5.08
 74
     4
 75
   131
340
33
 46
5.08
 50
0.0
 44
-5.08
 45
0.0
 49
-10.16
 74
     4
 75
   131
340
33
 46
5.08
 50
180.0
 44
5.08
 45
0.0
 49
-5.08
 74
     0
  0
ENDTAB
  0
TABLE
  2
LAYER
  5
2
102
{ACAD_XDICTIONARY
360
1941
102
}
330
0
100
AcDbSymbolTable
 70
     9
  0
LAYER
  5
10
330
2
100
AcDbSymbolTableRecord
100
AcDbLayerTableRecord
  2
0
 70
     0
 62
     7
  6
Continuous
370
    -3
390
F
  0
LAYER
  5
C3
330
2
100
AcDbSymbolTableRecord
100
AcDbLayerTableRecord
  2
Defpoints
 70
     0
 62
     7
  6
Continuous
290
     0
370
    -3
390
F
  0
LAYER
  5
256
330
2
100
AcDbSymbolTableRecord
100
AcDbLayerTableRecord
  2
センター
 70
     0
 62
     7
  6
CENTER2
370
    15
390
F
  0
LAYER
  5
268
330
2
100
AcDbSymbolTableRecord
100
AcDbLayerTableRecord
  2
実形
 70
     0
 62
     7
  6
Continuous
370
    -3
390
F
  0
LAYER
  5
269
330
2
100
AcDbSymbolTableRecord
100
AcDbLayerTableRecord
  2
補助
 70
     0
 62
     7
  6
Continuous
370
    -3
390
F
  0
LAYER
  5
26A
330
2
100
AcDbSymbolTableRecord
100
AcDbLayerTableRecord
  2
寸法
 70
     0
 62
     7
  6
Continuous
370
    -3
390
F
  0
LAYER
  5
26B
330
2
100
AcDbSymbolTableRecord
100
AcDbLayerTableRecord
  2
ハッチング
 70
     0
 62
     7
  6
Continuous
370
    18
390
F
  0
LAYER
  5
26D
330
2
100
AcDbSymbolTableRecord
100
AcDbLayerTableRecord
  2
文字
 70
     0
 62
     7
  6
Continuous
370
    -3
390
F
  0
LAYER
  5
FCC
330
2
100
AcDbSymbolTableRecord
100
AcDbLayerTableRecord
  2
Cen
 70
     0
 62
     7
  6
CENTER2
370
    15
390
F
  0
ENDTAB
  0
TABLE
  2
STYLE
  5
3
330
0
100
AcDbSymbolTable
 70
     3
  0
STYLE
  5
11
330
3
100
AcDbSymbolTableRecord
100
AcDbTextStyleTableRecord
  2
Standard
 70
     0
 40
0.0
 41
1.0
 50
0.0
 71
     0
 42
35.0
  3
txt.shx
  4
bigfont.shx
  0
STYLE
  5
33
330
3
100
AcDbSymbolTableRecord
100
AcDbTextStyleTableRecord
  2

 70
     1
 40
0.0
 41
1.0
 50
0.0
 71
     0
 42
2.5
  3
ltypeshp.shx
  4

  0
STYLE
  5
1A4D
330
3
100
AcDbSymbolTableRecord
100
AcDbTextStyleTableRecord
  2
明朝
 70
     0
 40
0.0
 41
1.0
 50
0.0
 71
     0
 42
25.0
  3
MS Mincho.ttf
  4

1001
ACAD
1000
MS Mincho
1071
    32785
  0
ENDTAB
  0
TABLE
  2
VIEW
  5
6
330
0
100
AcDbSymbolTable
 70
     0
  0
ENDTAB
  0
TABLE
  2
UCS
  5
7
330
0
100
AcDbSymbolTable
 70
     0
  0
ENDTAB
  0
TABLE
  2
APPID
  5
9
330
0
100
AcDbSymbolTable
 70
     1
  0
APPID
  5
12
330
9
100
AcDbSymbolTableRecord
100
AcDbRegAppTableRecord
  2
ACAD
 70
     0
  0
ENDTAB
  0
TABLE
  2
DIMSTYLE
  5
A
330
0
100
AcDbSymbolTable
 70
     1
100
AcDbDimStyleTable
 71
     1
340
27
  0
DIMSTYLE
105
27
102
{ACAD_REACTORS
330
63C
330
66C
330
6AA
330
6EA
330
77B
330
EB5
330
50A
330
3F6
330
4E5
330
4FD
330
522
330
3E9
330
40C
330
41A
330
427
330
459
330
466
330
47C
330
492
330
4C3
330
8A7
330
8DB
330
914
330
C15
330
C18
330
C1A
330
C20
330
C24
330
C26
330
C29
330
CB8
330
CB9
330
CBA
330
CBD
330
CBE
330
18DE
330
1972
330
1973
330
19D9
330
19DA
102
}
330
A
100
AcDbSymbolTableRecord
100
AcDbDimStyleTableRecord
  2
ISO-25
 70
     0
 41
35.0
 42
65.0
 43
3.75
 44
0.0
 73
     0
 74
     0
 77
     1
 78
     8
140
25.0
141
2.5
143
0.03937007874016
147
6.25
171
     3
172
     1
271
     2
272
     2
274
     3
279
     2
283
     0
284
     8
289
     2
340
11
341
DA
342
D0
371
    15
372
    15
  0
ENDTAB
  0
TABLE
  2
BLOCK_RECORD
  5
1
330
0
100
AcDbSymbolTable
 70
    29
  0
BLOCK_RECORD
  5
1F
102
{ACAD_XDICTIONARY
360
1A6C
102
}
330
1
100
AcDbSymbolTableRecord
100
AcDbBlockTableRecord
  2
*Model_Space
340
22
  0
BLOCK_RECORD
  5
1B
330
1
100
AcDbSymbolTableRecord
100
AcDbBlockTableRecord
  2
*Paper_Space
340
1E
  0
BLOCK_RECORD
  5
23
330
1
100
AcDbSymbolTableRecord
100
AcDbBlockTableRecord
  2
*Paper_Space0
340
26
  0
BLOCK_RECORD
  5
D0
330
1
100
AcDbSymbolTableRecord
100
AcDbBlockTableRecord
  2
_DotSmall
340
0
102
{BLKREFS
331
179C
331
179D
331
17AE
331
17AF
331
17B7
331
17B8
331
17DB
331
17DC
331
17E4
331
17E5
331
17ED
331
17EE
331
17F6
331
17F7
331
1800
331
1801
331
1809
331
180A
331
1812
331
1813
331
181B
331
181C
331
1823
331
1824
331
182D
331
182E
331
183F
331
1840
331
1886
331
1887
331
188F
331
1890
331
18FB
331
18FC
331
1995
331
1996
331
199D
331
199E
331
19A7
331
19A8
331
19B0
331
19B1
331
19FD
331
19FE
331
1A05
331
1A06
102
}
  0
BLOCK_RECORD
  5
D4
330
1
100
AcDbSymbolTableRecord
100
AcDbBlockTableRecord
  2
_Origin2
340
0
  0
BLOCK_RECORD
  5
DA
330
1
100
AcDbSymbolTableRecord
100
AcDbBlockTableRecord
  2
_Open30
340
0
  0
BLOCK_RECORD
  5
3EA
330
1
100
AcDbSymbolTableRecord
100
AcDbBlockTableRecord
  2
*D4
340
0
  0
BLOCK_RECORD
  5
3F7
330
1
100
AcDbSymbolTableRecord
100
AcDbBlockTableRecord
  2
*D5
340
0
  0
BLOCK_RECORD
  5
40D
330
1
100
AcDbSymbolTableRecord
100
AcDbBlockTableRecord
  2
*D6
340
0
  0
BLOCK_RECORD
  5
41B
330
1
100
AcDbSymbolTableRecord
100
AcDbBlockTableRecord
  2
*D7
340
0
  0
BLOCK_RECORD
  5
428
330
1
100
AcDbSymbolTableRecord
100
AcDbBlockTableRecord
  2
*D8
340
0
  0
BLOCK_RECORD
  5
45A
330
1
100
AcDbSymbolTableRecord
100
AcDbBlockTableRecord
  2
*D9
340
0
  0
BLOCK_RECORD
  5
467
330
1
100
AcDbSymbolTableRecord
100
AcDbBlockTableRecord
  2
*D10
340
0
  0
BLOCK_RECORD
  5
47D
330
1
100
AcDbSymbolTableRecord
100
AcDbBlockTableRecord
  2
*D11
340
0
  0
BLOCK_RECORD
  5
493
330
1
100
AcDbSymbolTableRecord
100
AcDbBlockTableRecord
  2
*D12
340
0
  0
BLOCK_RECORD
  5
4C4
330
1
100
AcDbSymbolTableRecord
100
AcDbBlockTableRecord
  2
*D13
340
0
  0
BLOCK_RECORD
  5
4E6
330
1
100
AcDbSymbolTableRecord
100
AcDbBlockTableRecord
  2
*D14
340
0
  0
BLOCK_RECORD
  5
4FE
330
1
100
AcDbSymbolTableRecord
100
AcDbBlockTableRecord
  2
*D15
340
0
  0
BLOCK_RECORD
  5
50B
330
1
100
AcDbSymbolTableRecord
100
AcDbBlockTableRecord
  2
*D16
340
0
  0
BLOCK_RECORD
  5
523
330
1
100
AcDbSymbolTableRecord
100
AcDbBlockTableRecord
  2
*D17
340
0
  0
BLOCK_RECORD
  5
63D
330
1
100
AcDbSymbolTableRecord
100
AcDbBlockTableRecord
  2
*D18
340
0
  0
BLOCK_RECORD
  5
66D
330
1
100
AcDbSymbolTableRecord
100
AcDbBlockTableRecord
  2
*D19
340
0
  0
BLOCK_RECORD
  5
6AB
330
1
100
AcDbSymbolTableRecord
100
AcDbBlockTableRecord
  2
*D20
340
0
  0
BLOCK_RECORD
  5
6EB
330
1
100
AcDbSymbolTableRecord
100
AcDbBlockTableRecord
  2
*D21
340
0
  0
BLOCK_RECORD
  5
77C
330
1
100
AcDbSymbolTableRecord
100
AcDbBlockTableRecord
  2
*D22
340
0
  0
BLOCK_RECORD
  5
EB6
330
1
100
AcDbSymbolTableRecord
100
AcDbBlockTableRecord
  2
*D23
340
0
  0
BLOCK_RECORD
  5
18E1
330
1
100
AcDbSymbolTableRecord
100
AcDbBlockTableRecord
  2
*D24
340
0
  0
BLOCK_RECORD
  5
1979
330
1
100
AcDbSymbolTableRecord
100
AcDbBlockTableRecord
  2
*D25
340
0
  0
BLOCK_RECORD
  5
1985
330
1
100
AcDbSymbolTableRecord
100
AcDbBlockTableRecord
  2
*D26
340
0
  0
BLOCK_RECORD
  5
19E1
330
1
100
AcDbSymbolTableRecord
100
AcDbBlockTableRecord
  2
*D27
340
0
  0
BLOCK_RECORD
  5
19ED
330
1
100
AcDbSymbolTableRecord
100
AcDbBlockTableRecord
  2
*D28
340
0
  0
ENDTAB
  0
ENDSEC
  0
SECTION
  2
BLOCKS
  0
BLOCK
  5
20
330
1F
100
AcDbEntity
  8
0
100
AcDbBlockBegin
  2
*Model_Space
 70
     0
 10
0.0
 20
0.0
 30
0.0
  3
*Model_Space
  1

  0
ENDBLK
  5
21
330
1F
100
AcDbEntity
  8
0
100
AcDbBlockEnd
  0
BLOCK
  5
1C
330
1B
100
AcDbEntity
 67
     1
  8
0
100
AcDbBlockBegin
  2
*Paper_Space
 70
     0
 10
0.0
 20
0.0
 30
0.0
  3
*Paper_Space
  1

  0
ENDBLK
  5
1D
330
1B
100
AcDbEntity
 67
     1
  8
0
100
AcDbBlockEnd
  0
BLOCK
  5
24
330
23
100
AcDbEntity
  8
0
100
AcDbBlockBegin
  2
*Paper_Space0
 70
     0
 10
0.0
 20
0.0
 30
0.0
  3
*Paper_Space0
  1

  0
ENDBLK
  5
25
330
23
100
AcDbEntity
  8
0
100
AcDbBlockEnd
  0
BLOCK
  5
D2
330
D0
100
AcDbEntity
  8
0
100
AcDbBlockBegin
  2
_DotSmall
 70
     0
 10
0.0
 20
0.0
 30
0.0
  3
_DotSmall
  1

  0
LWPOLYLINE
  5
D1
330
D0
100
AcDbEntity
  8
0
 62
     0
100
AcDbPolyline
 90
        2
 70
     1
 43
0.5
 10
-0.0625
 20
0.0
 42
1.0
 10
0.0625
 20
0.0
 42
1.0
  0
ENDBLK
  5
D3
330
D0
100
AcDbEntity
  8
0
100
AcDbBlockEnd
  0
BLOCK
  5
D8
330
D4
100
AcDbEntity
  8
0
100
AcDbBlockBegin
  2
_Origin2
 70
     0
 10
0.0
 20
0.0
 30
0.0
  3
_Origin2
  1

  0
CIRCLE
  5
D5
330
D4
100
AcDbEntity
  8
0
 62
     0
370
    -2
100
AcDbCircle
 10
0.0
 20
0.0
 30
0.0
 40
0.5
  0
CIRCLE
  5
D6
330
D4
100
AcDbEntity
  8
0
 62
     0
370
    -2
100
AcDbCircle
 10
0.0
 20
0.0
 30
0.0
 40
0.25
  0
LINE
  5
D7
330
D4
100
AcDbEntity
  8
0
 62
     0
370
    -2
100
AcDbLine
 10
-0.5
 20
0.0
 30
0.0
 11
-1.0
 21
0.0
 31
0.0
  0
ENDBLK
  5
D9
330
D4
100
AcDbEntity
  8
0
100
AcDbBlockEnd
  0
BLOCK
  5
DE
330
DA
100
AcDbEntity
  8
0
100
AcDbBlockBegin
  2
_Open30
 70
     0
 10
0.0
 20
0.0
 30
0.0
  3
_Open30
  1

  0
LINE
  5
DB
330
DA
100
AcDbEntity
  8
0
 62
     0
370
    -2
100
AcDbLine
 10
-1.0
 20
0.26794919
 30
0.0
 11
0.0
 21
0.0
 31
0.0
  0
LINE
  5
DC
330
DA
100
AcDbEntity
  8
0
 62
     0
370
    -2
100
AcDbLine
 10
0.0
 20
0.0
 30
0.0
 11
-1.0
 21
-0.26794919
 31
0.0
  0
LINE
  5
DD
330
DA
100
AcDbEntity
  8
0
 62
     0
370
    -2
100
AcDbLine
 10
0.0
 20
0.0
 30
0.0
 11
-1.0
 21
0.0
 31
0.0
  0
ENDBLK
  5
DF
330
DA
100
AcDbEntity
  8
0
100
AcDbBlockEnd
  0
BLOCK
  5
3F4
330
3EA
100
AcDbEntity
  8
0
100
AcDbBlockBegin
  2
*D4
 70
     1
 10
0.0
 20
0.0
 30
0.0
  3
*D4
  1

  0
LINE
  5
179A
330
3EA
100
AcDbEntity
  8
寸法
 62
     0
370
    15
100
AcDbLine
 10
1094.460069867147
 20
1353.3139875383
 30
0.0
 11
1288.29530745403
 21
1353.3139875383
 31
0.0
  0
LINE
  5
179B
330
3EA
100
AcDbEntity
  8
寸法
 62
     0
370
    15
100
AcDbLine
 10
1288.29530745403
 20
1353.3139875383
 30
0.0
 11
1288.29530745403
 21
1483.3139875383
 31
0.0
  0
INSERT
  5
179C
330
3EA
100
AcDbEntity
  8
寸法
 62
     0
370
    15
100
AcDbBlockReference
  2
_DotSmall
 10
1288.29530745403
 20
1353.3139875383
 30
0.0
 41
35.0
 42
35.0
 43
35.0
 50
270.0
  0
INSERT
  5
179D
330
3EA
100
AcDbEntity
  8
寸法
 62
     0
370
    15
100
AcDbBlockReference
  2
_DotSmall
 10
1288.29530745403
 20
1483.3139875383
 30
0.0
 41
35.0
 42
35.0
 43
35.0
 50
90.0
  0
MTEXT
  5
179E
330
3EA
100
AcDbEntity
  8
寸法
 62
     0
100
AcDbMText
 10
1269.54530745403
 20
1418.3139875383
 30
0.0
 40
25.0
 41
0.0
 71
     5
 72
     1
  1
130
 11
0.0000000000000001
 21
1.0
 31
0.0
 73
     1
 44
1.0
1001
ACAD
1000
MTEXTBEGIN
1070
    73
1070
     1
1070
    44
1040
1.0
1070
    74
1070
     0
1000
MTEXTEND
  0
POINT
  5
179F
330
3EA
100
AcDbEntity
  8
Defpoints
 62
     0
100
AcDbPoint
 10
1029.460069867147
 20
1353.3139875383
 30
0.0
  0
POINT
  5
17A0
330
3EA
100
AcDbEntity
  8
Defpoints
 62
     0
100
AcDbPoint
 10
1138.29530745403
 20
1483.3139875383
 30
0.0
  0
POINT
  5
17A1
330
3EA
100
AcDbEntity
  8
Defpoints
 62
     0
100
AcDbPoint
 10
1288.29530745403
 20
1483.3139875383
 30
0.0
  0
ENDBLK
  5
3F5
330
3EA
100
AcDbEntity
  8
0
100
AcDbBlockEnd
  0
BLOCK
  5
401
330
3F7
100
AcDbEntity
  8
0
100
AcDbBlockBegin
  2
*D5
 70
     1
 10
0.0
 20
0.0
 30
0.0
  3
*D5
  1

  0
LINE
  5
17F3
330
3F7
100
AcDbEntity
  8
寸法
 62
     0
370
    15
100
AcDbLine
 10
963.2953074540301
 20
1208.8139875383
 30
0.0
 11
963.2953074540301
 21
1200.721221267299
 31
0.0
  0
LINE
  5
17F4
330
3F7
100
AcDbEntity
  8
寸法
 62
     0
370
    15
100
AcDbLine
 10
813.2953074540301
 20
1197.8139875383
 30
0.0
 11
813.2953074540301
 21
1200.721221267299
 31
0.0
  0
LINE
  5
17F5
330
3F7
100
AcDbEntity
  8
寸法
 62
     0
370
    15
100
AcDbLine
 10
963.2953074540301
 20
1200.721221267299
 30
0.0
 11
813.2953074540301
 21
1200.721221267299
 31
0.0
  0
INSERT
  5
17F6
330
3F7
100
AcDbEntity
  8
寸法
 62
     0
370
    15
100
AcDbBlockReference
  2
_DotSmall
 10
963.2953074540301
 20
1200.721221267299
 30
0.0
 41
35.0
 42
35.0
 43
35.0
  0
INSERT
  5
17F7
330
3F7
100
AcDbEntity
  8
寸法
 62
     0
370
    15
100
AcDbBlockReference
  2
_DotSmall
 10
813.2953074540301
 20
1200.721221267299
 30
0.0
 41
35.0
 42
35.0
 43
35.0
 50
180.0
  0
MTEXT
  5
17F8
330
3F7
100
AcDbEntity
  8
寸法
 62
     0
100
AcDbMText
 10
888.2953074540301
 20
1219.471221267299
 30
0.0
 40
25.0
 41
0.0
 71
     5
 72
     1
  1
150
 73
     1
 44
1.0
1001
ACAD
1000
MTEXTBEGIN
1070
    73
1070
     1
1070
    44
1040
1.0
1070
    74
1070
     0
1000
MTEXTEND
  0
POINT
  5
17F9
330
3F7
100
AcDbEntity
  8
Defpoints
 62
     0
100
AcDbPoint
 10
963.2953074540301
 20
1273.8139875383
 30
0.0
  0
POINT
  5
17FA
330
3F7
100
AcDbEntity
  8
Defpoints
 62
     0
100
AcDbPoint
 10
813.2953074540301
 20
1262.8139875383
 30
0.0
  0
POINT
  5
17FB
330
3F7
100
AcDbEntity
  8
Defpoints
 62
     0
100
AcDbPoint
 10
813.2953074540301
 20
1200.721221267299
 30
0.0
  0
ENDBLK
  5
402
330
3F7
100
AcDbEntity
  8
0
100
AcDbBlockEnd
  0
BLOCK
  5
418
330
40D
100
AcDbEntity
  8
0
100
AcDbBlockBegin
  2
*D6
 70
     1
 10
0.0
 20
0.0
 30
0.0
  3
*D6
  1

  0
LINE
  5
180E
330
40D
100
AcDbEntity
  8
寸法
 62
     0
370
    15
100
AcDbLine
 10
733.29530745403
 20
1058.3139875383
 30
0.0
 11
694.4996465924706
 21
1058.3139875383
 31
0.0
  0
LINE
  5
180F
330
40D
100
AcDbEntity
  8
寸法
 62
     0
370
    15
100
AcDbLine
 10
733.29530745403
 20
1073.3139875383
 30
0.0
 11
694.4996465924706
 21
1073.3139875383
 31
0.0
  0
LINE
  5
1810
330
40D
100
AcDbEntity
  8
寸法
 62
     0
370
    15
100
AcDbLine
 10
694.4996465924706
 20
1058.3139875383
 30
0.0
 11
694.4996465924706
 21
1073.3139875383
 31
0.0
  0
MTEXT
  5
1811
330
40D
100
AcDbEntity
  8
寸法
 62
     0
100
AcDbMText
 10
668.5993954028872
 20
1081.743111590637
 30
0.0
 40
25.0
 41
0.0
 71
     5
 72
     1
  1
15
 11
0.0000000000000001
 21
1.0
 31
0.0
 73
     1
 44
1.0
1001
ACAD
1000
MTEXTBEGIN
1070
    73
1070
     1
1070
    44
1040
1.0
1070
    74
1070
     0
1000
MTEXTEND
  0
INSERT
  5
1812
330
40D
100
AcDbEntity
  8
寸法
 62
     0
370
    15
100
AcDbBlockReference
  2
_DotSmall
 10
694.4996465924706
 20
1058.3139875383
 30
0.0
 41
35.0
 42
35.0
 43
35.0
 50
270.0
  0
INSERT
  5
1813
330
40D
100
AcDbEntity
  8
寸法
 62
     0
370
    15
100
AcDbBlockReference
  2
_DotSmall
 10
694.4996465924706
 20
1073.3139875383
 30
0.0
 41
35.0
 42
35.0
 43
35.0
 50
90.0
  0
POINT
  5
1814
330
40D
100
AcDbEntity
  8
Defpoints
 62
     0
100
AcDbPoint
 10
798.2953074540301
 20
1058.3139875383
 30
0.0
  0
POINT
  5
1815
330
40D
100
AcDbEntity
  8
Defpoints
 62
     0
100
AcDbPoint
 10
798.2953074540301
 20
1073.3139875383
 30
0.0
  0
POINT
  5
1816
330
40D
100
AcDbEntity
  8
Defpoints
 62
     0
100
AcDbPoint
 10
694.4996465924706
 20
1073.3139875383
 30
0.0
  0
ENDBLK
  5
419
330
40D
100
AcDbEntity
  8
0
100
AcDbBlockEnd
  0
BLOCK
  5
425
330
41B
100
AcDbEntity
  8
0
100
AcDbBlockBegin
  2
*D7
 70
     1
 10
0.0
 20
0.0
 30
0.0
  3
*D7
  1

  0
LINE
  5
17EA
330
41B
100
AcDbEntity
  8
寸法
 62
     0
370
    15
100
AcDbLine
 10
733.29530745403
 20
1073.3139875383
 30
0.0
 11
694.4996465924705
 21
1073.3139875383
 31
0.0
  0
LINE
  5
17EB
330
41B
100
AcDbEntity
  8
寸法
 62
     0
370
    15
100
AcDbLine
 10
733.29530745403
 20
1483.3139875383
 30
0.0
 11
694.4996465924706
 21
1483.3139875383
 31
0.0
  0
LINE
  5
17EC
330
41B
100
AcDbEntity
  8
寸法
 62
     0
370
    15
100
AcDbLine
 10
694.4996465924705
 20
1073.3139875383
 30
0.0
 11
694.4996465924706
 21
1483.3139875383
 31
0.0
  0
INSERT
  5
17ED
330
41B
100
AcDbEntity
  8
寸法
 62
     0
370
    15
100
AcDbBlockReference
  2
_DotSmall
 10
694.4996465924705
 20
1073.3139875383
 30
0.0
 41
35.0
 42
35.0
 43
35.0
 50
270.0
  0
INSERT
  5
17EE
330
41B
100
AcDbEntity
  8
寸法
 62
     0
370
    15
100
AcDbBlockReference
  2
_DotSmall
 10
694.4996465924706
 20
1483.3139875383
 30
0.0
 41
35.0
 42
35.0
 43
35.0
 50
90.0
  0
MTEXT
  5
17EF
330
41B
100
AcDbEntity
  8
寸法
 62
     0
100
AcDbMText
 10
675.7496465924703
 20
1278.3139875383
 30
0.0
 40
25.0
 41
0.0
 71
     5
 72
     1
  1
410
 11
0.0000000000000001
 21
1.0
 31
0.0
 73
     1
 44
1.0
1001
ACAD
1000
MTEXTBEGIN
1070
    73
1070
     1
1070
    44
1040
1.0
1070
    74
1070
     0
1000
MTEXTEND
  0
POINT
  5
17F0
330
41B
100
AcDbEntity
  8
Defpoints
 62
     0
100
AcDbPoint
 10
798.2953074540301
 20
1073.3139875383
 30
0.0
  0
POINT
  5
17F1
330
41B
100
AcDbEntity
  8
Defpoints
 62
     0
100
AcDbPoint
 10
798.2953074540301
 20
1483.3139875383
 30
0.0
  0
POINT
  5
17F2
330
41B
100
AcDbEntity
  8
Defpoints
 62
     0
100
AcDbPoint
 10
694.4996465924706
 20
1483.3139875383
 30
0.0
  0
ENDBLK
  5
426
330
41B
100
AcDbEntity
  8
0
100
AcDbBlockEnd
  0
BLOCK
  5
432
330
428
100
AcDbEntity
  8
0
100
AcDbBlockBegin
  2
*D8
 70
     1
 10
0.0
 20
0.0
 30
0.0
  3
*D8
  1

  0
LINE
  5
1829
330
428
100
AcDbEntity
  8
寸法
 62
     0
370
    15
100
AcDbLine
 10
733.29530745403
 20
1483.3139875383
 30
0.0
 11
694.4996465924706
 21
1483.3139875383
 31
0.0
  0
LINE
  5
182A
330
428
100
AcDbEntity
  8
寸法
 62
     0
370
    15
100
AcDbLine
 10
733.29530745403
 20
1498.3139875383
 30
0.0
 11
694.4996465924706
 21
1498.3139875383
 31
0.0
  0
LINE
  5
182B
330
428
100
AcDbEntity
  8
寸法
 62
     0
370
    15
100
AcDbLine
 10
694.4996465924706
 20
1483.3139875383
 30
0.0
 11
694.4996465924706
 21
1498.3139875383
 31
0.0
  0
MTEXT
  5
182C
330
428
100
AcDbEntity
  8
寸法
 62
     0
100
AcDbMText
 10
667.1314957751583
 20
1474.207697442017
 30
0.0
 40
25.0
 41
0.0
 71
     5
 72
     1
  1
15
 11
0.0000000000000001
 21
1.0
 31
0.0
 73
     1
 44
1.0
1001
ACAD
1000
MTEXTBEGIN
1070
    73
1070
     1
1070
    44
1040
1.0
1070
    74
1070
     0
1000
MTEXTEND
  0
INSERT
  5
182D
330
428
100
AcDbEntity
  8
寸法
 62
     0
370
    15
100
AcDbBlockReference
  2
_DotSmall
 10
694.4996465924706
 20
1483.3139875383
 30
0.0
 41
35.0
 42
35.0
 43
35.0
 50
270.0
  0
INSERT
  5
182E
330
428
100
AcDbEntity
  8
寸法
 62
     0
370
    15
100
AcDbBlockReference
  2
_DotSmall
 10
694.4996465924706
 20
1498.3139875383
 30
0.0
 41
35.0
 42
35.0
 43
35.0
 50
90.0
  0
POINT
  5
182F
330
428
100
AcDbEntity
  8
Defpoints
 62
     0
100
AcDbPoint
 10
798.2953074540301
 20
1483.3139875383
 30
0.0
  0
POINT
  5
1830
330
428
100
AcDbEntity
  8
Defpoints
 62
     0
100
AcDbPoint
 10
798.2953074540301
 20
1498.3139875383
 30
0.0
  0
POINT
  5
1831
330
428
100
AcDbEntity
  8
Defpoints
 62
     0
100
AcDbPoint
 10
694.4996465924706
 20
1498.3139875383
 30
0.0
  0
ENDBLK
  5
433
330
428
100
AcDbEntity
  8
0
100
AcDbBlockEnd
  0
BLOCK
  5
464
330
45A
100
AcDbEntity
  8
0
100
AcDbBlockBegin
  2
*D9
 70
     1
 10
0.0
 20
0.0
 30
0.0
  3
*D9
  1

  0
LINE
  5
17E1
330
45A
100
AcDbEntity
  8
寸法
 62
     0
370
    15
100
AcDbLine
 10
733.29530745403
 20
1498.3139875383
 30
0.0
 11
618.0072043529136
 21
1498.3139875383
 31
0.0
  0
LINE
  5
17E2
330
45A
100
AcDbEntity
  8
寸法
 62
     0
370
    15
100
AcDbLine
 10
733.29530745403
 20
1058.3139875383
 30
0.0
 11
618.0072043529134
 21
1058.3139875383
 31
0.0
  0
LINE
  5
17E3
330
45A
100
AcDbEntity
  8
寸法
 62
     0
370
    15
100
AcDbLine
 10
618.0072043529136
 20
1498.3139875383
 30
0.0
 11
618.0072043529134
 21
1058.3139875383
 31
0.0
  0
INSERT
  5
17E4
330
45A
100
AcDbEntity
  8
寸法
 62
     0
370
    15
100
AcDbBlockReference
  2
_DotSmall
 10
618.0072043529136
 20
1498.3139875383
 30
0.0
 41
35.0
 42
35.0
 43
35.0
 50
90.0
  0
INSERT
  5
17E5
330
45A
100
AcDbEntity
  8
寸法
 62
     0
370
    15
100
AcDbBlockReference
  2
_DotSmall
 10
618.0072043529134
 20
1058.3139875383
 30
0.0
 41
35.0
 42
35.0
 43
35.0
 50
270.0
  0
MTEXT
  5
17E6
330
45A
100
AcDbEntity
  8
寸法
 62
     0
100
AcDbMText
 10
599.2572043529134
 20
1278.3139875383
 30
0.0
 40
25.0
 41
0.0
 71
     5
 72
     1
  1
440
 11
0.0000000000000001
 21
1.0
 31
0.0
 73
     1
 44
1.0
1001
ACAD
1000
MTEXTBEGIN
1070
    73
1070
     1
1070
    44
1040
1.0
1070
    74
1070
     0
1000
MTEXTEND
  0
POINT
  5
17E7
330
45A
100
AcDbEntity
  8
Defpoints
 62
     0
100
AcDbPoint
 10
798.2953074540301
 20
1498.3139875383
 30
0.0
  0
POINT
  5
17E8
330
45A
100
AcDbEntity
  8
Defpoints
 62
     0
100
AcDbPoint
 10
798.2953074540301
 20
1058.3139875383
 30
0.0
  0
POINT
  5
17E9
330
45A
100
AcDbEntity
  8
Defpoints
 62
     0
100
AcDbPoint
 10
618.0072043529134
 20
1058.3139875383
 30
0.0
  0
ENDBLK
  5
465
330
45A
100
AcDbEntity
  8
0
100
AcDbBlockEnd
  0
BLOCK
  5
471
330
467
100
AcDbEntity
  8
0
100
AcDbBlockBegin
  2
*D10
 70
     1
 10
0.0
 20
0.0
 30
0.0
  3
*D10
  1

  0
LINE
  5
1820
330
467
100
AcDbEntity
  8
寸法
 62
     0
370
    15
100
AcDbLine
 10
733.29530745403
 20
1498.3139875383
 30
0.0
 11
618.0072043529134
 21
1498.3139875383
 31
0.0
  0
LINE
  5
1821
330
467
100
AcDbEntity
  8
寸法
 62
     0
370
    15
100
AcDbLine
 10
733.29530745403
 20
1578.3139875383
 30
0.0
 11
618.0072043529134
 21
1578.3139875383
 31
0.0
  0
LINE
  5
1822
330
467
100
AcDbEntity
  8
寸法
 62
     0
370
    15
100
AcDbLine
 10
618.0072043529134
 20
1498.3139875383
 30
0.0
 11
618.0072043529134
 21
1578.3139875383
 31
0.0
  0
INSERT
  5
1823
330
467
100
AcDbEntity
  8
寸法
 62
     0
370
    15
100
AcDbBlockReference
  2
_DotSmall
 10
618.0072043529134
 20
1498.3139875383
 30
0.0
 41
35.0
 42
35.0
 43
35.0
 50
270.0
  0
INSERT
  5
1824
330
467
100
AcDbEntity
  8
寸法
 62
     0
370
    15
100
AcDbBlockReference
  2
_DotSmall
 10
618.0072043529134
 20
1578.3139875383
 30
0.0
 41
35.0
 42
35.0
 43
35.0
 50
90.0
  0
MTEXT
  5
1825
330
467
100
AcDbEntity
  8
寸法
 62
     0
100
AcDbMText
 10
599.2572043529133
 20
1538.3139875383
 30
0.0
 40
25.0
 41
0.0
 71
     5
 72
     1
  1
80
 11
0.0000000000000001
 21
1.0
 31
0.0
 73
     1
 44
1.0
1001
ACAD
1000
MTEXTBEGIN
1070
    73
1070
     1
1070
    44
1040
1.0
1070
    74
1070
     0
1000
MTEXTEND
  0
POINT
  5
1826
330
467
100
AcDbEntity
  8
Defpoints
 62
     0
100
AcDbPoint
 10
798.2953074540301
 20
1498.3139875383
 30
0.0
  0
POINT
  5
1827
330
467
100
AcDbEntity
  8
Defpoints
 62
     0
100
AcDbPoint
 10
798.2953074540301
 20
1578.3139875383
 30
0.0
  0
POINT
  5
1828
330
467
100
AcDbEntity
  8
Defpoints
 62
     0
100
AcDbPoint
 10
618.0072043529134
 20
1578.3139875383
 30
0.0
  0
ENDBLK
  5
472
330
467
100
AcDbEntity
  8
0
100
AcDbBlockEnd
  0
BLOCK
  5
487
330
47D
100
AcDbEntity
  8
0
100
AcDbBlockBegin
  2
*D11
 70
     1
 10
0.0
 20
0.0
 30
0.0
  3
*D11
  1

  0
LINE
  5
1817
330
47D
100
AcDbEntity
  8
寸法
 62
     0
370
    15
100
AcDbLine
 10
733.29530745403
 20
1578.3139875383
 30
0.0
 11
618.0072043529134
 21
1578.3139875383
 31
0.0
  0
LINE
  5
1818
330
47D
100
AcDbEntity
  8
寸法
 62
     0
370
    15
100
AcDbLine
 10
733.29530745403
 20
1593.3139875383
 30
0.0
 11
618.0072043529134
 21
1593.3139875383
 31
0.0
  0
LINE
  5
1819
330
47D
100
AcDbEntity
  8
寸法
 62
     0
370
    15
100
AcDbLine
 10
618.0072043529134
 20
1578.3139875383
 30
0.0
 11
618.0072043529134
 21
1593.3139875383
 31
0.0
  0
MTEXT
  5
181A
330
47D
100
AcDbEntity
  8
寸法
 62
     0
100
AcDbMText
 10
609.7722946583153
 20
1620.240706818633
 30
0.0
 40
25.0
 41
0.0
 71
     5
 72
     1
  1
15
 11
0.0000000000000001
 21
1.0
 31
0.0
 73
     1
 44
1.0
1001
ACAD
1000
MTEXTBEGIN
1070
    73
1070
     1
1070
    44
1040
1.0
1070
    74
1070
     0
1000
MTEXTEND
  0
INSERT
  5
181B
330
47D
100
AcDbEntity
  8
寸法
 62
     0
370
    15
100
AcDbBlockReference
  2
_DotSmall
 10
618.0072043529134
 20
1578.3139875383
 30
0.0
 41
35.0
 42
35.0
 43
35.0
 50
270.0
  0
INSERT
  5
181C
330
47D
100
AcDbEntity
  8
寸法
 62
     0
370
    15
100
AcDbBlockReference
  2
_DotSmall
 10
618.0072043529134
 20
1593.3139875383
 30
0.0
 41
35.0
 42
35.0
 43
35.0
 50
90.0
  0
POINT
  5
181D
330
47D
100
AcDbEntity
  8
Defpoints
 62
     0
100
AcDbPoint
 10
798.2953074540301
 20
1578.3139875383
 30
0.0
  0
POINT
  5
181E
330
47D
100
AcDbEntity
  8
Defpoints
 62
     0
100
AcDbPoint
 10
798.2953074540301
 20
1593.3139875383
 30
0.0
  0
POINT
  5
181F
330
47D
100
AcDbEntity
  8
Defpoints
 62
     0
100
AcDbPoint
 10
618.0072043529134
 20
1593.3139875383
 30
0.0
  0
ENDBLK
  5
488
330
47D
100
AcDbEntity
  8
0
100
AcDbBlockEnd
  0
BLOCK
  5
49D
330
493
100
AcDbEntity
  8
0
100
AcDbBlockBegin
  2
*D12
 70
     1
 10
0.0
 20
0.0
 30
0.0
  3
*D12
  1

  0
LINE
  5
17D8
330
493
100
AcDbEntity
  8
寸法
 62
     0
370
    15
100
AcDbLine
 10
733.29530745403
 20
1593.3139875383
 30
0.0
 11
540.4584206427354
 21
1593.3139875383
 31
0.0
  0
LINE
  5
17D9
330
493
100
AcDbEntity
  8
寸法
 62
     0
370
    15
100
AcDbLine
 10
733.29530745403
 20
1043.3139875383
 30
0.0
 11
540.4584206427353
 21
1043.3139875383
 31
0.0
  0
LINE
  5
17DA
330
493
100
AcDbEntity
  8
寸法
 62
     0
370
    15
100
AcDbLine
 10
540.4584206427354
 20
1593.3139875383
 30
0.0
 11
540.4584206427353
 21
1043.3139875383
 31
0.0
  0
INSERT
  5
17DB
330
493
100
AcDbEntity
  8
寸法
 62
     0
370
    15
100
AcDbBlockReference
  2
_DotSmall
 10
540.4584206427354
 20
1593.3139875383
 30
0.0
 41
35.0
 42
35.0
 43
35.0
 50
90.0
  0
INSERT
  5
17DC
330
493
100
AcDbEntity
  8
寸法
 62
     0
370
    15
100
AcDbBlockReference
  2
_DotSmall
 10
540.4584206427353
 20
1043.3139875383
 30
0.0
 41
35.0
 42
35.0
 43
35.0
 50
270.0
  0
MTEXT
  5
17DD
330
493
100
AcDbEntity
  8
寸法
 62
     0
100
AcDbMText
 10
521.7084206427351
 20
1318.3139875383
 30
0.0
 40
25.0
 41
0.0
 71
     5
 72
     1
  1
550
 11
0.0000000000000001
 21
1.0
 31
0.0
 73
     1
 44
1.0
1001
ACAD
1000
MTEXTBEGIN
1070
    73
1070
     1
1070
    44
1040
1.0
1070
    74
1070
     0
1000
MTEXTEND
  0
POINT
  5
17DE
330
493
100
AcDbEntity
  8
Defpoints
 62
     0
100
AcDbPoint
 10
798.2953074540301
 20
1593.3139875383
 30
0.0
  0
POINT
  5
17DF
330
493
100
AcDbEntity
  8
Defpoints
 62
     0
100
AcDbPoint
 10
798.2953074540301
 20
1043.3139875383
 30
0.0
  0
POINT
  5
17E0
330
493
100
AcDbEntity
  8
Defpoints
 62
     0
100
AcDbPoint
 10
540.4584206427353
 20
1043.3139875383
 30
0.0
  0
ENDBLK
  5
49E
330
493
100
AcDbEntity
  8
0
100
AcDbBlockEnd
  0
BLOCK
  5
4CF
330
4C4
100
AcDbEntity
  8
0
100
AcDbBlockBegin
  2
*D13
 70
     1
 10
0.0
 20
0.0
 30
0.0
  3
*D13
  1

  0
LINE
  5
1805
330
4C4
100
AcDbEntity
  8
寸法
 62
     0
370
    15
100
AcDbLine
 10
733.29530745403
 20
1058.3139875383
 30
0.0
 11
618.0072043529134
 21
1058.3139875383
 31
0.0
  0
LINE
  5
1806
330
4C4
100
AcDbEntity
  8
寸法
 62
     0
370
    15
100
AcDbLine
 10
733.29530745403
 20
1043.3139875383
 30
0.0
 11
618.0072043529134
 21
1043.3139875383
 31
0.0
  0
LINE
  5
1807
330
4C4
100
AcDbEntity
  8
寸法
 62
     0
370
    15
100
AcDbLine
 10
618.0072043529134
 20
1058.3139875383
 30
0.0
 11
618.0072043529134
 21
1043.3139875383
 31
0.0
  0
MTEXT
  5
1808
330
4C4
100
AcDbEntity
  8
寸法
 62
     0
100
AcDbMText
 10
590.0444181597176
 20
1070.754094994882
 30
0.0
 40
25.0
 41
0.0
 71
     5
 72
     1
  1
15
 11
0.0000000000000001
 21
1.0
 31
0.0
 73
     1
 44
1.0
1001
ACAD
1000
MTEXTBEGIN
1070
    73
1070
     1
1070
    44
1040
1.0
1070
    74
1070
     0
1000
MTEXTEND
  0
INSERT
  5
1809
330
4C4
100
AcDbEntity
  8
寸法
 62
     0
370
    15
100
AcDbBlockReference
  2
_DotSmall
 10
618.0072043529134
 20
1058.3139875383
 30
0.0
 41
35.0
 42
35.0
 43
35.0
 50
90.0
  0
INSERT
  5
180A
330
4C4
100
AcDbEntity
  8
寸法
 62
     0
370
    15
100
AcDbBlockReference
  2
_DotSmall
 10
618.0072043529134
 20
1043.3139875383
 30
0.0
 41
35.0
 42
35.0
 43
35.0
 50
270.0
  0
POINT
  5
180B
330
4C4
100
AcDbEntity
  8
Defpoints
 62
     0
100
AcDbPoint
 10
798.2953074540301
 20
1058.3139875383
 30
0.0
  0
POINT
  5
180C
330
4C4
100
AcDbEntity
  8
Defpoints
 62
     0
100
AcDbPoint
 10
798.2953074540301
 20
1043.3139875383
 30
0.0
  0
POINT
  5
180D
330
4C4
100
AcDbEntity
  8
Defpoints
 62
     0
100
AcDbPoint
 10
618.0072043529134
 20
1043.3139875383
 30
0.0
  0
ENDBLK
  5
4D0
330
4C4
100
AcDbEntity
  8
0
100
AcDbBlockEnd
  0
BLOCK
  5
4F1
330
4E6
100
AcDbEntity
  8
0
100
AcDbBlockBegin
  2
*D14
 70
     1
 10
0.0
 20
0.0
 30
0.0
  3
*D14
  1

  0
LINE
  5
17FC
330
4E6
100
AcDbEntity
  8
寸法
 62
     0
370
    15
100
AcDbLine
 10
798.2953074540301
 20
978.3139875383003
 30
0.0
 11
798.2953074540301
 21
926.0906621373951
 31
0.0
  0
LINE
  5
17FD
330
4E6
100
AcDbEntity
  8
寸法
 62
     0
370
    15
100
AcDbLine
 10
813.2953074540301
 20
978.3139875383003
 30
0.0
 11
813.2953074540301
 21
926.0906621373951
 31
0.0
  0
LINE
  5
17FE
330
4E6
100
AcDbEntity
  8
寸法
 62
     0
370
    15
100
AcDbLine
 10
798.2953074540301
 20
926.0906621373951
 30
0.0
 11
813.2953074540301
 21
926.0906621373951
 31
0.0
  0
MTEXT
  5
17FF
330
4E6
100
AcDbEntity
  8
寸法
 62
     0
100
AcDbMText
 10
849.1897288412783
 20
945.6385412394638
 30
0.0
 40
25.0
 41
0.0
 71
     5
 72
     1
  1
15
 73
     1
 44
1.0
1001
ACAD
1000
MTEXTBEGIN
1070
    73
1070
     1
1070
    44
1040
1.0
1070
    74
1070
     0
1000
MTEXTEND
  0
INSERT
  5
1800
330
4E6
100
AcDbEntity
  8
寸法
 62
     0
370
    15
100
AcDbBlockReference
  2
_DotSmall
 10
798.2953074540301
 20
926.0906621373951
 30
0.0
 41
35.0
 42
35.0
 43
35.0
 50
180.0
  0
INSERT
  5
1801
330
4E6
100
AcDbEntity
  8
寸法
 62
     0
370
    15
100
AcDbBlockReference
  2
_DotSmall
 10
813.2953074540301
 20
926.0906621373951
 30
0.0
 41
35.0
 42
35.0
 43
35.0
  0
POINT
  5
1802
330
4E6
100
AcDbEntity
  8
Defpoints
 62
     0
100
AcDbPoint
 10
798.2953074540301
 20
1043.3139875383
 30
0.0
  0
POINT
  5
1803
330
4E6
100
AcDbEntity
  8
Defpoints
 62
     0
100
AcDbPoint
 10
813.2953074540301
 20
1043.3139875383
 30
0.0
  0
POINT
  5
1804
330
4E6
100
AcDbEntity
  8
Defpoints
 62
     0
100
AcDbPoint
 10
813.2953074540301
 20
926.0906621373951
 30
0.0
  0
ENDBLK
  5
4F2
330
4E6
100
AcDbEntity
  8
0
100
AcDbBlockEnd
  0
BLOCK
  5
508
330
4FE
100
AcDbEntity
  8
0
100
AcDbBlockBegin
  2
*D15
 70
     1
 10
0.0
 20
0.0
 30
0.0
  3
*D15
  1

  0
LINE
  5
17B4
330
4FE
100
AcDbEntity
  8
寸法
 62
     0
370
    15
100
AcDbLine
 10
813.2953074540301
 20
978.3139875383003
 30
0.0
 11
813.2953074540301
 21
926.0906621373951
 31
0.0
  0
LINE
  5
17B5
330
4FE
100
AcDbEntity
  8
寸法
 62
     0
370
    15
100
AcDbLine
 10
1763.29530745403
 20
978.3139875383003
 30
0.0
 11
1763.29530745403
 21
926.0906621373951
 31
0.0
  0
LINE
  5
17B6
330
4FE
100
AcDbEntity
  8
寸法
 62
     0
370
    15
100
AcDbLine
 10
813.2953074540301
 20
926.0906621373951
 30
0.0
 11
1763.29530745403
 21
926.0906621373951
 31
0.0
  0
INSERT
  5
17B7
330
4FE
100
AcDbEntity
  8
寸法
 62
     0
370
    15
100
AcDbBlockReference
  2
_DotSmall
 10
813.2953074540301
 20
926.0906621373951
 30
0.0
 41
35.0
 42
35.0
 43
35.0
 50
180.0
  0
INSERT
  5
17B8
330
4FE
100
AcDbEntity
  8
寸法
 62
     0
370
    15
100
AcDbBlockReference
  2
_DotSmall
 10
1763.29530745403
 20
926.0906621373951
 30
0.0
 41
35.0
 42
35.0
 43
35.0
  0
MTEXT
  5
17B9
330
4FE
100
AcDbEntity
  8
寸法
 62
     0
100
AcDbMText
 10
1288.29530745403
 20
944.8406621373951
 30
0.0
 40
25.0
 41
0.0
 71
     5
 72
     1
  1
950
 73
     1
 44
1.0
1001
ACAD
1000
MTEXTBEGIN
1070
    73
1070
     1
1070
    44
1040
1.0
1070
    74
1070
     0
1000
MTEXTEND
  0
POINT
  5
17BA
330
4FE
100
AcDbEntity
  8
Defpoints
 62
     0
100
AcDbPoint
 10
813.2953074540301
 20
1043.3139875383
 30
0.0
  0
POINT
  5
17BB
330
4FE
100
AcDbEntity
  8
Defpoints
 62
     0
100
AcDbPoint
 10
1763.29530745403
 20
1043.3139875383
 30
0.0
  0
POINT
  5
17BC
330
4FE
100
AcDbEntity
  8
Defpoints
 62
     0
100
AcDbPoint
 10
1763.29530745403
 20
926.0906621373951
 30
0.0
  0
ENDBLK
  5
509
330
4FE
100
AcDbEntity
  8
0
100
AcDbBlockEnd
  0
BLOCK
  5
517
330
50B
100
AcDbEntity
  8
0
100
AcDbBlockBegin
  2
*D16
 70
     1
 10
0.0
 20
0.0
 30
0.0
  3
*D16
  1

  0
LINE
  5
183B
330
50B
100
AcDbEntity
  8
寸法
 62
     0
370
    15
100
AcDbLine
 10
1763.29530745403
 20
978.3139875383003
 30
0.0
 11
1763.29530745403
 21
926.0906621373951
 31
0.0
  0
LINE
  5
183C
330
50B
100
AcDbEntity
  8
寸法
 62
     0
370
    15
100
AcDbLine
 10
1778.29530745403
 20
978.3139875383003
 30
0.0
 11
1778.29530745403
 21
926.0906621373951
 31
0.0
  0
LINE
  5
183D
330
50B
100
AcDbEntity
  8
寸法
 62
     0
370
    15
100
AcDbLine
 10
1763.29530745403
 20
926.0906621373951
 30
0.0
 11
1778.29530745403
 21
926.0906621373951
 31
0.0
  0
MTEXT
  5
183E
330
50B
100
AcDbEntity
  8
寸法
 62
     0
100
AcDbMText
 10
1721.662529647291
 20
944.8406621373951
 30
0.0
 40
25.0
 41
0.0
 71
     5
 72
     1
  1
15
 73
     1
 44
1.0
1001
ACAD
1000
MTEXTBEGIN
1070
    73
1070
     1
1070
    44
1040
1.0
1070
    74
1070
     0
1000
MTEXTEND
  0
INSERT
  5
183F
330
50B
100
AcDbEntity
  8
寸法
 62
     0
370
    15
100
AcDbBlockReference
  2
_DotSmall
 10
1763.29530745403
 20
926.0906621373951
 30
0.0
 41
35.0
 42
35.0
 43
35.0
 50
180.0
  0
INSERT
  5
1840
330
50B
100
AcDbEntity
  8
寸法
 62
     0
370
    15
100
AcDbBlockReference
  2
_DotSmall
 10
1778.29530745403
 20
926.0906621373951
 30
0.0
 41
35.0
 42
35.0
 43
35.0
  0
POINT
  5
1841
330
50B
100
AcDbEntity
  8
Defpoints
 62
     0
100
AcDbPoint
 10
1763.29530745403
 20
1043.3139875383
 30
0.0
  0
POINT
  5
1842
330
50B
100
AcDbEntity
  8
Defpoints
 62
     0
100
AcDbPoint
 10
1778.29530745403
 20
1043.3139875383
 30
0.0
  0
POINT
  5
1843
330
50B
100
AcDbEntity
  8
Defpoints
 62
     0
100
AcDbPoint
 10
1778.29530745403
 20
926.0906621373951
 30
0.0
  0
ENDBLK
  5
518
330
50B
100
AcDbEntity
  8
0
100
AcDbBlockEnd
  0
BLOCK
  5
52D
330
523
100
AcDbEntity
  8
0
100
AcDbBlockBegin
  2
*D17
 70
     1
 10
0.0
 20
0.0
 30
0.0
  3
*D17
  1

  0
LINE
  5
17AB
330
523
100
AcDbEntity
  8
寸法
 62
     0
370
    15
100
AcDbLine
 10
798.2953074540301
 20
978.3139875383003
 30
0.0
 11
798.2953074540301
 21
851.9702469037357
 31
0.0
  0
LINE
  5
17AC
330
523
100
AcDbEntity
  8
寸法
 62
     0
370
    15
100
AcDbLine
 10
1778.29530745403
 20
978.3139875383003
 30
0.0
 11
1778.29530745403
 21
851.9702469037357
 31
0.0
  0
LINE
  5
17AD
330
523
100
AcDbEntity
  8
寸法
 62
     0
370
    15
100
AcDbLine
 10
798.2953074540301
 20
851.9702469037357
 30
0.0
 11
1778.29530745403
 21
851.9702469037357
 31
0.0
  0
INSERT
  5
17AE
330
523
100
AcDbEntity
  8
寸法
 62
     0
370
    15
100
AcDbBlockReference
  2
_DotSmall
 10
798.2953074540301
 20
851.9702469037357
 30
0.0
 41
35.0
 42
35.0
 43
35.0
 50
180.0
  0
INSERT
  5
17AF
330
523
100
AcDbEntity
  8
寸法
 62
     0
370
    15
100
AcDbBlockReference
  2
_DotSmall
 10
1778.29530745403
 20
851.9702469037357
 30
0.0
 41
35.0
 42
35.0
 43
35.0
  0
MTEXT
  5
17B0
330
523
100
AcDbEntity
  8
寸法
 62
     0
100
AcDbMText
 10
1288.29530745403
 20
870.7202469037357
 30
0.0
 40
25.0
 41
0.0
 71
     5
 72
     1
  1
980
 73
     1
 44
1.0
1001
ACAD
1000
MTEXTBEGIN
1070
    73
1070
     1
1070
    44
1040
1.0
1070
    74
1070
     0
1000
MTEXTEND
  0
POINT
  5
17B1
330
523
100
AcDbEntity
  8
Defpoints
 62
     0
100
AcDbPoint
 10
798.2953074540301
 20
1043.3139875383
 30
0.0
  0
POINT
  5
17B2
330
523
100
AcDbEntity
  8
Defpoints
 62
     0
100
AcDbPoint
 10
1778.29530745403
 20
1043.3139875383
 30
0.0
  0
POINT
  5
17B3
330
523
100
AcDbEntity
  8
Defpoints
 62
     0
100
AcDbPoint
 10
1778.29530745403
 20
851.9702469037357
 30
0.0
  0
ENDBLK
  5
52E
330
523
100
AcDbEntity
  8
0
100
AcDbBlockEnd
  0
BLOCK
  5
649
330
63D
100
AcDbEntity
  8
0
100
AcDbBlockBegin
  2
*D18
 70
     1
 10
0.0
 20
0.0
 30
0.0
  3
*D18
  1

  0
LINE
  5
189B
330
63D
100
AcDbEntity
  8
寸法
 62
     0
370
    15
100
AcDbLine
 10
2047.773726144549
 20
1433.3139875383
 30
0.0
 11
2047.773726144549
 21
1379.91625538776
 31
0.0
  0
LINE
  5
189C
330
63D
100
AcDbEntity
  8
寸法
 62
     0
370
    15
100
AcDbLine
 10
2054.173726144549
 20
1433.3139875383
 30
0.0
 11
2054.173726144549
 21
1379.91625538776
 31
0.0
  0
MTEXT
  5
189D
330
63D
100
AcDbEntity
  8
寸法
 62
     0
100
AcDbMText
 10
2010.732762844781
 20
1388.180259069105
 30
0.0
 40
25.0
 41
0.0
 71
     5
 72
     1
  1
6.4
 73
     1
 44
1.0
1001
ACAD
1000
MTEXTBEGIN
1070
    73
1070
     1
1070
    44
1040
1.0
1070
    74
1070
     0
1000
MTEXTEND
  0
LINE
  5
189E
330
63D
100
AcDbEntity
  8
寸法
 62
     0
370
    15
100
AcDbLine
 10
2047.773726144549
 20
1379.91625538776
 30
0.0
 11
2054.173726144549
 21
1379.91625538776
 31
0.0
  0
POINT
  5
189F
330
63D
100
AcDbEntity
  8
Defpoints
 62
     0
100
AcDbPoint
 10
2047.773726144549
 20
1498.3139875383
 30
0.0
  0
POINT
  5
18A0
330
63D
100
AcDbEntity
  8
Defpoints
 62
     0
100
AcDbPoint
 10
2054.173726144549
 20
1498.3139875383
 30
0.0
  0
POINT
  5
18A1
330
63D
100
AcDbEntity
  8
Defpoints
 62
     0
100
AcDbPoint
 10
2054.173726144549
 20
1379.91625538776
 30
0.0
  0
ENDBLK
  5
64A
330
63D
100
AcDbEntity
  8
0
100
AcDbBlockEnd
  0
BLOCK
  5
67C
330
66D
100
AcDbEntity
  8
0
100
AcDbBlockBegin
  2
*D19
 70
     1
 10
0.0
 20
0.0
 30
0.0
  3
*D19
  1

  0
LINE
  5
1894
330
66D
100
AcDbEntity
  8
寸法
 62
     0
370
    15
100
AcDbLine
 10
2054.173726144549
 20
1433.3139875383
 30
0.0
 11
2054.173726144549
 21
1379.91625538776
 31
0.0
  0
LINE
  5
1895
330
66D
100
AcDbEntity
  8
寸法
 62
     0
370
    15
100
AcDbLine
 10
2062.773726144549
 20
1433.3139875383
 30
0.0
 11
2062.773726144549
 21
1379.91625538776
 31
0.0
  0
MTEXT
  5
1896
330
66D
100
AcDbEntity
  8
寸法
 62
     0
100
AcDbMText
 10
2096.912089348841
 20
1387.799431261799
 30
0.0
 40
25.0
 41
0.0
 71
     5
 72
     1
  1
8.6
 73
     1
 44
1.0
1001
ACAD
1000
MTEXTBEGIN
1070
    73
1070
     1
1070
    44
1040
1.0
1070
    74
1070
     0
1000
MTEXTEND
  0
LINE
  5
1897
330
66D
100
AcDbEntity
  8
寸法
 62
     0
370
    15
100
AcDbLine
 10
2054.173726144549
 20
1379.91625538776
 30
0.0
 11
2062.773726144549
 21
1379.91625538776
 31
0.0
  0
POINT
  5
1898
330
66D
100
AcDbEntity
  8
Defpoints
 62
     0
100
AcDbPoint
 10
2054.173726144549
 20
1498.3139875383
 30
0.0
  0
POINT
  5
1899
330
66D
100
AcDbEntity
  8
Defpoints
 62
     0
100
AcDbPoint
 10
2062.773726144549
 20
1498.3139875383
 30
0.0
  0
POINT
  5
189A
330
66D
100
AcDbEntity
  8
Defpoints
 62
     0
100
AcDbPoint
 10
2062.773726144549
 20
1379.91625538776
 30
0.0
  0
ENDBLK
  5
67D
330
66D
100
AcDbEntity
  8
0
100
AcDbBlockEnd
  0
BLOCK
  5
6B6
330
6AB
100
AcDbEntity
  8
0
100
AcDbBlockBegin
  2
*D20
 70
     1
 10
0.0
 20
0.0
 30
0.0
  3
*D20
  1

  0
LINE
  5
188B
330
6AB
100
AcDbEntity
  8
寸法
 62
     0
370
    15
100
AcDbLine
 10
2047.773726144549
 20
1418.3139875383
 30
0.0
 11
2047.773726144549
 21
1330.331914088405
 31
0.0
  0
LINE
  5
188C
330
6AB
100
AcDbEntity
  8
寸法
 62
     0
370
    15
100
AcDbLine
 10
2062.773726144549
 20
1418.3139875383
 30
0.0
 11
2062.773726144549
 21
1330.331914088405
 31
0.0
  0
LINE
  5
188D
330
6AB
100
AcDbEntity
  8
寸法
 62
     0
370
    15
100
AcDbLine
 10
2047.773726144549
 20
1330.331914088405
 30
0.0
 11
2062.773726144549
 21
1330.331914088405
 31
0.0
  0
MTEXT
  5
188E
330
6AB
100
AcDbEntity
  8
寸法
 62
     0
100
AcDbMText
 10
2008.114180342877
 20
1330.616842699677
 30
0.0
 40
25.0
 41
0.0
 71
     5
 72
     1
  1
15
 73
     1
 44
1.0
1001
ACAD
1000
MTEXTBEGIN
1070
    73
1070
     1
1070
    44
1040
1.0
1070
    74
1070
     0
1000
MTEXTEND
  0
INSERT
  5
188F
330
6AB
100
AcDbEntity
  8
寸法
 62
     0
370
    15
100
AcDbBlockReference
  2
_DotSmall
 10
2047.773726144549
 20
1330.331914088405
 30
0.0
 41
35.0
 42
35.0
 43
35.0
 50
180.0
  0
INSERT
  5
1890
330
6AB
100
AcDbEntity
  8
寸法
 62
     0
370
    15
100
AcDbBlockReference
  2
_DotSmall
 10
2062.773726144549
 20
1330.331914088405
 30
0.0
 41
35.0
 42
35.0
 43
35.0
  0
POINT
  5
1891
330
6AB
100
AcDbEntity
  8
Defpoints
 62
     0
100
AcDbPoint
 10
2047.773726144549
 20
1483.3139875383
 30
0.0
  0
POINT
  5
1892
330
6AB
100
AcDbEntity
  8
Defpoints
 62
     0
100
AcDbPoint
 10
2062.773726144549
 20
1483.3139875383
 30
0.0
  0
POINT
  5
1893
330
6AB
100
AcDbEntity
  8
Defpoints
 62
     0
100
AcDbPoint
 10
2062.773726144549
 20
1330.331914088405
 30
0.0
  0
ENDBLK
  5
6B7
330
6AB
100
AcDbEntity
  8
0
100
AcDbBlockEnd
  0
BLOCK
  5
6F5
330
6EB
100
AcDbEntity
  8
0
100
AcDbBlockBegin
  2
*D21
 70
     1
 10
0.0
 20
0.0
 30
0.0
  3
*D21
  1

  0
LINE
  5
19A3
330
6EB
100
AcDbEntity
  8
寸法
 62
     0
370
    15
100
AcDbLine
 10
2319.773726144549
 20
1432.8139875383
 30
0.0
 11
2366.345570815937
 21
1432.8139875383
 31
0.0
  0
LINE
  5
19A4
330
6EB
100
AcDbEntity
  8
寸法
 62
     0
370
    15
100
AcDbLine
 10
2319.773726144549
 20
1273.8139875383
 30
0.0
 11
2366.345570815937
 21
1273.8139875383
 31
0.0
  0
LINE
  5
19A5
330
6EB
100
AcDbEntity
  8
寸法
 62
     0
370
    15
100
AcDbLine
 10
2366.345570815937
 20
1432.8139875383
 30
0.0
 11
2366.345570815937
 21
1273.8139875383
 31
0.0
  0
MTEXT
  5
19A6
330
6EB
100
AcDbEntity
  8
寸法
 62
     0
100
AcDbMText
 10
2345.542768159843
 20
1354.967102361367
 30
0.0
 40
25.0
 41
0.0
 71
     5
 72
     1
  1
158%%C
 11
0.0000000000000001
 21
1.0
 31
0.0
 73
     1
 44
1.0
1001
ACAD
1000
MTEXTBEGIN
1070
    73
1070
     1
1070
    44
1040
1.0
1070
    74
1070
     0
1000
MTEXTEND
  0
INSERT
  5
19A7
330
6EB
100
AcDbEntity
  8
寸法
 62
     0
370
    15
100
AcDbBlockReference
  2
_DotSmall
 10
2366.345570815937
 20
1432.8139875383
 30
0.0
 41
35.0
 42
35.0
 43
35.0
 50
90.0
  0
INSERT
  5
19A8
330
6EB
100
AcDbEntity
  8
寸法
 62
     0
370
    15
100
AcDbBlockReference
  2
_DotSmall
 10
2366.345570815937
 20
1273.8139875383
 30
0.0
 41
35.0
 42
35.0
 43
35.0
 50
270.0
  0
POINT
  5
19A9
330
6EB
100
AcDbEntity
  8
Defpoints
 62
     0
100
AcDbPoint
 10
2254.773726144549
 20
1432.8139875383
 30
0.0
  0
POINT
  5
19AA
330
6EB
100
AcDbEntity
  8
Defpoints
 62
     0
100
AcDbPoint
 10
2254.773726144549
 20
1273.8139875383
 30
0.0
  0
POINT
  5
19AB
330
6EB
100
AcDbEntity
  8
Defpoints
 62
     0
100
AcDbPoint
 10
2366.345570815937
 20
1273.8139875383
 30
0.0
  0
ENDBLK
  5
6F6
330
6EB
100
AcDbEntity
  8
0
100
AcDbBlockEnd
  0
BLOCK
  5
786
330
77C
100
AcDbEntity
  8
0
100
AcDbBlockBegin
  2
*D22
 70
     1
 10
0.0
 20
0.0
 30
0.0
  3
*D22
  1

  0
LINE
  5
19AC
330
77C
100
AcDbEntity
  8
寸法
 62
     0
370
    15
100
AcDbLine
 10
2237.01311196768
 20
1443.8139875383
 30
0.0
 11
2194.309987378405
 21
1443.8139875383
 31
0.0
  0
LINE
  5
19AD
330
77C
100
AcDbEntity
  8
寸法
 62
     0
370
    15
100
AcDbLine
 10
2237.01311196768
 20
1262.8139875383
 30
0.0
 11
2194.309987378405
 21
1262.8139875383
 31
0.0
  0
LINE
  5
19AE
330
77C
100
AcDbEntity
  8
寸法
 62
     0
370
    15
100
AcDbLine
 10
2194.309987378405
 20
1443.8139875383
 30
0.0
 11
2194.309987378405
 21
1262.8139875383
 31
0.0
  0
MTEXT
  5
19AF
330
77C
100
AcDbEntity
  8
寸法
 62
     0
100
AcDbMText
 10
2170.684731914398
 20
1355.58449103274
 30
0.0
 40
25.0
 41
0.0
 71
     5
 72
     1
  1
181%%C
 11
0.0000000000000001
 21
1.0
 31
0.0
 73
     1
 44
1.0
1001
ACAD
1000
MTEXTBEGIN
1070
    73
1070
     1
1070
    44
1040
1.0
1070
    74
1070
     0
1000
MTEXTEND
  0
INSERT
  5
19B0
330
77C
100
AcDbEntity
  8
寸法
 62
     0
370
    15
100
AcDbBlockReference
  2
_DotSmall
 10
2194.309987378405
 20
1443.8139875383
 30
0.0
 41
35.0
 42
35.0
 43
35.0
 50
90.0
  0
INSERT
  5
19B1
330
77C
100
AcDbEntity
  8
寸法
 62
     0
370
    15
100
AcDbBlockReference
  2
_DotSmall
 10
2194.309987378405
 20
1262.8139875383
 30
0.0
 41
35.0
 42
35.0
 43
35.0
 50
270.0
  0
POINT
  5
19B2
330
77C
100
AcDbEntity
  8
Defpoints
 62
     0
100
AcDbPoint
 10
2302.01311196768
 20
1443.8139875383
 30
0.0
  0
POINT
  5
19B3
330
77C
100
AcDbEntity
  8
Defpoints
 62
     0
100
AcDbPoint
 10
2302.01311196768
 20
1262.8139875383
 30
0.0
  0
POINT
  5
19B4
330
77C
100
AcDbEntity
  8
Defpoints
 62
     0
100
AcDbPoint
 10
2194.309987378405
 20
1262.8139875383
 30
0.0
  0
ENDBLK
  5
787
330
77C
100
AcDbEntity
  8
0
100
AcDbBlockEnd
  0
BLOCK
  5
EC2
330
EB6
100
AcDbEntity
  8
0
100
AcDbBlockBegin
  2
*D23
 70
     1
 10
0.0
 20
0.0
 30
0.0
  3
*D23
  1

  0
LINE
  5
1883
330
EB6
100
AcDbEntity
  8
実形
 62
     0
370
    15
100
AcDbLine
 10
2062.773726144549
 20
1433.3139875383
 30
0.0
 11
2062.773726144549
 21
1379.91625538776
 31
0.0
  0
LINE
  5
1884
330
EB6
100
AcDbEntity
  8
実形
 62
     0
370
    15
100
AcDbLine
 10
2047.773726144549
 20
1433.3139875383
 30
0.0
 11
2047.773726144549
 21
1379.91625538776
 31
0.0
  0
LINE
  5
1885
330
EB6
100
AcDbEntity
  8
実形
 62
     0
370
    15
100
AcDbLine
 10
2062.773726144549
 20
1379.91625538776
 30
0.0
 11
2047.773726144549
 21
1379.91625538776
 31
0.0
  0
INSERT
  5
1886
330
EB6
100
AcDbEntity
  8
実形
 62
     0
370
    15
100
AcDbBlockReference
  2
_DotSmall
 10
2062.773726144549
 20
1379.91625538776
 30
0.0
 41
30.0
 42
30.0
 43
30.0
  0
INSERT
  5
1887
330
EB6
100
AcDbEntity
  8
実形
 62
     0
370
    15
100
AcDbBlockReference
  2
_DotSmall
 10
2047.773726144549
 20
1379.91625538776
 30
0.0
 41
30.0
 42
30.0
 43
30.0
 50
180.0
  0
POINT
  5
1888
330
EB6
100
AcDbEntity
  8
Defpoints
 62
     0
100
AcDbPoint
 10
2062.773726144549
 20
1498.3139875383
 30
0.0
  0
POINT
  5
1889
330
EB6
100
AcDbEntity
  8
Defpoints
 62
     0
100
AcDbPoint
 10
2047.773726144549
 20
1498.3139875383
 30
0.0
  0
POINT
  5
188A
330
EB6
100
AcDbEntity
  8
Defpoints
 62
     0
100
AcDbPoint
 10
2047.773726144549
 20
1379.91625538776
 30
0.0
  0
ENDBLK
  5
EC3
330
EB6
100
AcDbEntity
  8
0
100
AcDbBlockEnd
  0
BLOCK
  5
18EB
330
18E1
100
AcDbEntity
  8
0
100
AcDbBlockBegin
  2
*D24
 70
     1
 10
0.0
 20
0.0
 30
0.0
  3
*D24
  1

  0
LINE
  5
18F7
330
18E1
100
AcDbEntity
  8
寸法
 62
     0
370
    15
100
AcDbLine
 10
2047.773726144549
 20
1175.8139875383
 30
0.0
 11
2047.773726144549
 21
1181.537323574898
 31
0.0
  0
LINE
  5
18F8
330
18E1
100
AcDbEntity
  8
寸法
 62
     0
370
    15
100
AcDbLine
 10
2097.773726144549
 20
1235.8139875383
 30
0.0
 11
2097.773726144549
 21
1181.537323574898
 31
0.0
  0
LINE
  5
18F9
330
18E1
100
AcDbEntity
  8
寸法
 62
     0
370
    18
100
AcDbLine
 10
2047.773726144549
 20
1181.537323574898
 30
0.0
 11
2097.773726144549
 21
1181.537323574898
 31
0.0
  0
MTEXT
  5
18FA
330
18E1
100
AcDbEntity
  8
寸法
 62
     0
100
AcDbMText
 10
2072.773726144549
 20
1201.381990676092
 30
0.0
 40
25.0
 41
0.0
 71
     5
 72
     1
  1
50
 73
     1
 44
1.0
1001
ACAD
1000
MTEXTBEGIN
1070
    73
1070
     1
1070
    44
1040
1.0
1070
    74
1070
     0
1000
MTEXTEND
  0
INSERT
  5
18FB
330
18E1
100
AcDbEntity
  8
寸法
 62
     0
370
    18
100
AcDbBlockReference
  2
_DotSmall
 10
2047.773726144549
 20
1181.537323574898
 30
0.0
 41
35.0
 42
35.0
 43
35.0
 50
180.0
  0
INSERT
  5
18FC
330
18E1
100
AcDbEntity
  8
寸法
 62
     0
370
    18
100
AcDbBlockReference
  2
_DotSmall
 10
2097.773726144549
 20
1181.537323574898
 30
0.0
 41
35.0
 42
35.0
 43
35.0
  0
POINT
  5
18FD
330
18E1
100
AcDbEntity
  8
Defpoints
 62
     0
100
AcDbPoint
 10
2047.773726144549
 20
1240.8139875383
 30
0.0
  0
POINT
  5
18FE
330
18E1
100
AcDbEntity
  8
Defpoints
 62
     0
100
AcDbPoint
 10
2097.773726144549
 20
1300.8139875383
 30
0.0
  0
POINT
  5
18FF
330
18E1
100
AcDbEntity
  8
Defpoints
 62
     0
100
AcDbPoint
 10
2097.773726144549
 20
1181.537323574898
 30
0.0
  0
ENDBLK
  5
18EC
330
18E1
100
AcDbEntity
  8
0
100
AcDbBlockEnd
  0
BLOCK
  5
1983
330
1979
100
AcDbEntity
  8
0
100
AcDbBlockBegin
  2
*D25
 70
     1
 10
0.0
 20
0.0
 30
0.0
  3
*D25
  1

  0
LINE
  5
1991
330
1979
100
AcDbEntity
  8
実形
 62
     0
370
    15
100
AcDbLine
 10
715.1214089195136
 20
643.3139875383004
 30
0.0
 11
660.6865406830356
 21
643.3139875383004
 31
0.0
  0
LINE
  5
1992
330
1979
100
AcDbEntity
  8
実形
 62
     0
370
    15
100
AcDbLine
 10
715.1214089195136
 20
628.3139875383004
 30
0.0
 11
660.6865406830356
 21
628.3139875383004
 31
0.0
  0
LINE
  5
1993
330
1979
100
AcDbEntity
  8
実形
 62
     0
370
    15
100
AcDbLine
 10
660.6865406830356
 20
643.3139875383004
 30
0.0
 11
660.6865406830356
 21
628.3139875383004
 31
0.0
  0
MTEXT
  5
1994
330
1979
100
AcDbEntity
  8
実形
 62
     0
100
AcDbMText
 10
629.9255061005169
 20
618.8809937227743
 30
0.0
 40
25.0
 41
0.0
 71
     5
 72
     1
  1
15
 11
0.0000000000000001
 21
1.0
 31
0.0
 73
     1
 44
1.0
1001
ACAD
1000
MTEXTBEGIN
1070
    73
1070
     1
1070
    44
1040
1.0
1070
    74
1070
     0
1000
MTEXTEND
  0
INSERT
  5
1995
330
1979
100
AcDbEntity
  8
実形
 62
     0
370
    15
100
AcDbBlockReference
  2
_DotSmall
 10
660.6865406830356
 20
643.3139875383004
 30
0.0
 41
20.0
 42
20.0
 43
20.0
 50
90.0
  0
INSERT
  5
1996
330
1979
100
AcDbEntity
  8
実形
 62
     0
370
    15
100
AcDbBlockReference
  2
_DotSmall
 10
660.6865406830356
 20
628.3139875383004
 30
0.0
 41
20.0
 42
20.0
 43
20.0
 50
270.0
  0
POINT
  5
1997
330
1979
100
AcDbEntity
  8
Defpoints
 62
     0
100
AcDbPoint
 10
780.1214089195135
 20
643.3139875383004
 30
0.0
  0
POINT
  5
1998
330
1979
100
AcDbEntity
  8
Defpoints
 62
     0
100
AcDbPoint
 10
780.1214089195135
 20
628.3139875383003
 30
0.0
  0
POINT
  5
1999
330
1979
100
AcDbEntity
  8
Defpoints
 62
     0
100
AcDbPoint
 10
660.6865406830356
 20
628.3139875383004
 30
0.0
  0
ENDBLK
  5
1984
330
1979
100
AcDbEntity
  8
0
100
AcDbBlockEnd
  0
BLOCK
  5
198F
330
1985
100
AcDbEntity
  8
0
100
AcDbBlockBegin
  2
*D26
 70
     1
 10
0.0
 20
0.0
 30
0.0
  3
*D26
  1

  0
LINE
  5
199A
330
1985
100
AcDbEntity
  8
実形
 62
     0
370
    15
100
AcDbLine
 10
715.1214089195137
 20
643.3139875383004
 30
0.0
 11
597.8954873256961
 21
643.3139875383004
 31
0.0
  0
LINE
  5
199B
330
1985
100
AcDbEntity
  8
実形
 62
     0
370
    15
100
AcDbLine
 10
715.1214089195137
 20
443.3139875383004
 30
0.0
 11
597.8954873256961
 21
443.3139875383004
 31
0.0
  0
LINE
  5
199C
330
1985
100
AcDbEntity
  8
実形
 62
     0
370
    15
100
AcDbLine
 10
597.8954873256961
 20
643.3139875383004
 30
0.0
 11
597.8954873256961
 21
443.3139875383004
 31
0.0
  0
INSERT
  5
199D
330
1985
100
AcDbEntity
  8
実形
 62
     0
370
    15
100
AcDbBlockReference
  2
_DotSmall
 10
597.8954873256961
 20
643.3139875383004
 30
0.0
 41
20.0
 42
20.0
 43
20.0
 50
90.0
  0
INSERT
  5
199E
330
1985
100
AcDbEntity
  8
実形
 62
     0
370
    15
100
AcDbBlockReference
  2
_DotSmall
 10
597.8954873256961
 20
443.3139875383004
 30
0.0
 41
20.0
 42
20.0
 43
20.0
 50
270.0
  0
MTEXT
  5
199F
330
1985
100
AcDbEntity
  8
実形
 62
     0
100
AcDbMText
 10
579.145487325696
 20
543.3139875383005
 30
0.0
 40
25.0
 41
0.0
 71
     5
 72
     1
  1
200
 11
0.0000000000000001
 21
1.0
 31
0.0
 73
     1
 44
1.0
1001
ACAD
1000
MTEXTBEGIN
1070
    73
1070
     1
1070
    44
1040
1.0
1070
    74
1070
     0
1000
MTEXTEND
  0
POINT
  5
19A0
330
1985
100
AcDbEntity
  8
Defpoints
 62
     0
100
AcDbPoint
 10
780.1214089195136
 20
643.3139875383004
 30
0.0
  0
POINT
  5
19A1
330
1985
100
AcDbEntity
  8
Defpoints
 62
     0
100
AcDbPoint
 10
780.1214089195138
 20
443.3139875383004
 30
0.0
  0
POINT
  5
19A2
330
1985
100
AcDbEntity
  8
Defpoints
 62
     0
100
AcDbPoint
 10
597.8954873256961
 20
443.3139875383004
 30
0.0
  0
ENDBLK
  5
1990
330
1985
100
AcDbEntity
  8
0
100
AcDbBlockEnd
  0
BLOCK
  5
19EB
330
19E1
100
AcDbEntity
  8
0
100
AcDbBlockBegin
  2
*D27
 70
     1
 10
0.0
 20
0.0
 30
0.0
  3
*D27
  1

  0
LINE
  5
19F9
330
19E1
100
AcDbEntity
  8
実形
 62
     0
370
    15
100
AcDbLine
 10
2047.773726144549
 20
976.5727798482549
 30
0.0
 11
2047.773726144549
 21
922.0516362497773
 31
0.0
  0
LINE
  5
19FA
330
19E1
100
AcDbEntity
  8
実形
 62
     0
370
    15
100
AcDbLine
 10
2062.773726144549
 20
976.5727798482549
 30
0.0
 11
2062.773726144549
 21
922.0516362497773
 31
0.0
  0
LINE
  5
19FB
330
19E1
100
AcDbEntity
  8
実形
 62
     0
370
    15
100
AcDbLine
 10
2047.773726144549
 20
922.0516362497773
 30
0.0
 11
2062.773726144549
 21
922.0516362497773
 31
0.0
  0
MTEXT
  5
19FC
330
19E1
100
AcDbEntity
  8
実形
 62
     0
100
AcDbMText
 10
2092.936805977958
 20
937.5536695805431
 30
0.0
 40
25.0
 41
0.0
 71
     5
 72
     1
  1
15
 73
     1
 44
1.0
1001
ACAD
1000
MTEXTBEGIN
1070
    73
1070
     1
1070
    44
1040
1.0
1070
    74
1070
     0
1000
MTEXTEND
  0
INSERT
  5
19FD
330
19E1
100
AcDbEntity
  8
実形
 62
     0
370
    15
100
AcDbBlockReference
  2
_DotSmall
 10
2047.773726144549
 20
922.0516362497773
 30
0.0
 41
20.0
 42
20.0
 43
20.0
 50
180.0
  0
INSERT
  5
19FE
330
19E1
100
AcDbEntity
  8
実形
 62
     0
370
    15
100
AcDbBlockReference
  2
_DotSmall
 10
2062.773726144549
 20
922.0516362497773
 30
0.0
 41
20.0
 42
20.0
 43
20.0
  0
POINT
  5
19FF
330
19E1
100
AcDbEntity
  8
Defpoints
 62
     0
100
AcDbPoint
 10
2047.773726144549
 20
1041.572779848255
 30
0.0
  0
POINT
  5
1A00
330
19E1
100
AcDbEntity
  8
Defpoints
 62
     0
100
AcDbPoint
 10
2062.773726144549
 20
1041.572779848255
 30
0.0
  0
POINT
  5
1A01
330
19E1
100
AcDbEntity
  8
Defpoints
 62
     0
100
AcDbPoint
 10
2062.773726144549
 20
922.0516362497773
 30
0.0
  0
ENDBLK
  5
19EC
330
19E1
100
AcDbEntity
  8
0
100
AcDbBlockEnd
  0
BLOCK
  5
19F7
330
19ED
100
AcDbEntity
  8
0
100
AcDbBlockBegin
  2
*D28
 70
     1
 10
0.0
 20
0.0
 30
0.0
  3
*D28
  1

  0
LINE
  5
1A02
330
19ED
100
AcDbEntity
  8
実形
 62
     0
370
    15
100
AcDbLine
 10
2047.773726144549
 20
976.5727798482549
 30
0.0
 11
2047.773726144549
 21
859.2717917424261
 31
0.0
  0
LINE
  5
1A03
330
19ED
100
AcDbEntity
  8
実形
 62
     0
370
    15
100
AcDbLine
 10
2247.773726144549
 20
976.5727798482549
 30
0.0
 11
2247.773726144549
 21
859.2717917424261
 31
0.0
  0
LINE
  5
1A04
330
19ED
100
AcDbEntity
  8
実形
 62
     0
370
    15
100
AcDbLine
 10
2047.773726144549
 20
859.2717917424261
 30
0.0
 11
2247.773726144549
 21
859.2717917424261
 31
0.0
  0
INSERT
  5
1A05
330
19ED
100
AcDbEntity
  8
実形
 62
     0
370
    15
100
AcDbBlockReference
  2
_DotSmall
 10
2047.773726144549
 20
859.2717917424261
 30
0.0
 41
20.0
 42
20.0
 43
20.0
 50
180.0
  0
INSERT
  5
1A06
330
19ED
100
AcDbEntity
  8
実形
 62
     0
370
    15
100
AcDbBlockReference
  2
_DotSmall
 10
2247.773726144549
 20
859.2717917424261
 30
0.0
 41
20.0
 42
20.0
 43
20.0
  0
MTEXT
  5
1A07
330
19ED
100
AcDbEntity
  8
実形
 62
     0
100
AcDbMText
 10
2147.773726144549
 20
878.0217917424261
 30
0.0
 40
25.0
 41
0.0
 71
     5
 72
     1
  1
200
 73
     1
 44
1.0
1001
ACAD
1000
MTEXTBEGIN
1070
    73
1070
     1
1070
    44
1040
1.0
1070
    74
1070
     0
1000
MTEXTEND
  0
POINT
  5
1A08
330
19ED
100
AcDbEntity
  8
Defpoints
 62
     0
100
AcDbPoint
 10
2047.773726144549
 20
1041.572779848255
 30
0.0
  0
POINT
  5
1A09
330
19ED
100
AcDbEntity
  8
Defpoints
 62
     0
100
AcDbPoint
 10
2247.773726144549
 20
1041.572779848255
 30
0.0
  0
POINT
  5
1A0A
330
19ED
100
AcDbEntity
  8
Defpoints
 62
     0
100
AcDbPoint
 10
2247.773726144549
 20
859.2717917424261
 30
0.0
  0
ENDBLK
  5
19F8
330
19ED
100
AcDbEntity
  8
0
100
AcDbBlockEnd
  0
ENDSEC
  0
SECTION
  2
ENTITIES
  0
LINE
  5
9C
330
1F
100
AcDbEntity
  8
補助
100
AcDbLine
 10
111.0
 20
4.0
 30
0.0
 11
2784.0
 21
4.0
 31
0.0
  0
LINE
  5
A0
330
1F
100
AcDbEntity
  8
補助
100
AcDbLine
 10
2784.0
 20
2024.0
 30
0.0
 11
111.0
 21
2024.0
 31
0.0
  0
LINE
  5
A5
330
1F
100
AcDbEntity
  8
補助
100
AcDbLine
 10
2784.0
 20
4.0
 30
0.0
 11
2784.0
 21
2024.0
 31
0.0
  0
LINE
  5
2D8
330
1F
100
AcDbEntity
  8
実形
100
AcDbLine
 10
798.2953074540301
 20
1518.3139875383
 30
0.0
 11
798.2953074540301
 21
1118.3139875383
 31
0.0
  0
LINE
  5
2D9
330
1F
100
AcDbEntity
  8
実形
100
AcDbLine
 10
873.2953074540301
 20
1043.3139875383
 30
0.0
 11
1703.29530745403
 21
1043.3139875383
 31
0.0
  0
LINE
  5
2DA
330
1F
100
AcDbEntity
  8
実形
100
AcDbLine
 10
1778.29530745403
 20
1118.3139875383
 30
0.0
 11
1778.29530745403
 21
1518.3139875383
 31
0.0
  0
LINE
  5
2DB
330
1F
100
AcDbEntity
  8
実形
100
AcDbLine
 10
1703.29530745403
 20
1593.3139875383
 30
0.0
 11
873.2953074540301
 21
1593.3139875383
 31
0.0
  0
LINE
  5
2DD
330
1F
100
AcDbEntity
  8
実形
100
AcDbLine
 10
873.2953074540301
 20
1058.3139875383
 30
0.0
 11
1703.29530745403
 21
1058.3139875383
 31
0.0
  0
LINE
  5
2E0
330
1F
100
AcDbEntity
  8
実形
100
AcDbLine
 10
873.2953074540301
 20
1578.3139875383
 30
0.0
 11
1703.29530745403
 21
1578.3139875383
 31
0.0
  0
CIRCLE
  5
2E8
330
1F
100
AcDbEntity
  8
実形
100
AcDbCircle
 10
963.2953074540301
 20
1353.3139875383
 30
0.0
 40
90.5
  0
CIRCLE
  5
2E9
330
1F
100
AcDbEntity
  8
実形
100
AcDbCircle
 10
963.2953074540301
 20
1353.3139875383
 30
0.0
 40
79.5
  0
LINE
  5
2F1
330
1F
100
AcDbEntity
  8
実形
100
AcDbLine
 10
813.2953074540301
 20
1376.372455364476
 30
0.0
 11
813.2953074540301
 21
1180.255519712125
 31
0.0
  0
LINE
  5
2F2
330
1F
100
AcDbEntity
  8
実形
100
AcDbLine
 10
1763.29530745403
 20
1376.372455364476
 30
0.0
 11
1763.29530745403
 21
1180.255519712125
 31
0.0
  0
LINE
  5
2FD
330
1F
100
AcDbEntity
  8
実形
100
AcDbLine
 10
813.2953074540301
 20
1438.3139875383
 30
0.0
 11
813.2953074540301
 21
1118.3139875383
 31
0.0
  0
LINE
  5
2FE
330
1F
100
AcDbEntity
  8
実形
100
AcDbLine
 10
873.2953074540301
 20
1498.3139875383
 30
0.0
 11
1703.29530745403
 21
1498.3139875383
 31
0.0
  0
LINE
  5
2FF
330
1F
100
AcDbEntity
  8
実形
100
AcDbLine
 10
1763.29530745403
 20
1438.3139875383
 30
0.0
 11
1763.29530745403
 21
1118.3139875383
 31
0.0
  0
ARC
  5
300
330
1F
100
AcDbEntity
  8
実形
100
AcDbCircle
 10
873.2953074540301
 20
1438.3139875383
 30
0.0
 40
60.0
100
AcDbArc
 50
90.0
 51
180.0
  0
ARC
  5
301
330
1F
100
AcDbEntity
  8
実形
100
AcDbCircle
 10
873.2953074540301
 20
1118.3139875383
 30
0.0
 40
60.0
100
AcDbArc
 50
180.0
 51
270.0
  0
ARC
  5
302
330
1F
100
AcDbEntity
  8
実形
100
AcDbCircle
 10
1703.29530745403
 20
1118.3139875383
 30
0.0
 40
60.0
100
AcDbArc
 50
270.0
 51
0.0
  0
ARC
  5
303
330
1F
100
AcDbEntity
  8
実形
100
AcDbCircle
 10
1703.29530745403
 20
1438.3139875383
 30
0.0
 40
60.0
100
AcDbArc
 50
0.0
 51
90.0
  0
LINE
  5
306
330
1F
100
AcDbEntity
  8
実形
100
AcDbLine
 10
813.2953074540301
 20
1518.3139875383
 30
0.0
 11
813.2953074540301
 21
1180.255519712125
 31
0.0
  0
LINE
  5
307
330
1F
100
AcDbEntity
  8
実形
100
AcDbLine
 10
1763.29530745403
 20
1518.3139875383
 30
0.0
 11
1763.29530745403
 21
1180.255519712125
 31
0.0
  0
ARC
  5
308
330
1F
100
AcDbEntity
  8
実形
100
AcDbCircle
 10
873.2953074540301
 20
1518.3139875383
 30
0.0
 40
60.0
100
AcDbArc
 50
90.0
 51
180.0
  0
ARC
  5
309
330
1F
100
AcDbEntity
  8
実形
100
AcDbCircle
 10
1703.29530745403
 20
1518.3139875383
 30
0.0
 40
60.0
100
AcDbArc
 50
0.0
 51
90.0
  0
ARC
  5
30A
330
1F
100
AcDbEntity
  8
実形
100
AcDbCircle
 10
873.2953074540301
 20
1518.3139875383
 30
0.0
 40
75.0
100
AcDbArc
 50
90.0
 51
180.0
  0
ARC
  5
30B
330
1F
100
AcDbEntity
  8
実形
100
AcDbCircle
 10
873.2953074540301
 20
1118.3139875383
 30
0.0
 40
75.0
100
AcDbArc
 50
180.0
 51
270.0
  0
ARC
  5
30C
330
1F
100
AcDbEntity
  8
実形
100
AcDbCircle
 10
1703.29530745403
 20
1118.3139875383
 30
0.0
 40
75.0
100
AcDbArc
 50
270.0
 51
0.0
  0
ARC
  5
30D
330
1F
100
AcDbEntity
  8
実形
100
AcDbCircle
 10
1703.29530745403
 20
1518.3139875383
 30
0.0
 40
75.0
100
AcDbArc
 50
0.0
 51
90.0
  0
LINE
  5
315
330
1F
100
AcDbEntity
  8
センター
100
AcDbLine
 10
963.2953074540301
 20
1487.442110851639
 30
0.0
 11
963.2953074540301
 21
1198.59391808735
 31
0.0
  0
LINE
  5
316
330
1F
100
AcDbEntity
  8
センター
100
AcDbLine
 10
826.7269934237356
 20
1353.3139875383
 30
0.0
 11
1099.901865341742
 21
1353.3139875383
 31
0.0
  0
LINE
  5
317
330
1F
100
AcDbEntity
  8
実形
100
AcDbLine
 10
798.2953074540301
 20
643.3139875383004
 30
0.0
 11
1778.29530745403
 21
643.3139875383004
 31
0.0
  0
LINE
  5
319
330
1F
100
AcDbEntity
  8
実形
100
AcDbLine
 10
813.2953074540301
 20
643.3139875383004
 30
0.0
 11
813.2953074540301
 21
473.3139875383002
 31
0.0
  0
LINE
  5
31A
330
1F
100
AcDbEntity
  8
実形
100
AcDbLine
 10
843.29530745403
 20
443.3139875383002
 30
0.0
 11
1053.795307454029
 21
443.3139875383002
 31
0.0
  0
LINE
  5
31B
330
1F
100
AcDbEntity
  8
実形
100
AcDbLine
 10
1763.29530745403
 20
483.2618285485328
 30
0.0
 11
1763.29530745403
 21
643.3139875383004
 31
0.0
  0
LINE
  5
323
330
1F
100
AcDbEntity
  8
実形
100
AcDbLine
 10
1053.79530745403
 20
443.3139875383004
 30
0.0
 11
1734.080615903266
 21
453.2721087992662
 31
0.0
  0
ARC
  5
324
330
1F
100
AcDbEntity
  8
実形
100
AcDbCircle
 10
1733.29530745403
 20
483.2618285485328
 30
0.0
 40
30.0
100
AcDbArc
 50
271.5
 51
0.000000000000007
  0
ARC
  5
325
330
1F
100
AcDbEntity
  8
実形
100
AcDbCircle
 10
843.29530745403
 20
473.3139875383002
 30
0.0
 40
30.0
100
AcDbArc
 50
180.0
 51
270.0
  0
LINE
  5
326
330
1F
100
AcDbEntity
  8
実形
100
AcDbLine
 10
813.2953074540301
 20
636.9139875383003
 30
0.0
 11
1763.29530745403
 21
636.9139875383003
 31
0.0
  0
LINE
  5
327
330
1F
100
AcDbEntity
  8
実形
100
AcDbLine
 10
813.2953074540301
 20
628.3139875383003
 30
0.0
 11
1763.29530745403
 21
628.3139875383003
 31
0.0
  0
LINE
  5
328
330
1F
100
AcDbEntity
  8
センター
100
AcDbLine
 10
1053.795307454026
 20
443.3139875383002
 30
0.0
 11
1757.423832571831
 21
443.3139875383002
 31
0.0
  0
LINE
  5
329
330
1F
100
AcDbEntity
  8
センター
 48
0.5
100
AcDbLine
 10
963.2953074540301
 20
515.5615383567146
 30
0.0
 11
963.2953074540301
 21
353.6158844991014
 31
0.0
  0
LINE
  5
336
330
1F
100
AcDbEntity
  8
実形
100
AcDbLine
 10
2048.773726144549
 20
1058.3139875383
 30
0.0
 11
2059.773726144549
 21
1058.3139875383
 31
0.0
  0
LINE
  5
337
330
1F
100
AcDbEntity
  8
実形
100
AcDbLine
 10
2062.773726144549
 20
1061.3139875383
 30
0.0
 11
2062.773726144549
 21
1068.3139875383
 31
0.0
  0
LINE
  5
338
330
1F
100
AcDbEntity
  8
実形
100
AcDbLine
 10
2067.773726144549
 20
1073.3139875383
 30
0.0
 11
2213.586787879537
 21
1073.3139875383
 31
0.0
  0
LINE
  5
339
330
1F
100
AcDbEntity
  8
実形
100
AcDbLine
 10
2247.773726144549
 20
1262.813987538299
 30
0.0
 11
2247.773726144549
 21
1453.3139875383
 31
0.0
  0
LINE
  5
33A
330
1F
100
AcDbEntity
  8
実形
100
AcDbLine
 10
2217.773726144549
 20
1483.3139875383
 30
0.0
 11
2067.773726144549
 21
1483.3139875383
 31
0.0
  0
LINE
  5
33B
330
1F
100
AcDbEntity
  8
実形
100
AcDbLine
 10
2062.773726144549
 20
1488.3139875383
 30
0.0
 11
2062.773726144549
 21
1495.3139875383
 31
0.0
  0
LINE
  5
33C
330
1F
100
AcDbEntity
  8
実形
100
AcDbLine
 10
2059.773726144549
 20
1498.3139875383
 30
0.0
 11
2057.173726144549
 21
1498.3139875383
 31
0.0
  0
LINE
  5
33D
330
1F
100
AcDbEntity
  8
実形
100
AcDbLine
 10
2054.173726144549
 20
1501.3139875383
 30
0.0
 11
2054.173726144557
 21
1575.313987538299
 31
0.0
  0
LINE
  5
342
330
1F
100
AcDbEntity
  8
実形
100
AcDbLine
 10
2051.173726144558
 20
1578.3139875383
 30
0.0
 11
2048.773726144549
 21
1578.3139875383
 31
0.0
  0
LINE
  5
347
330
1F
100
AcDbEntity
  8
実形
100
AcDbLine
 10
2254.773726144549
 20
1432.8139875383
 30
0.0
 11
2254.773726144549
 21
1273.8139875383
 31
0.0
  0
LINE
  5
352
330
1F
100
AcDbEntity
  8
実形
100
AcDbLine
 10
2047.773726144549
 20
1579.3139875383
 30
0.0
 11
2047.773726144549
 21
1593.3139875383
 31
0.0
  0
LINE
  5
353
330
1F
100
AcDbEntity
  8
実形
100
AcDbLine
 10
2047.773726144549
 20
1057.3139875383
 30
0.0
 11
2047.773726144549
 21
1043.3139875383
 31
0.0
  0
ARC
  5
354
330
1F
100
AcDbEntity
  8
実形
100
AcDbCircle
 10
2048.773726144549
 20
1579.3139875383
 30
0.0
 40
1.0
100
AcDbArc
 50
180.0
 51
270.0
  0
ARC
  5
355
330
1F
100
AcDbEntity
  8
実形
100
AcDbCircle
 10
2048.773726144549
 20
1057.3139875383
 30
0.0
 40
1.0
100
AcDbArc
 50
90.0
 51
180.0
  0
ARC
  5
359
330
1F
100
AcDbEntity
  8
実形
100
AcDbCircle
 10
2057.173726144549
 20
1501.3139875383
 30
0.0
 40
3.0
100
AcDbArc
 50
180.0
 51
270.0
  0
ARC
  5
35A
330
1F
100
AcDbEntity
  8
実形
100
AcDbCircle
 10
2059.773726144549
 20
1495.3139875383
 30
0.0
 40
3.0
100
AcDbArc
 50
0.0
 51
90.00000000000234
  0
ARC
  5
35C
330
1F
100
AcDbEntity
  8
実形
100
AcDbCircle
 10
2067.773726144549
 20
1068.3139875383
 30
0.0
 40
5.0
100
AcDbArc
 50
90.0
 51
180.0
  0
ARC
  5
35D
330
1F
100
AcDbEntity
  8
実形
100
AcDbCircle
 10
2067.773726144549
 20
1488.3139875383
 30
0.0
 40
5.0
100
AcDbArc
 50
180.0
 51
270.0
  0
ARC
  5
360
330
1F
100
AcDbEntity
  8
実形
100
AcDbCircle
 10
2217.773726144549
 20
1453.3139875383
 30
0.0
 40
30.0
100
AcDbArc
 50
0.0
 51
90.0
  0
LINE
  5
361
330
1F
100
AcDbEntity
  8
実形
100
AcDbLine
 10
2247.773726144549
 20
1262.8139875383
 30
0.0
 11
2243.576507628804
 21
1102.528679089064
 31
0.0
  0
ARC
  5
362
330
1F
100
AcDbEntity
  8
実形
100
AcDbCircle
 10
2213.586787879537
 20
1103.3139875383
 30
0.0
 40
30.0
100
AcDbArc
 50
270.0
 51
358.4999999999999
  0
LINE
  5
363
330
1F
100
AcDbEntity
  8
実形
100
AcDbLine
 10
2047.773726144549
 20
1593.3139875383
 30
0.0
 11
2047.773726144549
 21
1043.3139875383
 31
0.0
  0
ARC
  5
377
330
1F
100
AcDbEntity
  8
実形
100
AcDbCircle
 10
2059.773726144549
 20
1061.3139875383
 30
0.0
 40
3.0
100
AcDbArc
 50
270.0
 51
0.0
  0
DIMENSION
  5
3E9
330
1F
100
AcDbEntity
  8
寸法
100
AcDbDimension
  2
*D4
 10
1288.29530745403
 20
1483.3139875383
 30
0.0
 11
1269.54530745403
 21
1418.3139875383
 31
0.0
 70
    32
 71
     5
 42
130.0
  3
ISO-25
100
AcDbAlignedDimension
 13
1029.460069867147
 23
1353.3139875383
 33
0.0
 14
1138.29530745403
 24
1483.3139875383
 34
0.0
 50
90.0
100
AcDbRotatedDimension
1001
ACAD
1000
DSTYLE
1002
{
1070
    76
1070
     1
1002
}
  0
DIMENSION
  5
3F6
330
1F
100
AcDbEntity
  8
寸法
100
AcDbDimension
  2
*D5
 10
813.2953074540301
 20
1200.721221267299
 30
0.0
 11
888.2953074540301
 21
1219.471221267299
 31
0.0
 70
    32
 71
     5
 42
150.0
  3
ISO-25
100
AcDbAlignedDimension
 13
963.2953074540301
 23
1273.8139875383
 33
0.0
 14
813.2953074540301
 24
1262.8139875383
 34
0.0
100
AcDbRotatedDimension
  0
DIMENSION
  5
40C
330
1F
100
AcDbEntity
  8
寸法
100
AcDbDimension
  2
*D6
 10
694.4996465924706
 20
1073.3139875383
 30
0.0
 11
668.5993954028872
 21
1081.743111590637
 31
0.0
 70
   160
 71
     5
 42
15.0
  3
ISO-25
100
AcDbAlignedDimension
 13
798.2953074540301
 23
1058.3139875383
 33
0.0
 14
798.2953074540301
 24
1073.3139875383
 34
0.0
 50
90.0
100
AcDbRotatedDimension
  0
DIMENSION
  5
41A
330
1F
100
AcDbEntity
  8
寸法
100
AcDbDimension
  2
*D7
 10
694.4996465924706
 20
1483.3139875383
 30
0.0
 11
675.7496465924703
 21
1278.3139875383
 31
0.0
 70
    32
 71
     5
 42
410.0
  3
ISO-25
100
AcDbAlignedDimension
 13
798.2953074540301
 23
1073.3139875383
 33
0.0
 14
798.2953074540301
 24
1483.3139875383
 34
0.0
 50
90.0
100
AcDbRotatedDimension
1001
ACAD
1000
DSTYLE
1002
{
1070
   279
1070
     1
1002
}
  0
DIMENSION
  5
427
330
1F
100
AcDbEntity
  8
寸法
100
AcDbDimension
  2
*D8
 10
694.4996465924706
 20
1498.3139875383
 30
0.0
 11
685.8814957751583
 21
1474.207697442017
 31
0.0
 70
   160
 71
     5
 42
15.0
  3
ISO-25
100
AcDbAlignedDimension
 13
798.2953074540301
 23
1483.3139875383
 33
0.0
 14
798.2953074540301
 24
1498.3139875383
 34
0.0
 50
90.0
100
AcDbRotatedDimension
1001
ACAD
1000
DSTYLE
1002
{
1070
   279
1070
     1
1002
}
  0
DIMENSION
  5
459
330
1F
100
AcDbEntity
  8
寸法
100
AcDbDimension
  2
*D9
 10
618.0072043529134
 20
1058.3139875383
 30
0.0
 11
599.2572043529134
 21
1278.3139875383
 31
0.0
 70
    32
 71
     5
 42
440.0
  3
ISO-25
100
AcDbAlignedDimension
 13
798.2953074540301
 23
1498.3139875383
 33
0.0
 14
798.2953074540301
 24
1058.3139875383
 34
0.0
 50
90.0
100
AcDbRotatedDimension
  0
DIMENSION
  5
466
330
1F
100
AcDbEntity
  8
寸法
100
AcDbDimension
  2
*D10
 10
618.0072043529134
 20
1578.3139875383
 30
0.0
 11
599.2572043529133
 21
1538.3139875383
 31
0.0
 70
    32
 71
     5
 42
80.0
  3
ISO-25
100
AcDbAlignedDimension
 13
798.2953074540301
 23
1498.3139875383
 33
0.0
 14
798.2953074540301
 24
1578.3139875383
 34
0.0
 50
90.0
100
AcDbRotatedDimension
  0
DIMENSION
  5
47C
330
1F
100
AcDbEntity
  8
寸法
100
AcDbDimension
  2
*D11
 10
618.0072043529134
 20
1593.3139875383
 30
0.0
 11
628.5222946583153
 21
1620.240706818633
 31
0.0
 70
   160
 71
     5
 42
15.0
  3
ISO-25
100
AcDbAlignedDimension
 13
798.2953074540301
 23
1578.3139875383
 33
0.0
 14
798.2953074540301
 24
1593.3139875383
 34
0.0
 50
90.0
100
AcDbRotatedDimension
1001
ACAD
1000
DSTYLE
1002
{
1070
   279
1070
     1
1002
}
  0
DIMENSION
  5
492
330
1F
100
AcDbEntity
  8
寸法
100
AcDbDimension
  2
*D12
 10
540.4584206427353
 20
1043.3139875383
 30
0.0
 11
521.7084206427351
 21
1318.3139875383
 31
0.0
 70
    32
 71
     5
 42
550.0
  3
ISO-25
100
AcDbAlignedDimension
 13
798.2953074540301
 23
1593.3139875383
 33
0.0
 14
798.2953074540301
 24
1043.3139875383
 34
0.0
 50
90.0
100
AcDbRotatedDimension
  0
DIMENSION
  5
4C3
330
1F
100
AcDbEntity
  8
寸法
100
AcDbDimension
  2
*D13
 10
618.0072043529134
 20
1043.3139875383
 30
0.0
 11
590.0444181597176
 21
1070.754094994882
 31
0.0
 70
   160
 71
     5
 42
15.0
  3
ISO-25
100
AcDbAlignedDimension
 13
798.2953074540301
 23
1058.3139875383
 33
0.0
 14
798.2953074540301
 24
1043.3139875383
 34
0.0
 50
90.0
100
AcDbRotatedDimension
  0
DIMENSION
  5
4E5
330
1F
100
AcDbEntity
  8
寸法
100
AcDbDimension
  2
*D14
 10
813.2953074540301
 20
926.0906621373951
 30
0.0
 11
849.1897288412783
 21
945.6385412394638
 31
0.0
 70
   160
 71
     5
 42
15.0
  3
ISO-25
100
AcDbAlignedDimension
 13
798.2953074540301
 23
1043.3139875383
 33
0.0
 14
813.2953074540301
 24
1043.3139875383
 34
0.0
100
AcDbRotatedDimension
  0
DIMENSION
  5
4FD
330
1F
100
AcDbEntity
  8
寸法
100
AcDbDimension
  2
*D15
 10
1763.29530745403
 20
926.0906621373951
 30
0.0
 11
1288.29530745403
 21
944.8406621373951
 31
0.0
 70
    32
 71
     5
 42
950.0
  3
ISO-25
100
AcDbAlignedDimension
 13
813.2953074540301
 23
1043.3139875383
 33
0.0
 14
1763.29530745403
 24
1043.3139875383
 34
0.0
100
AcDbRotatedDimension
1001
ACAD
1000
DSTYLE
1002
{
1070
   279
1070
     1
1002
}
  0
DIMENSION
  5
50A
330
1F
100
AcDbEntity
  8
寸法
100
AcDbDimension
  2
*D16
 10
1778.29530745403
 20
926.0906621373951
 30
0.0
 11
1721.662529647291
 21
926.0906621373951
 31
0.0
 70
   160
 71
     5
 42
15.0
  3
ISO-25
100
AcDbAlignedDimension
 13
1763.29530745403
 23
1043.3139875383
 33
0.0
 14
1778.29530745403
 24
1043.3139875383
 34
0.0
100
AcDbRotatedDimension
1001
ACAD
1000
DSTYLE
1002
{
1070
   279
1070
     1
1002
}
  0
DIMENSION
  5
522
330
1F
100
AcDbEntity
  8
寸法
100
AcDbDimension
  2
*D17
 10
1778.29530745403
 20
851.9702469037357
 30
0.0
 11
1288.29530745403
 21
870.7202469037357
 31
0.0
 70
    33
 71
     5
 42
980.0
  3
ISO-25
100
AcDbAlignedDimension
 13
798.2953074540301
 23
1043.3139875383
 33
0.0
 14
1778.29530745403
 24
1043.3139875383
 34
0.0
  0
ARC
  5
570
330
1F
100
AcDbEntity
  8
寸法
100
AcDbCircle
 10
1353.795307454026
 20
443.3139875383002
 30
0.0
 40
346.6490970545442
100
AcDbArc
 50
0.0
 51
1.500000000000023
  0
TEXT
  5
571
330
1F
100
AcDbEntity
  8
寸法
100
AcDbText
 10
1680.371857062963
 20
401.6876903339801
 30
0.0
 40
25.0
  1
1.5゜
 11
1680.371857062963
 21
398.3543570006468
 31
0.0
100
AcDbText
 73
     1
  0
DIMENSION
  5
63C
330
1F
100
AcDbEntity
  8
寸法
100
AcDbDimension
  2
*D18
 10
2054.173726144549
 20
1379.91625538776
 30
0.0
 11
2010.732762844781
 21
1388.180259069105
 31
0.0
 70
   160
 71
     5
 42
6.40000000000009
  3
ISO-25
100
AcDbAlignedDimension
 13
2047.773726144549
 23
1498.3139875383
 33
0.0
 14
2054.173726144549
 24
1498.3139875383
 34
0.0
100
AcDbRotatedDimension
1001
ACAD
1000
DSTYLE
1002
{
1070
   282
1070
     1
1070
   281
1070
     1
1070
   279
1070
     2
1002
}
  0
DIMENSION
  5
66C
330
1F
100
AcDbEntity
  8
寸法
100
AcDbDimension
  2
*D19
 10
2062.773726144549
 20
1379.91625538776
 30
0.0
 11
2096.912089348841
 21
1387.799431261799
 31
0.0
 70
   160
 71
     5
 42
8.599999999999909
  3
ISO-25
100
AcDbAlignedDimension
 13
2054.173726144549
 23
1498.3139875383
 33
0.0
 14
2062.773726144549
 24
1498.3139875383
 34
0.0
100
AcDbRotatedDimension
1001
ACAD
1000
DSTYLE
1002
{
1070
   282
1070
     1
1070
   281
1070
     1
1070
   279
1070
     2
1002
}
  0
DIMENSION
  5
6AA
330
1F
100
AcDbEntity
  8
寸法
100
AcDbDimension
  2
*D20
 10
2062.773726144549
 20
1330.331914088405
 30
0.0
 11
2008.114180342877
 21
1330.616842699677
 31
0.0
 70
   160
 71
     5
 42
15.0
  3
ISO-25
100
AcDbAlignedDimension
 13
2047.773726144549
 23
1483.3139875383
 33
0.0
 14
2062.773726144549
 24
1483.3139875383
 34
0.0
100
AcDbRotatedDimension
1001
ACAD
1000
DSTYLE
1002
{
1070
   279
1070
     2
1002
}
  0
DIMENSION
  5
6EA
330
1F
100
AcDbEntity
  8
寸法
100
AcDbDimension
  2
*D21
 10
2366.345570815937
 20
1273.8139875383
 30
0.0
 11
2345.542768159843
 21
1354.967102361367
 31
0.0
 70
   160
  1
158%%C
 71
     5
 42
159.0
  3
ISO-25
100
AcDbAlignedDimension
 13
2254.773726144549
 23
1432.8139875383
 33
0.0
 14
2254.773726144549
 24
1273.8139875383
 34
0.0
 50
90.0
100
AcDbRotatedDimension
  0
DIMENSION
  5
77B
330
1F
100
AcDbEntity
  8
寸法
100
AcDbDimension
  2
*D22
 10
2194.309987378405
 20
1262.8139875383
 30
0.0
 11
2170.684731914398
 21
1355.58449103274
 31
0.0
 70
   160
  1
181%%C
 71
     5
 42
181.0
  3
ISO-25
100
AcDbAlignedDimension
 13
2302.01311196768
 23
1443.8139875383
 33
0.0
 14
2302.01311196768
 24
1262.8139875383
 34
0.0
 50
90.0
100
AcDbRotatedDimension
  0
MTEXT
  5
8A3
330
1F
100
AcDbEntity
  8
寸法
100
AcDbMText
 10
1641.048695765858
 20
1542.468449046116
 30
0.0
 40
25.0
 41
32.83443361350692
 71
     9
 72
     1
  1
75R
 73
     1
 44
1.0
1001
ACAD
1000
MTEXTBEGIN
1070
    73
1070
     1
1070
    44
1040
1.0
1070
    74
1070
     0
1000
MTEXTEND
  0
LEADER
  5
8A7
330
1F
100
AcDbEntity
  8
寸法
100
AcDbLeader
  3
ISO-25
 40
25.0
 41
66.66666666666666
 76
     2
 10
1730.367990584932
 20
1581.045455515066
 30
0.0
 10
1653.659497367596
 20
1557.021484576028
 30
0.0
213
0.0
223
12.5
233
0.0
1001
ACAD
1000
DSTYLE
1002
{
1070
   147
1040
6.25
1070
    77
1070
     0
1070
    41
1040
20.0
1070
   342
1005
DA
1002
}
  0
LEADER
  5
8DB
330
1F
100
AcDbEntity
  8
寸法
100
AcDbLeader
  3
ISO-25
 40
66.66666666666666
 41
87.5
 76
     2
 10
1179.137473874823
 20
1085.604605391345
 30
0.0
 10
1207.281271733857
 20
1125.443492118207
 30
0.0
213
0.0
223
-12.5
233
0.0
1001
ACAD
1000
DSTYLE
1002
{
1070
   147
1040
6.25
1070
    77
1070
     0
1070
    41
1040
20.0
1070
   342
1005
DA
1002
}
  0
TEXT
  5
8DD
330
1F
100
AcDbEntity
  8
寸法
100
AcDbText
 10
1217.835198014471
 20
1125.261629703868
 30
0.0
 40
25.0
  1
8500R
 11
1217.835198014471
 21
1121.928296370534
 31
0.0
100
AcDbText
 73
     1
  0
LEADER
  5
914
330
1F
100
AcDbEntity
  8
寸法
100
AcDbLeader
  3
ISO-25
 40
25.0
 41
62.5
 76
     2
 10
2243.101979446166
 20
1472.296820980759
 30
0.0
 10
2299.681003322424
 20
1504.751716640026
 30
0.0
213
0.0
223
-12.5
233
0.0
1001
ACAD
1000
DSTYLE
1002
{
1070
   147
1040
6.25
1070
    77
1070
     0
1070
    41
1040
25.0
1070
   342
1005
DA
1002
}
  0
TEXT
  5
918
330
1F
100
AcDbEntity
  8
寸法
100
AcDbText
 10
2310.158599410556
 20
1503.704782986591
 30
0.0
 40
25.0
  1
30R
 11
2310.158599410556
 21
1500.371449653258
 31
0.0
100
AcDbText
 73
     1
  0
CIRCLE
  5
BD6
330
1F
100
AcDbEntity
  8
センター
  6
HIDDEN2
 48
2.5
100
AcDbCircle
 10
816.3639532684838
 20
643.2126892772848
 30
0.0
 40
52.44287595353882
  0
ARC
  5
BD7
330
1F
100
AcDbEntity
  8
センター
  6
Continuous
100
AcDbCircle
 10
502.806264684812
 20
459.8713015456588
 30
0.0
 40
353.8763136327953
100
AcDbArc
 50
38.56928211716186
 51
80.6584250076038
  0
LINE
  5
BD9
330
1F
100
AcDbEntity
  8
センター
100
AcDbLine
 10
602.8704967101102
 20
813.9775649915781
 30
0.0
 11
560.2474188092476
 21
809.0545760064916
 31
0.0
  0
LINE
  5
BDA
330
1F
100
AcDbEntity
  8
センター
100
AcDbLine
 10
560.2474188092476
 20
809.0545760064916
 30
0.0
 11
598.7817435663082
 21
783.3360939578369
 31
0.0
  0
LINE
  5
BDC
330
1F
100
AcDbEntity
  8
実形
100
AcDbLine
 10
213.2082643295998
 20
881.9652147378565
 30
0.0
 11
353.2082643295999
 21
881.9652147378565
 31
0.0
  0
LINE
  5
BDD
330
1F
100
AcDbEntity
  8
実形
100
AcDbLine
 10
363.2082643295998
 20
871.9652147378566
 30
0.0
 11
363.2082643295998
 21
681.9652147378564
 31
0.0
  0
ARC
  5
BDE
330
1F
100
AcDbEntity
  8
実形
100
AcDbCircle
 10
353.2082643295999
 20
871.9652147378566
 30
0.0
 40
10.0
100
AcDbArc
 50
0.0
 51
90.0
  0
LINE
  5
BDF
330
1F
100
AcDbEntity
  8
実形
100
AcDbLine
 10
213.2082643295998
 20
871.9652147378566
 30
0.0
 11
353.2082643295999
 21
871.9652147378566
 31
0.0
  0
LINE
  5
BE0
330
1F
100
AcDbEntity
  8
実形
100
AcDbLine
 10
353.2082643295999
 20
871.9652147378566
 30
0.0
 11
353.2082643295999
 21
681.9652147378564
 31
0.0
  0
LINE
  5
BE1
330
1F
100
AcDbEntity
  8
実形
100
AcDbLine
 10
213.2082643295998
 20
881.9652147378565
 30
0.0
 11
213.2082643295998
 21
871.9652147378566
 31
0.0
  0
LINE
  5
BE2
330
1F
100
AcDbEntity
  8
実形
100
AcDbLine
 10
213.2082643295998
 20
881.9652147378565
 30
0.0
 11
490.6475625701559
 21
881.9652147378565
 31
0.0
  0
LINE
  5
BE3
330
1F
100
AcDbEntity
  8
実形
100
AcDbLine
 10
393.2082643295998
 20
817.9652147378565
 30
0.0
 11
490.6475625701559
 21
817.9652147378565
 31
0.0
  0
LINE
  5
BE4
330
1F
100
AcDbEntity
  8
実形
100
AcDbLine
 10
393.2082643295998
 20
731.9652147378564
 30
0.0
 11
490.6475625701559
 21
731.9652147378564
 31
0.0
  0
LINE
  5
BE5
330
1F
100
AcDbEntity
  8
実形
100
AcDbLine
 10
363.2082643295998
 20
847.9652147378565
 30
0.0
 11
363.2082643295998
 21
871.9652147378566
 31
0.0
  0
ARC
  5
BE6
330
1F
100
AcDbEntity
  8
実形
100
AcDbCircle
 10
393.2082643295998
 20
847.9652147378565
 30
0.0
 40
30.0
100
AcDbArc
 50
180.0
 51
270.0
  0
LINE
  5
BE8
330
1F
100
AcDbEntity
  8
実形
100
AcDbLine
 10
363.2082643295998
 20
761.9652147378565
 30
0.0
 11
363.2082643295998
 21
847.9652147378565
 31
0.0
  0
ARC
  5
BE9
330
1F
100
AcDbEntity
  8
実形
100
AcDbCircle
 10
393.2082643295998
 20
761.9652147378565
 30
0.0
 40
30.0
100
AcDbArc
 50
180.0
 51
270.0
  0
LEADER
  5
C15
330
1F
100
AcDbEntity
  8
実形
100
AcDbLeader
  3
ISO-25
 40
25.0
 41
33.33333333333332
 76
     2
 10
362.6564307740409
 20
880.9434314430909
 30
0.0
 10
396.5236429772549
 20
909.1438231414722
 30
0.0
213
0.0
223
-12.5
233
0.0
1001
ACAD
1000
DSTYLE
1002
{
1070
   147
1040
6.25
1070
    77
1070
     0
1070
    41
1040
20.0
1070
   342
1005
DA
1002
}
  0
LEADER
  5
C18
330
1F
100
AcDbEntity
  8
実形
100
AcDbLeader
  3
ISO-25
 40
25.0
 41
8.333333333333332
 76
     2
 10
378.5941566292859
 20
825.8008989726596
 30
0.0
 10
415.9892004854119
 20
844.8361601562565
 30
0.0
213
0.0
223
-12.5
233
0.0
1001
ACAD
1000
DSTYLE
1002
{
1070
   147
1040
6.25
1070
    77
1070
     0
1070
    41
1040
20.0
1070
   342
1005
DA
1002
}
  0
LEADER
  5
C1A
330
1F
100
AcDbEntity
  8
実形
100
AcDbLeader
  3
ISO-25
 40
25.0
 41
8.333333333333332
 76
     2
 10
380.7108506206932
 20
740.4947237234864
 30
0.0
 10
415.2836358216091
 20
763.055033274416
 30
0.0
213
0.0
223
-12.5
233
0.0
1001
ACAD
1000
DSTYLE
1002
{
1070
   147
1040
6.25
1070
    77
1070
     0
1070
    41
1040
20.0
1070
   342
1005
DA
1002
}
  0
TEXT
  5
C1C
330
1F
100
AcDbEntity
  8
実形
100
AcDbText
 10
404.2848792807808
 20
904.0170403932073
 30
0.0
 40
25.0
  1
1R
 11
404.2848792807808
 21
900.683707059874
 31
0.0
100
AcDbText
 73
     1
  0
TEXT
  5
C1D
330
1F
100
AcDbEntity
  8
実形
100
AcDbText
 10
423.7504367889378
 20
836.8893387141246
 30
0.0
 40
25.0
  1
3R
 11
423.7504367889378
 21
833.5560053807911
 31
0.0
100
AcDbText
 73
     1
  0
TEXT
  5
C1E
330
1F
100
AcDbEntity
  8
実形
100
AcDbText
 10
421.6337427975313
 20
756.5182311792181
 30
0.0
 40
25.0
  1
3R
 11
421.6337427975313
 21
753.1848978458847
 31
0.0
100
AcDbText
 73
     1
  0
LEADER
  5
C20
330
1F
100
AcDbEntity
  8
実形
100
AcDbLeader
  3
ISO-25
 40
25.0
 41
16.66666666666666
 76
     2
 10
1743.237376146264
 20
1554.048248609234
 30
0.0
 10
1697.73045163028
 20
1528.650268965383
 30
0.0
213
0.0
223
12.5
233
0.0
1001
ACAD
1000
DSTYLE
1002
{
1070
   147
1040
6.25
1070
    77
1070
     0
1070
    41
1040
20.0
1070
   342
1005
DA
1002
}
  0
LEADER
  5
C24
330
1F
100
AcDbEntity
  8
実形
100
AcDbLeader
  3
ISO-25
 40
25.0
 41
16.66666666666666
 76
     2
 10
1735.668577899286
 20
1480.737411795824
 30
0.0
 10
1667.398331973686
 20
1450.629603755137
 30
0.0
213
0.0
223
12.5
233
0.0
1001
ACAD
1000
DSTYLE
1002
{
1070
   147
1040
6.25
1070
    77
1070
     0
1070
    41
1040
20.0
1070
   342
1005
DA
1002
}
  0
LEADER
  5
C26
330
1F
100
AcDbEntity
  8
実形
100
AcDbLeader
  3
ISO-25
 40
25.0
 41
16.66666666666666
 76
     2
 10
1732.409138693894
 20
1439.476218063482
 30
0.0
 10
1694.887258217618
 20
1397.966459273089
 30
0.0
213
0.0
223
12.5
233
0.0
1001
ACAD
1000
DSTYLE
1002
{
1070
   147
1040
6.25
1070
    77
1070
     0
1070
    41
1040
20.0
1070
   342
1005
DA
1002
}
  0
LEADER
  5
C29
330
1F
100
AcDbEntity
  8
実形
100
AcDbLeader
  3
ISO-25
 40
74.99999999999999
 41
41.66666666666666
 76
     2
 10
1756.425890150986
 20
1278.408070630624
 30
0.0
 10
1697.138944725321
 20
1278.408070630624
 30
0.0
213
0.0
223
12.5
233
0.0
1001
ACAD
1000
DSTYLE
1002
{
1070
   147
1040
6.25
1070
    77
1070
     0
1070
    41
1040
20.0
1070
   342
1005
DA
1002
}
  0
TEXT
  5
C2B
330
1F
100
AcDbEntity
  8
実形
100
AcDbText
 10
1595.225230213179
 20
1432.864834880051
 30
0.0
 40
25.0
  1
60R
 72
     2
 11
1657.725230213179
 21
1429.531501546717
 31
0.0
100
AcDbText
 73
     1
  0
TEXT
  5
C2C
330
1F
100
AcDbEntity
  8
実形
100
AcDbText
 10
1615.622459764724
 20
1368.628843753137
 30
0.0
 40
25.0
  1
100R
 72
     2
 11
1690.622459764724
 21
1365.295510419804
 31
0.0
100
AcDbText
 73
     1
  0
TEXT
  5
C2D
330
1F
100
AcDbEntity
  8
実形
100
AcDbText
 10
1626.058992734165
 20
1504.816743929642
 30
0.0
 40
25.0
  1
60R
 72
     2
 11
1688.558992734165
 21
1529.816743929642
 31
0.0
100
AcDbText
 73
     3
  0
TEXT
  5
C2E
330
1F
100
AcDbEntity
  8
実形
100
AcDbText
 10
1581.599487740206
 20
1265.908070630624
 30
0.0
 40
25.0
  1
2000R
 72
     2
 11
1685.766154406873
 21
1278.408070630624
 31
0.0
100
AcDbText
 73
     2
  0
LEADER
  5
CB8
330
1F
100
AcDbEntity
  8
実形
100
AcDbLeader
  3
ISO-25
 76
     2
 10
1746.402291243989
 20
466.6162696879424
 30
0.0
 10
1703.210460694282
 20
505.5877372120648
 30
0.0
1001
ACAD
1000
DSTYLE
1002
{
1070
   147
1040
6.25
1070
    77
1070
     0
1070
    41
1040
20.0
1070
   342
1005
DA
1002
}
  0
LEADER
  5
CB9
330
1F
100
AcDbEntity
  8
実形
100
AcDbLeader
  3
ISO-25
 76
     2
 10
829.4210393967926
 20
455.1156531004179
 30
0.0
 10
870.070793038124
 20
495.7477498477774
 30
0.0
1001
ACAD
1000
DSTYLE
1002
{
1070
   147
1040
6.25
1070
    77
1070
     0
1070
    41
1040
20.0
1070
   342
1005
DA
1002
}
  0
LEADER
  5
CBA
330
1F
100
AcDbEntity
  8
実形
100
AcDbLeader
  3
ISO-25
 76
     2
 10
2067.909237215692
 20
1069.13160717974
 30
0.0
 10
2102.523524588031
 20
1031.409625991666
 30
0.0
1001
ACAD
1000
DSTYLE
1002
{
1070
   147
1040
6.25
1070
    77
1070
     0
1070
    41
1040
20.0
1070
   342
1005
DA
1002
}
  0
LEADER
  5
CBD
330
1F
100
AcDbEntity
  8
実形
100
AcDbLeader
  3
ISO-25
 76
     2
 10
2059.019820277204
 20
1061.634452062035
 30
0.0
 10
2008.617386476456
 20
1097.596540525164
 30
0.0
1001
ACAD
1000
DSTYLE
1002
{
1070
   147
1040
6.25
1070
    77
1070
     0
1070
    41
1040
20.0
1070
   342
1005
DA
1002
}
  0
LEADER
  5
CBE
330
1F
100
AcDbEntity
  8
実形
100
AcDbLeader
  3
ISO-25
 76
     2
 10
2232.881496112446
 20
1086.584853794342
 30
0.0
 10
2195.226725601934
 20
1122.824206483299
 30
0.0
1001
ACAD
1000
DSTYLE
1002
{
1070
   147
1040
6.25
1070
    77
1070
     0
1070
    41
1040
20.0
1070
   342
1005
DA
1002
}
  0
TEXT
  5
CBF
330
1F
100
AcDbEntity
  8
寸法
100
AcDbText
 10
2113.227941494443
 20
1120.87430165674
 30
0.0
 40
25.0
  1
30R
 11
2113.227941494443
 21
1117.540968323407
 31
0.0
100
AcDbText
 73
     1
  0
TEXT
  5
CC0
330
1F
100
AcDbEntity
  8
寸法
100
AcDbText
 10
1959.187115571925
 20
1091.06359208939
 30
0.0
 40
25.0
  1
3R
 11
1959.187115571925
 21
1087.730258756057
 31
0.0
100
AcDbText
 73
     1
  0
TEXT
  5
CC1
330
1F
100
AcDbEntity
  8
寸法
100
AcDbText
 10
2112.492161053394
 20
1009.922063767279
 30
0.0
 40
25.0
  1
5R
 11
2112.492161053394
 21
1006.588730433946
 31
0.0
100
AcDbText
 73
     1
  0
TEXT
  5
CC2
330
1F
100
AcDbEntity
  8
寸法
100
AcDbText
 10
1631.914669020295
 20
499.0909881576593
 30
0.0
 40
25.0
  1
30R
 11
1631.914669020295
 21
495.757654824326
 31
0.0
100
AcDbText
 73
     1
  0
TEXT
  5
CC3
330
1F
100
AcDbEntity
  8
寸法
100
AcDbText
 10
878.9151446889272
 20
501.4103009181758
 30
0.0
 40
25.0
  1
30R
 11
878.9151446889272
 21
498.0769675848425
 31
0.0
100
AcDbText
 73
     1
  0
TEXT
  5
DC3
330
1F
100
AcDbEntity
  8
0
100
AcDbText
 10
191.7098177320886
 20
90.06009540427749
 30
0.0
 40
30.0
  1
※実寸には製造上の誤差が多少生ずる場合があります。シンクの穴あけ加工は現物合わせにてお願いします。
100
AcDbText
  0
DIMENSION
  5
EB5
330
1F
100
AcDbEntity
  8
実形
100
AcDbDimension
  2
*D23
 10
2047.773726144549
 20
1379.91625538776
 30
0.0
 11
2055.273726144549
 21
1379.91625538776
 31
0.0
 70
    32
  1
 
 71
     5
 42
15.0
  3
ISO-25
100
AcDbAlignedDimension
 13
2062.773726144549
 23
1498.3139875383
 33
0.0
 14
2047.773726144549
 24
1498.3139875383
 34
0.0
100
AcDbRotatedDimension
1001
ACAD
1000
DSTYLE
1002
{
1070
   279
1070
     2
1070
   343
1005
D0
1070
   173
1070
     1
1070
   344
1005
D0
1070
    41
1040
30.0
1070
   342
1005
0
1002
}
  0
CIRCLE
  5
EFC
102
{ACAD_REACTORS
330
F0C
102
}
330
1F
100
AcDbEntity
  8
実形
100
AcDbCircle
 10
2054.173726144549
 20
1379.91625538776
 30
0.0
 40
2.5
  0
HATCH
  5
F0C
330
1F
100
AcDbEntity
  8
実形
100
AcDbHatch
 10
0.0
 20
0.0
 30
0.0
210
0.0
220
0.0
230
1.0
  2
SOLID
 70
     1
 71
     1
 91
        1
 92
        7
 72
     1
 73
     1
 93
        2
 10
2056.673726144549
 20
1379.91625538776
 42
1.0
 10
2051.673726144549
 20
1379.91625538776
 42
1.0
 97
        1
330
EFC
 75
     0
 76
     1
 47
0.4047791916358173
 98
        1
 10
2054.21225112459
 20
1380.323823048636
  0
TEXT
  5
FFB
330
1F
100
AcDbEntity
  8
補助
100
AcDbText
 10
2086.666666666667
 20
84.0
 30
0.0
 40
35.0
  1
尺度
 72
     4
 11
2124.0
 21
101.5
 31
0.0
100
AcDbText
  0
TEXT
  5
FFC
330
1F
100
AcDbEntity
  8
補助
100
AcDbText
 10
2086.666666666667
 20
149.0
 30
0.0
 40
35.0
  1
品番
 72
     4
 11
2124.0
 21
166.5
 31
0.0
100
AcDbText
  0
LINE
  5
FFD
330
1F
100
AcDbEntity
  8
補助
100
AcDbLine
 10
2064.0
 20
69.0
 30
0.0
 11
2784.0
 21
69.0
 31
0.0
  0
LINE
  5
FFE
330
1F
100
AcDbEntity
  8
補助
100
AcDbLine
 10
2064.0
 20
199.0
 30
0.0
 11
2784.0
 21
199.0
 31
0.0
  0
LINE
  5
FFF
330
1F
100
AcDbEntity
  8
補助
100
AcDbLine
 10
2064.0
 20
134.0
 30
0.0
 11
2784.0
 21
134.0
 31
0.0
  0
LINE
  5
1000
330
1F
100
AcDbEntity
  8
補助
100
AcDbLine
 10
2064.0
 20
4.0
 30
0.0
 11
2064.0
 21
199.0
 31
0.0
  0
TEXT
  5
1001
330
1F
100
AcDbEntity
  8
補助
100
AcDbText
 10
2300.255774665348
 20
16.49999999999999
 30
0.0
 40
40.0
  1
中外交易株式会社
 72
     4
 11
2488.255774665347
 21
36.5
 31
0.0
100
AcDbText
  0
TEXT
  5
1002
330
1F
100
AcDbEntity
  8
0
100
AcDbText
 10
2294.066666666667
 20
149.0
 30
0.0
 40
35.0
  1
PRS950-520OFL
 41
0.88
 72
     4
 11
2484.0
 21
166.5
 31
0.0
100
AcDbText
  0
LINE
  5
1003
330
1F
100
AcDbEntity
  8
補助
100
AcDbLine
 10
2184.0
 20
69.0
 30
0.0
 11
2784.0
 21
69.0
 31
0.0
  0
LINE
  5
1004
102
{ACAD_REACTORS
330
1011
102
}
330
1F
100
AcDbEntity
  8
補助
370
     5
100
AcDbLine
 10
2207.843923164362
 20
40.53787547858519
 30
0.0
 11
2183.255774665347
 21
40.53787547858519
 31
0.0
  0
LINE
  5
1005
102
{ACAD_REACTORS
330
1011
102
}
330
1F
100
AcDbEntity
  8
補助
370
     5
100
AcDbLine
 10
2183.255774665347
 20
40.53787547858519
 30
0.0
 11
2183.255774665347
 21
30.53787547858519
 31
0.0
  0
LINE
  5
1006
102
{ACAD_REACTORS
330
1011
102
}
330
1F
100
AcDbEntity
  8
補助
370
     5
100
AcDbLine
 10
2183.255774665347
 20
30.53787547858519
 30
0.0
 11
2207.346428692676
 21
30.53787547858514
 31
0.0
  0
LINE
  5
1007
102
{ACAD_REACTORS
330
1011
102
}
330
1F
100
AcDbEntity
  8
補助
370
     5
100
AcDbLine
 10
2210.641894042939
 20
56.5
 30
0.0
 11
2210.641894042939
 21
16.5
 31
0.0
  0
LINE
  5
1008
102
{ACAD_REACTORS
330
1011
102
}
330
1F
100
AcDbEntity
  8
補助
370
     5
100
AcDbLine
 10
2210.641894042939
 20
16.5
 30
0.0
 11
2245.64189404294
 21
16.5
 31
0.0
  0
LINE
  5
1009
102
{ACAD_REACTORS
330
1011
102
}
330
1F
100
AcDbEntity
  8
補助
370
     5
100
AcDbLine
 10
2245.64189404294
 20
16.5
 30
0.0
 11
2210.641894042939
 21
36.5
 31
0.0
  0
LINE
  5
100A
102
{ACAD_REACTORS
330
1011
102
}
330
1F
100
AcDbEntity
  8
補助
370
     5
100
AcDbLine
 10
2210.641894042939
 20
36.5
 30
0.0
 11
2245.64189404294
 21
56.5
 31
0.0
  0
LINE
  5
100B
102
{ACAD_REACTORS
330
1011
102
}
330
1F
100
AcDbEntity
  8
補助
370
     5
100
AcDbLine
 10
2245.64189404294
 20
56.5
 30
0.0
 11
2210.641894042939
 21
56.5
 31
0.0
  0
LINE
  5
100C
102
{ACAD_REACTORS
330
1011
102
}
330
1F
100
AcDbEntity
  8
補助
370
     5
100
AcDbLine
 10
2276.75434681301
 20
40.53787547858519
 30
0.0
 11
2252.166198313995
 21
40.53787547858519
 31
0.0
  0
LINE
  5
100D
102
{ACAD_REACTORS
330
1011
102
}
330
1F
100
AcDbEntity
  8
補助
370
     5
100
AcDbLine
 10
2252.166198313995
 20
40.53787547858519
 30
0.0
 11
2252.166198313995
 21
30.53787547858519
 31
0.0
  0
LINE
  5
100E
102
{ACAD_REACTORS
330
1011
102
}
330
1F
100
AcDbEntity
  8
補助
370
     5
100
AcDbLine
 10
2252.166198313995
 20
30.53787547858519
 30
0.0
 11
2276.256852341323
 21
30.53787547858514
 31
0.0
  0
ARC
  5
100F
102
{ACAD_REACTORS
330
1011
102
}
330
1F
100
AcDbEntity
  8
補助
370
     5
100
AcDbCircle
 10
2188.255774665348
 20
36.5
 30
0.0
 40
20.0
100
AcDbArc
 50
11.6477236670766
 51
342.6561058784746
  0
ARC
  5
1010
102
{ACAD_REACTORS
330
1011
102
}
330
1F
100
AcDbEntity
  8
補助
370
     5
100
AcDbCircle
 10
2257.166198313996
 20
36.5
 30
0.0
 40
20.0
100
AcDbArc
 50
11.6477236670766
 51
342.6561058784746
  0
HATCH
  5
1011
330
1F
100
AcDbEntity
  8
補助
100
AcDbHatch
 10
0.0
 20
0.0
 30
0.0
210
0.0
220
0.0
230
1.0
  2
SOLID
 70
     1
 71
     1
 91
        3
 92
        1
 93
        4
 72
     2
 10
2257.166198313996
 20
36.5
 40
20.0
 50
11.6477236670766
 51
342.6561058784746
 73
     1
 72
     1
 10
2276.256852341323
 20
30.53787547858514
 11
2252.166198313995
 21
30.53787547858519
 72
     1
 10
2252.166198313995
 20
30.53787547858519
 11
2252.166198313995
 21
40.53787547858519
 72
     1
 10
2252.166198313995
 20
40.53787547858519
 11
2276.75434681301
 21
40.53787547858519
 97
        4
330
1010
330
100E
330
100D
330
100C
 92
        1
 93
        4
 72
     2
 10
2188.255774665348
 20
36.5
 40
20.0
 50
11.6477236670766
 51
342.6561058784746
 73
     1
 72
     1
 10
2207.346428692676
 20
30.53787547858514
 11
2183.255774665347
 21
30.53787547858519
 72
     1
 10
2183.255774665347
 20
30.53787547858519
 11
2183.255774665347
 21
40.53787547858519
 72
     1
 10
2183.255774665347
 20
40.53787547858519
 11
2207.843923164362
 21
40.53787547858519
 97
        4
330
100F
330
1006
330
1005
330
1004
 92
        1
 93
        5
 72
     1
 10
2245.64189404294
 20
56.5
 11
2210.641894042939
 21
56.5
 72
     1
 10
2210.641894042939
 20
56.5
 11
2210.641894042939
 21
16.5
 72
     1
 10
2210.641894042939
 20
16.5
 11
2245.64189404294
 21
16.5
 72
     1
 10
2245.64189404294
 20
16.5
 11
2210.641894042939
 21
36.5
 72
     1
 10
2210.641894042939
 20
36.5
 11
2245.64189404294
 21
56.5
 97
        5
330
100B
330
1007
330
1008
330
1009
330
100A
 75
     0
 76
     1
 98
        1
 10
-60.0
 20
0.0
  0
LINE
  5
1012
330
1F
100
AcDbEntity
  8
補助
100
AcDbLine
 10
2184.0
 20
69.0
 30
0.0
 11
2184.0
 21
199.0
 31
0.0
  0
TEXT
  5
1013
330
1F
100
AcDbEntity
  8
0
100
AcDbText
 10
2430.916666666667
 20
84.0
 30
0.0
 40
35.0
  1
1：10
 72
     4
 11
2484.0
 21
101.5
 31
0.0
100
AcDbText
  0
LINE
  5
1014
330
1F
100
AcDbEntity
  8
補助
100
AcDbLine
 10
2784.0
 20
69.0
 30
0.0
 11
2784.0
 21
134.0
 31
0.0
  0
LINE
  5
1015
330
1F
100
AcDbEntity
  8
補助
100
AcDbLine
 10
2784.0
 20
134.0
 30
0.0
 11
2784.0
 21
199.0
 31
0.0
  0
LINE
  5
1016
330
1F
100
AcDbEntity
  8
補助
100
AcDbLine
 10
2784.0
 20
4.0
 30
0.0
 11
2784.0
 21
69.0
 31
0.0
  0
ARC
  5
175B
330
1F
100
AcDbEntity
  8
実形
100
AcDbCircle
 10
1288.29530745403
 20
9573.313987538298
 30
0.0
 40
8500.0
100
AcDbArc
 50
267.4581267083559
 51
272.5418732916442
  0
ARC
  5
175E
330
1F
100
AcDbEntity
  8
実形
100
AcDbCircle
 10
2813.29530745403
 20
1278.3139875383
 30
0.0
 40
2000.0
100
AcDbArc
 50
177.0816278913649
 51
182.9183721086351
  0
ARC
  5
175F
330
1F
100
AcDbEntity
  8
実形
100
AcDbCircle
 10
1288.29530745403
 20
-7016.686012461697
 30
0.0
 40
8500.0
100
AcDbArc
 50
87.45812670835583
 51
92.54187329164416
  0
ARC
  5
1760
330
1F
100
AcDbEntity
  8
実形
100
AcDbCircle
 10
-236.7046925459699
 20
1278.3139875383
 30
0.0
 40
2000.0
100
AcDbArc
 50
357.0816278913649
 51
2.918372108635103
  0
ARC
  5
1761
330
1F
100
AcDbEntity
  8
実形
100
AcDbCircle
 10
915.7594497101683
 20
1375.049030703989
 30
0.0
 40
100.0
100
AcDbArc
 50
92.54187329164306
 51
177.0816278913649
  0
ARC
  5
1762
330
1F
100
AcDbEntity
  8
実形
100
AcDbCircle
 10
915.7594497101683
 20
1181.578944372611
 30
0.0
 40
100.0
100
AcDbArc
 50
182.9183721086348
 51
267.4581267083579
  0
ARC
  5
1763
330
1F
100
AcDbEntity
  8
実形
100
AcDbCircle
 10
1660.831165197892
 20
1375.049030703989
 30
0.0
 40
100.0
100
AcDbArc
 50
2.918372108635088
 51
87.45812670835629
  0
ARC
  5
1764
330
1F
100
AcDbEntity
  8
実形
100
AcDbCircle
 10
1660.831165197892
 20
1181.578944372611
 30
0.0
 40
100.0
100
AcDbArc
 50
272.5418732916403
 51
357.0816278913643
  0
ARC
  5
18B4
330
1F
100
AcDbEntity
  8
実形
100
AcDbCircle
 10
2051.173726144558
 20
1575.3139875383
 30
0.0
 40
3.0
100
AcDbArc
 50
359.9999999999933
 51
90.00000000000122
  0
LINE
  5
18D3
330
1F
100
AcDbEntity
  8
実形
  6
HIDDEN2
100
AcDbLine
 10
803.988879546639
 20
1315.8139875383
 30
0.0
 11
803.988879546639
 21
1240.8139875383
 31
0.0
  0
LINE
  5
18D4
330
1F
100
AcDbEntity
  8
実形
  6
HIDDEN2
100
AcDbLine
 10
803.988879546639
 20
1240.8139875383
 30
0.0
 11
813.5200562815544
 21
1240.8139875383
 31
0.0
  0
LINE
  5
18D5
330
1F
100
AcDbEntity
  8
実形
  6
HIDDEN2
100
AcDbLine
 10
813.5200562815544
 20
1315.8139875383
 30
0.0
 11
803.988879546639
 21
1315.8139875383
 31
0.0
  0
ARC
  5
18D6
330
1F
100
AcDbEntity
  8
実形
100
AcDbCircle
 10
2097.773726144549
 20
1255.8139875383
 30
0.0
 40
15.0
100
AcDbArc
 50
180.0
 51
270.0
  0
ARC
  5
18D7
330
1F
100
AcDbEntity
  8
実形
100
AcDbCircle
 10
2097.773726144549
 20
1255.8139875383
 30
0.0
 40
15.0
100
AcDbArc
 50
270.0
 51
0.0
  0
LINE
  5
18D8
330
1F
100
AcDbEntity
  8
実形
100
AcDbLine
 10
2097.773726144549
 20
1240.8139875383
 30
0.0
 11
2097.773726144549
 21
1240.8139875383
 31
0.0
  0
ARC
  5
18D9
330
1F
100
AcDbEntity
  8
実形
100
AcDbCircle
 10
2097.773726144549
 20
1300.8139875383
 30
0.0
 40
15.0
100
AcDbArc
 50
90.0
 51
180.0
  0
ARC
  5
18DA
330
1F
100
AcDbEntity
  8
実形
100
AcDbCircle
 10
2097.773726144549
 20
1300.8139875383
 30
0.0
 40
15.0
100
AcDbArc
 50
0.0
 51
90.0
  0
LINE
  5
18DB
330
1F
100
AcDbEntity
  8
実形
100
AcDbLine
 10
2097.773726144549
 20
1315.8139875383
 30
0.0
 11
2097.773726144549
 21
1315.8139875383
 31
0.0
  0
LINE
  5
18DC
330
1F
100
AcDbEntity
  8
実形
100
AcDbLine
 10
2112.773726144549
 20
1255.8139875383
 30
0.0
 11
2112.773726144549
 21
1300.8139875383
 31
0.0
  0
LINE
  5
18DD
330
1F
100
AcDbEntity
  8
実形
100
AcDbLine
 10
2082.773726144549
 20
1300.8139875383
 30
0.0
 11
2082.773726144549
 21
1255.8139875383
 31
0.0
  0
DIMENSION
  5
18DE
330
1F
100
AcDbEntity
  8
寸法
100
AcDbDimension
  2
*D24
 10
2097.773726144549
 20
1181.537323574898
 30
0.0
 11
2072.773726144549
 21
1201.381990676092
 31
0.0
 70
   160
 71
     5
 42
50.0
  3
ISO-25
100
AcDbAlignedDimension
 13
2047.773726144549
 23
1240.8139875383
 33
0.0
 14
2097.773726144549
 24
1300.8139875383
 34
0.0
100
AcDbRotatedDimension
1001
ACAD
1000
DSTYLE
1002
{
1070
   371
1070
    18
1002
}
  0
LINE
  5
18DF
330
1F
100
AcDbEntity
  8
センター
 48
0.5
370
    15
100
AcDbLine
 10
2031.172416073971
 20
1278.3139875383
 30
0.0
 11
2174.375036215128
 21
1278.3139875383
 31
0.0
  0
LINE
  5
18E0
330
1F
100
AcDbEntity
  8
センター
 48
0.4
370
    15
100
AcDbLine
 10
2097.773726144549
 20
1344.915297608879
 30
0.0
 11
2097.773726144549
 21
1211.712677467722
 31
0.0
  0
LINE
  5
194A
330
1F
100
AcDbEntity
  8
実形
100
AcDbLine
 10
1053.79530745403
 20
436.3139875383002
 30
0.0
 11
872.79530745403
 21
436.3139875383003
 31
0.0
  0
LINE
  5
194B
330
1F
100
AcDbEntity
  8
実形
100
AcDbLine
 10
872.79530745403
 20
443.3139875383004
 30
0.0
 11
872.7953074540298
 21
436.3139875383003
 31
0.0
  0
LINE
  5
194C
330
1F
100
AcDbEntity
  8
実形
100
AcDbLine
 10
1053.79530745403
 20
443.3139875383004
 30
0.0
 11
1053.79530745403
 21
436.3139875383003
 31
0.0
  0
DIMENSION
  5
1972
330
1F
100
AcDbEntity
  8
実形
100
AcDbDimension
  2
*D25
 10
660.6865406830356
 20
628.3139875383004
 30
0.0
 11
629.9255061005169
 21
618.8809937227743
 31
0.0
 70
   160
 71
     5
 42
15.0
  3
ISO-25
100
AcDbAlignedDimension
 13
780.1214089195135
 23
643.3139875383004
 33
0.0
 14
780.1214089195135
 24
628.3139875383003
 34
0.0
 50
90.0
100
AcDbRotatedDimension
1001
ACAD
1000
DSTYLE
1002
{
1070
    41
1040
20.0
1070
   279
1070
     2
1002
}
  0
DIMENSION
  5
1973
330
1F
100
AcDbEntity
  8
実形
100
AcDbDimension
  2
*D26
 10
597.8954873256961
 20
443.3139875383004
 30
0.0
 11
579.145487325696
 21
543.3139875383005
 31
0.0
 70
    32
 71
     5
 42
200.0
  3
ISO-25
100
AcDbAlignedDimension
 13
780.1214089195136
 23
643.3139875383004
 33
0.0
 14
780.1214089195138
 24
443.3139875383004
 34
0.0
 50
90.0
100
AcDbRotatedDimension
1001
ACAD
1000
DSTYLE
1002
{
1070
    41
1040
20.0
1070
   279
1070
     2
1002
}
  0
LINE
  5
1974
330
1F
100
AcDbEntity
  8
実形
100
AcDbLine
 10
715.1214089195137
 20
436.3139875383003
 30
0.0
 11
660.6865406830357
 21
436.3139875383003
 31
0.0
  0
LINE
  5
1975
330
1F
100
AcDbEntity
  8
実形
100
AcDbLine
 10
660.6865406830356
 20
443.3139875383004
 30
0.0
 11
660.6865406830357
 21
436.3139875383004
 31
0.0
  0
TEXT
  5
1976
330
1F
100
AcDbEntity
  8
実形
370
    18
100
AcDbText
 10
663.7059954644582
 20
440.6773214569748
 30
0.0
 40
6.0
  1
●
 71
     2
100
AcDbText
  0
TEXT
  5
1977
330
1F
100
AcDbEntity
  8
実形
370
    18
100
AcDbText
 10
663.7059954644582
 20
433.2361826912983
 30
0.0
 40
6.0
  1
●
 71
     2
100
AcDbText
  0
TEXT
  5
1978
330
1F
100
AcDbEntity
  8
実形
370
    18
100
AcDbText
 10
644.1372280923506
 20
411.6649573188669
 30
0.0
 40
25.0
  1
7
 50
89.97509673302152
100
AcDbText
  0
DIMENSION
  5
19D9
330
1F
100
AcDbEntity
  8
実形
100
AcDbDimension
  2
*D27
 10
2062.773726144549
 20
922.0516362497773
 30
0.0
 11
2092.936805977958
 21
937.5536695805431
 31
0.0
 70
   160
 71
     5
 42
15.0
  3
ISO-25
100
AcDbAlignedDimension
 13
2047.773726144549
 23
1041.572779848255
 33
0.0
 14
2062.773726144549
 24
1041.572779848255
 34
0.0
100
AcDbRotatedDimension
1001
ACAD
1000
DSTYLE
1002
{
1070
    41
1040
20.0
1070
   279
1070
     2
1002
}
  0
DIMENSION
  5
19DA
330
1F
100
AcDbEntity
  8
実形
100
AcDbDimension
  2
*D28
 10
2247.773726144549
 20
859.2717917424261
 30
0.0
 11
2147.773726144549
 21
878.0217917424261
 31
0.0
 70
    32
 71
     5
 42
200.0
  3
ISO-25
100
AcDbAlignedDimension
 13
2047.773726144549
 23
1041.572779848255
 33
0.0
 14
2247.773726144549
 24
1041.572779848255
 34
0.0
100
AcDbRotatedDimension
1001
ACAD
1000
DSTYLE
1002
{
1070
    41
1040
20.0
1070
   279
1070
     2
1002
}
  0
LINE
  5
19DB
330
1F
100
AcDbEntity
  8
実形
100
AcDbLine
 10
2247.773726144549
 20
920.8173354598814
 30
0.0
 11
2254.773726144549
 21
920.8173354598814
 31
0.0
  0
LINE
  5
19DC
330
1F
100
AcDbEntity
  8
実形
100
AcDbLine
 10
2254.773726144549
 20
920.8173354598814
 30
0.0
 11
2254.773726144549
 21
976.5727798482549
 31
0.0
  0
LINE
  5
19DD
330
1F
100
AcDbEntity
  8
実形
100
AcDbLine
 10
2247.773726144549
 20
917.9222857953405
 30
0.0
 11
2247.773726144549
 21
976.5727798482549
 31
0.0
  0
TEXT
  5
19DE
330
1F
100
AcDbEntity
  8
実形
370
    18
100
AcDbText
 10
2250.60638057687
 20
918.6155402049799
 30
0.0
 40
6.0
  1
●
 71
     2
100
AcDbText
  0
TEXT
  5
19DF
330
1F
100
AcDbEntity
  8
実形
370
    18
100
AcDbText
 10
2257.47966090545
 20
918.4072876667597
 30
0.0
 40
6.0
  1
●
 71
     2
100
AcDbText
  0
TEXT
  5
19E0
330
1F
100
AcDbEntity
  8
実形
370
    18
100
AcDbText
 10
2264.479879746711
 20
922.8980676916355
 30
0.0
 40
25.0
  1
7
100
AcDbText
  0
LINE
  5
1A13
330
1F
100
AcDbEntity
  8
実形
100
AcDbLine
 10
2254.773726144549
 20
1443.8139875383
 30
0.0
 11
2254.773726144549
 21
1262.813987538285
 31
0.0
  0
LINE
  5
1A14
330
1F
100
AcDbEntity
  8
実形
100
AcDbLine
 10
2247.773726144549
 20
1443.8139875383
 30
0.0
 11
2254.773726144549
 21
1443.8139875383
 31
0.0
  0
LINE
  5
1A15
330
1F
100
AcDbEntity
  8
実形
100
AcDbLine
 10
2247.773726144549
 20
1262.813987538283
 30
0.0
 11
2254.773726144549
 21
1262.813987538285
 31
0.0
  0
LINE
  5
1A60
330
1F
100
AcDbEntity
  8
補助
100
AcDbLine
 10
2784.0
 20
1959.0
 30
0.0
 11
2019.387286519283
 21
1959.000000000001
 31
0.0
  0
LINE
  5
1A61
330
1F
100
AcDbEntity
  8
補助
100
AcDbLine
 10
2784.0
 20
1894.0
 30
0.0
 11
2019.387286519283
 21
1894.0
 31
0.0
  0
LINE
  5
1A62
330
1F
100
AcDbEntity
  8
補助
100
AcDbLine
 10
2202.547653420927
 20
1894.0
 30
0.0
 11
2202.547653420927
 21
2024.0
 31
0.0
  0
LINE
  5
1A63
330
1F
100
AcDbEntity
  8
補助
100
AcDbLine
 10
2019.387286519283
 20
1894.0
 30
0.0
 11
2019.387286519283
 21
2024.0
 31
0.0
  0
TEXT
  5
1A64
330
1F
100
AcDbEntity
  8
補助
100
AcDbText
 10
2050.295698850121
 20
1976.328571428572
 30
0.0
 40
30.0
  1
部品名
  7
明朝
 72
     4
 11
2116.124270278692
 21
1991.5
 31
0.0
100
AcDbText
  0
TEXT
  5
1A65
330
1F
100
AcDbEntity
  8
補助
100
AcDbText
 10
2627.614285714286
 20
1976.071428571429
 30
0.0
 40
30.0
  1
厚さ
  7
明朝
 72
     4
 11
2671.5
 21
1991.5
 31
0.0
100
AcDbText
  0
LINE
  5
1A66
330
1F
100
AcDbEntity
  8
補助
100
AcDbLine
 10
2559.0
 20
1894.0
 30
0.0
 11
2559.0
 21
2024.0
 31
0.0
  0
TEXT
  5
1A67
330
1F
100
AcDbEntity
  8
補助
100
AcDbText
 10
2338.490869919937
 20
1975.947979478155
 30
0.0
 40
30.0
  1
材質
  7
明朝
 72
     4
 11
2382.376584205651
 21
1991.119408049583
 31
0.0
100
AcDbText
  0
TEXT
  5
1A68
330
1F
100
AcDbEntity
  8
実形
100
AcDbText
 10
2048.227810657788
 20
1910.557142857143
 30
0.0
 40
30.0
  1
ボウル
  7
明朝
 72
     4
 11
2114.056382086359
 21
1926.5
 31
0.0
100
AcDbText
  0
TEXT
  5
1A69
330
1F
100
AcDbEntity
  8
実形
100
AcDbText
 10
2594.700000000001
 20
1911.842857142857
 30
0.0
 40
30.0
  1
0.8ｍｍ
  7
明朝
 72
     4
 11
2671.500000000001
 21
1926.5
 31
0.0
100
AcDbText
  0
TEXT
  5
1A6A
330
1F
100
AcDbEntity
  8
実形
100
AcDbText
 10
2239.074011965008
 20
1910.728571428572
 30
0.0
 40
30.0
  1
SUS304（No.4）
  7
明朝
 72
     4
 11
2392.674011965008
 21
1926.5
 31
0.0
100
AcDbText
  0
LINE
  5
1A6B
330
1F
100
AcDbEntity
  8
補助
100
AcDbLine
 10
111.0
 20
2024.0
 30
0.0
 11
111.0
 21
4.0
 31
0.0
  0
VIEWPORT
  5
2E
102
{ACAD_XDICTIONARY
360
1A96
102
}
330
1B
100
AcDbEntity
 67
     1
  8
0
100
AcDbViewport
 10
144.7270812988281
 20
101.2295806407928
 30
0.0
 40
411.6736216682419
 41
222.1517806396485
 68
     1
 69
     1
 12
144.7270812988281
 22
101.2295806407928
 13
0.0
 23
0.0
 14
10.0
 24
10.0
 15
10.0
 25
10.0
 16
0.0
 26
0.0
 36
1.0
 17
0.0
 27
0.0
 37
0.0
 42
50.0
 43
0.0
 44
0.0
 45
222.1517806396485
 50
0.0
 51
0.0
 72
   100
 90
    32800
  1

281
     0
 71
     1
 74
     0
110
0.0
120
0.0
130
0.0
111
1.0
121
0.0
131
0.0
112
0.0
122
1.0
132
0.0
 79
     0
146
0.0
  0
VIEWPORT
  5
30
102
{ACAD_XDICTIONARY
360
1A98
102
}
330
1B
100
AcDbEntity
 67
     1
  8
0
100
AcDbViewport
 10
139.2237563133239
 20
101.2295821905136
 30
0.0
 40
222.7580101013184
 41
161.9673315048218
 68
     2
 69
     2
 12
210.0
 22
148.5
 13
0.0
 23
0.0
 14
10.0
 24
10.0
 15
10.0
 25
10.0
 16
0.0
 26
0.0
 36
1.0
 17
0.0
 27
0.0
 37
0.0
 42
50.0
 43
0.0
 44
0.0
 45
309.0686705647124
 50
0.0
 51
0.0
 72
   100
 90
    32864
  1

281
     0
 71
     1
 74
     0
110
0.0
120
0.0
130
0.0
111
1.0
121
0.0
131
0.0
112
0.0
122
1.0
132
0.0
 79
     0
146
0.0
  0
ENDSEC
  0
SECTION
  2
OBJECTS
  0
DICTIONARY
  5
C
330
0
100
AcDbDictionary
281
     1
  3
ACAD_COLOR
350
1916
  3
ACAD_GROUP
350
D
  3
ACAD_LAYOUT
350
1A
  3
ACAD_MATERIAL
350
1915
  3
ACAD_MLINESTYLE
350
17
  3
ACAD_PLOTSETTINGS
350
19
  3
ACAD_PLOTSTYLENAME
350
E
  3
ACAD_TABLESTYLE
350
1917
  3
AcadDim
350
CBC
  3
ACDBHEADERROUNDTRIPXREC
350
1A8F
  3
AcDbVariableDictionary
350
EFD
  0
DICTIONARY
  5
1941
330
2
100
AcDbDictionary
280
     1
281
     1
  3
ACAD_LAYERFILTERS
360
1A4C
  3
ACAD_LAYERSTATES
360
1942
  3
ACLYDICTIONARY
360
1A4B
  0
DICTIONARY
  5
1A6C
330
1F
100
AcDbDictionary
280
     1
281
     1
  3
ACAD_SORTENTS
360
1A6D
  0
DICTIONARY
  5
1A96
330
2E
100
AcDbDictionary
280
     1
281
     1
  3
ACAD_XREC_ROUNDTRIP
360
1A97
  0
DICTIONARY
  5
1A98
330
30
100
AcDbDictionary
280
     1
281
     1
  3
ACAD_XREC_ROUNDTRIP
360
1A99
  0
DICTIONARY
  5
1916
102
{ACAD_REACTORS
330
C
102
}
330
C
100
AcDbDictionary
281
     1
  0
DICTIONARY
  5
D
102
{ACAD_REACTORS
330
C
102
}
330
C
100
AcDbDictionary
281
     1
  0
DICTIONARY
  5
1A
102
{ACAD_REACTORS
330
C
102
}
330
C
100
AcDbDictionary
281
     1
  3
Model
350
22
  3
ﾚｲｱｳﾄ1
350
1E
  3
ﾚｲｱｳﾄ2
350
26
  0
DICTIONARY
  5
1915
102
{ACAD_REACTORS
330
C
102
}
330
C
100
AcDbDictionary
281
     1
  0
DICTIONARY
  5
17
102
{ACAD_REACTORS
330
C
102
}
330
C
100
AcDbDictionary
281
     1
  3
Standard
350
18
  0
DICTIONARY
  5
19
102
{ACAD_REACTORS
330
C
102
}
330
C
100
AcDbDictionary
281
     1
  0
ACDBDICTIONARYWDFLT
  5
E
102
{ACAD_REACTORS
330
C
102
}
330
C
100
AcDbDictionary
281
     1
  3
Normal
350
F
100
AcDbDictionaryWithDefault
340
F
  0
DICTIONARY
  5
1917
102
{ACAD_REACTORS
330
C
102
}
330
C
100
AcDbDictionary
281
     1
  3
Standard
350
1918
  0
XRECORD
  5
CBC
102
{ACAD_REACTORS
330
C
102
}
330
C
100
AcDbXrecord
280
     1
 90
   990106
  3

 60
     0
 61
     0
 62
     1
 63
     3
 64
     0
 65
     0
 66
     0
 67
     3
 68
     1
 69
     0
 70
     0
 71
     0
 72
     0
 40
30.0
170
     0
  0
DICTIONARY
  5
1A8F
102
{ACAD_REACTORS
330
C
102
}
330
C
100
AcDbDictionary
281
     1
  0
DICTIONARY
  5
EFD
102
{ACAD_REACTORS
330
C
102
}
330
C
100
AcDbDictionary
281
     1
  3
CTABLESTYLE
350
194E
  3
DIMASSOC
350
1A8C
  3
PROJECTNAME
350
1A8D
  3
SORTENTS
350
EFE
  0
DICTIONARY
  5
1A4C
102
{ACAD_REACTORS
330
1941
102
}
330
1941
100
AcDbDictionary
281
     1
  0
DICTIONARY
  5
1942
102
{ACAD_REACTORS
330
1941
102
}
330
1941
100
AcDbDictionary
281
     1
  0
DICTIONARY
  5
1A4B
102
{ACAD_REACTORS
330
1941
102
}
330
1941
100
AcDbDictionary
281
     1
1001
ACAD
1000
<All
  0
SORTENTSTABLE
  5
1A6D
102
{ACAD_REACTORS
330
1A6C
102
}
330
1A6C
100
AcDbSortentsTable
330
1F
331
1A62
  5
1A63
331
1A6A
  5
1A6B
331
315
  5
316
331
354
  5
355
331
570
  5
571
331
35C
  5
35D
331
F0C
  5
FFB
331
C2D
  5
C2E
331
325
  5
326
331
CBD
  5
CBE
331
BD6
  5
BD7
331
492
  5
4C3
331
BDE
  5
BDF
331
FFC
  5
FFD
331
BE6
  5
BE8
331
1004
  5
1005
331
1975
  5
1976
331
1A13
  5
1A14
331
19DC
  5
19DD
331
2FE
  5
2FF
331
100C
  5
100D
331
18D8
  5
18D9
331
306
  5
307
331
33D
  5
342
331
18E0
  5
194A
331
8A7
  5
8DB
331
EB5
  5
EFC
331
1014
  5
1015
331
40C
  5
41A
331
C1E
  5
C20
331
1764
  5
18B4
331
C26
  5
C29
331
1A63
  5
1A64
331
A0
  5
A5
331
1A6B
  5
A0
331
355
  5
359
331
316
  5
317
331
571
  5
63C
331
35D
  5
360
331
C2E
  5
CB8
331
326
  5
327
331
BD7
  5
BD9
331
CBE
  5
CBF
331
FFD
  5
FFE
331
BDF
  5
BE0
331
1005
  5
1006
331
1976
  5
1977
331
19DD
  5
19DE
331
1A14
  5
1A15
331
50A
  5
522
331
4C3
  5
4E5
331
336
  5
337
331
2FF
  5
300
331
100D
  5
100E
331
18D9
  5
18DA
331
307
  5
308
331
1015
  5
1016
331
522
  5
570
331
1A64
  5
1A65
331
317
  5
319
331
2D8
  5
2D9
331
47C
  5
492
331
918
  5
BD6
331
2E0
  5
2E8
331
327
  5
328
331
2E8
  5
2E9
331
CBF
  5
CC0
331
BE0
  5
BE1
331
FFE
  5
FFF
331
1006
  5
1007
331
1977
  5
1978
331
1A15
  5
1A60
331
19DE
  5
19DF
331
BE8
  5
BE9
331
3F6
  5
40C
331
300
  5
301
331
337
  5
338
331
100E
  5
100F
331
18DA
  5
18DB
331
6AA
  5
6EA
331
308
  5
309
331
C18
  5
C1A
331
1016
  5
175B
331
347
  5
352
331
175E
  5
175F
331
C20
  5
C24
331
1A65
  5
1A66
331
6EA
  5
77B
331
2D9
  5
2DA
331
CB8
  5
CB9
331
2E9
  5
2F1
331
BD9
  5
BDA
331
CC0
  5
CC1
331
377
  5
3E9
331
FFF
  5
1000
331
BE1
  5
BE2
331
1007
  5
1008
331
18D3
  5
18D4
331
1978
  5
19D9
331
19DF
  5
19E0
331
2F1
  5
2F2
331
328
  5
329
331
BE9
  5
C15
331
338
  5
339
331
301
  5
302
331
100F
  5
1010
331
18DB
  5
18DC
331
466
  5
47C
331
309
  5
30A
331
175F
  5
1760
331
1A66
  5
1A67
331
4E5
  5
4FD
331
2DA
  5
2DB
331
319
  5
31A
331
C29
  5
C2B
331
427
  5
459
331
360
  5
361
331
CB9
  5
CBA
331
77B
  5
8A3
331
4FD
  5
50A
331
63C
  5
66C
331
CC1
  5
CC2
331
BDA
  5
BDC
331
BE2
  5
BE3
331
1000
  5
1001
331
18B4
  5
18D3
331
18D4
  5
18D5
331
329
  5
336
331
2F2
  5
2FD
331
66C
  5
6AA
331
1008
  5
1009
331
302
  5
303
331
339
  5
33A
331
1010
  5
1011
331
8A3
  5
8A7
331
18DC
  5
18DD
331
30A
  5
30B
331
C1A
  5
C1C
331
8DB
  5
8DD
331
1760
  5
1761
331
19E0
  5
1A13
331
9C
  5
9C
331
1A67
  5
1A68
331
359
  5
35A
331
31A
  5
31B
331
2DB
  5
2DD
331
361
  5
362
331
CBA
  5
CBD
331
CC2
  5
CC3
331
1001
  5
1002
331
BE3
  5
BE4
331
18D5
  5
18D6
331
194A
  5
194B
331
1972
  5
1973
331
19D9
  5
19DA
331
3E9
  5
3F6
331
1009
  5
100A
331
33A
  5
33B
331
303
  5
306
331
1011
  5
1012
331
18DD
  5
18DE
331
342
  5
347
331
30B
  5
30C
331
914
  5
918
331
1761
  5
1762
331
1A60
  5
1A61
331
A5
  5
2D8
331
1A68
  5
1A69
331
352
  5
353
331
35A
  5
35C
331
31B
  5
323
331
362
  5
363
331
323
  5
324
331
C2B
  5
C2C
331
CC3
  5
DC3
331
BDC
  5
BDD
331
BE4
  5
BE5
331
1002
  5
1003
331
18D6
  5
18D7
331
194B
  5
194C
331
1973
  5
1974
331
19DA
  5
19DB
331
459
  5
466
331
100A
  5
100B
331
33B
  5
33C
331
DC3
  5
EB5
331
30C
  5
30D
331
1012
  5
1013
331
18DE
  5
18DF
331
C1C
  5
C1D
331
8DD
  5
914
331
1762
  5
1763
331
C24
  5
C26
331
1A61
  5
1A62
331
1A69
  5
1A6A
331
353
  5
354
331
41A
  5
427
331
2DD
  5
2E0
331
324
  5
325
331
363
  5
377
331
C2C
  5
C2D
331
FFB
  5
FFC
331
BDD
  5
BDE
331
BE5
  5
BE6
331
1003
  5
1004
331
18D7
  5
18D8
331
194C
  5
1972
331
1974
  5
1975
331
19DB
  5
19DC
331
2FD
  5
2FE
331
33C
  5
33D
331
100B
  5
100C
331
30D
  5
315
331
C15
  5
C18
331
1013
  5
1014
331
18DF
  5
18E0
331
175B
  5
175E
331
C1D
  5
C1E
331
EFC
  5
F0C
331
1763
  5
1764
  0
XRECORD
  5
1A97
102
{ACAD_REACTORS
330
1A96
102
}
330
1A96
100
AcDbXrecord
280
     1
102
SHADEPLOT
 70
     0
  0
XRECORD
  5
1A99
102
{ACAD_REACTORS
330
1A98
102
}
330
1A98
100
AcDbXrecord
280
     1
102
SHADEPLOT
 70
     0
  0
LAYOUT
  5
22
102
{ACAD_XDICTIONARY
360
1A92
102
}
102
{ACAD_REACTORS
330
1A
102
}
330
1A
100
AcDbPlotSettings
  1

  2
EPSON PM-800C
  4
A4
  6

 40
3.757083177566528
 41
14.7637300491333
 42
3.757080078125
 43
3.757080078125
 44
209.9733276367187
 45
296.9683227539062
 46
0.0
 47
0.0
 48
0.0
 49
0.0
140
0.0
141
0.0
142
1.0
143
10.0
 70
 11952
 72
     1
 73
     1
 74
     2
  7

 75
    20
147
0.1
148
0.0
149
0.0
100
AcDbLayout
  1
Model
 70
     1
 71
     0
 10
0.0
 20
0.0
 11
12.0
 21
9.0
 12
0.0
 22
0.0
 32
0.0
 14
0.0
 24
0.0
 34
0.0
 15
0.0
 25
0.0
 35
0.0
146
0.0
 13
0.0
 23
0.0
 33
0.0
 16
1.0
 26
0.0
 36
0.0
 17
0.0
 27
1.0
 37
0.0
 76
     0
330
1F
  0
LAYOUT
  5
1E
102
{ACAD_XDICTIONARY
360
1A90
102
}
102
{ACAD_REACTORS
330
1A
102
}
330
1A
100
AcDbPlotSettings
  1

  2
EPSON PM-800C
  4
A4
  6

 40
3.757083177566528
 41
14.7637300491333
 42
3.757080078125
 43
3.757080078125
 44
209.9733276367187
 45
296.9683227539062
 46
0.0
 47
0.0
 48
0.0
 49
0.0
140
0.0
141
0.0
142
1.0
143
1.0
 70
   688
 72
     1
 73
     1
 74
     5
  7

 75
    16
147
1.0
148
0.0
149
0.0
100
AcDbLayout
  1
ﾚｲｱｳﾄ1
 70
     1
 71
     1
 10
-3.757080078125
 20
-3.757083177566528
 11
293.2112426757813
 21
206.2162444591522
 12
0.0
 22
0.0
 32
0.0
 14
27.8447512626648
 24
20.24591643810271
 34
0.0
 15
250.6027613639831
 25
182.2132479429245
 35
0.0
146
0.0
 13
0.0
 23
0.0
 33
0.0
 16
1.0
 26
0.0
 36
0.0
 17
0.0
 27
1.0
 37
0.0
 76
     0
330
1B
331
2E
  0
LAYOUT
  5
26
102
{ACAD_XDICTIONARY
360
1A94
102
}
102
{ACAD_REACTORS
330
1A
102
}
330
1A
100
AcDbPlotSettings
  1

  2
EPSON PM-800C
  4

  6

 40
0.0
 41
0.0
 42
0.0
 43
0.0
 44
0.0
 45
0.0
 46
0.0
 47
0.0
 48
0.0
 49
0.0
140
0.0
141
0.0
142
1.0
143
1.0
 70
   688
 72
     0
 73
     0
 74
     5
  7

 75
    16
147
1.0
148
0.0
149
0.0
100
AcDbLayout
  1
ﾚｲｱｳﾄ2
 70
     1
 71
     2
 10
0.0
 20
0.0
 11
12.0
 21
9.0
 12
0.0
 22
0.0
 32
0.0
 14
0.0
 24
0.0
 34
0.0
 15
0.0
 25
0.0
 35
0.0
146
0.0
 13
0.0
 23
0.0
 33
0.0
 16
1.0
 26
0.0
 36
0.0
 17
0.0
 27
1.0
 37
0.0
 76
     0
330
23
  0
MLINESTYLE
  5
18
102
{ACAD_REACTORS
330
17
102
}
330
17
100
AcDbMlineStyle
  2
STANDARD
 70
     0
  3

 62
   256
 51
90.0
 52
90.0
 71
     2
 49
0.5
 62
   256
  6
BYLAYER
 49
-0.5
 62
   256
  6
BYLAYER
  0
ACDBPLACEHOLDER
  5
F
102
{ACAD_REACTORS
330
E
102
}
330
E
  0
TABLESTYLE
  5
1918
102
{ACAD_REACTORS
330
1917
102
}
330
1917
100
AcDbTableStyle
  3
Standard
 70
     0
 71
     0
 40
1.5
 41
1.5
280
     0
281
     0
  7
Standard
140
4.5
170
     2
 62
     0
 63
     7
283
     0
274
    -2
284
     1
 64
     0
275
    -2
285
     1
 65
     0
276
    -2
286
     1
 66
     0
277
    -2
287
     1
 67
     0
278
    -2
288
     1
 68
     0
279
    -2
289
     1
 69
     0
  7
Standard
140
6.0
170
     5
 62
     0
 63
     7
283
     0
274
    -2
284
     1
 64
     0
275
    -2
285
     1
 65
     0
276
    -2
286
     1
 66
     0
277
    -2
287
     1
 67
     0
278
    -2
288
     1
 68
     0
279
    -2
289
     1
 69
     0
  7
Standard
140
4.5
170
     5
 62
     0
 63
     7
283
     0
274
    -2
284
     1
 64
     0
275
    -2
285
     1
 65
     0
276
    -2
286
     1
 66
     0
277
    -2
287
     1
 67
     0
278
    -2
288
     1
 68
     0
279
    -2
289
     1
 69
     0
  0
DICTIONARYVAR
  5
194E
102
{ACAD_REACTORS
330
EFD
102
}
330
EFD
100
DictionaryVariables
280
     0
  1
STANDARD
  0
DICTIONARYVAR
  5
1A8C
102
{ACAD_REACTORS
330
EFD
102
}
330
EFD
100
DictionaryVariables
280
     0
  1
1
  0
DICTIONARYVAR
  5
1A8D
102
{ACAD_REACTORS
330
EFD
102
}
330
EFD
100
DictionaryVariables
280
     0
  1

  0
DICTIONARYVAR
  5
EFE
102
{ACAD_REACTORS
330
EFD
102
}
330
EFD
100
DictionaryVariables
280
     0
  1
96
  0
DICTIONARY
  5
1A92
330
22
100
AcDbDictionary
280
     1
281
     1
  3
ACAD_XREC_ROUNDTRIP
360
1A93
  0
DICTIONARY
  5
1A90
330
1E
100
AcDbDictionary
280
     1
281
     1
  3
ACAD_XREC_ROUNDTRIP
360
1A91
  0
DICTIONARY
  5
1A94
330
26
100
AcDbDictionary
280
     1
281
     1
  3
ACAD_XREC_ROUNDTRIP
360
1A95
  0
XRECORD
  5
1A93
102
{ACAD_REACTORS
330
1A92
102
}
330
1A92
100
AcDbXrecord
280
     1
102
SHADEPLOT
 70
     0
102
SHADEPLOTRESLEVEL
 70
     2
102
SHADEPLOTCUSTOMDPI
 70
   300
  0
XRECORD
  5
1A91
102
{ACAD_REACTORS
330
1A90
102
}
330
1A90
100
AcDbXrecord
280
     1
102
SHADEPLOT
 70
     0
102
SHADEPLOTRESLEVEL
 70
     2
102
SHADEPLOTCUSTOMDPI
 70
   300
  0
XRECORD
  5
1A95
102
{ACAD_REACTORS
330
1A94
102
}
330
1A94
100
AcDbXrecord
280
     1
102
SHADEPLOT
 70
     0
102
SHADEPLOTRESLEVEL
 70
     2
102
SHADEPLOTCUSTOMDPI
 70
   300
  0
ENDSEC
  0
EOF
