  0
SECTION
  2
HEADER
  9
$ACADVER
  1
AC1015
  9
$ACADMAINTVER
 70
    20
  9
$DWGCODEPAGE
  3
ANSI_932
  9
$INSBASE
 10
0.0
 20
0.0
 30
0.0
  9
$EXTMIN
 10
111.0
 20
4.0
 30
0.0
  9
$EXTMAX
 10
2784.0
 20
2024.0
 30
0.0
  9
$LIMMIN
 10
0.0
 20
0.0
  9
$LIMMAX
 10
29700.0
 20
21000.0
  9
$ORTHOMODE
 70
     1
  9
$REGENMODE
 70
     1
  9
$FILLMODE
 70
     1
  9
$QTEXTMODE
 70
     0
  9
$MIRRTEXT
 70
     1
  9
$LTSCALE
 40
4.0
  9
$ATTMODE
 70
     1
  9
$TEXTSIZE
 40
35.0
  9
$TRACEWID
 40
1.0
  9
$TEXTSTYLE
  7
Standard
  9
$CLAYER
  8
実形
  9
$CELTYPE
  6
ByLayer
  9
$CECOLOR
 62
   256
  9
$CELTSCALE
 40
1.0
  9
$DISPSILH
 70
     0
  9
$DIMSCALE
 40
1.0
  9
$DIMASZ
 40
35.0
  9
$DIMEXO
 40
65.0
  9
$DIMDLI
 40
3.75
  9
$DIMRND
 40
0.0
  9
$DIMDLE
 40
0.0
  9
$DIMEXE
 40
0.0
  9
$DIMTP
 40
0.0
  9
$DIMTM
 40
0.0
  9
$DIMTXT
 40
25.0
  9
$DIMCEN
 40
2.5
  9
$DIMTSZ
 40
0.0
  9
$DIMTOL
 70
     0
  9
$DIMLIM
 70
     0
  9
$DIMTIH
 70
     0
  9
$DIMTOH
 70
     0
  9
$DIMSE1
 70
     0
  9
$DIMSE2
 70
     0
  9
$DIMTAD
 70
     1
  9
$DIMZIN
 70
     8
  9
$DIMBLK
  1
DotSmall
  9
$DIMASO
 70
     1
  9
$DIMSHO
 70
     1
  9
$DIMPOST
  1

  9
$DIMAPOST
  1

  9
$DIMALT
 70
     0
  9
$DIMALTD
 70
     3
  9
$DIMALTF
 40
0.03937007874016
  9
$DIMLFAC
 40
1.0
  9
$DIMTOFL
 70
     1
  9
$DIMTVP
 40
0.0
  9
$DIMTIX
 70
     0
  9
$DIMSOXD
 70
     0
  9
$DIMSAH
 70
     0
  9
$DIMBLK1
  1

  9
$DIMBLK2
  1

  9
$DIMSTYLE
  2
ISO-25
  9
$DIMCLRD
 70
     0
  9
$DIMCLRE
 70
     0
  9
$DIMCLRT
 70
     0
  9
$DIMTFAC
 40
1.0
  9
$DIMGAP
 40
6.25
  9
$DIMJUST
 70
     0
  9
$DIMSD1
 70
     0
  9
$DIMSD2
 70
     0
  9
$DIMTOLJ
 70
     0
  9
$DIMTZIN
 70
     8
  9
$DIMALTZ
 70
     0
  9
$DIMALTTZ
 70
     0
  9
$DIMUPT
 70
     0
  9
$DIMDEC
 70
     2
  9
$DIMTDEC
 70
     2
  9
$DIMALTU
 70
     2
  9
$DIMALTTD
 70
     3
  9
$DIMTXSTY
  7
Standard
  9
$DIMAUNIT
 70
     0
  9
$DIMADEC
 70
     0
  9
$DIMALTRND
 40
0.0
  9
$DIMAZIN
 70
     0
  9
$DIMDSEP
 70
    46
  9
$DIMATFIT
 70
     2
  9
$DIMFRAC
 70
     0
  9
$DIMLDRBLK
  1
Open30
  9
$DIMLUNIT
 70
     2
  9
$DIMLWD
 70
    15
  9
$DIMLWE
 70
    15
  9
$DIMTMOVE
 70
     2
  9
$LUNITS
 70
     2
  9
$LUPREC
 70
     2
  9
$SKETCHINC
 40
1.0
  9
$FILLETRAD
 40
30.0
  9
$AUNITS
 70
     0
  9
$AUPREC
 70
     0
  9
$MENU
  1
.
  9
$ELEVATION
 40
0.0
  9
$PELEVATION
 40
0.0
  9
$THICKNESS
 40
0.0
  9
$LIMCHECK
 70
     1
  9
$CHAMFERA
 40
10.0
  9
$CHAMFERB
 40
10.0
  9
$CHAMFERC
 40
20.0
  9
$CHAMFERD
 40
0.0
  9
$SKPOLY
 70
     0
  9
$TDCREATE
 40
2451673.575802199
  9
$TDUCREATE
 40
2451673.200802199
  9
$TDUPDATE
 40
2458807.480400243
  9
$TDUUPDATE
 40
2458807.105400243
  9
$TDINDWG
 40
0.9310387731
  9
$TDUSRTIMER
 40
0.9310380787
  9
$USRTIMER
 70
     1
  9
$ANGBASE
 50
0.0
  9
$ANGDIR
 70
     0
  9
$PDMODE
 70
     0
  9
$PDSIZE
 40
0.0
  9
$PLINEWID
 40
0.0
  9
$SPLFRAME
 70
     0
  9
$SPLINETYPE
 70
     6
  9
$SPLINESEGS
 70
     8
  9
$HANDSEED
  5
19FE
  9
$SURFTAB1
 70
     6
  9
$SURFTAB2
 70
     6
  9
$SURFTYPE
 70
     6
  9
$SURFU
 70
     6
  9
$SURFV
 70
     6
  9
$UCSBASE
  2

  9
$UCSNAME
  2

  9
$UCSORG
 10
0.0
 20
0.0
 30
0.0
  9
$UCSXDIR
 10
1.0
 20
0.0
 30
0.0
  9
$UCSYDIR
 10
0.0
 20
1.0
 30
0.0
  9
$UCSORTHOREF
  2

  9
$UCSORTHOVIEW
 70
     0
  9
$UCSORGTOP
 10
0.0
 20
0.0
 30
0.0
  9
$UCSORGBOTTOM
 10
0.0
 20
0.0
 30
0.0
  9
$UCSORGLEFT
 10
0.0
 20
0.0
 30
0.0
  9
$UCSORGRIGHT
 10
0.0
 20
0.0
 30
0.0
  9
$UCSORGFRONT
 10
0.0
 20
0.0
 30
0.0
  9
$UCSORGBACK
 10
0.0
 20
0.0
 30
0.0
  9
$PUCSBASE
  2

  9
$PUCSNAME
  2

  9
$PUCSORG
 10
0.0
 20
0.0
 30
0.0
  9
$PUCSXDIR
 10
1.0
 20
0.0
 30
0.0
  9
$PUCSYDIR
 10
0.0
 20
1.0
 30
0.0
  9
$PUCSORTHOREF
  2

  9
$PUCSORTHOVIEW
 70
     0
  9
$PUCSORGTOP
 10
0.0
 20
0.0
 30
0.0
  9
$PUCSORGBOTTOM
 10
0.0
 20
0.0
 30
0.0
  9
$PUCSORGLEFT
 10
0.0
 20
0.0
 30
0.0
  9
$PUCSORGRIGHT
 10
0.0
 20
0.0
 30
0.0
  9
$PUCSORGFRONT
 10
0.0
 20
0.0
 30
0.0
  9
$PUCSORGBACK
 10
0.0
 20
0.0
 30
0.0
  9
$USERI1
 70
     0
  9
$USERI2
 70
     0
  9
$USERI3
 70
     0
  9
$USERI4
 70
     0
  9
$USERI5
 70
     0
  9
$USERR1
 40
0.0
  9
$USERR2
 40
0.0
  9
$USERR3
 40
0.0
  9
$USERR4
 40
0.0
  9
$USERR5
 40
0.0
  9
$WORLDVIEW
 70
     1
  9
$SHADEDGE
 70
     3
  9
$SHADEDIF
 70
    70
  9
$TILEMODE
 70
     1
  9
$MAXACTVP
 70
    64
  9
$PINSBASE
 10
0.0
 20
0.0
 30
0.0
  9
$PLIMCHECK
 70
     0
  9
$PEXTMIN
 10
27.8447512626648
 20
20.24591643810271
 30
0.0
  9
$PEXTMAX
 10
250.6027613639831
 20
182.2132479429245
 30
0.0
  9
$PLIMMIN
 10
-3.757080078125
 20
-3.757083177566528
  9
$PLIMMAX
 10
293.2112426757813
 20
206.2162444591522
  9
$UNITMODE
 70
     0
  9
$VISRETAIN
 70
     1
  9
$PLINEGEN
 70
     0
  9
$PSLTSCALE
 70
     1
  9
$TREEDEPTH
 70
  3020
  9
$CMLSTYLE
  2
Standard
  9
$CMLJUST
 70
     0
  9
$CMLSCALE
 40
20.0
  9
$PROXYGRAPHICS
 70
     1
  9
$MEASUREMENT
 70
     1
  9
$CELWEIGHT
370
    -1
  9
$ENDCAPS
280
     0
  9
$JOINSTYLE
280
     0
  9
$LWDISPLAY
290
     0
  9
$INSUNITS
 70
     4
  9
$HYPERLINKBASE
  1

  9
$STYLESHEET
  1

  9
$XEDIT
290
     1
  9
$CEPSNTYPE
380
     0
  9
$PSTYLEMODE
290
     1
  9
$FINGERPRINTGUID
  2
{C8EA1F16-24C9-11D4-9416-CE0A3B32152F}
  9
$VERSIONGUID
  2
{60E3AA50-EB57-47C1-A29B-D81A5F1E3B08}
  9
$EXTNAMES
290
     1
  9
$PSVPSCALE
 40
0.0
  9
$OLESTARTUP
290
     0
  0
ENDSEC
  0
SECTION
  2
CLASSES
  0
CLASS
  1
ACDBDICTIONARYWDFLT
  2
AcDbDictionaryWithDefault
  3
ObjectDBX Classes
 90
        0
280
     0
281
     0
  0
CLASS
  1
ACDBPLACEHOLDER
  2
AcDbPlaceHolder
  3
ObjectDBX Classes
 90
        0
280
     0
281
     0
  0
CLASS
  1
LAYOUT
  2
AcDbLayout
  3
ObjectDBX Classes
 90
        0
280
     0
281
     0
  0
CLASS
  1
DICTIONARYVAR
  2
AcDbDictionaryVar
  3
ObjectDBX Classes
 90
        0
280
     0
281
     0
  0
CLASS
  1
TABLESTYLE
  2
AcDbTableStyle
  3
ObjectDBX Classes
 90
     2047
280
     0
281
     0
  0
CLASS
  1
SORTENTSTABLE
  2
AcDbSortentsTable
  3
ObjectDBX Classes
 90
        0
280
     0
281
     0
  0
ENDSEC
  0
SECTION
  2
TABLES
  0
TABLE
  2
VPORT
  5
8
330
0
100
AcDbSymbolTable
 70
     2
  0
VPORT
  5
19F2
330
8
100
AcDbSymbolTableRecord
100
AcDbViewportTableRecord
  2
*Active
 70
     0
 10
0.0
 20
0.0
 11
1.0
 21
1.0
 12
1412.945725819559
 22
1006.06936163896
 13
0.0
 23
0.0
 14
10.0
 24
10.0
 15
10.0
 25
10.0
 16
0.0
 26
0.0
 36
1.0
 17
0.0
 27
0.0
 37
0.0
 40
2335.052047479481
 41
1.29038112522686
 42
50.0
 43
0.0
 44
0.0
 50
0.0
 51
0.0
 71
     0
 72
   100
 73
     1
 74
     3
 75
     0
 76
     0
 77
     0
 78
     0
281
     0
 65
     1
110
0.0
120
0.0
130
0.0
111
1.0
121
0.0
131
0.0
112
0.0
122
1.0
132
0.0
 79
     0
146
0.0
  0
ENDTAB
  0
TABLE
  2
LTYPE
  5
5
330
0
100
AcDbSymbolTable
 70
    46
  0
LTYPE
  5
14
330
5
100
AcDbSymbolTableRecord
100
AcDbLinetypeTableRecord
  2
ByBlock
 70
     0
  3

 72
    65
 73
     0
 40
0.0
  0
LTYPE
  5
15
330
5
100
AcDbSymbolTableRecord
100
AcDbLinetypeTableRecord
  2
ByLayer
 70
     0
  3

 72
    65
 73
     0
 40
0.0
  0
LTYPE
  5
16
330
5
100
AcDbSymbolTableRecord
100
AcDbLinetypeTableRecord
  2
Continuous
 70
     0
  3
Solid line
 72
    65
 73
     0
 40
0.0
  0
LTYPE
  5
34
330
5
100
AcDbSymbolTableRecord
100
AcDbLinetypeTableRecord
  2
ACAD_ISO02W100
 70
     0
  3
ISO dash __ __ __ __ __ __ __ __ __ __ __ __ __
 72
    65
 73
     2
 40
15.0
 49
12.0
 74
     0
 49
-3.0
 74
     0
  0
LTYPE
  5
35
330
5
100
AcDbSymbolTableRecord
100
AcDbLinetypeTableRecord
  2
ACAD_ISO03W100
 70
     0
  3
ISO dash space __    __    __    __    __    __
 72
    65
 73
     2
 40
30.0
 49
12.0
 74
     0
 49
-18.0
 74
     0
  0
LTYPE
  5
36
330
5
100
AcDbSymbolTableRecord
100
AcDbLinetypeTableRecord
  2
ACAD_ISO04W100
 70
     0
  3
ISO long-dash dot ____ . ____ . ____ . ____ . _
 72
    65
 73
     4
 40
30.0
 49
24.0
 74
     0
 49
-3.0
 74
     0
 49
0.0
 74
     0
 49
-3.0
 74
     0
  0
LTYPE
  5
37
330
5
100
AcDbSymbolTableRecord
100
AcDbLinetypeTableRecord
  2
ACAD_ISO05W100
 70
     0
  3
ISO long-dash double-dot ____ .. ____ .. ____ .
 72
    65
 73
     6
 40
34.0
 49
24.0
 74
     0
 49
-3.0
 74
     0
 49
0.5
 74
     0
 49
-3.0
 74
     0
 49
0.5
 74
     0
 49
-3.0
 74
     0
  0
LTYPE
  5
38
330
5
100
AcDbSymbolTableRecord
100
AcDbLinetypeTableRecord
  2
ACAD_ISO06W100
 70
     0
  3
ISO long-dash triple-dot ____ ... ____ ... ____
 72
    65
 73
     8
 40
37.5
 49
24.0
 74
     0
 49
-3.0
 74
     0
 49
0.5
 74
     0
 49
-3.0
 74
     0
 49
0.5
 74
     0
 49
-3.0
 74
     0
 49
0.5
 74
     0
 49
-3.0
 74
     0
  0
LTYPE
  5
39
330
5
100
AcDbSymbolTableRecord
100
AcDbLinetypeTableRecord
  2
ACAD_ISO07W100
 70
     0
  3
ISO dot . . . . . . . . . . . . . . . . . . . .
 72
    65
 73
     2
 40
3.0
 49
0.0
 74
     0
 49
-3.0
 74
     0
  0
LTYPE
  5
3A
330
5
100
AcDbSymbolTableRecord
100
AcDbLinetypeTableRecord
  2
ACAD_ISO08W100
 70
     0
  3
ISO long-dash short-dash ____ __ ____ __ ____ _
 72
    65
 73
     4
 40
36.0
 49
24.0
 74
     0
 49
-3.0
 74
     0
 49
6.0
 74
     0
 49
-3.0
 74
     0
  0
LTYPE
  5
3B
330
5
100
AcDbSymbolTableRecord
100
AcDbLinetypeTableRecord
  2
ACAD_ISO09W100
 70
     0
  3
ISO long-dash double-short-dash ____ __ __ ____
 72
    65
 73
     6
 40
45.0
 49
24.0
 74
     0
 49
-3.0
 74
     0
 49
6.0
 74
     0
 49
-3.0
 74
     0
 49
6.0
 74
     0
 49
-3.0
 74
     0
  0
LTYPE
  5
3C
330
5
100
AcDbSymbolTableRecord
100
AcDbLinetypeTableRecord
  2
ACAD_ISO10W100
 70
     0
  3
ISO dash dot __ . __ . __ . __ . __ . __ . __ .
 72
    65
 73
     4
 40
18.0
 49
12.0
 74
     0
 49
-3.0
 74
     0
 49
0.0
 74
     0
 49
-3.0
 74
     0
  0
LTYPE
  5
3D
330
5
100
AcDbSymbolTableRecord
100
AcDbLinetypeTableRecord
  2
ACAD_ISO11W100
 70
     0
  3
ISO double-dash dot __ __ . __ __ . __ __ . __ 
 72
    65
 73
     6
 40
33.0
 49
12.0
 74
     0
 49
-3.0
 74
     0
 49
12.0
 74
     0
 49
-3.0
 74
     0
 49
0.0
 74
     0
 49
-3.0
 74
     0
  0
LTYPE
  5
3E
330
5
100
AcDbSymbolTableRecord
100
AcDbLinetypeTableRecord
  2
ACAD_ISO12W100
 70
     0
  3
ISO dash double-dot __ . . __ . . __ . . __ . .
 72
    65
 73
     6
 40
21.0
 49
12.0
 74
     0
 49
-3.0
 74
     0
 49
0.0
 74
     0
 49
-3.0
 74
     0
 49
0.0
 74
     0
 49
-3.0
 74
     0
  0
LTYPE
  5
3F
330
5
100
AcDbSymbolTableRecord
100
AcDbLinetypeTableRecord
  2
ACAD_ISO13W100
 70
     0
  3
ISO double-dash double-dot __ __ . . __ __ . . 
 72
    65
 73
     8
 40
36.0
 49
12.0
 74
     0
 49
-3.0
 74
     0
 49
12.0
 74
     0
 49
-3.0
 74
     0
 49
0.0
 74
     0
 49
-3.0
 74
     0
 49
0.0
 74
     0
 49
-3.0
 74
     0
  0
LTYPE
  5
40
330
5
100
AcDbSymbolTableRecord
100
AcDbLinetypeTableRecord
  2
ACAD_ISO14W100
 70
     0
  3
ISO dash triple-dot __ . . . __ . . . __ . . . 
 72
    65
 73
     8
 40
24.0
 49
12.0
 74
     0
 49
-3.0
 74
     0
 49
0.0
 74
     0
 49
-3.0
 74
     0
 49
0.0
 74
     0
 49
-3.0
 74
     0
 49
0.0
 74
     0
 49
-3.0
 74
     0
  0
LTYPE
  5
41
330
5
100
AcDbSymbolTableRecord
100
AcDbLinetypeTableRecord
  2
ACAD_ISO15W100
 70
     0
  3
ISO double-dash triple-dot __ __ . . . __ __ . 
 72
    65
 73
    10
 40
39.0
 49
12.0
 74
     0
 49
-3.0
 74
     0
 49
12.0
 74
     0
 49
-3.0
 74
     0
 49
0.0
 74
     0
 49
-3.0
 74
     0
 49
0.0
 74
     0
 49
-3.0
 74
     0
 49
0.0
 74
     0
 49
-3.0
 74
     0
  0
LTYPE
  5
42
330
5
100
AcDbSymbolTableRecord
100
AcDbLinetypeTableRecord
  2
BATTING
 70
     0
  3
Batting SSSSSSSSSSSSSSSSSSSSSSSSSSSSSSSSSSSSSSS
 72
    65
 73
     4
 40
10.16254
 49
0.00254
 74
     0
 49
-2.54
 74
     4
 75
   134
340
33
 46
2.54
 50
0.0
 44
-2.54
 45
0.0
 49
-5.08
 74
     4
 75
   134
340
33
 46
2.54
 50
180.0
 44
2.54
 45
0.0
 49
-2.54
 74
     0
  0
LTYPE
  5
43
330
5
100
AcDbSymbolTableRecord
100
AcDbLinetypeTableRecord
  2
BORDER
 70
     0
  3
Border __ __ . __ __ . __ __ . __ __ . __ __ .
 72
    65
 73
     6
 40
44.45
 49
12.7
 74
     0
 49
-6.349999999999999
 74
     0
 49
12.7
 74
     0
 49
-6.349999999999999
 74
     0
 49
0.0
 74
     0
 49
-6.349999999999999
 74
     0
  0
LTYPE
  5
44
330
5
100
AcDbSymbolTableRecord
100
AcDbLinetypeTableRecord
  2
BORDER2
 70
     0
  3
Border (.5x) __.__.__.__.__.__.__.__.__.__.__.
 72
    65
 73
     6
 40
22.225
 49
6.349999999999999
 74
     0
 49
-3.174999999999999
 74
     0
 49
6.349999999999999
 74
     0
 49
-3.174999999999999
 74
     0
 49
0.0
 74
     0
 49
-3.174999999999999
 74
     0
  0
LTYPE
  5
45
330
5
100
AcDbSymbolTableRecord
100
AcDbLinetypeTableRecord
  2
BORDERX2
 70
     0
  3
Border (2x) ____  ____  .  ____  ____  .  ___
 72
    65
 73
     6
 40
88.9
 49
25.4
 74
     0
 49
-12.7
 74
     0
 49
25.4
 74
     0
 49
-12.7
 74
     0
 49
0.0
 74
     0
 49
-12.7
 74
     0
  0
LTYPE
  5
46
330
5
100
AcDbSymbolTableRecord
100
AcDbLinetypeTableRecord
  2
CENTER
 70
     0
  3
Center ____ _ ____ _ ____ _ ____ _ ____ _ ____
 72
    65
 73
     4
 40
50.8
 49
31.75
 74
     0
 49
-6.349999999999999
 74
     0
 49
6.349999999999999
 74
     0
 49
-6.349999999999999
 74
     0
  0
LTYPE
  5
47
330
5
100
AcDbSymbolTableRecord
100
AcDbLinetypeTableRecord
  2
CENTER2
 70
     0
  3
Center (.5x) ___ _ ___ _ ___ _ ___ _ ___ _ ___
 72
    65
 73
     4
 40
28.575
 49
19.05
 74
     0
 49
-3.174999999999999
 74
     0
 49
3.174999999999999
 74
     0
 49
-3.174999999999999
 74
     0
  0
LTYPE
  5
48
330
5
100
AcDbSymbolTableRecord
100
AcDbLinetypeTableRecord
  2
CENTERX2
 70
     0
  3
Center (2x) ________  __  ________  __  _____
 72
    65
 73
     4
 40
101.6
 49
63.5
 74
     0
 49
-12.7
 74
     0
 49
12.7
 74
     0
 49
-12.7
 74
     0
  0
LTYPE
  5
49
330
5
100
AcDbSymbolTableRecord
100
AcDbLinetypeTableRecord
  2
DASHDOT
 70
     0
  3
Dash dot __ . __ . __ . __ . __ . __ . __ . __
 72
    65
 73
     4
 40
25.4
 49
12.7
 74
     0
 49
-6.349999999999999
 74
     0
 49
0.0
 74
     0
 49
-6.349999999999999
 74
     0
  0
LTYPE
  5
4A
330
5
100
AcDbSymbolTableRecord
100
AcDbLinetypeTableRecord
  2
DASHDOT2
 70
     0
  3
Dash dot (.5x) _._._._._._._._._._._._._._._.
 72
    65
 73
     4
 40
12.7
 49
6.349999999999999
 74
     0
 49
-3.174999999999999
 74
     0
 49
0.0
 74
     0
 49
-3.174999999999999
 74
     0
  0
LTYPE
  5
4B
330
5
100
AcDbSymbolTableRecord
100
AcDbLinetypeTableRecord
  2
DASHDOTX2
 70
     0
  3
Dash dot (2x) ____  .  ____  .  ____  .  ___
 72
    65
 73
     4
 40
50.8
 49
25.4
 74
     0
 49
-12.7
 74
     0
 49
0.0
 74
     0
 49
-12.7
 74
     0
  0
LTYPE
  5
4C
330
5
100
AcDbSymbolTableRecord
100
AcDbLinetypeTableRecord
  2
DASHED
 70
     0
  3
Dashed __ __ __ __ __ __ __ __ __ __ __ __ __ _
 72
    65
 73
     2
 40
19.05
 49
12.7
 74
     0
 49
-6.349999999999999
 74
     0
  0
LTYPE
  5
4D
330
5
100
AcDbSymbolTableRecord
100
AcDbLinetypeTableRecord
  2
DASHED2
 70
     0
  3
Dashed (.5x) _ _ _ _ _ _ _ _ _ _ _ _ _ _ _ _ _
 72
    65
 73
     2
 40
9.524999999999998
 49
6.349999999999999
 74
     0
 49
-3.174999999999999
 74
     0
  0
LTYPE
  5
4E
330
5
100
AcDbSymbolTableRecord
100
AcDbLinetypeTableRecord
  2
DASHEDX2
 70
     0
  3
Dashed (2x) ____  ____  ____  ____  ____  ___
 72
    65
 73
     2
 40
38.1
 49
25.4
 74
     0
 49
-12.7
 74
     0
  0
LTYPE
  5
4F
330
5
100
AcDbSymbolTableRecord
100
AcDbLinetypeTableRecord
  2
DIVIDE
 70
     0
  3
Divide ____ . . ____ . . ____ . . ____ . . ____
 72
    65
 73
     6
 40
31.75
 49
12.7
 74
     0
 49
-6.349999999999999
 74
     0
 49
0.0
 74
     0
 49
-6.349999999999999
 74
     0
 49
0.0
 74
     0
 49
-6.349999999999999
 74
     0
  0
LTYPE
  5
50
330
5
100
AcDbSymbolTableRecord
100
AcDbLinetypeTableRecord
  2
DIVIDE2
 70
     0
  3
Divide (.5x) __..__..__..__..__..__..__..__.._
 72
    65
 73
     6
 40
15.875
 49
6.349999999999999
 74
     0
 49
-3.174999999999999
 74
     0
 49
0.0
 74
     0
 49
-3.174999999999999
 74
     0
 49
0.0
 74
     0
 49
-3.174999999999999
 74
     0
  0
LTYPE
  5
51
330
5
100
AcDbSymbolTableRecord
100
AcDbLinetypeTableRecord
  2
DIVIDEX2
 70
     0
  3
Divide (2x) ________  .  .  ________  .  .  _
 72
    65
 73
     6
 40
63.49999999999999
 49
25.4
 74
     0
 49
-12.7
 74
     0
 49
0.0
 74
     0
 49
-12.7
 74
     0
 49
0.0
 74
     0
 49
-12.7
 74
     0
  0
LTYPE
  5
52
330
5
100
AcDbSymbolTableRecord
100
AcDbLinetypeTableRecord
  2
DOT
 70
     0
  3
Dot . . . . . . . . . . . . . . . . . . . . . .
 72
    65
 73
     2
 40
6.349999999999999
 49
0.0
 74
     0
 49
-6.349999999999999
 74
     0
  0
LTYPE
  5
53
330
5
100
AcDbSymbolTableRecord
100
AcDbLinetypeTableRecord
  2
DOT2
 70
     0
  3
Dot (.5x) .....................................
 72
    65
 73
     2
 40
3.174999999999999
 49
0.0
 74
     0
 49
-3.174999999999999
 74
     0
  0
LTYPE
  5
54
330
5
100
AcDbSymbolTableRecord
100
AcDbLinetypeTableRecord
  2
DOTX2
 70
     0
  3
Dot (2x) .  .  .  .  .  .  .  .  .  .  .  .  . 
 72
    65
 73
     2
 40
12.7
 49
0.0
 74
     0
 49
-12.7
 74
     0
  0
LTYPE
  5
55
330
5
100
AcDbSymbolTableRecord
100
AcDbLinetypeTableRecord
  2
FENCELINE1
 70
     0
  3
Fenceline circle ----0-----0----0-----0----0---
 72
    65
 73
     4
 40
36.83
 49
6.349999999999999
 74
     0
 49
-2.54
 74
     4
 75
   133
340
33
 46
2.54
 50
0.0
 44
-2.54
 45
0.0
 49
-2.54
 74
     0
 49
25.4
 74
     0
  0
LTYPE
  5
56
330
5
100
AcDbSymbolTableRecord
100
AcDbLinetypeTableRecord
  2
FENCELINE2
 70
     0
  3
Fenceline square ----[]-----[]----[]-----[]----
 72
    65
 73
     4
 40
36.83
 49
6.349999999999999
 74
     0
 49
-2.54
 74
     4
 75
   132
340
33
 46
2.54
 50
0.0
 44
-2.54
 45
0.0
 49
-2.54
 74
     0
 49
25.4
 74
     0
  0
LTYPE
  5
57
330
5
100
AcDbSymbolTableRecord
100
AcDbLinetypeTableRecord
  2
GAS_LINE
 70
     0
  3
Gas line ----GAS----GAS----GAS----GAS----GAS---
 72
    65
 73
     3
 40
24.13
 49
12.7
 74
     0
 49
-5.08
 74
     2
 75
     0
340
11
 46
2.54
 50
0.0
 44
-2.54
 45
-1.27
  9
GAS
 49
-6.349999999999999
 74
     0
  0
LTYPE
  5
58
330
5
100
AcDbSymbolTableRecord
100
AcDbLinetypeTableRecord
  2
HIDDEN
 70
     0
  3
Hidden __ __ __ __ __ __ __ __ __ __ __ __ __ _
 72
    65
 73
     2
 40
9.524999999999998
 49
6.349999999999999
 74
     0
 49
-3.174999999999999
 74
     0
  0
LTYPE
  5
59
330
5
100
AcDbSymbolTableRecord
100
AcDbLinetypeTableRecord
  2
HIDDEN2
 70
     0
  3
Hidden (.5x) _ _ _ _ _ _ _ _ _ _ _ _ _ _ _ _ _
 72
    65
 73
     2
 40
4.762499999999999
 49
3.174999999999999
 74
     0
 49
-1.587499999999999
 74
     0
  0
LTYPE
  5
5A
330
5
100
AcDbSymbolTableRecord
100
AcDbLinetypeTableRecord
  2
HIDDENX2
 70
     0
  3
Hidden (2x) ____ ____ ____ ____ ____ ____ ____
 72
    65
 73
     2
 40
19.05
 49
12.7
 74
     0
 49
-6.349999999999999
 74
     0
  0
LTYPE
  5
5B
330
5
100
AcDbSymbolTableRecord
100
AcDbLinetypeTableRecord
  2
HOT_WATER_SUPPLY
 70
     0
  3
Hot water supply ---- HW ---- HW ---- HW ----
 72
    65
 73
     3
 40
22.86
 49
12.7
 74
     0
 49
-5.08
 74
     2
 75
     0
340
11
 46
2.54
 50
0.0
 44
-2.54
 45
-1.27
  9
HW
 49
-5.08
 74
     0
  0
LTYPE
  5
5C
330
5
100
AcDbSymbolTableRecord
100
AcDbLinetypeTableRecord
  2
PHANTOM
 70
     0
  3
Phantom ______  __  __  ______  __  __  ______
 72
    65
 73
     6
 40
63.5
 49
31.75
 74
     0
 49
-6.349999999999999
 74
     0
 49
6.349999999999999
 74
     0
 49
-6.349999999999999
 74
     0
 49
6.349999999999999
 74
     0
 49
-6.349999999999999
 74
     0
  0
LTYPE
  5
5D
330
5
100
AcDbSymbolTableRecord
100
AcDbLinetypeTableRecord
  2
PHANTOM2
 70
     0
  3
Phantom (.5x) ___ _ _ ___ _ _ ___ _ _ ___ _ _
 72
    65
 73
     6
 40
31.75
 49
15.875
 74
     0
 49
-3.174999999999999
 74
     0
 49
3.174999999999999
 74
     0
 49
-3.174999999999999
 74
     0
 49
3.174999999999999
 74
     0
 49
-3.174999999999999
 74
     0
  0
LTYPE
  5
5E
330
5
100
AcDbSymbolTableRecord
100
AcDbLinetypeTableRecord
  2
PHANTOMX2
 70
     0
  3
Phantom (2x) ____________    ____    ____   _
 72
    65
 73
     6
 40
127.0
 49
63.5
 74
     0
 49
-12.7
 74
     0
 49
12.7
 74
     0
 49
-12.7
 74
     0
 49
12.7
 74
     0
 49
-12.7
 74
     0
  0
LTYPE
  5
5F
330
5
100
AcDbSymbolTableRecord
100
AcDbLinetypeTableRecord
  2
TRACKS
 70
     0
  3
Tracks -|-|-|-|-|-|-|-|-|-|-|-|-|-|-|-|-|-|-|-|
 72
    65
 73
     2
 40
7.62
 49
3.81
 74
     4
 75
   130
340
33
 46
6.349999999999999
 50
0.0
 44
0.0
 45
0.0
 49
3.81
 74
     0
  0
LTYPE
  5
60
330
5
100
AcDbSymbolTableRecord
100
AcDbLinetypeTableRecord
  2
ZIGZAG
 70
     0
  3
Zig zag /\/\/\/\/\/\/\/\/\/\/\/\/\/\/\/\/\/\/\/
 72
    65
 73
     4
 40
20.32254
 49
0.00254
 74
     0
 49
-5.08
 74
     4
 75
   131
340
33
 46
5.08
 50
0.0
 44
-5.08
 45
0.0
 49
-10.16
 74
     4
 75
   131
340
33
 46
5.08
 50
180.0
 44
5.08
 45
0.0
 49
-5.08
 74
     0
  0
ENDTAB
  0
TABLE
  2
LAYER
  5
2
102
{ACAD_XDICTIONARY
360
15FF
102
}
330
0
100
AcDbSymbolTable
 70
     9
  0
LAYER
  5
10
330
2
100
AcDbSymbolTableRecord
100
AcDbLayerTableRecord
  2
0
 70
     0
 62
     7
  6
Continuous
370
    -3
390
F
  0
LAYER
  5
C3
330
2
100
AcDbSymbolTableRecord
100
AcDbLayerTableRecord
  2
Defpoints
 70
     0
 62
     7
  6
Continuous
290
     0
370
    -3
390
F
  0
LAYER
  5
256
330
2
100
AcDbSymbolTableRecord
100
AcDbLayerTableRecord
  2
センター
 70
     0
 62
     7
  6
CENTER2
370
    15
390
F
  0
LAYER
  5
268
330
2
100
AcDbSymbolTableRecord
100
AcDbLayerTableRecord
  2
実形
 70
     0
 62
     7
  6
Continuous
370
    -3
390
F
  0
LAYER
  5
269
330
2
100
AcDbSymbolTableRecord
100
AcDbLayerTableRecord
  2
補助
 70
     0
 62
     7
  6
Continuous
370
    -3
390
F
  0
LAYER
  5
26A
330
2
100
AcDbSymbolTableRecord
100
AcDbLayerTableRecord
  2
寸法
 70
     0
 62
     7
  6
Continuous
370
    -3
390
F
  0
LAYER
  5
26B
330
2
100
AcDbSymbolTableRecord
100
AcDbLayerTableRecord
  2
ハッチング
 70
     0
 62
     7
  6
Continuous
370
    18
390
F
  0
LAYER
  5
26D
330
2
100
AcDbSymbolTableRecord
100
AcDbLayerTableRecord
  2
文字
 70
     0
 62
     7
  6
Continuous
370
    -3
390
F
  0
LAYER
  5
FCC
330
2
100
AcDbSymbolTableRecord
100
AcDbLayerTableRecord
  2
Cen
 70
     0
 62
     7
  6
CENTER2
370
    15
390
F
  0
ENDTAB
  0
TABLE
  2
STYLE
  5
3
330
0
100
AcDbSymbolTable
 70
     3
  0
STYLE
  5
11
330
3
100
AcDbSymbolTableRecord
100
AcDbTextStyleTableRecord
  2
Standard
 70
     0
 40
0.0
 41
1.0
 50
0.0
 71
     0
 42
35.0
  3
txt.shx
  4
bigfont.shx
  0
STYLE
  5
33
330
3
100
AcDbSymbolTableRecord
100
AcDbTextStyleTableRecord
  2

 70
     1
 40
0.0
 41
1.0
 50
0.0
 71
     0
 42
2.5
  3
ltypeshp.shx
  4

  0
STYLE
  5
199E
330
3
100
AcDbSymbolTableRecord
100
AcDbTextStyleTableRecord
  2
明朝
 70
     0
 40
0.0
 41
1.0
 50
0.0
 71
     0
 42
25.0
  3
MS Mincho.ttf
  4

1001
ACAD
1000
MS Mincho
1071
    32785
  0
ENDTAB
  0
TABLE
  2
VIEW
  5
6
330
0
100
AcDbSymbolTable
 70
     0
  0
ENDTAB
  0
TABLE
  2
UCS
  5
7
330
0
100
AcDbSymbolTable
 70
     0
  0
ENDTAB
  0
TABLE
  2
APPID
  5
9
330
0
100
AcDbSymbolTable
 70
     1
  0
APPID
  5
12
330
9
100
AcDbSymbolTableRecord
100
AcDbRegAppTableRecord
  2
ACAD
 70
     0
  0
ENDTAB
  0
TABLE
  2
DIMSTYLE
  5
A
330
0
100
AcDbSymbolTable
 70
     1
100
AcDbDimStyleTable
 71
     1
340
27
  0
DIMSTYLE
105
27
102
{ACAD_REACTORS
330
63C
330
66C
330
6AA
330
77B
330
EB5
330
50A
330
3F6
330
4E5
330
4FD
330
522
330
3E9
330
40C
330
41A
330
427
330
459
330
466
330
47C
330
492
330
4C3
330
13C4
330
1653
330
16A8
330
17C0
330
17C4
330
17C8
330
18D6
330
18D7
330
192D
330
192E
330
6EA
102
}
330
A
100
AcDbSymbolTableRecord
100
AcDbDimStyleTableRecord
  2
ISO-25
 70
     0
 41
35.0
 42
65.0
 43
3.75
 44
0.0
 73
     0
 74
     0
 77
     1
 78
     8
140
25.0
141
2.5
143
0.03937007874016
147
6.25
171
     3
172
     1
271
     2
272
     2
274
     3
283
     0
284
     8
340
11
341
DA
342
D0
371
    15
372
    15
  0
ENDTAB
  0
TABLE
  2
BLOCK_RECORD
  5
1
330
0
100
AcDbSymbolTable
 70
    35
  0
BLOCK_RECORD
  5
1F
102
{ACAD_XDICTIONARY
360
15EE
102
}
330
1
100
AcDbSymbolTableRecord
100
AcDbBlockTableRecord
  2
*Model_Space
340
22
  0
BLOCK_RECORD
  5
1B
330
1
100
AcDbSymbolTableRecord
100
AcDbBlockTableRecord
  2
*Paper_Space
340
1E
  0
BLOCK_RECORD
  5
23
330
1
100
AcDbSymbolTableRecord
100
AcDbBlockTableRecord
  2
*Paper_Space0
340
26
  0
BLOCK_RECORD
  5
D0
330
1
100
AcDbSymbolTableRecord
100
AcDbBlockTableRecord
  2
_DotSmall
340
0
102
{BLKREFS
331
10C9
331
10CA
331
10D2
331
10D3
331
11D8
331
11D9
331
125A
331
125B
331
1263
331
1264
331
126D
331
126E
331
1275
331
1276
331
127E
331
127F
331
1290
331
1291
331
12A3
331
12A4
331
12AC
331
12AD
331
1463
331
1464
331
14F2
331
14F3
331
152A
331
152B
331
1533
331
1534
331
153C
331
153D
331
1569
331
156A
331
16A2
331
16A3
331
16C7
331
16C8
331
17FA
331
17FB
331
1802
331
1803
331
180B
331
180C
331
18A1
331
18A2
331
18AA
331
18AB
331
18F9
331
18FA
331
1901
331
1902
331
1951
331
1952
331
1959
331
195A
102
}
  0
BLOCK_RECORD
  5
D4
330
1
100
AcDbSymbolTableRecord
100
AcDbBlockTableRecord
  2
_Origin2
340
0
  0
BLOCK_RECORD
  5
DA
330
1
100
AcDbSymbolTableRecord
100
AcDbBlockTableRecord
  2
_Open30
340
0
  0
BLOCK_RECORD
  5
3EA
330
1
100
AcDbSymbolTableRecord
100
AcDbBlockTableRecord
  2
*D4
340
0
  0
BLOCK_RECORD
  5
3F7
330
1
100
AcDbSymbolTableRecord
100
AcDbBlockTableRecord
  2
*D5
340
0
  0
BLOCK_RECORD
  5
40D
330
1
100
AcDbSymbolTableRecord
100
AcDbBlockTableRecord
  2
*D6
340
0
  0
BLOCK_RECORD
  5
41B
330
1
100
AcDbSymbolTableRecord
100
AcDbBlockTableRecord
  2
*D7
340
0
  0
BLOCK_RECORD
  5
428
330
1
100
AcDbSymbolTableRecord
100
AcDbBlockTableRecord
  2
*D8
340
0
  0
BLOCK_RECORD
  5
45A
330
1
100
AcDbSymbolTableRecord
100
AcDbBlockTableRecord
  2
*D9
340
0
  0
BLOCK_RECORD
  5
467
330
1
100
AcDbSymbolTableRecord
100
AcDbBlockTableRecord
  2
*D10
340
0
  0
BLOCK_RECORD
  5
47D
330
1
100
AcDbSymbolTableRecord
100
AcDbBlockTableRecord
  2
*D11
340
0
  0
BLOCK_RECORD
  5
493
330
1
100
AcDbSymbolTableRecord
100
AcDbBlockTableRecord
  2
*D12
340
0
  0
BLOCK_RECORD
  5
4C4
330
1
100
AcDbSymbolTableRecord
100
AcDbBlockTableRecord
  2
*D13
340
0
  0
BLOCK_RECORD
  5
4E6
330
1
100
AcDbSymbolTableRecord
100
AcDbBlockTableRecord
  2
*D14
340
0
  0
BLOCK_RECORD
  5
4FE
330
1
100
AcDbSymbolTableRecord
100
AcDbBlockTableRecord
  2
*D15
340
0
  0
BLOCK_RECORD
  5
50B
330
1
100
AcDbSymbolTableRecord
100
AcDbBlockTableRecord
  2
*D16
340
0
  0
BLOCK_RECORD
  5
523
330
1
100
AcDbSymbolTableRecord
100
AcDbBlockTableRecord
  2
*D17
340
0
  0
BLOCK_RECORD
  5
63D
330
1
100
AcDbSymbolTableRecord
100
AcDbBlockTableRecord
  2
*D18
340
0
  0
BLOCK_RECORD
  5
66D
330
1
100
AcDbSymbolTableRecord
100
AcDbBlockTableRecord
  2
*D19
340
0
  0
BLOCK_RECORD
  5
6AB
330
1
100
AcDbSymbolTableRecord
100
AcDbBlockTableRecord
  2
*D20
340
0
  0
BLOCK_RECORD
  5
6EB
330
1
100
AcDbSymbolTableRecord
100
AcDbBlockTableRecord
  2
*D21
340
0
  0
BLOCK_RECORD
  5
77C
330
1
100
AcDbSymbolTableRecord
100
AcDbBlockTableRecord
  2
*D22
340
0
  0
BLOCK_RECORD
  5
EB6
330
1
100
AcDbSymbolTableRecord
100
AcDbBlockTableRecord
  2
*D23
340
0
  0
BLOCK_RECORD
  5
13D2
330
1
100
AcDbSymbolTableRecord
100
AcDbBlockTableRecord
  2
*D24
340
0
  0
BLOCK_RECORD
  5
1693
330
1
100
AcDbSymbolTableRecord
100
AcDbBlockTableRecord
  2
*D25
340
0
  0
BLOCK_RECORD
  5
16A9
330
1
100
AcDbSymbolTableRecord
100
AcDbBlockTableRecord
  2
*D26
340
0
  0
BLOCK_RECORD
  5
172A
330
1
100
AcDbSymbolTableRecord
100
AcDbBlockTableRecord
  2
_None
340
0
  0
BLOCK_RECORD
  5
17D5
330
1
100
AcDbSymbolTableRecord
100
AcDbBlockTableRecord
  2
*D28
340
0
  0
BLOCK_RECORD
  5
17E1
330
1
100
AcDbSymbolTableRecord
100
AcDbBlockTableRecord
  2
*D29
340
0
  0
BLOCK_RECORD
  5
17EB
330
1
100
AcDbSymbolTableRecord
100
AcDbBlockTableRecord
  2
*D30
340
0
  0
BLOCK_RECORD
  5
18DD
330
1
100
AcDbSymbolTableRecord
100
AcDbBlockTableRecord
  2
*D31
340
0
  0
BLOCK_RECORD
  5
18E9
330
1
100
AcDbSymbolTableRecord
100
AcDbBlockTableRecord
  2
*D32
340
0
  0
BLOCK_RECORD
  5
1935
330
1
100
AcDbSymbolTableRecord
100
AcDbBlockTableRecord
  2
*D33
340
0
  0
BLOCK_RECORD
  5
1941
330
1
100
AcDbSymbolTableRecord
100
AcDbBlockTableRecord
  2
*D34
340
0
  0
ENDTAB
  0
ENDSEC
  0
SECTION
  2
BLOCKS
  0
BLOCK
  5
20
330
1F
100
AcDbEntity
  8
0
100
AcDbBlockBegin
  2
*Model_Space
 70
     0
 10
0.0
 20
0.0
 30
0.0
  3
*Model_Space
  1

  0
ENDBLK
  5
21
330
1F
100
AcDbEntity
  8
0
100
AcDbBlockEnd
  0
BLOCK
  5
1C
330
1B
100
AcDbEntity
 67
     1
  8
0
100
AcDbBlockBegin
  2
*Paper_Space
 70
     0
 10
0.0
 20
0.0
 30
0.0
  3
*Paper_Space
  1

  0
ENDBLK
  5
1D
330
1B
100
AcDbEntity
 67
     1
  8
0
100
AcDbBlockEnd
  0
BLOCK
  5
24
330
23
100
AcDbEntity
  8
0
100
AcDbBlockBegin
  2
*Paper_Space0
 70
     0
 10
0.0
 20
0.0
 30
0.0
  3
*Paper_Space0
  1

  0
ENDBLK
  5
25
330
23
100
AcDbEntity
  8
0
100
AcDbBlockEnd
  0
BLOCK
  5
D2
330
D0
100
AcDbEntity
  8
0
100
AcDbBlockBegin
  2
_DotSmall
 70
     0
 10
0.0
 20
0.0
 30
0.0
  3
_DotSmall
  1

  0
LWPOLYLINE
  5
D1
330
D0
100
AcDbEntity
  8
0
 62
     0
100
AcDbPolyline
 90
        2
 70
     1
 43
0.5
 10
-0.0625
 20
0.0
 42
1.0
 10
0.0625
 20
0.0
 42
1.0
  0
ENDBLK
  5
D3
330
D0
100
AcDbEntity
  8
0
100
AcDbBlockEnd
  0
BLOCK
  5
D8
330
D4
100
AcDbEntity
  8
0
100
AcDbBlockBegin
  2
_Origin2
 70
     0
 10
0.0
 20
0.0
 30
0.0
  3
_Origin2
  1

  0
CIRCLE
  5
D5
330
D4
100
AcDbEntity
  8
0
 62
     0
370
    -2
100
AcDbCircle
 10
0.0
 20
0.0
 30
0.0
 40
0.5
  0
CIRCLE
  5
D6
330
D4
100
AcDbEntity
  8
0
 62
     0
370
    -2
100
AcDbCircle
 10
0.0
 20
0.0
 30
0.0
 40
0.25
  0
LINE
  5
D7
330
D4
100
AcDbEntity
  8
0
 62
     0
370
    -2
100
AcDbLine
 10
-0.5
 20
0.0
 30
0.0
 11
-1.0
 21
0.0
 31
0.0
  0
ENDBLK
  5
D9
330
D4
100
AcDbEntity
  8
0
100
AcDbBlockEnd
  0
BLOCK
  5
DE
330
DA
100
AcDbEntity
  8
0
100
AcDbBlockBegin
  2
_Open30
 70
     0
 10
0.0
 20
0.0
 30
0.0
  3
_Open30
  1

  0
LINE
  5
DB
330
DA
100
AcDbEntity
  8
0
 62
     0
370
    -2
100
AcDbLine
 10
-1.0
 20
0.26794919
 30
0.0
 11
0.0
 21
0.0
 31
0.0
  0
LINE
  5
DC
330
DA
100
AcDbEntity
  8
0
 62
     0
370
    -2
100
AcDbLine
 10
0.0
 20
0.0
 30
0.0
 11
-1.0
 21
-0.26794919
 31
0.0
  0
LINE
  5
DD
330
DA
100
AcDbEntity
  8
0
 62
     0
370
    -2
100
AcDbLine
 10
0.0
 20
0.0
 30
0.0
 11
-1.0
 21
0.0
 31
0.0
  0
ENDBLK
  5
DF
330
DA
100
AcDbEntity
  8
0
100
AcDbBlockEnd
  0
BLOCK
  5
3F4
330
3EA
100
AcDbEntity
  8
0
100
AcDbBlockBegin
  2
*D4
 70
     1
 10
0.0
 20
0.0
 30
0.0
  3
*D4
  1

  0
LINE
  5
14F0
330
3EA
100
AcDbEntity
  8
寸法
 62
     0
370
    15
100
AcDbLine
 10
1348.363420890898
 20
1357.0779087747
 30
0.0
 11
1209.29708326057
 21
1357.0779087747
 31
0.0
  0
LINE
  5
14F1
330
3EA
100
AcDbEntity
  8
寸法
 62
     0
370
    15
100
AcDbLine
 10
1209.29708326057
 20
1357.0779087747
 30
0.0
 11
1209.29708326057
 21
1487.0779087747
 31
0.0
  0
INSERT
  5
14F2
330
3EA
100
AcDbEntity
  8
寸法
 62
     0
370
    15
100
AcDbBlockReference
  2
_DotSmall
 10
1209.29708326057
 20
1357.0779087747
 30
0.0
 41
35.0
 42
35.0
 43
35.0
 50
270.0
  0
INSERT
  5
14F3
330
3EA
100
AcDbEntity
  8
寸法
 62
     0
370
    15
100
AcDbBlockReference
  2
_DotSmall
 10
1209.29708326057
 20
1487.0779087747
 30
0.0
 41
35.0
 42
35.0
 43
35.0
 50
90.0
  0
MTEXT
  5
14F4
330
3EA
100
AcDbEntity
  8
寸法
 62
     0
100
AcDbMText
 10
1190.547083260569
 20
1422.077908774701
 30
0.0
 40
25.0
 41
0.0
 71
     5
 72
     1
  1
130
 11
0.0000000000000001
 21
1.0
 31
0.0
 73
     1
 44
1.0
1001
ACAD
1000
MTEXTBEGIN
1070
    73
1070
     1
1070
    44
1040
1.0
1070
    74
1070
     0
1000
MTEXTEND
  0
POINT
  5
14F5
330
3EA
100
AcDbEntity
  8
Defpoints
 62
     0
100
AcDbPoint
 10
1413.363420890898
 20
1357.0779087747
 30
0.0
  0
POINT
  5
14F6
330
3EA
100
AcDbEntity
  8
Defpoints
 62
     0
100
AcDbPoint
 10
1209.29708326057
 20
1487.0779087747
 30
0.0
  0
POINT
  5
14F7
330
3EA
100
AcDbEntity
  8
Defpoints
 62
     0
100
AcDbPoint
 10
1209.29708326057
 20
1487.0779087747
 30
0.0
  0
ENDBLK
  5
3F5
330
3EA
100
AcDbEntity
  8
0
100
AcDbBlockEnd
  0
BLOCK
  5
401
330
3F7
100
AcDbEntity
  8
0
100
AcDbBlockBegin
  2
*D5
 70
     1
 10
0.0
 20
0.0
 30
0.0
  3
*D5
  1

  0
LINE
  5
11D5
330
3F7
100
AcDbEntity
  8
寸法
 62
     0
370
    15
100
AcDbLine
 10
1478.496834872258
 20
1212.5779087747
 30
0.0
 11
1478.496834872258
 21
1204.485142503699
 31
0.0
  0
LINE
  5
11D6
330
3F7
100
AcDbEntity
  8
寸法
 62
     0
370
    15
100
AcDbLine
 10
1628.496834872258
 20
1201.5779087747
 30
0.0
 11
1628.496834872258
 21
1204.485142503699
 31
0.0
  0
LINE
  5
11D7
330
3F7
100
AcDbEntity
  8
寸法
 62
     0
370
    15
100
AcDbLine
 10
1478.496834872258
 20
1204.485142503699
 30
0.0
 11
1628.496834872258
 21
1204.485142503699
 31
0.0
  0
INSERT
  5
11D8
330
3F7
100
AcDbEntity
  8
寸法
 62
     0
370
    15
100
AcDbBlockReference
  2
_DotSmall
 10
1478.496834872258
 20
1204.485142503699
 30
0.0
 41
35.0
 42
35.0
 43
35.0
 50
180.0
  0
INSERT
  5
11D9
330
3F7
100
AcDbEntity
  8
寸法
 62
     0
370
    15
100
AcDbBlockReference
  2
_DotSmall
 10
1628.496834872258
 20
1204.485142503699
 30
0.0
 41
35.0
 42
35.0
 43
35.0
  0
MTEXT
  5
11DA
330
3F7
100
AcDbEntity
  8
寸法
 62
     0
100
AcDbMText
 10
1553.496834872259
 20
1223.235142503699
 30
0.0
 40
25.0
 41
0.0
 71
     5
 72
     1
  1
150
 73
     1
 44
1.0
1001
ACAD
1000
MTEXTBEGIN
1070
    73
1070
     1
1070
    44
1040
1.0
1070
    74
1070
     0
1000
MTEXTEND
  0
POINT
  5
11DB
330
3F7
100
AcDbEntity
  8
Defpoints
 62
     0
100
AcDbPoint
 10
1478.496834872258
 20
1277.577908774701
 30
0.0
  0
POINT
  5
11DC
330
3F7
100
AcDbEntity
  8
Defpoints
 62
     0
100
AcDbPoint
 10
1628.496834872258
 20
1266.5779087747
 30
0.0
  0
POINT
  5
11DD
330
3F7
100
AcDbEntity
  8
Defpoints
 62
     0
100
AcDbPoint
 10
1628.496834872258
 20
1204.485142503699
 30
0.0
  0
ENDBLK
  5
402
330
3F7
100
AcDbEntity
  8
0
100
AcDbBlockEnd
  0
BLOCK
  5
418
330
40D
100
AcDbEntity
  8
0
100
AcDbBlockBegin
  2
*D6
 70
     1
 10
0.0
 20
0.0
 30
0.0
  3
*D6
  1

  0
LINE
  5
1526
330
40D
100
AcDbEntity
  8
寸法
 62
     0
370
    15
100
AcDbLine
 10
748.4968348722587
 20
1062.0779087747
 30
0.0
 11
709.6129189790609
 21
1062.0779087747
 31
0.0
  0
LINE
  5
1527
330
40D
100
AcDbEntity
  8
寸法
 62
     0
370
    15
100
AcDbLine
 10
748.4968348722587
 20
1077.0779087747
 30
0.0
 11
709.6129189790609
 21
1077.0779087747
 31
0.0
  0
LINE
  5
1528
330
40D
100
AcDbEntity
  8
寸法
 62
     0
370
    15
100
AcDbLine
 10
709.6129189790609
 20
1062.0779087747
 30
0.0
 11
709.6129189790609
 21
1077.0779087747
 31
0.0
  0
MTEXT
  5
1529
330
40D
100
AcDbEntity
  8
寸法
 62
     0
100
AcDbMText
 10
685.2982955093521
 20
1087.081101536435
 30
0.0
 40
25.0
 41
0.0
 71
     5
 72
     1
  1
15
 11
0.0000000000000001
 21
1.0
 31
0.0
 73
     1
 44
1.0
1001
ACAD
1000
MTEXTBEGIN
1070
    73
1070
     1
1070
    44
1040
1.0
1070
    74
1070
     0
1000
MTEXTEND
  0
INSERT
  5
152A
330
40D
100
AcDbEntity
  8
寸法
 62
     0
370
    15
100
AcDbBlockReference
  2
_DotSmall
 10
709.6129189790609
 20
1062.0779087747
 30
0.0
 41
35.0
 42
35.0
 43
35.0
 50
270.0
  0
INSERT
  5
152B
330
40D
100
AcDbEntity
  8
寸法
 62
     0
370
    15
100
AcDbBlockReference
  2
_DotSmall
 10
709.6129189790609
 20
1077.0779087747
 30
0.0
 41
35.0
 42
35.0
 43
35.0
 50
90.0
  0
POINT
  5
152C
330
40D
100
AcDbEntity
  8
Defpoints
 62
     0
100
AcDbPoint
 10
813.4968348722587
 20
1062.0779087747
 30
0.0
  0
POINT
  5
152D
330
40D
100
AcDbEntity
  8
Defpoints
 62
     0
100
AcDbPoint
 10
813.4968348722587
 20
1077.0779087747
 30
0.0
  0
POINT
  5
152E
330
40D
100
AcDbEntity
  8
Defpoints
 62
     0
100
AcDbPoint
 10
709.6129189790609
 20
1077.0779087747
 30
0.0
  0
ENDBLK
  5
419
330
40D
100
AcDbEntity
  8
0
100
AcDbBlockEnd
  0
BLOCK
  5
425
330
41B
100
AcDbEntity
  8
0
100
AcDbBlockBegin
  2
*D7
 70
     1
 10
0.0
 20
0.0
 30
0.0
  3
*D7
  1

  0
LINE
  5
128D
330
41B
100
AcDbEntity
  8
寸法
 62
     0
370
    15
100
AcDbLine
 10
748.4968348722587
 20
1077.0779087747
 30
0.0
 11
709.701174010699
 21
1077.0779087747
 31
0.0
  0
LINE
  5
128E
330
41B
100
AcDbEntity
  8
寸法
 62
     0
370
    15
100
AcDbLine
 10
748.4968348722587
 20
1487.0779087747
 30
0.0
 11
709.7011740106992
 21
1487.0779087747
 31
0.0
  0
LINE
  5
128F
330
41B
100
AcDbEntity
  8
寸法
 62
     0
370
    15
100
AcDbLine
 10
709.701174010699
 20
1077.0779087747
 30
0.0
 11
709.7011740106992
 21
1487.0779087747
 31
0.0
  0
INSERT
  5
1290
330
41B
100
AcDbEntity
  8
寸法
 62
     0
370
    15
100
AcDbBlockReference
  2
_DotSmall
 10
709.701174010699
 20
1077.0779087747
 30
0.0
 41
35.0
 42
35.0
 43
35.0
 50
270.0
  0
INSERT
  5
1291
330
41B
100
AcDbEntity
  8
寸法
 62
     0
370
    15
100
AcDbBlockReference
  2
_DotSmall
 10
709.7011740106992
 20
1487.0779087747
 30
0.0
 41
35.0
 42
35.0
 43
35.0
 50
90.0
  0
MTEXT
  5
1292
330
41B
100
AcDbEntity
  8
寸法
 62
     0
100
AcDbMText
 10
690.951174010699
 20
1282.077908774701
 30
0.0
 40
25.0
 41
0.0
 71
     5
 72
     1
  1
410
 11
0.0000000000000001
 21
1.0
 31
0.0
 73
     1
 44
1.0
1001
ACAD
1000
MTEXTBEGIN
1070
    73
1070
     1
1070
    44
1040
1.0
1070
    74
1070
     0
1000
MTEXTEND
  0
POINT
  5
1293
330
41B
100
AcDbEntity
  8
Defpoints
 62
     0
100
AcDbPoint
 10
813.4968348722587
 20
1077.0779087747
 30
0.0
  0
POINT
  5
1294
330
41B
100
AcDbEntity
  8
Defpoints
 62
     0
100
AcDbPoint
 10
813.4968348722587
 20
1487.0779087747
 30
0.0
  0
POINT
  5
1295
330
41B
100
AcDbEntity
  8
Defpoints
 62
     0
100
AcDbPoint
 10
709.7011740106992
 20
1487.0779087747
 30
0.0
  0
ENDBLK
  5
426
330
41B
100
AcDbEntity
  8
0
100
AcDbBlockEnd
  0
BLOCK
  5
432
330
428
100
AcDbEntity
  8
0
100
AcDbBlockBegin
  2
*D8
 70
     1
 10
0.0
 20
0.0
 30
0.0
  3
*D8
  1

  0
LINE
  5
152F
330
428
100
AcDbEntity
  8
寸法
 62
     0
370
    15
100
AcDbLine
 10
748.4968348722587
 20
1487.0779087747
 30
0.0
 11
709.7011740106992
 21
1487.0779087747
 31
0.0
  0
LINE
  5
1530
330
428
100
AcDbEntity
  8
寸法
 62
     0
370
    15
100
AcDbLine
 10
748.4968348722587
 20
1502.0779087747
 30
0.0
 11
709.7011740106992
 21
1502.0779087747
 31
0.0
  0
LINE
  5
1531
330
428
100
AcDbEntity
  8
寸法
 62
     0
370
    15
100
AcDbLine
 10
709.7011740106992
 20
1487.0779087747
 30
0.0
 11
709.7011740106992
 21
1502.0779087747
 31
0.0
  0
MTEXT
  5
1532
330
428
100
AcDbEntity
  8
寸法
 62
     0
100
AcDbMText
 10
682.2589634044288
 20
1478.844760317754
 30
0.0
 40
25.0
 41
0.0
 71
     5
 72
     1
  1
15
 11
0.0000000000000001
 21
1.0
 31
0.0
 73
     1
 44
1.0
1001
ACAD
1000
MTEXTBEGIN
1070
    73
1070
     1
1070
    44
1040
1.0
1070
    74
1070
     0
1000
MTEXTEND
  0
INSERT
  5
1533
330
428
100
AcDbEntity
  8
寸法
 62
     0
370
    15
100
AcDbBlockReference
  2
_DotSmall
 10
709.7011740106992
 20
1487.0779087747
 30
0.0
 41
35.0
 42
35.0
 43
35.0
 50
270.0
  0
INSERT
  5
1534
330
428
100
AcDbEntity
  8
寸法
 62
     0
370
    15
100
AcDbBlockReference
  2
_DotSmall
 10
709.7011740106992
 20
1502.0779087747
 30
0.0
 41
35.0
 42
35.0
 43
35.0
 50
90.0
  0
POINT
  5
1535
330
428
100
AcDbEntity
  8
Defpoints
 62
     0
100
AcDbPoint
 10
813.4968348722587
 20
1487.0779087747
 30
0.0
  0
POINT
  5
1536
330
428
100
AcDbEntity
  8
Defpoints
 62
     0
100
AcDbPoint
 10
813.4968348722587
 20
1502.0779087747
 30
0.0
  0
POINT
  5
1537
330
428
100
AcDbEntity
  8
Defpoints
 62
     0
100
AcDbPoint
 10
709.7011740106992
 20
1502.0779087747
 30
0.0
  0
ENDBLK
  5
433
330
428
100
AcDbEntity
  8
0
100
AcDbBlockEnd
  0
BLOCK
  5
464
330
45A
100
AcDbEntity
  8
0
100
AcDbBlockBegin
  2
*D9
 70
     1
 10
0.0
 20
0.0
 30
0.0
  3
*D9
  1

  0
LINE
  5
127B
330
45A
100
AcDbEntity
  8
寸法
 62
     0
370
    15
100
AcDbLine
 10
748.4968348722587
 20
1502.0779087747
 30
0.0
 11
633.2087317711422
 21
1502.0779087747
 31
0.0
  0
LINE
  5
127C
330
45A
100
AcDbEntity
  8
寸法
 62
     0
370
    15
100
AcDbLine
 10
748.4968348722587
 20
1062.0779087747
 30
0.0
 11
633.2087317711421
 21
1062.0779087747
 31
0.0
  0
LINE
  5
127D
330
45A
100
AcDbEntity
  8
寸法
 62
     0
370
    15
100
AcDbLine
 10
633.2087317711422
 20
1502.0779087747
 30
0.0
 11
633.2087317711421
 21
1062.0779087747
 31
0.0
  0
INSERT
  5
127E
330
45A
100
AcDbEntity
  8
寸法
 62
     0
370
    15
100
AcDbBlockReference
  2
_DotSmall
 10
633.2087317711422
 20
1502.0779087747
 30
0.0
 41
35.0
 42
35.0
 43
35.0
 50
90.0
  0
INSERT
  5
127F
330
45A
100
AcDbEntity
  8
寸法
 62
     0
370
    15
100
AcDbBlockReference
  2
_DotSmall
 10
633.2087317711421
 20
1062.0779087747
 30
0.0
 41
35.0
 42
35.0
 43
35.0
 50
270.0
  0
MTEXT
  5
1280
330
45A
100
AcDbEntity
  8
寸法
 62
     0
100
AcDbMText
 10
614.4587317711419
 20
1282.077908774701
 30
0.0
 40
25.0
 41
0.0
 71
     5
 72
     1
  1
440
 11
0.0000000000000001
 21
1.0
 31
0.0
 73
     1
 44
1.0
1001
ACAD
1000
MTEXTBEGIN
1070
    73
1070
     1
1070
    44
1040
1.0
1070
    74
1070
     0
1000
MTEXTEND
  0
POINT
  5
1281
330
45A
100
AcDbEntity
  8
Defpoints
 62
     0
100
AcDbPoint
 10
813.4968348722587
 20
1502.0779087747
 30
0.0
  0
POINT
  5
1282
330
45A
100
AcDbEntity
  8
Defpoints
 62
     0
100
AcDbPoint
 10
813.4968348722587
 20
1062.0779087747
 30
0.0
  0
POINT
  5
1283
330
45A
100
AcDbEntity
  8
Defpoints
 62
     0
100
AcDbPoint
 10
633.2087317711421
 20
1062.0779087747
 30
0.0
  0
ENDBLK
  5
465
330
45A
100
AcDbEntity
  8
0
100
AcDbBlockEnd
  0
BLOCK
  5
471
330
467
100
AcDbEntity
  8
0
100
AcDbBlockBegin
  2
*D10
 70
     1
 10
0.0
 20
0.0
 30
0.0
  3
*D10
  1

  0
LINE
  5
1272
330
467
100
AcDbEntity
  8
寸法
 62
     0
370
    15
100
AcDbLine
 10
748.4968348722587
 20
1502.0779087747
 30
0.0
 11
633.2087317711421
 21
1502.0779087747
 31
0.0
  0
LINE
  5
1273
330
467
100
AcDbEntity
  8
寸法
 62
     0
370
    15
100
AcDbLine
 10
748.4968348722587
 20
1582.0779087747
 30
0.0
 11
633.2087317711421
 21
1582.0779087747
 31
0.0
  0
LINE
  5
1274
330
467
100
AcDbEntity
  8
寸法
 62
     0
370
    15
100
AcDbLine
 10
633.2087317711421
 20
1502.0779087747
 30
0.0
 11
633.2087317711421
 21
1582.0779087747
 31
0.0
  0
INSERT
  5
1275
330
467
100
AcDbEntity
  8
寸法
 62
     0
370
    15
100
AcDbBlockReference
  2
_DotSmall
 10
633.2087317711421
 20
1502.0779087747
 30
0.0
 41
35.0
 42
35.0
 43
35.0
 50
270.0
  0
INSERT
  5
1276
330
467
100
AcDbEntity
  8
寸法
 62
     0
370
    15
100
AcDbBlockReference
  2
_DotSmall
 10
633.2087317711421
 20
1582.0779087747
 30
0.0
 41
35.0
 42
35.0
 43
35.0
 50
90.0
  0
MTEXT
  5
1277
330
467
100
AcDbEntity
  8
寸法
 62
     0
100
AcDbMText
 10
614.4587317711418
 20
1542.0779087747
 30
0.0
 40
25.0
 41
0.0
 71
     5
 72
     1
  1
80
 11
0.0000000000000001
 21
1.0
 31
0.0
 73
     1
 44
1.0
1001
ACAD
1000
MTEXTBEGIN
1070
    73
1070
     1
1070
    44
1040
1.0
1070
    74
1070
     0
1000
MTEXTEND
  0
POINT
  5
1278
330
467
100
AcDbEntity
  8
Defpoints
 62
     0
100
AcDbPoint
 10
813.4968348722587
 20
1502.0779087747
 30
0.0
  0
POINT
  5
1279
330
467
100
AcDbEntity
  8
Defpoints
 62
     0
100
AcDbPoint
 10
813.4968348722587
 20
1582.0779087747
 30
0.0
  0
POINT
  5
127A
330
467
100
AcDbEntity
  8
Defpoints
 62
     0
100
AcDbPoint
 10
633.2087317711421
 20
1582.0779087747
 30
0.0
  0
ENDBLK
  5
472
330
467
100
AcDbEntity
  8
0
100
AcDbBlockEnd
  0
BLOCK
  5
487
330
47D
100
AcDbEntity
  8
0
100
AcDbBlockBegin
  2
*D11
 70
     1
 10
0.0
 20
0.0
 30
0.0
  3
*D11
  1

  0
LINE
  5
1269
330
47D
100
AcDbEntity
  8
寸法
 62
     0
370
    15
100
AcDbLine
 10
748.4968348722587
 20
1582.0779087747
 30
0.0
 11
633.2087317711421
 21
1582.0779087747
 31
0.0
  0
LINE
  5
126A
330
47D
100
AcDbEntity
  8
寸法
 62
     0
370
    15
100
AcDbLine
 10
748.4968348722587
 20
1597.0779087747
 30
0.0
 11
633.2087317711421
 21
1597.0779087747
 31
0.0
  0
LINE
  5
126B
330
47D
100
AcDbEntity
  8
寸法
 62
     0
370
    15
100
AcDbLine
 10
633.2087317711421
 20
1582.0779087747
 30
0.0
 11
633.2087317711421
 21
1597.0779087747
 31
0.0
  0
MTEXT
  5
126C
330
47D
100
AcDbEntity
  8
寸法
 62
     0
100
AcDbMText
 10
624.9738220765439
 20
1624.004628055033
 30
0.0
 40
25.0
 41
0.0
 71
     5
 72
     1
  1
15
 11
0.0000000000000001
 21
1.0
 31
0.0
 73
     1
 44
1.0
1001
ACAD
1000
MTEXTBEGIN
1070
    73
1070
     1
1070
    44
1040
1.0
1070
    74
1070
     0
1000
MTEXTEND
  0
INSERT
  5
126D
330
47D
100
AcDbEntity
  8
寸法
 62
     0
370
    15
100
AcDbBlockReference
  2
_DotSmall
 10
633.2087317711421
 20
1582.0779087747
 30
0.0
 41
35.0
 42
35.0
 43
35.0
 50
270.0
  0
INSERT
  5
126E
330
47D
100
AcDbEntity
  8
寸法
 62
     0
370
    15
100
AcDbBlockReference
  2
_DotSmall
 10
633.2087317711421
 20
1597.0779087747
 30
0.0
 41
35.0
 42
35.0
 43
35.0
 50
90.0
  0
POINT
  5
126F
330
47D
100
AcDbEntity
  8
Defpoints
 62
     0
100
AcDbPoint
 10
813.4968348722587
 20
1582.0779087747
 30
0.0
  0
POINT
  5
1270
330
47D
100
AcDbEntity
  8
Defpoints
 62
     0
100
AcDbPoint
 10
813.4968348722587
 20
1597.0779087747
 30
0.0
  0
POINT
  5
1271
330
47D
100
AcDbEntity
  8
Defpoints
 62
     0
100
AcDbPoint
 10
633.2087317711421
 20
1597.0779087747
 30
0.0
  0
ENDBLK
  5
488
330
47D
100
AcDbEntity
  8
0
100
AcDbBlockEnd
  0
BLOCK
  5
49D
330
493
100
AcDbEntity
  8
0
100
AcDbBlockBegin
  2
*D12
 70
     1
 10
0.0
 20
0.0
 30
0.0
  3
*D12
  1

  0
LINE
  5
1260
330
493
100
AcDbEntity
  8
寸法
 62
     0
370
    15
100
AcDbLine
 10
748.4968348722587
 20
1597.0779087747
 30
0.0
 11
555.659948060964
 21
1597.0779087747
 31
0.0
  0
LINE
  5
1261
330
493
100
AcDbEntity
  8
寸法
 62
     0
370
    15
100
AcDbLine
 10
748.4968348722587
 20
1047.0779087747
 30
0.0
 11
555.6599480609638
 21
1047.0779087747
 31
0.0
  0
LINE
  5
1262
330
493
100
AcDbEntity
  8
寸法
 62
     0
370
    15
100
AcDbLine
 10
555.659948060964
 20
1597.0779087747
 30
0.0
 11
555.6599480609638
 21
1047.0779087747
 31
0.0
  0
INSERT
  5
1263
330
493
100
AcDbEntity
  8
寸法
 62
     0
370
    15
100
AcDbBlockReference
  2
_DotSmall
 10
555.659948060964
 20
1597.0779087747
 30
0.0
 41
35.0
 42
35.0
 43
35.0
 50
90.0
  0
INSERT
  5
1264
330
493
100
AcDbEntity
  8
寸法
 62
     0
370
    15
100
AcDbBlockReference
  2
_DotSmall
 10
555.6599480609638
 20
1047.0779087747
 30
0.0
 41
35.0
 42
35.0
 43
35.0
 50
270.0
  0
MTEXT
  5
1265
330
493
100
AcDbEntity
  8
寸法
 62
     0
100
AcDbMText
 10
536.9099480609637
 20
1322.077908774701
 30
0.0
 40
25.0
 41
0.0
 71
     5
 72
     1
  1
550
 11
0.0000000000000001
 21
1.0
 31
0.0
 73
     1
 44
1.0
1001
ACAD
1000
MTEXTBEGIN
1070
    73
1070
     1
1070
    44
1040
1.0
1070
    74
1070
     0
1000
MTEXTEND
  0
POINT
  5
1266
330
493
100
AcDbEntity
  8
Defpoints
 62
     0
100
AcDbPoint
 10
813.4968348722587
 20
1597.0779087747
 30
0.0
  0
POINT
  5
1267
330
493
100
AcDbEntity
  8
Defpoints
 62
     0
100
AcDbPoint
 10
813.4968348722587
 20
1047.0779087747
 30
0.0
  0
POINT
  5
1268
330
493
100
AcDbEntity
  8
Defpoints
 62
     0
100
AcDbPoint
 10
555.6599480609638
 20
1047.0779087747
 30
0.0
  0
ENDBLK
  5
49E
330
493
100
AcDbEntity
  8
0
100
AcDbBlockEnd
  0
BLOCK
  5
4CF
330
4C4
100
AcDbEntity
  8
0
100
AcDbBlockBegin
  2
*D13
 70
     1
 10
0.0
 20
0.0
 30
0.0
  3
*D13
  1

  0
LINE
  5
1256
330
4C4
100
AcDbEntity
  8
寸法
 62
     0
370
    15
100
AcDbLine
 10
748.4968348722587
 20
1062.0779087747
 30
0.0
 11
633.2087317711421
 21
1062.0779087747
 31
0.0
  0
LINE
  5
1257
330
4C4
100
AcDbEntity
  8
寸法
 62
     0
370
    15
100
AcDbLine
 10
748.4968348722587
 20
1047.0779087747
 30
0.0
 11
633.2087317711421
 21
1047.0779087747
 31
0.0
  0
LINE
  5
1258
330
4C4
100
AcDbEntity
  8
寸法
 62
     0
370
    15
100
AcDbLine
 10
633.2087317711421
 20
1047.0779087747
 30
0.0
 11
633.2087317711421
 21
1062.0779087747
 31
0.0
  0
LINE
  5
1259
330
4C4
100
AcDbEntity
  8
寸法
 62
     0
370
    15
100
AcDbLine
 10
633.2087317711421
 20
1062.0779087747
 30
0.0
 11
633.2087317711421
 21
1142.911242108034
 31
0.0
  0
INSERT
  5
125A
330
4C4
100
AcDbEntity
  8
寸法
 62
     0
370
    15
100
AcDbBlockReference
  2
_DotSmall
 10
633.2087317711421
 20
1047.0779087747
 30
0.0
 41
35.0
 42
35.0
 43
35.0
 50
270.0
  0
INSERT
  5
125B
330
4C4
100
AcDbEntity
  8
寸法
 62
     0
370
    15
100
AcDbBlockReference
  2
_DotSmall
 10
633.2087317711421
 20
1062.0779087747
 30
0.0
 41
35.0
 42
35.0
 43
35.0
 50
90.0
  0
MTEXT
  5
125C
330
4C4
100
AcDbEntity
  8
寸法
 62
     0
100
AcDbMText
 10
614.4587317711419
 20
1119.994575441367
 30
0.0
 40
25.0
 41
0.0
 71
     5
 72
     1
  1
15
 11
0.0000000000000001
 21
1.0
 31
0.0
 73
     1
 44
1.0
1001
ACAD
1000
MTEXTBEGIN
1070
    73
1070
     1
1070
    44
1040
1.0
1070
    74
1070
     0
1000
MTEXTEND
  0
POINT
  5
125D
330
4C4
100
AcDbEntity
  8
Defpoints
 62
     0
100
AcDbPoint
 10
813.4968348722587
 20
1062.0779087747
 30
0.0
  0
POINT
  5
125E
330
4C4
100
AcDbEntity
  8
Defpoints
 62
     0
100
AcDbPoint
 10
813.4968348722587
 20
1047.0779087747
 30
0.0
  0
POINT
  5
125F
330
4C4
100
AcDbEntity
  8
Defpoints
 62
     0
100
AcDbPoint
 10
633.2087317711421
 20
1047.0779087747
 30
0.0
  0
ENDBLK
  5
4D0
330
4C4
100
AcDbEntity
  8
0
100
AcDbBlockEnd
  0
BLOCK
  5
4F1
330
4E6
100
AcDbEntity
  8
0
100
AcDbBlockBegin
  2
*D14
 70
     1
 10
0.0
 20
0.0
 30
0.0
  3
*D14
  1

  0
LINE
  5
1565
330
4E6
100
AcDbEntity
  8
寸法
 62
     0
370
    15
100
AcDbLine
 10
1643.496834872259
 20
982.0779087747006
 30
0.0
 11
1643.496834872259
 21
929.8545833737954
 31
0.0
  0
LINE
  5
1566
330
4E6
100
AcDbEntity
  8
寸法
 62
     0
370
    15
100
AcDbLine
 10
1628.496834872258
 20
982.0779087747006
 30
0.0
 11
1628.496834872258
 21
929.8545833737954
 31
0.0
  0
LINE
  5
1567
330
4E6
100
AcDbEntity
  8
寸法
 62
     0
370
    15
100
AcDbLine
 10
1643.496834872259
 20
929.8545833737954
 30
0.0
 11
1628.496834872258
 21
929.8545833737954
 31
0.0
  0
MTEXT
  5
1568
330
4E6
100
AcDbEntity
  8
寸法
 62
     0
100
AcDbMText
 10
1597.096736801193
 20
948.9008942390192
 30
0.0
 40
25.0
 41
0.0
 71
     5
 72
     1
  1
15
 73
     1
 44
1.0
1001
ACAD
1000
MTEXTBEGIN
1070
    73
1070
     1
1070
    44
1040
1.0
1070
    74
1070
     0
1000
MTEXTEND
  0
INSERT
  5
1569
330
4E6
100
AcDbEntity
  8
寸法
 62
     0
370
    15
100
AcDbBlockReference
  2
_DotSmall
 10
1643.496834872259
 20
929.8545833737954
 30
0.0
 41
35.0
 42
35.0
 43
35.0
  0
INSERT
  5
156A
330
4E6
100
AcDbEntity
  8
寸法
 62
     0
370
    15
100
AcDbBlockReference
  2
_DotSmall
 10
1628.496834872258
 20
929.8545833737954
 30
0.0
 41
35.0
 42
35.0
 43
35.0
 50
180.0
  0
POINT
  5
156B
330
4E6
100
AcDbEntity
  8
Defpoints
 62
     0
100
AcDbPoint
 10
1643.496834872259
 20
1047.0779087747
 30
0.0
  0
POINT
  5
156C
330
4E6
100
AcDbEntity
  8
Defpoints
 62
     0
100
AcDbPoint
 10
1628.496834872258
 20
1047.0779087747
 30
0.0
  0
POINT
  5
156D
330
4E6
100
AcDbEntity
  8
Defpoints
 62
     0
100
AcDbPoint
 10
1628.496834872258
 20
929.8545833737954
 30
0.0
  0
ENDBLK
  5
4F2
330
4E6
100
AcDbEntity
  8
0
100
AcDbBlockEnd
  0
BLOCK
  5
508
330
4FE
100
AcDbEntity
  8
0
100
AcDbBlockBegin
  2
*D15
 70
     1
 10
0.0
 20
0.0
 30
0.0
  3
*D15
  1

  0
LINE
  5
12A9
330
4FE
100
AcDbEntity
  8
寸法
 62
     0
370
    15
100
AcDbLine
 10
1628.496834872258
 20
982.0779087747006
 30
0.0
 11
1628.496834872258
 21
929.8545833737954
 31
0.0
  0
LINE
  5
12AA
330
4FE
100
AcDbEntity
  8
寸法
 62
     0
370
    15
100
AcDbLine
 10
828.4968348722586
 20
982.0779087747006
 30
0.0
 11
828.4968348722586
 21
929.8545833737954
 31
0.0
  0
LINE
  5
12AB
330
4FE
100
AcDbEntity
  8
寸法
 62
     0
370
    15
100
AcDbLine
 10
1628.496834872258
 20
929.8545833737954
 30
0.0
 11
828.4968348722586
 21
929.8545833737954
 31
0.0
  0
INSERT
  5
12AC
330
4FE
100
AcDbEntity
  8
寸法
 62
     0
370
    15
100
AcDbBlockReference
  2
_DotSmall
 10
1628.496834872258
 20
929.8545833737954
 30
0.0
 41
35.0
 42
35.0
 43
35.0
  0
INSERT
  5
12AD
330
4FE
100
AcDbEntity
  8
寸法
 62
     0
370
    15
100
AcDbBlockReference
  2
_DotSmall
 10
828.4968348722586
 20
929.8545833737954
 30
0.0
 41
35.0
 42
35.0
 43
35.0
 50
180.0
  0
MTEXT
  5
12AE
330
4FE
100
AcDbEntity
  8
寸法
 62
     0
100
AcDbMText
 10
1228.496834872258
 20
948.6045833737954
 30
0.0
 40
25.0
 41
0.0
 71
     5
 72
     1
  1
800
 73
     1
 44
1.0
1001
ACAD
1000
MTEXTBEGIN
1070
    73
1070
     1
1070
    44
1040
1.0
1070
    74
1070
     0
1000
MTEXTEND
  0
POINT
  5
12AF
330
4FE
100
AcDbEntity
  8
Defpoints
 62
     0
100
AcDbPoint
 10
1628.496834872258
 20
1047.0779087747
 30
0.0
  0
POINT
  5
12B0
330
4FE
100
AcDbEntity
  8
Defpoints
 62
     0
100
AcDbPoint
 10
828.4968348722586
 20
1047.0779087747
 30
0.0
  0
POINT
  5
12B1
330
4FE
100
AcDbEntity
  8
Defpoints
 62
     0
100
AcDbPoint
 10
828.4968348722586
 20
929.8545833737954
 30
0.0
  0
ENDBLK
  5
509
330
4FE
100
AcDbEntity
  8
0
100
AcDbBlockEnd
  0
BLOCK
  5
517
330
50B
100
AcDbEntity
  8
0
100
AcDbBlockBegin
  2
*D16
 70
     1
 10
0.0
 20
0.0
 30
0.0
  3
*D16
  1

  0
LINE
  5
1538
330
50B
100
AcDbEntity
  8
寸法
 62
     0
370
    15
100
AcDbLine
 10
828.4968348722586
 20
982.0779087747006
 30
0.0
 11
828.4968348722586
 21
929.8545833737954
 31
0.0
  0
LINE
  5
1539
330
50B
100
AcDbEntity
  8
寸法
 62
     0
370
    15
100
AcDbLine
 10
813.4968348722587
 20
982.0779087747006
 30
0.0
 11
813.4968348722587
 21
929.8545833737954
 31
0.0
  0
LINE
  5
153A
330
50B
100
AcDbEntity
  8
寸法
 62
     0
370
    15
100
AcDbLine
 10
828.4968348722586
 20
929.8545833737954
 30
0.0
 11
813.4968348722587
 21
929.8545833737954
 31
0.0
  0
MTEXT
  5
153B
330
50B
100
AcDbEntity
  8
寸法
 62
     0
100
AcDbMText
 10
860.0596579547017
 20
953.9847189135716
 30
0.0
 40
25.0
 41
0.0
 71
     5
 72
     1
  1
15
 73
     1
 44
1.0
1001
ACAD
1000
MTEXTBEGIN
1070
    73
1070
     1
1070
    44
1040
1.0
1070
    74
1070
     0
1000
MTEXTEND
  0
INSERT
  5
153C
330
50B
100
AcDbEntity
  8
寸法
 62
     0
370
    15
100
AcDbBlockReference
  2
_DotSmall
 10
828.4968348722586
 20
929.8545833737954
 30
0.0
 41
35.0
 42
35.0
 43
35.0
  0
INSERT
  5
153D
330
50B
100
AcDbEntity
  8
寸法
 62
     0
370
    15
100
AcDbBlockReference
  2
_DotSmall
 10
813.4968348722587
 20
929.8545833737954
 30
0.0
 41
35.0
 42
35.0
 43
35.0
 50
180.0
  0
POINT
  5
153E
330
50B
100
AcDbEntity
  8
Defpoints
 62
     0
100
AcDbPoint
 10
828.4968348722586
 20
1047.0779087747
 30
0.0
  0
POINT
  5
153F
330
50B
100
AcDbEntity
  8
Defpoints
 62
     0
100
AcDbPoint
 10
813.4968348722587
 20
1047.0779087747
 30
0.0
  0
POINT
  5
1540
330
50B
100
AcDbEntity
  8
Defpoints
 62
     0
100
AcDbPoint
 10
813.4968348722587
 20
929.8545833737954
 30
0.0
  0
ENDBLK
  5
518
330
50B
100
AcDbEntity
  8
0
100
AcDbBlockEnd
  0
BLOCK
  5
52D
330
523
100
AcDbEntity
  8
0
100
AcDbBlockBegin
  2
*D17
 70
     1
 10
0.0
 20
0.0
 30
0.0
  3
*D17
  1

  0
LINE
  5
12A0
330
523
100
AcDbEntity
  8
寸法
 62
     0
370
    15
100
AcDbLine
 10
1643.496834872259
 20
982.0779087747006
 30
0.0
 11
1643.496834872259
 21
855.7341681401357
 31
0.0
  0
LINE
  5
12A1
330
523
100
AcDbEntity
  8
寸法
 62
     0
370
    15
100
AcDbLine
 10
813.4968348722587
 20
982.0779087747006
 30
0.0
 11
813.4968348722587
 21
855.7341681401357
 31
0.0
  0
LINE
  5
12A2
330
523
100
AcDbEntity
  8
寸法
 62
     0
370
    15
100
AcDbLine
 10
1643.496834872259
 20
855.7341681401357
 30
0.0
 11
813.4968348722587
 21
855.7341681401357
 31
0.0
  0
INSERT
  5
12A3
330
523
100
AcDbEntity
  8
寸法
 62
     0
370
    15
100
AcDbBlockReference
  2
_DotSmall
 10
1643.496834872259
 20
855.7341681401357
 30
0.0
 41
35.0
 42
35.0
 43
35.0
  0
INSERT
  5
12A4
330
523
100
AcDbEntity
  8
寸法
 62
     0
370
    15
100
AcDbBlockReference
  2
_DotSmall
 10
813.4968348722587
 20
855.7341681401357
 30
0.0
 41
35.0
 42
35.0
 43
35.0
 50
180.0
  0
MTEXT
  5
12A5
330
523
100
AcDbEntity
  8
寸法
 62
     0
100
AcDbMText
 10
1228.496834872258
 20
874.4841681401357
 30
0.0
 40
25.0
 41
0.0
 71
     5
 72
     1
  1
830
 73
     1
 44
1.0
1001
ACAD
1000
MTEXTBEGIN
1070
    73
1070
     1
1070
    44
1040
1.0
1070
    74
1070
     0
1000
MTEXTEND
  0
POINT
  5
12A6
330
523
100
AcDbEntity
  8
Defpoints
 62
     0
100
AcDbPoint
 10
1643.496834872259
 20
1047.0779087747
 30
0.0
  0
POINT
  5
12A7
330
523
100
AcDbEntity
  8
Defpoints
 62
     0
100
AcDbPoint
 10
813.4968348722587
 20
1047.0779087747
 30
0.0
  0
POINT
  5
12A8
330
523
100
AcDbEntity
  8
Defpoints
 62
     0
100
AcDbPoint
 10
813.4968348722587
 20
855.7341681401357
 30
0.0
  0
ENDBLK
  5
52E
330
523
100
AcDbEntity
  8
0
100
AcDbBlockEnd
  0
BLOCK
  5
649
330
63D
100
AcDbEntity
  8
0
100
AcDbBlockBegin
  2
*D18
 70
     1
 10
0.0
 20
0.0
 30
0.0
  3
*D18
  1

  0
LINE
  5
121B
330
63D
100
AcDbEntity
  8
寸法
 62
     0
370
    15
100
AcDbLine
 10
1912.975253562778
 20
1437.0779087747
 30
0.0
 11
1912.975253562778
 21
1383.68017662416
 31
0.0
  0
LINE
  5
121C
330
63D
100
AcDbEntity
  8
寸法
 62
     0
370
    15
100
AcDbLine
 10
1919.375253562778
 20
1437.0779087747
 30
0.0
 11
1919.375253562778
 21
1383.68017662416
 31
0.0
  0
MTEXT
  5
121D
330
63D
100
AcDbEntity
  8
寸法
 62
     0
100
AcDbMText
 10
1869.475405211481
 20
1392.815208518706
 30
0.0
 40
25.0
 41
0.0
 71
     5
 72
     1
  1
6.4
 73
     1
 44
1.0
1001
ACAD
1000
MTEXTBEGIN
1070
    73
1070
     1
1070
    44
1040
1.0
1070
    74
1070
     0
1000
MTEXTEND
  0
LINE
  5
121E
330
63D
100
AcDbEntity
  8
寸法
 62
     0
370
    15
100
AcDbLine
 10
1912.975253562778
 20
1383.68017662416
 30
0.0
 11
1919.375253562778
 21
1383.68017662416
 31
0.0
  0
POINT
  5
121F
330
63D
100
AcDbEntity
  8
Defpoints
 62
     0
100
AcDbPoint
 10
1912.975253562778
 20
1502.0779087747
 30
0.0
  0
POINT
  5
1220
330
63D
100
AcDbEntity
  8
Defpoints
 62
     0
100
AcDbPoint
 10
1919.375253562778
 20
1502.0779087747
 30
0.0
  0
POINT
  5
1221
330
63D
100
AcDbEntity
  8
Defpoints
 62
     0
100
AcDbPoint
 10
1919.375253562778
 20
1383.68017662416
 30
0.0
  0
ENDBLK
  5
64A
330
63D
100
AcDbEntity
  8
0
100
AcDbBlockEnd
  0
BLOCK
  5
67C
330
66D
100
AcDbEntity
  8
0
100
AcDbBlockBegin
  2
*D19
 70
     1
 10
0.0
 20
0.0
 30
0.0
  3
*D19
  1

  0
LINE
  5
10D7
330
66D
100
AcDbEntity
  8
寸法
 62
     0
370
    15
100
AcDbLine
 10
1919.375253562778
 20
1437.0779087747
 30
0.0
 11
1919.375253562778
 21
1383.68017662416
 31
0.0
  0
LINE
  5
10D8
330
66D
100
AcDbEntity
  8
寸法
 62
     0
370
    15
100
AcDbLine
 10
1927.975253562777
 20
1437.0779087747
 30
0.0
 11
1927.975253562777
 21
1383.68017662416
 31
0.0
  0
MTEXT
  5
10D9
330
66D
100
AcDbEntity
  8
寸法
 62
     0
100
AcDbMText
 10
1962.113616767069
 20
1391.563352498199
 30
0.0
 40
25.0
 41
0.0
 71
     5
 72
     1
  1
8.6
 73
     1
 44
1.0
1001
ACAD
1000
MTEXTBEGIN
1070
    73
1070
     1
1070
    44
1040
1.0
1070
    74
1070
     0
1000
MTEXTEND
  0
LINE
  5
10DA
330
66D
100
AcDbEntity
  8
寸法
 62
     0
370
    15
100
AcDbLine
 10
1919.375253562778
 20
1383.68017662416
 30
0.0
 11
1927.975253562777
 21
1383.68017662416
 31
0.0
  0
POINT
  5
10DB
330
66D
100
AcDbEntity
  8
Defpoints
 62
     0
100
AcDbPoint
 10
1919.375253562778
 20
1502.0779087747
 30
0.0
  0
POINT
  5
10DC
330
66D
100
AcDbEntity
  8
Defpoints
 62
     0
100
AcDbPoint
 10
1927.975253562777
 20
1502.0779087747
 30
0.0
  0
POINT
  5
10DD
330
66D
100
AcDbEntity
  8
Defpoints
 62
     0
100
AcDbPoint
 10
1927.975253562777
 20
1383.68017662416
 30
0.0
  0
ENDBLK
  5
67D
330
66D
100
AcDbEntity
  8
0
100
AcDbBlockEnd
  0
BLOCK
  5
6B6
330
6AB
100
AcDbEntity
  8
0
100
AcDbBlockBegin
  2
*D20
 70
     1
 10
0.0
 20
0.0
 30
0.0
  3
*D20
  1

  0
LINE
  5
10CE
330
6AB
100
AcDbEntity
  8
寸法
 62
     0
370
    15
100
AcDbLine
 10
1912.975253562778
 20
1422.0779087747
 30
0.0
 11
1912.975253562778
 21
1334.095835324805
 31
0.0
  0
LINE
  5
10CF
330
6AB
100
AcDbEntity
  8
寸法
 62
     0
370
    15
100
AcDbLine
 10
1927.975253562777
 20
1422.0779087747
 30
0.0
 11
1927.975253562777
 21
1334.095835324805
 31
0.0
  0
LINE
  5
10D0
330
6AB
100
AcDbEntity
  8
寸法
 62
     0
370
    15
100
AcDbLine
 10
1912.975253562778
 20
1334.095835324805
 30
0.0
 11
1927.975253562777
 21
1334.095835324805
 31
0.0
  0
MTEXT
  5
10D1
330
6AB
100
AcDbEntity
  8
寸法
 62
     0
100
AcDbMText
 10
1873.315707761106
 20
1334.380763936077
 30
0.0
 40
25.0
 41
0.0
 71
     5
 72
     1
  1
15
 73
     1
 44
1.0
1001
ACAD
1000
MTEXTBEGIN
1070
    73
1070
     1
1070
    44
1040
1.0
1070
    74
1070
     0
1000
MTEXTEND
  0
INSERT
  5
10D2
330
6AB
100
AcDbEntity
  8
寸法
 62
     0
370
    15
100
AcDbBlockReference
  2
_DotSmall
 10
1912.975253562778
 20
1334.095835324805
 30
0.0
 41
35.0
 42
35.0
 43
35.0
 50
180.0
  0
INSERT
  5
10D3
330
6AB
100
AcDbEntity
  8
寸法
 62
     0
370
    15
100
AcDbBlockReference
  2
_DotSmall
 10
1927.975253562777
 20
1334.095835324805
 30
0.0
 41
35.0
 42
35.0
 43
35.0
  0
POINT
  5
10D4
330
6AB
100
AcDbEntity
  8
Defpoints
 62
     0
100
AcDbPoint
 10
1912.975253562778
 20
1487.0779087747
 30
0.0
  0
POINT
  5
10D5
330
6AB
100
AcDbEntity
  8
Defpoints
 62
     0
100
AcDbPoint
 10
1927.975253562777
 20
1487.0779087747
 30
0.0
  0
POINT
  5
10D6
330
6AB
100
AcDbEntity
  8
Defpoints
 62
     0
100
AcDbPoint
 10
1927.975253562777
 20
1334.095835324805
 30
0.0
  0
ENDBLK
  5
6B7
330
6AB
100
AcDbEntity
  8
0
100
AcDbBlockEnd
  0
BLOCK
  5
6F5
330
6EB
100
AcDbEntity
  8
0
100
AcDbBlockBegin
  2
*D21
 70
     1
 10
0.0
 20
0.0
 30
0.0
  3
*D21
  1

  0
LINE
  5
18A7
330
6EB
100
AcDbEntity
  8
寸法
 62
     0
370
    15
100
AcDbLine
 10
2184.975253562777
 20
1436.5779087747
 30
0.0
 11
2231.547098234166
 21
1436.5779087747
 31
0.0
  0
LINE
  5
18A8
330
6EB
100
AcDbEntity
  8
寸法
 62
     0
370
    15
100
AcDbLine
 10
2184.975253562777
 20
1277.577908774701
 30
0.0
 11
2231.547098234166
 21
1277.577908774701
 31
0.0
  0
LINE
  5
18A9
330
6EB
100
AcDbEntity
  8
寸法
 62
     0
370
    15
100
AcDbLine
 10
2231.547098234166
 20
1436.5779087747
 30
0.0
 11
2231.547098234166
 21
1277.577908774701
 31
0.0
  0
INSERT
  5
18AA
330
6EB
100
AcDbEntity
  8
寸法
 62
     0
370
    15
100
AcDbBlockReference
  2
_DotSmall
 10
2231.547098234166
 20
1436.5779087747
 30
0.0
 41
35.0
 42
35.0
 43
35.0
 50
90.0
  0
INSERT
  5
18AB
330
6EB
100
AcDbEntity
  8
寸法
 62
     0
370
    15
100
AcDbBlockReference
  2
_DotSmall
 10
2231.547098234166
 20
1277.577908774701
 30
0.0
 41
35.0
 42
35.0
 43
35.0
 50
270.0
  0
MTEXT
  5
18AC
330
6EB
100
AcDbEntity
  8
寸法
 62
     0
100
AcDbMText
 10
2212.797098234165
 20
1356.285900731827
 30
0.0
 40
25.0
 41
0.0
 71
     5
 72
     1
  1
158%%C
 11
0.0000000000000001
 21
1.0
 31
0.0
 73
     1
 44
1.0
1001
ACAD
1000
MTEXTBEGIN
1070
    73
1070
     1
1070
    44
1040
1.0
1070
    74
1070
     0
1000
MTEXTEND
  0
POINT
  5
18AD
330
6EB
100
AcDbEntity
  8
Defpoints
 62
     0
100
AcDbPoint
 10
2119.975253562778
 20
1436.5779087747
 30
0.0
  0
POINT
  5
18AE
330
6EB
100
AcDbEntity
  8
Defpoints
 62
     0
100
AcDbPoint
 10
2119.975253562778
 20
1277.577908774701
 30
0.0
  0
POINT
  5
18AF
330
6EB
100
AcDbEntity
  8
Defpoints
 62
     0
100
AcDbPoint
 10
2231.547098234166
 20
1277.577908774701
 30
0.0
  0
ENDBLK
  5
6F6
330
6EB
100
AcDbEntity
  8
0
100
AcDbBlockEnd
  0
BLOCK
  5
786
330
77C
100
AcDbEntity
  8
0
100
AcDbBlockBegin
  2
*D22
 70
     1
 10
0.0
 20
0.0
 30
0.0
  3
*D22
  1

  0
LINE
  5
189E
330
77C
100
AcDbEntity
  8
寸法
 62
     0
370
    15
100
AcDbLine
 10
2102.214639385909
 20
1447.5779087747
 30
0.0
 11
2059.511514796633
 21
1447.5779087747
 31
0.0
  0
LINE
  5
189F
330
77C
100
AcDbEntity
  8
寸法
 62
     0
370
    15
100
AcDbLine
 10
2102.214639385909
 20
1266.5779087747
 30
0.0
 11
2059.511514796633
 21
1266.5779087747
 31
0.0
  0
LINE
  5
18A0
330
77C
100
AcDbEntity
  8
寸法
 62
     0
370
    15
100
AcDbLine
 10
2059.511514796633
 20
1447.5779087747
 30
0.0
 11
2059.511514796633
 21
1266.5779087747
 31
0.0
  0
INSERT
  5
18A1
330
77C
100
AcDbEntity
  8
寸法
 62
     0
370
    15
100
AcDbBlockReference
  2
_DotSmall
 10
2059.511514796633
 20
1447.5779087747
 30
0.0
 41
35.0
 42
35.0
 43
35.0
 50
90.0
  0
INSERT
  5
18A2
330
77C
100
AcDbEntity
  8
寸法
 62
     0
370
    15
100
AcDbBlockReference
  2
_DotSmall
 10
2059.511514796633
 20
1266.5779087747
 30
0.0
 41
35.0
 42
35.0
 43
35.0
 50
270.0
  0
MTEXT
  5
18A3
330
77C
100
AcDbEntity
  8
寸法
 62
     0
100
AcDbMText
 10
2040.761514796633
 20
1357.077908774701
 30
0.0
 40
25.0
 41
0.0
 71
     5
 72
     1
  1
181%%C
 11
0.0000000000000001
 21
1.0
 31
0.0
 73
     1
 44
1.0
1001
ACAD
1000
MTEXTBEGIN
1070
    73
1070
     1
1070
    44
1040
1.0
1070
    74
1070
     0
1000
MTEXTEND
  0
POINT
  5
18A4
330
77C
100
AcDbEntity
  8
Defpoints
 62
     0
100
AcDbPoint
 10
2167.214639385909
 20
1447.5779087747
 30
0.0
  0
POINT
  5
18A5
330
77C
100
AcDbEntity
  8
Defpoints
 62
     0
100
AcDbPoint
 10
2167.214639385909
 20
1266.5779087747
 30
0.0
  0
POINT
  5
18A6
330
77C
100
AcDbEntity
  8
Defpoints
 62
     0
100
AcDbPoint
 10
2059.511514796633
 20
1266.5779087747
 30
0.0
  0
ENDBLK
  5
787
330
77C
100
AcDbEntity
  8
0
100
AcDbBlockEnd
  0
BLOCK
  5
EC2
330
EB6
100
AcDbEntity
  8
0
100
AcDbBlockBegin
  2
*D23
 70
     1
 10
0.0
 20
0.0
 30
0.0
  3
*D23
  1

  0
LINE
  5
10C6
330
EB6
100
AcDbEntity
  8
実形
 62
     0
370
    15
100
AcDbLine
 10
1927.975253562777
 20
1437.0779087747
 30
0.0
 11
1927.975253562777
 21
1383.68017662416
 31
0.0
  0
LINE
  5
10C7
330
EB6
100
AcDbEntity
  8
実形
 62
     0
370
    15
100
AcDbLine
 10
1912.975253562778
 20
1437.0779087747
 30
0.0
 11
1912.975253562778
 21
1383.68017662416
 31
0.0
  0
LINE
  5
10C8
330
EB6
100
AcDbEntity
  8
実形
 62
     0
370
    15
100
AcDbLine
 10
1927.975253562777
 20
1383.68017662416
 30
0.0
 11
1912.975253562778
 21
1383.68017662416
 31
0.0
  0
INSERT
  5
10C9
330
EB6
100
AcDbEntity
  8
実形
 62
     0
370
    15
100
AcDbBlockReference
  2
_DotSmall
 10
1927.975253562777
 20
1383.68017662416
 30
0.0
 41
30.0
 42
30.0
 43
30.0
  0
INSERT
  5
10CA
330
EB6
100
AcDbEntity
  8
実形
 62
     0
370
    15
100
AcDbBlockReference
  2
_DotSmall
 10
1912.975253562778
 20
1383.68017662416
 30
0.0
 41
30.0
 42
30.0
 43
30.0
 50
180.0
  0
POINT
  5
10CB
330
EB6
100
AcDbEntity
  8
Defpoints
 62
     0
100
AcDbPoint
 10
1927.975253562777
 20
1502.0779087747
 30
0.0
  0
POINT
  5
10CC
330
EB6
100
AcDbEntity
  8
Defpoints
 62
     0
100
AcDbPoint
 10
1912.975253562778
 20
1502.0779087747
 30
0.0
  0
POINT
  5
10CD
330
EB6
100
AcDbEntity
  8
Defpoints
 62
     0
100
AcDbPoint
 10
1912.975253562778
 20
1383.68017662416
 30
0.0
  0
ENDBLK
  5
EC3
330
EB6
100
AcDbEntity
  8
0
100
AcDbBlockEnd
  0
BLOCK
  5
13DC
330
13D2
100
AcDbEntity
  8
0
100
AcDbBlockBegin
  2
*D24
 70
     1
 10
0.0
 20
0.0
 30
0.0
  3
*D24
  1

  0
LINE
  5
1460
330
13D2
100
AcDbEntity
  8
寸法
 62
     0
370
    15
100
AcDbLine
 10
1272.49683487226
 20
1572.0779087747
 30
0.0
 11
1210.196785953144
 21
1572.0779087747
 31
0.0
  0
LINE
  5
1461
330
13D2
100
AcDbEntity
  8
寸法
 62
     0
370
    15
100
AcDbLine
 10
1272.49683487226
 20
1512.0779087747
 30
0.0
 11
1210.196785953144
 21
1512.0779087747
 31
0.0
  0
LINE
  5
1462
330
13D2
100
AcDbEntity
  8
寸法
 62
     0
370
    15
100
AcDbLine
 10
1210.196785953144
 20
1572.0779087747
 30
0.0
 11
1210.196785953144
 21
1512.0779087747
 31
0.0
  0
INSERT
  5
1463
330
13D2
100
AcDbEntity
  8
寸法
 62
     0
370
    15
100
AcDbBlockReference
  2
_DotSmall
 10
1210.196785953144
 20
1572.0779087747
 30
0.0
 41
35.0
 42
35.0
 43
35.0
 50
90.0
  0
INSERT
  5
1464
330
13D2
100
AcDbEntity
  8
寸法
 62
     0
370
    15
100
AcDbBlockReference
  2
_DotSmall
 10
1210.196785953144
 20
1512.0779087747
 30
0.0
 41
35.0
 42
35.0
 43
35.0
 50
270.0
  0
MTEXT
  5
1465
330
13D2
100
AcDbEntity
  8
寸法
 62
     0
100
AcDbMText
 10
1191.446785953144
 20
1542.0779087747
 30
0.0
 40
25.0
 41
0.0
 71
     5
 72
     1
  1
60
 11
0.0000000000000001
 21
1.0
 31
0.0
 73
     1
 44
1.0
1001
ACAD
1000
MTEXTBEGIN
1070
    73
1070
     1
1070
    44
1040
1.0
1070
    74
1070
     0
1000
MTEXTEND
  0
POINT
  5
1466
330
13D2
100
AcDbEntity
  8
Defpoints
 62
     0
100
AcDbPoint
 10
1337.49683487226
 20
1572.0779087747
 30
0.0
  0
POINT
  5
1467
330
13D2
100
AcDbEntity
  8
Defpoints
 62
     0
100
AcDbPoint
 10
1337.49683487226
 20
1512.0779087747
 30
0.0
  0
POINT
  5
1468
330
13D2
100
AcDbEntity
  8
Defpoints
 62
     0
100
AcDbPoint
 10
1210.196785953144
 20
1512.0779087747
 30
0.0
  0
ENDBLK
  5
13DD
330
13D2
100
AcDbEntity
  8
0
100
AcDbBlockEnd
  0
BLOCK
  5
169D
330
1693
100
AcDbEntity
  8
0
100
AcDbBlockBegin
  2
*D25
 70
     1
 10
0.0
 20
0.0
 30
0.0
  3
*D25
  1

  0
LINE
  5
169F
330
1693
100
AcDbEntity
  8
寸法
 62
     0
370
    15
100
AcDbLine
 10
1298.496834872258
 20
1637.16722123035
 30
0.0
 11
1298.496834872258
 21
1676.498420458015
 31
0.0
  0
LINE
  5
16A0
330
1693
100
AcDbEntity
  8
寸法
 62
     0
370
    15
100
AcDbLine
 10
1588.496834872258
 20
1637.16722123035
 30
0.0
 11
1588.496834872258
 21
1676.498420458015
 31
0.0
  0
LINE
  5
16A1
330
1693
100
AcDbEntity
  8
寸法
 62
     0
370
    15
100
AcDbLine
 10
1298.496834872258
 20
1676.498420458015
 30
0.0
 11
1588.496834872258
 21
1676.498420458015
 31
0.0
  0
INSERT
  5
16A2
330
1693
100
AcDbEntity
  8
寸法
 62
     0
370
    15
100
AcDbBlockReference
  2
_DotSmall
 10
1298.496834872258
 20
1676.498420458015
 30
0.0
 41
35.0
 42
35.0
 43
35.0
 50
180.0
  0
INSERT
  5
16A3
330
1693
100
AcDbEntity
  8
寸法
 62
     0
370
    15
100
AcDbBlockReference
  2
_DotSmall
 10
1588.496834872258
 20
1676.498420458015
 30
0.0
 41
35.0
 42
35.0
 43
35.0
  0
MTEXT
  5
16A4
330
1693
100
AcDbEntity
  8
寸法
 62
     0
100
AcDbMText
 10
1443.496834872258
 20
1695.248420458015
 30
0.0
 40
25.0
 41
0.0
 71
     5
 72
     1
  1
290
 73
     1
 44
1.0
1001
ACAD
1000
MTEXTBEGIN
1070
    73
1070
     1
1070
    44
1040
1.0
1070
    74
1070
     0
1000
MTEXTEND
  0
POINT
  5
16A5
330
1693
100
AcDbEntity
  8
Defpoints
 62
     0
100
AcDbPoint
 10
1298.496834872258
 20
1572.16722123035
 30
0.0
  0
POINT
  5
16A6
330
1693
100
AcDbEntity
  8
Defpoints
 62
     0
100
AcDbPoint
 10
1588.496834872258
 20
1572.16722123035
 30
0.0
  0
POINT
  5
16A7
330
1693
100
AcDbEntity
  8
Defpoints
 62
     0
100
AcDbPoint
 10
1588.496834872258
 20
1676.498420458015
 30
0.0
  0
ENDBLK
  5
169E
330
1693
100
AcDbEntity
  8
0
100
AcDbBlockEnd
  0
BLOCK
  5
16B3
330
16A9
100
AcDbEntity
  8
0
100
AcDbBlockBegin
  2
*D26
 70
     1
 10
0.0
 20
0.0
 30
0.0
  3
*D26
  1

  0
LINE
  5
16C5
330
16A9
100
AcDbEntity
  8
実形
 62
     0
370
    15
100
AcDbLine
 10
1588.496834872259
 20
1676.498420458015
 30
0.0
 11
1628.496834872258
 21
1676.498420458015
 31
0.0
  0
MTEXT
  5
16C6
330
16A9
100
AcDbEntity
  8
実形
 62
     0
100
AcDbMText
 10
1608.496834872259
 20
1697.073343877162
 30
0.0
 40
25.0
 41
0.0
 71
     5
 72
     1
  1
40
 73
     1
 44
1.0
1001
ACAD
1000
MTEXTBEGIN
1070
    73
1070
     1
1070
    44
1040
1.0
1070
    74
1070
     0
1000
MTEXTEND
  0
INSERT
  5
16C7
330
16A9
100
AcDbEntity
  8
実形
 62
     0
370
    15
100
AcDbBlockReference
  2
_DotSmall
 10
1588.496834872259
 20
1676.498420458015
 30
0.0
 41
35.0
 42
35.0
 43
35.0
 50
180.0
  0
INSERT
  5
16C8
330
16A9
100
AcDbEntity
  8
実形
 62
     0
370
    15
100
AcDbBlockReference
  2
_DotSmall
 10
1628.496834872258
 20
1676.498420458015
 30
0.0
 41
35.0
 42
35.0
 43
35.0
  0
POINT
  5
16C9
330
16A9
100
AcDbEntity
  8
Defpoints
 62
     0
100
AcDbPoint
 10
1588.496834872259
 20
1541.16722123035
 30
0.0
  0
POINT
  5
16CA
330
16A9
100
AcDbEntity
  8
Defpoints
 62
     0
100
AcDbPoint
 10
1628.496834872258
 20
1522.0779087747
 30
0.0
  0
POINT
  5
16CB
330
16A9
100
AcDbEntity
  8
Defpoints
 62
     0
100
AcDbPoint
 10
1628.496834872258
 20
1676.498420458015
 30
0.0
  0
ENDBLK
  5
16B4
330
16A9
100
AcDbEntity
  8
0
100
AcDbBlockEnd
  0
BLOCK
  5
172B
330
172A
100
AcDbEntity
  8
0
100
AcDbBlockBegin
  2
_None
 70
     0
 10
0.0
 20
0.0
 30
0.0
  3
_None
  1

  0
ENDBLK
  5
172C
330
172A
100
AcDbEntity
  8
0
100
AcDbBlockEnd
  0
BLOCK
  5
17DF
330
17D5
100
AcDbEntity
  8
0
100
AcDbBlockBegin
  2
*D28
 70
     1
 10
0.0
 20
0.0
 30
0.0
  3
*D28
  1

  0
LINE
  5
17F7
330
17D5
100
AcDbEntity
  8
実形
 62
     0
370
    15
100
AcDbLine
 10
1912.975253562778
 20
1623.6779087747
 30
0.0
 11
1912.975253562778
 21
1657.987055779485
 31
0.0
  0
LINE
  5
17F8
330
17D5
100
AcDbEntity
  8
実形
 62
     0
370
    15
100
AcDbLine
 10
2018.975253562778
 20
1623.6779087747
 30
0.0
 11
2018.975253562778
 21
1657.987055779485
 31
0.0
  0
LINE
  5
17F9
330
17D5
100
AcDbEntity
  8
実形
 62
     0
370
    15
100
AcDbLine
 10
1912.975253562778
 20
1657.987055779485
 30
0.0
 11
2018.975253562778
 21
1657.987055779485
 31
0.0
  0
INSERT
  5
17FA
330
17D5
100
AcDbEntity
  8
実形
 62
     0
370
    15
100
AcDbBlockReference
  2
_DotSmall
 10
1912.975253562778
 20
1657.987055779485
 30
0.0
 41
35.0
 42
35.0
 43
35.0
 50
180.0
  0
INSERT
  5
17FB
330
17D5
100
AcDbEntity
  8
実形
 62
     0
370
    15
100
AcDbBlockReference
  2
_DotSmall
 10
2018.975253562778
 20
1657.987055779485
 30
0.0
 41
35.0
 42
35.0
 43
35.0
  0
MTEXT
  5
17FC
330
17D5
100
AcDbEntity
  8
実形
 62
     0
100
AcDbMText
 10
1965.975253562778
 20
1676.737055779485
 30
0.0
 40
25.0
 41
0.0
 71
     5
 72
     1
  1
106
 73
     1
 44
1.0
1001
ACAD
1000
MTEXTBEGIN
1070
    73
1070
     1
1070
    44
1040
1.0
1070
    74
1070
     0
1000
MTEXTEND
  0
POINT
  5
17FD
330
17D5
100
AcDbEntity
  8
Defpoints
 62
     0
100
AcDbPoint
 10
1912.975253562778
 20
1558.6779087747
 30
0.0
  0
POINT
  5
17FE
330
17D5
100
AcDbEntity
  8
Defpoints
 62
     0
100
AcDbPoint
 10
2018.975253562778
 20
1558.6779087747
 30
0.0
  0
POINT
  5
17FF
330
17D5
100
AcDbEntity
  8
Defpoints
 62
     0
100
AcDbPoint
 10
2018.975253562778
 20
1657.987055779485
 30
0.0
  0
ENDBLK
  5
17E0
330
17D5
100
AcDbEntity
  8
0
100
AcDbBlockEnd
  0
BLOCK
  5
17E9
330
17E1
100
AcDbEntity
  8
0
100
AcDbBlockBegin
  2
*D29
 70
     1
 10
0.0
 20
0.0
 30
0.0
  3
*D29
  1

  0
LINE
  5
1800
330
17E1
100
AcDbEntity
  8
実形
 62
     0
370
    15
100
AcDbLine
 10
2080.76159316173
 20
1558.6779087747
 30
0.0
 11
2080.76159316173
 21
1525.477908774701
 31
0.0
  0
MTEXT
  5
1801
330
17E1
100
AcDbEntity
  8
実形
 62
     0
100
AcDbMText
 10
2109.410026852803
 20
1542.0779087747
 30
0.0
 40
25.0
 41
0.0
 71
     5
 72
     1
  1
33
 11
0.0000000000000001
 21
1.0
 31
0.0
 73
     1
 44
1.0
1001
ACAD
1000
MTEXTBEGIN
1070
    73
1070
     1
1070
    44
1040
1.0
1070
    74
1070
     0
1000
MTEXTEND
  0
INSERT
  5
1802
330
17E1
100
AcDbEntity
  8
実形
 62
     0
370
    15
100
AcDbBlockReference
  2
_DotSmall
 10
2080.76159316173
 20
1558.6779087747
 30
0.0
 41
35.0
 42
35.0
 43
35.0
 50
90.0
  0
INSERT
  5
1803
330
17E1
100
AcDbEntity
  8
実形
 62
     0
370
    15
100
AcDbBlockReference
  2
_DotSmall
 10
2080.76159316173
 20
1525.477908774701
 30
0.0
 41
35.0
 42
35.0
 43
35.0
 50
270.0
  0
POINT
  5
1804
330
17E1
100
AcDbEntity
  8
Defpoints
 62
     0
100
AcDbPoint
 10
2038.975253562778
 20
1558.6779087747
 30
0.0
  0
POINT
  5
1805
330
17E1
100
AcDbEntity
  8
Defpoints
 62
     0
100
AcDbPoint
 10
2038.975253562778
 20
1525.477908774701
 30
0.0
  0
POINT
  5
1806
330
17E1
100
AcDbEntity
  8
Defpoints
 62
     0
100
AcDbPoint
 10
2080.76159316173
 20
1525.477908774701
 30
0.0
  0
ENDBLK
  5
17EA
330
17E1
100
AcDbEntity
  8
0
100
AcDbBlockEnd
  0
BLOCK
  5
17F5
330
17EB
100
AcDbEntity
  8
0
100
AcDbBlockBegin
  2
*D30
 70
     1
 10
0.0
 20
0.0
 30
0.0
  3
*D30
  1

  0
LINE
  5
1807
330
17EB
100
AcDbEntity
  8
実形
 62
     0
370
    15
100
AcDbLine
 10
2018.975253562778
 20
1623.6779087747
 30
0.0
 11
2018.975253562778
 21
1657.987055779485
 31
0.0
  0
LINE
  5
1808
330
17EB
100
AcDbEntity
  8
実形
 62
     0
370
    15
100
AcDbLine
 10
2038.975253562778
 20
1623.6779087747
 30
0.0
 11
2038.975253562778
 21
1657.987055779485
 31
0.0
  0
LINE
  5
1809
330
17EB
100
AcDbEntity
  8
実形
 62
     0
370
    15
100
AcDbLine
 10
2018.975253562778
 20
1657.987055779485
 30
0.0
 11
2038.975253562778
 21
1657.987055779485
 31
0.0
  0
MTEXT
  5
180A
330
17EB
100
AcDbEntity
  8
実形
 62
     0
100
AcDbMText
 10
2065.934295867591
 20
1661.648765307524
 30
0.0
 40
25.0
 41
0.0
 71
     5
 72
     1
  1
20
 73
     1
 44
1.0
1001
ACAD
1000
MTEXTBEGIN
1070
    73
1070
     1
1070
    44
1040
1.0
1070
    74
1070
     0
1000
MTEXTEND
  0
INSERT
  5
180B
330
17EB
100
AcDbEntity
  8
実形
 62
     0
370
    15
100
AcDbBlockReference
  2
_DotSmall
 10
2018.975253562778
 20
1657.987055779485
 30
0.0
 41
35.0
 42
35.0
 43
35.0
 50
180.0
  0
INSERT
  5
180C
330
17EB
100
AcDbEntity
  8
実形
 62
     0
370
    15
100
AcDbBlockReference
  2
_DotSmall
 10
2038.975253562778
 20
1657.987055779485
 30
0.0
 41
35.0
 42
35.0
 43
35.0
  0
POINT
  5
180D
330
17EB
100
AcDbEntity
  8
Defpoints
 62
     0
100
AcDbPoint
 10
2018.975253562778
 20
1558.6779087747
 30
0.0
  0
POINT
  5
180E
330
17EB
100
AcDbEntity
  8
Defpoints
 62
     0
100
AcDbPoint
 10
2038.975253562778
 20
1558.6779087747
 30
0.0
  0
POINT
  5
180F
330
17EB
100
AcDbEntity
  8
Defpoints
 62
     0
100
AcDbPoint
 10
2038.975253562778
 20
1657.987055779485
 30
0.0
  0
ENDBLK
  5
17F6
330
17EB
100
AcDbEntity
  8
0
100
AcDbBlockEnd
  0
BLOCK
  5
18E7
330
18DD
100
AcDbEntity
  8
0
100
AcDbBlockBegin
  2
*D31
 70
     1
 10
0.0
 20
0.0
 30
0.0
  3
*D31
  1

  0
LINE
  5
18F5
330
18DD
100
AcDbEntity
  8
実形
 62
     0
370
    15
100
AcDbLine
 10
730.3229363377421
 20
647.0779087747006
 30
0.0
 11
675.8880681012642
 21
647.0779087747006
 31
0.0
  0
LINE
  5
18F6
330
18DD
100
AcDbEntity
  8
実形
 62
     0
370
    15
100
AcDbLine
 10
730.3229363377421
 20
632.0779087747006
 30
0.0
 11
675.8880681012642
 21
632.0779087747006
 31
0.0
  0
LINE
  5
18F7
330
18DD
100
AcDbEntity
  8
実形
 62
     0
370
    15
100
AcDbLine
 10
675.8880681012642
 20
647.0779087747006
 30
0.0
 11
675.8880681012642
 21
632.0779087747006
 31
0.0
  0
MTEXT
  5
18F8
330
18DD
100
AcDbEntity
  8
実形
 62
     0
100
AcDbMText
 10
645.1270335187455
 20
622.6449149591744
 30
0.0
 40
25.0
 41
0.0
 71
     5
 72
     1
  1
15
 11
0.0000000000000001
 21
1.0
 31
0.0
 73
     1
 44
1.0
1001
ACAD
1000
MTEXTBEGIN
1070
    73
1070
     1
1070
    44
1040
1.0
1070
    74
1070
     0
1000
MTEXTEND
  0
INSERT
  5
18F9
330
18DD
100
AcDbEntity
  8
実形
 62
     0
370
    15
100
AcDbBlockReference
  2
_DotSmall
 10
675.8880681012642
 20
647.0779087747006
 30
0.0
 41
20.0
 42
20.0
 43
20.0
 50
90.0
  0
INSERT
  5
18FA
330
18DD
100
AcDbEntity
  8
実形
 62
     0
370
    15
100
AcDbBlockReference
  2
_DotSmall
 10
675.8880681012642
 20
632.0779087747006
 30
0.0
 41
20.0
 42
20.0
 43
20.0
 50
270.0
  0
POINT
  5
18FB
330
18DD
100
AcDbEntity
  8
Defpoints
 62
     0
100
AcDbPoint
 10
795.3229363377421
 20
647.0779087747005
 30
0.0
  0
POINT
  5
18FC
330
18DD
100
AcDbEntity
  8
Defpoints
 62
     0
100
AcDbPoint
 10
795.3229363377421
 20
632.0779087747005
 30
0.0
  0
POINT
  5
18FD
330
18DD
100
AcDbEntity
  8
Defpoints
 62
     0
100
AcDbPoint
 10
675.8880681012642
 20
632.0779087747006
 30
0.0
  0
ENDBLK
  5
18E8
330
18DD
100
AcDbEntity
  8
0
100
AcDbBlockEnd
  0
BLOCK
  5
18F3
330
18E9
100
AcDbEntity
  8
0
100
AcDbBlockBegin
  2
*D32
 70
     1
 10
0.0
 20
0.0
 30
0.0
  3
*D32
  1

  0
LINE
  5
18FE
330
18E9
100
AcDbEntity
  8
実形
 62
     0
370
    15
100
AcDbLine
 10
730.3229363377422
 20
647.0779087747006
 30
0.0
 11
613.0970147439247
 21
647.0779087747006
 31
0.0
  0
LINE
  5
18FF
330
18E9
100
AcDbEntity
  8
実形
 62
     0
370
    15
100
AcDbLine
 10
730.3229363377424
 20
447.0779087747005
 30
0.0
 11
613.0970147439247
 21
447.0779087747006
 31
0.0
  0
LINE
  5
1900
330
18E9
100
AcDbEntity
  8
実形
 62
     0
370
    15
100
AcDbLine
 10
613.0970147439247
 20
647.0779087747006
 30
0.0
 11
613.0970147439247
 21
447.0779087747006
 31
0.0
  0
INSERT
  5
1901
330
18E9
100
AcDbEntity
  8
実形
 62
     0
370
    15
100
AcDbBlockReference
  2
_DotSmall
 10
613.0970147439247
 20
647.0779087747006
 30
0.0
 41
20.0
 42
20.0
 43
20.0
 50
90.0
  0
INSERT
  5
1902
330
18E9
100
AcDbEntity
  8
実形
 62
     0
370
    15
100
AcDbBlockReference
  2
_DotSmall
 10
613.0970147439247
 20
447.0779087747006
 30
0.0
 41
20.0
 42
20.0
 43
20.0
 50
270.0
  0
MTEXT
  5
1903
330
18E9
100
AcDbEntity
  8
実形
 62
     0
100
AcDbMText
 10
594.3470147439247
 20
547.0779087747007
 30
0.0
 40
25.0
 41
0.0
 71
     5
 72
     1
  1
200
 11
0.0000000000000001
 21
1.0
 31
0.0
 73
     1
 44
1.0
1001
ACAD
1000
MTEXTBEGIN
1070
    73
1070
     1
1070
    44
1040
1.0
1070
    74
1070
     0
1000
MTEXTEND
  0
POINT
  5
1904
330
18E9
100
AcDbEntity
  8
Defpoints
 62
     0
100
AcDbPoint
 10
795.3229363377422
 20
647.0779087747005
 30
0.0
  0
POINT
  5
1905
330
18E9
100
AcDbEntity
  8
Defpoints
 62
     0
100
AcDbPoint
 10
795.3229363377423
 20
447.0779087747005
 30
0.0
  0
POINT
  5
1906
330
18E9
100
AcDbEntity
  8
Defpoints
 62
     0
100
AcDbPoint
 10
613.0970147439247
 20
447.0779087747006
 30
0.0
  0
ENDBLK
  5
18F4
330
18E9
100
AcDbEntity
  8
0
100
AcDbBlockEnd
  0
BLOCK
  5
193F
330
1935
100
AcDbEntity
  8
0
100
AcDbBlockBegin
  2
*D33
 70
     1
 10
0.0
 20
0.0
 30
0.0
  3
*D33
  1

  0
LINE
  5
194D
330
1935
100
AcDbEntity
  8
実形
 62
     0
370
    15
100
AcDbLine
 10
1912.975253562778
 20
987.336701084655
 30
0.0
 11
1912.975253562778
 21
932.8155574861776
 31
0.0
  0
LINE
  5
194E
330
1935
100
AcDbEntity
  8
実形
 62
     0
370
    15
100
AcDbLine
 10
1927.975253562777
 20
987.336701084655
 30
0.0
 11
1927.975253562777
 21
932.8155574861776
 31
0.0
  0
LINE
  5
194F
330
1935
100
AcDbEntity
  8
実形
 62
     0
370
    15
100
AcDbLine
 10
1912.975253562778
 20
932.8155574861776
 30
0.0
 11
1927.975253562777
 21
932.8155574861776
 31
0.0
  0
MTEXT
  5
1950
330
1935
100
AcDbEntity
  8
実形
 62
     0
100
AcDbMText
 10
1958.138333396186
 20
948.3175908169432
 30
0.0
 40
25.0
 41
0.0
 71
     5
 72
     1
  1
15
 73
     1
 44
1.0
1001
ACAD
1000
MTEXTBEGIN
1070
    73
1070
     1
1070
    44
1040
1.0
1070
    74
1070
     0
1000
MTEXTEND
  0
INSERT
  5
1951
330
1935
100
AcDbEntity
  8
実形
 62
     0
370
    15
100
AcDbBlockReference
  2
_DotSmall
 10
1912.975253562778
 20
932.8155574861776
 30
0.0
 41
20.0
 42
20.0
 43
20.0
 50
180.0
  0
INSERT
  5
1952
330
1935
100
AcDbEntity
  8
実形
 62
     0
370
    15
100
AcDbBlockReference
  2
_DotSmall
 10
1927.975253562777
 20
932.8155574861776
 30
0.0
 41
20.0
 42
20.0
 43
20.0
  0
POINT
  5
1953
330
1935
100
AcDbEntity
  8
Defpoints
 62
     0
100
AcDbPoint
 10
1912.975253562778
 20
1052.336701084655
 30
0.0
  0
POINT
  5
1954
330
1935
100
AcDbEntity
  8
Defpoints
 62
     0
100
AcDbPoint
 10
1927.975253562777
 20
1052.336701084655
 30
0.0
  0
POINT
  5
1955
330
1935
100
AcDbEntity
  8
Defpoints
 62
     0
100
AcDbPoint
 10
1927.975253562777
 20
932.8155574861776
 30
0.0
  0
ENDBLK
  5
1940
330
1935
100
AcDbEntity
  8
0
100
AcDbBlockEnd
  0
BLOCK
  5
194B
330
1941
100
AcDbEntity
  8
0
100
AcDbBlockBegin
  2
*D34
 70
     1
 10
0.0
 20
0.0
 30
0.0
  3
*D34
  1

  0
LINE
  5
1956
330
1941
100
AcDbEntity
  8
実形
 62
     0
370
    15
100
AcDbLine
 10
1912.975253562778
 20
987.336701084655
 30
0.0
 11
1912.975253562778
 21
870.0357129788262
 31
0.0
  0
LINE
  5
1957
330
1941
100
AcDbEntity
  8
実形
 62
     0
370
    15
100
AcDbLine
 10
2112.975253562778
 20
987.336701084655
 30
0.0
 11
2112.975253562778
 21
870.0357129788262
 31
0.0
  0
LINE
  5
1958
330
1941
100
AcDbEntity
  8
実形
 62
     0
370
    15
100
AcDbLine
 10
1912.975253562778
 20
870.0357129788262
 30
0.0
 11
2112.975253562778
 21
870.0357129788262
 31
0.0
  0
INSERT
  5
1959
330
1941
100
AcDbEntity
  8
実形
 62
     0
370
    15
100
AcDbBlockReference
  2
_DotSmall
 10
1912.975253562778
 20
870.0357129788262
 30
0.0
 41
20.0
 42
20.0
 43
20.0
 50
180.0
  0
INSERT
  5
195A
330
1941
100
AcDbEntity
  8
実形
 62
     0
370
    15
100
AcDbBlockReference
  2
_DotSmall
 10
2112.975253562778
 20
870.0357129788262
 30
0.0
 41
20.0
 42
20.0
 43
20.0
  0
MTEXT
  5
195B
330
1941
100
AcDbEntity
  8
実形
 62
     0
100
AcDbMText
 10
2012.975253562778
 20
888.7857129788262
 30
0.0
 40
25.0
 41
0.0
 71
     5
 72
     1
  1
200
 73
     1
 44
1.0
1001
ACAD
1000
MTEXTBEGIN
1070
    73
1070
     1
1070
    44
1040
1.0
1070
    74
1070
     0
1000
MTEXTEND
  0
POINT
  5
195C
330
1941
100
AcDbEntity
  8
Defpoints
 62
     0
100
AcDbPoint
 10
1912.975253562778
 20
1052.336701084655
 30
0.0
  0
POINT
  5
195D
330
1941
100
AcDbEntity
  8
Defpoints
 62
     0
100
AcDbPoint
 10
2112.975253562778
 20
1052.336701084655
 30
0.0
  0
POINT
  5
195E
330
1941
100
AcDbEntity
  8
Defpoints
 62
     0
100
AcDbPoint
 10
2112.975253562778
 20
870.0357129788262
 30
0.0
  0
ENDBLK
  5
194C
330
1941
100
AcDbEntity
  8
0
100
AcDbBlockEnd
  0
ENDSEC
  0
SECTION
  2
ENTITIES
  0
LINE
  5
73
330
1F
100
AcDbEntity
  8
0
100
AcDbLine
 10
111.0
 20
4.0
 30
0.0
 11
278.0
 21
4.0
 31
0.0
  0
LINE
  5
9C
330
1F
100
AcDbEntity
  8
補助
100
AcDbLine
 10
111.0
 20
4.0
 30
0.0
 11
2784.0
 21
4.0
 31
0.0
  0
LINE
  5
A0
330
1F
100
AcDbEntity
  8
補助
100
AcDbLine
 10
2784.0
 20
2024.0
 30
0.0
 11
111.0
 21
2024.0
 31
0.0
  0
LINE
  5
A5
330
1F
100
AcDbEntity
  8
補助
100
AcDbLine
 10
2784.0
 20
4.0
 30
0.0
 11
2784.0
 21
2024.0
 31
0.0
  0
LINE
  5
2D8
330
1F
100
AcDbEntity
  8
実形
100
AcDbLine
 10
1643.496834872259
 20
1522.0779087747
 30
0.0
 11
1643.496834872259
 21
1122.0779087747
 31
0.0
  0
LINE
  5
2D9
330
1F
100
AcDbEntity
  8
実形
100
AcDbLine
 10
1568.496834872258
 20
1047.0779087747
 30
0.0
 11
888.4968348722587
 21
1047.0779087747
 31
0.0
  0
LINE
  5
2DA
330
1F
100
AcDbEntity
  8
実形
100
AcDbLine
 10
813.4968348722587
 20
1122.0779087747
 30
0.0
 11
813.4968348722587
 21
1522.0779087747
 31
0.0
  0
LINE
  5
2DB
330
1F
100
AcDbEntity
  8
実形
100
AcDbLine
 10
888.4968348722587
 20
1597.0779087747
 30
0.0
 11
1568.496834872258
 21
1597.0779087747
 31
0.0
  0
LINE
  5
2DD
330
1F
100
AcDbEntity
  8
実形
100
AcDbLine
 10
1568.496834872258
 20
1062.0779087747
 30
0.0
 11
888.4968348722587
 21
1062.0779087747
 31
0.0
  0
LINE
  5
2E0
330
1F
100
AcDbEntity
  8
実形
100
AcDbLine
 10
1568.496834872258
 20
1582.0779087747
 30
0.0
 11
888.4968348722589
 21
1582.0779087747
 31
0.0
  0
CIRCLE
  5
2E8
330
1F
100
AcDbEntity
  8
実形
100
AcDbCircle
 10
1478.496834872258
 20
1357.0779087747
 30
0.0
 40
90.5
  0
CIRCLE
  5
2E9
330
1F
100
AcDbEntity
  8
実形
100
AcDbCircle
 10
1478.496834872258
 20
1357.0779087747
 30
0.0
 40
79.5
  0
LINE
  5
2F1
330
1F
100
AcDbEntity
  8
実形
100
AcDbLine
 10
1628.496834872258
 20
1380.136376600876
 30
0.0
 11
1628.496834872258
 21
1184.019440948525
 31
0.0
  0
LINE
  5
2F2
330
1F
100
AcDbEntity
  8
実形
100
AcDbLine
 10
828.4968348722586
 20
1380.136376600876
 30
0.0
 11
828.4968348722586
 21
1184.019440948525
 31
0.0
  0
LINE
  5
2FD
330
1F
100
AcDbEntity
  8
実形
100
AcDbLine
 10
1628.496834872258
 20
1442.0779087747
 30
0.0
 11
1628.496834872258
 21
1122.0779087747
 31
0.0
  0
LINE
  5
2FE
330
1F
100
AcDbEntity
  8
実形
100
AcDbLine
 10
1568.496834872258
 20
1502.0779087747
 30
0.0
 11
888.4968348722583
 21
1502.0779087747
 31
0.0
  0
LINE
  5
2FF
330
1F
100
AcDbEntity
  8
実形
100
AcDbLine
 10
828.4968348722584
 20
1442.0779087747
 30
0.0
 11
828.4968348722586
 21
1122.0779087747
 31
0.0
  0
ARC
  5
300
330
1F
100
AcDbEntity
  8
実形
100
AcDbCircle
 10
1568.496834872258
 20
1442.0779087747
 30
0.0
 40
60.0
100
AcDbArc
 50
0.000000000000007
 51
90.0
  0
ARC
  5
301
330
1F
100
AcDbEntity
  8
実形
100
AcDbCircle
 10
1568.496834872258
 20
1122.0779087747
 30
0.0
 40
60.0
100
AcDbArc
 50
270.0
 51
0.000000000000007
  0
ARC
  5
302
330
1F
100
AcDbEntity
  8
実形
100
AcDbCircle
 10
888.4968348722587
 20
1122.0779087747
 30
0.0
 40
60.0
100
AcDbArc
 50
180.0
 51
270.0
  0
ARC
  5
303
330
1F
100
AcDbEntity
  8
実形
100
AcDbCircle
 10
888.4968348722583
 20
1442.0779087747
 30
0.0
 40
60.0
100
AcDbArc
 50
90.0
 51
180.0
  0
LINE
  5
306
330
1F
100
AcDbEntity
  8
実形
100
AcDbLine
 10
1628.496834872258
 20
1522.0779087747
 30
0.0
 11
1628.496834872258
 21
1184.019440948525
 31
0.0
  0
LINE
  5
307
330
1F
100
AcDbEntity
  8
実形
100
AcDbLine
 10
828.4968348722589
 20
1522.0779087747
 30
0.0
 11
828.4968348722586
 21
1184.019440948525
 31
0.0
  0
ARC
  5
308
330
1F
100
AcDbEntity
  8
実形
100
AcDbCircle
 10
1568.496834872258
 20
1522.0779087747
 30
0.0
 40
60.0
100
AcDbArc
 50
0.000000000000007
 51
90.0
  0
ARC
  5
309
330
1F
100
AcDbEntity
  8
実形
100
AcDbCircle
 10
888.4968348722589
 20
1522.0779087747
 30
0.0
 40
60.0
100
AcDbArc
 50
90.0
 51
180.0
  0
ARC
  5
30A
330
1F
100
AcDbEntity
  8
実形
100
AcDbCircle
 10
1568.496834872258
 20
1522.0779087747
 30
0.0
 40
75.0
100
AcDbArc
 50
0.000000000000007
 51
90.0
  0
ARC
  5
30B
330
1F
100
AcDbEntity
  8
実形
100
AcDbCircle
 10
1568.496834872258
 20
1122.0779087747
 30
0.0
 40
75.0
100
AcDbArc
 50
270.0
 51
0.000000000000007
  0
ARC
  5
30C
330
1F
100
AcDbEntity
  8
実形
100
AcDbCircle
 10
888.4968348722587
 20
1122.0779087747
 30
0.0
 40
75.0
100
AcDbArc
 50
180.0
 51
270.0
  0
ARC
  5
30D
330
1F
100
AcDbEntity
  8
実形
100
AcDbCircle
 10
888.4968348722587
 20
1522.0779087747
 30
0.0
 40
75.0
100
AcDbArc
 50
90.0
 51
180.0
  0
LINE
  5
315
330
1F
100
AcDbEntity
  8
センター
100
AcDbLine
 10
1478.496834872258
 20
1508.480409863853
 30
0.0
 11
1478.496834872258
 21
1202.35783932375
 31
0.0
  0
LINE
  5
316
330
1F
100
AcDbEntity
  8
センター
100
AcDbLine
 10
1615.065148902553
 20
1357.0779087747
 30
0.0
 11
1341.890276984546
 21
1357.0779087747
 31
0.0
  0
LINE
  5
317
330
1F
100
AcDbEntity
  8
実形
100
AcDbLine
 10
1643.496834872259
 20
647.0779087747005
 30
0.0
 11
813.4968348722587
 21
647.0779087747005
 31
0.0
  0
LINE
  5
319
330
1F
100
AcDbEntity
  8
実形
100
AcDbLine
 10
1628.496834872258
 20
647.0779087747005
 30
0.0
 11
1628.496834872258
 21
477.0779087747004
 31
0.0
  0
LINE
  5
31A
330
1F
100
AcDbEntity
  8
実形
100
AcDbLine
 10
1598.496834872259
 20
447.0779087747003
 30
0.0
 11
1387.996834872259
 21
447.0779087747003
 31
0.0
  0
LINE
  5
31B
330
1F
100
AcDbEntity
  8
実形
100
AcDbLine
 10
828.4968348722586
 20
487.025749784933
 30
0.0
 11
828.4968348722586
 21
647.0779087747005
 31
0.0
  0
LINE
  5
323
330
1F
100
AcDbEntity
  8
実形
100
AcDbLine
 10
1387.996834872258
 20
447.0779087747005
 30
0.0
 11
857.7115264230224
 21
457.0360300356663
 31
0.0
  0
ARC
  5
324
330
1F
100
AcDbEntity
  8
実形
100
AcDbCircle
 10
858.4968348722586
 20
487.025749784933
 30
0.0
 40
30.0
100
AcDbArc
 50
180.0
 51
268.5
  0
ARC
  5
325
330
1F
100
AcDbEntity
  8
実形
100
AcDbCircle
 10
1598.496834872259
 20
477.0779087747004
 30
0.0
 40
30.0
100
AcDbArc
 50
270.0
 51
0.000000000000007
  0
LINE
  5
326
330
1F
100
AcDbEntity
  8
実形
100
AcDbLine
 10
1628.496834872258
 20
640.6779087747005
 30
0.0
 11
828.4968348722586
 21
640.6779087747005
 31
0.0
  0
LINE
  5
327
330
1F
100
AcDbEntity
  8
実形
100
AcDbLine
 10
1628.496834872258
 20
632.0779087747005
 30
0.0
 11
828.4968348722586
 21
632.0779087747005
 31
0.0
  0
LINE
  5
328
330
1F
100
AcDbEntity
  8
センター
100
AcDbLine
 10
1387.996834872263
 20
447.0779087747003
 30
0.0
 11
834.3683097544571
 21
447.0779087747003
 31
0.0
  0
LINE
  5
329
330
1F
100
AcDbEntity
  8
センター
 48
0.5
100
AcDbLine
 10
1478.496834872258
 20
519.3254595931148
 30
0.0
 11
1478.496834872258
 21
357.3798057355016
 31
0.0
  0
LINE
  5
336
330
1F
100
AcDbEntity
  8
実形
100
AcDbLine
 10
1913.975253562778
 20
1062.0779087747
 30
0.0
 11
1924.975253562777
 21
1062.0779087747
 31
0.0
  0
LINE
  5
337
330
1F
100
AcDbEntity
  8
実形
100
AcDbLine
 10
1927.975253562777
 20
1065.0779087747
 30
0.0
 11
1927.975253562777
 21
1072.0779087747
 31
0.0
  0
LINE
  5
338
330
1F
100
AcDbEntity
  8
実形
100
AcDbLine
 10
1932.975253562777
 20
1077.0779087747
 30
0.0
 11
2078.788315297765
 21
1077.0779087747
 31
0.0
  0
LINE
  5
339
330
1F
100
AcDbEntity
  8
実形
100
AcDbLine
 10
2112.975253562777
 20
1266.5779087747
 30
0.0
 11
2112.975253562778
 21
1457.0779087747
 31
0.0
  0
LINE
  5
33A
330
1F
100
AcDbEntity
  8
実形
100
AcDbLine
 10
2082.975253562778
 20
1487.0779087747
 30
0.0
 11
1932.975253562778
 21
1487.0779087747
 31
0.0
  0
LINE
  5
33B
330
1F
100
AcDbEntity
  8
実形
100
AcDbLine
 10
1927.975253562778
 20
1492.0779087747
 30
0.0
 11
1927.975253562777
 21
1499.0779087747
 31
0.0
  0
LINE
  5
33C
330
1F
100
AcDbEntity
  8
実形
100
AcDbLine
 10
1924.975253562777
 20
1502.0779087747
 30
0.0
 11
1922.375253562777
 21
1502.0779087747
 31
0.0
  0
LINE
  5
33D
330
1F
100
AcDbEntity
  8
実形
100
AcDbLine
 10
1919.375253562778
 20
1505.0779087747
 30
0.0
 11
1919.375253562778
 21
1507.0779087747
 31
0.0
  0
LINE
  5
353
330
1F
100
AcDbEntity
  8
実形
100
AcDbLine
 10
1912.975253562778
 20
1061.0779087747
 30
0.0
 11
1912.975253562778
 21
1047.0779087747
 31
0.0
  0
ARC
  5
355
330
1F
100
AcDbEntity
  8
実形
100
AcDbCircle
 10
1913.975253562778
 20
1061.0779087747
 30
0.0
 40
1.0
100
AcDbArc
 50
90.0
 51
180.0
  0
ARC
  5
359
330
1F
100
AcDbEntity
  8
実形
100
AcDbCircle
 10
1922.375253562777
 20
1505.0779087747
 30
0.0
 40
3.0
100
AcDbArc
 50
180.0
 51
270.0
  0
ARC
  5
35A
330
1F
100
AcDbEntity
  8
実形
100
AcDbCircle
 10
1924.975253562777
 20
1499.0779087747
 30
0.0
 40
3.0
100
AcDbArc
 50
0.0
 51
90.00000000000234
  0
ARC
  5
35C
330
1F
100
AcDbEntity
  8
実形
100
AcDbCircle
 10
1932.975253562777
 20
1072.0779087747
 30
0.0
 40
5.0
100
AcDbArc
 50
90.0
 51
180.0
  0
ARC
  5
35D
330
1F
100
AcDbEntity
  8
実形
100
AcDbCircle
 10
1932.975253562778
 20
1492.0779087747
 30
0.0
 40
5.0
100
AcDbArc
 50
180.0
 51
270.0
  0
ARC
  5
360
330
1F
100
AcDbEntity
  8
実形
100
AcDbCircle
 10
2082.975253562778
 20
1457.0779087747
 30
0.0
 40
30.0
100
AcDbArc
 50
0.0
 51
90.0
  0
LINE
  5
361
330
1F
100
AcDbEntity
  8
実形
100
AcDbLine
 10
2112.975253562778
 20
1266.5779087747
 30
0.0
 11
2108.778035047032
 21
1106.292600325464
 31
0.0
  0
ARC
  5
362
330
1F
100
AcDbEntity
  8
実形
100
AcDbCircle
 10
2078.788315297765
 20
1107.0779087747
 30
0.0
 40
30.0
100
AcDbArc
 50
270.0
 51
358.4999999999999
  0
LINE
  5
363
330
1F
100
AcDbEntity
  8
実形
100
AcDbLine
 10
1912.975253562778
 20
1507.0779087747
 30
0.0
 11
1912.975253562778
 21
1047.0779087747
 31
0.0
  0
ARC
  5
377
330
1F
100
AcDbEntity
  8
実形
100
AcDbCircle
 10
1924.975253562777
 20
1065.0779087747
 30
0.0
 40
3.0
100
AcDbArc
 50
270.0
 51
0.0
  0
DIMENSION
  5
3E9
330
1F
100
AcDbEntity
  8
寸法
100
AcDbDimension
  2
*D4
 10
1209.29708326057
 20
1487.0779087747
 30
0.0
 11
1190.547083260569
 21
1422.077908774701
 31
0.0
 70
    32
 71
     5
 42
130.0
  3
ISO-25
100
AcDbAlignedDimension
 13
1413.363420890898
 23
1357.0779087747
 33
0.0
 14
1209.29708326057
 24
1487.0779087747
 34
0.0
 50
90.0
100
AcDbRotatedDimension
1001
ACAD
1000
DSTYLE
1002
{
1070
    76
1070
     1
1070
    75
1070
     0
1002
}
  0
DIMENSION
  5
3F6
330
1F
100
AcDbEntity
  8
寸法
100
AcDbDimension
  2
*D5
 10
1628.496834872258
 20
1204.485142503699
 30
0.0
 11
1553.496834872259
 21
1223.235142503699
 31
0.0
 70
    32
 71
     5
 42
150.0
  3
ISO-25
100
AcDbAlignedDimension
 13
1478.496834872258
 23
1277.577908774701
 33
0.0
 14
1628.496834872258
 24
1266.5779087747
 34
0.0
 50
180.0
100
AcDbRotatedDimension
  0
DIMENSION
  5
40C
330
1F
100
AcDbEntity
  8
寸法
100
AcDbDimension
  2
*D6
 10
709.6129189790609
 20
1077.0779087747
 30
0.0
 11
685.2982955093521
 21
1087.081101536435
 31
0.0
 70
   160
 71
     5
 42
15.0
  3
ISO-25
100
AcDbAlignedDimension
 13
813.4968348722587
 23
1062.0779087747
 33
0.0
 14
813.4968348722587
 24
1077.0779087747
 34
0.0
 50
90.0
100
AcDbRotatedDimension
1001
ACAD
1000
DSTYLE
1002
{
1070
   279
1070
     2
1002
}
  0
DIMENSION
  5
41A
330
1F
100
AcDbEntity
  8
寸法
100
AcDbDimension
  2
*D7
 10
709.7011740106992
 20
1487.0779087747
 30
0.0
 11
690.951174010699
 21
1282.077908774701
 31
0.0
 70
    32
 71
     5
 42
410.0
  3
ISO-25
100
AcDbAlignedDimension
 13
813.4968348722587
 23
1077.0779087747
 33
0.0
 14
813.4968348722587
 24
1487.0779087747
 34
0.0
 50
90.0
100
AcDbRotatedDimension
1001
ACAD
1000
DSTYLE
1002
{
1070
   279
1070
     1
1002
}
  0
DIMENSION
  5
427
330
1F
100
AcDbEntity
  8
寸法
100
AcDbDimension
  2
*D8
 10
709.7011740106992
 20
1502.0779087747
 30
0.0
 11
682.2589634044288
 21
1478.844760317754
 31
0.0
 70
   160
 71
     5
 42
15.0
  3
ISO-25
100
AcDbAlignedDimension
 13
813.4968348722587
 23
1487.0779087747
 33
0.0
 14
813.4968348722587
 24
1502.0779087747
 34
0.0
 50
90.0
100
AcDbRotatedDimension
1001
ACAD
1000
DSTYLE
1002
{
1070
   279
1070
     2
1002
}
  0
DIMENSION
  5
459
330
1F
100
AcDbEntity
  8
寸法
100
AcDbDimension
  2
*D9
 10
633.2087317711421
 20
1062.0779087747
 30
0.0
 11
614.4587317711419
 21
1282.077908774701
 31
0.0
 70
    32
 71
     5
 42
440.0
  3
ISO-25
100
AcDbAlignedDimension
 13
813.4968348722587
 23
1502.0779087747
 33
0.0
 14
813.4968348722587
 24
1062.0779087747
 34
0.0
 50
90.0
100
AcDbRotatedDimension
  0
DIMENSION
  5
466
330
1F
100
AcDbEntity
  8
寸法
100
AcDbDimension
  2
*D10
 10
633.2087317711421
 20
1582.0779087747
 30
0.0
 11
614.4587317711418
 21
1542.0779087747
 31
0.0
 70
    32
 71
     5
 42
80.0
  3
ISO-25
100
AcDbAlignedDimension
 13
813.4968348722587
 23
1502.0779087747
 33
0.0
 14
813.4968348722587
 24
1582.0779087747
 34
0.0
 50
90.0
100
AcDbRotatedDimension
  0
DIMENSION
  5
47C
330
1F
100
AcDbEntity
  8
寸法
100
AcDbDimension
  2
*D11
 10
633.2087317711421
 20
1597.0779087747
 30
0.0
 11
643.7238220765439
 21
1624.004628055033
 31
0.0
 70
   160
 71
     5
 42
15.0
  3
ISO-25
100
AcDbAlignedDimension
 13
813.4968348722587
 23
1582.0779087747
 33
0.0
 14
813.4968348722587
 24
1597.0779087747
 34
0.0
 50
90.0
100
AcDbRotatedDimension
1001
ACAD
1000
DSTYLE
1002
{
1070
   279
1070
     1
1002
}
  0
DIMENSION
  5
492
330
1F
100
AcDbEntity
  8
寸法
100
AcDbDimension
  2
*D12
 10
555.6599480609638
 20
1047.0779087747
 30
0.0
 11
536.9099480609637
 21
1322.077908774701
 31
0.0
 70
    32
 71
     5
 42
550.0
  3
ISO-25
100
AcDbAlignedDimension
 13
813.4968348722587
 23
1597.0779087747
 33
0.0
 14
813.4968348722587
 24
1047.0779087747
 34
0.0
 50
90.0
100
AcDbRotatedDimension
  0
DIMENSION
  5
4C3
330
1F
100
AcDbEntity
  8
寸法
100
AcDbDimension
  2
*D13
 10
633.2087317711421
 20
1047.0779087747
 30
0.0
 11
633.2087317711419
 21
1119.994575441367
 31
0.0
 70
   160
 71
     5
 42
15.0
  3
ISO-25
100
AcDbAlignedDimension
 13
813.4968348722587
 23
1062.0779087747
 33
0.0
 14
813.4968348722587
 24
1047.0779087747
 34
0.0
 50
90.0
100
AcDbRotatedDimension
  0
DIMENSION
  5
4E5
330
1F
100
AcDbEntity
  8
寸法
100
AcDbDimension
  2
*D14
 10
1628.496834872258
 20
929.8545833737954
 30
0.0
 11
1597.096736801193
 21
948.9008942390192
 31
0.0
 70
   160
 71
     5
 42
15.0
  3
ISO-25
100
AcDbAlignedDimension
 13
1643.496834872259
 23
1047.0779087747
 33
0.0
 14
1628.496834872258
 24
1047.0779087747
 34
0.0
 50
180.0
100
AcDbRotatedDimension
1001
ACAD
1000
DSTYLE
1002
{
1070
   279
1070
     2
1002
}
  0
DIMENSION
  5
4FD
330
1F
100
AcDbEntity
  8
寸法
100
AcDbDimension
  2
*D15
 10
828.4968348722586
 20
929.8545833737954
 30
0.0
 11
1228.496834872258
 21
948.6045833737954
 31
0.0
 70
    32
 71
     5
 42
800.0
  3
ISO-25
100
AcDbAlignedDimension
 13
1628.496834872258
 23
1047.0779087747
 33
0.0
 14
828.4968348722586
 24
1047.0779087747
 34
0.0
 50
180.0
100
AcDbRotatedDimension
1001
ACAD
1000
DSTYLE
1002
{
1070
   279
1070
     1
1002
}
  0
DIMENSION
  5
50A
330
1F
100
AcDbEntity
  8
寸法
100
AcDbDimension
  2
*D16
 10
813.4968348722587
 20
929.8545833737954
 30
0.0
 11
860.0596579547017
 21
935.2347189135716
 31
0.0
 70
   160
 71
     5
 42
15.0
  3
ISO-25
100
AcDbAlignedDimension
 13
828.4968348722586
 23
1047.0779087747
 33
0.0
 14
813.4968348722587
 24
1047.0779087747
 34
0.0
 50
180.0
100
AcDbRotatedDimension
1001
ACAD
1000
DSTYLE
1002
{
1070
   279
1070
     1
1002
}
  0
DIMENSION
  5
522
330
1F
100
AcDbEntity
  8
寸法
100
AcDbDimension
  2
*D17
 10
813.4968348722587
 20
855.7341681401357
 30
0.0
 11
1228.496834872258
 21
874.4841681401357
 31
0.0
 70
    33
 71
     5
 42
830.0
  3
ISO-25
100
AcDbAlignedDimension
 13
1643.496834872259
 23
1047.0779087747
 33
0.0
 14
813.4968348722587
 24
1047.0779087747
 34
0.0
  0
ARC
  5
570
330
1F
100
AcDbEntity
  8
寸法
100
AcDbCircle
 10
1237.996834872263
 20
447.0779087747003
 30
0.0
 40
346.6490970545442
100
AcDbArc
 50
178.4999999999999
 51
180.0
  0
TEXT
  5
571
330
1F
100
AcDbEntity
  8
寸法
100
AcDbText
 10
861.5297303116586
 20
411.0518405854511
 30
0.0
 40
25.0
  1
1.5゜
 11
861.5297303116586
 21
407.7185072521179
 31
0.0
100
AcDbText
 73
     1
  0
DIMENSION
  5
63C
330
1F
100
AcDbEntity
  8
寸法
100
AcDbDimension
  2
*D18
 10
1919.375253562778
 20
1383.68017662416
 30
0.0
 11
1869.475405211481
 21
1392.815208518706
 31
0.0
 70
   160
 71
     5
 42
6.40000000000009
  3
ISO-25
100
AcDbAlignedDimension
 13
1912.975253562778
 23
1502.0779087747
 33
0.0
 14
1919.375253562778
 24
1502.0779087747
 34
0.0
100
AcDbRotatedDimension
1001
ACAD
1000
DSTYLE
1002
{
1070
   282
1070
     1
1070
   281
1070
     1
1070
   279
1070
     2
1002
}
  0
DIMENSION
  5
66C
330
1F
100
AcDbEntity
  8
寸法
100
AcDbDimension
  2
*D19
 10
1927.975253562777
 20
1383.68017662416
 30
0.0
 11
1962.113616767069
 21
1391.563352498199
 31
0.0
 70
   160
 71
     5
 42
8.599999999999909
  3
ISO-25
100
AcDbAlignedDimension
 13
1919.375253562778
 23
1502.0779087747
 33
0.0
 14
1927.975253562777
 24
1502.0779087747
 34
0.0
100
AcDbRotatedDimension
1001
ACAD
1000
DSTYLE
1002
{
1070
   282
1070
     1
1070
   281
1070
     1
1070
   279
1070
     2
1002
}
  0
DIMENSION
  5
6AA
330
1F
100
AcDbEntity
  8
寸法
100
AcDbDimension
  2
*D20
 10
1927.975253562777
 20
1334.095835324805
 30
0.0
 11
1873.315707761106
 21
1334.380763936077
 31
0.0
 70
   160
 71
     5
 42
15.0
  3
ISO-25
100
AcDbAlignedDimension
 13
1912.975253562778
 23
1487.0779087747
 33
0.0
 14
1927.975253562777
 24
1487.0779087747
 34
0.0
100
AcDbRotatedDimension
1001
ACAD
1000
DSTYLE
1002
{
1070
   279
1070
     2
1002
}
  0
DIMENSION
  5
6EA
330
1F
100
AcDbEntity
  8
寸法
100
AcDbDimension
  2
*D21
 10
2231.547098234166
 20
1277.577908774701
 30
0.0
 11
2231.547098234166
 21
1356.285900731827
 31
0.0
 70
   160
  1
158%%C
 71
     5
 42
159.0
  3
ISO-25
100
AcDbAlignedDimension
 13
2119.975253562778
 23
1436.5779087747
 33
0.0
 14
2119.975253562778
 24
1277.577908774701
 34
0.0
 50
90.0
100
AcDbRotatedDimension
  0
DIMENSION
  5
77B
330
1F
100
AcDbEntity
  8
寸法
100
AcDbDimension
  2
*D22
 10
2059.511514796633
 20
1266.5779087747
 30
0.0
 11
2059.511514796632
 21
1357.077908774701
 31
0.0
 70
   160
  1
181%%C
 71
     5
 42
181.0
  3
ISO-25
100
AcDbAlignedDimension
 13
2167.214639385909
 23
1447.5779087747
 33
0.0
 14
2167.214639385909
 24
1266.5779087747
 34
0.0
 50
90.0
100
AcDbRotatedDimension
  0
MTEXT
  5
8A3
330
1F
100
AcDbEntity
  8
寸法
100
AcDbMText
 10
1016.661105427213
 20
1546.232370282516
 30
0.0
 40
25.0
 41
32.83443361350692
 71
     9
 72
     1
  1
75R
 73
     1
 44
1.0
1001
ACAD
1000
MTEXTBEGIN
1070
    73
1070
     1
1070
    44
1040
1.0
1070
    74
1070
     0
1000
MTEXTEND
  0
LEADER
  5
8A7
330
1F
100
AcDbEntity
  8
寸法
100
AcDbLeader
  3
ISO-25
 40
25.0
 41
66.66666666666666
 76
     2
 10
861.4241517413566
 20
1584.809376751466
 30
0.0
 10
938.1326449586932
 20
1560.785405812428
 30
0.0
211
-1.0
221
0.0
231
0.0
210
0.0
220
0.0
230
-1.0
213
0.0
223
12.5
233
0.0
1001
ACAD
1000
DSTYLE
1002
{
1070
   147
1040
6.25
1070
    77
1070
     0
1070
    41
1040
20.0
1070
   342
1005
DA
1002
}
  0
LEADER
  5
8DB
330
1F
100
AcDbEntity
  8
寸法
100
AcDbLeader
  3
ISO-25
 40
66.66666666666666
 41
87.5
 76
     2
 10
1421.968523396913
 20
1085.686233766178
 30
0.0
 10
1393.824725537878
 20
1125.52512049304
 30
0.0
211
-1.0
221
0.0
231
0.0
210
0.0
220
0.0
230
-1.0
213
0.0
223
-12.5
233
0.0
1001
ACAD
1000
DSTYLE
1002
{
1070
   147
1040
6.25
1070
    77
1070
     0
1070
    41
1040
20.0
1070
   342
1005
DA
1002
}
  0
TEXT
  5
8DD
330
1F
100
AcDbEntity
  8
寸法
100
AcDbText
 10
1271.137195922204
 20
1130.465082912755
 30
0.0
 40
25.0
  1
4600R
 11
1271.137195922204
 21
1127.131749579422
 31
0.0
100
AcDbText
 73
     1
  0
LEADER
  5
914
330
1F
100
AcDbEntity
  8
寸法
100
AcDbLeader
  3
ISO-25
 40
25.0
 41
62.5
 76
     2
 10
2108.303506864394
 20
1476.06074221716
 30
0.0
 10
2154.882530740652
 20
1508.515637876426
 30
0.0
213
0.0
223
-12.5
233
0.0
1001
ACAD
1000
DSTYLE
1002
{
1070
   147
1040
6.25
1070
    77
1070
     0
1070
    41
1040
25.0
1070
   342
1005
DA
1002
}
  0
TEXT
  5
918
330
1F
100
AcDbEntity
  8
寸法
100
AcDbText
 10
2165.360126828785
 20
1507.468704222991
 30
0.0
 40
25.0
  1
30R
 11
2165.360126828785
 21
1504.135370889658
 31
0.0
100
AcDbText
 73
     1
  0
CIRCLE
  5
BD6
330
1F
100
AcDbEntity
  8
センター
  6
HIDDEN2
 48
2.5
100
AcDbCircle
 10
831.5654806867124
 20
646.976610513685
 30
0.0
 40
52.44287595353882
  0
ARC
  5
BD7
330
1F
100
AcDbEntity
  8
センター
  6
Continuous
100
AcDbCircle
 10
518.0077921030406
 20
463.6352227820589
 30
0.0
 40
353.8763136327953
100
AcDbArc
 50
38.56928211716186
 51
80.6584250076038
  0
LINE
  5
BD9
330
1F
100
AcDbEntity
  8
センター
100
AcDbLine
 10
618.0720241283388
 20
817.7414862279784
 30
0.0
 11
575.4489462274761
 21
812.8184972428918
 31
0.0
  0
LINE
  5
BDA
330
1F
100
AcDbEntity
  8
センター
100
AcDbLine
 10
575.4489462274761
 20
812.8184972428918
 30
0.0
 11
613.9832709845368
 21
787.1000151942371
 31
0.0
  0
LEADER
  5
C20
330
1F
100
AcDbEntity
  8
実形
100
AcDbLeader
  3
ISO-25
 40
25.0
 41
16.66666666666666
 76
     2
 10
848.5547661800245
 20
1557.812169845634
 30
0.0
 10
894.0616906960086
 20
1532.414190201784
 30
0.0
211
-1.0
221
0.0
231
0.0
210
0.0
220
0.0
230
-1.0
213
0.0
223
12.5
233
0.0
1001
ACAD
1000
DSTYLE
1002
{
1070
   147
1040
6.25
1070
    77
1070
     0
1070
    41
1040
20.0
1070
   342
1005
DA
1002
}
  0
LEADER
  5
C24
330
1F
100
AcDbEntity
  8
実形
100
AcDbLeader
  3
ISO-25
 40
25.0
 41
16.66666666666666
 76
     2
 10
856.123564427002
 20
1484.501333032225
 30
0.0
 10
924.3938103526025
 20
1454.393524991538
 30
0.0
211
-1.0
221
0.0
231
0.0
210
0.0
220
0.0
230
-1.0
213
0.0
223
12.5
233
0.0
1001
ACAD
1000
DSTYLE
1002
{
1070
   147
1040
6.25
1070
    77
1070
     0
1070
    41
1040
20.0
1070
   342
1005
DA
1002
}
  0
LEADER
  5
C26
330
1F
100
AcDbEntity
  8
実形
100
AcDbLeader
  3
ISO-25
 40
25.0
 41
16.66666666666666
 76
     2
 10
859.3830036323948
 20
1443.240139299883
 30
0.0
 10
896.9048841086705
 20
1401.730380509489
 30
0.0
211
-1.0
221
0.0
231
0.0
210
0.0
220
0.0
230
-1.0
213
0.0
223
12.5
233
0.0
1001
ACAD
1000
DSTYLE
1002
{
1070
   147
1040
6.25
1070
    77
1070
     0
1070
    41
1040
20.0
1070
   342
1005
DA
1002
}
  0
LEADER
  5
C29
330
1F
100
AcDbEntity
  8
実形
100
AcDbLeader
  3
ISO-25
 40
74.99999999999999
 41
41.66666666666666
 76
     2
 10
835.3662521753024
 20
1282.171991867024
 30
0.0
 10
894.6531976009673
 20
1282.171991867024
 30
0.0
211
-1.0
221
0.0
231
0.0
210
0.0
220
0.0
230
-1.0
213
0.0
223
12.5
233
0.0
1001
ACAD
1000
DSTYLE
1002
{
1070
   147
1040
6.25
1070
    77
1070
     0
1070
    41
1040
20.0
1070
   342
1005
DA
1002
}
  0
TEXT
  5
C2B
330
1F
100
AcDbEntity
  8
実形
100
AcDbText
 10
933.6750534971134
 20
1436.628756116451
 30
0.0
 40
25.0
  1
60R
 72
     2
 11
996.1750534971134
 21
1433.295422783118
 31
0.0
100
AcDbText
 73
     1
  0
TEXT
  5
C2C
330
1F
100
AcDbEntity
  8
実形
100
AcDbText
 10
905.3764954402058
 20
1372.392764989538
 30
0.0
 40
25.0
  1
100R
 72
     2
 11
980.3764954402058
 21
1369.059431656205
 31
0.0
100
AcDbText
 73
     1
  0
TEXT
  5
C2D
330
1F
100
AcDbEntity
  8
実形
100
AcDbText
 10
901.7168694960009
 20
1508.580665166042
 30
0.0
 40
25.0
  1
60R
 72
     2
 11
964.2168694960009
 21
1533.580665166042
 31
0.0
100
AcDbText
 73
     3
  0
TEXT
  5
C2E
330
1F
100
AcDbEntity
  8
実形
100
AcDbText
 10
909.7975636327104
 20
1269.671991867024
 30
0.0
 40
25.0
  1
2000R
 72
     2
 11
1013.964230299377
 21
1282.171991867024
 31
0.0
100
AcDbText
 73
     2
  0
LEADER
  5
CB8
330
1F
100
AcDbEntity
  8
実形
100
AcDbLeader
  3
ISO-25
 76
     2
 10
845.3898510822996
 20
470.3801909243426
 30
0.0
 10
888.5816816320065
 20
509.3516584484651
 30
0.0
211
-1.0
221
0.0
231
0.0
210
0.0
220
0.0
230
-1.0
1001
ACAD
1000
DSTYLE
1002
{
1070
   147
1040
6.25
1070
    77
1070
     0
1070
    41
1040
20.0
1070
   342
1005
DA
1002
}
  0
LEADER
  5
CB9
330
1F
100
AcDbEntity
  8
実形
100
AcDbLeader
  3
ISO-25
 76
     2
 10
1612.371102929496
 20
458.879574336818
 30
0.0
 10
1571.721349288164
 20
499.5116710841775
 30
0.0
211
-1.0
221
0.0
231
0.0
210
0.0
220
0.0
230
-1.0
1001
ACAD
1000
DSTYLE
1002
{
1070
   147
1040
6.25
1070
    77
1070
     0
1070
    41
1040
20.0
1070
   342
1005
DA
1002
}
  0
LEADER
  5
CBA
330
1F
100
AcDbEntity
  8
実形
100
AcDbLeader
  3
ISO-25
 76
     2
 10
1933.11076463392
 20
1072.89552841614
 30
0.0
 10
1967.72505200626
 20
1035.173547228066
 30
0.0
1001
ACAD
1000
DSTYLE
1002
{
1070
   147
1040
6.25
1070
    77
1070
     0
1070
    41
1040
20.0
1070
   342
1005
DA
1002
}
  0
LEADER
  5
CBD
330
1F
100
AcDbEntity
  8
実形
100
AcDbLeader
  3
ISO-25
 76
     2
 10
1924.221347695433
 20
1065.398373298435
 30
0.0
 10
1873.818913894685
 20
1101.360461761564
 30
0.0
1001
ACAD
1000
DSTYLE
1002
{
1070
   147
1040
6.25
1070
    77
1070
     0
1070
    41
1040
20.0
1070
   342
1005
DA
1002
}
  0
LEADER
  5
CBE
330
1F
100
AcDbEntity
  8
実形
100
AcDbLeader
  3
ISO-25
 76
     2
 10
2098.083023530675
 20
1090.348775030742
 30
0.0
 10
2060.428253020162
 20
1126.588127719699
 30
0.0
1001
ACAD
1000
DSTYLE
1002
{
1070
   147
1040
6.25
1070
    77
1070
     0
1070
    41
1040
20.0
1070
   342
1005
DA
1002
}
  0
TEXT
  5
CBF
330
1F
100
AcDbEntity
  8
寸法
100
AcDbText
 10
1978.429468912672
 20
1124.638222893141
 30
0.0
 40
25.0
  1
30R
 11
1978.429468912672
 21
1121.304889559807
 31
0.0
100
AcDbText
 73
     1
  0
TEXT
  5
CC0
330
1F
100
AcDbEntity
  8
寸法
100
AcDbText
 10
1824.388642990153
 20
1094.82751332579
 30
0.0
 40
25.0
  1
3R
 11
1824.388642990153
 21
1091.494179992457
 31
0.0
100
AcDbText
 73
     1
  0
TEXT
  5
CC1
330
1F
100
AcDbEntity
  8
寸法
100
AcDbText
 10
1977.693688471622
 20
1013.685985003679
 30
0.0
 40
25.0
  1
5R
 11
1977.693688471622
 21
1010.352651670346
 31
0.0
100
AcDbText
 73
     1
  0
TEXT
  5
CC2
330
1F
100
AcDbEntity
  8
寸法
100
AcDbText
 10
1502.720852704186
 20
502.8549093940594
 30
0.0
 40
25.0
  1
30R
 11
1502.720852704186
 21
499.5215760607261
 31
0.0
100
AcDbText
 73
     1
  0
TEXT
  5
CC3
330
1F
100
AcDbEntity
  8
寸法
100
AcDbText
 10
894.9173349068505
 20
508.3743530203315
 30
0.0
 40
25.0
  1
30R
 11
894.9173349068505
 21
505.0410196869981
 31
0.0
100
AcDbText
 73
     1
  0
TEXT
  5
DC3
330
1F
100
AcDbEntity
  8
0
100
AcDbText
 10
191.7098177320886
 20
90.06009540427749
 30
0.0
 40
30.0
  1
※実寸には製造上の誤差が多少生ずる場合があります。シンクの穴あけ加工は現物合わせにてお願いします。
100
AcDbText
  0
DIMENSION
  5
EB5
330
1F
100
AcDbEntity
  8
実形
100
AcDbDimension
  2
*D23
 10
1912.975253562778
 20
1383.68017662416
 30
0.0
 11
1920.475253562777
 21
1383.68017662416
 31
0.0
 70
    32
  1
 
 71
     5
 42
15.0
  3
ISO-25
100
AcDbAlignedDimension
 13
1927.975253562777
 23
1502.0779087747
 33
0.0
 14
1912.975253562778
 24
1502.0779087747
 34
0.0
100
AcDbRotatedDimension
1001
ACAD
1000
DSTYLE
1002
{
1070
   279
1070
     2
1070
   343
1005
D0
1070
   173
1070
     1
1070
   344
1005
D0
1070
    41
1040
30.0
1070
   342
1005
0
1002
}
  0
CIRCLE
  5
EFC
102
{ACAD_REACTORS
330
F0C
102
}
330
1F
100
AcDbEntity
  8
実形
100
AcDbCircle
 10
1919.375253562778
 20
1383.68017662416
 30
0.0
 40
2.5
  0
HATCH
  5
F0C
330
1F
100
AcDbEntity
  8
実形
100
AcDbHatch
 10
0.0
 20
0.0
 30
0.0
210
0.0
220
0.0
230
1.0
  2
SOLID
 70
     1
 71
     1
 91
        1
 92
        7
 72
     1
 73
     1
 93
        2
 10
1921.875253562778
 20
1383.68017662416
 42
1.0
 10
1916.875253562778
 20
1383.68017662416
 42
1.0
 97
        1
330
EFC
 75
     0
 76
     1
 47
0.4047791916358173
 98
        1
 10
1919.413778542818
 20
1384.087744285036
  0
TEXT
  5
FFB
330
1F
100
AcDbEntity
  8
補助
100
AcDbText
 10
2086.666666666667
 20
84.0
 30
0.0
 40
35.0
  1
尺度
 72
     4
 11
2124.0
 21
101.5
 31
0.0
100
AcDbText
  0
TEXT
  5
FFC
330
1F
100
AcDbEntity
  8
補助
100
AcDbText
 10
2086.666666666667
 20
149.0
 30
0.0
 40
35.0
  1
品番
 72
     4
 11
2124.0
 21
166.5
 31
0.0
100
AcDbText
  0
LINE
  5
FFD
330
1F
100
AcDbEntity
  8
補助
100
AcDbLine
 10
2064.0
 20
69.0
 30
0.0
 11
2784.0
 21
69.0
 31
0.0
  0
LINE
  5
FFE
330
1F
100
AcDbEntity
  8
補助
100
AcDbLine
 10
2064.0
 20
199.0
 30
0.0
 11
2784.0
 21
199.0
 31
0.0
  0
LINE
  5
FFF
330
1F
100
AcDbEntity
  8
補助
100
AcDbLine
 10
2064.0
 20
134.0
 30
0.0
 11
2784.0
 21
134.0
 31
0.0
  0
LINE
  5
1000
330
1F
100
AcDbEntity
  8
補助
100
AcDbLine
 10
2064.0
 20
4.0
 30
0.0
 11
2064.0
 21
199.0
 31
0.0
  0
TEXT
  5
1001
330
1F
100
AcDbEntity
  8
補助
100
AcDbText
 10
2300.255774665348
 20
16.49999999999999
 30
0.0
 40
40.0
  1
中外交易株式会社
 72
     4
 11
2488.255774665347
 21
36.5
 31
0.0
100
AcDbText
  0
TEXT
  5
1002
330
1F
100
AcDbEntity
  8
0
100
AcDbText
 10
2296.633333333333
 20
149.0
 30
0.0
 40
35.0
  1
PRS800-520POR
 41
0.88
 72
     4
 11
2484.0
 21
166.5
 31
0.0
100
AcDbText
  0
LINE
  5
1003
330
1F
100
AcDbEntity
  8
補助
100
AcDbLine
 10
2184.0
 20
69.0
 30
0.0
 11
2784.0
 21
69.0
 31
0.0
  0
LINE
  5
1004
102
{ACAD_REACTORS
330
1011
102
}
330
1F
100
AcDbEntity
  8
補助
370
     5
100
AcDbLine
 10
2207.843923164362
 20
40.53787547858519
 30
0.0
 11
2183.255774665347
 21
40.53787547858519
 31
0.0
  0
LINE
  5
1005
102
{ACAD_REACTORS
330
1011
102
}
330
1F
100
AcDbEntity
  8
補助
370
     5
100
AcDbLine
 10
2183.255774665347
 20
40.53787547858519
 30
0.0
 11
2183.255774665347
 21
30.53787547858519
 31
0.0
  0
LINE
  5
1006
102
{ACAD_REACTORS
330
1011
102
}
330
1F
100
AcDbEntity
  8
補助
370
     5
100
AcDbLine
 10
2183.255774665347
 20
30.53787547858519
 30
0.0
 11
2207.346428692676
 21
30.53787547858514
 31
0.0
  0
LINE
  5
1007
102
{ACAD_REACTORS
330
1011
102
}
330
1F
100
AcDbEntity
  8
補助
370
     5
100
AcDbLine
 10
2210.641894042939
 20
56.5
 30
0.0
 11
2210.641894042939
 21
16.5
 31
0.0
  0
LINE
  5
1008
102
{ACAD_REACTORS
330
1011
102
}
330
1F
100
AcDbEntity
  8
補助
370
     5
100
AcDbLine
 10
2210.641894042939
 20
16.5
 30
0.0
 11
2245.64189404294
 21
16.5
 31
0.0
  0
LINE
  5
1009
102
{ACAD_REACTORS
330
1011
102
}
330
1F
100
AcDbEntity
  8
補助
370
     5
100
AcDbLine
 10
2245.64189404294
 20
16.5
 30
0.0
 11
2210.641894042939
 21
36.5
 31
0.0
  0
LINE
  5
100A
102
{ACAD_REACTORS
330
1011
102
}
330
1F
100
AcDbEntity
  8
補助
370
     5
100
AcDbLine
 10
2210.641894042939
 20
36.5
 30
0.0
 11
2245.64189404294
 21
56.5
 31
0.0
  0
LINE
  5
100B
102
{ACAD_REACTORS
330
1011
102
}
330
1F
100
AcDbEntity
  8
補助
370
     5
100
AcDbLine
 10
2245.64189404294
 20
56.5
 30
0.0
 11
2210.641894042939
 21
56.5
 31
0.0
  0
LINE
  5
100C
102
{ACAD_REACTORS
330
1011
102
}
330
1F
100
AcDbEntity
  8
補助
370
     5
100
AcDbLine
 10
2276.75434681301
 20
40.53787547858519
 30
0.0
 11
2252.166198313995
 21
40.53787547858519
 31
0.0
  0
LINE
  5
100D
102
{ACAD_REACTORS
330
1011
102
}
330
1F
100
AcDbEntity
  8
補助
370
     5
100
AcDbLine
 10
2252.166198313995
 20
40.53787547858519
 30
0.0
 11
2252.166198313995
 21
30.53787547858519
 31
0.0
  0
LINE
  5
100E
102
{ACAD_REACTORS
330
1011
102
}
330
1F
100
AcDbEntity
  8
補助
370
     5
100
AcDbLine
 10
2252.166198313995
 20
30.53787547858519
 30
0.0
 11
2276.256852341323
 21
30.53787547858514
 31
0.0
  0
ARC
  5
100F
102
{ACAD_REACTORS
330
1011
102
}
330
1F
100
AcDbEntity
  8
補助
370
     5
100
AcDbCircle
 10
2188.255774665348
 20
36.5
 30
0.0
 40
20.0
100
AcDbArc
 50
11.6477236670766
 51
342.6561058784746
  0
ARC
  5
1010
102
{ACAD_REACTORS
330
1011
102
}
330
1F
100
AcDbEntity
  8
補助
370
     5
100
AcDbCircle
 10
2257.166198313996
 20
36.5
 30
0.0
 40
20.0
100
AcDbArc
 50
11.6477236670766
 51
342.6561058784746
  0
HATCH
  5
1011
330
1F
100
AcDbEntity
  8
補助
100
AcDbHatch
 10
0.0
 20
0.0
 30
0.0
210
0.0
220
0.0
230
1.0
  2
SOLID
 70
     1
 71
     1
 91
        3
 92
        1
 93
        4
 72
     2
 10
2257.166198313996
 20
36.5
 40
20.0
 50
11.6477236670766
 51
342.6561058784746
 73
     1
 72
     1
 10
2276.256852341323
 20
30.53787547858514
 11
2252.166198313995
 21
30.53787547858519
 72
     1
 10
2252.166198313995
 20
30.53787547858519
 11
2252.166198313995
 21
40.53787547858519
 72
     1
 10
2252.166198313995
 20
40.53787547858519
 11
2276.75434681301
 21
40.53787547858519
 97
        4
330
1010
330
100E
330
100D
330
100C
 92
        1
 93
        4
 72
     2
 10
2188.255774665348
 20
36.5
 40
20.0
 50
11.6477236670766
 51
342.6561058784746
 73
     1
 72
     1
 10
2207.346428692676
 20
30.53787547858514
 11
2183.255774665347
 21
30.53787547858519
 72
     1
 10
2183.255774665347
 20
30.53787547858519
 11
2183.255774665347
 21
40.53787547858519
 72
     1
 10
2183.255774665347
 20
40.53787547858519
 11
2207.843923164362
 21
40.53787547858519
 97
        4
330
100F
330
1006
330
1005
330
1004
 92
        1
 93
        5
 72
     1
 10
2245.64189404294
 20
56.5
 11
2210.641894042939
 21
56.5
 72
     1
 10
2210.641894042939
 20
56.5
 11
2210.641894042939
 21
16.5
 72
     1
 10
2210.641894042939
 20
16.5
 11
2245.64189404294
 21
16.5
 72
     1
 10
2245.64189404294
 20
16.5
 11
2210.641894042939
 21
36.5
 72
     1
 10
2210.641894042939
 20
36.5
 11
2245.64189404294
 21
56.5
 97
        5
330
100B
330
1007
330
1008
330
1009
330
100A
 75
     0
 76
     1
 98
        1
 10
-60.0
 20
0.0
  0
LINE
  5
1012
330
1F
100
AcDbEntity
  8
補助
100
AcDbLine
 10
2184.0
 20
69.0
 30
0.0
 11
2184.0
 21
199.0
 31
0.0
  0
TEXT
  5
1013
330
1F
100
AcDbEntity
  8
0
100
AcDbText
 10
2430.916666666667
 20
84.0
 30
0.0
 40
35.0
  1
1：10
 72
     4
 11
2484.0
 21
101.5
 31
0.0
100
AcDbText
  0
LINE
  5
1014
330
1F
100
AcDbEntity
  8
補助
100
AcDbLine
 10
2784.0
 20
69.0
 30
0.0
 11
2784.0
 21
134.0
 31
0.0
  0
LINE
  5
1015
330
1F
100
AcDbEntity
  8
補助
100
AcDbLine
 10
2784.0
 20
134.0
 30
0.0
 11
2784.0
 21
199.0
 31
0.0
  0
LINE
  5
1016
330
1F
100
AcDbEntity
  8
補助
100
AcDbLine
 10
2784.0
 20
4.0
 30
0.0
 11
2784.0
 21
69.0
 31
0.0
  0
ARC
  5
13AD
330
1F
100
AcDbEntity
  8
実形
100
AcDbCircle
 10
2828.49683487226
 20
1282.0779087747
 30
0.0
 40
2000.0
100
AcDbArc
 50
177.1295622366263
 51
182.8704377633737
  0
ARC
  5
13AE
330
1F
100
AcDbEntity
  8
実形
100
AcDbCircle
 10
930.880711486939
 20
1186.930400830101
 30
0.0
 40
100.0
100
AcDbArc
 50
182.8704377633737
 51
266.2078658679404
  0
ARC
  5
13AF
330
1F
100
AcDbEntity
  8
実形
100
AcDbCircle
 10
1228.49683487226
 20
5677.077908774701
 30
0.0
 40
4600.0
100
AcDbArc
 50
266.2078658679404
 51
273.7921341320596
  0
ARC
  5
13B0
330
1F
100
AcDbEntity
  8
実形
100
AcDbCircle
 10
1526.11295825758
 20
1186.930400830101
 30
0.0
 40
100.0
100
AcDbArc
 50
273.7921341320596
 51
357.1295622366263
  0
ARC
  5
13B1
330
1F
100
AcDbEntity
  8
実形
100
AcDbCircle
 10
-371.5031651277404
 20
1282.0779087747
 30
0.0
 40
2000.0
100
AcDbArc
 50
357.1295622366263
 51
2.870437763373671
  0
ARC
  5
13B2
330
1F
100
AcDbEntity
  8
実形
100
AcDbCircle
 10
1526.11295825758
 20
1377.225416719299
 30
0.0
 40
100.0
100
AcDbArc
 50
2.870437763373671
 51
86.20786586794038
  0
ARC
  5
13B3
330
1F
100
AcDbEntity
  8
実形
100
AcDbCircle
 10
1228.49683487226
 20
-3112.9220912253
 30
0.0
 40
4600.0
100
AcDbArc
 50
86.20786586794038
 51
93.79213413205961
  0
ARC
  5
13B4
330
1F
100
AcDbEntity
  8
実形
100
AcDbCircle
 10
930.880711486939
 20
1377.225416719299
 30
0.0
 40
100.0
100
AcDbArc
 50
93.79213413205961
 51
177.1295622366263
  0
DIMENSION
  5
13C4
330
1F
100
AcDbEntity
  8
寸法
100
AcDbDimension
  2
*D24
 10
1210.196785953144
 20
1512.0779087747
 30
0.0
 11
1191.446785953144
 21
1542.0779087747
 31
0.0
 70
    33
 71
     5
 42
60.0
  3
ISO-25
100
AcDbAlignedDimension
 13
1337.49683487226
 23
1572.0779087747
 33
0.0
 14
1337.49683487226
 24
1512.0779087747
 34
0.0
  0
LINE
  5
164D
330
1F
100
AcDbEntity
  8
実形
100
AcDbLine
 10
1559.496834872258
 20
1512.167221230351
 30
0.0
 11
1327.496834872258
 21
1512.167221230351
 31
0.0
  0
LINE
  5
164E
330
1F
100
AcDbEntity
  8
実形
100
AcDbLine
 10
1559.496834872258
 20
1572.167221230351
 30
0.0
 11
1327.496834872258
 21
1572.167221230351
 31
0.0
  0
ARC
  5
164F
330
1F
100
AcDbEntity
  8
実形
100
AcDbCircle
 10
1559.496834872258
 20
1543.167221230351
 30
0.0
 40
29.0
100
AcDbArc
 50
0.0
 51
90.0
  0
ARC
  5
1650
330
1F
100
AcDbEntity
  8
実形
100
AcDbCircle
 10
1559.496834872258
 20
1541.16722123035
 30
0.0
 40
29.0
100
AcDbArc
 50
270.0
 51
0.0
  0
ARC
  5
1651
330
1F
100
AcDbEntity
  8
実形
100
AcDbCircle
 10
1327.496834872258
 20
1541.16722123035
 30
0.0
 40
29.0
100
AcDbArc
 50
180.0
 51
270.0
  0
ARC
  5
1652
330
1F
100
AcDbEntity
  8
実形
100
AcDbCircle
 10
1327.496834872258
 20
1543.167221230351
 30
0.0
 40
29.0
100
AcDbArc
 50
90.0
 51
180.0
  0
DIMENSION
  5
1653
330
1F
100
AcDbEntity
  8
寸法
100
AcDbDimension
  2
*D25
 10
1588.496834872258
 20
1676.498420458015
 30
0.0
 11
1443.496834872258
 21
1695.248420458015
 31
0.0
 70
    32
 71
     5
 42
290.0
  3
ISO-25
100
AcDbAlignedDimension
 13
1298.496834872258
 23
1572.16722123035
 33
0.0
 14
1588.496834872258
 24
1572.16722123035
 34
0.0
100
AcDbRotatedDimension
1001
ACAD
1000
DSTYLE
1002
{
1070
   279
1070
     1
1002
}
  0
LEADER
  5
1654
330
1F
100
AcDbEntity
  8
実形
100
AcDbLeader
  3
ISO-25
 40
74.99999999999999
 41
41.66666666666666
 76
     2
 10
1589.607267088063
 20
1548.922486611803
 30
0.0
 10
1613.122766589258
 20
1600.332963102115
 30
0.0
213
0.0
223
12.5
233
0.0
1001
ACAD
1000
DSTYLE
1002
{
1070
   147
1040
6.25
1070
    77
1070
     0
1070
    41
1040
20.0
1070
   342
1005
DA
1002
}
  0
TEXT
  5
1655
330
1F
100
AcDbEntity
  8
実形
100
AcDbText
 10
1594.713014787484
 20
1605.832444798997
 30
0.0
 40
25.0
  1
30R
 41
0.9
 72
     2
 11
1650.963014787484
 21
1618.332444798997
 31
0.0
100
AcDbText
 73
     2
  0
LINE
  5
1656
330
1F
100
AcDbEntity
  8
実形
370
    15
100
AcDbLine
 10
1368.463373585357
 20
1532.0779087747
 30
0.0
 11
1408.463373585357
 21
1532.077908774701
 31
0.0
  0
LINE
  5
1657
330
1F
100
AcDbEntity
  8
実形
370
    15
100
AcDbLine
 10
1418.463373585357
 20
1542.077908774701
 30
0.0
 11
1418.463373585357
 21
1542.077908774701
 31
0.0
  0
LINE
  5
1658
330
1F
100
AcDbEntity
  8
実形
370
    15
100
AcDbLine
 10
1408.463373585357
 20
1552.077908774701
 30
0.0
 11
1317.763316069136
 21
1552.0779087747
 31
0.0
  0
ARC
  5
1659
330
1F
100
AcDbEntity
  8
実形
370
    15
100
AcDbCircle
 10
1408.463373585357
 20
1542.077908774701
 30
0.0
 40
10.0
100
AcDbArc
 50
0.0
 51
90.0
  0
ARC
  5
165A
330
1F
100
AcDbEntity
  8
実形
370
    15
100
AcDbCircle
 10
1408.463373585357
 20
1542.077908774701
 30
0.0
 40
10.0
100
AcDbArc
 50
270.0
 51
0.0
  0
LINE
  5
165B
330
1F
100
AcDbEntity
  8
実形
370
    15
100
AcDbLine
 10
1319.096834872258
 20
1537.0779087747
 30
0.0
 11
1408.463373585357
 21
1537.077908774701
 31
0.0
  0
LINE
  5
165C
330
1F
100
AcDbEntity
  8
実形
370
    15
100
AcDbLine
 10
1408.463373585357
 20
1547.077908774701
 30
0.0
 11
1318.156011912413
 21
1547.0779087747
 31
0.0
  0
LINE
  5
165E
330
1F
100
AcDbEntity
  8
実形
370
    15
100
AcDbLine
 10
1408.463373585357
 20
1537.077908774701
 30
0.0
 11
1318.156011912413
 21
1537.0779087747
 31
0.0
  0
LINE
  5
165F
330
1F
100
AcDbEntity
  8
実形
370
    15
100
AcDbLine
 10
1408.463373585357
 20
1537.077908774701
 30
0.0
 11
1318.156011912413
 21
1537.0779087747
 31
0.0
  0
LINE
  5
1660
330
1F
100
AcDbEntity
  8
実形
370
    15
100
AcDbLine
 10
1408.463373585357
 20
1537.077908774701
 30
0.0
 11
1318.156011912413
 21
1537.0779087747
 31
0.0
  0
LINE
  5
1661
330
1F
100
AcDbEntity
  8
実形
370
    15
100
AcDbLine
 10
1408.463373585357
 20
1537.077908774701
 30
0.0
 11
1318.156011912413
 21
1537.0779087747
 31
0.0
  0
LINE
  5
1662
330
1F
100
AcDbEntity
  8
実形
370
    15
100
AcDbLine
 10
1408.463373585357
 20
1537.077908774701
 30
0.0
 11
1318.156011912413
 21
1537.0779087747
 31
0.0
  0
LINE
  5
1663
330
1F
100
AcDbEntity
  8
実形
370
    15
100
AcDbLine
 10
1408.463373585357
 20
1537.077908774701
 30
0.0
 11
1318.156011912413
 21
1537.0779087747
 31
0.0
  0
ARC
  5
1664
330
1F
100
AcDbEntity
  8
実形
370
    15
100
AcDbCircle
 10
1408.463373585357
 20
1542.077908774701
 30
0.0
 40
5.0
100
AcDbArc
 50
0.0
 51
90.0
  0
ARC
  5
1665
330
1F
100
AcDbEntity
  8
実形
370
    15
100
AcDbCircle
 10
1408.463373585357
 20
1542.077908774701
 30
0.0
 40
5.0
100
AcDbArc
 50
270.0
 51
0.0
  0
LINE
  5
1666
330
1F
100
AcDbEntity
  8
実形
370
    15
100
AcDbLine
 10
1468.463373585357
 20
1542.077908774701
 30
0.0
 11
1468.463373585357
 21
1542.077908774701
 31
0.0
  0
ARC
  5
1667
330
1F
100
AcDbEntity
  8
実形
370
    15
100
AcDbCircle
 10
1319.096834872258
 20
1542.16722123035
 30
0.0
 40
10.0
100
AcDbArc
 50
180.0
 51
270.0
  0
ARC
  5
1668
330
1F
100
AcDbEntity
  8
実形
370
    15
100
AcDbCircle
 10
1319.096834872258
 20
1542.16722123035
 30
0.0
 40
10.0
100
AcDbArc
 50
97.66332789946368
 51
180.0
  0
ARC
  5
1669
330
1F
100
AcDbEntity
  8
実形
370
    15
100
AcDbCircle
 10
1319.252630284666
 20
1542.231753803126
 30
0.0
 40
5.156199257937148
100
AcDbArc
 50
180.7171058390016
 51
268.2685350296829
  0
ARC
  5
166A
330
1F
100
AcDbEntity
  8
実形
370
    15
100
AcDbCircle
 10
1319.096834872258
 20
1542.16722123035
 30
0.0
 40
5.0
100
AcDbArc
 50
100.8456912240022
 51
180.0
  0
LINE
  5
166B
330
1F
100
AcDbEntity
  8
実形
100
AcDbLine
 10
1368.463373585357
 20
1532.0779087747
 30
0.0
 11
1320.425354353208
 21
1532.0779087747
 31
0.0
  0
LWPOLYLINE
  5
166C
330
1F
100
AcDbEntity
  8
実形
100
AcDbPolyline
 90
        2
 70
     0
 43
0.0
 10
1319.096834872258
 20
1532.16722123035
 10
1320.425354353208
 20
1532.0779087747
  0
LINE
  5
166D
330
1F
100
AcDbEntity
  8
実形
370
    15
100
AcDbLine
 10
1478.530296159159
 20
1552.077908774701
 30
0.0
 11
1569.23035367538
 21
1552.0779087747
 31
0.0
  0
ARC
  5
166E
330
1F
100
AcDbEntity
  8
実形
370
    15
100
AcDbCircle
 10
1478.530296159159
 20
1542.077908774701
 30
0.0
 40
10.0
100
AcDbArc
 50
90.0
 51
180.0
  0
ARC
  5
166F
330
1F
100
AcDbEntity
  8
実形
370
    15
100
AcDbCircle
 10
1478.664098405649
 20
1542.133331479872
 30
0.0
 40
10.13395380131631
100
AcDbArc
 50
180.3133528125276
 51
277.1375613778998
  0
LINE
  5
1670
330
1F
100
AcDbEntity
  8
実形
370
    15
100
AcDbLine
 10
1567.896834872258
 20
1537.0779087747
 30
0.0
 11
1478.530296159159
 21
1537.077908774701
 31
0.0
  0
LINE
  5
1671
330
1F
100
AcDbEntity
  8
実形
370
    15
100
AcDbLine
 10
1478.530296159159
 20
1547.077908774701
 30
0.0
 11
1568.837657832104
 21
1547.0779087747
 31
0.0
  0
ARC
  5
1672
330
1F
100
AcDbEntity
  8
実形
370
    15
100
AcDbCircle
 10
1478.530296159159
 20
1542.077908774701
 30
0.0
 40
5.0
100
AcDbArc
 50
90.0
 51
180.0
  0
ARC
  5
1673
330
1F
100
AcDbEntity
  8
実形
370
    15
100
AcDbCircle
 10
1478.530296159159
 20
1542.077908774701
 30
0.0
 40
5.0
100
AcDbArc
 50
180.0
 51
270.0
  0
ARC
  5
1674
330
1F
100
AcDbEntity
  8
実形
370
    15
100
AcDbCircle
 10
1567.896834872258
 20
1542.16722123035
 30
0.0
 40
10.0
100
AcDbArc
 50
270.0
 51
0.0
  0
ARC
  5
1675
330
1F
100
AcDbEntity
  8
実形
370
    15
100
AcDbCircle
 10
1567.896834872258
 20
1542.16722123035
 30
0.0
 40
10.0
100
AcDbArc
 50
0.0
 51
82.33667210053631
  0
ARC
  5
1676
330
1F
100
AcDbEntity
  8
実形
370
    15
100
AcDbCircle
 10
1567.741039459851
 20
1542.231753803126
 30
0.0
 40
5.156199257937148
100
AcDbArc
 50
271.7314649703171
 51
359.2828941609984
  0
ARC
  5
1677
330
1F
100
AcDbEntity
  8
実形
370
    15
100
AcDbCircle
 10
1567.896834872258
 20
1542.16722123035
 30
0.0
 40
5.0
100
AcDbArc
 50
0.0
 51
79.15430877599776
  0
LINE
  5
1678
330
1F
100
AcDbEntity
  8
実形
100
AcDbLine
 10
1518.53029615916
 20
1532.0779087747
 30
0.0
 11
1566.568315391308
 21
1532.0779087747
 31
0.0
  0
LINE
  5
1679
330
1F
100
AcDbEntity
  8
実形
100
AcDbLine
 10
1518.53029615916
 20
1532.0779087747
 30
0.0
 11
1479.923262361424
 21
1532.0779087747
 31
0.0
  0
ARC
  5
167B
330
1F
100
AcDbEntity
  8
実形
370
    15
100
AcDbCircle
 10
1443.496834872258
 20
1542.0779087747
 30
0.0
 40
12.5
100
AcDbArc
 50
282.555857798594
 51
347.4441422014061
  0
LINE
  5
167C
330
1F
100
AcDbEntity
  8
実形
370
    15
100
AcDbLine
 10
1432.271862711937
 20
1543.5779087747
 30
0.0
 11
1440.996834872258
 21
1543.5779087747
 31
0.0
  0
LINE
  5
167D
330
1F
100
AcDbEntity
  8
実形
370
    15
100
AcDbLine
 10
1432.271862711937
 20
1540.5779087747
 30
0.0
 11
1440.996834872258
 21
1540.5779087747
 31
0.0
  0
LINE
  5
167E
330
1F
100
AcDbEntity
  8
実形
370
    15
100
AcDbLine
 10
1444.996834872259
 20
1553.302880935022
 30
0.0
 11
1444.996834872259
 21
1544.5779087747
 31
0.0
  0
LINE
  5
167F
330
1F
100
AcDbEntity
  8
実形
370
    15
100
AcDbLine
 10
1441.996834872259
 20
1553.302880935022
 30
0.0
 11
1441.996834872259
 21
1544.5779087747
 31
0.0
  0
LINE
  5
1680
330
1F
100
AcDbEntity
  8
実形
370
    15
100
AcDbLine
 10
1441.996834872259
 20
1539.5779087747
 30
0.0
 11
1441.996834872259
 21
1530.852936614379
 31
0.0
  0
LINE
  5
1681
330
1F
100
AcDbEntity
  8
実形
370
    15
100
AcDbLine
 10
1445.996834872258
 20
1543.5779087747
 30
0.0
 11
1454.721807032581
 21
1543.577908774701
 31
0.0
  0
LINE
  5
1682
330
1F
100
AcDbEntity
  8
実形
370
    15
100
AcDbLine
 10
1444.996834872259
 20
1539.5779087747
 30
0.0
 11
1444.996834872259
 21
1530.852936614379
 31
0.0
  0
LINE
  5
1683
330
1F
100
AcDbEntity
  8
実形
370
    15
100
AcDbLine
 10
1445.996834872258
 20
1540.5779087747
 30
0.0
 11
1454.72180703258
 21
1540.5779087747
 31
0.0
  0
ARC
  5
1684
330
1F
100
AcDbEntity
  8
実形
370
    15
100
AcDbCircle
 10
1443.496834872258
 20
1542.0779087747
 30
0.0
 40
12.5
100
AcDbArc
 50
192.5558577985939
 51
257.4441422014061
  0
ARC
  5
1685
330
1F
100
AcDbEntity
  8
実形
370
    15
100
AcDbCircle
 10
1443.496834872258
 20
1542.0779087747
 30
0.0
 40
12.5
100
AcDbArc
 50
102.5558577985939
 51
167.444142201406
  0
ARC
  5
1686
330
1F
100
AcDbEntity
  8
実形
370
    15
100
AcDbCircle
 10
1443.496834872258
 20
1542.0779087747
 30
0.0
 40
12.5
100
AcDbArc
 50
12.55585779859394
 51
77.44414220140606
  0
ARC
  5
1687
330
1F
100
AcDbEntity
  8
実形
370
    15
100
AcDbCircle
 10
1445.996834872258
 20
1553.302880935022
 30
0.0
 40
1.0
100
AcDbArc
 50
77.44414220140606
 51
180.0
  0
ARC
  5
1688
330
1F
100
AcDbEntity
  8
実形
370
    15
100
AcDbCircle
 10
1454.721807032581
 20
1544.5779087747
 30
0.0
 40
1.0
100
AcDbArc
 50
270.0
 51
12.55585779859394
  0
ARC
  5
1689
330
1F
100
AcDbEntity
  8
実形
370
    15
100
AcDbCircle
 10
1454.72180703258
 20
1539.5779087747
 30
0.0
 40
1.0
100
AcDbArc
 50
347.4441422014061
 51
90.0
  0
ARC
  5
168A
330
1F
100
AcDbEntity
  8
実形
370
    15
100
AcDbCircle
 10
1445.996834872258
 20
1530.852936614379
 30
0.0
 40
1.0
100
AcDbArc
 50
180.0
 51
282.555857798594
  0
ARC
  5
168B
330
1F
100
AcDbEntity
  8
実形
370
    15
100
AcDbCircle
 10
1440.996834872258
 20
1530.852936614379
 30
0.0
 40
1.0
100
AcDbArc
 50
257.4441422014061
 51
0.0
  0
ARC
  5
168C
330
1F
100
AcDbEntity
  8
実形
370
    15
100
AcDbCircle
 10
1432.271862711937
 20
1539.577908774701
 30
0.0
 40
1.0
100
AcDbArc
 50
90.0
 51
192.5558577985685
  0
ARC
  5
168D
330
1F
100
AcDbEntity
  8
実形
370
    15
100
AcDbCircle
 10
1432.271862711937
 20
1544.577908774701
 30
0.0
 40
1.0
100
AcDbArc
 50
167.4441422014315
 51
270.0
  0
ARC
  5
168E
330
1F
100
AcDbEntity
  8
実形
370
    15
100
AcDbCircle
 10
1440.996834872258
 20
1553.302880935022
 30
0.0
 40
1.0
100
AcDbArc
 50
0.0
 51
102.5558577985939
  0
ARC
  5
168F
330
1F
100
AcDbEntity
  8
実形
370
    15
100
AcDbCircle
 10
1440.996834872258
 20
1539.5779087747
 30
0.0
 40
1.0
100
AcDbArc
 50
0.0
 51
90.0
  0
ARC
  5
1690
330
1F
100
AcDbEntity
  8
実形
370
    15
100
AcDbCircle
 10
1445.996834872258
 20
1539.5779087747
 30
0.0
 40
1.0
100
AcDbArc
 50
90.0
 51
180.0
  0
ARC
  5
1691
330
1F
100
AcDbEntity
  8
実形
370
    15
100
AcDbCircle
 10
1445.996834872258
 20
1544.5779087747
 30
0.0
 40
1.0
100
AcDbArc
 50
180.0
 51
270.0
  0
ARC
  5
1692
330
1F
100
AcDbEntity
  8
実形
370
    15
100
AcDbCircle
 10
1440.996834872258
 20
1544.5779087747
 30
0.0
 40
1.0
100
AcDbArc
 50
270.0
 51
0.0
  0
DIMENSION
  5
16A8
330
1F
100
AcDbEntity
  8
実形
100
AcDbDimension
  2
*D26
 10
1628.496834872258
 20
1676.498420458015
 30
0.0
 11
1608.496834872259
 21
1697.073343877162
 31
0.0
 70
   160
 71
     5
 42
40.0
  3
ISO-25
100
AcDbAlignedDimension
 13
1588.496834872259
 23
1541.16722123035
 33
0.0
 14
1628.496834872258
 24
1522.0779087747
 34
0.0
100
AcDbRotatedDimension
1001
ACAD
1000
DSTYLE
1002
{
1070
    76
1070
     1
1070
    75
1070
     1
1070
   279
1070
     2
1070
   289
1070
     2
1002
}
  0
LINE
  5
16C4
330
1F
100
AcDbEntity
  8
実形
100
AcDbLine
 10
1628.496834872258
 20
1676.498420458015
 30
0.0
 11
1628.496834872258
 21
1638.057991787461
 31
0.0
  0
LINE
  5
1714
330
1F
100
AcDbEntity
  8
実形
100
AcDbLine
 10
228.4097917478284
 20
875.7291359742566
 30
0.0
 11
328.4097917478284
 21
875.7291359742568
 31
0.0
  0
LINE
  5
1715
330
1F
100
AcDbEntity
  8
実形
100
AcDbLine
 10
368.4097917478284
 20
835.7291359742569
 30
0.0
 11
368.4097917478284
 21
685.7291359742567
 31
0.0
  0
LINE
  5
1716
330
1F
100
AcDbEntity
  8
実形
100
AcDbLine
 10
228.4097917478284
 20
885.7291359742566
 30
0.0
 11
228.4097917478284
 21
875.7291359742566
 31
0.0
  0
LINE
  5
1717
330
1F
100
AcDbEntity
  8
実形
100
AcDbLine
 10
228.4097917478284
 20
885.7291359742566
 30
0.0
 11
348.4097917478285
 21
885.7291359742568
 31
0.0
  0
LINE
  5
1718
330
1F
100
AcDbEntity
  8
実形
100
AcDbLine
 10
418.4097917478283
 20
821.7291359742567
 30
0.0
 11
505.8490899883845
 21
821.7291359742567
 31
0.0
  0
ARC
  5
1719
330
1F
100
AcDbEntity
  8
実形
100
AcDbCircle
 10
418.8375152540552
 20
862.7617518639352
 30
0.0
 40
41.03484512152667
100
AcDbArc
 50
189.8681557557662
 51
269.4027710980359
  0
LINE
  5
171A
330
1F
100
AcDbEntity
  8
実形
100
AcDbLine
 10
418.4097917478283
 20
735.7291359742568
 30
0.0
 11
505.8490899883845
 21
735.7291359742567
 31
0.0
  0
LINE
  5
171B
330
1F
100
AcDbEntity
  8
実形
100
AcDbLine
 10
378.4097917478284
 20
775.7291359742566
 30
0.0
 11
378.4097917478284
 21
851.7291359742566
 31
0.0
  0
LEADER
  5
171C
330
1F
100
AcDbEntity
  8
実形
100
AcDbLeader
  3
ISO-25
 40
25.0
 41
33.33333333333332
 76
     2
 10
374.2005925927833
 20
876.7540210045618
 30
0.0
 10
418.0027384289688
 20
921.9712695716825
 30
0.0
213
0.0
223
-12.5
233
0.0
1001
ACAD
1000
DSTYLE
1002
{
1070
   147
1040
6.25
1070
    77
1070
     0
1070
    41
1040
20.0
1070
   342
1005
DA
1002
}
  0
LEADER
  5
171D
330
1F
100
AcDbEntity
  8
実形
100
AcDbLeader
  3
ISO-25
 40
25.0
 41
8.333333333333332
 76
     2
 10
396.0276458377466
 20
834.9191120439254
 30
0.0
 10
433.4226896938726
 20
853.9543732275223
 30
0.0
213
0.0
223
-12.5
233
0.0
1001
ACAD
1000
DSTYLE
1002
{
1070
   147
1040
6.25
1070
    77
1070
     0
1070
    41
1040
20.0
1070
   342
1005
DA
1002
}
  0
TEXT
  5
171E
330
1F
100
AcDbEntity
  8
実形
100
AcDbText
 10
419.4864066990094
 20
907.7809616296075
 30
0.0
 40
25.0
  1
3R
 11
419.4864066990094
 21
904.4476282962742
 31
0.0
100
AcDbText
 73
     1
  0
TEXT
  5
171F
330
1F
100
AcDbEntity
  8
実形
100
AcDbText
 10
438.9519642071664
 20
840.6532599505247
 30
0.0
 40
25.0
  1
4R
 11
438.9519642071664
 21
837.3199266171914
 31
0.0
100
AcDbText
 73
     1
  0
LINE
  5
1720
330
1F
100
AcDbEntity
  8
実形
100
AcDbLine
 10
418.4097917478283
 20
735.7291359742567
 30
0.0
 11
505.8490899883845
 21
735.7291359742567
 31
0.0
  0
ARC
  5
1721
330
1F
100
AcDbEntity
  8
実形
100
AcDbCircle
 10
418.4097917478283
 20
775.7291359742566
 30
0.0
 40
40.0
100
AcDbArc
 50
180.0
 51
270.0
  0
LEADER
  5
1722
330
1F
100
AcDbEntity
  8
実形
100
AcDbLeader
  3
ISO-25
 40
25.0
 41
8.333333333333332
 76
     2
 10
396.0276458377466
 20
748.9191120439254
 30
0.0
 10
433.4226896938726
 20
767.9543732275224
 30
0.0
213
0.0
223
-12.5
233
0.0
1001
ACAD
1000
DSTYLE
1002
{
1070
   147
1040
6.25
1070
    77
1070
     0
1070
    41
1040
20.0
1070
   342
1005
DA
1002
}
  0
TEXT
  5
1723
330
1F
100
AcDbEntity
  8
実形
100
AcDbText
 10
438.9519642071664
 20
754.6532599505248
 30
0.0
 40
25.0
  1
4R
 11
438.9519642071664
 21
751.3199266171914
 31
0.0
100
AcDbText
 73
     1
  0
LINE
  5
1724
330
1F
100
AcDbEntity
  8
実形
100
AcDbLine
 10
378.4097917478284
 20
851.7291359742566
 30
0.0
 11
378.4097917478284
 21
855.7291359742567
 31
0.0
  0
ARC
  5
1725
330
1F
100
AcDbEntity
  8
実形
100
AcDbCircle
 10
348.4097917478285
 20
855.7291359742567
 30
0.0
 40
30.0
100
AcDbArc
 50
0.0
 51
90.0
  0
LINE
  5
1726
330
1F
100
AcDbEntity
  8
実形
100
AcDbLine
 10
368.4097917478284
 20
835.7291359742569
 30
0.0
 11
368.4097917478284
 21
845.7291359742569
 31
0.0
  0
ARC
  5
1727
330
1F
100
AcDbEntity
  8
実形
100
AcDbCircle
 10
338.4097917478285
 20
845.7291359742569
 30
0.0
 40
30.0
100
AcDbArc
 50
0.0
 51
90.0
  0
LINE
  5
1728
330
1F
100
AcDbEntity
  8
実形
100
AcDbLine
 10
328.4097917478284
 20
875.7291359742568
 30
0.0
 11
338.4097917478285
 21
875.7291359742568
 31
0.0
  0
LINE
  5
1729
330
1F
100
AcDbEntity
  8
実形
100
AcDbLine
 10
348.4097917478285
 20
885.7291359742568
 30
0.0
 11
505.8490899883845
 21
885.7291359742568
 31
0.0
  0
LINE
  5
17AC
330
1F
100
AcDbEntity
  8
実形
 62
     0
100
AcDbLine
 10
2036.975253562777
 20
1558.6779087747
 30
0.0
 11
2024.975253562778
 21
1558.6779087747
 31
0.0
  0
LINE
  5
17AD
330
1F
100
AcDbEntity
  8
実形
 62
     0
100
AcDbLine
 10
2038.975253562778
 20
1557.2279087747
 30
0.0
 11
2018.975253562778
 21
1557.2279087747
 31
0.0
  0
LINE
  5
17AE
330
1F
100
AcDbEntity
  8
実形
 62
     0
100
AcDbLine
 10
1919.375253562778
 20
1507.0779087747
 30
0.0
 11
1919.375253562778
 21
1509.0779087747
 31
0.0
  0
LINE
  5
17AF
330
1F
100
AcDbEntity
  8
実形
 62
     0
100
AcDbLine
 10
1924.975253562777
 20
1582.0779087747
 30
0.0
 11
1913.975253562778
 21
1582.0779087747
 31
0.0
  0
ARC
  5
17B0
330
1F
100
AcDbEntity
  8
実形
 62
     0
100
AcDbCircle
 10
1924.975253562777
 20
1579.0779087747
 30
0.0
 40
3.0
100
AcDbArc
 50
0.0
 51
90.0
  0
LINE
  5
17B1
330
1F
100
AcDbEntity
  8
実形
 62
     0
100
AcDbLine
 10
1930.975253562778
 20
1572.077908774699
 30
0.0
 11
2012.975253562778
 21
1572.077908774699
 31
0.0
  0
ARC
  5
17B2
330
1F
100
AcDbEntity
  8
実形
 62
     0
100
AcDbCircle
 10
2018.975253562778
 20
1568.377908774699
 30
0.0
 40
3.0
100
AcDbArc
 50
180.0
 51
240.0000000000027
  0
ARC
  5
17B3
330
1F
100
AcDbEntity
  8
実形
 62
     0
100
AcDbCircle
 10
2015.975253562778
 20
1563.181756351993
 30
0.0
 40
3.0
100
AcDbArc
 50
0.0
 51
60.00000000000272
  0
LINE
  5
17B4
330
1F
100
AcDbEntity
  8
実形
 62
     0
100
AcDbLine
 10
2015.975253562778
 20
1569.0779087747
 30
0.0
 11
2015.975253562778
 21
1567.574061197406
 31
0.0
  0
LINE
  5
17B5
330
1F
100
AcDbEntity
  8
実形
 62
     0
100
AcDbLine
 10
2018.975253562778
 20
1563.181756351993
 30
0.0
 11
2018.975253562778
 21
1520.974061197408
 31
0.0
  0
LINE
  5
17B6
330
1F
100
AcDbEntity
  8
実形
 62
     0
100
AcDbLine
 10
2038.975253562778
 20
1557.2279087747
 30
0.0
 11
2038.975253562778
 21
1542.0779087747
 31
0.0
  0
LINE
  5
17B7
330
1F
100
AcDbEntity
  8
実形
 62
     0
100
AcDbLine
 10
2023.975253562778
 20
1557.2279087747
 30
0.0
 11
2023.975253562777
 21
1542.077908774701
 31
0.0
  0
LINE
  5
17B8
330
1F
100
AcDbEntity
  8
実形
 62
     0
100
AcDbLine
 10
2006.475253562777
 20
1512.0779087747
 30
0.0
 11
1922.375253562778
 21
1512.0779087747
 31
0.0
  0
ARC
  5
17B9
330
1F
100
AcDbEntity
  8
実形
 62
     0
100
AcDbCircle
 10
2012.975253562778
 20
1569.077908774699
 30
0.0
 40
3.0
100
AcDbArc
 50
0.0
 51
90.0
  0
LINE
  5
17BA
330
1F
100
AcDbEntity
  8
実形
 62
     0
100
AcDbLine
 10
1912.975253562778
 20
1583.0779087747
 30
0.0
 11
1912.975253562778
 21
1597.0779087747
 31
0.0
  0
ARC
  5
17BB
330
1F
100
AcDbEntity
  8
実形
 62
     0
100
AcDbCircle
 10
1913.975253562778
 20
1583.0779087747
 30
0.0
 40
1.0
100
AcDbArc
 50
180.0
 51
270.0
  0
LINE
  5
17BC
330
1F
100
AcDbEntity
  8
実形
 62
     0
100
AcDbLine
 10
1912.975253562778
 20
1597.0779087747
 30
0.0
 11
1912.975253562778
 21
1507.0779087747
 31
0.0
  0
LINE
  5
17BD
330
1F
100
AcDbEntity
  8
実形
 62
     0
100
AcDbLine
 10
1927.975253562777
 20
1579.0779087747
 30
0.0
 11
1927.975253562778
 21
1575.0779087747
 31
0.0
  0
ARC
  5
17BE
330
1F
100
AcDbEntity
  8
実形
 62
     0
100
AcDbCircle
 10
1930.975253562778
 20
1575.0779087747
 30
0.0
 40
3.0
100
AcDbArc
 50
180.0
 51
270.0
  0
ARC
  5
17BF
330
1F
100
AcDbEntity
  8
実形
 62
     0
100
AcDbCircle
 10
1922.375253562778
 20
1509.0779087747
 30
0.0
 40
3.0
100
AcDbArc
 50
90.0
 51
180.0
  0
DIMENSION
  5
17C0
330
1F
100
AcDbEntity
  8
実形
 62
     0
100
AcDbDimension
  2
*D28
 10
2018.975253562778
 20
1657.987055779485
 30
0.0
 11
1965.975253562778
 21
1676.737055779485
 31
0.0
 70
    32
 71
     5
 42
106.0
  3
ISO-25
100
AcDbAlignedDimension
 13
1912.975253562778
 23
1558.6779087747
 33
0.0
 14
2018.975253562778
 24
1558.6779087747
 34
0.0
100
AcDbRotatedDimension
1001
ACAD
1000
DSTYLE
1002
{
1070
   341
1005
172A
1002
}
  0
LINE
  5
17C1
330
1F
100
AcDbEntity
  8
実形
 62
     0
100
AcDbLine
 10
1930.975253562778
 20
1512.0779087747
 30
0.0
 11
2012.975253562778
 21
1512.0779087747
 31
0.0
  0
LINE
  5
17C2
330
1F
100
AcDbEntity
  8
実形
 62
     0
100
AcDbLine
 10
2018.975253562778
 20
1520.974061197407
 30
0.0
 11
2018.975253562778
 21
1563.181756351993
 31
0.0
  0
LINE
  5
17C3
330
1F
100
AcDbEntity
  8
実形
 62
     0
100
AcDbLine
 10
2015.975253562778
 20
1515.0779087747
 30
0.0
 11
2015.975253562778
 21
1515.7779087747
 31
0.0
  0
DIMENSION
  5
17C4
330
1F
100
AcDbEntity
  8
実形
 62
     0
100
AcDbDimension
  2
*D29
 10
2080.76159316173
 20
1525.477908774701
 30
0.0
 11
2109.410026852803
 21
1542.0779087747
 31
0.0
 70
   160
  1
33
 71
     5
 42
33.19999999999982
  3
ISO-25
100
AcDbAlignedDimension
 13
2038.975253562778
 23
1558.6779087747
 33
0.0
 14
2038.975253562778
 24
1525.477908774701
 34
0.0
 50
90.0
100
AcDbRotatedDimension
1001
ACAD
1000
DSTYLE
1002
{
1070
    76
1070
     1
1070
    75
1070
     1
1070
   279
1070
     2
1070
   341
1005
172A
1002
}
  0
LINE
  5
17C5
330
1F
100
AcDbEntity
  8
実形
100
AcDbLine
 10
2080.76159316173
 20
1525.477908774701
 30
0.0
 11
2051.814525023274
 21
1525.477908774701
 31
0.0
  0
LINE
  5
17C6
330
1F
100
AcDbEntity
  8
実形
100
AcDbLine
 10
2080.76159316173
 20
1556.4904087747
 30
0.0
 11
2080.76159316173
 21
1558.6779087747
 31
0.0
  0
LINE
  5
17C7
330
1F
100
AcDbEntity
  8
実形
100
AcDbLine
 10
2080.76159316173
 20
1558.6779087747
 30
0.0
 11
2051.987391556752
 21
1558.6779087747
 31
0.0
  0
DIMENSION
  5
17C8
330
1F
100
AcDbEntity
  8
実形
 62
     0
100
AcDbDimension
  2
*D30
 10
2038.975253562778
 20
1657.987055779485
 30
0.0
 11
2065.934295867591
 21
1661.648765307524
 31
0.0
 70
   160
 71
     5
 42
20.0
  3
ISO-25
100
AcDbAlignedDimension
 13
2018.975253562778
 23
1558.6779087747
 33
0.0
 14
2038.975253562778
 24
1558.6779087747
 34
0.0
100
AcDbRotatedDimension
1001
ACAD
1000
DSTYLE
1002
{
1070
   279
1070
     2
1070
   341
1005
172A
1002
}
  0
ARC
  5
17C9
330
1F
100
AcDbEntity
  8
実形
 62
     0
100
AcDbCircle
 10
2018.975253562778
 20
1515.777908774701
 30
0.0
 40
3.0
100
AcDbArc
 50
119.9999999999973
 51
180.0
  0
ARC
  5
17CA
330
1F
100
AcDbEntity
  8
実形
 62
     0
100
AcDbCircle
 10
2015.975253562778
 20
1520.974061197408
 30
0.0
 40
3.0
100
AcDbArc
 50
299.9999999999973
 51
0.0
  0
ARC
  5
17CB
330
1F
100
AcDbEntity
  8
実形
 62
     0
100
AcDbCircle
 10
2012.975253562778
 20
1515.077908774701
 30
0.0
 40
3.0
100
AcDbArc
 50
270.0
 51
0.0
  0
LINE
  5
17CC
330
1F
100
AcDbEntity
  8
実形
 62
     0
100
AcDbLine
 10
2018.975253562778
 20
1563.181756351993
 30
0.0
 11
2018.975253562778
 21
1520.974061197408
 31
0.0
  0
LINE
  5
17CD
330
1F
100
AcDbEntity
  8
実形
100
AcDbLine
 10
2037.975253562778
 20
1557.2279087747
 30
0.0
 11
2036.975253562778
 21
1558.6779087747
 31
0.0
  0
LINE
  5
17CE
330
1F
100
AcDbEntity
  8
実形
100
AcDbLine
 10
2024.975253562778
 20
1558.6779087747
 30
0.0
 11
2023.975253562778
 21
1557.2279087747
 31
0.0
  0
LINE
  5
17CF
330
1F
100
AcDbEntity
  8
実形
 62
     0
100
AcDbLine
 10
2036.975253562777
 20
1525.477908774701
 30
0.0
 11
2024.975253562778
 21
1525.477908774701
 31
0.0
  0
LINE
  5
17D0
330
1F
100
AcDbEntity
  8
実形
 62
     0
100
AcDbLine
 10
2038.975253562778
 20
1526.9279087747
 30
0.0
 11
2018.975253562778
 21
1526.927908774701
 31
0.0
  0
LINE
  5
17D1
330
1F
100
AcDbEntity
  8
実形
 62
     0
100
AcDbLine
 10
2038.975253562778
 20
1526.9279087747
 30
0.0
 11
2038.975253562778
 21
1542.0779087747
 31
0.0
  0
LINE
  5
17D2
330
1F
100
AcDbEntity
  8
実形
 62
     0
100
AcDbLine
 10
2023.975253562778
 20
1526.927908774701
 30
0.0
 11
2023.975253562777
 21
1542.0779087747
 31
0.0
  0
LINE
  5
17D3
330
1F
100
AcDbEntity
  8
実形
100
AcDbLine
 10
2037.975253562778
 20
1526.9279087747
 30
0.0
 11
2036.975253562778
 21
1525.477908774701
 31
0.0
  0
LINE
  5
17D4
330
1F
100
AcDbEntity
  8
実形
100
AcDbLine
 10
2024.975253562778
 20
1525.477908774701
 30
0.0
 11
2023.975253562778
 21
1526.927908774701
 31
0.0
  0
CIRCLE
  5
1851
330
1F
100
AcDbEntity
  8
実形
100
AcDbCircle
 10
1478.496834872258
 20
1357.0779087747
 30
0.0
 40
115.5
  0
LINE
  5
1860
330
1F
100
AcDbEntity
  8
実形
100
AcDbLine
 10
2101.460449278102
 20
1472.5779087747
 30
0.0
 11
2059.289604233467
 21
1472.5779087747
 31
0.0
  0
LINE
  5
1861
330
1F
100
AcDbEntity
  8
実形
100
AcDbLine
 10
2059.511514796633
 20
1447.5779087747
 30
0.0
 11
2059.511514796633
 21
1472.525952167674
 31
0.0
  0
HATCH
  5
1862
330
1F
100
AcDbEntity
  8
実形
100
AcDbHatch
 10
0.0
 20
0.0
 30
0.0
210
0.0
220
0.0
230
1.0
  2
SOLID
 70
     1
 71
     0
 91
        1
 92
        7
 72
     1
 73
     1
 93
        2
 10
2063.081198898372
 20
1472.815545615168
 42
1.0
 10
2056.094940125281
 20
1472.815545615168
 42
1.0
 97
        0
 75
     0
 76
     1
 47
0.3373960739521582
 98
        1
 10
2059.807965722955
 20
1471.009396241754
  0
TEXT
  5
1863
330
1F
100
AcDbEntity
  8
寸法
100
AcDbText
 10
2051.365343082101
 20
1442.201697436493
 30
0.0
 40
20.0
  1
25
 50
90.0
 11
2054.032009748768
 21
1442.201697436493
 31
0.0
100
AcDbText
 73
     1
  0
LINE
  5
1864
330
1F
100
AcDbEntity
  8
実形
100
AcDbLine
 10
2101.460449278102
 20
1241.5779087747
 30
0.0
 11
2059.289604233467
 21
1241.5779087747
 31
0.0
  0
LINE
  5
1865
330
1F
100
AcDbEntity
  8
実形
100
AcDbLine
 10
2059.511514796633
 20
1266.5779087747
 30
0.0
 11
2059.511514796633
 21
1241.629865381727
 31
0.0
  0
HATCH
  5
1866
330
1F
100
AcDbEntity
  8
実形
100
AcDbHatch
 10
0.0
 20
0.0
 30
0.0
210
0.0
220
0.0
230
1.0
  2
SOLID
 70
     1
 71
     0
 91
        1
 92
        7
 72
     1
 73
     1
 93
        2
 10
2063.081198898372
 20
1241.340271934233
 42
-1.0
 10
2056.094940125281
 20
1241.340271934233
 42
-1.0
 97
        0
 75
     0
 76
     1
 47
0.3373960739521582
 98
        1
 10
2059.807965722955
 20
1243.146421307647
  0
TEXT
  5
1867
330
1F
100
AcDbEntity
  8
寸法
100
AcDbText
 10
2051.365343082101
 20
1236.201697436493
 30
0.0
 40
20.0
  1
25
 50
90.0
 11
2054.032009748768
 21
1236.201697436493
 31
0.0
100
AcDbText
 73
     1
  0
DIMENSION
  5
18D6
330
1F
100
AcDbEntity
  8
実形
100
AcDbDimension
  2
*D31
 10
675.8880681012642
 20
632.0779087747006
 30
0.0
 11
645.1270335187455
 21
622.6449149591744
 31
0.0
 70
   160
 71
     5
 42
15.0
  3
ISO-25
100
AcDbAlignedDimension
 13
795.3229363377421
 23
647.0779087747005
 33
0.0
 14
795.3229363377421
 24
632.0779087747005
 34
0.0
 50
90.0
100
AcDbRotatedDimension
1001
ACAD
1000
DSTYLE
1002
{
1070
    41
1040
20.0
1070
   279
1070
     2
1002
}
  0
DIMENSION
  5
18D7
330
1F
100
AcDbEntity
  8
実形
100
AcDbDimension
  2
*D32
 10
613.0970147439247
 20
447.0779087747006
 30
0.0
 11
594.3470147439247
 21
547.0779087747007
 31
0.0
 70
    32
 71
     5
 42
200.0
  3
ISO-25
100
AcDbAlignedDimension
 13
795.3229363377422
 23
647.0779087747005
 33
0.0
 14
795.3229363377423
 24
447.0779087747005
 34
0.0
 50
90.0
100
AcDbRotatedDimension
1001
ACAD
1000
DSTYLE
1002
{
1070
    41
1040
20.0
1070
   279
1070
     2
1002
}
  0
LINE
  5
18D8
330
1F
100
AcDbEntity
  8
実形
100
AcDbLine
 10
730.3229363377424
 20
440.0779087747005
 30
0.0
 11
675.8880681012644
 21
440.0779087747005
 31
0.0
  0
LINE
  5
18D9
330
1F
100
AcDbEntity
  8
実形
100
AcDbLine
 10
675.8880681012642
 20
447.0779087747006
 30
0.0
 11
675.8880681012644
 21
440.0779087747006
 31
0.0
  0
TEXT
  5
18DA
330
1F
100
AcDbEntity
  8
実形
370
    18
100
AcDbText
 10
678.9075228826868
 20
444.441242693375
 30
0.0
 40
6.0
  1
●
 71
     2
100
AcDbText
  0
TEXT
  5
18DB
330
1F
100
AcDbEntity
  8
実形
370
    18
100
AcDbText
 10
678.9075228826868
 20
437.0001039276985
 30
0.0
 40
6.0
  1
●
 71
     2
100
AcDbText
  0
TEXT
  5
18DC
330
1F
100
AcDbEntity
  8
実形
370
    18
100
AcDbText
 10
659.3387555105792
 20
415.4288785552671
 30
0.0
 40
25.0
  1
7
 50
89.97509673302152
100
AcDbText
  0
DIMENSION
  5
192D
330
1F
100
AcDbEntity
  8
実形
100
AcDbDimension
  2
*D33
 10
1927.975253562777
 20
932.8155574861776
 30
0.0
 11
1958.138333396186
 21
948.3175908169432
 31
0.0
 70
   160
 71
     5
 42
15.0
  3
ISO-25
100
AcDbAlignedDimension
 13
1912.975253562778
 23
1052.336701084655
 33
0.0
 14
1927.975253562777
 24
1052.336701084655
 34
0.0
100
AcDbRotatedDimension
1001
ACAD
1000
DSTYLE
1002
{
1070
    41
1040
20.0
1070
   279
1070
     2
1002
}
  0
DIMENSION
  5
192E
330
1F
100
AcDbEntity
  8
実形
100
AcDbDimension
  2
*D34
 10
2112.975253562778
 20
870.0357129788262
 30
0.0
 11
2012.975253562778
 21
888.7857129788262
 31
0.0
 70
    32
 71
     5
 42
200.0
  3
ISO-25
100
AcDbAlignedDimension
 13
1912.975253562778
 23
1052.336701084655
 33
0.0
 14
2112.975253562778
 24
1052.336701084655
 34
0.0
100
AcDbRotatedDimension
1001
ACAD
1000
DSTYLE
1002
{
1070
    41
1040
20.0
1070
   279
1070
     2
1002
}
  0
LINE
  5
192F
330
1F
100
AcDbEntity
  8
実形
100
AcDbLine
 10
2112.975253562778
 20
931.5812566962817
 30
0.0
 11
2119.975253562778
 21
931.5812566962817
 31
0.0
  0
LINE
  5
1930
330
1F
100
AcDbEntity
  8
実形
100
AcDbLine
 10
2119.975253562778
 20
931.5812566962817
 30
0.0
 11
2119.975253562778
 21
987.336701084655
 31
0.0
  0
LINE
  5
1931
330
1F
100
AcDbEntity
  8
実形
100
AcDbLine
 10
2112.975253562778
 20
928.6862070317406
 30
0.0
 11
2112.975253562778
 21
987.3367010846552
 31
0.0
  0
TEXT
  5
1932
330
1F
100
AcDbEntity
  8
実形
370
    18
100
AcDbText
 10
2115.807907995099
 20
929.3794614413799
 30
0.0
 40
6.0
  1
●
 71
     2
100
AcDbText
  0
TEXT
  5
1933
330
1F
100
AcDbEntity
  8
実形
370
    18
100
AcDbText
 10
2122.681188323679
 20
929.1712089031598
 30
0.0
 40
6.0
  1
●
 71
     2
100
AcDbText
  0
TEXT
  5
1934
330
1F
100
AcDbEntity
  8
実形
370
    18
100
AcDbText
 10
2129.681407164939
 20
933.6619889280356
 30
0.0
 40
25.0
  1
7
100
AcDbText
  0
LINE
  5
1968
330
1F
100
AcDbEntity
  8
実形
100
AcDbLine
 10
1568.996834872259
 20
440.0779087747004
 30
0.0
 11
1387.996834872258
 21
440.0779087747005
 31
0.0
  0
LINE
  5
1969
330
1F
100
AcDbEntity
  8
実形
100
AcDbLine
 10
1387.996834872258
 20
447.0779087747005
 30
0.0
 11
1387.996834872258
 21
440.0779087747005
 31
0.0
  0
LINE
  5
196A
330
1F
100
AcDbEntity
  8
実形
100
AcDbLine
 10
1568.996834872258
 20
447.0779087747005
 30
0.0
 11
1568.996834872258
 21
440.0779087747005
 31
0.0
  0
LINE
  5
1975
330
1F
100
AcDbEntity
  8
実形
100
AcDbLine
 10
2119.975253562778
 20
1447.5779087747
 30
0.0
 11
2119.975253562778
 21
1266.577908774685
 31
0.0
  0
LINE
  5
1976
330
1F
100
AcDbEntity
  8
実形
100
AcDbLine
 10
2112.975253562778
 20
1447.5779087747
 30
0.0
 11
2119.975253562778
 21
1447.5779087747
 31
0.0
  0
LINE
  5
1977
330
1F
100
AcDbEntity
  8
実形
100
AcDbLine
 10
2112.975253562777
 20
1266.577908774683
 30
0.0
 11
2119.975253562778
 21
1266.577908774685
 31
0.0
  0
LINE
  5
19B5
330
1F
100
AcDbEntity
  8
補助
100
AcDbLine
 10
2784.0
 20
1829.0
 30
0.0
 11
2019.387286519283
 21
1829.0
 31
0.0
  0
LINE
  5
19B6
330
1F
100
AcDbEntity
  8
補助
100
AcDbLine
 10
2784.0
 20
1959.0
 30
0.0
 11
2019.387286519283
 21
1959.0
 31
0.0
  0
LINE
  5
19B7
330
1F
100
AcDbEntity
  8
補助
100
AcDbLine
 10
2784.0
 20
1894.0
 30
0.0
 11
2019.387286519282
 21
1894.0
 31
0.0
  0
LINE
  5
19B8
330
1F
100
AcDbEntity
  8
補助
100
AcDbLine
 10
2202.547653420927
 20
1829.0
 30
0.0
 11
2202.547653420927
 21
2024.0
 31
0.0
  0
LINE
  5
19B9
330
1F
100
AcDbEntity
  8
補助
100
AcDbLine
 10
2019.387286519282
 20
1829.0
 30
0.0
 11
2019.387286519283
 21
2024.0
 31
0.0
  0
TEXT
  5
19BA
330
1F
100
AcDbEntity
  8
実形
100
AcDbText
 10
2026.28495351493
 20
1845.557142857143
 30
0.0
 40
30.0
  1
ポケット
  7
明朝
 72
     4
 11
2114.056382086358
 21
1861.5
 31
0.0
100
AcDbText
  0
TEXT
  5
19BB
330
1F
100
AcDbEntity
  8
補助
100
AcDbText
 10
2050.295698850121
 20
1976.328571428572
 30
0.0
 40
30.0
  1
部品名
  7
明朝
 72
     4
 11
2116.124270278692
 21
1991.5
 31
0.0
100
AcDbText
  0
TEXT
  5
19BC
330
1F
100
AcDbEntity
  8
実形
100
AcDbText
 10
2616.642857142858
 20
1846.842857142857
 30
0.0
 40
30.0
  1
3ｍｍ
  7
明朝
 72
     4
 11
2671.5
 21
1861.5
 31
0.0
100
AcDbText
  0
TEXT
  5
19BD
330
1F
100
AcDbEntity
  8
実形
100
AcDbText
 10
2594.7
 20
1911.842857142857
 30
0.0
 40
30.0
  1
0.8ｍｍ
  7
明朝
 72
     4
 11
2671.5
 21
1926.5
 31
0.0
100
AcDbText
  0
TEXT
  5
19BE
330
1F
100
AcDbEntity
  8
補助
100
AcDbText
 10
2627.614285714286
 20
1976.071428571429
 30
0.0
 40
30.0
  1
厚さ
  7
明朝
 72
     4
 11
2671.5
 21
1991.5
 31
0.0
100
AcDbText
  0
LINE
  5
19BF
330
1F
100
AcDbEntity
  8
補助
100
AcDbLine
 10
2559.0
 20
1829.0
 30
0.0
 11
2559.0
 21
2024.0
 31
0.0
  0
TEXT
  5
19C0
330
1F
100
AcDbEntity
  8
実形
100
AcDbText
 10
2282.959726250723
 20
1846.071428571428
 30
0.0
 40
30.0
  1
樹脂（PP）
  7
明朝
 72
     4
 11
2392.674011965008
 21
1861.5
 31
0.0
100
AcDbText
  0
TEXT
  5
19C1
330
1F
100
AcDbEntity
  8
補助
100
AcDbText
 10
2338.490869919937
 20
1975.947979478155
 30
0.0
 40
30.0
  1
材質
  7
明朝
 72
     4
 11
2382.376584205651
 21
1991.119408049583
 31
0.0
100
AcDbText
  0
TEXT
  5
19C2
330
1F
100
AcDbEntity
  8
実形
100
AcDbText
 10
2048.227810657787
 20
1910.557142857143
 30
0.0
 40
30.0
  1
ボウル
  7
明朝
 72
     4
 11
2114.056382086358
 21
1926.5
 31
0.0
100
AcDbText
  0
TEXT
  5
19C3
330
1F
100
AcDbEntity
  8
実形
100
AcDbText
 10
2239.074011965008
 20
1910.728571428571
 30
0.0
 40
30.0
  1
SUS304（No.4）
  7
明朝
 72
     4
 11
2392.674011965008
 21
1926.5
 31
0.0
100
AcDbText
  0
LINE
  5
19C4
330
1F
100
AcDbEntity
  8
補助
100
AcDbLine
 10
111.0
 20
2024.0
 30
0.0
 11
111.0
 21
4.0
 31
0.0
  0
VIEWPORT
  5
2E
102
{ACAD_XDICTIONARY
360
19FA
102
}
330
1B
100
AcDbEntity
 67
     1
  8
0
100
AcDbViewport
 10
144.7270812988281
 20
101.2295806407928
 30
0.0
 40
411.6736216682419
 41
222.1517806396485
 68
     1
 69
     1
 12
144.7270812988281
 22
101.2295806407928
 13
0.0
 23
0.0
 14
10.0
 24
10.0
 15
10.0
 25
10.0
 16
0.0
 26
0.0
 36
1.0
 17
0.0
 27
0.0
 37
0.0
 42
50.0
 43
0.0
 44
0.0
 45
222.1517806396485
 50
0.0
 51
0.0
 72
   100
 90
    32800
  1

281
     0
 71
     1
 74
     0
110
0.0
120
0.0
130
0.0
111
1.0
121
0.0
131
0.0
112
0.0
122
1.0
132
0.0
 79
     0
146
0.0
  0
VIEWPORT
  5
30
102
{ACAD_XDICTIONARY
360
19FC
102
}
330
1B
100
AcDbEntity
 67
     1
  8
0
100
AcDbViewport
 10
139.2237563133239
 20
101.2295821905136
 30
0.0
 40
222.7580101013184
 41
161.9673315048218
 68
     2
 69
     2
 12
210.0
 22
148.5
 13
0.0
 23
0.0
 14
10.0
 24
10.0
 15
10.0
 25
10.0
 16
0.0
 26
0.0
 36
1.0
 17
0.0
 27
0.0
 37
0.0
 42
50.0
 43
0.0
 44
0.0
 45
309.0686705647124
 50
0.0
 51
0.0
 72
   100
 90
    32864
  1

281
     0
 71
     1
 74
     0
110
0.0
120
0.0
130
0.0
111
1.0
121
0.0
131
0.0
112
0.0
122
1.0
132
0.0
 79
     0
146
0.0
  0
ENDSEC
  0
SECTION
  2
OBJECTS
  0
DICTIONARY
  5
C
330
0
100
AcDbDictionary
281
     1
  3
ACAD_COLOR
350
15C3
  3
ACAD_GROUP
350
D
  3
ACAD_LAYOUT
350
1A
  3
ACAD_MATERIAL
350
15C2
  3
ACAD_MLINESTYLE
350
17
  3
ACAD_PLOTSETTINGS
350
19
  3
ACAD_PLOTSTYLENAME
350
E
  3
ACAD_TABLESTYLE
350
15C4
  3
AcadDim
350
CBC
  3
ACDBHEADERROUNDTRIPXREC
350
19F3
  3
AcDbVariableDictionary
350
EFD
  0
DICTIONARY
  5
15FF
330
2
100
AcDbDictionary
280
     1
281
     1
  3
ACAD_LAYERFILTERS
360
199D
  3
ACAD_LAYERSTATES
360
1600
  3
ACLYDICTIONARY
360
199C
  0
DICTIONARY
  5
15EE
330
1F
100
AcDbDictionary
280
     1
281
     1
  3
ACAD_SORTENTS
360
15EF
  0
DICTIONARY
  5
19FA
330
2E
100
AcDbDictionary
280
     1
281
     1
  3
ACAD_XREC_ROUNDTRIP
360
19FB
  0
DICTIONARY
  5
19FC
330
30
100
AcDbDictionary
280
     1
281
     1
  3
ACAD_XREC_ROUNDTRIP
360
19FD
  0
DICTIONARY
  5
15C3
102
{ACAD_REACTORS
330
C
102
}
330
C
100
AcDbDictionary
281
     1
  0
DICTIONARY
  5
D
102
{ACAD_REACTORS
330
C
102
}
330
C
100
AcDbDictionary
281
     1
  0
DICTIONARY
  5
1A
102
{ACAD_REACTORS
330
C
102
}
330
C
100
AcDbDictionary
281
     1
  3
Model
350
22
  3
ﾚｲｱｳﾄ1
350
1E
  3
ﾚｲｱｳﾄ2
350
26
  0
DICTIONARY
  5
15C2
102
{ACAD_REACTORS
330
C
102
}
330
C
100
AcDbDictionary
281
     1
  0
DICTIONARY
  5
17
102
{ACAD_REACTORS
330
C
102
}
330
C
100
AcDbDictionary
281
     1
  3
Standard
350
18
  0
DICTIONARY
  5
19
102
{ACAD_REACTORS
330
C
102
}
330
C
100
AcDbDictionary
281
     1
  0
ACDBDICTIONARYWDFLT
  5
E
102
{ACAD_REACTORS
330
C
102
}
330
C
100
AcDbDictionary
281
     1
  3
Normal
350
F
100
AcDbDictionaryWithDefault
340
F
  0
DICTIONARY
  5
15C4
102
{ACAD_REACTORS
330
C
102
}
330
C
100
AcDbDictionary
281
     1
  3
Standard
350
15C5
  0
XRECORD
  5
CBC
102
{ACAD_REACTORS
330
C
102
}
330
C
100
AcDbXrecord
280
     1
 90
   990106
  3

 60
     0
 61
     0
 62
     1
 63
     3
 64
     0
 65
     0
 66
     0
 67
     3
 68
     1
 69
     0
 70
     0
 71
     0
 72
     0
 40
30.0
170
     0
  0
DICTIONARY
  5
19F3
102
{ACAD_REACTORS
330
C
102
}
330
C
100
AcDbDictionary
281
     1
  0
DICTIONARY
  5
EFD
102
{ACAD_REACTORS
330
C
102
}
330
C
100
AcDbDictionary
281
     1
  3
CTABLESTYLE
350
15CB
  3
DIMASSOC
350
19F0
  3
PROJECTNAME
350
19F1
  3
SORTENTS
350
EFE
  0
DICTIONARY
  5
199D
102
{ACAD_REACTORS
330
15FF
102
}
330
15FF
100
AcDbDictionary
281
     1
  0
DICTIONARY
  5
1600
102
{ACAD_REACTORS
330
15FF
102
}
330
15FF
100
AcDbDictionary
281
     1
  0
DICTIONARY
  5
199C
102
{ACAD_REACTORS
330
15FF
102
}
330
15FF
100
AcDbDictionary
281
     1
1001
ACAD
1000
<All
  0
SORTENTSTABLE
  5
15EF
102
{ACAD_REACTORS
330
15EE
102
}
330
15EE
100
AcDbSortentsTable
330
1F
331
13B1
  5
13B3
331
EB5
  5
F0C
331
100C
  5
100E
331
1014
  5
1016
331
BD6
  5
BD9
331
1724
  5
1725
331
1666
  5
1668
331
30D
  5
315
331
19BF
  5
19C0
331
1862
  5
1863
331
C26
  5
C2B
331
166E
  5
1670
331
315
  5
316
331
35C
  5
35E
331
570
  5
5C9
331
17AC
  5
17AD
331
1676
  5
1678
331
17B4
  5
17B5
331
167E
  5
1680
331
492
  5
4E5
331
C2E
  5
CB9
331
CBE
  5
CC0
331
8A7
  5
8DD
331
17BC
  5
17BD
331
1968
  5
1969
331
FFD
  5
FFF
331
1686
  5
1688
331
325
  5
326
331
17C4
  5
17C5
331
1005
  5
1007
331
164F
  5
1651
331
168E
  5
1690
331
17CC
  5
17CD
331
1715
  5
1716
331
18DA
  5
18DB
331
1931
  5
1932
331
1657
  5
1659
331
2FE
  5
2FF
331
17D4
  5
1851
331
171D
  5
171E
331
33D
  5
354
331
165F
  5
1661
331
306
  5
307
331
40C
  5
427
331
13B2
  5
13B4
331
100D
  5
100F
331
1015
  5
1019
331
BD7
  5
BDA
331
19B8
  5
19B9
331
1667
  5
1669
331
1725
  5
1726
331
355
  5
35A
331
19C0
  5
19C1
331
1863
  5
1864
331
166F
  5
1671
331
316
  5
317
331
35D
  5
361
331
571
  5
66C
331
17AD
  5
17AE
331
1677
  5
1679
331
17B5
  5
17B6
331
167F
  5
1681
331
CBF
  5
CC1
331
A0
  5
A5
331
1969
  5
196A
331
17BD
  5
17BE
331
FFE
  5
1000
331
1687
  5
1689
331
326
  5
327
331
50A
  5
52F
331
17C5
  5
17C6
331
1006
  5
1008
331
1650
  5
1652
331
168F
  5
1691
331
4C3
  5
4FD
331
17CD
  5
17CE
331
18DB
  5
18DC
331
1932
  5
1933
331
1716
  5
1717
331
1658
  5
165A
331
2FF
  5
300
331
336
  5
337
331
171E
  5
171F
331
307
  5
308
331
522
  5
571
331
918
  5
BD7
331
13B3
  5
13C5
331
100E
  5
1010
331
1016
  5
13AE
331
1660
  5
1662
331
19B9
  5
19BA
331
C20
  5
C26
331
1668
  5
166A
331
1726
  5
1727
331
47C
  5
4C3
331
19C1
  5
19C2
331
1864
  5
1865
331
1670
  5
1672
331
2D8
  5
2D9
331
317
  5
319
331
17AE
  5
17AF
331
1678
  5
167B
331
2E0
  5
2E8
331
17B6
  5
17B7
331
CB8
  5
CBA
331
CC0
  5
CC2
331
1680
  5
1682
331
2E8
  5
2E9
331
17BE
  5
17BF
331
196A
  5
1975
331
FFF
  5
1001
331
1688
  5
168A
331
327
  5
328
331
17C6
  5
17C7
331
1007
  5
1009
331
1651
  5
1653
331
1690
  5
1692
331
3F6
  5
41A
331
17CE
  5
17CF
331
18DC
  5
192D
331
1933
  5
1934
331
6AA
  5
77B
331
1717
  5
1718
331
1659
  5
165B
331
300
  5
301
331
337
  5
338
331
171F
  5
1720
331
13B4
  5
1478
331
100F
  5
1011
331
13C4
  5
164E
331
BD9
  5
BDC
331
1661
  5
1663
331
308
  5
309
331
19BA
  5
19BB
331
16A8
  5
16E0
331
1669
  5
166B
331
1727
  5
1728
331
6EA
  5
788
331
19C2
  5
19C3
331
1865
  5
1866
331
1671
  5
1673
331
2D9
  5
2DA
331
17AF
  5
17B0
331
1679
  5
167C
331
17B7
  5
17B8
331
377
  5
3F6
331
C29
  5
C2C
331
CB9
  5
CBD
331
CC1
  5
CC3
331
1681
  5
1683
331
2E9
  5
2F1
331
17BF
  5
17C0
331
1000
  5
1002
331
1689
  5
168B
331
2F1
  5
2F2
331
328
  5
329
331
13AD
  5
13AF
331
1652
  5
1654
331
1691
  5
16A8
331
17C7
  5
17C8
331
1934
  5
1968
331
17CF
  5
17D0
331
466
  5
492
331
1718
  5
1719
331
165A
  5
165C
331
301
  5
302
331
338
  5
339
331
73
  5
73
331
1008
  5
100A
331
1010
  5
1012
331
1720
  5
1721
331
1662
  5
1664
331
309
  5
30A
331
BDA
  5
C24
331
19BB
  5
19BC
331
166A
  5
166C
331
1728
  5
1729
331
4E5
  5
50A
331
19C3
  5
19C4
331
1866
  5
1867
331
427
  5
466
331
1672
  5
1674
331
2DA
  5
2DB
331
319
  5
31A
331
360
  5
362
331
63C
  5
6AA
331
17B0
  5
17B1
331
4FD
  5
522
331
77B
  5
8A7
331
8A3
  5
8DB
331
CBA
  5
CBE
331
17B8
  5
17B9
331
1682
  5
1684
331
8DB
  5
914
331
CC2
  5
DC3
331
17C0
  5
17C1
331
168A
  5
168C
331
2F2
  5
2FD
331
329
  5
336
331
66C
  5
6EA
331
1001
  5
1003
331
17C8
  5
17C9
331
1653
  5
1655
331
1692
  5
16C4
331
18D6
  5
18D7
331
192D
  5
192E
331
13AE
  5
13B0
331
17D0
  5
17D1
331
1719
  5
171A
331
339
  5
33A
331
165B
  5
165E
331
302
  5
303
331
9C
  5
9C
331
1009
  5
100B
331
1011
  5
1013
331
1721
  5
1722
331
1663
  5
1665
331
30A
  5
30B
331
19BC
  5
19BD
331
166B
  5
166D
331
1729
  5
1795
331
359
  5
35C
331
19C4
  5
A0
331
1867
  5
18D6
331
361
  5
363
331
1673
  5
1675
331
2DB
  5
2DD
331
31A
  5
31B
331
17B1
  5
17B2
331
167B
  5
167D
331
C2B
  5
C2D
331
17B9
  5
17BA
331
1683
  5
1685
331
3E9
  5
40C
331
CC3
  5
EB5
331
17C1
  5
17C2
331
168B
  5
168D
331
DC3
  5
EFC
331
914
  5
BD6
331
1002
  5
1004
331
1975
  5
1976
331
17C9
  5
17CA
331
1654
  5
1656
331
18D7
  5
18D8
331
192E
  5
192F
331
13AF
  5
13B1
331
17D1
  5
17D2
331
171A
  5
171B
331
33A
  5
33C
331
165C
  5
165F
331
303
  5
306
331
19B5
  5
19B6
331
100A
  5
100C
331
1012
  5
1014
331
1722
  5
1723
331
1664
  5
1666
331
30B
  5
30C
331
19BD
  5
19BE
331
1860
  5
1861
331
166C
  5
166E
331
35A
  5
35D
331
C24
  5
C29
331
362
  5
374
331
1674
  5
1676
331
31B
  5
323
331
17B2
  5
17B3
331
167C
  5
167E
331
C2C
  5
C2E
331
17BA
  5
17BB
331
1684
  5
1686
331
A5
  5
2D8
331
323
  5
324
331
8DD
  5
918
331
FFB
  5
FFD
331
17C2
  5
17C3
331
164D
  5
164F
331
168C
  5
168E
331
459
  5
47C
331
1003
  5
1005
331
1976
  5
1977
331
17CA
  5
17CB
331
1655
  5
1657
331
18D8
  5
18D9
331
192F
  5
1930
331
17D2
  5
17D3
331
171B
  5
171C
331
33B
  5
33D
331
19B6
  5
19B7
331
100B
  5
100D
331
13B0
  5
13B2
331
1013
  5
1015
331
1851
  5
1860
331
1723
  5
1724
331
1665
  5
1667
331
30C
  5
30D
331
353
  5
358
331
41A
  5
459
331
EFC
  5
FFB
331
19BE
  5
19BF
331
1861
  5
1862
331
166D
  5
166F
331
363
  5
3E9
331
1675
  5
1677
331
2DD
  5
2E0
331
17B3
  5
17B4
331
167D
  5
167F
331
C2D
  5
CB8
331
F0C
  5
FFC
331
CBD
  5
CBF
331
17BB
  5
17BC
331
1685
  5
1687
331
16C4
  5
1714
331
324
  5
325
331
FFC
  5
FFE
331
17C3
  5
17C4
331
164E
  5
1650
331
168D
  5
168F
331
1004
  5
1006
331
1977
  5
19B5
331
17CB
  5
17CC
331
1714
  5
1715
331
18D9
  5
18DA
331
1930
  5
1931
331
1656
  5
1658
331
2FD
  5
2FE
331
17D3
  5
17D4
331
165E
  5
1660
331
171C
  5
171D
331
33C
  5
341
331
19B7
  5
19B8
  0
XRECORD
  5
19FB
102
{ACAD_REACTORS
330
19FA
102
}
330
19FA
100
AcDbXrecord
280
     1
102
SHADEPLOT
 70
     0
  0
XRECORD
  5
19FD
102
{ACAD_REACTORS
330
19FC
102
}
330
19FC
100
AcDbXrecord
280
     1
102
SHADEPLOT
 70
     0
  0
LAYOUT
  5
22
102
{ACAD_XDICTIONARY
360
19F6
102
}
102
{ACAD_REACTORS
330
1A
102
}
330
1A
100
AcDbPlotSettings
  1

  2
EPSON PM-800C
  4
A4
  6

 40
3.757083177566528
 41
14.7637300491333
 42
3.757080078125
 43
3.757080078125
 44
209.9733276367187
 45
296.9683227539062
 46
0.0
 47
0.0
 48
0.0
 49
0.0
140
0.0
141
0.0
142
1.0
143
10.0
 70
 11952
 72
     1
 73
     1
 74
     2
  7

 75
    20
147
0.1
148
0.0
149
0.0
100
AcDbLayout
  1
Model
 70
     1
 71
     0
 10
0.0
 20
0.0
 11
12.0
 21
9.0
 12
0.0
 22
0.0
 32
0.0
 14
0.0
 24
0.0
 34
0.0
 15
0.0
 25
0.0
 35
0.0
146
0.0
 13
0.0
 23
0.0
 33
0.0
 16
1.0
 26
0.0
 36
0.0
 17
0.0
 27
1.0
 37
0.0
 76
     0
330
1F
  0
LAYOUT
  5
1E
102
{ACAD_XDICTIONARY
360
19F4
102
}
102
{ACAD_REACTORS
330
1A
102
}
330
1A
100
AcDbPlotSettings
  1

  2
EPSON PM-800C
  4
A4
  6

 40
3.757083177566528
 41
14.7637300491333
 42
3.757080078125
 43
3.757080078125
 44
209.9733276367187
 45
296.9683227539062
 46
0.0
 47
0.0
 48
0.0
 49
0.0
140
0.0
141
0.0
142
1.0
143
1.0
 70
   688
 72
     1
 73
     1
 74
     5
  7

 75
    16
147
1.0
148
0.0
149
0.0
100
AcDbLayout
  1
ﾚｲｱｳﾄ1
 70
     1
 71
     1
 10
-3.757080078125
 20
-3.757083177566528
 11
293.2112426757813
 21
206.2162444591522
 12
0.0
 22
0.0
 32
0.0
 14
27.8447512626648
 24
20.24591643810271
 34
0.0
 15
250.6027613639831
 25
182.2132479429245
 35
0.0
146
0.0
 13
0.0
 23
0.0
 33
0.0
 16
1.0
 26
0.0
 36
0.0
 17
0.0
 27
1.0
 37
0.0
 76
     0
330
1B
331
2E
  0
LAYOUT
  5
26
102
{ACAD_XDICTIONARY
360
19F8
102
}
102
{ACAD_REACTORS
330
1A
102
}
330
1A
100
AcDbPlotSettings
  1

  2
EPSON PM-800C
  4

  6

 40
0.0
 41
0.0
 42
0.0
 43
0.0
 44
0.0
 45
0.0
 46
0.0
 47
0.0
 48
0.0
 49
0.0
140
0.0
141
0.0
142
1.0
143
1.0
 70
   688
 72
     0
 73
     0
 74
     5
  7

 75
    16
147
1.0
148
0.0
149
0.0
100
AcDbLayout
  1
ﾚｲｱｳﾄ2
 70
     1
 71
     2
 10
0.0
 20
0.0
 11
12.0
 21
9.0
 12
0.0
 22
0.0
 32
0.0
 14
0.0
 24
0.0
 34
0.0
 15
0.0
 25
0.0
 35
0.0
146
0.0
 13
0.0
 23
0.0
 33
0.0
 16
1.0
 26
0.0
 36
0.0
 17
0.0
 27
1.0
 37
0.0
 76
     0
330
23
  0
MLINESTYLE
  5
18
102
{ACAD_REACTORS
330
17
102
}
330
17
100
AcDbMlineStyle
  2
STANDARD
 70
     0
  3

 62
   256
 51
90.0
 52
90.0
 71
     2
 49
0.5
 62
   256
  6
BYLAYER
 49
-0.5
 62
   256
  6
BYLAYER
  0
ACDBPLACEHOLDER
  5
F
102
{ACAD_REACTORS
330
E
102
}
330
E
  0
TABLESTYLE
  5
15C5
102
{ACAD_REACTORS
330
15C4
102
}
330
15C4
100
AcDbTableStyle
  3
Standard
 70
     0
 71
     0
 40
1.5
 41
1.5
280
     0
281
     0
  7
Standard
140
4.5
170
     2
 62
     0
 63
     7
283
     0
274
    -2
284
     1
 64
     0
275
    -2
285
     1
 65
     0
276
    -2
286
     1
 66
     0
277
    -2
287
     1
 67
     0
278
    -2
288
     1
 68
     0
279
    -2
289
     1
 69
     0
  7
Standard
140
6.0
170
     5
 62
     0
 63
     7
283
     0
274
    -2
284
     1
 64
     0
275
    -2
285
     1
 65
     0
276
    -2
286
     1
 66
     0
277
    -2
287
     1
 67
     0
278
    -2
288
     1
 68
     0
279
    -2
289
     1
 69
     0
  7
Standard
140
4.5
170
     5
 62
     0
 63
     7
283
     0
274
    -2
284
     1
 64
     0
275
    -2
285
     1
 65
     0
276
    -2
286
     1
 66
     0
277
    -2
287
     1
 67
     0
278
    -2
288
     1
 68
     0
279
    -2
289
     1
 69
     0
  0
DICTIONARYVAR
  5
15CB
102
{ACAD_REACTORS
330
EFD
102
}
330
EFD
100
DictionaryVariables
280
     0
  1
STANDARD
  0
DICTIONARYVAR
  5
19F0
102
{ACAD_REACTORS
330
EFD
102
}
330
EFD
100
DictionaryVariables
280
     0
  1
1
  0
DICTIONARYVAR
  5
19F1
102
{ACAD_REACTORS
330
EFD
102
}
330
EFD
100
DictionaryVariables
280
     0
  1

  0
DICTIONARYVAR
  5
EFE
102
{ACAD_REACTORS
330
EFD
102
}
330
EFD
100
DictionaryVariables
280
     0
  1
96
  0
DICTIONARY
  5
19F6
330
22
100
AcDbDictionary
280
     1
281
     1
  3
ACAD_XREC_ROUNDTRIP
360
19F7
  0
DICTIONARY
  5
19F4
330
1E
100
AcDbDictionary
280
     1
281
     1
  3
ACAD_XREC_ROUNDTRIP
360
19F5
  0
DICTIONARY
  5
19F8
330
26
100
AcDbDictionary
280
     1
281
     1
  3
ACAD_XREC_ROUNDTRIP
360
19F9
  0
XRECORD
  5
19F7
102
{ACAD_REACTORS
330
19F6
102
}
330
19F6
100
AcDbXrecord
280
     1
102
SHADEPLOT
 70
     0
102
SHADEPLOTRESLEVEL
 70
     2
102
SHADEPLOTCUSTOMDPI
 70
   300
  0
XRECORD
  5
19F5
102
{ACAD_REACTORS
330
19F4
102
}
330
19F4
100
AcDbXrecord
280
     1
102
SHADEPLOT
 70
     0
102
SHADEPLOTRESLEVEL
 70
     2
102
SHADEPLOTCUSTOMDPI
 70
   300
  0
XRECORD
  5
19F9
102
{ACAD_REACTORS
330
19F8
102
}
330
19F8
100
AcDbXrecord
280
     1
102
SHADEPLOT
 70
     0
102
SHADEPLOTRESLEVEL
 70
     2
102
SHADEPLOTCUSTOMDPI
 70
   300
  0
ENDSEC
  0
EOF
