  0
SECTION
  2
HEADER
  9
$ACADVER
  1
AC1015
  9
$ACADMAINTVER
 70
    20
  9
$DWGCODEPAGE
  3
ANSI_932
  9
$INSBASE
 10
0.0
 20
0.0
 30
0.0
  9
$EXTMIN
 10
126.0
 20
4.0
 30
0.0
  9
$EXTMAX
 10
2784.0
 20
2024.0
 30
0.0
  9
$LIMMIN
 10
0.0
 20
0.0
  9
$LIMMAX
 10
29700.0
 20
21000.0
  9
$ORTHOMODE
 70
     1
  9
$REGENMODE
 70
     1
  9
$FILLMODE
 70
     1
  9
$QTEXTMODE
 70
     0
  9
$MIRRTEXT
 70
     1
  9
$LTSCALE
 40
4.0
  9
$ATTMODE
 70
     1
  9
$TEXTSIZE
 40
25.0
  9
$TRACEWID
 40
1.0
  9
$TEXTSTYLE
  7
Standard
  9
$CLAYER
  8
実形
  9
$CELTYPE
  6
ByLayer
  9
$CECOLOR
 62
   256
  9
$CELTSCALE
 40
1.0
  9
$DISPSILH
 70
     0
  9
$DIMSCALE
 40
1.0
  9
$DIMASZ
 40
35.0
  9
$DIMEXO
 40
65.0
  9
$DIMDLI
 40
3.75
  9
$DIMRND
 40
0.0
  9
$DIMDLE
 40
0.0
  9
$DIMEXE
 40
0.0
  9
$DIMTP
 40
0.0
  9
$DIMTM
 40
0.0
  9
$DIMTXT
 40
25.0
  9
$DIMCEN
 40
2.5
  9
$DIMTSZ
 40
0.0
  9
$DIMTOL
 70
     0
  9
$DIMLIM
 70
     0
  9
$DIMTIH
 70
     0
  9
$DIMTOH
 70
     0
  9
$DIMSE1
 70
     0
  9
$DIMSE2
 70
     0
  9
$DIMTAD
 70
     1
  9
$DIMZIN
 70
     8
  9
$DIMBLK
  1
DotSmall
  9
$DIMASO
 70
     1
  9
$DIMSHO
 70
     1
  9
$DIMPOST
  1

  9
$DIMAPOST
  1

  9
$DIMALT
 70
     0
  9
$DIMALTD
 70
     3
  9
$DIMALTF
 40
0.03937007874016
  9
$DIMLFAC
 40
1.0
  9
$DIMTOFL
 70
     1
  9
$DIMTVP
 40
0.0
  9
$DIMTIX
 70
     0
  9
$DIMSOXD
 70
     0
  9
$DIMSAH
 70
     0
  9
$DIMBLK1
  1

  9
$DIMBLK2
  1

  9
$DIMSTYLE
  2
ISO-25
  9
$DIMCLRD
 70
     0
  9
$DIMCLRE
 70
     0
  9
$DIMCLRT
 70
     0
  9
$DIMTFAC
 40
1.0
  9
$DIMGAP
 40
6.25
  9
$DIMJUST
 70
     0
  9
$DIMSD1
 70
     0
  9
$DIMSD2
 70
     0
  9
$DIMTOLJ
 70
     0
  9
$DIMTZIN
 70
     8
  9
$DIMALTZ
 70
     0
  9
$DIMALTTZ
 70
     0
  9
$DIMUPT
 70
     0
  9
$DIMDEC
 70
     2
  9
$DIMTDEC
 70
     2
  9
$DIMALTU
 70
     2
  9
$DIMALTTD
 70
     3
  9
$DIMTXSTY
  7
Standard
  9
$DIMAUNIT
 70
     0
  9
$DIMADEC
 70
     0
  9
$DIMALTRND
 40
0.0
  9
$DIMAZIN
 70
     0
  9
$DIMDSEP
 70
    46
  9
$DIMATFIT
 70
     3
  9
$DIMFRAC
 70
     0
  9
$DIMLDRBLK
  1
Open30
  9
$DIMLUNIT
 70
     2
  9
$DIMLWD
 70
    18
  9
$DIMLWE
 70
    18
  9
$DIMTMOVE
 70
     0
  9
$LUNITS
 70
     2
  9
$LUPREC
 70
     2
  9
$SKETCHINC
 40
1.0
  9
$FILLETRAD
 40
30.0
  9
$AUNITS
 70
     0
  9
$AUPREC
 70
     0
  9
$MENU
  1
.
  9
$ELEVATION
 40
0.0
  9
$PELEVATION
 40
0.0
  9
$THICKNESS
 40
0.0
  9
$LIMCHECK
 70
     1
  9
$CHAMFERA
 40
10.0
  9
$CHAMFERB
 40
10.0
  9
$CHAMFERC
 40
20.0
  9
$CHAMFERD
 40
0.0
  9
$SKPOLY
 70
     0
  9
$TDCREATE
 40
2451673.575802199
  9
$TDUCREATE
 40
2451673.200802199
  9
$TDUPDATE
 40
2458803.781217859
  9
$TDUUPDATE
 40
2458803.406217859
  9
$TDINDWG
 40
0.6705751736
  9
$TDUSRTIMER
 40
0.6705744792
  9
$USRTIMER
 70
     1
  9
$ANGBASE
 50
0.0
  9
$ANGDIR
 70
     0
  9
$PDMODE
 70
     3
  9
$PDSIZE
 40
0.0
  9
$PLINEWID
 40
0.0
  9
$SPLFRAME
 70
     0
  9
$SPLINETYPE
 70
     6
  9
$SPLINESEGS
 70
     8
  9
$HANDSEED
  5
19D3
  9
$SURFTAB1
 70
     6
  9
$SURFTAB2
 70
     6
  9
$SURFTYPE
 70
     6
  9
$SURFU
 70
     6
  9
$SURFV
 70
     6
  9
$UCSBASE
  2

  9
$UCSNAME
  2

  9
$UCSORG
 10
0.0
 20
0.0
 30
0.0
  9
$UCSXDIR
 10
1.0
 20
0.0
 30
0.0
  9
$UCSYDIR
 10
0.0
 20
1.0
 30
0.0
  9
$UCSORTHOREF
  2

  9
$UCSORTHOVIEW
 70
     0
  9
$UCSORGTOP
 10
0.0
 20
0.0
 30
0.0
  9
$UCSORGBOTTOM
 10
0.0
 20
0.0
 30
0.0
  9
$UCSORGLEFT
 10
0.0
 20
0.0
 30
0.0
  9
$UCSORGRIGHT
 10
0.0
 20
0.0
 30
0.0
  9
$UCSORGFRONT
 10
0.0
 20
0.0
 30
0.0
  9
$UCSORGBACK
 10
0.0
 20
0.0
 30
0.0
  9
$PUCSBASE
  2

  9
$PUCSNAME
  2

  9
$PUCSORG
 10
0.0
 20
0.0
 30
0.0
  9
$PUCSXDIR
 10
1.0
 20
0.0
 30
0.0
  9
$PUCSYDIR
 10
0.0
 20
1.0
 30
0.0
  9
$PUCSORTHOREF
  2

  9
$PUCSORTHOVIEW
 70
     0
  9
$PUCSORGTOP
 10
0.0
 20
0.0
 30
0.0
  9
$PUCSORGBOTTOM
 10
0.0
 20
0.0
 30
0.0
  9
$PUCSORGLEFT
 10
0.0
 20
0.0
 30
0.0
  9
$PUCSORGRIGHT
 10
0.0
 20
0.0
 30
0.0
  9
$PUCSORGFRONT
 10
0.0
 20
0.0
 30
0.0
  9
$PUCSORGBACK
 10
0.0
 20
0.0
 30
0.0
  9
$USERI1
 70
     0
  9
$USERI2
 70
     0
  9
$USERI3
 70
     0
  9
$USERI4
 70
     0
  9
$USERI5
 70
     0
  9
$USERR1
 40
0.0
  9
$USERR2
 40
0.0
  9
$USERR3
 40
0.0
  9
$USERR4
 40
0.0
  9
$USERR5
 40
0.0
  9
$WORLDVIEW
 70
     1
  9
$SHADEDGE
 70
     3
  9
$SHADEDIF
 70
    70
  9
$TILEMODE
 70
     1
  9
$MAXACTVP
 70
    64
  9
$PINSBASE
 10
0.0
 20
0.0
 30
0.0
  9
$PLIMCHECK
 70
     0
  9
$PEXTMIN
 10
27.8447512626648
 20
20.24591643810271
 30
0.0
  9
$PEXTMAX
 10
250.6027613639831
 20
182.2132479429245
 30
0.0
  9
$PLIMMIN
 10
-3.757080078125
 20
-3.757083177566528
  9
$PLIMMAX
 10
293.2112426757813
 20
206.2162444591522
  9
$UNITMODE
 70
     0
  9
$VISRETAIN
 70
     1
  9
$PLINEGEN
 70
     0
  9
$PSLTSCALE
 70
     1
  9
$TREEDEPTH
 70
  3020
  9
$CMLSTYLE
  2
Standard
  9
$CMLJUST
 70
     0
  9
$CMLSCALE
 40
20.0
  9
$PROXYGRAPHICS
 70
     1
  9
$MEASUREMENT
 70
     1
  9
$CELWEIGHT
370
    -1
  9
$ENDCAPS
280
     0
  9
$JOINSTYLE
280
     0
  9
$LWDISPLAY
290
     0
  9
$INSUNITS
 70
     4
  9
$HYPERLINKBASE
  1

  9
$STYLESHEET
  1

  9
$XEDIT
290
     1
  9
$CEPSNTYPE
380
     0
  9
$PSTYLEMODE
290
     1
  9
$FINGERPRINTGUID
  2
{C8EA1F16-24C9-11D4-9416-CE0A3B32152F}
  9
$VERSIONGUID
  2
{FF937FAA-CF06-4751-A5E1-5D58683DBAEB}
  9
$EXTNAMES
290
     1
  9
$PSVPSCALE
 40
0.0
  9
$OLESTARTUP
290
     0
  0
ENDSEC
  0
SECTION
  2
CLASSES
  0
CLASS
  1
ACDBDICTIONARYWDFLT
  2
AcDbDictionaryWithDefault
  3
ObjectDBX Classes
 90
        0
280
     0
281
     0
  0
CLASS
  1
ACDBPLACEHOLDER
  2
AcDbPlaceHolder
  3
ObjectDBX Classes
 90
        0
280
     0
281
     0
  0
CLASS
  1
LAYOUT
  2
AcDbLayout
  3
ObjectDBX Classes
 90
        0
280
     0
281
     0
  0
CLASS
  1
TABLESTYLE
  2
AcDbTableStyle
  3
ObjectDBX Classes
 90
     2047
280
     0
281
     0
  0
CLASS
  1
DICTIONARYVAR
  2
AcDbDictionaryVar
  3
ObjectDBX Classes
 90
        0
280
     0
281
     0
  0
CLASS
  1
SORTENTSTABLE
  2
AcDbSortentsTable
  3
ObjectDBX Classes
 90
        0
280
     0
281
     0
  0
ENDSEC
  0
SECTION
  2
TABLES
  0
TABLE
  2
VPORT
  5
8
330
0
100
AcDbSymbolTable
 70
     2
  0
VPORT
  5
19C6
330
8
100
AcDbSymbolTableRecord
100
AcDbViewportTableRecord
  2
*Active
 70
     0
 10
0.0
 20
0.0
 11
1.0
 21
1.0
 12
1453.781596392799
 22
1047.826853087011
 13
0.0
 23
0.0
 14
10.0
 24
10.0
 15
10.0
 25
10.0
 16
0.0
 26
0.0
 36
1.0
 17
0.0
 27
0.0
 37
0.0
 40
2098.930517536527
 41
1.29038112522686
 42
50.0
 43
0.0
 44
0.0
 50
0.0
 51
0.0
 71
     0
 72
   100
 73
     1
 74
     3
 75
     0
 76
     0
 77
     0
 78
     0
281
     0
 65
     1
110
0.0
120
0.0
130
0.0
111
1.0
121
0.0
131
0.0
112
0.0
122
1.0
132
0.0
 79
     0
146
0.0
  0
ENDTAB
  0
TABLE
  2
LTYPE
  5
5
330
0
100
AcDbSymbolTable
 70
    46
  0
LTYPE
  5
14
330
5
100
AcDbSymbolTableRecord
100
AcDbLinetypeTableRecord
  2
ByBlock
 70
     0
  3

 72
    65
 73
     0
 40
0.0
  0
LTYPE
  5
15
330
5
100
AcDbSymbolTableRecord
100
AcDbLinetypeTableRecord
  2
ByLayer
 70
     0
  3

 72
    65
 73
     0
 40
0.0
  0
LTYPE
  5
16
330
5
100
AcDbSymbolTableRecord
100
AcDbLinetypeTableRecord
  2
Continuous
 70
     0
  3
Solid line
 72
    65
 73
     0
 40
0.0
  0
LTYPE
  5
34
330
5
100
AcDbSymbolTableRecord
100
AcDbLinetypeTableRecord
  2
ACAD_ISO02W100
 70
     0
  3
ISO dash __ __ __ __ __ __ __ __ __ __ __ __ __
 72
    65
 73
     2
 40
15.0
 49
12.0
 74
     0
 49
-3.0
 74
     0
  0
LTYPE
  5
35
330
5
100
AcDbSymbolTableRecord
100
AcDbLinetypeTableRecord
  2
ACAD_ISO03W100
 70
     0
  3
ISO dash space __    __    __    __    __    __
 72
    65
 73
     2
 40
30.0
 49
12.0
 74
     0
 49
-18.0
 74
     0
  0
LTYPE
  5
36
330
5
100
AcDbSymbolTableRecord
100
AcDbLinetypeTableRecord
  2
ACAD_ISO04W100
 70
     0
  3
ISO long-dash dot ____ . ____ . ____ . ____ . _
 72
    65
 73
     4
 40
30.0
 49
24.0
 74
     0
 49
-3.0
 74
     0
 49
0.0
 74
     0
 49
-3.0
 74
     0
  0
LTYPE
  5
37
330
5
100
AcDbSymbolTableRecord
100
AcDbLinetypeTableRecord
  2
ACAD_ISO05W100
 70
     0
  3
ISO long-dash double-dot ____ .. ____ .. ____ .
 72
    65
 73
     6
 40
34.0
 49
24.0
 74
     0
 49
-3.0
 74
     0
 49
0.5
 74
     0
 49
-3.0
 74
     0
 49
0.5
 74
     0
 49
-3.0
 74
     0
  0
LTYPE
  5
38
330
5
100
AcDbSymbolTableRecord
100
AcDbLinetypeTableRecord
  2
ACAD_ISO06W100
 70
     0
  3
ISO long-dash triple-dot ____ ... ____ ... ____
 72
    65
 73
     8
 40
37.5
 49
24.0
 74
     0
 49
-3.0
 74
     0
 49
0.5
 74
     0
 49
-3.0
 74
     0
 49
0.5
 74
     0
 49
-3.0
 74
     0
 49
0.5
 74
     0
 49
-3.0
 74
     0
  0
LTYPE
  5
39
330
5
100
AcDbSymbolTableRecord
100
AcDbLinetypeTableRecord
  2
ACAD_ISO07W100
 70
     0
  3
ISO dot . . . . . . . . . . . . . . . . . . . .
 72
    65
 73
     2
 40
3.0
 49
0.0
 74
     0
 49
-3.0
 74
     0
  0
LTYPE
  5
3A
330
5
100
AcDbSymbolTableRecord
100
AcDbLinetypeTableRecord
  2
ACAD_ISO08W100
 70
     0
  3
ISO long-dash short-dash ____ __ ____ __ ____ _
 72
    65
 73
     4
 40
36.0
 49
24.0
 74
     0
 49
-3.0
 74
     0
 49
6.0
 74
     0
 49
-3.0
 74
     0
  0
LTYPE
  5
3B
330
5
100
AcDbSymbolTableRecord
100
AcDbLinetypeTableRecord
  2
ACAD_ISO09W100
 70
     0
  3
ISO long-dash double-short-dash ____ __ __ ____
 72
    65
 73
     6
 40
45.0
 49
24.0
 74
     0
 49
-3.0
 74
     0
 49
6.0
 74
     0
 49
-3.0
 74
     0
 49
6.0
 74
     0
 49
-3.0
 74
     0
  0
LTYPE
  5
3C
330
5
100
AcDbSymbolTableRecord
100
AcDbLinetypeTableRecord
  2
ACAD_ISO10W100
 70
     0
  3
ISO dash dot __ . __ . __ . __ . __ . __ . __ .
 72
    65
 73
     4
 40
18.0
 49
12.0
 74
     0
 49
-3.0
 74
     0
 49
0.0
 74
     0
 49
-3.0
 74
     0
  0
LTYPE
  5
3D
330
5
100
AcDbSymbolTableRecord
100
AcDbLinetypeTableRecord
  2
ACAD_ISO11W100
 70
     0
  3
ISO double-dash dot __ __ . __ __ . __ __ . __ 
 72
    65
 73
     6
 40
33.0
 49
12.0
 74
     0
 49
-3.0
 74
     0
 49
12.0
 74
     0
 49
-3.0
 74
     0
 49
0.0
 74
     0
 49
-3.0
 74
     0
  0
LTYPE
  5
3E
330
5
100
AcDbSymbolTableRecord
100
AcDbLinetypeTableRecord
  2
ACAD_ISO12W100
 70
     0
  3
ISO dash double-dot __ . . __ . . __ . . __ . .
 72
    65
 73
     6
 40
21.0
 49
12.0
 74
     0
 49
-3.0
 74
     0
 49
0.0
 74
     0
 49
-3.0
 74
     0
 49
0.0
 74
     0
 49
-3.0
 74
     0
  0
LTYPE
  5
3F
330
5
100
AcDbSymbolTableRecord
100
AcDbLinetypeTableRecord
  2
ACAD_ISO13W100
 70
     0
  3
ISO double-dash double-dot __ __ . . __ __ . . 
 72
    65
 73
     8
 40
36.0
 49
12.0
 74
     0
 49
-3.0
 74
     0
 49
12.0
 74
     0
 49
-3.0
 74
     0
 49
0.0
 74
     0
 49
-3.0
 74
     0
 49
0.0
 74
     0
 49
-3.0
 74
     0
  0
LTYPE
  5
40
330
5
100
AcDbSymbolTableRecord
100
AcDbLinetypeTableRecord
  2
ACAD_ISO14W100
 70
     0
  3
ISO dash triple-dot __ . . . __ . . . __ . . . 
 72
    65
 73
     8
 40
24.0
 49
12.0
 74
     0
 49
-3.0
 74
     0
 49
0.0
 74
     0
 49
-3.0
 74
     0
 49
0.0
 74
     0
 49
-3.0
 74
     0
 49
0.0
 74
     0
 49
-3.0
 74
     0
  0
LTYPE
  5
41
330
5
100
AcDbSymbolTableRecord
100
AcDbLinetypeTableRecord
  2
ACAD_ISO15W100
 70
     0
  3
ISO double-dash triple-dot __ __ . . . __ __ . 
 72
    65
 73
    10
 40
39.0
 49
12.0
 74
     0
 49
-3.0
 74
     0
 49
12.0
 74
     0
 49
-3.0
 74
     0
 49
0.0
 74
     0
 49
-3.0
 74
     0
 49
0.0
 74
     0
 49
-3.0
 74
     0
 49
0.0
 74
     0
 49
-3.0
 74
     0
  0
LTYPE
  5
42
330
5
100
AcDbSymbolTableRecord
100
AcDbLinetypeTableRecord
  2
BATTING
 70
     0
  3
Batting SSSSSSSSSSSSSSSSSSSSSSSSSSSSSSSSSSSSSSS
 72
    65
 73
     4
 40
10.16254
 49
0.00254
 74
     0
 49
-2.54
 74
     4
 75
   134
340
33
 46
2.54
 50
0.0
 44
-2.54
 45
0.0
 49
-5.08
 74
     4
 75
   134
340
33
 46
2.54
 50
180.0
 44
2.54
 45
0.0
 49
-2.54
 74
     0
  0
LTYPE
  5
43
330
5
100
AcDbSymbolTableRecord
100
AcDbLinetypeTableRecord
  2
BORDER
 70
     0
  3
Border __ __ . __ __ . __ __ . __ __ . __ __ .
 72
    65
 73
     6
 40
44.45
 49
12.7
 74
     0
 49
-6.349999999999999
 74
     0
 49
12.7
 74
     0
 49
-6.349999999999999
 74
     0
 49
0.0
 74
     0
 49
-6.349999999999999
 74
     0
  0
LTYPE
  5
44
330
5
100
AcDbSymbolTableRecord
100
AcDbLinetypeTableRecord
  2
BORDER2
 70
     0
  3
Border (.5x) __.__.__.__.__.__.__.__.__.__.__.
 72
    65
 73
     6
 40
22.225
 49
6.349999999999999
 74
     0
 49
-3.174999999999999
 74
     0
 49
6.349999999999999
 74
     0
 49
-3.174999999999999
 74
     0
 49
0.0
 74
     0
 49
-3.174999999999999
 74
     0
  0
LTYPE
  5
45
330
5
100
AcDbSymbolTableRecord
100
AcDbLinetypeTableRecord
  2
BORDERX2
 70
     0
  3
Border (2x) ____  ____  .  ____  ____  .  ___
 72
    65
 73
     6
 40
88.9
 49
25.4
 74
     0
 49
-12.7
 74
     0
 49
25.4
 74
     0
 49
-12.7
 74
     0
 49
0.0
 74
     0
 49
-12.7
 74
     0
  0
LTYPE
  5
46
330
5
100
AcDbSymbolTableRecord
100
AcDbLinetypeTableRecord
  2
CENTER
 70
     0
  3
Center ____ _ ____ _ ____ _ ____ _ ____ _ ____
 72
    65
 73
     4
 40
50.8
 49
31.75
 74
     0
 49
-6.349999999999999
 74
     0
 49
6.349999999999999
 74
     0
 49
-6.349999999999999
 74
     0
  0
LTYPE
  5
47
330
5
100
AcDbSymbolTableRecord
100
AcDbLinetypeTableRecord
  2
CENTER2
 70
     0
  3
Center (.5x) ___ _ ___ _ ___ _ ___ _ ___ _ ___
 72
    65
 73
     4
 40
28.575
 49
19.05
 74
     0
 49
-3.174999999999999
 74
     0
 49
3.174999999999999
 74
     0
 49
-3.174999999999999
 74
     0
  0
LTYPE
  5
48
330
5
100
AcDbSymbolTableRecord
100
AcDbLinetypeTableRecord
  2
CENTERX2
 70
     0
  3
Center (2x) ________  __  ________  __  _____
 72
    65
 73
     4
 40
101.6
 49
63.5
 74
     0
 49
-12.7
 74
     0
 49
12.7
 74
     0
 49
-12.7
 74
     0
  0
LTYPE
  5
49
330
5
100
AcDbSymbolTableRecord
100
AcDbLinetypeTableRecord
  2
DASHDOT
 70
     0
  3
Dash dot __ . __ . __ . __ . __ . __ . __ . __
 72
    65
 73
     4
 40
25.4
 49
12.7
 74
     0
 49
-6.349999999999999
 74
     0
 49
0.0
 74
     0
 49
-6.349999999999999
 74
     0
  0
LTYPE
  5
4A
330
5
100
AcDbSymbolTableRecord
100
AcDbLinetypeTableRecord
  2
DASHDOT2
 70
     0
  3
Dash dot (.5x) _._._._._._._._._._._._._._._.
 72
    65
 73
     4
 40
12.7
 49
6.349999999999999
 74
     0
 49
-3.174999999999999
 74
     0
 49
0.0
 74
     0
 49
-3.174999999999999
 74
     0
  0
LTYPE
  5
4B
330
5
100
AcDbSymbolTableRecord
100
AcDbLinetypeTableRecord
  2
DASHDOTX2
 70
     0
  3
Dash dot (2x) ____  .  ____  .  ____  .  ___
 72
    65
 73
     4
 40
50.8
 49
25.4
 74
     0
 49
-12.7
 74
     0
 49
0.0
 74
     0
 49
-12.7
 74
     0
  0
LTYPE
  5
4C
330
5
100
AcDbSymbolTableRecord
100
AcDbLinetypeTableRecord
  2
DASHED
 70
     0
  3
Dashed __ __ __ __ __ __ __ __ __ __ __ __ __ _
 72
    65
 73
     2
 40
19.05
 49
12.7
 74
     0
 49
-6.349999999999999
 74
     0
  0
LTYPE
  5
4D
330
5
100
AcDbSymbolTableRecord
100
AcDbLinetypeTableRecord
  2
DASHED2
 70
     0
  3
Dashed (.5x) _ _ _ _ _ _ _ _ _ _ _ _ _ _ _ _ _
 72
    65
 73
     2
 40
9.524999999999998
 49
6.349999999999999
 74
     0
 49
-3.174999999999999
 74
     0
  0
LTYPE
  5
4E
330
5
100
AcDbSymbolTableRecord
100
AcDbLinetypeTableRecord
  2
DASHEDX2
 70
     0
  3
Dashed (2x) ____  ____  ____  ____  ____  ___
 72
    65
 73
     2
 40
38.1
 49
25.4
 74
     0
 49
-12.7
 74
     0
  0
LTYPE
  5
4F
330
5
100
AcDbSymbolTableRecord
100
AcDbLinetypeTableRecord
  2
DIVIDE
 70
     0
  3
Divide ____ . . ____ . . ____ . . ____ . . ____
 72
    65
 73
     6
 40
31.75
 49
12.7
 74
     0
 49
-6.349999999999999
 74
     0
 49
0.0
 74
     0
 49
-6.349999999999999
 74
     0
 49
0.0
 74
     0
 49
-6.349999999999999
 74
     0
  0
LTYPE
  5
50
330
5
100
AcDbSymbolTableRecord
100
AcDbLinetypeTableRecord
  2
DIVIDE2
 70
     0
  3
Divide (.5x) __..__..__..__..__..__..__..__.._
 72
    65
 73
     6
 40
15.875
 49
6.349999999999999
 74
     0
 49
-3.174999999999999
 74
     0
 49
0.0
 74
     0
 49
-3.174999999999999
 74
     0
 49
0.0
 74
     0
 49
-3.174999999999999
 74
     0
  0
LTYPE
  5
51
330
5
100
AcDbSymbolTableRecord
100
AcDbLinetypeTableRecord
  2
DIVIDEX2
 70
     0
  3
Divide (2x) ________  .  .  ________  .  .  _
 72
    65
 73
     6
 40
63.49999999999999
 49
25.4
 74
     0
 49
-12.7
 74
     0
 49
0.0
 74
     0
 49
-12.7
 74
     0
 49
0.0
 74
     0
 49
-12.7
 74
     0
  0
LTYPE
  5
52
330
5
100
AcDbSymbolTableRecord
100
AcDbLinetypeTableRecord
  2
DOT
 70
     0
  3
Dot . . . . . . . . . . . . . . . . . . . . . .
 72
    65
 73
     2
 40
6.349999999999999
 49
0.0
 74
     0
 49
-6.349999999999999
 74
     0
  0
LTYPE
  5
53
330
5
100
AcDbSymbolTableRecord
100
AcDbLinetypeTableRecord
  2
DOT2
 70
     0
  3
Dot (.5x) .....................................
 72
    65
 73
     2
 40
3.174999999999999
 49
0.0
 74
     0
 49
-3.174999999999999
 74
     0
  0
LTYPE
  5
54
330
5
100
AcDbSymbolTableRecord
100
AcDbLinetypeTableRecord
  2
DOTX2
 70
     0
  3
Dot (2x) .  .  .  .  .  .  .  .  .  .  .  .  . 
 72
    65
 73
     2
 40
12.7
 49
0.0
 74
     0
 49
-12.7
 74
     0
  0
LTYPE
  5
55
330
5
100
AcDbSymbolTableRecord
100
AcDbLinetypeTableRecord
  2
FENCELINE1
 70
     0
  3
Fenceline circle ----0-----0----0-----0----0---
 72
    65
 73
     4
 40
36.83
 49
6.349999999999999
 74
     0
 49
-2.54
 74
     4
 75
   133
340
33
 46
2.54
 50
0.0
 44
-2.54
 45
0.0
 49
-2.54
 74
     0
 49
25.4
 74
     0
  0
LTYPE
  5
56
330
5
100
AcDbSymbolTableRecord
100
AcDbLinetypeTableRecord
  2
FENCELINE2
 70
     0
  3
Fenceline square ----[]-----[]----[]-----[]----
 72
    65
 73
     4
 40
36.83
 49
6.349999999999999
 74
     0
 49
-2.54
 74
     4
 75
   132
340
33
 46
2.54
 50
0.0
 44
-2.54
 45
0.0
 49
-2.54
 74
     0
 49
25.4
 74
     0
  0
LTYPE
  5
57
330
5
100
AcDbSymbolTableRecord
100
AcDbLinetypeTableRecord
  2
GAS_LINE
 70
     0
  3
Gas line ----GAS----GAS----GAS----GAS----GAS---
 72
    65
 73
     3
 40
24.13
 49
12.7
 74
     0
 49
-5.08
 74
     2
 75
     0
340
11
 46
2.54
 50
0.0
 44
-2.54
 45
-1.27
  9
GAS
 49
-6.349999999999999
 74
     0
  0
LTYPE
  5
58
330
5
100
AcDbSymbolTableRecord
100
AcDbLinetypeTableRecord
  2
HIDDEN
 70
     0
  3
Hidden __ __ __ __ __ __ __ __ __ __ __ __ __ _
 72
    65
 73
     2
 40
9.524999999999998
 49
6.349999999999999
 74
     0
 49
-3.174999999999999
 74
     0
  0
LTYPE
  5
59
330
5
100
AcDbSymbolTableRecord
100
AcDbLinetypeTableRecord
  2
HIDDEN2
 70
     0
  3
Hidden (.5x) _ _ _ _ _ _ _ _ _ _ _ _ _ _ _ _ _
 72
    65
 73
     2
 40
4.762499999999999
 49
3.174999999999999
 74
     0
 49
-1.587499999999999
 74
     0
  0
LTYPE
  5
5A
330
5
100
AcDbSymbolTableRecord
100
AcDbLinetypeTableRecord
  2
HIDDENX2
 70
     0
  3
Hidden (2x) ____ ____ ____ ____ ____ ____ ____
 72
    65
 73
     2
 40
19.05
 49
12.7
 74
     0
 49
-6.349999999999999
 74
     0
  0
LTYPE
  5
5B
330
5
100
AcDbSymbolTableRecord
100
AcDbLinetypeTableRecord
  2
HOT_WATER_SUPPLY
 70
     0
  3
Hot water supply ---- HW ---- HW ---- HW ----
 72
    65
 73
     3
 40
22.86
 49
12.7
 74
     0
 49
-5.08
 74
     2
 75
     0
340
11
 46
2.54
 50
0.0
 44
-2.54
 45
-1.27
  9
HW
 49
-5.08
 74
     0
  0
LTYPE
  5
5C
330
5
100
AcDbSymbolTableRecord
100
AcDbLinetypeTableRecord
  2
PHANTOM
 70
     0
  3
Phantom ______  __  __  ______  __  __  ______
 72
    65
 73
     6
 40
63.5
 49
31.75
 74
     0
 49
-6.349999999999999
 74
     0
 49
6.349999999999999
 74
     0
 49
-6.349999999999999
 74
     0
 49
6.349999999999999
 74
     0
 49
-6.349999999999999
 74
     0
  0
LTYPE
  5
5D
330
5
100
AcDbSymbolTableRecord
100
AcDbLinetypeTableRecord
  2
PHANTOM2
 70
     0
  3
Phantom (.5x) ___ _ _ ___ _ _ ___ _ _ ___ _ _
 72
    65
 73
     6
 40
31.75
 49
15.875
 74
     0
 49
-3.174999999999999
 74
     0
 49
3.174999999999999
 74
     0
 49
-3.174999999999999
 74
     0
 49
3.174999999999999
 74
     0
 49
-3.174999999999999
 74
     0
  0
LTYPE
  5
5E
330
5
100
AcDbSymbolTableRecord
100
AcDbLinetypeTableRecord
  2
PHANTOMX2
 70
     0
  3
Phantom (2x) ____________    ____    ____   _
 72
    65
 73
     6
 40
127.0
 49
63.5
 74
     0
 49
-12.7
 74
     0
 49
12.7
 74
     0
 49
-12.7
 74
     0
 49
12.7
 74
     0
 49
-12.7
 74
     0
  0
LTYPE
  5
5F
330
5
100
AcDbSymbolTableRecord
100
AcDbLinetypeTableRecord
  2
TRACKS
 70
     0
  3
Tracks -|-|-|-|-|-|-|-|-|-|-|-|-|-|-|-|-|-|-|-|
 72
    65
 73
     2
 40
7.62
 49
3.81
 74
     4
 75
   130
340
33
 46
6.349999999999999
 50
0.0
 44
0.0
 45
0.0
 49
3.81
 74
     0
  0
LTYPE
  5
60
330
5
100
AcDbSymbolTableRecord
100
AcDbLinetypeTableRecord
  2
ZIGZAG
 70
     0
  3
Zig zag /\/\/\/\/\/\/\/\/\/\/\/\/\/\/\/\/\/\/\/
 72
    65
 73
     4
 40
20.32254
 49
0.00254
 74
     0
 49
-5.08
 74
     4
 75
   131
340
33
 46
5.08
 50
0.0
 44
-5.08
 45
0.0
 49
-10.16
 74
     4
 75
   131
340
33
 46
5.08
 50
180.0
 44
5.08
 45
0.0
 49
-5.08
 74
     0
  0
ENDTAB
  0
TABLE
  2
LAYER
  5
2
102
{ACAD_XDICTIONARY
360
1937
102
}
330
0
100
AcDbSymbolTable
 70
     9
  0
LAYER
  5
10
330
2
100
AcDbSymbolTableRecord
100
AcDbLayerTableRecord
  2
0
 70
     0
 62
     7
  6
Continuous
370
    -3
390
F
  0
LAYER
  5
C3
330
2
100
AcDbSymbolTableRecord
100
AcDbLayerTableRecord
  2
Defpoints
 70
     0
 62
     7
  6
Continuous
290
     0
370
    -3
390
F
  0
LAYER
  5
256
330
2
100
AcDbSymbolTableRecord
100
AcDbLayerTableRecord
  2
センター
 70
     0
 62
     7
  6
CENTER2
370
    18
390
F
  0
LAYER
  5
268
330
2
100
AcDbSymbolTableRecord
100
AcDbLayerTableRecord
  2
実形
 70
     0
 62
     7
  6
Continuous
370
    -3
390
F
  0
LAYER
  5
269
330
2
100
AcDbSymbolTableRecord
100
AcDbLayerTableRecord
  2
補助
 70
     0
 62
     7
  6
Continuous
370
    -3
390
F
  0
LAYER
  5
26A
330
2
100
AcDbSymbolTableRecord
100
AcDbLayerTableRecord
  2
寸法
 70
     0
 62
     7
  6
Continuous
370
    18
390
F
  0
LAYER
  5
26B
330
2
100
AcDbSymbolTableRecord
100
AcDbLayerTableRecord
  2
ハッチング
 70
     0
 62
     7
  6
Continuous
370
    18
390
F
  0
LAYER
  5
26D
330
2
100
AcDbSymbolTableRecord
100
AcDbLayerTableRecord
  2
文字
 70
     0
 62
     7
  6
Continuous
370
    -3
390
F
  0
LAYER
  5
161B
330
2
100
AcDbSymbolTableRecord
100
AcDbLayerTableRecord
  2
Cen
 70
     0
 62
     7
  6
CENTER2
370
    15
390
F
  0
ENDTAB
  0
TABLE
  2
STYLE
  5
3
330
0
100
AcDbSymbolTable
 70
     3
  0
STYLE
  5
11
330
3
100
AcDbSymbolTableRecord
100
AcDbTextStyleTableRecord
  2
Standard
 70
     0
 40
0.0
 41
1.0
 50
0.0
 71
     0
 42
25.0
  3
txt.shx
  4
bigfont.shx
  0
STYLE
  5
33
330
3
100
AcDbSymbolTableRecord
100
AcDbTextStyleTableRecord
  2

 70
     1
 40
0.0
 41
1.0
 50
0.0
 71
     0
 42
2.5
  3
ltypeshp.shx
  4

  0
STYLE
  5
1974
330
3
100
AcDbSymbolTableRecord
100
AcDbTextStyleTableRecord
  2
明朝
 70
     0
 40
0.0
 41
1.0
 50
0.0
 71
     0
 42
25.0
  3
MS Mincho.ttf
  4

1001
ACAD
1000
MS Mincho
1071
    32785
  0
ENDTAB
  0
TABLE
  2
VIEW
  5
6
330
0
100
AcDbSymbolTable
 70
     0
  0
ENDTAB
  0
TABLE
  2
UCS
  5
7
330
0
100
AcDbSymbolTable
 70
     0
  0
ENDTAB
  0
TABLE
  2
APPID
  5
9
330
0
100
AcDbSymbolTable
 70
     1
  0
APPID
  5
12
330
9
100
AcDbSymbolTableRecord
100
AcDbRegAppTableRecord
  2
ACAD
 70
     0
  0
ENDTAB
  0
TABLE
  2
DIMSTYLE
  5
A
330
0
100
AcDbSymbolTable
 70
     1
100
AcDbDimStyleTable
 71
     1
340
27
  0
DIMSTYLE
105
27
102
{ACAD_REACTORS
330
368
330
44B
330
458
330
4A3
330
569
330
57F
330
35B
330
3CE
330
43D
330
3E9
330
3DC
330
3F6
330
4F8
330
505
330
1535
330
1536
330
1537
330
1538
330
1539
330
15E8
330
17B2
330
17B3
330
1805
330
1806
102
}
330
A
100
AcDbSymbolTableRecord
100
AcDbDimStyleTableRecord
  2
ISO-25
 70
     0
 41
35.0
 42
65.0
 43
3.75
 44
0.0
 73
     0
 74
     0
 77
     1
 78
     8
140
25.0
141
2.5
143
0.03937007874016
147
6.25
171
     3
172
     1
271
     2
272
     2
274
     3
283
     0
284
     8
340
11
341
DA
342
D0
371
    15
372
    15
  0
ENDTAB
  0
TABLE
  2
BLOCK_RECORD
  5
1
330
0
100
AcDbSymbolTable
 70
    28
  0
BLOCK_RECORD
  5
1F
102
{ACAD_XDICTIONARY
360
1972
102
}
330
1
100
AcDbSymbolTableRecord
100
AcDbBlockTableRecord
  2
*Model_Space
340
22
  0
BLOCK_RECORD
  5
1B
330
1
100
AcDbSymbolTableRecord
100
AcDbBlockTableRecord
  2
*Paper_Space
340
1E
  0
BLOCK_RECORD
  5
23
330
1
100
AcDbSymbolTableRecord
100
AcDbBlockTableRecord
  2
*Paper_Space0
340
26
  0
BLOCK_RECORD
  5
D0
330
1
100
AcDbSymbolTableRecord
100
AcDbBlockTableRecord
  2
_DotSmall
340
0
102
{BLKREFS
331
1838
331
1839
331
1841
331
1842
331
1849
331
184A
331
1852
331
1853
331
185B
331
185C
331
1863
331
1864
331
186C
331
186D
331
1875
331
1876
331
187E
331
187F
331
1887
331
1888
331
1890
331
1891
331
1899
331
189A
331
18A2
331
18A3
331
18AB
331
18AC
331
18B4
331
18B5
331
18BD
331
18BE
331
18C5
331
18C6
331
18CF
331
18D0
331
18D7
331
18D8
331
18E1
331
18E2
331
18E9
331
18EA
331
18F2
331
18F3
331
18FA
331
18FB
331
1903
331
1904
102
}
  0
BLOCK_RECORD
  5
D4
330
1
100
AcDbSymbolTableRecord
100
AcDbBlockTableRecord
  2
_Origin2
340
0
  0
BLOCK_RECORD
  5
DA
330
1
100
AcDbSymbolTableRecord
100
AcDbBlockTableRecord
  2
_Open30
340
0
  0
BLOCK_RECORD
  5
35C
330
1
100
AcDbSymbolTableRecord
100
AcDbBlockTableRecord
  2
*D4
340
0
  0
BLOCK_RECORD
  5
369
330
1
100
AcDbSymbolTableRecord
100
AcDbBlockTableRecord
  2
*D5
340
0
  0
BLOCK_RECORD
  5
3CF
330
1
100
AcDbSymbolTableRecord
100
AcDbBlockTableRecord
  2
*D6
340
0
  0
BLOCK_RECORD
  5
3DD
330
1
100
AcDbSymbolTableRecord
100
AcDbBlockTableRecord
  2
*D7
340
0
  0
BLOCK_RECORD
  5
3EA
330
1
100
AcDbSymbolTableRecord
100
AcDbBlockTableRecord
  2
*D8
340
0
  0
BLOCK_RECORD
  5
3F7
330
1
100
AcDbSymbolTableRecord
100
AcDbBlockTableRecord
  2
*D9
340
0
  0
BLOCK_RECORD
  5
43E
330
1
100
AcDbSymbolTableRecord
100
AcDbBlockTableRecord
  2
*D10
340
0
  0
BLOCK_RECORD
  5
44C
330
1
100
AcDbSymbolTableRecord
100
AcDbBlockTableRecord
  2
*D11
340
0
  0
BLOCK_RECORD
  5
459
330
1
100
AcDbSymbolTableRecord
100
AcDbBlockTableRecord
  2
*D12
340
0
  0
BLOCK_RECORD
  5
4A4
330
1
100
AcDbSymbolTableRecord
100
AcDbBlockTableRecord
  2
*D13
340
0
  0
BLOCK_RECORD
  5
4F9
330
1
100
AcDbSymbolTableRecord
100
AcDbBlockTableRecord
  2
*D14
340
0
  0
BLOCK_RECORD
  5
506
330
1
100
AcDbSymbolTableRecord
100
AcDbBlockTableRecord
  2
*D15
340
0
  0
BLOCK_RECORD
  5
56A
330
1
100
AcDbSymbolTableRecord
100
AcDbBlockTableRecord
  2
*D16
340
0
  0
BLOCK_RECORD
  5
580
330
1
100
AcDbSymbolTableRecord
100
AcDbBlockTableRecord
  2
*D17
340
0
  0
BLOCK_RECORD
  5
1557
330
1
100
AcDbSymbolTableRecord
100
AcDbBlockTableRecord
  2
*D18
340
0
  0
BLOCK_RECORD
  5
1563
330
1
100
AcDbSymbolTableRecord
100
AcDbBlockTableRecord
  2
*D19
340
0
  0
BLOCK_RECORD
  5
156F
330
1
100
AcDbSymbolTableRecord
100
AcDbBlockTableRecord
  2
*D20
340
0
  0
BLOCK_RECORD
  5
157B
330
1
100
AcDbSymbolTableRecord
100
AcDbBlockTableRecord
  2
*D21
340
0
  0
BLOCK_RECORD
  5
1587
330
1
100
AcDbSymbolTableRecord
100
AcDbBlockTableRecord
  2
*D22
340
0
  0
BLOCK_RECORD
  5
15F3
330
1
100
AcDbSymbolTableRecord
100
AcDbBlockTableRecord
  2
*D23
340
0
  0
BLOCK_RECORD
  5
17BA
330
1
100
AcDbSymbolTableRecord
100
AcDbBlockTableRecord
  2
*D24
340
0
  0
BLOCK_RECORD
  5
17C5
330
1
100
AcDbSymbolTableRecord
100
AcDbBlockTableRecord
  2
*D25
340
0
  0
BLOCK_RECORD
  5
180D
330
1
100
AcDbSymbolTableRecord
100
AcDbBlockTableRecord
  2
*D26
340
0
  0
BLOCK_RECORD
  5
1818
330
1
100
AcDbSymbolTableRecord
100
AcDbBlockTableRecord
  2
*D27
340
0
  0
ENDTAB
  0
ENDSEC
  0
SECTION
  2
BLOCKS
  0
BLOCK
  5
20
330
1F
100
AcDbEntity
  8
0
100
AcDbBlockBegin
  2
*Model_Space
 70
     0
 10
0.0
 20
0.0
 30
0.0
  3
*Model_Space
  1

  0
ENDBLK
  5
21
330
1F
100
AcDbEntity
  8
0
100
AcDbBlockEnd
  0
BLOCK
  5
1C
330
1B
100
AcDbEntity
 67
     1
  8
0
100
AcDbBlockBegin
  2
*Paper_Space
 70
     0
 10
0.0
 20
0.0
 30
0.0
  3
*Paper_Space
  1

  0
ENDBLK
  5
1D
330
1B
100
AcDbEntity
 67
     1
  8
0
100
AcDbBlockEnd
  0
BLOCK
  5
24
330
23
100
AcDbEntity
  8
0
100
AcDbBlockBegin
  2
*Paper_Space0
 70
     0
 10
0.0
 20
0.0
 30
0.0
  3
*Paper_Space0
  1

  0
ENDBLK
  5
25
330
23
100
AcDbEntity
  8
0
100
AcDbBlockEnd
  0
BLOCK
  5
D2
330
D0
100
AcDbEntity
  8
0
100
AcDbBlockBegin
  2
_DotSmall
 70
     0
 10
0.0
 20
0.0
 30
0.0
  3
_DotSmall
  1

  0
LWPOLYLINE
  5
D1
330
D0
100
AcDbEntity
  8
0
 62
     0
100
AcDbPolyline
 90
        2
 70
     1
 43
0.5
 10
-0.0625
 20
0.0
 42
1.0
 10
0.0625
 20
0.0
 42
1.0
  0
ENDBLK
  5
D3
330
D0
100
AcDbEntity
  8
0
100
AcDbBlockEnd
  0
BLOCK
  5
D8
330
D4
100
AcDbEntity
  8
0
100
AcDbBlockBegin
  2
_Origin2
 70
     0
 10
0.0
 20
0.0
 30
0.0
  3
_Origin2
  1

  0
CIRCLE
  5
D5
330
D4
100
AcDbEntity
  8
0
 62
     0
370
    -2
100
AcDbCircle
 10
0.0
 20
0.0
 30
0.0
 40
0.5
  0
CIRCLE
  5
D6
330
D4
100
AcDbEntity
  8
0
 62
     0
370
    -2
100
AcDbCircle
 10
0.0
 20
0.0
 30
0.0
 40
0.25
  0
LINE
  5
D7
330
D4
100
AcDbEntity
  8
0
 62
     0
370
    -2
100
AcDbLine
 10
-0.5
 20
0.0
 30
0.0
 11
-1.0
 21
0.0
 31
0.0
  0
ENDBLK
  5
D9
330
D4
100
AcDbEntity
  8
0
100
AcDbBlockEnd
  0
BLOCK
  5
DE
330
DA
100
AcDbEntity
  8
0
100
AcDbBlockBegin
  2
_Open30
 70
     0
 10
0.0
 20
0.0
 30
0.0
  3
_Open30
  1

  0
LINE
  5
DB
330
DA
100
AcDbEntity
  8
0
 62
     0
370
    -2
100
AcDbLine
 10
-1.0
 20
0.26794919
 30
0.0
 11
0.0
 21
0.0
 31
0.0
  0
LINE
  5
DC
330
DA
100
AcDbEntity
  8
0
 62
     0
370
    -2
100
AcDbLine
 10
0.0
 20
0.0
 30
0.0
 11
-1.0
 21
-0.26794919
 31
0.0
  0
LINE
  5
DD
330
DA
100
AcDbEntity
  8
0
 62
     0
370
    -2
100
AcDbLine
 10
0.0
 20
0.0
 30
0.0
 11
-1.0
 21
0.0
 31
0.0
  0
ENDBLK
  5
DF
330
DA
100
AcDbEntity
  8
0
100
AcDbBlockEnd
  0
BLOCK
  5
366
330
35C
100
AcDbEntity
  8
0
100
AcDbBlockBegin
  2
*D4
 70
     1
 10
0.0
 20
0.0
 30
0.0
  3
*D4
  1

  0
LINE
  5
1900
330
35C
100
AcDbEntity
  8
寸法
 62
     0
370
    15
100
AcDbLine
 10
1197.33470092179
 20
1568.359507154115
 30
0.0
 11
1197.33470092179
 21
1747.162625317523
 31
0.0
  0
LINE
  5
1901
330
35C
100
AcDbEntity
  8
寸法
 62
     0
370
    15
100
AcDbLine
 10
1069.83470092179
 20
1658.826706059002
 30
0.0
 11
1069.83470092179
 21
1747.162625317523
 31
0.0
  0
LINE
  5
1902
330
35C
100
AcDbEntity
  8
寸法
 62
     0
370
    18
100
AcDbLine
 10
1197.33470092179
 20
1747.162625317523
 30
0.0
 11
1069.83470092179
 21
1747.162625317523
 31
0.0
  0
INSERT
  5
1903
330
35C
100
AcDbEntity
  8
寸法
 62
     0
370
    18
100
AcDbBlockReference
  2
_DotSmall
 10
1197.33470092179
 20
1747.162625317523
 30
0.0
 41
25.0
 42
25.0
 43
25.0
  0
INSERT
  5
1904
330
35C
100
AcDbEntity
  8
寸法
 62
     0
370
    18
100
AcDbBlockReference
  2
_DotSmall
 10
1069.83470092179
 20
1747.162625317523
 30
0.0
 41
25.0
 42
25.0
 43
25.0
 50
180.0
  0
MTEXT
  5
1905
330
35C
100
AcDbEntity
  8
寸法
 62
     0
100
AcDbMText
 10
1133.58470092179
 20
1765.912625317523
 30
0.0
 40
25.0
 41
0.0
 71
     5
 72
     1
  1
127.5
 73
     1
 44
1.0
1001
ACAD
1000
MTEXTBEGIN
1070
    73
1070
     1
1070
    44
1040
1.0
1070
    74
1070
     0
1000
MTEXTEND
  0
POINT
  5
1906
330
35C
100
AcDbEntity
  8
Defpoints
 62
     0
100
AcDbPoint
 10
1197.33470092179
 20
1503.359507154115
 30
0.0
  0
POINT
  5
1907
330
35C
100
AcDbEntity
  8
Defpoints
 62
     0
100
AcDbPoint
 10
1069.83470092179
 20
1593.826706059003
 30
0.0
  0
POINT
  5
1908
330
35C
100
AcDbEntity
  8
Defpoints
 62
     0
100
AcDbPoint
 10
1069.83470092179
 20
1747.162625317523
 30
0.0
  0
ENDBLK
  5
367
330
35C
100
AcDbEntity
  8
0
100
AcDbBlockEnd
  0
BLOCK
  5
373
330
369
100
AcDbEntity
  8
0
100
AcDbBlockBegin
  2
*D5
 70
     1
 10
0.0
 20
0.0
 30
0.0
  3
*D5
  1

  0
LINE
  5
18F7
330
369
100
AcDbEntity
  8
寸法
 62
     0
370
    15
100
AcDbLine
 10
1262.33470092179
 20
1503.359507154115
 30
0.0
 11
1437.437713540772
 21
1503.359507154115
 31
0.0
  0
LINE
  5
18F8
330
369
100
AcDbEntity
  8
寸法
 62
     0
370
    15
100
AcDbLine
 10
1334.847057412082
 20
1653.359507154115
 30
0.0
 11
1437.437713540772
 21
1653.359507154115
 31
0.0
  0
LINE
  5
18F9
330
369
100
AcDbEntity
  8
寸法
 62
     0
370
    18
100
AcDbLine
 10
1437.437713540772
 20
1503.359507154115
 30
0.0
 11
1437.437713540772
 21
1653.359507154115
 31
0.0
  0
INSERT
  5
18FA
330
369
100
AcDbEntity
  8
寸法
 62
     0
370
    18
100
AcDbBlockReference
  2
_DotSmall
 10
1437.437713540772
 20
1503.359507154115
 30
0.0
 41
25.0
 42
25.0
 43
25.0
 50
270.0
  0
INSERT
  5
18FB
330
369
100
AcDbEntity
  8
寸法
 62
     0
370
    18
100
AcDbBlockReference
  2
_DotSmall
 10
1437.437713540772
 20
1653.359507154115
 30
0.0
 41
25.0
 42
25.0
 43
25.0
 50
90.0
  0
MTEXT
  5
18FC
330
369
100
AcDbEntity
  8
寸法
 62
     0
100
AcDbMText
 10
1418.687713540772
 20
1578.359507154115
 30
0.0
 40
25.0
 41
0.0
 71
     5
 72
     1
  1
150
 11
0.0000000000000001
 21
1.0
 31
0.0
 73
     1
 44
1.0
1001
ACAD
1000
MTEXTBEGIN
1070
    73
1070
     1
1070
    44
1040
1.0
1070
    74
1070
     0
1000
MTEXTEND
  0
POINT
  5
18FD
330
369
100
AcDbEntity
  8
Defpoints
 62
     0
100
AcDbPoint
 10
1197.33470092179
 20
1503.359507154115
 30
0.0
  0
POINT
  5
18FE
330
369
100
AcDbEntity
  8
Defpoints
 62
     0
100
AcDbPoint
 10
1269.847057412082
 20
1653.359507154115
 30
0.0
  0
POINT
  5
18FF
330
369
100
AcDbEntity
  8
Defpoints
 62
     0
100
AcDbPoint
 10
1437.437713540772
 20
1653.359507154115
 30
0.0
  0
ENDBLK
  5
374
330
369
100
AcDbEntity
  8
0
100
AcDbBlockEnd
  0
BLOCK
  5
3DA
330
3CF
100
AcDbEntity
  8
0
100
AcDbBlockBegin
  2
*D6
 70
     1
 10
0.0
 20
0.0
 30
0.0
  3
*D6
  1

  0
LINE
  5
18EF
330
3CF
100
AcDbEntity
  8
寸法
 62
     0
370
    15
100
AcDbLine
 10
989.8347009217904
 20
1668.359507154115
 30
0.0
 11
911.6593861979172
 21
1668.359507154115
 31
0.0
  0
LINE
  5
18F0
330
3CF
100
AcDbEntity
  8
寸法
 62
     0
370
    15
100
AcDbLine
 10
989.8347009217904
 20
1653.359507154115
 30
0.0
 11
911.6593861979172
 21
1653.359507154115
 31
0.0
  0
LINE
  5
18F1
330
3CF
100
AcDbEntity
  8
寸法
 62
     0
370
    18
100
AcDbLine
 10
911.6593861979172
 20
1668.359507154115
 30
0.0
 11
911.6593861979172
 21
1653.359507154115
 31
0.0
  0
INSERT
  5
18F2
330
3CF
100
AcDbEntity
  8
寸法
 62
     0
370
    18
100
AcDbBlockReference
  2
_DotSmall
 10
911.6593861979172
 20
1668.359507154115
 30
0.0
 41
25.0
 42
25.0
 43
25.0
 50
90.0
  0
INSERT
  5
18F3
330
3CF
100
AcDbEntity
  8
寸法
 62
     0
370
    18
100
AcDbBlockReference
  2
_DotSmall
 10
911.6593861979172
 20
1653.359507154115
 30
0.0
 41
25.0
 42
25.0
 43
25.0
 50
270.0
  0
POINT
  5
18F4
330
3CF
100
AcDbEntity
  8
Defpoints
 62
     0
100
AcDbPoint
 10
1054.83470092179
 20
1668.359507154115
 30
0.0
  0
POINT
  5
18F5
330
3CF
100
AcDbEntity
  8
Defpoints
 62
     0
100
AcDbPoint
 10
1054.83470092179
 20
1653.359507154115
 30
0.0
  0
POINT
  5
18F6
330
3CF
100
AcDbEntity
  8
Defpoints
 62
     0
100
AcDbPoint
 10
911.6593861979172
 20
1653.359507154115
 30
0.0
  0
ENDBLK
  5
3DB
330
3CF
100
AcDbEntity
  8
0
100
AcDbBlockEnd
  0
BLOCK
  5
3E7
330
3DD
100
AcDbEntity
  8
0
100
AcDbBlockBegin
  2
*D7
 70
     1
 10
0.0
 20
0.0
 30
0.0
  3
*D7
  1

  0
LINE
  5
18E6
330
3DD
100
AcDbEntity
  8
寸法
 62
     0
370
    15
100
AcDbLine
 10
989.8347009217904
 20
1653.359507154115
 30
0.0
 11
911.6593861979174
 21
1653.359507154115
 31
0.0
  0
LINE
  5
18E7
330
3DD
100
AcDbEntity
  8
寸法
 62
     0
370
    15
100
AcDbLine
 10
989.8347009217905
 20
1213.359507154115
 30
0.0
 11
911.6593861979172
 21
1213.359507154115
 31
0.0
  0
LINE
  5
18E8
330
3DD
100
AcDbEntity
  8
寸法
 62
     0
370
    18
100
AcDbLine
 10
911.6593861979174
 20
1653.359507154115
 30
0.0
 11
911.6593861979172
 21
1213.359507154115
 31
0.0
  0
INSERT
  5
18E9
330
3DD
100
AcDbEntity
  8
寸法
 62
     0
370
    18
100
AcDbBlockReference
  2
_DotSmall
 10
911.6593861979174
 20
1653.359507154115
 30
0.0
 41
25.0
 42
25.0
 43
25.0
 50
90.0
  0
INSERT
  5
18EA
330
3DD
100
AcDbEntity
  8
寸法
 62
     0
370
    18
100
AcDbBlockReference
  2
_DotSmall
 10
911.6593861979172
 20
1213.359507154115
 30
0.0
 41
25.0
 42
25.0
 43
25.0
 50
270.0
  0
MTEXT
  5
18EB
330
3DD
100
AcDbEntity
  8
寸法
 62
     0
100
AcDbMText
 10
892.909386197917
 20
1433.359507154115
 30
0.0
 40
25.0
 41
0.0
 71
     5
 72
     1
  1
440
 11
0.0000000000000001
 21
1.0
 31
0.0
 73
     1
 44
1.0
1001
ACAD
1000
MTEXTBEGIN
1070
    73
1070
     1
1070
    44
1040
1.0
1070
    74
1070
     0
1000
MTEXTEND
  0
POINT
  5
18EC
330
3DD
100
AcDbEntity
  8
Defpoints
 62
     0
100
AcDbPoint
 10
1054.83470092179
 20
1653.359507154115
 30
0.0
  0
POINT
  5
18ED
330
3DD
100
AcDbEntity
  8
Defpoints
 62
     0
100
AcDbPoint
 10
1054.83470092179
 20
1213.359507154115
 30
0.0
  0
POINT
  5
18EE
330
3DD
100
AcDbEntity
  8
Defpoints
 62
     0
100
AcDbPoint
 10
911.6593861979172
 20
1213.359507154115
 30
0.0
  0
ENDBLK
  5
3E8
330
3DD
100
AcDbEntity
  8
0
100
AcDbBlockEnd
  0
BLOCK
  5
3F4
330
3EA
100
AcDbEntity
  8
0
100
AcDbBlockBegin
  2
*D8
 70
     1
 10
0.0
 20
0.0
 30
0.0
  3
*D8
  1

  0
LINE
  5
18DD
330
3EA
100
AcDbEntity
  8
寸法
 62
     0
370
    15
100
AcDbLine
 10
989.8347009217905
 20
1213.359507154115
 30
0.0
 11
911.6593861979172
 21
1213.359507154115
 31
0.0
  0
LINE
  5
18DE
330
3EA
100
AcDbEntity
  8
寸法
 62
     0
370
    15
100
AcDbLine
 10
989.8347009217905
 20
1198.359507154115
 30
0.0
 11
911.6593861979172
 21
1198.359507154115
 31
0.0
  0
LINE
  5
18DF
330
3EA
100
AcDbEntity
  8
寸法
 62
     0
370
    18
100
AcDbLine
 10
911.6593861979172
 20
1213.359507154115
 30
0.0
 11
911.6593861979172
 21
1198.359507154115
 31
0.0
  0
MTEXT
  5
18E0
330
3EA
100
AcDbEntity
  8
寸法
 62
     0
370
    18
100
AcDbMText
 10
897.3432804933318
 20
1155.675266445888
 30
0.0
 40
25.0
 41
0.0
 71
     5
 72
     1
  1
15
 11
0.0000000000000001
 21
1.0
 31
0.0
 73
     1
 44
1.0
1001
ACAD
1000
MTEXTBEGIN
1070
    73
1070
     1
1070
    44
1040
1.0
1070
    74
1070
     0
1000
MTEXTEND
  0
INSERT
  5
18E1
330
3EA
100
AcDbEntity
  8
寸法
 62
     0
370
    18
100
AcDbBlockReference
  2
_DotSmall
 10
911.6593861979172
 20
1213.359507154115
 30
0.0
 41
25.0
 42
25.0
 43
25.0
 50
90.0
  0
INSERT
  5
18E2
330
3EA
100
AcDbEntity
  8
寸法
 62
     0
370
    18
100
AcDbBlockReference
  2
_DotSmall
 10
911.6593861979172
 20
1198.359507154115
 30
0.0
 41
25.0
 42
25.0
 43
25.0
 50
270.0
  0
POINT
  5
18E3
330
3EA
100
AcDbEntity
  8
Defpoints
 62
     0
100
AcDbPoint
 10
1054.83470092179
 20
1213.359507154115
 30
0.0
  0
POINT
  5
18E4
330
3EA
100
AcDbEntity
  8
Defpoints
 62
     0
100
AcDbPoint
 10
1054.83470092179
 20
1198.359507154115
 30
0.0
  0
POINT
  5
18E5
330
3EA
100
AcDbEntity
  8
Defpoints
 62
     0
100
AcDbPoint
 10
911.6593861979172
 20
1198.359507154115
 30
0.0
  0
ENDBLK
  5
3F5
330
3EA
100
AcDbEntity
  8
0
100
AcDbBlockEnd
  0
BLOCK
  5
401
330
3F7
100
AcDbEntity
  8
0
100
AcDbBlockBegin
  2
*D9
 70
     1
 10
0.0
 20
0.0
 30
0.0
  3
*D9
  1

  0
LINE
  5
18D4
330
3F7
100
AcDbEntity
  8
寸法
 62
     0
370
    15
100
AcDbLine
 10
989.8347009217904
 20
1668.359507154115
 30
0.0
 11
842.819487873233
 21
1668.359507154115
 31
0.0
  0
LINE
  5
18D5
330
3F7
100
AcDbEntity
  8
寸法
 62
     0
370
    15
100
AcDbLine
 10
989.8347009217905
 20
1198.359507154115
 30
0.0
 11
842.8194878732329
 21
1198.359507154115
 31
0.0
  0
LINE
  5
18D6
330
3F7
100
AcDbEntity
  8
寸法
 62
     0
370
    18
100
AcDbLine
 10
842.819487873233
 20
1668.359507154115
 30
0.0
 11
842.8194878732329
 21
1198.359507154115
 31
0.0
  0
INSERT
  5
18D7
330
3F7
100
AcDbEntity
  8
寸法
 62
     0
370
    18
100
AcDbBlockReference
  2
_DotSmall
 10
842.819487873233
 20
1668.359507154115
 30
0.0
 41
25.0
 42
25.0
 43
25.0
 50
90.0
  0
INSERT
  5
18D8
330
3F7
100
AcDbEntity
  8
寸法
 62
     0
370
    18
100
AcDbBlockReference
  2
_DotSmall
 10
842.8194878732329
 20
1198.359507154115
 30
0.0
 41
25.0
 42
25.0
 43
25.0
 50
270.0
  0
MTEXT
  5
18D9
330
3F7
100
AcDbEntity
  8
寸法
 62
     0
100
AcDbMText
 10
824.0694878732327
 20
1433.359507154115
 30
0.0
 40
25.0
 41
0.0
 71
     5
 72
     1
  1
470
 11
0.0000000000000001
 21
1.0
 31
0.0
 73
     1
 44
1.0
1001
ACAD
1000
MTEXTBEGIN
1070
    73
1070
     1
1070
    44
1040
1.0
1070
    74
1070
     0
1000
MTEXTEND
  0
POINT
  5
18DA
330
3F7
100
AcDbEntity
  8
Defpoints
 62
     0
100
AcDbPoint
 10
1054.83470092179
 20
1668.359507154115
 30
0.0
  0
POINT
  5
18DB
330
3F7
100
AcDbEntity
  8
Defpoints
 62
     0
100
AcDbPoint
 10
1054.83470092179
 20
1198.359507154115
 30
0.0
  0
POINT
  5
18DC
330
3F7
100
AcDbEntity
  8
Defpoints
 62
     0
100
AcDbPoint
 10
842.8194878732329
 20
1198.359507154115
 30
0.0
  0
ENDBLK
  5
402
330
3F7
100
AcDbEntity
  8
0
100
AcDbBlockEnd
  0
BLOCK
  5
449
330
43E
100
AcDbEntity
  8
0
100
AcDbBlockBegin
  2
*D10
 70
     1
 10
0.0
 20
0.0
 30
0.0
  3
*D10
  1

  0
LINE
  5
18CB
330
43E
100
AcDbEntity
  8
寸法
 62
     0
370
    15
100
AcDbLine
 10
1054.83470092179
 20
1133.359507154115
 30
0.0
 11
1054.83470092179
 21
1050.42738938406
 31
0.0
  0
LINE
  5
18CC
330
43E
100
AcDbEntity
  8
寸法
 62
     0
370
    15
100
AcDbLine
 10
1069.83470092179
 20
1133.359507154115
 30
0.0
 11
1069.83470092179
 21
1050.42738938406
 31
0.0
  0
LINE
  5
18CD
330
43E
100
AcDbEntity
  8
寸法
 62
     0
370
    18
100
AcDbLine
 10
1054.83470092179
 20
1050.42738938406
 30
0.0
 11
1069.83470092179
 21
1050.42738938406
 31
0.0
  0
LINE
  5
18CE
330
43E
100
AcDbEntity
  8
寸法
 62
     0
370
    18
100
AcDbLine
 10
1069.83470092179
 20
1050.42738938406
 30
0.0
 11
1135.58470092179
 21
1050.42738938406
 31
0.0
  0
INSERT
  5
18CF
330
43E
100
AcDbEntity
  8
寸法
 62
     0
370
    18
100
AcDbBlockReference
  2
_DotSmall
 10
1054.83470092179
 20
1050.42738938406
 30
0.0
 41
25.0
 42
25.0
 43
25.0
 50
180.0
  0
INSERT
  5
18D0
330
43E
100
AcDbEntity
  8
寸法
 62
     0
370
    18
100
AcDbBlockReference
  2
_DotSmall
 10
1069.83470092179
 20
1050.42738938406
 30
0.0
 41
25.0
 42
25.0
 43
25.0
  0
POINT
  5
18D1
330
43E
100
AcDbEntity
  8
Defpoints
 62
     0
100
AcDbPoint
 10
1054.83470092179
 20
1198.359507154115
 30
0.0
  0
POINT
  5
18D2
330
43E
100
AcDbEntity
  8
Defpoints
 62
     0
100
AcDbPoint
 10
1069.83470092179
 20
1198.359507154115
 30
0.0
  0
POINT
  5
18D3
330
43E
100
AcDbEntity
  8
Defpoints
 62
     0
100
AcDbPoint
 10
1069.83470092179
 20
1050.42738938406
 30
0.0
  0
ENDBLK
  5
44A
330
43E
100
AcDbEntity
  8
0
100
AcDbBlockEnd
  0
BLOCK
  5
456
330
44C
100
AcDbEntity
  8
0
100
AcDbBlockBegin
  2
*D11
 70
     1
 10
0.0
 20
0.0
 30
0.0
  3
*D11
  1

  0
LINE
  5
18C2
330
44C
100
AcDbEntity
  8
寸法
 62
     0
370
    15
100
AcDbLine
 10
1069.83470092179
 20
1133.359507154115
 30
0.0
 11
1069.83470092179
 21
1050.42738938406
 31
0.0
  0
LINE
  5
18C3
330
44C
100
AcDbEntity
  8
寸法
 62
     0
370
    15
100
AcDbLine
 10
1324.83470092179
 20
1133.359507154115
 30
0.0
 11
1324.83470092179
 21
1050.42738938406
 31
0.0
  0
LINE
  5
18C4
330
44C
100
AcDbEntity
  8
寸法
 62
     0
370
    18
100
AcDbLine
 10
1069.83470092179
 20
1050.42738938406
 30
0.0
 11
1324.83470092179
 21
1050.42738938406
 31
0.0
  0
INSERT
  5
18C5
330
44C
100
AcDbEntity
  8
寸法
 62
     0
370
    18
100
AcDbBlockReference
  2
_DotSmall
 10
1069.83470092179
 20
1050.42738938406
 30
0.0
 41
25.0
 42
25.0
 43
25.0
 50
180.0
  0
INSERT
  5
18C6
330
44C
100
AcDbEntity
  8
寸法
 62
     0
370
    18
100
AcDbBlockReference
  2
_DotSmall
 10
1324.83470092179
 20
1050.42738938406
 30
0.0
 41
25.0
 42
25.0
 43
25.0
  0
MTEXT
  5
18C7
330
44C
100
AcDbEntity
  8
寸法
 62
     0
100
AcDbMText
 10
1197.33470092179
 20
1069.17738938406
 30
0.0
 40
25.0
 41
0.0
 71
     5
 72
     1
  1
255
 73
     1
 44
1.0
1001
ACAD
1000
MTEXTBEGIN
1070
    73
1070
     1
1070
    44
1040
1.0
1070
    74
1070
     0
1000
MTEXTEND
  0
POINT
  5
18C8
330
44C
100
AcDbEntity
  8
Defpoints
 62
     0
100
AcDbPoint
 10
1069.83470092179
 20
1198.359507154115
 30
0.0
  0
POINT
  5
18C9
330
44C
100
AcDbEntity
  8
Defpoints
 62
     0
100
AcDbPoint
 10
1324.83470092179
 20
1198.359507154115
 30
0.0
  0
POINT
  5
18CA
330
44C
100
AcDbEntity
  8
Defpoints
 62
     0
100
AcDbPoint
 10
1324.83470092179
 20
1050.42738938406
 30
0.0
  0
ENDBLK
  5
457
330
44C
100
AcDbEntity
  8
0
100
AcDbBlockEnd
  0
BLOCK
  5
465
330
459
100
AcDbEntity
  8
0
100
AcDbBlockBegin
  2
*D12
 70
     1
 10
0.0
 20
0.0
 30
0.0
  3
*D12
  1

  0
LINE
  5
18BA
330
459
100
AcDbEntity
  8
寸法
 62
     0
370
    15
100
AcDbLine
 10
1324.83470092179
 20
1133.359507154115
 30
0.0
 11
1324.83470092179
 21
1050.42738938406
 31
0.0
  0
LINE
  5
18BB
330
459
100
AcDbEntity
  8
寸法
 62
     0
370
    15
100
AcDbLine
 10
1339.83470092179
 20
1133.359507154115
 30
0.0
 11
1339.83470092179
 21
1050.42738938406
 31
0.0
  0
LINE
  5
18BC
330
459
100
AcDbEntity
  8
寸法
 62
     0
370
    18
100
AcDbLine
 10
1324.83470092179
 20
1050.42738938406
 30
0.0
 11
1339.83470092179
 21
1050.42738938406
 31
0.0
  0
INSERT
  5
18BD
330
459
100
AcDbEntity
  8
寸法
 62
     0
370
    18
100
AcDbBlockReference
  2
_DotSmall
 10
1324.83470092179
 20
1050.42738938406
 30
0.0
 41
25.0
 42
25.0
 43
25.0
 50
180.0
  0
INSERT
  5
18BE
330
459
100
AcDbEntity
  8
寸法
 62
     0
370
    18
100
AcDbBlockReference
  2
_DotSmall
 10
1339.83470092179
 20
1050.42738938406
 30
0.0
 41
25.0
 42
25.0
 43
25.0
  0
POINT
  5
18BF
330
459
100
AcDbEntity
  8
Defpoints
 62
     0
100
AcDbPoint
 10
1324.83470092179
 20
1198.359507154115
 30
0.0
  0
POINT
  5
18C0
330
459
100
AcDbEntity
  8
Defpoints
 62
     0
100
AcDbPoint
 10
1339.83470092179
 20
1198.359507154115
 30
0.0
  0
POINT
  5
18C1
330
459
100
AcDbEntity
  8
Defpoints
 62
     0
100
AcDbPoint
 10
1339.83470092179
 20
1050.42738938406
 30
0.0
  0
ENDBLK
  5
466
330
459
100
AcDbEntity
  8
0
100
AcDbBlockEnd
  0
BLOCK
  5
4AE
330
4A4
100
AcDbEntity
  8
0
100
AcDbBlockBegin
  2
*D13
 70
     1
 10
0.0
 20
0.0
 30
0.0
  3
*D13
  1

  0
LINE
  5
18B1
330
4A4
100
AcDbEntity
  8
寸法
 62
     0
370
    15
100
AcDbLine
 10
1054.83470092179
 20
1133.359507154115
 30
0.0
 11
1054.83470092179
 21
972.6354792281908
 31
0.0
  0
LINE
  5
18B2
330
4A4
100
AcDbEntity
  8
寸法
 62
     0
370
    15
100
AcDbLine
 10
1339.83470092179
 20
1133.359507154115
 30
0.0
 11
1339.83470092179
 21
972.6354792281908
 31
0.0
  0
LINE
  5
18B3
330
4A4
100
AcDbEntity
  8
寸法
 62
     0
370
    18
100
AcDbLine
 10
1054.83470092179
 20
972.6354792281908
 30
0.0
 11
1339.83470092179
 21
972.6354792281908
 31
0.0
  0
INSERT
  5
18B4
330
4A4
100
AcDbEntity
  8
寸法
 62
     0
370
    18
100
AcDbBlockReference
  2
_DotSmall
 10
1054.83470092179
 20
972.6354792281908
 30
0.0
 41
25.0
 42
25.0
 43
25.0
 50
180.0
  0
INSERT
  5
18B5
330
4A4
100
AcDbEntity
  8
寸法
 62
     0
370
    18
100
AcDbBlockReference
  2
_DotSmall
 10
1339.83470092179
 20
972.6354792281908
 30
0.0
 41
25.0
 42
25.0
 43
25.0
  0
MTEXT
  5
18B6
330
4A4
100
AcDbEntity
  8
寸法
 62
     0
100
AcDbMText
 10
1197.33470092179
 20
991.3854792281908
 30
0.0
 40
25.0
 41
0.0
 71
     5
 72
     1
  1
285
 73
     1
 44
1.0
1001
ACAD
1000
MTEXTBEGIN
1070
    73
1070
     1
1070
    44
1040
1.0
1070
    74
1070
     0
1000
MTEXTEND
  0
POINT
  5
18B7
330
4A4
100
AcDbEntity
  8
Defpoints
 62
     0
100
AcDbPoint
 10
1054.83470092179
 20
1198.359507154115
 30
0.0
  0
POINT
  5
18B8
330
4A4
100
AcDbEntity
  8
Defpoints
 62
     0
100
AcDbPoint
 10
1339.83470092179
 20
1198.359507154115
 30
0.0
  0
POINT
  5
18B9
330
4A4
100
AcDbEntity
  8
Defpoints
 62
     0
100
AcDbPoint
 10
1339.83470092179
 20
972.6354792281908
 30
0.0
  0
ENDBLK
  5
4AF
330
4A4
100
AcDbEntity
  8
0
100
AcDbBlockEnd
  0
BLOCK
  5
503
330
4F9
100
AcDbEntity
  8
0
100
AcDbBlockBegin
  2
*D14
 70
     1
 10
0.0
 20
0.0
 30
0.0
  3
*D14
  1

  0
LINE
  5
18A8
330
4F9
100
AcDbEntity
  8
寸法
 62
     0
370
    15
100
AcDbLine
 10
1153.33470092179
 20
533.3595071541148
 30
0.0
 11
1153.33470092179
 21
481.932099853042
 31
0.0
  0
LINE
  5
18A9
330
4F9
100
AcDbEntity
  8
寸法
 62
     0
370
    15
100
AcDbLine
 10
1241.33470092179
 20
533.3595071541148
 30
0.0
 11
1241.33470092179
 21
481.932099853042
 31
0.0
  0
LINE
  5
18AA
330
4F9
100
AcDbEntity
  8
寸法
 62
     0
370
    18
100
AcDbLine
 10
1153.33470092179
 20
481.932099853042
 30
0.0
 11
1241.33470092179
 21
481.932099853042
 31
0.0
  0
INSERT
  5
18AB
330
4F9
100
AcDbEntity
  8
寸法
 62
     0
370
    18
100
AcDbBlockReference
  2
_DotSmall
 10
1153.33470092179
 20
481.932099853042
 30
0.0
 41
25.0
 42
25.0
 43
25.0
 50
180.0
  0
INSERT
  5
18AC
330
4F9
100
AcDbEntity
  8
寸法
 62
     0
370
    18
100
AcDbBlockReference
  2
_DotSmall
 10
1241.33470092179
 20
481.932099853042
 30
0.0
 41
25.0
 42
25.0
 43
25.0
  0
MTEXT
  5
18AD
330
4F9
100
AcDbEntity
  8
寸法
 62
     0
100
AcDbMText
 10
1197.33470092179
 20
500.682099853042
 30
0.0
 40
25.0
 41
0.0
 71
     5
 72
     1
  1
88
 73
     1
 44
1.0
1001
ACAD
1000
MTEXTBEGIN
1070
    73
1070
     1
1070
    44
1040
1.0
1070
    74
1070
     0
1000
MTEXTEND
  0
POINT
  5
18AE
330
4F9
100
AcDbEntity
  8
Defpoints
 62
     0
100
AcDbPoint
 10
1153.33470092179
 20
598.3595071541149
 30
0.0
  0
POINT
  5
18AF
330
4F9
100
AcDbEntity
  8
Defpoints
 62
     0
100
AcDbPoint
 10
1241.33470092179
 20
598.3595071541149
 30
0.0
  0
POINT
  5
18B0
330
4F9
100
AcDbEntity
  8
Defpoints
 62
     0
100
AcDbPoint
 10
1241.33470092179
 20
481.932099853042
 30
0.0
  0
ENDBLK
  5
504
330
4F9
100
AcDbEntity
  8
0
100
AcDbBlockEnd
  0
BLOCK
  5
510
330
506
100
AcDbEntity
  8
0
100
AcDbBlockBegin
  2
*D15
 70
     1
 10
0.0
 20
0.0
 30
0.0
  3
*D15
  1

  0
LINE
  5
189F
330
506
100
AcDbEntity
  8
寸法
 62
     0
370
    15
100
AcDbLine
 10
1139.33470092179
 20
533.3595071541148
 30
0.0
 11
1139.33470092179
 21
421.9727012841131
 31
0.0
  0
LINE
  5
18A0
330
506
100
AcDbEntity
  8
寸法
 62
     0
370
    15
100
AcDbLine
 10
1255.33470092179
 20
533.3595071541148
 30
0.0
 11
1255.33470092179
 21
421.9727012841131
 31
0.0
  0
LINE
  5
18A1
330
506
100
AcDbEntity
  8
寸法
 62
     0
370
    18
100
AcDbLine
 10
1139.33470092179
 20
421.9727012841131
 30
0.0
 11
1255.33470092179
 21
421.9727012841131
 31
0.0
  0
INSERT
  5
18A2
330
506
100
AcDbEntity
  8
寸法
 62
     0
370
    18
100
AcDbBlockReference
  2
_DotSmall
 10
1139.33470092179
 20
421.9727012841131
 30
0.0
 41
25.0
 42
25.0
 43
25.0
 50
180.0
  0
INSERT
  5
18A3
330
506
100
AcDbEntity
  8
寸法
 62
     0
370
    18
100
AcDbBlockReference
  2
_DotSmall
 10
1255.33470092179
 20
421.9727012841131
 30
0.0
 41
25.0
 42
25.0
 43
25.0
  0
MTEXT
  5
18A4
330
506
100
AcDbEntity
  8
寸法
 62
     0
100
AcDbMText
 10
1197.33470092179
 20
440.7227012841131
 30
0.0
 40
25.0
 41
0.0
 71
     5
 72
     1
  1
116
 73
     1
 44
1.0
1001
ACAD
1000
MTEXTBEGIN
1070
    73
1070
     1
1070
    44
1040
1.0
1070
    74
1070
     0
1000
MTEXTEND
  0
POINT
  5
18A5
330
506
100
AcDbEntity
  8
Defpoints
 62
     0
100
AcDbPoint
 10
1139.33470092179
 20
598.3595071541149
 30
0.0
  0
POINT
  5
18A6
330
506
100
AcDbEntity
  8
Defpoints
 62
     0
100
AcDbPoint
 10
1255.33470092179
 20
598.3595071541149
 30
0.0
  0
POINT
  5
18A7
330
506
100
AcDbEntity
  8
Defpoints
 62
     0
100
AcDbPoint
 10
1255.33470092179
 20
421.9727012841131
 30
0.0
  0
ENDBLK
  5
511
330
506
100
AcDbEntity
  8
0
100
AcDbBlockEnd
  0
BLOCK
  5
574
330
56A
100
AcDbEntity
  8
0
100
AcDbBlockBegin
  2
*D16
 70
     1
 10
0.0
 20
0.0
 30
0.0
  3
*D16
  1

  0
LINE
  5
1896
330
56A
100
AcDbEntity
  8
寸法
 62
     0
370
    15
100
AcDbLine
 10
2014.83470092179
 20
1547.359507154115
 30
0.0
 11
2060.140845013711
 21
1547.359507154115
 31
0.0
  0
LINE
  5
1897
330
56A
100
AcDbEntity
  8
寸法
 62
     0
370
    15
100
AcDbLine
 10
2014.83470092179
 20
1459.359507154115
 30
0.0
 11
2060.140845013711
 21
1459.359507154115
 31
0.0
  0
LINE
  5
1898
330
56A
100
AcDbEntity
  8
寸法
 62
     0
370
    18
100
AcDbLine
 10
2060.140845013711
 20
1547.359507154115
 30
0.0
 11
2060.140845013711
 21
1459.359507154115
 31
0.0
  0
INSERT
  5
1899
330
56A
100
AcDbEntity
  8
寸法
 62
     0
370
    18
100
AcDbBlockReference
  2
_DotSmall
 10
2060.140845013711
 20
1547.359507154115
 30
0.0
 41
25.0
 42
25.0
 43
25.0
 50
90.0
  0
INSERT
  5
189A
330
56A
100
AcDbEntity
  8
寸法
 62
     0
370
    18
100
AcDbBlockReference
  2
_DotSmall
 10
2060.140845013711
 20
1459.359507154115
 30
0.0
 41
25.0
 42
25.0
 43
25.0
 50
270.0
  0
MTEXT
  5
189B
330
56A
100
AcDbEntity
  8
寸法
 62
     0
100
AcDbMText
 10
2041.39084501371
 20
1503.359507154115
 30
0.0
 40
25.0
 41
0.0
 71
     5
 72
     1
  1
88
 11
0.0000000000000001
 21
1.0
 31
0.0
 73
     1
 44
1.0
1001
ACAD
1000
MTEXTBEGIN
1070
    73
1070
     1
1070
    44
1040
1.0
1070
    74
1070
     0
1000
MTEXTEND
  0
POINT
  5
189C
330
56A
100
AcDbEntity
  8
Defpoints
 62
     0
100
AcDbPoint
 10
1949.83470092179
 20
1547.359507154115
 30
0.0
  0
POINT
  5
189D
330
56A
100
AcDbEntity
  8
Defpoints
 62
     0
100
AcDbPoint
 10
1949.83470092179
 20
1459.359507154115
 30
0.0
  0
POINT
  5
189E
330
56A
100
AcDbEntity
  8
Defpoints
 62
     0
100
AcDbPoint
 10
2060.140845013711
 20
1459.359507154115
 30
0.0
  0
ENDBLK
  5
575
330
56A
100
AcDbEntity
  8
0
100
AcDbBlockEnd
  0
BLOCK
  5
58A
330
580
100
AcDbEntity
  8
0
100
AcDbBlockBegin
  2
*D17
 70
     1
 10
0.0
 20
0.0
 30
0.0
  3
*D17
  1

  0
LINE
  5
188D
330
580
100
AcDbEntity
  8
寸法
 62
     0
370
    15
100
AcDbLine
 10
2014.83470092179
 20
1561.359507154115
 30
0.0
 11
2125.062432978552
 21
1561.359507154115
 31
0.0
  0
LINE
  5
188E
330
580
100
AcDbEntity
  8
寸法
 62
     0
370
    15
100
AcDbLine
 10
2014.83470092179
 20
1445.359507154115
 30
0.0
 11
2125.062432978552
 21
1445.359507154115
 31
0.0
  0
LINE
  5
188F
330
580
100
AcDbEntity
  8
寸法
 62
     0
370
    18
100
AcDbLine
 10
2125.062432978552
 20
1561.359507154115
 30
0.0
 11
2125.062432978552
 21
1445.359507154115
 31
0.0
  0
INSERT
  5
1890
330
580
100
AcDbEntity
  8
寸法
 62
     0
370
    18
100
AcDbBlockReference
  2
_DotSmall
 10
2125.062432978552
 20
1561.359507154115
 30
0.0
 41
25.0
 42
25.0
 43
25.0
 50
90.0
  0
INSERT
  5
1891
330
580
100
AcDbEntity
  8
寸法
 62
     0
370
    18
100
AcDbBlockReference
  2
_DotSmall
 10
2125.062432978552
 20
1445.359507154115
 30
0.0
 41
25.0
 42
25.0
 43
25.0
 50
270.0
  0
MTEXT
  5
1892
330
580
100
AcDbEntity
  8
寸法
 62
     0
100
AcDbMText
 10
2106.312432978552
 20
1503.359507154115
 30
0.0
 40
25.0
 41
0.0
 71
     5
 72
     1
  1
116
 11
0.0000000000000001
 21
1.0
 31
0.0
 73
     1
 44
1.0
1001
ACAD
1000
MTEXTBEGIN
1070
    73
1070
     1
1070
    44
1040
1.0
1070
    74
1070
     0
1000
MTEXTEND
  0
POINT
  5
1893
330
580
100
AcDbEntity
  8
Defpoints
 62
     0
100
AcDbPoint
 10
1949.83470092179
 20
1561.359507154115
 30
0.0
  0
POINT
  5
1894
330
580
100
AcDbEntity
  8
Defpoints
 62
     0
100
AcDbPoint
 10
1949.83470092179
 20
1445.359507154115
 30
0.0
  0
POINT
  5
1895
330
580
100
AcDbEntity
  8
Defpoints
 62
     0
100
AcDbPoint
 10
2125.062432978552
 20
1445.359507154115
 30
0.0
  0
ENDBLK
  5
58B
330
580
100
AcDbEntity
  8
0
100
AcDbBlockEnd
  0
BLOCK
  5
1561
330
1557
100
AcDbEntity
  8
0
100
AcDbBlockBegin
  2
*D18
 70
     1
 10
0.0
 20
0.0
 30
0.0
  3
*D18
  1

  0
LINE
  5
1884
330
1557
100
AcDbEntity
  8
寸法
 62
     0
370
    18
100
AcDbLine
 10
1940.857143110531
 20
565.7576527174533
 30
0.0
 11
1940.857143110531
 21
599.6415499907627
 31
0.0
  0
LINE
  5
1885
330
1557
100
AcDbEntity
  8
寸法
 62
     0
370
    18
100
AcDbLine
 10
2190.857143110532
 20
565.7576527174533
 30
0.0
 11
2190.857143110532
 21
599.6415499907627
 31
0.0
  0
LINE
  5
1886
330
1557
100
AcDbEntity
  8
寸法
 62
     0
370
    18
100
AcDbLine
 10
1940.857143110531
 20
599.6415499907627
 30
0.0
 11
2190.857143110532
 21
599.6415499907627
 31
0.0
  0
INSERT
  5
1887
330
1557
100
AcDbEntity
  8
寸法
 62
     0
370
    18
100
AcDbBlockReference
  2
_DotSmall
 10
1940.857143110531
 20
599.6415499907627
 30
0.0
 41
25.0
 42
25.0
 43
25.0
 50
180.0
  0
INSERT
  5
1888
330
1557
100
AcDbEntity
  8
寸法
 62
     0
370
    18
100
AcDbBlockReference
  2
_DotSmall
 10
2190.857143110532
 20
599.6415499907627
 30
0.0
 41
25.0
 42
25.0
 43
25.0
  0
MTEXT
  5
1889
330
1557
100
AcDbEntity
  8
寸法
 62
     0
100
AcDbMText
 10
2065.857143110532
 20
618.3915499907627
 30
0.0
 40
25.0
 41
0.0
 71
     5
 72
     1
  1
50
 73
     1
 44
1.0
1001
ACAD
1000
MTEXTBEGIN
1070
    73
1070
     1
1070
    44
1040
1.0
1070
    74
1070
     0
1000
MTEXTEND
  0
POINT
  5
188A
330
1557
100
AcDbEntity
  8
Defpoints
 62
     0
100
AcDbPoint
 10
1940.857143110531
 20
500.7576527174534
 30
0.0
  0
POINT
  5
188B
330
1557
100
AcDbEntity
  8
Defpoints
 62
     0
100
AcDbPoint
 10
2190.857143110532
 20
500.7576527174534
 30
0.0
  0
POINT
  5
188C
330
1557
100
AcDbEntity
  8
Defpoints
 62
     0
100
AcDbPoint
 10
2190.857143110532
 20
599.6415499907627
 30
0.0
  0
ENDBLK
  5
1562
330
1557
100
AcDbEntity
  8
0
100
AcDbBlockEnd
  0
BLOCK
  5
156D
330
1563
100
AcDbEntity
  8
0
100
AcDbBlockBegin
  2
*D19
 70
     1
 10
0.0
 20
0.0
 30
0.0
  3
*D19
  1

  0
LINE
  5
187B
330
1563
100
AcDbEntity
  8
寸法
 62
     0
370
    18
100
AcDbLine
 10
2225.857143110532
 20
565.7576527174533
 30
0.0
 11
2225.857143110532
 21
650.6763894560436
 31
0.0
  0
LINE
  5
187C
330
1563
100
AcDbEntity
  8
寸法
 62
     0
370
    18
100
AcDbLine
 10
1905.857143110532
 20
565.7576527174533
 30
0.0
 11
1905.857143110532
 21
650.6763894560436
 31
0.0
  0
LINE
  5
187D
330
1563
100
AcDbEntity
  8
寸法
 62
     0
370
    18
100
AcDbLine
 10
2225.857143110532
 20
650.6763894560436
 30
0.0
 11
1905.857143110532
 21
650.6763894560436
 31
0.0
  0
INSERT
  5
187E
330
1563
100
AcDbEntity
  8
寸法
 62
     0
370
    18
100
AcDbBlockReference
  2
_DotSmall
 10
2225.857143110532
 20
650.6763894560436
 30
0.0
 41
25.0
 42
25.0
 43
25.0
  0
INSERT
  5
187F
330
1563
100
AcDbEntity
  8
寸法
 62
     0
370
    18
100
AcDbBlockReference
  2
_DotSmall
 10
1905.857143110532
 20
650.6763894560436
 30
0.0
 41
25.0
 42
25.0
 43
25.0
 50
180.0
  0
MTEXT
  5
1880
330
1563
100
AcDbEntity
  8
寸法
 62
     0
100
AcDbMText
 10
2065.857143110532
 20
669.4263894560436
 30
0.0
 40
25.0
 41
0.0
 71
     5
 72
     1
  1
64
 73
     1
 44
1.0
1001
ACAD
1000
MTEXTBEGIN
1070
    73
1070
     1
1070
    44
1040
1.0
1070
    74
1070
     0
1000
MTEXTEND
  0
POINT
  5
1881
330
1563
100
AcDbEntity
  8
Defpoints
 62
     0
100
AcDbPoint
 10
2225.857143110532
 20
500.7576527174534
 30
0.0
  0
POINT
  5
1882
330
1563
100
AcDbEntity
  8
Defpoints
 62
     0
100
AcDbPoint
 10
1905.857143110532
 20
500.7576527174534
 30
0.0
  0
POINT
  5
1883
330
1563
100
AcDbEntity
  8
Defpoints
 62
     0
100
AcDbPoint
 10
1905.857143110532
 20
650.6763894560436
 30
0.0
  0
ENDBLK
  5
156E
330
1563
100
AcDbEntity
  8
0
100
AcDbBlockEnd
  0
BLOCK
  5
1579
330
156F
100
AcDbEntity
  8
0
100
AcDbBlockBegin
  2
*D20
 70
     1
 10
0.0
 20
0.0
 30
0.0
  3
*D20
  1

  0
LINE
  5
1872
330
156F
100
AcDbEntity
  8
寸法
 62
     0
370
    18
100
AcDbLine
 10
1878.357143110531
 20
565.7576527174533
 30
0.0
 11
1878.357143110531
 21
697.883616080434
 31
0.0
  0
LINE
  5
1873
330
156F
100
AcDbEntity
  8
寸法
 62
     0
370
    18
100
AcDbLine
 10
2253.357143110532
 20
565.7576527174533
 30
0.0
 11
2253.357143110532
 21
697.883616080434
 31
0.0
  0
LINE
  5
1874
330
156F
100
AcDbEntity
  8
寸法
 62
     0
370
    18
100
AcDbLine
 10
1878.357143110531
 20
697.883616080434
 30
0.0
 11
2253.357143110532
 21
697.883616080434
 31
0.0
  0
INSERT
  5
1875
330
156F
100
AcDbEntity
  8
寸法
 62
     0
370
    18
100
AcDbBlockReference
  2
_DotSmall
 10
1878.357143110531
 20
697.883616080434
 30
0.0
 41
25.0
 42
25.0
 43
25.0
 50
180.0
  0
INSERT
  5
1876
330
156F
100
AcDbEntity
  8
寸法
 62
     0
370
    18
100
AcDbBlockReference
  2
_DotSmall
 10
2253.357143110532
 20
697.883616080434
 30
0.0
 41
25.0
 42
25.0
 43
25.0
  0
MTEXT
  5
1877
330
156F
100
AcDbEntity
  8
寸法
 62
     0
100
AcDbMText
 10
2065.857143110532
 20
716.633616080434
 30
0.0
 40
25.0
 41
0.0
 71
     5
 72
     1
  1
75
 73
     1
 44
1.0
1001
ACAD
1000
MTEXTBEGIN
1070
    73
1070
     1
1070
    44
1040
1.0
1070
    74
1070
     0
1000
MTEXTEND
  0
POINT
  5
1878
330
156F
100
AcDbEntity
  8
Defpoints
 62
     0
100
AcDbPoint
 10
1878.357143110531
 20
500.7576527174534
 30
0.0
  0
POINT
  5
1879
330
156F
100
AcDbEntity
  8
Defpoints
 62
     0
100
AcDbPoint
 10
2253.357143110532
 20
500.7576527174534
 30
0.0
  0
POINT
  5
187A
330
156F
100
AcDbEntity
  8
Defpoints
 62
     0
100
AcDbPoint
 10
2253.357143110532
 20
697.883616080434
 30
0.0
  0
ENDBLK
  5
157A
330
156F
100
AcDbEntity
  8
0
100
AcDbBlockEnd
  0
BLOCK
  5
1585
330
157B
100
AcDbEntity
  8
0
100
AcDbBlockBegin
  2
*D21
 70
     1
 10
0.0
 20
0.0
 30
0.0
  3
*D21
  1

  0
LINE
  5
1869
330
157B
100
AcDbEntity
  8
寸法
 62
     0
370
    18
100
AcDbLine
 10
2318.357143110532
 20
500.7576527174534
 30
0.0
 11
2354.810155881124
 21
500.7576527174534
 31
0.0
  0
LINE
  5
186A
330
157B
100
AcDbEntity
  8
寸法
 62
     0
370
    18
100
AcDbLine
 10
2318.357143110532
 20
400.7576527174534
 30
0.0
 11
2354.810155881124
 21
400.7576527174534
 31
0.0
  0
LINE
  5
186B
330
157B
100
AcDbEntity
  8
寸法
 62
     0
370
    18
100
AcDbLine
 10
2354.810155881124
 20
500.7576527174534
 30
0.0
 11
2354.810155881124
 21
400.7576527174534
 31
0.0
  0
INSERT
  5
186C
330
157B
100
AcDbEntity
  8
寸法
 62
     0
370
    18
100
AcDbBlockReference
  2
_DotSmall
 10
2354.810155881124
 20
500.7576527174534
 30
0.0
 41
25.0
 42
25.0
 43
25.0
 50
90.0
  0
INSERT
  5
186D
330
157B
100
AcDbEntity
  8
寸法
 62
     0
370
    18
100
AcDbBlockReference
  2
_DotSmall
 10
2354.810155881124
 20
400.7576527174534
 30
0.0
 41
25.0
 42
25.0
 43
25.0
 50
270.0
  0
MTEXT
  5
186E
330
157B
100
AcDbEntity
  8
寸法
 62
     0
100
AcDbMText
 10
2336.060155881124
 20
450.7576527174538
 30
0.0
 40
25.0
 41
0.0
 71
     5
 72
     1
  1
20
 11
0.0000000000000001
 21
1.0
 31
0.0
 73
     1
 44
1.0
1001
ACAD
1000
MTEXTBEGIN
1070
    73
1070
     1
1070
    44
1040
1.0
1070
    74
1070
     0
1000
MTEXTEND
  0
POINT
  5
186F
330
157B
100
AcDbEntity
  8
Defpoints
 62
     0
100
AcDbPoint
 10
2253.357143110532
 20
500.7576527174534
 30
0.0
  0
POINT
  5
1870
330
157B
100
AcDbEntity
  8
Defpoints
 62
     0
100
AcDbPoint
 10
2253.357143110532
 20
400.7576527174534
 30
0.0
  0
POINT
  5
1871
330
157B
100
AcDbEntity
  8
Defpoints
 62
     0
100
AcDbPoint
 10
2354.810155881124
 20
400.7576527174534
 30
0.0
  0
ENDBLK
  5
1586
330
157B
100
AcDbEntity
  8
0
100
AcDbBlockEnd
  0
BLOCK
  5
1591
330
1587
100
AcDbEntity
  8
0
100
AcDbBlockBegin
  2
*D22
 70
     1
 10
0.0
 20
0.0
 30
0.0
  3
*D22
  1

  0
LINE
  5
1860
330
1587
100
AcDbEntity
  8
寸法
 62
     0
370
    18
100
AcDbLine
 10
2318.357143110532
 20
526.2576527174533
 30
0.0
 11
2400.777821170235
 21
526.2576527174533
 31
0.0
  0
LINE
  5
1861
330
1587
100
AcDbEntity
  8
寸法
 62
     0
370
    18
100
AcDbLine
 10
2318.357143110532
 20
375.2576527174534
 30
0.0
 11
2400.777821170235
 21
375.2576527174534
 31
0.0
  0
LINE
  5
1862
330
1587
100
AcDbEntity
  8
寸法
 62
     0
370
    18
100
AcDbLine
 10
2400.777821170235
 20
526.2576527174533
 30
0.0
 11
2400.777821170235
 21
375.2576527174534
 31
0.0
  0
INSERT
  5
1863
330
1587
100
AcDbEntity
  8
寸法
 62
     0
370
    18
100
AcDbBlockReference
  2
_DotSmall
 10
2400.777821170235
 20
526.2576527174533
 30
0.0
 41
25.0
 42
25.0
 43
25.0
 50
90.0
  0
INSERT
  5
1864
330
1587
100
AcDbEntity
  8
寸法
 62
     0
370
    18
100
AcDbBlockReference
  2
_DotSmall
 10
2400.777821170235
 20
375.2576527174534
 30
0.0
 41
25.0
 42
25.0
 43
25.0
 50
270.0
  0
MTEXT
  5
1865
330
1587
100
AcDbEntity
  8
寸法
 62
     0
100
AcDbMText
 10
2382.027821170234
 20
450.7576527174537
 30
0.0
 40
25.0
 41
0.0
 71
     5
 72
     1
  1
31
 11
0.0000000000000001
 21
1.0
 31
0.0
 73
     1
 44
1.0
1001
ACAD
1000
MTEXTBEGIN
1070
    73
1070
     1
1070
    44
1040
1.0
1070
    74
1070
     0
1000
MTEXTEND
  0
POINT
  5
1866
330
1587
100
AcDbEntity
  8
Defpoints
 62
     0
100
AcDbPoint
 10
2253.357143110532
 20
526.2576527174534
 30
0.0
  0
POINT
  5
1867
330
1587
100
AcDbEntity
  8
Defpoints
 62
     0
100
AcDbPoint
 10
2253.357143110532
 20
375.2576527174534
 30
0.0
  0
POINT
  5
1868
330
1587
100
AcDbEntity
  8
Defpoints
 62
     0
100
AcDbPoint
 10
2400.777821170235
 20
375.2576527174534
 30
0.0
  0
ENDBLK
  5
1592
330
1587
100
AcDbEntity
  8
0
100
AcDbBlockEnd
  0
BLOCK
  5
15FD
330
15F3
100
AcDbEntity
  8
0
100
AcDbBlockBegin
  2
*D23
 70
     1
 10
0.0
 20
0.0
 30
0.0
  3
*D23
  1

  0
LINE
  5
1857
330
15F3
100
AcDbEntity
  8
寸法
 62
     0
370
    15
100
AcDbLine
 10
1784.834700921791
 20
1460.859507154115
 30
0.0
 11
1784.834700921791
 21
1544.175510797465
 31
0.0
  0
LINE
  5
1858
330
15F3
100
AcDbEntity
  8
寸法
 62
     0
370
    15
100
AcDbLine
 10
1834.83470092179
 20
1498.359507154115
 30
0.0
 11
1834.83470092179
 21
1544.175510797465
 31
0.0
  0
LINE
  5
1859
330
15F3
100
AcDbEntity
  8
寸法
 62
     0
370
    18
100
AcDbLine
 10
1784.834700921791
 20
1544.175510797465
 30
0.0
 11
1834.83470092179
 21
1544.175510797465
 31
0.0
  0
MTEXT
  5
185A
330
15F3
100
AcDbEntity
  8
寸法
 62
     0
100
AcDbMText
 10
1809.834700921791
 20
1566.749072179548
 30
0.0
 40
25.0
 41
0.0
 71
     5
 72
     1
  1
50
 73
     1
 44
1.0
1001
ACAD
1000
MTEXTBEGIN
1070
    73
1070
     1
1070
    44
1040
1.0
1070
    74
1070
     0
1000
MTEXTEND
  0
INSERT
  5
185B
330
15F3
100
AcDbEntity
  8
寸法
 62
     0
370
    18
100
AcDbBlockReference
  2
_DotSmall
 10
1784.834700921791
 20
1544.175510797465
 30
0.0
 41
25.0
 42
25.0
 43
25.0
 50
180.0
  0
INSERT
  5
185C
330
15F3
100
AcDbEntity
  8
寸法
 62
     0
370
    18
100
AcDbBlockReference
  2
_DotSmall
 10
1834.83470092179
 20
1544.175510797465
 30
0.0
 41
25.0
 42
25.0
 43
25.0
  0
POINT
  5
185D
330
15F3
100
AcDbEntity
  8
Defpoints
 62
     0
100
AcDbPoint
 10
1784.834700921791
 20
1395.859507154115
 30
0.0
  0
POINT
  5
185E
330
15F3
100
AcDbEntity
  8
Defpoints
 62
     0
100
AcDbPoint
 10
1834.83470092179
 20
1433.359507154115
 30
0.0
  0
POINT
  5
185F
330
15F3
100
AcDbEntity
  8
Defpoints
 62
     0
100
AcDbPoint
 10
1834.83470092179
 20
1544.175510797465
 30
0.0
  0
ENDBLK
  5
15FE
330
15F3
100
AcDbEntity
  8
0
100
AcDbBlockEnd
  0
BLOCK
  5
17C3
330
17BA
100
AcDbEntity
  8
0
100
AcDbBlockBegin
  2
*D24
 70
     1
 10
0.0
 20
0.0
 30
0.0
  3
*D24
  1

  0
LINE
  5
184F
330
17BA
100
AcDbEntity
  8
実形
 62
     0
370
    15
100
AcDbLine
 10
1014.834700921791
 20
623.3595071541149
 30
0.0
 11
960.9429504340837
 21
623.3595071541149
 31
0.0
  0
LINE
  5
1850
330
17BA
100
AcDbEntity
  8
実形
 62
     0
370
    15
100
AcDbLine
 10
1014.834700921791
 20
608.3595071541148
 30
0.0
 11
960.9429504340837
 21
608.3595071541148
 31
0.0
  0
LINE
  5
1851
330
17BA
100
AcDbEntity
  8
実形
 62
     0
370
    15
100
AcDbLine
 10
960.9429504340837
 20
623.3595071541149
 30
0.0
 11
960.9429504340837
 21
608.3595071541148
 31
0.0
  0
INSERT
  5
1852
330
17BA
100
AcDbEntity
  8
実形
 62
     0
370
    15
100
AcDbBlockReference
  2
_DotSmall
 10
960.9429504340837
 20
623.3595071541149
 30
0.0
 41
25.0
 42
25.0
 43
25.0
 50
90.0
  0
INSERT
  5
1853
330
17BA
100
AcDbEntity
  8
実形
 62
     0
370
    15
100
AcDbBlockReference
  2
_DotSmall
 10
960.9429504340837
 20
608.3595071541148
 30
0.0
 41
25.0
 42
25.0
 43
25.0
 50
270.0
  0
POINT
  5
1854
330
17BA
100
AcDbEntity
  8
Defpoints
 62
     0
100
AcDbPoint
 10
1079.834700921791
 20
623.3595071541149
 30
0.0
  0
POINT
  5
1855
330
17BA
100
AcDbEntity
  8
Defpoints
 62
     0
100
AcDbPoint
 10
1079.834700921791
 20
608.3595071541148
 30
0.0
  0
POINT
  5
1856
330
17BA
100
AcDbEntity
  8
Defpoints
 62
     0
100
AcDbPoint
 10
960.9429504340837
 20
608.3595071541148
 30
0.0
  0
ENDBLK
  5
17C4
330
17BA
100
AcDbEntity
  8
0
100
AcDbBlockEnd
  0
BLOCK
  5
17CF
330
17C5
100
AcDbEntity
  8
0
100
AcDbBlockBegin
  2
*D25
 70
     1
 10
0.0
 20
0.0
 30
0.0
  3
*D25
  1

  0
LINE
  5
1846
330
17C5
100
AcDbEntity
  8
実形
 62
     0
370
    15
100
AcDbLine
 10
1013.832191116094
 20
763.3595071541149
 30
0.0
 11
892.178636688841
 21
763.3595071541149
 31
0.0
  0
LINE
  5
1847
330
17C5
100
AcDbEntity
  8
実形
 62
     0
370
    15
100
AcDbLine
 10
1014.834700921791
 20
608.3595071541148
 30
0.0
 11
892.178636688841
 21
608.3595071541148
 31
0.0
  0
LINE
  5
1848
330
17C5
100
AcDbEntity
  8
実形
 62
     0
370
    15
100
AcDbLine
 10
892.178636688841
 20
763.3595071541149
 30
0.0
 11
892.178636688841
 21
608.3595071541148
 31
0.0
  0
INSERT
  5
1849
330
17C5
100
AcDbEntity
  8
実形
 62
     0
370
    15
100
AcDbBlockReference
  2
_DotSmall
 10
892.178636688841
 20
763.3595071541149
 30
0.0
 41
25.0
 42
25.0
 43
25.0
 50
90.0
  0
INSERT
  5
184A
330
17C5
100
AcDbEntity
  8
実形
 62
     0
370
    15
100
AcDbBlockReference
  2
_DotSmall
 10
892.178636688841
 20
608.3595071541148
 30
0.0
 41
25.0
 42
25.0
 43
25.0
 50
270.0
  0
MTEXT
  5
184B
330
17C5
100
AcDbEntity
  8
実形
 62
     0
100
AcDbMText
 10
873.4286366888408
 20
685.8595071541151
 30
0.0
 40
25.0
 41
0.0
 71
     5
 72
     1
  1
155
 11
0.0000000000000001
 21
1.0
 31
0.0
 73
     1
 44
1.0
1001
ACAD
1000
MTEXTBEGIN
1070
    73
1070
     1
1070
    44
1040
1.0
1070
    74
1070
     0
1000
MTEXTEND
  0
POINT
  5
184C
330
17C5
100
AcDbEntity
  8
Defpoints
 62
     0
100
AcDbPoint
 10
1078.832191116094
 20
763.3595071541149
 30
0.0
  0
POINT
  5
184D
330
17C5
100
AcDbEntity
  8
Defpoints
 62
     0
100
AcDbPoint
 10
1079.834700921791
 20
608.3595071541148
 30
0.0
  0
POINT
  5
184E
330
17C5
100
AcDbEntity
  8
Defpoints
 62
     0
100
AcDbPoint
 10
892.178636688841
 20
608.3595071541148
 30
0.0
  0
ENDBLK
  5
17D0
330
17C5
100
AcDbEntity
  8
0
100
AcDbBlockEnd
  0
BLOCK
  5
1816
330
180D
100
AcDbEntity
  8
0
100
AcDbBlockBegin
  2
*D26
 70
     1
 10
0.0
 20
0.0
 30
0.0
  3
*D26
  1

  0
LINE
  5
183E
330
180D
100
AcDbEntity
  8
寸法
 62
     0
370
    15
100
AcDbLine
 10
1939.83470092179
 20
1133.101934914135
 30
0.0
 11
1939.83470092179
 21
1077.1952008767
 31
0.0
  0
LINE
  5
183F
330
180D
100
AcDbEntity
  8
寸法
 62
     0
370
    15
100
AcDbLine
 10
1924.83470092179
 20
1133.101934914135
 30
0.0
 11
1924.83470092179
 21
1077.1952008767
 31
0.0
  0
LINE
  5
1840
330
180D
100
AcDbEntity
  8
寸法
 62
     0
370
    18
100
AcDbLine
 10
1939.83470092179
 20
1077.1952008767
 30
0.0
 11
1924.83470092179
 21
1077.1952008767
 31
0.0
  0
INSERT
  5
1841
330
180D
100
AcDbEntity
  8
寸法
 62
     0
370
    18
100
AcDbBlockReference
  2
_DotSmall
 10
1939.83470092179
 20
1077.1952008767
 30
0.0
 41
25.0
 42
25.0
 43
25.0
  0
INSERT
  5
1842
330
180D
100
AcDbEntity
  8
寸法
 62
     0
370
    18
100
AcDbBlockReference
  2
_DotSmall
 10
1924.83470092179
 20
1077.1952008767
 30
0.0
 41
25.0
 42
25.0
 43
25.0
 50
180.0
  0
POINT
  5
1843
330
180D
100
AcDbEntity
  8
Defpoints
 62
     0
100
AcDbPoint
 10
1939.83470092179
 20
1198.101934914135
 30
0.0
  0
POINT
  5
1844
330
180D
100
AcDbEntity
  8
Defpoints
 62
     0
100
AcDbPoint
 10
1924.83470092179
 20
1198.101934914135
 30
0.0
  0
POINT
  5
1845
330
180D
100
AcDbEntity
  8
Defpoints
 62
     0
100
AcDbPoint
 10
1924.83470092179
 20
1077.1952008767
 30
0.0
  0
ENDBLK
  5
1817
330
180D
100
AcDbEntity
  8
0
100
AcDbBlockEnd
  0
BLOCK
  5
1822
330
1818
100
AcDbEntity
  8
0
100
AcDbBlockBegin
  2
*D27
 70
     1
 10
0.0
 20
0.0
 30
0.0
  3
*D27
  1

  0
LINE
  5
1835
330
1818
100
AcDbEntity
  8
寸法
 62
     0
370
    15
100
AcDbLine
 10
1939.83470092179
 20
1109.807973693698
 30
0.0
 11
1939.83470092179
 21
1013.823513977658
 31
0.0
  0
LINE
  5
1836
330
1818
100
AcDbEntity
  8
寸法
 62
     0
370
    15
100
AcDbLine
 10
1784.834700921791
 20
1131.975130137794
 30
0.0
 11
1784.834700921791
 21
1013.823513977658
 31
0.0
  0
LINE
  5
1837
330
1818
100
AcDbEntity
  8
寸法
 62
     0
370
    18
100
AcDbLine
 10
1939.83470092179
 20
1013.823513977658
 30
0.0
 11
1784.834700921791
 21
1013.823513977658
 31
0.0
  0
INSERT
  5
1838
330
1818
100
AcDbEntity
  8
寸法
 62
     0
370
    18
100
AcDbBlockReference
  2
_DotSmall
 10
1939.83470092179
 20
1013.823513977658
 30
0.0
 41
25.0
 42
25.0
 43
25.0
  0
INSERT
  5
1839
330
1818
100
AcDbEntity
  8
寸法
 62
     0
370
    18
100
AcDbBlockReference
  2
_DotSmall
 10
1784.834700921791
 20
1013.823513977658
 30
0.0
 41
25.0
 42
25.0
 43
25.0
 50
180.0
  0
MTEXT
  5
183A
330
1818
100
AcDbEntity
  8
寸法
 62
     0
100
AcDbMText
 10
1862.33470092179
 20
1032.573513977658
 30
0.0
 40
25.0
 41
0.0
 71
     5
 72
     1
  1
155
 73
     1
 44
1.0
1001
ACAD
1000
MTEXTBEGIN
1070
    73
1070
     1
1070
    44
1040
1.0
1070
    74
1070
     0
1000
MTEXTEND
  0
POINT
  5
183B
330
1818
100
AcDbEntity
  8
Defpoints
 62
     0
100
AcDbPoint
 10
1939.83470092179
 20
1174.807973693698
 30
0.0
  0
POINT
  5
183C
330
1818
100
AcDbEntity
  8
Defpoints
 62
     0
100
AcDbPoint
 10
1784.834700921791
 20
1196.975130137794
 30
0.0
  0
POINT
  5
183D
330
1818
100
AcDbEntity
  8
Defpoints
 62
     0
100
AcDbPoint
 10
1784.834700921791
 20
1013.823513977658
 30
0.0
  0
ENDBLK
  5
1823
330
1818
100
AcDbEntity
  8
0
100
AcDbBlockEnd
  0
ENDSEC
  0
SECTION
  2
ENTITIES
  0
LINE
  5
9C
330
1F
100
AcDbEntity
  8
補助
100
AcDbLine
 10
126.0
 20
4.0
 30
0.0
 11
2784.0
 21
4.0
 31
0.0
  0
LINE
  5
A0
330
1F
100
AcDbEntity
  8
補助
100
AcDbLine
 10
2784.0
 20
2024.0
 30
0.0
 11
126.0
 21
2024.0
 31
0.0
  0
LINE
  5
A5
330
1F
100
AcDbEntity
  8
補助
100
AcDbLine
 10
2784.0
 20
4.0
 30
0.0
 11
2784.0
 21
2024.0
 31
0.0
  0
LINE
  5
2E6
330
1F
100
AcDbEntity
  8
実形
100
AcDbLine
 10
1054.83470092179
 20
763.3595071541149
 30
0.0
 11
1339.83470092179
 21
763.3595071541149
 31
0.0
  0
CIRCLE
  5
2EB
330
1F
100
AcDbEntity
  8
実形
100
AcDbCircle
 10
1197.33470092179
 20
1503.359507154115
 30
0.0
 40
44.0
  0
CIRCLE
  5
2EE
330
1F
100
AcDbEntity
  8
実形
100
AcDbCircle
 10
1197.33470092179
 20
1503.359507154115
 30
0.0
 40
58.0
  0
LINE
  5
2FE
330
1F
100
AcDbEntity
  8
実形
100
AcDbLine
 10
1784.834700921791
 20
1668.359507154115
 30
0.0
 11
1784.834700921791
 21
1198.359507154115
 31
0.0
  0
LINE
  5
33A
330
1F
100
AcDbEntity
  8
センター
 48
0.5
370
    15
100
AcDbLine
 10
1112.120000065402
 20
1503.359507154115
 30
0.0
 11
1282.549401778179
 21
1503.359507154115
 31
0.0
  0
LINE
  5
33B
330
1F
100
AcDbEntity
  8
センター
 48
0.5
370
    15
100
AcDbLine
 10
1197.33470092179
 20
1588.574208010503
 30
0.0
 11
1197.33470092179
 21
1418.144806297726
 31
0.0
  0
LINE
  5
33C
330
1F
100
AcDbEntity
  8
センター
 48
0.5
370
    15
100
AcDbLine
 10
1197.33470092179
 20
686.5761310295283
 30
0.0
 11
1197.33470092179
 21
530.1603107222281
 31
0.0
  0
LINE
  5
33D
330
1F
100
AcDbEntity
  8
センター
 48
0.5
370
    15
100
AcDbLine
 10
1858.298912242833
 20
1503.359507154115
 30
0.0
 11
1972.209864499895
 21
1503.359507154115
 31
0.0
  0
DIMENSION
  5
35B
330
1F
100
AcDbEntity
  8
寸法
100
AcDbDimension
  2
*D4
 10
1069.83470092179
 20
1747.162625317523
 30
0.0
 11
1133.58470092179
 21
1765.912625317523
 31
0.0
 70
    32
 71
     5
 42
127.5
  3
ISO-25
100
AcDbAlignedDimension
 13
1197.33470092179
 23
1503.359507154115
 33
0.0
 14
1069.83470092179
 24
1593.826706059003
 34
0.0
100
AcDbRotatedDimension
1001
ACAD
1000
DSTYLE
1002
{
1070
    41
1040
25.0
1070
   371
1070
    18
1002
}
  0
DIMENSION
  5
368
330
1F
100
AcDbEntity
  8
寸法
100
AcDbDimension
  2
*D5
 10
1437.437713540772
 20
1653.359507154115
 30
0.0
 11
1418.687713540772
 21
1578.359507154115
 31
0.0
 70
    32
 71
     5
 42
150.0
  3
ISO-25
100
AcDbAlignedDimension
 13
1197.33470092179
 23
1503.359507154115
 33
0.0
 14
1269.847057412082
 24
1653.359507154115
 34
0.0
 50
90.0
100
AcDbRotatedDimension
1001
ACAD
1000
DSTYLE
1002
{
1070
    41
1040
25.0
1070
   371
1070
    18
1002
}
  0
TEXT
  5
397
330
1F
100
AcDbEntity
  8
寸法
370
    18
100
AcDbText
 10
1176.425435056595
 20
1363.249712571865
 30
0.0
 40
25.0
  1
1500R
100
AcDbText
  0
TEXT
  5
398
330
1F
100
AcDbEntity
  8
寸法
370
    18
100
AcDbText
 10
1158.454323153851
 20
1281.622688030047
 30
0.0
 40
25.0
  1
110R
100
AcDbText
  0
TEXT
  5
3AF
330
1F
100
AcDbEntity
  8
寸法
100
AcDbText
 10
1228.829460706311
 20
688.7979004543658
 30
0.0
 40
25.0
  1
30R
100
AcDbText
  0
TEXT
  5
3B1
330
1F
100
AcDbEntity
  8
寸法
370
    18
100
AcDbText
 10
1814.846254388352
 20
1285.730270139884
 30
0.0
 40
25.0
  1
30R
100
AcDbText
  0
DIMENSION
  5
3CE
330
1F
100
AcDbEntity
  8
寸法
100
AcDbDimension
  2
*D6
 10
911.6593861979172
 20
1653.359507154115
 30
0.0
 11
911.659386197917
 21
1660.859507154115
 31
0.0
 70
    32
  1
 
 71
     5
 42
15.0
  3
ISO-25
100
AcDbAlignedDimension
 13
1054.83470092179
 23
1668.359507154115
 33
0.0
 14
1054.83470092179
 24
1653.359507154115
 34
0.0
 50
90.0
100
AcDbRotatedDimension
1001
ACAD
1000
DSTYLE
1002
{
1070
    41
1040
25.0
1070
   371
1070
    18
1002
}
  0
DIMENSION
  5
3DC
330
1F
100
AcDbEntity
  8
寸法
100
AcDbDimension
  2
*D7
 10
911.6593861979172
 20
1213.359507154115
 30
0.0
 11
892.909386197917
 21
1433.359507154115
 31
0.0
 70
    32
 71
     5
 42
440.0
  3
ISO-25
100
AcDbAlignedDimension
 13
1054.83470092179
 23
1653.359507154115
 33
0.0
 14
1054.83470092179
 24
1213.359507154115
 34
0.0
 50
90.0
100
AcDbRotatedDimension
1001
ACAD
1000
DSTYLE
1002
{
1070
    41
1040
25.0
1070
   371
1070
    18
1070
   279
1070
     1
1002
}
  0
DIMENSION
  5
3E9
330
1F
100
AcDbEntity
  8
寸法
370
    18
100
AcDbDimension
  2
*D8
 10
911.6593861979172
 20
1198.359507154115
 30
0.0
 11
916.0932804933318
 21
1155.675266445888
 31
0.0
 70
   160
 71
     5
 42
15.0
  3
ISO-25
100
AcDbAlignedDimension
 13
1054.83470092179
 23
1213.359507154115
 33
0.0
 14
1054.83470092179
 24
1198.359507154115
 34
0.0
 50
90.0
100
AcDbRotatedDimension
1001
ACAD
1000
DSTYLE
1002
{
1070
    41
1040
25.0
1070
   371
1070
    18
1070
   279
1070
     1
1002
}
  0
DIMENSION
  5
3F6
330
1F
100
AcDbEntity
  8
寸法
100
AcDbDimension
  2
*D9
 10
842.8194878732329
 20
1198.359507154115
 30
0.0
 11
824.0694878732327
 21
1433.359507154115
 31
0.0
 70
    32
 71
     5
 42
470.0
  3
ISO-25
100
AcDbAlignedDimension
 13
1054.83470092179
 23
1668.359507154115
 33
0.0
 14
1054.83470092179
 24
1198.359507154115
 34
0.0
 50
90.0
100
AcDbRotatedDimension
1001
ACAD
1000
DSTYLE
1002
{
1070
    41
1040
25.0
1070
   371
1070
    18
1002
}
  0
TEXT
  5
43C
330
1F
100
AcDbEntity
  8
寸法
370
    18
100
AcDbText
 10
916.0932804933318
 20
1693.61068009344
 30
0.0
 40
25.0
  1
15
 50
90.0
100
AcDbText
  0
DIMENSION
  5
43D
330
1F
100
AcDbEntity
  8
寸法
100
AcDbDimension
  2
*D10
 10
1069.83470092179
 20
1050.42738938406
 30
0.0
 11
1129.33470092179
 21
1050.42738938406
 31
0.0
 70
   160
  1
 
 71
     5
 42
15.0
  3
ISO-25
100
AcDbAlignedDimension
 13
1054.83470092179
 23
1198.359507154115
 33
0.0
 14
1069.83470092179
 24
1198.359507154115
 34
0.0
100
AcDbRotatedDimension
1001
ACAD
1000
DSTYLE
1002
{
1070
    41
1040
25.0
1070
   371
1070
    18
1002
}
  0
DIMENSION
  5
44B
330
1F
100
AcDbEntity
  8
寸法
100
AcDbDimension
  2
*D11
 10
1324.83470092179
 20
1050.42738938406
 30
0.0
 11
1197.33470092179
 21
1069.17738938406
 31
0.0
 70
    32
 71
     5
 42
255.0
  3
ISO-25
100
AcDbAlignedDimension
 13
1069.83470092179
 23
1198.359507154115
 33
0.0
 14
1324.83470092179
 24
1198.359507154115
 34
0.0
100
AcDbRotatedDimension
1001
ACAD
1000
DSTYLE
1002
{
1070
    41
1040
25.0
1070
   371
1070
    18
1070
   279
1070
     1
1002
}
  0
DIMENSION
  5
458
330
1F
100
AcDbEntity
  8
寸法
100
AcDbDimension
  2
*D12
 10
1339.83470092179
 20
1050.42738938406
 30
0.0
 11
1332.33470092179
 21
1050.42738938406
 31
0.0
 70
    32
  1
 
 71
     5
 42
15.0
  3
ISO-25
100
AcDbAlignedDimension
 13
1324.83470092179
 23
1198.359507154115
 33
0.0
 14
1339.83470092179
 24
1198.359507154115
 34
0.0
100
AcDbRotatedDimension
1001
ACAD
1000
DSTYLE
1002
{
1070
    41
1040
25.0
1070
   371
1070
    18
1070
   279
1070
     1
1002
}
  0
TEXT
  5
494
330
1F
100
AcDbEntity
  8
寸法
100
AcDbText
 10
996.2364844755748
 20
1052.715387018456
 30
0.0
 40
25.0
  1
15
100
AcDbText
  0
TEXT
  5
495
330
1F
100
AcDbEntity
  8
寸法
370
    18
100
AcDbText
 10
1363.098160968384
 20
1052.715387018456
 30
0.0
 40
25.0
  1
15
100
AcDbText
  0
DIMENSION
  5
4A3
330
1F
100
AcDbEntity
  8
寸法
100
AcDbDimension
  2
*D13
 10
1339.83470092179
 20
972.6354792281908
 30
0.0
 11
1197.33470092179
 21
991.3854792281908
 31
0.0
 70
    32
 71
     5
 42
285.0
  3
ISO-25
100
AcDbAlignedDimension
 13
1054.83470092179
 23
1198.359507154115
 33
0.0
 14
1339.83470092179
 24
1198.359507154115
 34
0.0
100
AcDbRotatedDimension
1001
ACAD
1000
DSTYLE
1002
{
1070
    41
1040
25.0
1070
   371
1070
    18
1002
}
  0
DIMENSION
  5
4F8
330
1F
100
AcDbEntity
  8
寸法
100
AcDbDimension
  2
*D14
 10
1241.33470092179
 20
481.932099853042
 30
0.0
 11
1197.33470092179
 21
500.682099853042
 31
0.0
 70
    32
 71
     5
 42
88.0
  3
ISO-25
100
AcDbAlignedDimension
 13
1153.33470092179
 23
598.3595071541149
 33
0.0
 14
1241.33470092179
 24
598.3595071541149
 34
0.0
100
AcDbRotatedDimension
1001
ACAD
1000
DSTYLE
1002
{
1070
    41
1040
25.0
1070
   371
1070
    18
1002
}
  0
DIMENSION
  5
505
330
1F
100
AcDbEntity
  8
寸法
100
AcDbDimension
  2
*D15
 10
1255.33470092179
 20
421.9727012841131
 30
0.0
 11
1197.33470092179
 21
440.7227012841131
 31
0.0
 70
    32
 71
     5
 42
116.0
  3
ISO-25
100
AcDbAlignedDimension
 13
1139.33470092179
 23
598.3595071541149
 33
0.0
 14
1255.33470092179
 24
598.3595071541149
 34
0.0
100
AcDbRotatedDimension
1001
ACAD
1000
DSTYLE
1002
{
1070
    41
1040
25.0
1070
   371
1070
    18
1002
}
  0
DIMENSION
  5
569
330
1F
100
AcDbEntity
  8
寸法
100
AcDbDimension
  2
*D16
 10
2060.140845013711
 20
1459.359507154115
 30
0.0
 11
2041.39084501371
 21
1503.359507154115
 31
0.0
 70
    32
 71
     5
 42
88.0
  3
ISO-25
100
AcDbAlignedDimension
 13
1949.83470092179
 23
1547.359507154115
 33
0.0
 14
1949.83470092179
 24
1459.359507154115
 34
0.0
 50
90.0
100
AcDbRotatedDimension
1001
ACAD
1000
DSTYLE
1002
{
1070
    41
1040
25.0
1070
   371
1070
    18
1002
}
  0
DIMENSION
  5
57F
330
1F
100
AcDbEntity
  8
寸法
100
AcDbDimension
  2
*D17
 10
2125.062432978552
 20
1445.359507154115
 30
0.0
 11
2106.312432978552
 21
1503.359507154115
 31
0.0
 70
    32
 71
     5
 42
116.0
  3
ISO-25
100
AcDbAlignedDimension
 13
1949.83470092179
 23
1561.359507154115
 33
0.0
 14
1949.83470092179
 24
1445.359507154115
 34
0.0
 50
90.0
100
AcDbRotatedDimension
1001
ACAD
1000
DSTYLE
1002
{
1070
    41
1040
25.0
1070
   371
1070
    18
1002
}
  0
LEADER
  5
7D0
330
1F
100
AcDbEntity
  8
0
100
AcDbLeader
  3
ISO-25
 40
25.0
 41
16.66666666666666
 76
     2
 10
1317.91143308899
 20
1460.574241650128
 30
0.0
 10
1278.634340453485
 20
1400.923720602432
 30
0.0
211
-1.0
221
0.0
231
0.0
210
0.0
220
0.0
230
-1.0
213
0.0
223
-12.5
233
0.0
1001
ACAD
1000
DSTYLE
1002
{
1070
    41
1040
25.0
1070
   147
1040
6.25
1070
    77
1070
     0
1070
    73
1070
     1
1070
    74
1070
     1
1070
   279
1070
     1
1070
   342
1005
DA
1002
}
  0
LEADER
  5
7D1
330
1F
100
AcDbEntity
  8
0
100
AcDbLeader
  3
ISO-25
 40
25.0
 41
16.66666666666666
 76
     2
 10
1284.141011000403
 20
1253.367176055243
 30
0.0
 10
1240.150668966051
 20
1286.33193843868
 30
0.0
213
0.0
223
-12.5
233
0.0
1001
ACAD
1000
DSTYLE
1002
{
1070
    41
1040
25.0
1070
   147
1040
6.25
1070
    77
1070
     0
1070
    73
1070
     1
1070
    74
1070
     1
1070
   279
1070
     1
1070
   342
1005
DA
1002
}
  0
LEADER
  5
7D2
330
1F
100
AcDbEntity
  8
0
100
AcDbLeader
  3
ISO-25
 40
25.0
 41
16.66666666666666
 76
     2
 10
1315.680379380139
 20
636.9726146108641
 30
0.0
 10
1279.492490874669
 20
679.1559851480742
 30
0.0
213
0.0
223
-12.5
233
0.0
1001
ACAD
1000
DSTYLE
1002
{
1070
    41
1040
25.0
1070
   147
1040
6.25
1070
    77
1070
     0
1070
    73
1070
     1
1070
    74
1070
     1
1070
   279
1070
     1
1070
   342
1005
DA
1002
}
  0
LEADER
  5
7D3
330
1F
100
AcDbEntity
  8
0
100
AcDbLeader
  3
ISO-25
 40
25.0
 41
16.66666666666666
 76
     2
 10
1910.128375370853
 20
1231.058191027369
 30
0.0
 10
1883.069571510179
 20
1274.739916189185
 30
0.0
213
0.0
223
-12.5
233
0.0
1001
ACAD
1000
DSTYLE
1002
{
1070
    41
1040
25.0
1070
   147
1040
6.25
1070
    77
1070
     0
1070
    73
1070
     1
1070
    74
1070
     1
1070
   279
1070
     1
1070
   342
1005
DA
1002
}
  0
TEXT
  5
8C9
330
1F
100
AcDbEntity
  8
0
100
AcDbText
 10
249.2632881086038
 20
83.52862940911927
 30
0.0
 40
30.0
  1
※実寸には製造上の誤差が多少生ずる場合があります。シンクの穴あけ加工は現物合わせにてお願いします。
100
AcDbText
  0
LINE
  5
F27
330
1F
100
AcDbEntity
  8
実形
100
AcDbLine
 10
1054.83470092179
 20
763.3595071541149
 30
0.0
 11
1339.83470092179
 21
763.3595071541149
 31
0.0
  0
LINE
  5
1238
330
1F
100
AcDbEntity
  8
実形
100
AcDbLine
 10
1339.83470092179
 20
763.3595071541149
 30
0.0
 11
1054.83470092179
 21
763.3595071541149
 31
0.0
  0
LINE
  5
123B
330
1F
100
AcDbEntity
  8
実形
100
AcDbLine
 10
1139.33470092179
 20
608.3595071541148
 30
0.0
 11
1139.33470092179
 21
598.3595071541149
 31
0.0
  0
LINE
  5
123C
330
1F
100
AcDbEntity
  8
実形
100
AcDbLine
 10
1139.33470092179
 20
598.3595071541149
 30
0.0
 11
1255.33470092179
 21
598.3595071541149
 31
0.0
  0
LINE
  5
123D
330
1F
100
AcDbEntity
  8
実形
100
AcDbLine
 10
1255.33470092179
 20
598.3595071541149
 30
0.0
 11
1255.33470092179
 21
608.3595071541148
 31
0.0
  0
LINE
  5
123E
330
1F
100
AcDbEntity
  8
実形
100
AcDbLine
 10
1255.33470092179
 20
608.3595071541148
 30
0.0
 11
1139.33470092179
 21
608.3595071541148
 31
0.0
  0
LINE
  5
12A9
330
1F
100
AcDbEntity
  8
実形
100
AcDbLine
 10
1784.834700921791
 20
1668.359507154115
 30
0.0
 11
1784.834700921791
 21
1198.359507154115
 31
0.0
  0
LINE
  5
12AC
330
1F
100
AcDbEntity
  8
実形
100
AcDbLine
 10
1939.83470092179
 20
1445.359507154115
 30
0.0
 11
1949.83470092179
 21
1445.359507154115
 31
0.0
  0
LINE
  5
12AD
330
1F
100
AcDbEntity
  8
実形
100
AcDbLine
 10
1949.83470092179
 20
1445.359507154115
 30
0.0
 11
1949.83470092179
 21
1561.359507154115
 31
0.0
  0
LINE
  5
12AE
330
1F
100
AcDbEntity
  8
実形
100
AcDbLine
 10
1949.83470092179
 20
1561.359507154115
 30
0.0
 11
1939.83470092179
 21
1561.359507154115
 31
0.0
  0
LINE
  5
12AF
330
1F
100
AcDbEntity
  8
実形
100
AcDbLine
 10
1939.83470092179
 20
1561.359507154115
 30
0.0
 11
1939.83470092179
 21
1445.359507154115
 31
0.0
  0
LINE
  5
141D
330
1F
100
AcDbEntity
  8
実形
100
AcDbLine
 10
1069.83470092179
 20
763.3595071541149
 30
0.0
 11
1069.83470092179
 21
647.5754559138541
 31
0.0
  0
LINE
  5
141E
330
1F
100
AcDbEntity
  8
実形
100
AcDbLine
 10
1093.505612037556
 20
618.2506774168993
 30
0.0
 11
1139.33470092179
 21
608.3595071541148
 31
0.0
  0
LINE
  5
141F
330
1F
100
AcDbEntity
  8
実形
100
AcDbLine
 10
1255.33470092179
 20
608.3595071541148
 30
0.0
 11
1301.163789806025
 21
618.2506774168993
 31
0.0
  0
LINE
  5
1420
330
1F
100
AcDbEntity
  8
実形
100
AcDbLine
 10
1324.83470092179
 20
647.5754559138541
 30
0.0
 11
1324.83470092179
 21
763.3595071541149
 31
0.0
  0
ARC
  5
1421
330
1F
100
AcDbEntity
  8
実形
100
AcDbCircle
 10
1099.83470092179
 20
647.5754559138541
 30
0.0
 40
30.0
100
AcDbArc
 50
180.0
 51
257.8208189474759
  0
ARC
  5
1422
330
1F
100
AcDbEntity
  8
実形
100
AcDbCircle
 10
1294.83470092179
 20
647.5754559138541
 30
0.0
 40
30.0
100
AcDbArc
 50
282.1791810525241
 51
0.0
  0
ARC
  5
1424
330
1F
100
AcDbEntity
  8
実形
100
AcDbCircle
 10
2569.834700921791
 20
1433.359507154115
 30
0.0
 40
1500.0
100
AcDbArc
 50
175.4610555767966
 51
184.5389444232034
  0
ARC
  5
1425
330
1F
100
AcDbEntity
  8
実形
100
AcDbCircle
 10
-175.1652990782095
 20
1433.359507154115
 30
0.0
 40
1500.0
100
AcDbArc
 50
355.4610555767966
 51
4.538944423203414
  0
LINE
  5
1426
330
1F
100
AcDbEntity
  8
実形
100
AcDbLine
 10
1184.194054866688
 20
1653.359507154114
 30
0.0
 11
1210.475346976892
 21
1653.359507154114
 31
0.0
  0
LINE
  5
1427
330
1F
100
AcDbEntity
  8
実形
100
AcDbLine
 10
1184.194054866688
 20
1213.359507154115
 30
0.0
 11
1210.475346976892
 21
1213.359507154115
 31
0.0
  0
ARC
  5
1428
330
1F
100
AcDbEntity
  8
実形
100
AcDbCircle
 10
1184.194054866688
 20
1543.359507154115
 30
0.0
 40
110.0
100
AcDbArc
 50
90.0
 51
175.4610555767966
  0
ARC
  5
1429
330
1F
100
AcDbEntity
  8
実形
100
AcDbCircle
 10
1184.194054866688
 20
1323.359507154115
 30
0.0
 40
110.0
100
AcDbArc
 50
184.5389444232034
 51
269.9999999999999
  0
ARC
  5
142A
330
1F
100
AcDbEntity
  8
実形
100
AcDbCircle
 10
1210.475346976892
 20
1323.359507154115
 30
0.0
 40
110.0
100
AcDbArc
 50
269.9999999999999
 51
355.4610555767964
  0
ARC
  5
142B
330
1F
100
AcDbEntity
  8
実形
100
AcDbCircle
 10
1210.475346976892
 20
1543.359507154115
 30
0.0
 40
110.0
100
AcDbArc
 50
4.538944423203388
 51
90.00000000000012
  0
LINE
  5
142C
330
1F
100
AcDbEntity
  8
実形
100
AcDbLine
 10
1184.194054866688
 20
1668.359507154115
 30
0.0
 11
1210.475346976892
 21
1668.359507154115
 31
0.0
  0
ARC
  5
142D
330
1F
100
AcDbEntity
  8
実形
100
AcDbCircle
 10
1210.475346976892
 20
1543.359507154115
 30
0.0
 40
125.0
100
AcDbArc
 50
4.538944423203388
 51
90.00000000000012
  0
ARC
  5
142E
330
1F
100
AcDbEntity
  8
実形
100
AcDbCircle
 10
-175.1652990782095
 20
1433.359507154115
 30
0.0
 40
1515.0
100
AcDbArc
 50
355.4610555767966
 51
4.538944423203414
  0
ARC
  5
142F
330
1F
100
AcDbEntity
  8
実形
100
AcDbCircle
 10
1210.475346976892
 20
1323.359507154115
 30
0.0
 40
125.0
100
AcDbArc
 50
269.9999999999999
 51
355.4610555767964
  0
ARC
  5
1430
330
1F
100
AcDbEntity
  8
実形
100
AcDbCircle
 10
1184.194054866688
 20
1323.359507154115
 30
0.0
 40
125.0
100
AcDbArc
 50
184.5389444232034
 51
269.9999999999999
  0
LINE
  5
1431
330
1F
100
AcDbEntity
  8
実形
100
AcDbLine
 10
1184.194054866688
 20
1198.359507154115
 30
0.0
 11
1210.475346976892
 21
1198.359507154115
 31
0.0
  0
ARC
  5
1432
330
1F
100
AcDbEntity
  8
実形
100
AcDbCircle
 10
2569.834700921791
 20
1433.359507154115
 30
0.0
 40
1515.0
100
AcDbArc
 50
175.4610555767966
 51
184.5389444232034
  0
ARC
  5
1433
330
1F
100
AcDbEntity
  8
実形
100
AcDbCircle
 10
1184.194054866688
 20
1543.359507154115
 30
0.0
 40
125.0
100
AcDbArc
 50
90.0
 51
175.4610555767966
  0
LINE
  5
14C6
330
1F
100
AcDbEntity
  8
実形
100
AcDbLine
 10
1784.834700921791
 20
1653.359507154115
 30
0.0
 11
1899.329872979092
 21
1653.359507154115
 31
0.0
  0
LINE
  5
14C7
330
1F
100
AcDbEntity
  8
実形
100
AcDbLine
 10
1928.938903213526
 20
1628.187066431468
 30
0.0
 11
1939.83470092179
 21
1561.359507154115
 31
0.0
  0
LINE
  5
14C8
330
1F
100
AcDbEntity
  8
実形
100
AcDbLine
 10
1939.83470092179
 20
1445.359507154115
 30
0.0
 11
1926.649208658183
 21
1241.423893476975
 31
0.0
  0
LINE
  5
14C9
330
1F
100
AcDbEntity
  8
実形
100
AcDbLine
 10
1896.711717118428
 20
1213.359507154115
 30
0.0
 11
1784.834700921791
 21
1213.359507154115
 31
0.0
  0
ARC
  5
14CA
330
1F
100
AcDbEntity
  8
実形
100
AcDbCircle
 10
1899.329872979092
 20
1623.359507154115
 30
0.0
 40
30.0
100
AcDbArc
 50
9.260221531171477
 51
90.0
  0
ARC
  5
14CB
330
1F
100
AcDbEntity
  8
実形
100
AcDbCircle
 10
1896.711717118428
 20
1243.359507154115
 30
0.0
 40
30.0
100
AcDbArc
 50
270.0
 51
356.3006805077128
  0
DIMENSION
  5
1535
330
1F
100
AcDbEntity
  8
寸法
100
AcDbDimension
  2
*D18
 10
2190.857143110532
 20
599.6415499907627
 30
0.0
 11
2065.857143110532
 21
618.3915499907627
 31
0.0
 70
    32
  1
50
 71
     5
 42
250.0000000000004
  3
ISO-25
100
AcDbAlignedDimension
 13
1940.857143110531
 23
500.7576527174534
 33
0.0
 14
2190.857143110532
 24
500.7576527174534
 34
0.0
100
AcDbRotatedDimension
1001
ACAD
1000
DSTYLE
1002
{
1070
    41
1040
25.0
1070
   371
1070
    18
1070
   372
1070
    18
1002
}
  0
DIMENSION
  5
1536
330
1F
100
AcDbEntity
  8
寸法
100
AcDbDimension
  2
*D19
 10
1905.857143110532
 20
650.6763894560436
 30
0.0
 11
2065.857143110532
 21
669.4263894560436
 31
0.0
 70
    32
  1
64
 71
     5
 42
320.0000000000005
  3
ISO-25
100
AcDbAlignedDimension
 13
2225.857143110532
 23
500.7576527174534
 33
0.0
 14
1905.857143110532
 24
500.7576527174534
 34
0.0
100
AcDbRotatedDimension
1001
ACAD
1000
DSTYLE
1002
{
1070
    41
1040
25.0
1070
   371
1070
    18
1070
   372
1070
    18
1002
}
  0
DIMENSION
  5
1537
330
1F
100
AcDbEntity
  8
寸法
100
AcDbDimension
  2
*D20
 10
2253.357143110532
 20
697.883616080434
 30
0.0
 11
2065.857143110532
 21
716.633616080434
 31
0.0
 70
    32
  1
75
 71
     5
 42
375.0000000000004
  3
ISO-25
100
AcDbAlignedDimension
 13
1878.357143110531
 23
500.7576527174534
 33
0.0
 14
2253.357143110532
 24
500.7576527174534
 34
0.0
100
AcDbRotatedDimension
1001
ACAD
1000
DSTYLE
1002
{
1070
    41
1040
25.0
1070
   371
1070
    18
1070
   372
1070
    18
1002
}
  0
DIMENSION
  5
1538
330
1F
100
AcDbEntity
  8
寸法
100
AcDbDimension
  2
*D21
 10
2354.810155881124
 20
400.7576527174534
 30
0.0
 11
2336.060155881124
 21
450.7576527174538
 31
0.0
 70
    32
  1
20
 71
     5
 42
100.0
  3
ISO-25
100
AcDbAlignedDimension
 13
2253.357143110532
 23
500.7576527174534
 33
0.0
 14
2253.357143110532
 24
400.7576527174534
 34
0.0
 50
90.0
100
AcDbRotatedDimension
1001
ACAD
1000
DSTYLE
1002
{
1070
    41
1040
25.0
1070
   371
1070
    18
1070
   372
1070
    18
1002
}
  0
DIMENSION
  5
1539
330
1F
100
AcDbEntity
  8
寸法
100
AcDbDimension
  2
*D22
 10
2400.777821170235
 20
375.2576527174534
 30
0.0
 11
2382.027821170234
 21
450.7576527174537
 31
0.0
 70
    32
  1
31
 71
     5
 42
150.9999999999999
  3
ISO-25
100
AcDbAlignedDimension
 13
2253.357143110532
 23
526.2576527174534
 33
0.0
 14
2253.357143110532
 24
375.2576527174534
 34
0.0
 50
90.0
100
AcDbRotatedDimension
1001
ACAD
1000
DSTYLE
1002
{
1070
    41
1040
25.0
1070
   371
1070
    18
1070
   372
1070
    18
1002
}
  0
LINE
  5
153A
330
1F
100
AcDbEntity
  8
センター
 48
0.5
100
AcDbLine
 10
1855.000674349152
 20
450.7576527174534
 30
0.0
 11
2276.713611871912
 21
450.7576527174534
 31
0.0
  0
ARC
  5
153B
330
1F
100
AcDbEntity
  8
実形
100
AcDbCircle
 10
1990.857143110531
 20
450.7576527174534
 30
0.0
 40
50.0
100
AcDbArc
 50
180.0
 51
270.0
  0
ARC
  5
153C
330
1F
100
AcDbEntity
  8
実形
100
AcDbCircle
 10
1990.857143110531
 20
450.7576527174533
 30
0.0
 40
50.0
100
AcDbArc
 50
90.0
 51
180.0
  0
LINE
  5
153D
330
1F
100
AcDbEntity
  8
実形
100
AcDbLine
 10
1953.857143110531
 20
375.2576527174533
 30
0.0
 11
2177.857143110532
 21
375.2576527174533
 31
0.0
  0
LINE
  5
153E
330
1F
100
AcDbEntity
  8
実形
100
AcDbLine
 10
2177.857143110532
 20
526.2576527174534
 30
0.0
 11
1953.857143110531
 21
526.2576527174534
 31
0.0
  0
LINE
  5
153F
330
1F
100
AcDbEntity
  8
実形
100
AcDbLine
 10
2177.857143110532
 20
521.2576527174534
 30
0.0
 11
1953.857143110531
 21
521.2576527174534
 31
0.0
  0
LINE
  5
1540
330
1F
100
AcDbEntity
  8
実形
100
AcDbLine
 10
1953.857143110531
 20
380.2576527174533
 30
0.0
 11
2177.857143110532
 21
380.2576527174533
 31
0.0
  0
LINE
  5
1541
330
1F
100
AcDbEntity
  8
実形
100
AcDbLine
 10
1878.357143110532
 20
450.7576527174531
 30
0.0
 11
1878.357143110532
 21
450.7576527174534
 31
0.0
  0
LINE
  5
1542
330
1F
100
AcDbEntity
  8
実形
100
AcDbLine
 10
1940.857143110531
 20
450.7576527174533
 30
0.0
 11
1940.857143110531
 21
450.7576527174534
 31
0.0
  0
ARC
  5
1543
330
1F
100
AcDbEntity
  8
実形
100
AcDbCircle
 10
1953.857143110531
 20
450.7576527174534
 30
0.0
 40
75.5
100
AcDbArc
 50
180.0
 51
270.0
  0
ARC
  5
1544
330
1F
100
AcDbEntity
  8
実形
100
AcDbCircle
 10
1953.857143110531
 20
450.7576527174534
 30
0.0
 40
75.5
100
AcDbArc
 50
90.0
 51
180.0
  0
ARC
  5
1545
330
1F
100
AcDbEntity
  8
実形
100
AcDbCircle
 10
1953.857143110531
 20
450.7576527174534
 30
0.0
 40
70.5
100
AcDbArc
 50
180.0
 51
270.0
  0
ARC
  5
1546
330
1F
100
AcDbEntity
  8
実形
100
AcDbCircle
 10
1953.857143110531
 20
450.7576527174534
 30
0.0
 40
70.5
100
AcDbArc
 50
90.0
 51
180.0
  0
CIRCLE
  5
1547
330
1F
100
AcDbEntity
  8
実形
100
AcDbCircle
 10
1905.857143110532
 20
450.7576527174534
 30
0.0
 40
8.966055913162964
  0
LINE
  5
1548
330
1F
100
AcDbEntity
  8
実形
100
AcDbLine
 10
2253.357143110532
 20
450.7576527174534
 30
0.0
 11
2253.357143110532
 21
450.7576527174534
 31
0.0
  0
LINE
  5
1549
330
1F
100
AcDbEntity
  8
実形
100
AcDbLine
 10
2190.857143110532
 20
450.7576527174534
 30
0.0
 11
2190.857143110532
 21
450.7576527174533
 31
0.0
  0
ARC
  5
154A
330
1F
100
AcDbEntity
  8
実形
100
AcDbCircle
 10
2177.857143110532
 20
450.7576527174534
 30
0.0
 40
75.5
100
AcDbArc
 50
0.0
 51
90.0
  0
ARC
  5
154B
330
1F
100
AcDbEntity
  8
実形
100
AcDbCircle
 10
2177.857143110532
 20
450.7576527174534
 30
0.0
 40
75.5
100
AcDbArc
 50
270.0
 51
0.0
  0
ARC
  5
154C
330
1F
100
AcDbEntity
  8
実形
100
AcDbCircle
 10
2177.857143110532
 20
450.7576527174534
 30
0.0
 40
70.5
100
AcDbArc
 50
0.0
 51
90.0
  0
ARC
  5
154D
330
1F
100
AcDbEntity
  8
実形
100
AcDbCircle
 10
2177.857143110532
 20
450.7576527174534
 30
0.0
 40
70.5
100
AcDbArc
 50
270.0
 51
0.0
  0
ARC
  5
154E
330
1F
100
AcDbEntity
  8
実形
100
AcDbCircle
 10
2140.857143110531
 20
450.7576527174533
 30
0.0
 40
50.0
100
AcDbArc
 50
0.0
 51
90.0
  0
ARC
  5
154F
330
1F
100
AcDbEntity
  8
実形
100
AcDbCircle
 10
2140.857143110531
 20
450.7576527174534
 30
0.0
 40
50.0
100
AcDbArc
 50
270.0
 51
0.0
  0
CIRCLE
  5
1550
330
1F
100
AcDbEntity
  8
実形
100
AcDbCircle
 10
2225.857143110532
 20
450.7576527174534
 30
0.0
 40
8.966055913162964
  0
LINE
  5
1551
330
1F
100
AcDbEntity
  8
センター
 48
0.5
100
AcDbLine
 10
2065.857143110532
 20
557.5021670963919
 30
0.0
 11
2065.857143110532
 21
344.0131383385149
 31
0.0
  0
LINE
  5
1552
330
1F
100
AcDbEntity
  8
実形
100
AcDbLine
 10
1990.857143110531
 20
400.7576527174533
 30
0.0
 11
2140.857143110531
 21
400.7576527174533
 31
0.0
  0
LINE
  5
1553
330
1F
100
AcDbEntity
  8
実形
100
AcDbLine
 10
2140.857143110531
 20
500.7576527174533
 30
0.0
 11
1990.857143110531
 21
500.7576527174533
 31
0.0
  0
TEXT
  5
1554
330
1F
100
AcDbEntity
  8
0
100
AcDbText
 10
1908.689961999901
 20
808.8982645624447
 30
0.0
 40
30.0
  1
オーバーフロー詳細
100
AcDbText
  0
LINE
  5
1555
330
1F
100
AcDbEntity
  8
実形
100
AcDbLine
 10
1893.617234478153
 20
797.6026462330784
 30
0.0
 11
2244.058201451382
 21
797.6026462330784
 31
0.0
  0
LINE
  5
1556
330
1F
100
AcDbEntity
  8
実形
100
AcDbLine
 10
1893.617234478153
 20
790.6026462330784
 30
0.0
 11
2244.058201451382
 21
790.6026462330784
 31
0.0
  0
LINE
  5
15E5
330
1F
100
AcDbEntity
  8
実形
  6
HIDDEN2
100
AcDbLine
 10
1062.60123713066
 20
1470.859507154115
 30
0.0
 11
1062.60123713066
 21
1395.859507154115
 31
0.0
  0
LINE
  5
15E6
330
1F
100
AcDbEntity
  8
実形
  6
HIDDEN2
100
AcDbLine
 10
1062.60123713066
 20
1395.859507154115
 30
0.0
 11
1070.601333204717
 21
1395.859507154115
 31
0.0
  0
LINE
  5
15E7
330
1F
100
AcDbEntity
  8
実形
  6
HIDDEN2
100
AcDbLine
 10
1070.601333204717
 20
1470.859507154114
 30
0.0
 11
1062.60123713066
 21
1470.859507154115
 31
0.0
  0
DIMENSION
  5
15E8
330
1F
100
AcDbEntity
  8
寸法
100
AcDbDimension
  2
*D23
 10
1834.83470092179
 20
1544.175510797465
 30
0.0
 11
1809.834700921791
 21
1566.749072179548
 31
0.0
 70
   160
 71
     5
 42
50.0
  3
ISO-25
100
AcDbAlignedDimension
 13
1784.834700921791
 23
1395.859507154115
 33
0.0
 14
1834.83470092179
 24
1433.359507154115
 34
0.0
100
AcDbRotatedDimension
1001
ACAD
1000
DSTYLE
1002
{
1070
    41
1040
25.0
1070
   279
1070
     2
1070
   371
1070
    18
1002
}
  0
LINE
  5
15E9
330
1F
100
AcDbEntity
  8
実形
100
AcDbLine
 10
1849.83470092179
 20
1410.859507154115
 30
0.0
 11
1849.83470092179
 21
1455.859507154115
 31
0.0
  0
LINE
  5
15EA
330
1F
100
AcDbEntity
  8
実形
100
AcDbLine
 10
1819.83470092179
 20
1455.859507154115
 30
0.0
 11
1819.83470092179
 21
1410.859507154115
 31
0.0
  0
LINE
  5
15EB
330
1F
100
AcDbEntity
  8
センター
 48
0.45
370
    15
100
AcDbLine
 10
1834.83470092179
 20
1510.534630525975
 30
0.0
 11
1834.83470092179
 21
1356.184383782254
 31
0.0
  0
ARC
  5
15EC
330
1F
100
AcDbEntity
  8
実形
100
AcDbCircle
 10
1834.83470092179
 20
1410.859507154115
 30
0.0
 40
15.0
100
AcDbArc
 50
180.0
 51
270.0
  0
ARC
  5
15ED
330
1F
100
AcDbEntity
  8
実形
100
AcDbCircle
 10
1834.83470092179
 20
1410.859507154115
 30
0.0
 40
15.0
100
AcDbArc
 50
270.0
 51
0.0
  0
LINE
  5
15EE
330
1F
100
AcDbEntity
  8
実形
100
AcDbLine
 10
1834.834700921789
 20
1395.859507154115
 30
0.0
 11
1834.83470092179
 21
1395.859507154115
 31
0.0
  0
ARC
  5
15EF
330
1F
100
AcDbEntity
  8
実形
100
AcDbCircle
 10
1834.83470092179
 20
1455.859507154115
 30
0.0
 40
15.0
100
AcDbArc
 50
90.0
 51
180.0
  0
ARC
  5
15F0
330
1F
100
AcDbEntity
  8
実形
100
AcDbCircle
 10
1834.83470092179
 20
1455.859507154115
 30
0.0
 40
15.0
100
AcDbArc
 50
0.0
 51
90.0
  0
LINE
  5
15F1
330
1F
100
AcDbEntity
  8
実形
100
AcDbLine
 10
1834.83470092179
 20
1470.859507154115
 30
0.0
 11
1834.83470092179
 21
1470.859507154115
 31
0.0
  0
LINE
  5
15F2
330
1F
100
AcDbEntity
  8
センター
 48
0.45
370
    15
100
AcDbLine
 10
1757.659577549929
 20
1433.359507154115
 30
0.0
 11
1917.009824293651
 21
1433.359507154115
 31
0.0
  0
LINE
  5
1652
330
1F
100
AcDbEntity
  8
補助
100
AcDbLine
 10
2064.0
 20
134.0
 30
0.0
 11
2784.0
 21
134.0
 31
0.0
  0
LINE
  5
1653
330
1F
100
AcDbEntity
  8
補助
100
AcDbLine
 10
2064.0
 20
199.0
 30
0.0
 11
2784.0
 21
199.0
 31
0.0
  0
LINE
  5
1654
330
1F
100
AcDbEntity
  8
補助
100
AcDbLine
 10
2064.0
 20
69.0
 30
0.0
 11
2784.0
 21
69.0
 31
0.0
  0
TEXT
  5
1655
330
1F
100
AcDbEntity
  8
補助
100
AcDbText
 10
2086.666666666667
 20
149.0
 30
0.0
 40
35.0
  1
品番
 72
     4
 11
2124.0
 21
166.5
 31
0.0
100
AcDbText
  0
TEXT
  5
1656
330
1F
100
AcDbEntity
  8
補助
100
AcDbText
 10
2086.666666666667
 20
84.0
 30
0.0
 40
35.0
  1
尺度
 72
     4
 11
2124.0
 21
101.5
 31
0.0
100
AcDbText
  0
LINE
  5
1657
330
1F
100
AcDbEntity
  8
補助
100
AcDbLine
 10
2064.0
 20
4.0
 30
0.0
 11
2064.0
 21
199.0
 31
0.0
  0
LINE
  5
1658
330
1F
100
AcDbEntity
  8
補助
100
AcDbLine
 10
2184.0
 20
69.0
 30
0.0
 11
2784.0
 21
69.0
 31
0.0
  0
TEXT
  5
1659
330
1F
100
AcDbEntity
  8
補助
100
AcDbText
 10
2300.255774665348
 20
16.49999999999999
 30
0.0
 40
40.0
  1
中外交易株式会社
 72
     4
 11
2488.255774665347
 21
36.5
 31
0.0
100
AcDbText
  0
TEXT
  5
165A
330
1F
100
AcDbEntity
  8
0
100
AcDbText
 10
2210.416666666667
 20
149.0
 30
0.0
 40
35.0
  1
A１m/m 255-440(OF)
 72
     4
 11
2484.0
 21
166.5
 31
0.0
100
AcDbText
  0
LINE
  5
165B
330
1F
100
AcDbEntity
  8
補助
100
AcDbLine
 10
2184.0
 20
69.0
 30
0.0
 11
2184.0
 21
199.0
 31
0.0
  0
HATCH
  5
165C
330
1F
100
AcDbEntity
  8
補助
100
AcDbHatch
 10
0.0
 20
0.0
 30
0.0
210
0.0
220
0.0
230
1.0
  2
SOLID
 70
     1
 71
     1
 91
        3
 92
        1
 93
        4
 72
     2
 10
2257.166198313996
 20
36.5
 40
20.0
 50
11.647723667075
 51
342.6561058784863
 73
     1
 72
     1
 10
2276.256852341323
 20
30.53787547858514
 11
2252.166198313995
 21
30.53787547858519
 72
     1
 10
2252.166198313995
 20
30.53787547858519
 11
2252.166198313995
 21
40.53787547858519
 72
     1
 10
2252.166198313995
 20
40.53787547858519
 11
2276.75434681301
 21
40.53787547858519
 97
        4
330
165D
330
165F
330
1660
330
1661
 92
        1
 93
        4
 72
     2
 10
2188.255774665348
 20
36.5
 40
20.0
 50
11.647723667075
 51
342.6561058784863
 73
     1
 72
     1
 10
2207.346428692676
 20
30.53787547858514
 11
2183.255774665347
 21
30.53787547858519
 72
     1
 10
2183.255774665347
 20
30.53787547858519
 11
2183.255774665347
 21
40.53787547858519
 72
     1
 10
2183.255774665347
 20
40.53787547858519
 11
2207.843923164362
 21
40.53787547858519
 97
        4
330
165E
330
1667
330
1668
330
1669
 92
        1
 93
        5
 72
     1
 10
2245.64189404294
 20
56.5
 11
2210.641894042939
 21
56.5
 72
     1
 10
2210.641894042939
 20
56.5
 11
2210.641894042939
 21
16.5
 72
     1
 10
2210.641894042939
 20
16.5
 11
2245.64189404294
 21
16.5
 72
     1
 10
2245.64189404294
 20
16.5
 11
2210.641894042939
 21
36.5
 72
     1
 10
2210.641894042939
 20
36.5
 11
2245.64189404294
 21
56.5
 97
        5
330
1662
330
1666
330
1665
330
1664
330
1663
 75
     0
 76
     1
 98
        1
 10
-60.0
 20
0.0
  0
ARC
  5
165D
102
{ACAD_REACTORS
330
165C
102
}
330
1F
100
AcDbEntity
  8
補助
370
     5
100
AcDbCircle
 10
2257.166198313996
 20
36.5
 30
0.0
 40
20.0
100
AcDbArc
 50
11.647723667075
 51
342.6561058784863
  0
ARC
  5
165E
102
{ACAD_REACTORS
330
165C
102
}
330
1F
100
AcDbEntity
  8
補助
370
     5
100
AcDbCircle
 10
2188.255774665348
 20
36.5
 30
0.0
 40
20.0
100
AcDbArc
 50
11.647723667075
 51
342.6561058784863
  0
LINE
  5
165F
102
{ACAD_REACTORS
330
165C
102
}
330
1F
100
AcDbEntity
  8
補助
370
     5
100
AcDbLine
 10
2252.166198313995
 20
30.53787547858519
 30
0.0
 11
2276.256852341323
 21
30.53787547858514
 31
0.0
  0
LINE
  5
1660
102
{ACAD_REACTORS
330
165C
102
}
330
1F
100
AcDbEntity
  8
補助
370
     5
100
AcDbLine
 10
2252.166198313995
 20
40.53787547858519
 30
0.0
 11
2252.166198313995
 21
30.53787547858519
 31
0.0
  0
LINE
  5
1661
102
{ACAD_REACTORS
330
165C
102
}
330
1F
100
AcDbEntity
  8
補助
370
     5
100
AcDbLine
 10
2276.75434681301
 20
40.53787547858519
 30
0.0
 11
2252.166198313995
 21
40.53787547858519
 31
0.0
  0
LINE
  5
1662
102
{ACAD_REACTORS
330
165C
102
}
330
1F
100
AcDbEntity
  8
補助
370
     5
100
AcDbLine
 10
2245.64189404294
 20
56.5
 30
0.0
 11
2210.641894042939
 21
56.5
 31
0.0
  0
LINE
  5
1663
102
{ACAD_REACTORS
330
165C
102
}
330
1F
100
AcDbEntity
  8
補助
370
     5
100
AcDbLine
 10
2210.641894042939
 20
36.5
 30
0.0
 11
2245.64189404294
 21
56.5
 31
0.0
  0
LINE
  5
1664
102
{ACAD_REACTORS
330
165C
102
}
330
1F
100
AcDbEntity
  8
補助
370
     5
100
AcDbLine
 10
2245.64189404294
 20
16.5
 30
0.0
 11
2210.641894042939
 21
36.5
 31
0.0
  0
LINE
  5
1665
102
{ACAD_REACTORS
330
165C
102
}
330
1F
100
AcDbEntity
  8
補助
370
     5
100
AcDbLine
 10
2210.641894042939
 20
16.5
 30
0.0
 11
2245.64189404294
 21
16.5
 31
0.0
  0
LINE
  5
1666
102
{ACAD_REACTORS
330
165C
102
}
330
1F
100
AcDbEntity
  8
補助
370
     5
100
AcDbLine
 10
2210.641894042939
 20
56.5
 30
0.0
 11
2210.641894042939
 21
16.5
 31
0.0
  0
LINE
  5
1667
102
{ACAD_REACTORS
330
165C
102
}
330
1F
100
AcDbEntity
  8
補助
370
     5
100
AcDbLine
 10
2183.255774665347
 20
30.53787547858519
 30
0.0
 11
2207.346428692676
 21
30.53787547858514
 31
0.0
  0
LINE
  5
1668
102
{ACAD_REACTORS
330
165C
102
}
330
1F
100
AcDbEntity
  8
補助
370
     5
100
AcDbLine
 10
2183.255774665347
 20
40.53787547858519
 30
0.0
 11
2183.255774665347
 21
30.53787547858519
 31
0.0
  0
LINE
  5
1669
102
{ACAD_REACTORS
330
165C
102
}
330
1F
100
AcDbEntity
  8
補助
370
     5
100
AcDbLine
 10
2207.843923164362
 20
40.53787547858519
 30
0.0
 11
2183.255774665347
 21
40.53787547858519
 31
0.0
  0
TEXT
  5
166A
330
1F
100
AcDbEntity
  8
0
100
AcDbText
 10
2430.916666666667
 20
84.0
 30
0.0
 40
35.0
  1
1：10
 72
     4
 11
2484.0
 21
101.5
 31
0.0
100
AcDbText
  0
LINE
  5
166B
330
1F
100
AcDbEntity
  8
補助
100
AcDbLine
 10
2784.0
 20
4.0
 30
0.0
 11
2784.0
 21
69.0
 31
0.0
  0
LINE
  5
166C
330
1F
100
AcDbEntity
  8
補助
100
AcDbLine
 10
2784.0
 20
134.0
 30
0.0
 11
2784.0
 21
199.0
 31
0.0
  0
LINE
  5
166D
330
1F
100
AcDbEntity
  8
補助
100
AcDbLine
 10
2784.0
 20
69.0
 30
0.0
 11
2784.0
 21
134.0
 31
0.0
  0
DIMENSION
  5
17B2
330
1F
100
AcDbEntity
  8
実形
100
AcDbDimension
  2
*D24
 10
960.9429504340837
 20
608.3595071541148
 30
0.0
 11
960.9429504340836
 21
615.8595071541149
 31
0.0
 70
    32
  1
 
 71
     5
 42
15.0
  3
ISO-25
100
AcDbAlignedDimension
 13
1079.834700921791
 23
623.3595071541149
 33
0.0
 14
1079.834700921791
 24
608.3595071541148
 34
0.0
 50
90.0
100
AcDbRotatedDimension
1001
ACAD
1000
DSTYLE
1002
{
1070
    41
1040
25.0
1070
   371
1070
    15
1002
}
  0
DIMENSION
  5
17B3
330
1F
100
AcDbEntity
  8
実形
100
AcDbDimension
  2
*D25
 10
892.178636688841
 20
608.3595071541148
 30
0.0
 11
873.4286366888408
 21
685.8595071541151
 31
0.0
 70
    32
 71
     5
 42
155.0
  3
ISO-25
100
AcDbAlignedDimension
 13
1078.832191116094
 23
763.3595071541149
 33
0.0
 14
1079.834700921791
 24
608.3595071541148
 34
0.0
 50
90.0
100
AcDbRotatedDimension
1001
ACAD
1000
DSTYLE
1002
{
1070
    41
1040
25.0
1070
   371
1070
    15
1002
}
  0
TEXT
  5
17B4
330
1F
100
AcDbEntity
  8
実形
370
    18
100
AcDbText
 10
934.9945477881338
 20
622.6302193787114
 30
0.0
 40
25.0
  1
15
 50
90.0
100
AcDbText
  0
LINE
  5
17B5
330
1F
100
AcDbEntity
  8
実形
100
AcDbLine
 10
960.9429504340837
 20
608.3595071541148
 30
0.0
 11
1014.834700921791
 21
608.3595071541148
 31
0.0
  0
LINE
  5
17B6
330
1F
100
AcDbEntity
  8
実形
100
AcDbLine
 10
960.9429504340837
 20
598.3595071541149
 30
0.0
 11
1014.834700921791
 21
598.359507154115
 31
0.0
  0
LINE
  5
17B7
330
1F
100
AcDbEntity
  8
実形
100
AcDbLine
 10
960.9429504340837
 20
598.3595071541149
 30
0.0
 11
960.9429504340837
 21
608.3595071541148
 31
0.0
  0
TEXT
  5
17B8
330
1F
100
AcDbEntity
  8
実形
 62
     0
370
    18
100
AcDbText
 10
959.51304168171
 20
596.842068229489
 30
0.0
 40
3.0
  1
●
100
AcDbText
  0
TEXT
  5
17B9
330
1F
100
AcDbEntity
  8
実形
 62
     0
370
    18
100
AcDbText
 10
935.6083299254242
 20
583.6558683135763
 30
0.0
 40
25.0
  1
7
 50
90.0
100
AcDbText
  0
DIMENSION
  5
1805
330
1F
100
AcDbEntity
  8
寸法
100
AcDbDimension
  2
*D26
 10
1924.83470092179
 20
1077.1952008767
 30
0.0
 11
1932.33470092179
 21
1077.1952008767
 31
0.0
 70
    32
  1
 
 71
     5
 42
15.0
  3
ISO-25
100
AcDbAlignedDimension
 13
1939.83470092179
 23
1198.101934914135
 33
0.0
 14
1924.83470092179
 24
1198.101934914135
 34
0.0
100
AcDbRotatedDimension
1001
ACAD
1000
DSTYLE
1002
{
1070
    41
1040
25.0
1070
   371
1070
    18
1002
}
  0
DIMENSION
  5
1806
330
1F
100
AcDbEntity
  8
寸法
100
AcDbDimension
  2
*D27
 10
1784.834700921791
 20
1013.823513977658
 30
0.0
 11
1862.33470092179
 21
1032.573513977658
 31
0.0
 70
    32
 71
     5
 42
155.0
  3
ISO-25
100
AcDbAlignedDimension
 13
1939.83470092179
 23
1174.807973693698
 33
0.0
 14
1784.834700921791
 24
1196.975130137794
 34
0.0
100
AcDbRotatedDimension
1001
ACAD
1000
DSTYLE
1002
{
1070
    41
1040
25.0
1070
   371
1070
    18
1002
}
  0
TEXT
  5
1807
330
1F
100
AcDbEntity
  8
寸法
370
    18
100
AcDbText
 10
1876.014803035474
 20
1089.430373659517
 30
0.0
 40
25.0
  1
15
100
AcDbText
  0
TEXT
  5
1808
330
1F
100
AcDbEntity
  8
寸法
370
    18
100
AcDbText
 10
1959.705439161163
 20
1088.18009305748
 30
0.0
 40
25.0
  1
7
100
AcDbText
  0
LINE
  5
1809
330
1F
100
AcDbEntity
  8
実形
100
AcDbLine
 10
1939.83470092179
 20
1077.1952008767
 30
0.0
 11
1939.83470092179
 21
1133.101934914135
 31
0.0
  0
LINE
  5
180A
330
1F
100
AcDbEntity
  8
実形
100
AcDbLine
 10
1939.83470092179
 20
1077.1952008767
 30
0.0
 11
1949.83470092179
 21
1077.1952008767
 31
0.0
  0
LINE
  5
180B
330
1F
100
AcDbEntity
  8
実形
100
AcDbLine
 10
1949.834700921791
 20
1133.101934914135
 30
0.0
 11
1949.834700921791
 21
1077.1952008767
 31
0.0
  0
TEXT
  5
180C
330
1F
100
AcDbEntity
  8
寸法
 62
     0
370
    18
100
AcDbText
 10
1947.511141977007
 20
1074.780660085945
 30
0.0
 40
5.0
  1
●
100
AcDbText
  0
LINE
  5
1971
330
1F
100
AcDbEntity
  8
補助
100
AcDbLine
 10
126.0
 20
2024.0
 30
0.0
 11
126.0
 21
4.0
 31
0.0
  0
LINE
  5
1987
330
1F
100
AcDbEntity
  8
補助
100
AcDbLine
 10
2784.0
 20
1959.0
 30
0.0
 11
2019.387286519283
 21
1959.000000000001
 31
0.0
  0
LINE
  5
1988
330
1F
100
AcDbEntity
  8
補助
100
AcDbLine
 10
2784.0
 20
1894.0
 30
0.0
 11
2019.387286519283
 21
1894.0
 31
0.0
  0
LINE
  5
1989
330
1F
100
AcDbEntity
  8
補助
100
AcDbLine
 10
2202.547653420927
 20
1894.0
 30
0.0
 11
2202.547653420927
 21
2024.0
 31
0.0
  0
LINE
  5
198A
330
1F
100
AcDbEntity
  8
補助
100
AcDbLine
 10
2019.387286519283
 20
1894.0
 30
0.0
 11
2019.387286519283
 21
2024.0
 31
0.0
  0
TEXT
  5
198B
330
1F
100
AcDbEntity
  8
補助
100
AcDbText
 10
2050.295698850121
 20
1976.328571428572
 30
0.0
 40
30.0
  1
部品名
  7
明朝
 72
     4
 11
2116.124270278692
 21
1991.5
 31
0.0
100
AcDbText
  0
TEXT
  5
198C
330
1F
100
AcDbEntity
  8
補助
100
AcDbText
 10
2627.614285714286
 20
1976.071428571429
 30
0.0
 40
30.0
  1
厚さ
  7
明朝
 72
     4
 11
2671.5
 21
1991.5
 31
0.0
100
AcDbText
  0
LINE
  5
198D
330
1F
100
AcDbEntity
  8
補助
100
AcDbLine
 10
2559.0
 20
1894.0
 30
0.0
 11
2559.0
 21
2024.0
 31
0.0
  0
TEXT
  5
198E
330
1F
100
AcDbEntity
  8
補助
100
AcDbText
 10
2338.490869919937
 20
1975.947979478155
 30
0.0
 40
30.0
  1
材質
  7
明朝
 72
     4
 11
2382.376584205651
 21
1991.119408049583
 31
0.0
100
AcDbText
  0
TEXT
  5
198F
330
1F
100
AcDbEntity
  8
実形
100
AcDbText
 10
2048.227810657788
 20
1910.557142857143
 30
0.0
 40
30.0
  1
ボウル
  7
明朝
 72
     4
 11
2114.056382086359
 21
1926.5
 31
0.0
100
AcDbText
  0
TEXT
  5
1990
330
1F
100
AcDbEntity
  8
実形
100
AcDbText
 10
2594.700000000001
 20
1911.842857142857
 30
0.0
 40
30.0
  1
1.0ｍｍ
  7
明朝
 72
     4
 11
2671.500000000001
 21
1926.5
 31
0.0
100
AcDbText
  0
TEXT
  5
1991
330
1F
100
AcDbEntity
  8
実形
100
AcDbText
 10
2261.016869107866
 20
1910.728571428572
 30
0.0
 40
30.0
  1
SUS304（BA）
  7
明朝
 72
     4
 11
2392.674011965008
 21
1926.5
 31
0.0
100
AcDbText
  0
VIEWPORT
  5
2E
102
{ACAD_XDICTIONARY
360
19CF
102
}
330
1B
100
AcDbEntity
 67
     1
  8
0
100
AcDbViewport
 10
144.7270812988281
 20
101.2295806407928
 30
0.0
 40
411.6736216682419
 41
222.1517806396485
 68
     1
 69
     1
 12
144.7270812988281
 22
101.2295806407928
 13
0.0
 23
0.0
 14
10.0
 24
10.0
 15
10.0
 25
10.0
 16
0.0
 26
0.0
 36
1.0
 17
0.0
 27
0.0
 37
0.0
 42
50.0
 43
0.0
 44
0.0
 45
222.1517806396485
 50
0.0
 51
0.0
 72
   100
 90
    32800
  1

281
     0
 71
     1
 74
     0
110
0.0
120
0.0
130
0.0
111
1.0
121
0.0
131
0.0
112
0.0
122
1.0
132
0.0
 79
     0
146
0.0
  0
VIEWPORT
  5
30
102
{ACAD_XDICTIONARY
360
19D1
102
}
330
1B
100
AcDbEntity
 67
     1
  8
0
100
AcDbViewport
 10
139.2237563133239
 20
101.2295821905136
 30
0.0
 40
222.7580101013184
 41
161.9673315048218
 68
     2
 69
     2
 12
210.0
 22
148.5
 13
0.0
 23
0.0
 14
10.0
 24
10.0
 15
10.0
 25
10.0
 16
0.0
 26
0.0
 36
1.0
 17
0.0
 27
0.0
 37
0.0
 42
50.0
 43
0.0
 44
0.0
 45
309.0686705647124
 50
0.0
 51
0.0
 72
   100
 90
    32864
  1

281
     0
 71
     1
 74
     0
110
0.0
120
0.0
130
0.0
111
1.0
121
0.0
131
0.0
112
0.0
122
1.0
132
0.0
 79
     0
146
0.0
  0
ENDSEC
  0
SECTION
  2
OBJECTS
  0
DICTIONARY
  5
C
330
0
100
AcDbDictionary
281
     1
  3
ACAD_COLOR
350
175F
  3
ACAD_GROUP
350
D
  3
ACAD_LAYOUT
350
1A
  3
ACAD_MATERIAL
350
175E
  3
ACAD_MLINESTYLE
350
17
  3
ACAD_PLOTSETTINGS
350
19
  3
ACAD_PLOTSTYLENAME
350
E
  3
ACAD_TABLESTYLE
350
1760
  3
AcadDim
350
124
  3
ACDBHEADERROUNDTRIPXREC
350
19C8
  3
AcDbVariableDictionary
350
1768
  3
DWGPROPS
350
19C7
  0
DICTIONARY
  5
1937
330
2
100
AcDbDictionary
280
     1
281
     1
  3
ACAD_LAYERFILTERS
360
1939
  3
ACAD_LAYERSTATES
360
193A
  3
ACLYDICTIONARY
360
1938
  0
DICTIONARY
  5
1972
330
1F
100
AcDbDictionary
280
     1
281
     1
  3
ACAD_SORTENTS
360
1973
  0
DICTIONARY
  5
19CF
330
2E
100
AcDbDictionary
280
     1
281
     1
  3
ACAD_XREC_ROUNDTRIP
360
19D0
  0
DICTIONARY
  5
19D1
330
30
100
AcDbDictionary
280
     1
281
     1
  3
ACAD_XREC_ROUNDTRIP
360
19D2
  0
DICTIONARY
  5
175F
102
{ACAD_REACTORS
330
C
102
}
330
C
100
AcDbDictionary
281
     1
  0
DICTIONARY
  5
D
102
{ACAD_REACTORS
330
C
102
}
330
C
100
AcDbDictionary
281
     1
  0
DICTIONARY
  5
1A
102
{ACAD_REACTORS
330
C
102
}
330
C
100
AcDbDictionary
281
     1
  3
Model
350
22
  3
ﾚｲｱｳﾄ1
350
1E
  3
ﾚｲｱｳﾄ2
350
26
  0
DICTIONARY
  5
175E
102
{ACAD_REACTORS
330
C
102
}
330
C
100
AcDbDictionary
281
     1
  0
DICTIONARY
  5
17
102
{ACAD_REACTORS
330
C
102
}
330
C
100
AcDbDictionary
281
     1
  3
Standard
350
18
  0
DICTIONARY
  5
19
102
{ACAD_REACTORS
330
C
102
}
330
C
100
AcDbDictionary
281
     1
  0
ACDBDICTIONARYWDFLT
  5
E
102
{ACAD_REACTORS
330
C
102
}
330
C
100
AcDbDictionary
281
     1
  3
Normal
350
F
100
AcDbDictionaryWithDefault
340
F
  0
DICTIONARY
  5
1760
102
{ACAD_REACTORS
330
C
102
}
330
C
100
AcDbDictionary
281
     1
  3
Standard
350
1761
  0
XRECORD
  5
124
102
{ACAD_REACTORS
330
C
102
}
330
C
100
AcDbXrecord
280
     1
 90
   990106
  3

 60
     0
 61
     0
 62
     1
 63
     3
 64
     0
 65
     0
 66
     0
 67
     3
 68
     1
 69
     0
 70
     0
 71
     0
 72
     0
 40
30.0
170
     0
  0
DICTIONARY
  5
19C8
102
{ACAD_REACTORS
330
C
102
}
330
C
100
AcDbDictionary
281
     1
  0
DICTIONARY
  5
1768
102
{ACAD_REACTORS
330
C
102
}
330
C
100
AcDbDictionary
281
     1
  3
CTABLESTYLE
350
1769
  3
DIMASSOC
350
19C4
  3
PROJECTNAME
350
19C5
  0
XRECORD
  5
19C7
102
{ACAD_REACTORS
330
C
102
}
330
C
100
AcDbXrecord
280
     1
  1
DWGPROPS COOKIE
  2

  3

  4

  6

  7

  8

  9

300
=
301
=
302
=
303
=
304
=
305
=
306
=
307
=
308
=
309
=
 40
0.6705749421296297
 41
2451673.575802199
 42
2458803.781217859
  1

 90
        0
  0
DICTIONARY
  5
1939
102
{ACAD_REACTORS
330
1937
102
}
330
1937
100
AcDbDictionary
281
     1
  0
DICTIONARY
  5
193A
102
{ACAD_REACTORS
330
1937
102
}
330
1937
100
AcDbDictionary
281
     1
  0
DICTIONARY
  5
1938
102
{ACAD_REACTORS
330
1937
102
}
330
1937
100
AcDbDictionary
281
     1
1001
ACAD
1000
<All
  0
SORTENTSTABLE
  5
1973
102
{ACAD_REACTORS
330
1972
102
}
330
1972
100
AcDbSortentsTable
330
1F
331
3DC
  5
3E9
331
180A
  5
180B
331
14C8
  5
14C9
331
17B3
  5
17B4
331
12A9
  5
12AC
331
2E6
  5
2EB
331
1654
  5
1655
331
1538
  5
1539
331
2EE
  5
2FE
331
165C
  5
165D
331
4A3
  5
4F8
331
1540
  5
1541
331
2FE
  5
33A
331
1664
  5
1665
331
1548
  5
1549
331
43C
  5
43D
331
1421
  5
1422
331
166C
  5
166D
331
15E5
  5
15E6
331
1550
  5
1551
331
7D2
  5
7D3
331
1429
  5
142A
331
15ED
  5
15EE
331
1431
  5
1432
331
180B
  5
180C
331
14C9
  5
14CA
331
17B4
  5
17B5
331
494
  5
495
331
1655
  5
1656
331
1539
  5
153A
331
165D
  5
165E
331
A0
  5
A5
331
1541
  5
1542
331
1665
  5
1666
331
43D
  5
44B
331
1422
  5
1424
331
1549
  5
154A
331
166D
  5
17B2
331
15E6
  5
15E7
331
7D3
  5
8C9
331
142A
  5
142B
331
1551
  5
1552
331
15EE
  5
15EF
331
3CE
  5
3DC
331
1432
  5
1433
331
180C
  5
1940
331
14CA
  5
14CB
331
17B5
  5
17B6
331
123B
  5
123C
331
1656
  5
1657
331
495
  5
4A3
331
397
  5
398
331
165E
  5
165F
331
3F6
  5
43C
331
153A
  5
153B
331
1666
  5
1667
331
1542
  5
1543
331
154A
  5
154B
331
15E7
  5
15E8
331
3AF
  5
3B1
331
15EF
  5
15F0
331
142B
  5
142C
331
1552
  5
1553
331
1433
  5
14C6
331
1805
  5
1806
331
505
  5
569
331
368
  5
397
331
17B6
  5
17B7
331
123C
  5
123D
331
14CB
  5
1535
331
1657
  5
1658
331
12AC
  5
12AD
331
165F
  5
1660
331
153B
  5
153C
331
398
  5
3AF
331
1971
  5
A0
331
1667
  5
1668
331
1543
  5
1544
331
15E8
  5
15E9
331
1424
  5
1425
331
154B
  5
154C
331
15F0
  5
15F1
331
142C
  5
142D
331
1553
  5
1554
331
1806
  5
1807
331
17B7
  5
17B8
331
123D
  5
123E
331
1658
  5
1659
331
12AD
  5
12AE
331
153C
  5
153D
331
1660
  5
1661
331
1668
  5
1669
331
141D
  5
141E
331
33A
  5
33B
331
1544
  5
1545
331
154C
  5
154D
331
15E9
  5
15EA
331
3B1
  5
3CE
331
1425
  5
1426
331
15F1
  5
15F2
331
142D
  5
142E
331
1554
  5
1555
331
1807
  5
1808
331
458
  5
494
331
17B8
  5
17B9
331
3E9
  5
3F6
331
123E
  5
12A9
331
1535
  5
1536
331
1659
  5
165A
331
12AE
  5
12AF
331
2EB
  5
2EE
331
153D
  5
153E
331
57F
  5
7D0
331
9C
  5
9C
331
1661
  5
1662
331
1669
  5
166A
331
141E
  5
141F
331
33B
  5
33C
331
1545
  5
1546
331
1426
  5
1427
331
15EA
  5
15EB
331
35B
  5
368
331
4F8
  5
505
331
154D
  5
154E
331
15F2
  5
1647
331
142E
  5
142F
331
1555
  5
1556
331
1808
  5
1809
331
14C6
  5
14C7
331
F27
  5
1238
331
17B9
  5
1805
331
1652
  5
1653
331
12AF
  5
141D
331
1536
  5
1537
331
165A
  5
165B
331
153E
  5
153F
331
A5
  5
2E6
331
1662
  5
1663
331
1546
  5
1547
331
141F
  5
1420
331
33C
  5
33D
331
166A
  5
166B
331
154E
  5
154F
331
7D0
  5
7D1
331
1427
  5
1428
331
15EB
  5
15EC
331
142F
  5
1430
331
1556
  5
15E5
331
1809
  5
180A
331
1238
  5
123B
331
569
  5
57F
331
14C7
  5
14C8
331
17B2
  5
17B3
331
1653
  5
1654
331
1537
  5
1538
331
165B
  5
165C
331
153F
  5
1540
331
1663
  5
1664
331
1420
  5
1421
331
1547
  5
1548
331
33D
  5
35B
331
166B
  5
166C
331
7D1
  5
7D2
331
44B
  5
458
331
1428
  5
1429
331
154F
  5
1550
331
15EC
  5
15ED
331
8C9
  5
F27
331
1430
  5
1431
  0
XRECORD
  5
19D0
102
{ACAD_REACTORS
330
19CF
102
}
330
19CF
100
AcDbXrecord
280
     1
102
SHADEPLOT
 70
     0
  0
XRECORD
  5
19D2
102
{ACAD_REACTORS
330
19D1
102
}
330
19D1
100
AcDbXrecord
280
     1
102
SHADEPLOT
 70
     0
  0
LAYOUT
  5
22
102
{ACAD_XDICTIONARY
360
19CB
102
}
102
{ACAD_REACTORS
330
1A
102
}
330
1A
100
AcDbPlotSettings
  1

  2
EPSON PM-800C
  4
A4
  6

 40
3.757083177566528
 41
14.7637300491333
 42
3.757080078125
 43
3.757080078125
 44
209.9733276367187
 45
296.9683227539062
 46
0.0
 47
0.0
 48
0.0
 49
0.0
140
0.0
141
0.0
142
1.0
143
10.0
 70
 11952
 72
     1
 73
     1
 74
     2
  7

 75
    20
147
0.1
148
0.0
149
0.0
100
AcDbLayout
  1
Model
 70
     1
 71
     0
 10
0.0
 20
0.0
 11
12.0
 21
9.0
 12
0.0
 22
0.0
 32
0.0
 14
0.0
 24
0.0
 34
0.0
 15
0.0
 25
0.0
 35
0.0
146
0.0
 13
0.0
 23
0.0
 33
0.0
 16
1.0
 26
0.0
 36
0.0
 17
0.0
 27
1.0
 37
0.0
 76
     0
330
1F
  0
LAYOUT
  5
1E
102
{ACAD_XDICTIONARY
360
19C9
102
}
102
{ACAD_REACTORS
330
1A
102
}
330
1A
100
AcDbPlotSettings
  1

  2
EPSON PM-800C
  4
A4
  6

 40
3.757083177566528
 41
14.7637300491333
 42
3.757080078125
 43
3.757080078125
 44
209.9733276367187
 45
296.9683227539062
 46
0.0
 47
0.0
 48
0.0
 49
0.0
140
0.0
141
0.0
142
1.0
143
1.0
 70
   688
 72
     1
 73
     1
 74
     5
  7

 75
    16
147
1.0
148
0.0
149
0.0
100
AcDbLayout
  1
ﾚｲｱｳﾄ1
 70
     1
 71
     1
 10
-3.757080078125
 20
-3.757083177566528
 11
293.2112426757813
 21
206.2162444591522
 12
0.0
 22
0.0
 32
0.0
 14
27.8447512626648
 24
20.24591643810271
 34
0.0
 15
250.6027613639831
 25
182.2132479429245
 35
0.0
146
0.0
 13
0.0
 23
0.0
 33
0.0
 16
1.0
 26
0.0
 36
0.0
 17
0.0
 27
1.0
 37
0.0
 76
     0
330
1B
331
2E
  0
LAYOUT
  5
26
102
{ACAD_XDICTIONARY
360
19CD
102
}
102
{ACAD_REACTORS
330
1A
102
}
330
1A
100
AcDbPlotSettings
  1

  2
EPSON PM-800C
  4

  6

 40
0.0
 41
0.0
 42
0.0
 43
0.0
 44
0.0
 45
0.0
 46
0.0
 47
0.0
 48
0.0
 49
0.0
140
0.0
141
0.0
142
1.0
143
1.0
 70
   688
 72
     0
 73
     0
 74
     5
  7

 75
    16
147
1.0
148
0.0
149
0.0
100
AcDbLayout
  1
ﾚｲｱｳﾄ2
 70
     1
 71
     2
 10
0.0
 20
0.0
 11
12.0
 21
9.0
 12
0.0
 22
0.0
 32
0.0
 14
0.0
 24
0.0
 34
0.0
 15
0.0
 25
0.0
 35
0.0
146
0.0
 13
0.0
 23
0.0
 33
0.0
 16
1.0
 26
0.0
 36
0.0
 17
0.0
 27
1.0
 37
0.0
 76
     0
330
23
  0
MLINESTYLE
  5
18
102
{ACAD_REACTORS
330
17
102
}
330
17
100
AcDbMlineStyle
  2
STANDARD
 70
     0
  3

 62
   256
 51
90.0
 52
90.0
 71
     2
 49
0.5
 62
   256
  6
BYLAYER
 49
-0.5
 62
   256
  6
BYLAYER
  0
ACDBPLACEHOLDER
  5
F
102
{ACAD_REACTORS
330
E
102
}
330
E
  0
TABLESTYLE
  5
1761
102
{ACAD_REACTORS
330
1760
102
}
330
1760
100
AcDbTableStyle
  3
Standard
 70
     0
 71
     0
 40
1.5
 41
1.5
280
     0
281
     0
  7
Standard
140
4.5
170
     2
 62
     0
 63
     7
283
     0
274
    -2
284
     1
 64
     0
275
    -2
285
     1
 65
     0
276
    -2
286
     1
 66
     0
277
    -2
287
     1
 67
     0
278
    -2
288
     1
 68
     0
279
    -2
289
     1
 69
     0
  7
Standard
140
6.0
170
     5
 62
     0
 63
     7
283
     0
274
    -2
284
     1
 64
     0
275
    -2
285
     1
 65
     0
276
    -2
286
     1
 66
     0
277
    -2
287
     1
 67
     0
278
    -2
288
     1
 68
     0
279
    -2
289
     1
 69
     0
  7
Standard
140
4.5
170
     5
 62
     0
 63
     7
283
     0
274
    -2
284
     1
 64
     0
275
    -2
285
     1
 65
     0
276
    -2
286
     1
 66
     0
277
    -2
287
     1
 67
     0
278
    -2
288
     1
 68
     0
279
    -2
289
     1
 69
     0
  0
DICTIONARYVAR
  5
1769
102
{ACAD_REACTORS
330
1768
102
}
330
1768
100
DictionaryVariables
280
     0
  1
STANDARD
  0
DICTIONARYVAR
  5
19C4
102
{ACAD_REACTORS
330
1768
102
}
330
1768
100
DictionaryVariables
280
     0
  1
1
  0
DICTIONARYVAR
  5
19C5
102
{ACAD_REACTORS
330
1768
102
}
330
1768
100
DictionaryVariables
280
     0
  1

  0
DICTIONARY
  5
19CB
330
22
100
AcDbDictionary
280
     1
281
     1
  3
ACAD_XREC_ROUNDTRIP
360
19CC
  0
DICTIONARY
  5
19C9
330
1E
100
AcDbDictionary
280
     1
281
     1
  3
ACAD_XREC_ROUNDTRIP
360
19CA
  0
DICTIONARY
  5
19CD
330
26
100
AcDbDictionary
280
     1
281
     1
  3
ACAD_XREC_ROUNDTRIP
360
19CE
  0
XRECORD
  5
19CC
102
{ACAD_REACTORS
330
19CB
102
}
330
19CB
100
AcDbXrecord
280
     1
102
SHADEPLOT
 70
     0
102
SHADEPLOTRESLEVEL
 70
     2
102
SHADEPLOTCUSTOMDPI
 70
   300
  0
XRECORD
  5
19CA
102
{ACAD_REACTORS
330
19C9
102
}
330
19C9
100
AcDbXrecord
280
     1
102
SHADEPLOT
 70
     0
102
SHADEPLOTRESLEVEL
 70
     2
102
SHADEPLOTCUSTOMDPI
 70
   300
  0
XRECORD
  5
19CE
102
{ACAD_REACTORS
330
19CD
102
}
330
19CD
100
AcDbXrecord
280
     1
102
SHADEPLOT
 70
     0
102
SHADEPLOTRESLEVEL
 70
     2
102
SHADEPLOTCUSTOMDPI
 70
   300
  0
ENDSEC
  0
EOF
