  0
SECTION
  2
HEADER
  9
$ACADVER
  1
AC1015
  9
$ACADMAINTVER
 70
    20
  9
$DWGCODEPAGE
  3
ANSI_932
  9
$INSBASE
 10
0.0
 20
0.0
 30
0.0
  9
$EXTMIN
 10
126.0
 20
4.0
 30
0.0
  9
$EXTMAX
 10
2784.0
 20
2024.0
 30
0.0
  9
$LIMMIN
 10
0.0
 20
0.0
  9
$LIMMAX
 10
29700.0
 20
21000.0
  9
$ORTHOMODE
 70
     1
  9
$REGENMODE
 70
     1
  9
$FILLMODE
 70
     1
  9
$QTEXTMODE
 70
     0
  9
$MIRRTEXT
 70
     1
  9
$LTSCALE
 40
4.0
  9
$ATTMODE
 70
     1
  9
$TEXTSIZE
 40
25.0
  9
$TRACEWID
 40
1.0
  9
$TEXTSTYLE
  7
Standard
  9
$CLAYER
  8
実形
  9
$CELTYPE
  6
ByLayer
  9
$CECOLOR
 62
   256
  9
$CELTSCALE
 40
1.0
  9
$DISPSILH
 70
     0
  9
$DIMSCALE
 40
1.0
  9
$DIMASZ
 40
35.0
  9
$DIMEXO
 40
65.0
  9
$DIMDLI
 40
3.75
  9
$DIMRND
 40
0.0
  9
$DIMDLE
 40
0.0
  9
$DIMEXE
 40
0.0
  9
$DIMTP
 40
0.0
  9
$DIMTM
 40
0.0
  9
$DIMTXT
 40
25.0
  9
$DIMCEN
 40
2.5
  9
$DIMTSZ
 40
0.0
  9
$DIMTOL
 70
     0
  9
$DIMLIM
 70
     0
  9
$DIMTIH
 70
     0
  9
$DIMTOH
 70
     0
  9
$DIMSE1
 70
     0
  9
$DIMSE2
 70
     0
  9
$DIMTAD
 70
     1
  9
$DIMZIN
 70
     8
  9
$DIMBLK
  1
DotSmall
  9
$DIMASO
 70
     1
  9
$DIMSHO
 70
     1
  9
$DIMPOST
  1

  9
$DIMAPOST
  1

  9
$DIMALT
 70
     0
  9
$DIMALTD
 70
     3
  9
$DIMALTF
 40
0.03937007874016
  9
$DIMLFAC
 40
1.0
  9
$DIMTOFL
 70
     1
  9
$DIMTVP
 40
0.0
  9
$DIMTIX
 70
     0
  9
$DIMSOXD
 70
     0
  9
$DIMSAH
 70
     0
  9
$DIMBLK1
  1

  9
$DIMBLK2
  1

  9
$DIMSTYLE
  2
ISO-25
  9
$DIMCLRD
 70
     0
  9
$DIMCLRE
 70
     0
  9
$DIMCLRT
 70
     0
  9
$DIMTFAC
 40
1.0
  9
$DIMGAP
 40
6.25
  9
$DIMJUST
 70
     0
  9
$DIMSD1
 70
     0
  9
$DIMSD2
 70
     0
  9
$DIMTOLJ
 70
     0
  9
$DIMTZIN
 70
     8
  9
$DIMALTZ
 70
     0
  9
$DIMALTTZ
 70
     0
  9
$DIMUPT
 70
     0
  9
$DIMDEC
 70
     2
  9
$DIMTDEC
 70
     2
  9
$DIMALTU
 70
     2
  9
$DIMALTTD
 70
     3
  9
$DIMTXSTY
  7
Standard
  9
$DIMAUNIT
 70
     0
  9
$DIMADEC
 70
     0
  9
$DIMALTRND
 40
0.0
  9
$DIMAZIN
 70
     0
  9
$DIMDSEP
 70
    46
  9
$DIMATFIT
 70
     3
  9
$DIMFRAC
 70
     0
  9
$DIMLDRBLK
  1
Open30
  9
$DIMLUNIT
 70
     2
  9
$DIMLWD
 70
    18
  9
$DIMLWE
 70
    18
  9
$DIMTMOVE
 70
     0
  9
$LUNITS
 70
     2
  9
$LUPREC
 70
     2
  9
$SKETCHINC
 40
1.0
  9
$FILLETRAD
 40
30.0
  9
$AUNITS
 70
     0
  9
$AUPREC
 70
     0
  9
$MENU
  1
.
  9
$ELEVATION
 40
0.0
  9
$PELEVATION
 40
0.0
  9
$THICKNESS
 40
0.0
  9
$LIMCHECK
 70
     1
  9
$CHAMFERA
 40
10.0
  9
$CHAMFERB
 40
10.0
  9
$CHAMFERC
 40
20.0
  9
$CHAMFERD
 40
0.0
  9
$SKPOLY
 70
     0
  9
$TDCREATE
 40
2451673.575802199
  9
$TDUCREATE
 40
2451673.200802199
  9
$TDUPDATE
 40
2458803.771277292
  9
$TDUUPDATE
 40
2458803.396277292
  9
$TDINDWG
 40
0.6613985417
  9
$TDUSRTIMER
 40
0.6613978472
  9
$USRTIMER
 70
     1
  9
$ANGBASE
 50
0.0
  9
$ANGDIR
 70
     0
  9
$PDMODE
 70
     3
  9
$PDSIZE
 40
0.0
  9
$PLINEWID
 40
0.0
  9
$SPLFRAME
 70
     0
  9
$SPLINETYPE
 70
     6
  9
$SPLINESEGS
 70
     8
  9
$HANDSEED
  5
1A74
  9
$SURFTAB1
 70
     6
  9
$SURFTAB2
 70
     6
  9
$SURFTYPE
 70
     6
  9
$SURFU
 70
     6
  9
$SURFV
 70
     6
  9
$UCSBASE
  2

  9
$UCSNAME
  2

  9
$UCSORG
 10
0.0
 20
0.0
 30
0.0
  9
$UCSXDIR
 10
1.0
 20
0.0
 30
0.0
  9
$UCSYDIR
 10
0.0
 20
1.0
 30
0.0
  9
$UCSORTHOREF
  2

  9
$UCSORTHOVIEW
 70
     0
  9
$UCSORGTOP
 10
0.0
 20
0.0
 30
0.0
  9
$UCSORGBOTTOM
 10
0.0
 20
0.0
 30
0.0
  9
$UCSORGLEFT
 10
0.0
 20
0.0
 30
0.0
  9
$UCSORGRIGHT
 10
0.0
 20
0.0
 30
0.0
  9
$UCSORGFRONT
 10
0.0
 20
0.0
 30
0.0
  9
$UCSORGBACK
 10
0.0
 20
0.0
 30
0.0
  9
$PUCSBASE
  2

  9
$PUCSNAME
  2

  9
$PUCSORG
 10
0.0
 20
0.0
 30
0.0
  9
$PUCSXDIR
 10
1.0
 20
0.0
 30
0.0
  9
$PUCSYDIR
 10
0.0
 20
1.0
 30
0.0
  9
$PUCSORTHOREF
  2

  9
$PUCSORTHOVIEW
 70
     0
  9
$PUCSORGTOP
 10
0.0
 20
0.0
 30
0.0
  9
$PUCSORGBOTTOM
 10
0.0
 20
0.0
 30
0.0
  9
$PUCSORGLEFT
 10
0.0
 20
0.0
 30
0.0
  9
$PUCSORGRIGHT
 10
0.0
 20
0.0
 30
0.0
  9
$PUCSORGFRONT
 10
0.0
 20
0.0
 30
0.0
  9
$PUCSORGBACK
 10
0.0
 20
0.0
 30
0.0
  9
$USERI1
 70
     0
  9
$USERI2
 70
     0
  9
$USERI3
 70
     0
  9
$USERI4
 70
     0
  9
$USERI5
 70
     0
  9
$USERR1
 40
0.0
  9
$USERR2
 40
0.0
  9
$USERR3
 40
0.0
  9
$USERR4
 40
0.0
  9
$USERR5
 40
0.0
  9
$WORLDVIEW
 70
     1
  9
$SHADEDGE
 70
     3
  9
$SHADEDIF
 70
    70
  9
$TILEMODE
 70
     1
  9
$MAXACTVP
 70
    64
  9
$PINSBASE
 10
0.0
 20
0.0
 30
0.0
  9
$PLIMCHECK
 70
     0
  9
$PEXTMIN
 10
27.8447512626648
 20
20.24591643810271
 30
0.0
  9
$PEXTMAX
 10
250.6027613639831
 20
182.2132479429245
 30
0.0
  9
$PLIMMIN
 10
-3.757080078125
 20
-3.757083177566528
  9
$PLIMMAX
 10
293.2112426757813
 20
206.2162444591522
  9
$UNITMODE
 70
     0
  9
$VISRETAIN
 70
     1
  9
$PLINEGEN
 70
     0
  9
$PSLTSCALE
 70
     1
  9
$TREEDEPTH
 70
  3020
  9
$CMLSTYLE
  2
Standard
  9
$CMLJUST
 70
     0
  9
$CMLSCALE
 40
20.0
  9
$PROXYGRAPHICS
 70
     1
  9
$MEASUREMENT
 70
     1
  9
$CELWEIGHT
370
    -1
  9
$ENDCAPS
280
     0
  9
$JOINSTYLE
280
     0
  9
$LWDISPLAY
290
     0
  9
$INSUNITS
 70
     4
  9
$HYPERLINKBASE
  1

  9
$STYLESHEET
  1

  9
$XEDIT
290
     1
  9
$CEPSNTYPE
380
     0
  9
$PSTYLEMODE
290
     1
  9
$FINGERPRINTGUID
  2
{C8EA1F16-24C9-11D4-9416-CE0A3B32152F}
  9
$VERSIONGUID
  2
{58114BC8-3396-47C4-A85F-E279EE09810C}
  9
$EXTNAMES
290
     1
  9
$PSVPSCALE
 40
0.0
  9
$OLESTARTUP
290
     0
  0
ENDSEC
  0
SECTION
  2
CLASSES
  0
CLASS
  1
ACDBDICTIONARYWDFLT
  2
AcDbDictionaryWithDefault
  3
ObjectDBX Classes
 90
        0
280
     0
281
     0
  0
CLASS
  1
ACDBPLACEHOLDER
  2
AcDbPlaceHolder
  3
ObjectDBX Classes
 90
        0
280
     0
281
     0
  0
CLASS
  1
LAYOUT
  2
AcDbLayout
  3
ObjectDBX Classes
 90
        0
280
     0
281
     0
  0
CLASS
  1
TABLESTYLE
  2
AcDbTableStyle
  3
ObjectDBX Classes
 90
     2047
280
     0
281
     0
  0
CLASS
  1
DICTIONARYVAR
  2
AcDbDictionaryVar
  3
ObjectDBX Classes
 90
        0
280
     0
281
     0
  0
CLASS
  1
SORTENTSTABLE
  2
AcDbSortentsTable
  3
ObjectDBX Classes
 90
        0
280
     0
281
     0
  0
ENDSEC
  0
SECTION
  2
TABLES
  0
TABLE
  2
VPORT
  5
8
330
0
100
AcDbSymbolTable
 70
     2
  0
VPORT
  5
1A67
330
8
100
AcDbSymbolTableRecord
100
AcDbViewportTableRecord
  2
*Active
 70
     0
 10
0.0
 20
0.0
 11
1.0
 21
1.0
 12
1423.094729604338
 22
1002.898772124748
 13
0.0
 23
0.0
 14
10.0
 24
10.0
 15
10.0
 25
10.0
 16
0.0
 26
0.0
 36
1.0
 17
0.0
 27
0.0
 37
0.0
 40
2161.128323938116
 41
1.29038112522686
 42
50.0
 43
0.0
 44
0.0
 50
0.0
 51
0.0
 71
     0
 72
   100
 73
     1
 74
     3
 75
     0
 76
     0
 77
     0
 78
     0
281
     0
 65
     1
110
0.0
120
0.0
130
0.0
111
1.0
121
0.0
131
0.0
112
0.0
122
1.0
132
0.0
 79
     0
146
0.0
  0
ENDTAB
  0
TABLE
  2
LTYPE
  5
5
330
0
100
AcDbSymbolTable
 70
    46
  0
LTYPE
  5
14
330
5
100
AcDbSymbolTableRecord
100
AcDbLinetypeTableRecord
  2
ByBlock
 70
     0
  3

 72
    65
 73
     0
 40
0.0
  0
LTYPE
  5
15
330
5
100
AcDbSymbolTableRecord
100
AcDbLinetypeTableRecord
  2
ByLayer
 70
     0
  3

 72
    65
 73
     0
 40
0.0
  0
LTYPE
  5
16
330
5
100
AcDbSymbolTableRecord
100
AcDbLinetypeTableRecord
  2
Continuous
 70
     0
  3
Solid line
 72
    65
 73
     0
 40
0.0
  0
LTYPE
  5
34
330
5
100
AcDbSymbolTableRecord
100
AcDbLinetypeTableRecord
  2
ACAD_ISO02W100
 70
     0
  3
ISO dash __ __ __ __ __ __ __ __ __ __ __ __ __
 72
    65
 73
     2
 40
15.0
 49
12.0
 74
     0
 49
-3.0
 74
     0
  0
LTYPE
  5
35
330
5
100
AcDbSymbolTableRecord
100
AcDbLinetypeTableRecord
  2
ACAD_ISO03W100
 70
     0
  3
ISO dash space __    __    __    __    __    __
 72
    65
 73
     2
 40
30.0
 49
12.0
 74
     0
 49
-18.0
 74
     0
  0
LTYPE
  5
36
330
5
100
AcDbSymbolTableRecord
100
AcDbLinetypeTableRecord
  2
ACAD_ISO04W100
 70
     0
  3
ISO long-dash dot ____ . ____ . ____ . ____ . _
 72
    65
 73
     4
 40
30.0
 49
24.0
 74
     0
 49
-3.0
 74
     0
 49
0.0
 74
     0
 49
-3.0
 74
     0
  0
LTYPE
  5
37
330
5
100
AcDbSymbolTableRecord
100
AcDbLinetypeTableRecord
  2
ACAD_ISO05W100
 70
     0
  3
ISO long-dash double-dot ____ .. ____ .. ____ .
 72
    65
 73
     6
 40
34.0
 49
24.0
 74
     0
 49
-3.0
 74
     0
 49
0.5
 74
     0
 49
-3.0
 74
     0
 49
0.5
 74
     0
 49
-3.0
 74
     0
  0
LTYPE
  5
38
330
5
100
AcDbSymbolTableRecord
100
AcDbLinetypeTableRecord
  2
ACAD_ISO06W100
 70
     0
  3
ISO long-dash triple-dot ____ ... ____ ... ____
 72
    65
 73
     8
 40
37.5
 49
24.0
 74
     0
 49
-3.0
 74
     0
 49
0.5
 74
     0
 49
-3.0
 74
     0
 49
0.5
 74
     0
 49
-3.0
 74
     0
 49
0.5
 74
     0
 49
-3.0
 74
     0
  0
LTYPE
  5
39
330
5
100
AcDbSymbolTableRecord
100
AcDbLinetypeTableRecord
  2
ACAD_ISO07W100
 70
     0
  3
ISO dot . . . . . . . . . . . . . . . . . . . .
 72
    65
 73
     2
 40
3.0
 49
0.0
 74
     0
 49
-3.0
 74
     0
  0
LTYPE
  5
3A
330
5
100
AcDbSymbolTableRecord
100
AcDbLinetypeTableRecord
  2
ACAD_ISO08W100
 70
     0
  3
ISO long-dash short-dash ____ __ ____ __ ____ _
 72
    65
 73
     4
 40
36.0
 49
24.0
 74
     0
 49
-3.0
 74
     0
 49
6.0
 74
     0
 49
-3.0
 74
     0
  0
LTYPE
  5
3B
330
5
100
AcDbSymbolTableRecord
100
AcDbLinetypeTableRecord
  2
ACAD_ISO09W100
 70
     0
  3
ISO long-dash double-short-dash ____ __ __ ____
 72
    65
 73
     6
 40
45.0
 49
24.0
 74
     0
 49
-3.0
 74
     0
 49
6.0
 74
     0
 49
-3.0
 74
     0
 49
6.0
 74
     0
 49
-3.0
 74
     0
  0
LTYPE
  5
3C
330
5
100
AcDbSymbolTableRecord
100
AcDbLinetypeTableRecord
  2
ACAD_ISO10W100
 70
     0
  3
ISO dash dot __ . __ . __ . __ . __ . __ . __ .
 72
    65
 73
     4
 40
18.0
 49
12.0
 74
     0
 49
-3.0
 74
     0
 49
0.0
 74
     0
 49
-3.0
 74
     0
  0
LTYPE
  5
3D
330
5
100
AcDbSymbolTableRecord
100
AcDbLinetypeTableRecord
  2
ACAD_ISO11W100
 70
     0
  3
ISO double-dash dot __ __ . __ __ . __ __ . __ 
 72
    65
 73
     6
 40
33.0
 49
12.0
 74
     0
 49
-3.0
 74
     0
 49
12.0
 74
     0
 49
-3.0
 74
     0
 49
0.0
 74
     0
 49
-3.0
 74
     0
  0
LTYPE
  5
3E
330
5
100
AcDbSymbolTableRecord
100
AcDbLinetypeTableRecord
  2
ACAD_ISO12W100
 70
     0
  3
ISO dash double-dot __ . . __ . . __ . . __ . .
 72
    65
 73
     6
 40
21.0
 49
12.0
 74
     0
 49
-3.0
 74
     0
 49
0.0
 74
     0
 49
-3.0
 74
     0
 49
0.0
 74
     0
 49
-3.0
 74
     0
  0
LTYPE
  5
3F
330
5
100
AcDbSymbolTableRecord
100
AcDbLinetypeTableRecord
  2
ACAD_ISO13W100
 70
     0
  3
ISO double-dash double-dot __ __ . . __ __ . . 
 72
    65
 73
     8
 40
36.0
 49
12.0
 74
     0
 49
-3.0
 74
     0
 49
12.0
 74
     0
 49
-3.0
 74
     0
 49
0.0
 74
     0
 49
-3.0
 74
     0
 49
0.0
 74
     0
 49
-3.0
 74
     0
  0
LTYPE
  5
40
330
5
100
AcDbSymbolTableRecord
100
AcDbLinetypeTableRecord
  2
ACAD_ISO14W100
 70
     0
  3
ISO dash triple-dot __ . . . __ . . . __ . . . 
 72
    65
 73
     8
 40
24.0
 49
12.0
 74
     0
 49
-3.0
 74
     0
 49
0.0
 74
     0
 49
-3.0
 74
     0
 49
0.0
 74
     0
 49
-3.0
 74
     0
 49
0.0
 74
     0
 49
-3.0
 74
     0
  0
LTYPE
  5
41
330
5
100
AcDbSymbolTableRecord
100
AcDbLinetypeTableRecord
  2
ACAD_ISO15W100
 70
     0
  3
ISO double-dash triple-dot __ __ . . . __ __ . 
 72
    65
 73
    10
 40
39.0
 49
12.0
 74
     0
 49
-3.0
 74
     0
 49
12.0
 74
     0
 49
-3.0
 74
     0
 49
0.0
 74
     0
 49
-3.0
 74
     0
 49
0.0
 74
     0
 49
-3.0
 74
     0
 49
0.0
 74
     0
 49
-3.0
 74
     0
  0
LTYPE
  5
42
330
5
100
AcDbSymbolTableRecord
100
AcDbLinetypeTableRecord
  2
BATTING
 70
     0
  3
Batting SSSSSSSSSSSSSSSSSSSSSSSSSSSSSSSSSSSSSSS
 72
    65
 73
     4
 40
10.16254
 49
0.00254
 74
     0
 49
-2.54
 74
     4
 75
   134
340
33
 46
2.54
 50
0.0
 44
-2.54
 45
0.0
 49
-5.08
 74
     4
 75
   134
340
33
 46
2.54
 50
180.0
 44
2.54
 45
0.0
 49
-2.54
 74
     0
  0
LTYPE
  5
43
330
5
100
AcDbSymbolTableRecord
100
AcDbLinetypeTableRecord
  2
BORDER
 70
     0
  3
Border __ __ . __ __ . __ __ . __ __ . __ __ .
 72
    65
 73
     6
 40
44.45
 49
12.7
 74
     0
 49
-6.349999999999999
 74
     0
 49
12.7
 74
     0
 49
-6.349999999999999
 74
     0
 49
0.0
 74
     0
 49
-6.349999999999999
 74
     0
  0
LTYPE
  5
44
330
5
100
AcDbSymbolTableRecord
100
AcDbLinetypeTableRecord
  2
BORDER2
 70
     0
  3
Border (.5x) __.__.__.__.__.__.__.__.__.__.__.
 72
    65
 73
     6
 40
22.225
 49
6.349999999999999
 74
     0
 49
-3.174999999999999
 74
     0
 49
6.349999999999999
 74
     0
 49
-3.174999999999999
 74
     0
 49
0.0
 74
     0
 49
-3.174999999999999
 74
     0
  0
LTYPE
  5
45
330
5
100
AcDbSymbolTableRecord
100
AcDbLinetypeTableRecord
  2
BORDERX2
 70
     0
  3
Border (2x) ____  ____  .  ____  ____  .  ___
 72
    65
 73
     6
 40
88.9
 49
25.4
 74
     0
 49
-12.7
 74
     0
 49
25.4
 74
     0
 49
-12.7
 74
     0
 49
0.0
 74
     0
 49
-12.7
 74
     0
  0
LTYPE
  5
46
330
5
100
AcDbSymbolTableRecord
100
AcDbLinetypeTableRecord
  2
CENTER
 70
     0
  3
Center ____ _ ____ _ ____ _ ____ _ ____ _ ____
 72
    65
 73
     4
 40
50.8
 49
31.75
 74
     0
 49
-6.349999999999999
 74
     0
 49
6.349999999999999
 74
     0
 49
-6.349999999999999
 74
     0
  0
LTYPE
  5
47
330
5
100
AcDbSymbolTableRecord
100
AcDbLinetypeTableRecord
  2
CENTER2
 70
     0
  3
Center (.5x) ___ _ ___ _ ___ _ ___ _ ___ _ ___
 72
    65
 73
     4
 40
28.575
 49
19.05
 74
     0
 49
-3.174999999999999
 74
     0
 49
3.174999999999999
 74
     0
 49
-3.174999999999999
 74
     0
  0
LTYPE
  5
48
330
5
100
AcDbSymbolTableRecord
100
AcDbLinetypeTableRecord
  2
CENTERX2
 70
     0
  3
Center (2x) ________  __  ________  __  _____
 72
    65
 73
     4
 40
101.6
 49
63.5
 74
     0
 49
-12.7
 74
     0
 49
12.7
 74
     0
 49
-12.7
 74
     0
  0
LTYPE
  5
49
330
5
100
AcDbSymbolTableRecord
100
AcDbLinetypeTableRecord
  2
DASHDOT
 70
     0
  3
Dash dot __ . __ . __ . __ . __ . __ . __ . __
 72
    65
 73
     4
 40
25.4
 49
12.7
 74
     0
 49
-6.349999999999999
 74
     0
 49
0.0
 74
     0
 49
-6.349999999999999
 74
     0
  0
LTYPE
  5
4A
330
5
100
AcDbSymbolTableRecord
100
AcDbLinetypeTableRecord
  2
DASHDOT2
 70
     0
  3
Dash dot (.5x) _._._._._._._._._._._._._._._.
 72
    65
 73
     4
 40
12.7
 49
6.349999999999999
 74
     0
 49
-3.174999999999999
 74
     0
 49
0.0
 74
     0
 49
-3.174999999999999
 74
     0
  0
LTYPE
  5
4B
330
5
100
AcDbSymbolTableRecord
100
AcDbLinetypeTableRecord
  2
DASHDOTX2
 70
     0
  3
Dash dot (2x) ____  .  ____  .  ____  .  ___
 72
    65
 73
     4
 40
50.8
 49
25.4
 74
     0
 49
-12.7
 74
     0
 49
0.0
 74
     0
 49
-12.7
 74
     0
  0
LTYPE
  5
4C
330
5
100
AcDbSymbolTableRecord
100
AcDbLinetypeTableRecord
  2
DASHED
 70
     0
  3
Dashed __ __ __ __ __ __ __ __ __ __ __ __ __ _
 72
    65
 73
     2
 40
19.05
 49
12.7
 74
     0
 49
-6.349999999999999
 74
     0
  0
LTYPE
  5
4D
330
5
100
AcDbSymbolTableRecord
100
AcDbLinetypeTableRecord
  2
DASHED2
 70
     0
  3
Dashed (.5x) _ _ _ _ _ _ _ _ _ _ _ _ _ _ _ _ _
 72
    65
 73
     2
 40
9.524999999999998
 49
6.349999999999999
 74
     0
 49
-3.174999999999999
 74
     0
  0
LTYPE
  5
4E
330
5
100
AcDbSymbolTableRecord
100
AcDbLinetypeTableRecord
  2
DASHEDX2
 70
     0
  3
Dashed (2x) ____  ____  ____  ____  ____  ___
 72
    65
 73
     2
 40
38.1
 49
25.4
 74
     0
 49
-12.7
 74
     0
  0
LTYPE
  5
4F
330
5
100
AcDbSymbolTableRecord
100
AcDbLinetypeTableRecord
  2
DIVIDE
 70
     0
  3
Divide ____ . . ____ . . ____ . . ____ . . ____
 72
    65
 73
     6
 40
31.75
 49
12.7
 74
     0
 49
-6.349999999999999
 74
     0
 49
0.0
 74
     0
 49
-6.349999999999999
 74
     0
 49
0.0
 74
     0
 49
-6.349999999999999
 74
     0
  0
LTYPE
  5
50
330
5
100
AcDbSymbolTableRecord
100
AcDbLinetypeTableRecord
  2
DIVIDE2
 70
     0
  3
Divide (.5x) __..__..__..__..__..__..__..__.._
 72
    65
 73
     6
 40
15.875
 49
6.349999999999999
 74
     0
 49
-3.174999999999999
 74
     0
 49
0.0
 74
     0
 49
-3.174999999999999
 74
     0
 49
0.0
 74
     0
 49
-3.174999999999999
 74
     0
  0
LTYPE
  5
51
330
5
100
AcDbSymbolTableRecord
100
AcDbLinetypeTableRecord
  2
DIVIDEX2
 70
     0
  3
Divide (2x) ________  .  .  ________  .  .  _
 72
    65
 73
     6
 40
63.49999999999999
 49
25.4
 74
     0
 49
-12.7
 74
     0
 49
0.0
 74
     0
 49
-12.7
 74
     0
 49
0.0
 74
     0
 49
-12.7
 74
     0
  0
LTYPE
  5
52
330
5
100
AcDbSymbolTableRecord
100
AcDbLinetypeTableRecord
  2
DOT
 70
     0
  3
Dot . . . . . . . . . . . . . . . . . . . . . .
 72
    65
 73
     2
 40
6.349999999999999
 49
0.0
 74
     0
 49
-6.349999999999999
 74
     0
  0
LTYPE
  5
53
330
5
100
AcDbSymbolTableRecord
100
AcDbLinetypeTableRecord
  2
DOT2
 70
     0
  3
Dot (.5x) .....................................
 72
    65
 73
     2
 40
3.174999999999999
 49
0.0
 74
     0
 49
-3.174999999999999
 74
     0
  0
LTYPE
  5
54
330
5
100
AcDbSymbolTableRecord
100
AcDbLinetypeTableRecord
  2
DOTX2
 70
     0
  3
Dot (2x) .  .  .  .  .  .  .  .  .  .  .  .  . 
 72
    65
 73
     2
 40
12.7
 49
0.0
 74
     0
 49
-12.7
 74
     0
  0
LTYPE
  5
55
330
5
100
AcDbSymbolTableRecord
100
AcDbLinetypeTableRecord
  2
FENCELINE1
 70
     0
  3
Fenceline circle ----0-----0----0-----0----0---
 72
    65
 73
     4
 40
36.83
 49
6.349999999999999
 74
     0
 49
-2.54
 74
     4
 75
   133
340
33
 46
2.54
 50
0.0
 44
-2.54
 45
0.0
 49
-2.54
 74
     0
 49
25.4
 74
     0
  0
LTYPE
  5
56
330
5
100
AcDbSymbolTableRecord
100
AcDbLinetypeTableRecord
  2
FENCELINE2
 70
     0
  3
Fenceline square ----[]-----[]----[]-----[]----
 72
    65
 73
     4
 40
36.83
 49
6.349999999999999
 74
     0
 49
-2.54
 74
     4
 75
   132
340
33
 46
2.54
 50
0.0
 44
-2.54
 45
0.0
 49
-2.54
 74
     0
 49
25.4
 74
     0
  0
LTYPE
  5
57
330
5
100
AcDbSymbolTableRecord
100
AcDbLinetypeTableRecord
  2
GAS_LINE
 70
     0
  3
Gas line ----GAS----GAS----GAS----GAS----GAS---
 72
    65
 73
     3
 40
24.13
 49
12.7
 74
     0
 49
-5.08
 74
     2
 75
     0
340
11
 46
2.54
 50
0.0
 44
-2.54
 45
-1.27
  9
GAS
 49
-6.349999999999999
 74
     0
  0
LTYPE
  5
58
330
5
100
AcDbSymbolTableRecord
100
AcDbLinetypeTableRecord
  2
HIDDEN
 70
     0
  3
Hidden __ __ __ __ __ __ __ __ __ __ __ __ __ _
 72
    65
 73
     2
 40
9.524999999999998
 49
6.349999999999999
 74
     0
 49
-3.174999999999999
 74
     0
  0
LTYPE
  5
59
330
5
100
AcDbSymbolTableRecord
100
AcDbLinetypeTableRecord
  2
HIDDEN2
 70
     0
  3
Hidden (.5x) _ _ _ _ _ _ _ _ _ _ _ _ _ _ _ _ _
 72
    65
 73
     2
 40
4.762499999999999
 49
3.174999999999999
 74
     0
 49
-1.587499999999999
 74
     0
  0
LTYPE
  5
5A
330
5
100
AcDbSymbolTableRecord
100
AcDbLinetypeTableRecord
  2
HIDDENX2
 70
     0
  3
Hidden (2x) ____ ____ ____ ____ ____ ____ ____
 72
    65
 73
     2
 40
19.05
 49
12.7
 74
     0
 49
-6.349999999999999
 74
     0
  0
LTYPE
  5
5B
330
5
100
AcDbSymbolTableRecord
100
AcDbLinetypeTableRecord
  2
HOT_WATER_SUPPLY
 70
     0
  3
Hot water supply ---- HW ---- HW ---- HW ----
 72
    65
 73
     3
 40
22.86
 49
12.7
 74
     0
 49
-5.08
 74
     2
 75
     0
340
11
 46
2.54
 50
0.0
 44
-2.54
 45
-1.27
  9
HW
 49
-5.08
 74
     0
  0
LTYPE
  5
5C
330
5
100
AcDbSymbolTableRecord
100
AcDbLinetypeTableRecord
  2
PHANTOM
 70
     0
  3
Phantom ______  __  __  ______  __  __  ______
 72
    65
 73
     6
 40
63.5
 49
31.75
 74
     0
 49
-6.349999999999999
 74
     0
 49
6.349999999999999
 74
     0
 49
-6.349999999999999
 74
     0
 49
6.349999999999999
 74
     0
 49
-6.349999999999999
 74
     0
  0
LTYPE
  5
5D
330
5
100
AcDbSymbolTableRecord
100
AcDbLinetypeTableRecord
  2
PHANTOM2
 70
     0
  3
Phantom (.5x) ___ _ _ ___ _ _ ___ _ _ ___ _ _
 72
    65
 73
     6
 40
31.75
 49
15.875
 74
     0
 49
-3.174999999999999
 74
     0
 49
3.174999999999999
 74
     0
 49
-3.174999999999999
 74
     0
 49
3.174999999999999
 74
     0
 49
-3.174999999999999
 74
     0
  0
LTYPE
  5
5E
330
5
100
AcDbSymbolTableRecord
100
AcDbLinetypeTableRecord
  2
PHANTOMX2
 70
     0
  3
Phantom (2x) ____________    ____    ____   _
 72
    65
 73
     6
 40
127.0
 49
63.5
 74
     0
 49
-12.7
 74
     0
 49
12.7
 74
     0
 49
-12.7
 74
     0
 49
12.7
 74
     0
 49
-12.7
 74
     0
  0
LTYPE
  5
5F
330
5
100
AcDbSymbolTableRecord
100
AcDbLinetypeTableRecord
  2
TRACKS
 70
     0
  3
Tracks -|-|-|-|-|-|-|-|-|-|-|-|-|-|-|-|-|-|-|-|
 72
    65
 73
     2
 40
7.62
 49
3.81
 74
     4
 75
   130
340
33
 46
6.349999999999999
 50
0.0
 44
0.0
 45
0.0
 49
3.81
 74
     0
  0
LTYPE
  5
60
330
5
100
AcDbSymbolTableRecord
100
AcDbLinetypeTableRecord
  2
ZIGZAG
 70
     0
  3
Zig zag /\/\/\/\/\/\/\/\/\/\/\/\/\/\/\/\/\/\/\/
 72
    65
 73
     4
 40
20.32254
 49
0.00254
 74
     0
 49
-5.08
 74
     4
 75
   131
340
33
 46
5.08
 50
0.0
 44
-5.08
 45
0.0
 49
-10.16
 74
     4
 75
   131
340
33
 46
5.08
 50
180.0
 44
5.08
 45
0.0
 49
-5.08
 74
     0
  0
ENDTAB
  0
TABLE
  2
LAYER
  5
2
102
{ACAD_XDICTIONARY
360
19F3
102
}
330
0
100
AcDbSymbolTable
 70
     9
  0
LAYER
  5
10
330
2
100
AcDbSymbolTableRecord
100
AcDbLayerTableRecord
  2
0
 70
     0
 62
     7
  6
Continuous
370
    -3
390
F
  0
LAYER
  5
C3
330
2
100
AcDbSymbolTableRecord
100
AcDbLayerTableRecord
  2
Defpoints
 70
     0
 62
     7
  6
Continuous
290
     0
370
    -3
390
F
  0
LAYER
  5
256
330
2
100
AcDbSymbolTableRecord
100
AcDbLayerTableRecord
  2
センター
 70
     0
 62
     7
  6
CENTER2
370
    18
390
F
  0
LAYER
  5
268
330
2
100
AcDbSymbolTableRecord
100
AcDbLayerTableRecord
  2
実形
 70
     0
 62
     7
  6
Continuous
370
    -3
390
F
  0
LAYER
  5
269
330
2
100
AcDbSymbolTableRecord
100
AcDbLayerTableRecord
  2
補助
 70
     0
 62
     7
  6
Continuous
370
    -3
390
F
  0
LAYER
  5
26A
330
2
100
AcDbSymbolTableRecord
100
AcDbLayerTableRecord
  2
寸法
 70
     0
 62
     7
  6
Continuous
370
    18
390
F
  0
LAYER
  5
26B
330
2
100
AcDbSymbolTableRecord
100
AcDbLayerTableRecord
  2
ハッチング
 70
     0
 62
     7
  6
Continuous
370
    18
390
F
  0
LAYER
  5
26D
330
2
100
AcDbSymbolTableRecord
100
AcDbLayerTableRecord
  2
文字
 70
     0
 62
     7
  6
Continuous
370
    -3
390
F
  0
LAYER
  5
1769
330
2
100
AcDbSymbolTableRecord
100
AcDbLayerTableRecord
  2
Cen
 70
     0
 62
     7
  6
CENTER2
370
    15
390
F
  0
ENDTAB
  0
TABLE
  2
STYLE
  5
3
330
0
100
AcDbSymbolTable
 70
     3
  0
STYLE
  5
11
330
3
100
AcDbSymbolTableRecord
100
AcDbTextStyleTableRecord
  2
Standard
 70
     0
 40
0.0
 41
1.0
 50
0.0
 71
     0
 42
25.0
  3
txt.shx
  4
bigfont.shx
  0
STYLE
  5
33
330
3
100
AcDbSymbolTableRecord
100
AcDbTextStyleTableRecord
  2

 70
     1
 40
0.0
 41
1.0
 50
0.0
 71
     0
 42
2.5
  3
ltypeshp.shx
  4

  0
STYLE
  5
1A19
330
3
100
AcDbSymbolTableRecord
100
AcDbTextStyleTableRecord
  2
明朝
 70
     0
 40
0.0
 41
1.0
 50
0.0
 71
     0
 42
25.0
  3
MS Mincho.ttf
  4

1001
ACAD
1000
MS Mincho
1071
    32785
  0
ENDTAB
  0
TABLE
  2
VIEW
  5
6
330
0
100
AcDbSymbolTable
 70
     0
  0
ENDTAB
  0
TABLE
  2
UCS
  5
7
330
0
100
AcDbSymbolTable
 70
     0
  0
ENDTAB
  0
TABLE
  2
APPID
  5
9
330
0
100
AcDbSymbolTable
 70
     1
  0
APPID
  5
12
330
9
100
AcDbSymbolTableRecord
100
AcDbRegAppTableRecord
  2
ACAD
 70
     0
  0
ENDTAB
  0
TABLE
  2
DIMSTYLE
  5
A
330
0
100
AcDbSymbolTable
 70
     1
100
AcDbDimStyleTable
 71
     1
340
27
  0
DIMSTYLE
105
27
102
{ACAD_REACTORS
330
368
330
44B
330
458
330
4A3
330
569
330
57F
330
35B
330
3CE
330
43D
330
3E9
330
3DC
330
3F6
330
4F8
330
505
330
19A7
330
19A8
102
}
330
A
100
AcDbSymbolTableRecord
100
AcDbDimStyleTableRecord
  2
ISO-25
 70
     0
 41
35.0
 42
65.0
 43
3.75
 44
0.0
 73
     0
 74
     0
 77
     1
 78
     8
140
25.0
141
2.5
143
0.03937007874016
147
6.25
171
     3
172
     1
271
     2
272
     2
274
     3
283
     0
284
     8
340
11
341
DA
342
D0
371
    15
372
    15
  0
ENDTAB
  0
TABLE
  2
BLOCK_RECORD
  5
1
330
0
100
AcDbSymbolTable
 70
    20
  0
BLOCK_RECORD
  5
1F
102
{ACAD_XDICTIONARY
360
1865
102
}
330
1
100
AcDbSymbolTableRecord
100
AcDbBlockTableRecord
  2
*Model_Space
340
22
  0
BLOCK_RECORD
  5
1B
330
1
100
AcDbSymbolTableRecord
100
AcDbBlockTableRecord
  2
*Paper_Space
340
1E
  0
BLOCK_RECORD
  5
23
330
1
100
AcDbSymbolTableRecord
100
AcDbBlockTableRecord
  2
*Paper_Space0
340
26
  0
BLOCK_RECORD
  5
D0
330
1
100
AcDbSymbolTableRecord
100
AcDbBlockTableRecord
  2
_DotSmall
340
0
102
{BLKREFS
331
1877
331
1878
331
1880
331
1881
331
189A
331
189B
331
18A3
331
18A4
331
18BD
331
18BE
331
18C6
331
18C7
331
18CE
331
18CF
331
18D8
331
18D9
331
18E0
331
18E1
331
18EA
331
18EB
331
18F2
331
18F3
331
18FB
331
18FC
331
1903
331
1904
331
190C
331
190D
331
19C9
331
19CA
331
19D1
331
19D2
102
}
  0
BLOCK_RECORD
  5
D4
330
1
100
AcDbSymbolTableRecord
100
AcDbBlockTableRecord
  2
_Origin2
340
0
  0
BLOCK_RECORD
  5
DA
330
1
100
AcDbSymbolTableRecord
100
AcDbBlockTableRecord
  2
_Open30
340
0
  0
BLOCK_RECORD
  5
35C
330
1
100
AcDbSymbolTableRecord
100
AcDbBlockTableRecord
  2
*D4
340
0
  0
BLOCK_RECORD
  5
369
330
1
100
AcDbSymbolTableRecord
100
AcDbBlockTableRecord
  2
*D5
340
0
  0
BLOCK_RECORD
  5
3CF
330
1
100
AcDbSymbolTableRecord
100
AcDbBlockTableRecord
  2
*D6
340
0
  0
BLOCK_RECORD
  5
3DD
330
1
100
AcDbSymbolTableRecord
100
AcDbBlockTableRecord
  2
*D7
340
0
  0
BLOCK_RECORD
  5
3EA
330
1
100
AcDbSymbolTableRecord
100
AcDbBlockTableRecord
  2
*D8
340
0
  0
BLOCK_RECORD
  5
3F7
330
1
100
AcDbSymbolTableRecord
100
AcDbBlockTableRecord
  2
*D9
340
0
  0
BLOCK_RECORD
  5
43E
330
1
100
AcDbSymbolTableRecord
100
AcDbBlockTableRecord
  2
*D10
340
0
  0
BLOCK_RECORD
  5
44C
330
1
100
AcDbSymbolTableRecord
100
AcDbBlockTableRecord
  2
*D11
340
0
  0
BLOCK_RECORD
  5
459
330
1
100
AcDbSymbolTableRecord
100
AcDbBlockTableRecord
  2
*D12
340
0
  0
BLOCK_RECORD
  5
4A4
330
1
100
AcDbSymbolTableRecord
100
AcDbBlockTableRecord
  2
*D13
340
0
  0
BLOCK_RECORD
  5
4F9
330
1
100
AcDbSymbolTableRecord
100
AcDbBlockTableRecord
  2
*D14
340
0
  0
BLOCK_RECORD
  5
506
330
1
100
AcDbSymbolTableRecord
100
AcDbBlockTableRecord
  2
*D15
340
0
  0
BLOCK_RECORD
  5
56A
330
1
100
AcDbSymbolTableRecord
100
AcDbBlockTableRecord
  2
*D16
340
0
  0
BLOCK_RECORD
  5
580
330
1
100
AcDbSymbolTableRecord
100
AcDbBlockTableRecord
  2
*D17
340
0
  0
BLOCK_RECORD
  5
19AF
330
1
100
AcDbSymbolTableRecord
100
AcDbBlockTableRecord
  2
*D18
340
0
  0
BLOCK_RECORD
  5
19BA
330
1
100
AcDbSymbolTableRecord
100
AcDbBlockTableRecord
  2
*D19
340
0
  0
ENDTAB
  0
ENDSEC
  0
SECTION
  2
BLOCKS
  0
BLOCK
  5
20
330
1F
100
AcDbEntity
  8
0
100
AcDbBlockBegin
  2
*Model_Space
 70
     0
 10
0.0
 20
0.0
 30
0.0
  3
*Model_Space
  1

  0
ENDBLK
  5
21
330
1F
100
AcDbEntity
  8
0
100
AcDbBlockEnd
  0
BLOCK
  5
1C
330
1B
100
AcDbEntity
 67
     1
  8
0
100
AcDbBlockBegin
  2
*Paper_Space
 70
     0
 10
0.0
 20
0.0
 30
0.0
  3
*Paper_Space
  1

  0
ENDBLK
  5
1D
330
1B
100
AcDbEntity
 67
     1
  8
0
100
AcDbBlockEnd
  0
BLOCK
  5
24
330
23
100
AcDbEntity
  8
0
100
AcDbBlockBegin
  2
*Paper_Space0
 70
     0
 10
0.0
 20
0.0
 30
0.0
  3
*Paper_Space0
  1

  0
ENDBLK
  5
25
330
23
100
AcDbEntity
  8
0
100
AcDbBlockEnd
  0
BLOCK
  5
D2
330
D0
100
AcDbEntity
  8
0
100
AcDbBlockBegin
  2
_DotSmall
 70
     0
 10
0.0
 20
0.0
 30
0.0
  3
_DotSmall
  1

  0
LWPOLYLINE
  5
D1
330
D0
100
AcDbEntity
  8
0
 62
     0
100
AcDbPolyline
 90
        2
 70
     1
 43
0.5
 10
-0.0625
 20
0.0
 42
1.0
 10
0.0625
 20
0.0
 42
1.0
  0
ENDBLK
  5
D3
330
D0
100
AcDbEntity
  8
0
100
AcDbBlockEnd
  0
BLOCK
  5
D8
330
D4
100
AcDbEntity
  8
0
100
AcDbBlockBegin
  2
_Origin2
 70
     0
 10
0.0
 20
0.0
 30
0.0
  3
_Origin2
  1

  0
CIRCLE
  5
D5
330
D4
100
AcDbEntity
  8
0
 62
     0
370
    -2
100
AcDbCircle
 10
0.0
 20
0.0
 30
0.0
 40
0.5
  0
CIRCLE
  5
D6
330
D4
100
AcDbEntity
  8
0
 62
     0
370
    -2
100
AcDbCircle
 10
0.0
 20
0.0
 30
0.0
 40
0.25
  0
LINE
  5
D7
330
D4
100
AcDbEntity
  8
0
 62
     0
370
    -2
100
AcDbLine
 10
-0.5
 20
0.0
 30
0.0
 11
-1.0
 21
0.0
 31
0.0
  0
ENDBLK
  5
D9
330
D4
100
AcDbEntity
  8
0
100
AcDbBlockEnd
  0
BLOCK
  5
DE
330
DA
100
AcDbEntity
  8
0
100
AcDbBlockBegin
  2
_Open30
 70
     0
 10
0.0
 20
0.0
 30
0.0
  3
_Open30
  1

  0
LINE
  5
DB
330
DA
100
AcDbEntity
  8
0
 62
     0
370
    -2
100
AcDbLine
 10
-1.0
 20
0.26794919
 30
0.0
 11
0.0
 21
0.0
 31
0.0
  0
LINE
  5
DC
330
DA
100
AcDbEntity
  8
0
 62
     0
370
    -2
100
AcDbLine
 10
0.0
 20
0.0
 30
0.0
 11
-1.0
 21
-0.26794919
 31
0.0
  0
LINE
  5
DD
330
DA
100
AcDbEntity
  8
0
 62
     0
370
    -2
100
AcDbLine
 10
0.0
 20
0.0
 30
0.0
 11
-1.0
 21
0.0
 31
0.0
  0
ENDBLK
  5
DF
330
DA
100
AcDbEntity
  8
0
100
AcDbBlockEnd
  0
BLOCK
  5
366
330
35C
100
AcDbEntity
  8
0
100
AcDbBlockBegin
  2
*D4
 70
     1
 10
0.0
 20
0.0
 30
0.0
  3
*D4
  1

  0
LINE
  5
1909
330
35C
100
AcDbEntity
  8
寸法
 62
     0
370
    15
100
AcDbLine
 10
934.3722126116663
 20
1701.227744878924
 30
0.0
 11
934.3722126116663
 21
1772.352448254478
 31
0.0
  0
LINE
  5
190A
330
35C
100
AcDbEntity
  8
寸法
 62
     0
370
    15
100
AcDbLine
 10
824.3722126116663
 20
1523.54933009107
 30
0.0
 11
824.3722126116663
 21
1772.352448254478
 31
0.0
  0
LINE
  5
190B
330
35C
100
AcDbEntity
  8
寸法
 62
     0
370
    18
100
AcDbLine
 10
934.3722126116663
 20
1772.352448254478
 30
0.0
 11
824.3722126116663
 21
1772.352448254478
 31
0.0
  0
INSERT
  5
190C
330
35C
100
AcDbEntity
  8
寸法
 62
     0
370
    18
100
AcDbBlockReference
  2
_DotSmall
 10
934.3722126116663
 20
1772.352448254478
 30
0.0
 41
25.0
 42
25.0
 43
25.0
  0
INSERT
  5
190D
330
35C
100
AcDbEntity
  8
寸法
 62
     0
370
    18
100
AcDbBlockReference
  2
_DotSmall
 10
824.3722126116663
 20
1772.352448254478
 30
0.0
 41
25.0
 42
25.0
 43
25.0
 50
180.0
  0
MTEXT
  5
190E
330
35C
100
AcDbEntity
  8
寸法
 62
     0
100
AcDbMText
 10
879.3722126116662
 20
1791.102448254478
 30
0.0
 40
25.0
 41
0.0
 71
     5
 72
     1
  1
110
 73
     1
 44
1.0
1001
ACAD
1000
MTEXTBEGIN
1070
    73
1070
     1
1070
    44
1040
1.0
1070
    74
1070
     0
1000
MTEXTEND
  0
POINT
  5
190F
330
35C
100
AcDbEntity
  8
Defpoints
 62
     0
100
AcDbPoint
 10
934.3722126116663
 20
1636.227744878923
 30
0.0
  0
POINT
  5
1910
330
35C
100
AcDbEntity
  8
Defpoints
 62
     0
100
AcDbPoint
 10
824.3722126116663
 20
1458.54933009107
 30
0.0
  0
POINT
  5
1911
330
35C
100
AcDbEntity
  8
Defpoints
 62
     0
100
AcDbPoint
 10
824.3722126116663
 20
1772.352448254478
 30
0.0
  0
ENDBLK
  5
367
330
35C
100
AcDbEntity
  8
0
100
AcDbBlockEnd
  0
BLOCK
  5
373
330
369
100
AcDbEntity
  8
0
100
AcDbBlockBegin
  2
*D5
 70
     1
 10
0.0
 20
0.0
 30
0.0
  3
*D5
  1

  0
LINE
  5
1900
330
369
100
AcDbEntity
  8
寸法
 62
     0
370
    15
100
AcDbLine
 10
1157.9118254436
 20
1458.54933009107
 30
0.0
 11
1296.975225230648
 21
1458.54933009107
 31
0.0
  0
LINE
  5
1901
330
369
100
AcDbEntity
  8
寸法
 62
     0
370
    15
100
AcDbLine
 10
1185.786436699138
 20
1678.54933009107
 30
0.0
 11
1296.975225230648
 21
1678.54933009107
 31
0.0
  0
LINE
  5
1902
330
369
100
AcDbEntity
  8
寸法
 62
     0
370
    18
100
AcDbLine
 10
1296.975225230648
 20
1458.54933009107
 30
0.0
 11
1296.975225230648
 21
1678.54933009107
 31
0.0
  0
INSERT
  5
1903
330
369
100
AcDbEntity
  8
寸法
 62
     0
370
    18
100
AcDbBlockReference
  2
_DotSmall
 10
1296.975225230648
 20
1458.54933009107
 30
0.0
 41
25.0
 42
25.0
 43
25.0
 50
270.0
  0
INSERT
  5
1904
330
369
100
AcDbEntity
  8
寸法
 62
     0
370
    18
100
AcDbBlockReference
  2
_DotSmall
 10
1296.975225230648
 20
1678.54933009107
 30
0.0
 41
25.0
 42
25.0
 43
25.0
 50
90.0
  0
MTEXT
  5
1905
330
369
100
AcDbEntity
  8
寸法
 62
     0
100
AcDbMText
 10
1278.225225230647
 20
1568.54933009107
 30
0.0
 40
25.0
 41
0.0
 71
     5
 72
     1
  1
220
 11
0.0000000000000001
 21
1.0
 31
0.0
 73
     1
 44
1.0
1001
ACAD
1000
MTEXTBEGIN
1070
    73
1070
     1
1070
    44
1040
1.0
1070
    74
1070
     0
1000
MTEXTEND
  0
POINT
  5
1906
330
369
100
AcDbEntity
  8
Defpoints
 62
     0
100
AcDbPoint
 10
1092.9118254436
 20
1458.54933009107
 30
0.0
  0
POINT
  5
1907
330
369
100
AcDbEntity
  8
Defpoints
 62
     0
100
AcDbPoint
 10
1120.786436699138
 20
1678.54933009107
 30
0.0
  0
POINT
  5
1908
330
369
100
AcDbEntity
  8
Defpoints
 62
     0
100
AcDbPoint
 10
1296.975225230648
 20
1678.54933009107
 30
0.0
  0
ENDBLK
  5
374
330
369
100
AcDbEntity
  8
0
100
AcDbBlockEnd
  0
BLOCK
  5
3DA
330
3CF
100
AcDbEntity
  8
0
100
AcDbBlockBegin
  2
*D6
 70
     1
 10
0.0
 20
0.0
 30
0.0
  3
*D6
  1

  0
LINE
  5
18F8
330
3CF
100
AcDbEntity
  8
寸法
 62
     0
370
    15
100
AcDbLine
 10
744.3722126116663
 20
1693.54933009107
 30
0.0
 11
666.196897887793
 21
1693.54933009107
 31
0.0
  0
LINE
  5
18F9
330
3CF
100
AcDbEntity
  8
寸法
 62
     0
370
    15
100
AcDbLine
 10
744.3722126116663
 20
1678.54933009107
 30
0.0
 11
666.196897887793
 21
1678.54933009107
 31
0.0
  0
LINE
  5
18FA
330
3CF
100
AcDbEntity
  8
寸法
 62
     0
370
    18
100
AcDbLine
 10
666.196897887793
 20
1693.54933009107
 30
0.0
 11
666.196897887793
 21
1678.54933009107
 31
0.0
  0
INSERT
  5
18FB
330
3CF
100
AcDbEntity
  8
寸法
 62
     0
370
    18
100
AcDbBlockReference
  2
_DotSmall
 10
666.196897887793
 20
1693.54933009107
 30
0.0
 41
25.0
 42
25.0
 43
25.0
 50
90.0
  0
INSERT
  5
18FC
330
3CF
100
AcDbEntity
  8
寸法
 62
     0
370
    18
100
AcDbBlockReference
  2
_DotSmall
 10
666.196897887793
 20
1678.54933009107
 30
0.0
 41
25.0
 42
25.0
 43
25.0
 50
270.0
  0
POINT
  5
18FD
330
3CF
100
AcDbEntity
  8
Defpoints
 62
     0
100
AcDbPoint
 10
809.3722126116663
 20
1693.54933009107
 30
0.0
  0
POINT
  5
18FE
330
3CF
100
AcDbEntity
  8
Defpoints
 62
     0
100
AcDbPoint
 10
809.3722126116663
 20
1678.54933009107
 30
0.0
  0
POINT
  5
18FF
330
3CF
100
AcDbEntity
  8
Defpoints
 62
     0
100
AcDbPoint
 10
666.196897887793
 20
1678.54933009107
 30
0.0
  0
ENDBLK
  5
3DB
330
3CF
100
AcDbEntity
  8
0
100
AcDbBlockEnd
  0
BLOCK
  5
3E7
330
3DD
100
AcDbEntity
  8
0
100
AcDbBlockBegin
  2
*D7
 70
     1
 10
0.0
 20
0.0
 30
0.0
  3
*D7
  1

  0
LINE
  5
18EF
330
3DD
100
AcDbEntity
  8
寸法
 62
     0
370
    15
100
AcDbLine
 10
744.3722126116663
 20
1678.54933009107
 30
0.0
 11
666.1968978877931
 21
1678.54933009107
 31
0.0
  0
LINE
  5
18F0
330
3DD
100
AcDbEntity
  8
寸法
 62
     0
370
    15
100
AcDbLine
 10
744.3722126116663
 20
1238.54933009107
 30
0.0
 11
666.196897887793
 21
1238.54933009107
 31
0.0
  0
LINE
  5
18F1
330
3DD
100
AcDbEntity
  8
寸法
 62
     0
370
    18
100
AcDbLine
 10
666.1968978877931
 20
1678.54933009107
 30
0.0
 11
666.196897887793
 21
1238.54933009107
 31
0.0
  0
INSERT
  5
18F2
330
3DD
100
AcDbEntity
  8
寸法
 62
     0
370
    18
100
AcDbBlockReference
  2
_DotSmall
 10
666.1968978877931
 20
1678.54933009107
 30
0.0
 41
25.0
 42
25.0
 43
25.0
 50
90.0
  0
INSERT
  5
18F3
330
3DD
100
AcDbEntity
  8
寸法
 62
     0
370
    18
100
AcDbBlockReference
  2
_DotSmall
 10
666.196897887793
 20
1238.54933009107
 30
0.0
 41
25.0
 42
25.0
 43
25.0
 50
270.0
  0
MTEXT
  5
18F4
330
3DD
100
AcDbEntity
  8
寸法
 62
     0
100
AcDbMText
 10
647.4468978877929
 20
1458.54933009107
 30
0.0
 40
25.0
 41
0.0
 71
     5
 72
     1
  1
440
 11
0.0000000000000001
 21
1.0
 31
0.0
 73
     1
 44
1.0
1001
ACAD
1000
MTEXTBEGIN
1070
    73
1070
     1
1070
    44
1040
1.0
1070
    74
1070
     0
1000
MTEXTEND
  0
POINT
  5
18F5
330
3DD
100
AcDbEntity
  8
Defpoints
 62
     0
100
AcDbPoint
 10
809.3722126116663
 20
1678.54933009107
 30
0.0
  0
POINT
  5
18F6
330
3DD
100
AcDbEntity
  8
Defpoints
 62
     0
100
AcDbPoint
 10
809.3722126116663
 20
1238.54933009107
 30
0.0
  0
POINT
  5
18F7
330
3DD
100
AcDbEntity
  8
Defpoints
 62
     0
100
AcDbPoint
 10
666.196897887793
 20
1238.54933009107
 30
0.0
  0
ENDBLK
  5
3E8
330
3DD
100
AcDbEntity
  8
0
100
AcDbBlockEnd
  0
BLOCK
  5
3F4
330
3EA
100
AcDbEntity
  8
0
100
AcDbBlockBegin
  2
*D8
 70
     1
 10
0.0
 20
0.0
 30
0.0
  3
*D8
  1

  0
LINE
  5
18E6
330
3EA
100
AcDbEntity
  8
寸法
 62
     0
370
    15
100
AcDbLine
 10
744.3722126116663
 20
1238.54933009107
 30
0.0
 11
666.196897887793
 21
1238.54933009107
 31
0.0
  0
LINE
  5
18E7
330
3EA
100
AcDbEntity
  8
寸法
 62
     0
370
    15
100
AcDbLine
 10
744.3722126116663
 20
1223.54933009107
 30
0.0
 11
666.196897887793
 21
1223.54933009107
 31
0.0
  0
LINE
  5
18E8
330
3EA
100
AcDbEntity
  8
寸法
 62
     0
370
    18
100
AcDbLine
 10
666.196897887793
 20
1238.54933009107
 30
0.0
 11
666.196897887793
 21
1223.54933009107
 31
0.0
  0
MTEXT
  5
18E9
330
3EA
100
AcDbEntity
  8
寸法
 62
     0
370
    18
100
AcDbMText
 10
651.8807921832076
 20
1180.865089382844
 30
0.0
 40
25.0
 41
0.0
 71
     5
 72
     1
  1
15
 11
0.0000000000000001
 21
1.0
 31
0.0
 73
     1
 44
1.0
1001
ACAD
1000
MTEXTBEGIN
1070
    73
1070
     1
1070
    44
1040
1.0
1070
    74
1070
     0
1000
MTEXTEND
  0
INSERT
  5
18EA
330
3EA
100
AcDbEntity
  8
寸法
 62
     0
370
    18
100
AcDbBlockReference
  2
_DotSmall
 10
666.196897887793
 20
1238.54933009107
 30
0.0
 41
25.0
 42
25.0
 43
25.0
 50
90.0
  0
INSERT
  5
18EB
330
3EA
100
AcDbEntity
  8
寸法
 62
     0
370
    18
100
AcDbBlockReference
  2
_DotSmall
 10
666.196897887793
 20
1223.54933009107
 30
0.0
 41
25.0
 42
25.0
 43
25.0
 50
270.0
  0
POINT
  5
18EC
330
3EA
100
AcDbEntity
  8
Defpoints
 62
     0
100
AcDbPoint
 10
809.3722126116663
 20
1238.54933009107
 30
0.0
  0
POINT
  5
18ED
330
3EA
100
AcDbEntity
  8
Defpoints
 62
     0
100
AcDbPoint
 10
809.3722126116663
 20
1223.54933009107
 30
0.0
  0
POINT
  5
18EE
330
3EA
100
AcDbEntity
  8
Defpoints
 62
     0
100
AcDbPoint
 10
666.196897887793
 20
1223.54933009107
 30
0.0
  0
ENDBLK
  5
3F5
330
3EA
100
AcDbEntity
  8
0
100
AcDbBlockEnd
  0
BLOCK
  5
401
330
3F7
100
AcDbEntity
  8
0
100
AcDbBlockBegin
  2
*D9
 70
     1
 10
0.0
 20
0.0
 30
0.0
  3
*D9
  1

  0
LINE
  5
18DD
330
3F7
100
AcDbEntity
  8
寸法
 62
     0
370
    15
100
AcDbLine
 10
744.3722126116663
 20
1693.54933009107
 30
0.0
 11
597.3569995631088
 21
1693.54933009107
 31
0.0
  0
LINE
  5
18DE
330
3F7
100
AcDbEntity
  8
寸法
 62
     0
370
    15
100
AcDbLine
 10
744.3722126116663
 20
1223.54933009107
 30
0.0
 11
597.3569995631087
 21
1223.54933009107
 31
0.0
  0
LINE
  5
18DF
330
3F7
100
AcDbEntity
  8
寸法
 62
     0
370
    18
100
AcDbLine
 10
597.3569995631088
 20
1693.54933009107
 30
0.0
 11
597.3569995631087
 21
1223.54933009107
 31
0.0
  0
INSERT
  5
18E0
330
3F7
100
AcDbEntity
  8
寸法
 62
     0
370
    18
100
AcDbBlockReference
  2
_DotSmall
 10
597.3569995631088
 20
1693.54933009107
 30
0.0
 41
25.0
 42
25.0
 43
25.0
 50
90.0
  0
INSERT
  5
18E1
330
3F7
100
AcDbEntity
  8
寸法
 62
     0
370
    18
100
AcDbBlockReference
  2
_DotSmall
 10
597.3569995631087
 20
1223.54933009107
 30
0.0
 41
25.0
 42
25.0
 43
25.0
 50
270.0
  0
MTEXT
  5
18E2
330
3F7
100
AcDbEntity
  8
寸法
 62
     0
100
AcDbMText
 10
578.6069995631086
 20
1458.54933009107
 30
0.0
 40
25.0
 41
0.0
 71
     5
 72
     1
  1
470
 11
0.0000000000000001
 21
1.0
 31
0.0
 73
     1
 44
1.0
1001
ACAD
1000
MTEXTBEGIN
1070
    73
1070
     1
1070
    44
1040
1.0
1070
    74
1070
     0
1000
MTEXTEND
  0
POINT
  5
18E3
330
3F7
100
AcDbEntity
  8
Defpoints
 62
     0
100
AcDbPoint
 10
809.3722126116663
 20
1693.54933009107
 30
0.0
  0
POINT
  5
18E4
330
3F7
100
AcDbEntity
  8
Defpoints
 62
     0
100
AcDbPoint
 10
809.3722126116663
 20
1223.54933009107
 30
0.0
  0
POINT
  5
18E5
330
3F7
100
AcDbEntity
  8
Defpoints
 62
     0
100
AcDbPoint
 10
597.3569995631087
 20
1223.54933009107
 30
0.0
  0
ENDBLK
  5
402
330
3F7
100
AcDbEntity
  8
0
100
AcDbBlockEnd
  0
BLOCK
  5
449
330
43E
100
AcDbEntity
  8
0
100
AcDbBlockBegin
  2
*D10
 70
     1
 10
0.0
 20
0.0
 30
0.0
  3
*D10
  1

  0
LINE
  5
18D4
330
43E
100
AcDbEntity
  8
寸法
 62
     0
370
    15
100
AcDbLine
 10
809.3722126116663
 20
1158.54933009107
 30
0.0
 11
809.3722126116663
 21
1075.617212321016
 31
0.0
  0
LINE
  5
18D5
330
43E
100
AcDbEntity
  8
寸法
 62
     0
370
    15
100
AcDbLine
 10
824.3722126116663
 20
1158.54933009107
 30
0.0
 11
824.3722126116663
 21
1075.617212321016
 31
0.0
  0
LINE
  5
18D6
330
43E
100
AcDbEntity
  8
寸法
 62
     0
370
    18
100
AcDbLine
 10
809.3722126116663
 20
1075.617212321016
 30
0.0
 11
824.3722126116663
 21
1075.617212321016
 31
0.0
  0
LINE
  5
18D7
330
43E
100
AcDbEntity
  8
寸法
 62
     0
370
    18
100
AcDbLine
 10
824.3722126116663
 20
1075.617212321016
 30
0.0
 11
890.1222126116662
 21
1075.617212321016
 31
0.0
  0
INSERT
  5
18D8
330
43E
100
AcDbEntity
  8
寸法
 62
     0
370
    18
100
AcDbBlockReference
  2
_DotSmall
 10
809.3722126116663
 20
1075.617212321016
 30
0.0
 41
25.0
 42
25.0
 43
25.0
 50
180.0
  0
INSERT
  5
18D9
330
43E
100
AcDbEntity
  8
寸法
 62
     0
370
    18
100
AcDbBlockReference
  2
_DotSmall
 10
824.3722126116663
 20
1075.617212321016
 30
0.0
 41
25.0
 42
25.0
 43
25.0
  0
POINT
  5
18DA
330
43E
100
AcDbEntity
  8
Defpoints
 62
     0
100
AcDbPoint
 10
809.3722126116663
 20
1223.54933009107
 30
0.0
  0
POINT
  5
18DB
330
43E
100
AcDbEntity
  8
Defpoints
 62
     0
100
AcDbPoint
 10
824.3722126116663
 20
1223.54933009107
 30
0.0
  0
POINT
  5
18DC
330
43E
100
AcDbEntity
  8
Defpoints
 62
     0
100
AcDbPoint
 10
824.3722126116663
 20
1075.617212321016
 30
0.0
  0
ENDBLK
  5
44A
330
43E
100
AcDbEntity
  8
0
100
AcDbBlockEnd
  0
BLOCK
  5
456
330
44C
100
AcDbEntity
  8
0
100
AcDbBlockBegin
  2
*D11
 70
     1
 10
0.0
 20
0.0
 30
0.0
  3
*D11
  1

  0
LINE
  5
18CB
330
44C
100
AcDbEntity
  8
寸法
 62
     0
370
    15
100
AcDbLine
 10
824.3722126116663
 20
1158.54933009107
 30
0.0
 11
824.3722126116663
 21
1075.617212321016
 31
0.0
  0
LINE
  5
18CC
330
44C
100
AcDbEntity
  8
寸法
 62
     0
370
    15
100
AcDbLine
 10
1184.372212611666
 20
1158.54933009107
 30
0.0
 11
1184.372212611666
 21
1075.617212321016
 31
0.0
  0
LINE
  5
18CD
330
44C
100
AcDbEntity
  8
寸法
 62
     0
370
    18
100
AcDbLine
 10
824.3722126116663
 20
1075.617212321016
 30
0.0
 11
1184.372212611666
 21
1075.617212321016
 31
0.0
  0
INSERT
  5
18CE
330
44C
100
AcDbEntity
  8
寸法
 62
     0
370
    18
100
AcDbBlockReference
  2
_DotSmall
 10
824.3722126116663
 20
1075.617212321016
 30
0.0
 41
25.0
 42
25.0
 43
25.0
 50
180.0
  0
INSERT
  5
18CF
330
44C
100
AcDbEntity
  8
寸法
 62
     0
370
    18
100
AcDbBlockReference
  2
_DotSmall
 10
1184.372212611666
 20
1075.617212321016
 30
0.0
 41
25.0
 42
25.0
 43
25.0
  0
MTEXT
  5
18D0
330
44C
100
AcDbEntity
  8
寸法
 62
     0
100
AcDbMText
 10
1004.372212611666
 20
1094.367212321015
 30
0.0
 40
25.0
 41
0.0
 71
     5
 72
     1
  1
360
 73
     1
 44
1.0
1001
ACAD
1000
MTEXTBEGIN
1070
    73
1070
     1
1070
    44
1040
1.0
1070
    74
1070
     0
1000
MTEXTEND
  0
POINT
  5
18D1
330
44C
100
AcDbEntity
  8
Defpoints
 62
     0
100
AcDbPoint
 10
824.3722126116663
 20
1223.54933009107
 30
0.0
  0
POINT
  5
18D2
330
44C
100
AcDbEntity
  8
Defpoints
 62
     0
100
AcDbPoint
 10
1184.372212611666
 20
1223.54933009107
 30
0.0
  0
POINT
  5
18D3
330
44C
100
AcDbEntity
  8
Defpoints
 62
     0
100
AcDbPoint
 10
1184.372212611666
 20
1075.617212321016
 30
0.0
  0
ENDBLK
  5
457
330
44C
100
AcDbEntity
  8
0
100
AcDbBlockEnd
  0
BLOCK
  5
465
330
459
100
AcDbEntity
  8
0
100
AcDbBlockBegin
  2
*D12
 70
     1
 10
0.0
 20
0.0
 30
0.0
  3
*D12
  1

  0
LINE
  5
18C3
330
459
100
AcDbEntity
  8
寸法
 62
     0
370
    15
100
AcDbLine
 10
1184.372212611666
 20
1158.54933009107
 30
0.0
 11
1184.372212611666
 21
1075.617212321016
 31
0.0
  0
LINE
  5
18C4
330
459
100
AcDbEntity
  8
寸法
 62
     0
370
    15
100
AcDbLine
 10
1199.372212611666
 20
1158.54933009107
 30
0.0
 11
1199.372212611666
 21
1075.617212321016
 31
0.0
  0
LINE
  5
18C5
330
459
100
AcDbEntity
  8
寸法
 62
     0
370
    18
100
AcDbLine
 10
1184.372212611666
 20
1075.617212321016
 30
0.0
 11
1199.372212611666
 21
1075.617212321016
 31
0.0
  0
INSERT
  5
18C6
330
459
100
AcDbEntity
  8
寸法
 62
     0
370
    18
100
AcDbBlockReference
  2
_DotSmall
 10
1184.372212611666
 20
1075.617212321016
 30
0.0
 41
25.0
 42
25.0
 43
25.0
 50
180.0
  0
INSERT
  5
18C7
330
459
100
AcDbEntity
  8
寸法
 62
     0
370
    18
100
AcDbBlockReference
  2
_DotSmall
 10
1199.372212611666
 20
1075.617212321016
 30
0.0
 41
25.0
 42
25.0
 43
25.0
  0
POINT
  5
18C8
330
459
100
AcDbEntity
  8
Defpoints
 62
     0
100
AcDbPoint
 10
1184.372212611666
 20
1223.54933009107
 30
0.0
  0
POINT
  5
18C9
330
459
100
AcDbEntity
  8
Defpoints
 62
     0
100
AcDbPoint
 10
1199.372212611666
 20
1223.54933009107
 30
0.0
  0
POINT
  5
18CA
330
459
100
AcDbEntity
  8
Defpoints
 62
     0
100
AcDbPoint
 10
1199.372212611666
 20
1075.617212321016
 30
0.0
  0
ENDBLK
  5
466
330
459
100
AcDbEntity
  8
0
100
AcDbBlockEnd
  0
BLOCK
  5
4AE
330
4A4
100
AcDbEntity
  8
0
100
AcDbBlockBegin
  2
*D13
 70
     1
 10
0.0
 20
0.0
 30
0.0
  3
*D13
  1

  0
LINE
  5
18BA
330
4A4
100
AcDbEntity
  8
寸法
 62
     0
370
    15
100
AcDbLine
 10
809.3722126116663
 20
1158.54933009107
 30
0.0
 11
809.3722126116663
 21
997.8253021651463
 31
0.0
  0
LINE
  5
18BB
330
4A4
100
AcDbEntity
  8
寸法
 62
     0
370
    15
100
AcDbLine
 10
1199.372212611666
 20
1158.54933009107
 30
0.0
 11
1199.372212611666
 21
997.8253021651463
 31
0.0
  0
LINE
  5
18BC
330
4A4
100
AcDbEntity
  8
寸法
 62
     0
370
    18
100
AcDbLine
 10
809.3722126116663
 20
997.8253021651463
 30
0.0
 11
1199.372212611666
 21
997.8253021651463
 31
0.0
  0
INSERT
  5
18BD
330
4A4
100
AcDbEntity
  8
寸法
 62
     0
370
    18
100
AcDbBlockReference
  2
_DotSmall
 10
809.3722126116663
 20
997.8253021651463
 30
0.0
 41
25.0
 42
25.0
 43
25.0
 50
180.0
  0
INSERT
  5
18BE
330
4A4
100
AcDbEntity
  8
寸法
 62
     0
370
    18
100
AcDbBlockReference
  2
_DotSmall
 10
1199.372212611666
 20
997.8253021651463
 30
0.0
 41
25.0
 42
25.0
 43
25.0
  0
MTEXT
  5
18BF
330
4A4
100
AcDbEntity
  8
寸法
 62
     0
100
AcDbMText
 10
1004.372212611666
 20
1016.575302165146
 30
0.0
 40
25.0
 41
0.0
 71
     5
 72
     1
  1
390
 73
     1
 44
1.0
1001
ACAD
1000
MTEXTBEGIN
1070
    73
1070
     1
1070
    44
1040
1.0
1070
    74
1070
     0
1000
MTEXTEND
  0
POINT
  5
18C0
330
4A4
100
AcDbEntity
  8
Defpoints
 62
     0
100
AcDbPoint
 10
809.3722126116663
 20
1223.54933009107
 30
0.0
  0
POINT
  5
18C1
330
4A4
100
AcDbEntity
  8
Defpoints
 62
     0
100
AcDbPoint
 10
1199.372212611666
 20
1223.54933009107
 30
0.0
  0
POINT
  5
18C2
330
4A4
100
AcDbEntity
  8
Defpoints
 62
     0
100
AcDbPoint
 10
1199.372212611666
 20
997.8253021651463
 30
0.0
  0
ENDBLK
  5
4AF
330
4A4
100
AcDbEntity
  8
0
100
AcDbBlockEnd
  0
BLOCK
  5
503
330
4F9
100
AcDbEntity
  8
0
100
AcDbBlockBegin
  2
*D14
 70
     1
 10
0.0
 20
0.0
 30
0.0
  3
*D14
  1

  0
LINE
  5
18A0
330
4F9
100
AcDbEntity
  8
寸法
 62
     0
370
    15
100
AcDbLine
 10
890.3722126116663
 20
513.5493300910702
 30
0.0
 11
890.3722126116663
 21
462.1219227899973
 31
0.0
  0
LINE
  5
18A1
330
4F9
100
AcDbEntity
  8
寸法
 62
     0
370
    15
100
AcDbLine
 10
978.3722126116662
 20
513.5493300910702
 30
0.0
 11
978.3722126116662
 21
462.1219227899973
 31
0.0
  0
LINE
  5
18A2
330
4F9
100
AcDbEntity
  8
寸法
 62
     0
370
    18
100
AcDbLine
 10
890.3722126116663
 20
462.1219227899973
 30
0.0
 11
978.3722126116662
 21
462.1219227899973
 31
0.0
  0
INSERT
  5
18A3
330
4F9
100
AcDbEntity
  8
寸法
 62
     0
370
    18
100
AcDbBlockReference
  2
_DotSmall
 10
890.3722126116663
 20
462.1219227899973
 30
0.0
 41
25.0
 42
25.0
 43
25.0
 50
180.0
  0
INSERT
  5
18A4
330
4F9
100
AcDbEntity
  8
寸法
 62
     0
370
    18
100
AcDbBlockReference
  2
_DotSmall
 10
978.3722126116662
 20
462.1219227899973
 30
0.0
 41
25.0
 42
25.0
 43
25.0
  0
MTEXT
  5
18A5
330
4F9
100
AcDbEntity
  8
寸法
 62
     0
100
AcDbMText
 10
934.3722126116663
 20
480.8719227899973
 30
0.0
 40
25.0
 41
0.0
 71
     5
 72
     1
  1
88
 73
     1
 44
1.0
1001
ACAD
1000
MTEXTBEGIN
1070
    73
1070
     1
1070
    44
1040
1.0
1070
    74
1070
     0
1000
MTEXTEND
  0
POINT
  5
18A6
330
4F9
100
AcDbEntity
  8
Defpoints
 62
     0
100
AcDbPoint
 10
890.3722126116663
 20
578.5493300910702
 30
0.0
  0
POINT
  5
18A7
330
4F9
100
AcDbEntity
  8
Defpoints
 62
     0
100
AcDbPoint
 10
978.3722126116662
 20
578.5493300910702
 30
0.0
  0
POINT
  5
18A8
330
4F9
100
AcDbEntity
  8
Defpoints
 62
     0
100
AcDbPoint
 10
978.3722126116662
 20
462.1219227899973
 30
0.0
  0
ENDBLK
  5
504
330
4F9
100
AcDbEntity
  8
0
100
AcDbBlockEnd
  0
BLOCK
  5
510
330
506
100
AcDbEntity
  8
0
100
AcDbBlockBegin
  2
*D15
 70
     1
 10
0.0
 20
0.0
 30
0.0
  3
*D15
  1

  0
LINE
  5
1897
330
506
100
AcDbEntity
  8
寸法
 62
     0
370
    15
100
AcDbLine
 10
876.3722126116663
 20
513.5493300910702
 30
0.0
 11
876.3722126116663
 21
402.1625242210684
 31
0.0
  0
LINE
  5
1898
330
506
100
AcDbEntity
  8
寸法
 62
     0
370
    15
100
AcDbLine
 10
992.3722126116663
 20
513.5493300910702
 30
0.0
 11
992.3722126116663
 21
402.1625242210684
 31
0.0
  0
LINE
  5
1899
330
506
100
AcDbEntity
  8
寸法
 62
     0
370
    18
100
AcDbLine
 10
876.3722126116663
 20
402.1625242210684
 30
0.0
 11
992.3722126116663
 21
402.1625242210684
 31
0.0
  0
INSERT
  5
189A
330
506
100
AcDbEntity
  8
寸法
 62
     0
370
    18
100
AcDbBlockReference
  2
_DotSmall
 10
876.3722126116663
 20
402.1625242210684
 30
0.0
 41
25.0
 42
25.0
 43
25.0
 50
180.0
  0
INSERT
  5
189B
330
506
100
AcDbEntity
  8
寸法
 62
     0
370
    18
100
AcDbBlockReference
  2
_DotSmall
 10
992.3722126116663
 20
402.1625242210684
 30
0.0
 41
25.0
 42
25.0
 43
25.0
  0
MTEXT
  5
189C
330
506
100
AcDbEntity
  8
寸法
 62
     0
100
AcDbMText
 10
934.3722126116663
 20
420.9125242210684
 30
0.0
 40
25.0
 41
0.0
 71
     5
 72
     1
  1
116
 73
     1
 44
1.0
1001
ACAD
1000
MTEXTBEGIN
1070
    73
1070
     1
1070
    44
1040
1.0
1070
    74
1070
     0
1000
MTEXTEND
  0
POINT
  5
189D
330
506
100
AcDbEntity
  8
Defpoints
 62
     0
100
AcDbPoint
 10
876.3722126116663
 20
578.5493300910702
 30
0.0
  0
POINT
  5
189E
330
506
100
AcDbEntity
  8
Defpoints
 62
     0
100
AcDbPoint
 10
992.3722126116663
 20
578.5493300910702
 30
0.0
  0
POINT
  5
189F
330
506
100
AcDbEntity
  8
Defpoints
 62
     0
100
AcDbPoint
 10
992.3722126116663
 20
402.1625242210684
 30
0.0
  0
ENDBLK
  5
511
330
506
100
AcDbEntity
  8
0
100
AcDbBlockEnd
  0
BLOCK
  5
574
330
56A
100
AcDbEntity
  8
0
100
AcDbBlockBegin
  2
*D16
 70
     1
 10
0.0
 20
0.0
 30
0.0
  3
*D16
  1

  0
LINE
  5
187D
330
56A
100
AcDbEntity
  8
寸法
 62
     0
370
    15
100
AcDbLine
 10
2072.021664027319
 20
1502.54933009107
 30
0.0
 11
2117.327808119239
 21
1502.54933009107
 31
0.0
  0
LINE
  5
187E
330
56A
100
AcDbEntity
  8
寸法
 62
     0
370
    15
100
AcDbLine
 10
2072.021664027319
 20
1414.54933009107
 30
0.0
 11
2117.327808119239
 21
1414.54933009107
 31
0.0
  0
LINE
  5
187F
330
56A
100
AcDbEntity
  8
寸法
 62
     0
370
    18
100
AcDbLine
 10
2117.327808119239
 20
1502.54933009107
 30
0.0
 11
2117.327808119239
 21
1414.54933009107
 31
0.0
  0
INSERT
  5
1880
330
56A
100
AcDbEntity
  8
寸法
 62
     0
370
    18
100
AcDbBlockReference
  2
_DotSmall
 10
2117.327808119239
 20
1502.54933009107
 30
0.0
 41
25.0
 42
25.0
 43
25.0
 50
90.0
  0
INSERT
  5
1881
330
56A
100
AcDbEntity
  8
寸法
 62
     0
370
    18
100
AcDbBlockReference
  2
_DotSmall
 10
2117.327808119239
 20
1414.54933009107
 30
0.0
 41
25.0
 42
25.0
 43
25.0
 50
270.0
  0
MTEXT
  5
1882
330
56A
100
AcDbEntity
  8
寸法
 62
     0
100
AcDbMText
 10
2098.577808119239
 20
1458.54933009107
 30
0.0
 40
25.0
 41
0.0
 71
     5
 72
     1
  1
88
 11
0.0000000000000001
 21
1.0
 31
0.0
 73
     1
 44
1.0
1001
ACAD
1000
MTEXTBEGIN
1070
    73
1070
     1
1070
    44
1040
1.0
1070
    74
1070
     0
1000
MTEXTEND
  0
POINT
  5
1883
330
56A
100
AcDbEntity
  8
Defpoints
 62
     0
100
AcDbPoint
 10
2007.021664027319
 20
1502.54933009107
 30
0.0
  0
POINT
  5
1884
330
56A
100
AcDbEntity
  8
Defpoints
 62
     0
100
AcDbPoint
 10
2007.021664027319
 20
1414.54933009107
 30
0.0
  0
POINT
  5
1885
330
56A
100
AcDbEntity
  8
Defpoints
 62
     0
100
AcDbPoint
 10
2117.327808119239
 20
1414.54933009107
 30
0.0
  0
ENDBLK
  5
575
330
56A
100
AcDbEntity
  8
0
100
AcDbBlockEnd
  0
BLOCK
  5
58A
330
580
100
AcDbEntity
  8
0
100
AcDbBlockBegin
  2
*D17
 70
     1
 10
0.0
 20
0.0
 30
0.0
  3
*D17
  1

  0
LINE
  5
1874
330
580
100
AcDbEntity
  8
寸法
 62
     0
370
    15
100
AcDbLine
 10
2072.021664027319
 20
1516.54933009107
 30
0.0
 11
2182.249396084081
 21
1516.54933009107
 31
0.0
  0
LINE
  5
1875
330
580
100
AcDbEntity
  8
寸法
 62
     0
370
    15
100
AcDbLine
 10
2072.021664027319
 20
1400.54933009107
 30
0.0
 11
2182.249396084081
 21
1400.54933009107
 31
0.0
  0
LINE
  5
1876
330
580
100
AcDbEntity
  8
寸法
 62
     0
370
    18
100
AcDbLine
 10
2182.249396084081
 20
1516.54933009107
 30
0.0
 11
2182.249396084081
 21
1400.54933009107
 31
0.0
  0
INSERT
  5
1877
330
580
100
AcDbEntity
  8
寸法
 62
     0
370
    18
100
AcDbBlockReference
  2
_DotSmall
 10
2182.249396084081
 20
1516.54933009107
 30
0.0
 41
25.0
 42
25.0
 43
25.0
 50
90.0
  0
INSERT
  5
1878
330
580
100
AcDbEntity
  8
寸法
 62
     0
370
    18
100
AcDbBlockReference
  2
_DotSmall
 10
2182.249396084081
 20
1400.54933009107
 30
0.0
 41
25.0
 42
25.0
 43
25.0
 50
270.0
  0
MTEXT
  5
1879
330
580
100
AcDbEntity
  8
寸法
 62
     0
100
AcDbMText
 10
2163.49939608408
 20
1458.54933009107
 30
0.0
 40
25.0
 41
0.0
 71
     5
 72
     1
  1
116
 11
0.0000000000000001
 21
1.0
 31
0.0
 73
     1
 44
1.0
1001
ACAD
1000
MTEXTBEGIN
1070
    73
1070
     1
1070
    44
1040
1.0
1070
    74
1070
     0
1000
MTEXTEND
  0
POINT
  5
187A
330
580
100
AcDbEntity
  8
Defpoints
 62
     0
100
AcDbPoint
 10
2007.021664027319
 20
1516.54933009107
 30
0.0
  0
POINT
  5
187B
330
580
100
AcDbEntity
  8
Defpoints
 62
     0
100
AcDbPoint
 10
2007.021664027319
 20
1400.54933009107
 30
0.0
  0
POINT
  5
187C
330
580
100
AcDbEntity
  8
Defpoints
 62
     0
100
AcDbPoint
 10
2182.249396084081
 20
1400.54933009107
 30
0.0
  0
ENDBLK
  5
58B
330
580
100
AcDbEntity
  8
0
100
AcDbBlockEnd
  0
BLOCK
  5
19B8
330
19AF
100
AcDbEntity
  8
0
100
AcDbBlockBegin
  2
*D18
 70
     1
 10
0.0
 20
0.0
 30
0.0
  3
*D18
  1

  0
LINE
  5
19C6
330
19AF
100
AcDbEntity
  8
寸法
 62
     0
370
    15
100
AcDbLine
 10
1997.021664027319
 20
1141.062110263493
 30
0.0
 11
1997.021664027319
 21
1085.155376226058
 31
0.0
  0
LINE
  5
19C7
330
19AF
100
AcDbEntity
  8
寸法
 62
     0
370
    15
100
AcDbLine
 10
1982.021664027319
 20
1141.062110263493
 30
0.0
 11
1982.021664027319
 21
1085.155376226058
 31
0.0
  0
LINE
  5
19C8
330
19AF
100
AcDbEntity
  8
寸法
 62
     0
370
    18
100
AcDbLine
 10
1997.021664027319
 20
1085.155376226058
 30
0.0
 11
1982.021664027319
 21
1085.155376226058
 31
0.0
  0
INSERT
  5
19C9
330
19AF
100
AcDbEntity
  8
寸法
 62
     0
370
    18
100
AcDbBlockReference
  2
_DotSmall
 10
1997.021664027319
 20
1085.155376226058
 30
0.0
 41
25.0
 42
25.0
 43
25.0
  0
INSERT
  5
19CA
330
19AF
100
AcDbEntity
  8
寸法
 62
     0
370
    18
100
AcDbBlockReference
  2
_DotSmall
 10
1982.021664027319
 20
1085.155376226058
 30
0.0
 41
25.0
 42
25.0
 43
25.0
 50
180.0
  0
POINT
  5
19CB
330
19AF
100
AcDbEntity
  8
Defpoints
 62
     0
100
AcDbPoint
 10
1997.021664027319
 20
1206.062110263493
 30
0.0
  0
POINT
  5
19CC
330
19AF
100
AcDbEntity
  8
Defpoints
 62
     0
100
AcDbPoint
 10
1982.021664027319
 20
1206.062110263493
 30
0.0
  0
POINT
  5
19CD
330
19AF
100
AcDbEntity
  8
Defpoints
 62
     0
100
AcDbPoint
 10
1982.021664027319
 20
1085.155376226058
 30
0.0
  0
ENDBLK
  5
19B9
330
19AF
100
AcDbEntity
  8
0
100
AcDbBlockEnd
  0
BLOCK
  5
19C4
330
19BA
100
AcDbEntity
  8
0
100
AcDbBlockBegin
  2
*D19
 70
     1
 10
0.0
 20
0.0
 30
0.0
  3
*D19
  1

  0
LINE
  5
19CE
330
19BA
100
AcDbEntity
  8
寸法
 62
     0
370
    15
100
AcDbLine
 10
1997.021664027319
 20
1117.768149043056
 30
0.0
 11
1997.021664027319
 21
1021.783689327016
 31
0.0
  0
LINE
  5
19CF
330
19BA
100
AcDbEntity
  8
寸法
 62
     0
370
    15
100
AcDbLine
 10
1807.021664027319
 20
1139.361485972281
 30
0.0
 11
1807.021664027319
 21
1021.783689327016
 31
0.0
  0
LINE
  5
19D0
330
19BA
100
AcDbEntity
  8
寸法
 62
     0
370
    18
100
AcDbLine
 10
1997.021664027319
 20
1021.783689327016
 30
0.0
 11
1807.021664027319
 21
1021.783689327016
 31
0.0
  0
INSERT
  5
19D1
330
19BA
100
AcDbEntity
  8
寸法
 62
     0
370
    18
100
AcDbBlockReference
  2
_DotSmall
 10
1997.021664027319
 20
1021.783689327016
 30
0.0
 41
25.0
 42
25.0
 43
25.0
  0
INSERT
  5
19D2
330
19BA
100
AcDbEntity
  8
寸法
 62
     0
370
    18
100
AcDbBlockReference
  2
_DotSmall
 10
1807.021664027319
 20
1021.783689327016
 30
0.0
 41
25.0
 42
25.0
 43
25.0
 50
180.0
  0
MTEXT
  5
19D3
330
19BA
100
AcDbEntity
  8
寸法
 62
     0
100
AcDbMText
 10
1902.021664027319
 20
1040.533689327016
 30
0.0
 40
25.0
 41
0.0
 71
     5
 72
     1
  1
190
 73
     1
 44
1.0
1001
ACAD
1000
MTEXTBEGIN
1070
    73
1070
     1
1070
    44
1040
1.0
1070
    74
1070
     0
1000
MTEXTEND
  0
POINT
  5
19D4
330
19BA
100
AcDbEntity
  8
Defpoints
 62
     0
100
AcDbPoint
 10
1997.021664027319
 20
1182.768149043056
 30
0.0
  0
POINT
  5
19D5
330
19BA
100
AcDbEntity
  8
Defpoints
 62
     0
100
AcDbPoint
 10
1807.021664027319
 20
1204.361485972281
 30
0.0
  0
POINT
  5
19D6
330
19BA
100
AcDbEntity
  8
Defpoints
 62
     0
100
AcDbPoint
 10
1807.021664027319
 20
1021.783689327016
 30
0.0
  0
ENDBLK
  5
19C5
330
19BA
100
AcDbEntity
  8
0
100
AcDbBlockEnd
  0
ENDSEC
  0
SECTION
  2
ENTITIES
  0
LINE
  5
9C
330
1F
100
AcDbEntity
  8
補助
100
AcDbLine
 10
126.0
 20
4.0
 30
0.0
 11
2784.0
 21
4.0
 31
0.0
  0
LINE
  5
A0
330
1F
100
AcDbEntity
  8
補助
100
AcDbLine
 10
2784.0
 20
2024.0
 30
0.0
 11
126.0
 21
2024.0
 31
0.0
  0
LINE
  5
A5
330
1F
100
AcDbEntity
  8
補助
100
AcDbLine
 10
2784.0
 20
4.0
 30
0.0
 11
2784.0
 21
2024.0
 31
0.0
  0
LINE
  5
2E6
330
1F
100
AcDbEntity
  8
実形
100
AcDbLine
 10
809.3722126116663
 20
778.5493300910702
 30
0.0
 11
1199.372212611666
 21
778.5493300910702
 31
0.0
  0
CIRCLE
  5
2EB
330
1F
100
AcDbEntity
  8
実形
100
AcDbCircle
 10
934.3722126116663
 20
1458.54933009107
 30
0.0
 40
44.0
  0
CIRCLE
  5
2EE
330
1F
100
AcDbEntity
  8
実形
100
AcDbCircle
 10
934.3722126116663
 20
1458.54933009107
 30
0.0
 40
58.0
  0
LINE
  5
2FE
330
1F
100
AcDbEntity
  8
実形
100
AcDbLine
 10
1807.021664027319
 20
1693.54933009107
 30
0.0
 11
1807.021664027319
 21
1223.54933009107
 31
0.0
  0
LINE
  5
33A
330
1F
100
AcDbEntity
  8
センター
 48
0.5
370
    15
100
AcDbLine
 10
830.8116647006704
 20
1458.54933009107
 30
0.0
 11
1209.485499713022
 21
1458.54933009107
 31
0.0
  0
LINE
  5
33B
330
1F
100
AcDbEntity
  8
センター
 48
0.5
370
    15
100
AcDbLine
 10
934.3722126116663
 20
1733.662617192426
 30
0.0
 11
934.3722126116663
 21
1354.988782180074
 31
0.0
  0
LINE
  5
33C
330
1F
100
AcDbEntity
  8
センター
 48
0.5
370
    15
100
AcDbLine
 10
934.3722126116663
 20
666.7659539664837
 30
0.0
 11
934.3722126116663
 21
510.3501336591834
 31
0.0
  0
DIMENSION
  5
35B
330
1F
100
AcDbEntity
  8
寸法
100
AcDbDimension
  2
*D4
 10
824.3722126116663
 20
1772.352448254478
 30
0.0
 11
879.3722126116662
 21
1791.102448254478
 31
0.0
 70
    32
 71
     5
 42
110.0
  3
ISO-25
100
AcDbAlignedDimension
 13
934.3722126116663
 23
1636.227744878923
 33
0.0
 14
824.3722126116663
 24
1458.54933009107
 34
0.0
100
AcDbRotatedDimension
1001
ACAD
1000
DSTYLE
1002
{
1070
    41
1040
25.0
1070
   371
1070
    18
1002
}
  0
DIMENSION
  5
368
330
1F
100
AcDbEntity
  8
寸法
100
AcDbDimension
  2
*D5
 10
1296.975225230648
 20
1678.54933009107
 30
0.0
 11
1278.225225230647
 21
1568.54933009107
 31
0.0
 70
    32
 71
     5
 42
220.0
  3
ISO-25
100
AcDbAlignedDimension
 13
1092.9118254436
 23
1458.54933009107
 33
0.0
 14
1120.786436699138
 24
1678.54933009107
 34
0.0
 50
90.0
100
AcDbRotatedDimension
1001
ACAD
1000
DSTYLE
1002
{
1070
    41
1040
25.0
1070
   371
1070
    18
1002
}
  0
TEXT
  5
395
330
1F
100
AcDbEntity
  8
寸法
370
    18
100
AcDbText
 10
982.7868300381723
 20
1297.285509777592
 30
0.0
 40
25.0
  1
460R
100
AcDbText
  0
TEXT
  5
397
330
1F
100
AcDbEntity
  8
寸法
370
    18
100
AcDbText
 10
1008.74806872471
 20
1549.851506632585
 30
0.0
 40
25.0
  1
1300R
100
AcDbText
  0
TEXT
  5
398
330
1F
100
AcDbEntity
  8
寸法
370
    18
100
AcDbText
 10
1042.907598735666
 20
1364.18136732306
 30
0.0
 40
25.0
  1
110R
100
AcDbText
  0
TEXT
  5
3AF
330
1F
100
AcDbEntity
  8
寸法
100
AcDbText
 10
1057.477378408504
 20
656.633008699604
 30
0.0
 40
25.0
  1
30R
100
AcDbText
  0
TEXT
  5
3B1
330
1F
100
AcDbEntity
  8
寸法
370
    18
100
AcDbText
 10
1859.558248688184
 20
1297.032958149516
 30
0.0
 40
25.0
  1
30R
100
AcDbText
  0
DIMENSION
  5
3CE
330
1F
100
AcDbEntity
  8
寸法
100
AcDbDimension
  2
*D6
 10
666.196897887793
 20
1678.54933009107
 30
0.0
 11
666.1968978877928
 21
1686.04933009107
 31
0.0
 70
    32
  1
 
 71
     5
 42
15.0
  3
ISO-25
100
AcDbAlignedDimension
 13
809.3722126116663
 23
1693.54933009107
 33
0.0
 14
809.3722126116663
 24
1678.54933009107
 34
0.0
 50
90.0
100
AcDbRotatedDimension
1001
ACAD
1000
DSTYLE
1002
{
1070
    41
1040
25.0
1070
   371
1070
    18
1002
}
  0
DIMENSION
  5
3DC
330
1F
100
AcDbEntity
  8
寸法
100
AcDbDimension
  2
*D7
 10
666.196897887793
 20
1238.54933009107
 30
0.0
 11
647.4468978877929
 21
1458.54933009107
 31
0.0
 70
    32
 71
     5
 42
440.0
  3
ISO-25
100
AcDbAlignedDimension
 13
809.3722126116663
 23
1678.54933009107
 33
0.0
 14
809.3722126116663
 24
1238.54933009107
 34
0.0
 50
90.0
100
AcDbRotatedDimension
1001
ACAD
1000
DSTYLE
1002
{
1070
    41
1040
25.0
1070
   371
1070
    18
1070
   279
1070
     1
1002
}
  0
DIMENSION
  5
3E9
330
1F
100
AcDbEntity
  8
寸法
370
    18
100
AcDbDimension
  2
*D8
 10
666.196897887793
 20
1223.54933009107
 30
0.0
 11
670.6307921832076
 21
1180.865089382844
 31
0.0
 70
   160
 71
     5
 42
15.0
  3
ISO-25
100
AcDbAlignedDimension
 13
809.3722126116663
 23
1238.54933009107
 33
0.0
 14
809.3722126116663
 24
1223.54933009107
 34
0.0
 50
90.0
100
AcDbRotatedDimension
1001
ACAD
1000
DSTYLE
1002
{
1070
    41
1040
25.0
1070
   371
1070
    18
1070
   279
1070
     1
1002
}
  0
DIMENSION
  5
3F6
330
1F
100
AcDbEntity
  8
寸法
100
AcDbDimension
  2
*D9
 10
597.3569995631087
 20
1223.54933009107
 30
0.0
 11
578.6069995631086
 21
1458.54933009107
 31
0.0
 70
    32
 71
     5
 42
470.0
  3
ISO-25
100
AcDbAlignedDimension
 13
809.3722126116663
 23
1693.54933009107
 33
0.0
 14
809.3722126116663
 24
1223.54933009107
 34
0.0
 50
90.0
100
AcDbRotatedDimension
1001
ACAD
1000
DSTYLE
1002
{
1070
    41
1040
25.0
1070
   371
1070
    18
1002
}
  0
TEXT
  5
43C
330
1F
100
AcDbEntity
  8
寸法
370
    18
100
AcDbText
 10
670.6307921832076
 20
1718.800503030396
 30
0.0
 40
25.0
  1
15
 50
90.0
100
AcDbText
  0
DIMENSION
  5
43D
330
1F
100
AcDbEntity
  8
寸法
100
AcDbDimension
  2
*D10
 10
824.3722126116663
 20
1075.617212321016
 30
0.0
 11
883.8722126116662
 21
1075.617212321016
 31
0.0
 70
   160
  1
 
 71
     5
 42
15.0
  3
ISO-25
100
AcDbAlignedDimension
 13
809.3722126116663
 23
1223.54933009107
 33
0.0
 14
824.3722126116663
 24
1223.54933009107
 34
0.0
100
AcDbRotatedDimension
1001
ACAD
1000
DSTYLE
1002
{
1070
    41
1040
25.0
1070
   371
1070
    18
1002
}
  0
DIMENSION
  5
44B
330
1F
100
AcDbEntity
  8
寸法
100
AcDbDimension
  2
*D11
 10
1184.372212611666
 20
1075.617212321016
 30
0.0
 11
1004.372212611666
 21
1094.367212321015
 31
0.0
 70
    32
 71
     5
 42
360.0
  3
ISO-25
100
AcDbAlignedDimension
 13
824.3722126116663
 23
1223.54933009107
 33
0.0
 14
1184.372212611666
 24
1223.54933009107
 34
0.0
100
AcDbRotatedDimension
1001
ACAD
1000
DSTYLE
1002
{
1070
    41
1040
25.0
1070
   371
1070
    18
1070
   279
1070
     1
1002
}
  0
DIMENSION
  5
458
330
1F
100
AcDbEntity
  8
寸法
100
AcDbDimension
  2
*D12
 10
1199.372212611666
 20
1075.617212321016
 30
0.0
 11
1191.872212611666
 21
1075.617212321016
 31
0.0
 70
    32
  1
 
 71
     5
 42
15.0
  3
ISO-25
100
AcDbAlignedDimension
 13
1184.372212611666
 23
1223.54933009107
 33
0.0
 14
1199.372212611666
 24
1223.54933009107
 34
0.0
100
AcDbRotatedDimension
1001
ACAD
1000
DSTYLE
1002
{
1070
    41
1040
25.0
1070
   371
1070
    18
1070
   279
1070
     1
1002
}
  0
TEXT
  5
494
330
1F
100
AcDbEntity
  8
寸法
100
AcDbText
 10
750.7739961654506
 20
1077.905209955411
 30
0.0
 40
25.0
  1
15
100
AcDbText
  0
TEXT
  5
495
330
1F
100
AcDbEntity
  8
寸法
370
    18
100
AcDbText
 10
1222.63567265826
 20
1077.905209955411
 30
0.0
 40
25.0
  1
15
100
AcDbText
  0
DIMENSION
  5
4A3
330
1F
100
AcDbEntity
  8
寸法
100
AcDbDimension
  2
*D13
 10
1199.372212611666
 20
997.8253021651463
 30
0.0
 11
1004.372212611666
 21
1016.575302165146
 31
0.0
 70
    32
 71
     5
 42
390.0
  3
ISO-25
100
AcDbAlignedDimension
 13
809.3722126116663
 23
1223.54933009107
 33
0.0
 14
1199.372212611666
 24
1223.54933009107
 34
0.0
100
AcDbRotatedDimension
1001
ACAD
1000
DSTYLE
1002
{
1070
    41
1040
25.0
1070
   371
1070
    18
1002
}
  0
DIMENSION
  5
4F8
330
1F
100
AcDbEntity
  8
寸法
100
AcDbDimension
  2
*D14
 10
978.3722126116662
 20
462.1219227899973
 30
0.0
 11
934.3722126116663
 21
480.8719227899973
 31
0.0
 70
    32
 71
     5
 42
88.0
  3
ISO-25
100
AcDbAlignedDimension
 13
890.3722126116663
 23
578.5493300910702
 33
0.0
 14
978.3722126116662
 24
578.5493300910702
 34
0.0
100
AcDbRotatedDimension
1001
ACAD
1000
DSTYLE
1002
{
1070
    41
1040
25.0
1070
   371
1070
    18
1002
}
  0
DIMENSION
  5
505
330
1F
100
AcDbEntity
  8
寸法
100
AcDbDimension
  2
*D15
 10
992.3722126116663
 20
402.1625242210684
 30
0.0
 11
934.3722126116663
 21
420.9125242210684
 31
0.0
 70
    32
 71
     5
 42
116.0
  3
ISO-25
100
AcDbAlignedDimension
 13
876.3722126116663
 23
578.5493300910702
 33
0.0
 14
992.3722126116663
 24
578.5493300910702
 34
0.0
100
AcDbRotatedDimension
1001
ACAD
1000
DSTYLE
1002
{
1070
    41
1040
25.0
1070
   371
1070
    18
1002
}
  0
DIMENSION
  5
569
330
1F
100
AcDbEntity
  8
寸法
100
AcDbDimension
  2
*D16
 10
2117.327808119239
 20
1414.54933009107
 30
0.0
 11
2098.577808119239
 21
1458.54933009107
 31
0.0
 70
    32
 71
     5
 42
88.0
  3
ISO-25
100
AcDbAlignedDimension
 13
2007.021664027319
 23
1502.54933009107
 33
0.0
 14
2007.021664027319
 24
1414.54933009107
 34
0.0
 50
90.0
100
AcDbRotatedDimension
1001
ACAD
1000
DSTYLE
1002
{
1070
    41
1040
25.0
1070
   371
1070
    18
1002
}
  0
DIMENSION
  5
57F
330
1F
100
AcDbEntity
  8
寸法
100
AcDbDimension
  2
*D17
 10
2182.249396084081
 20
1400.54933009107
 30
0.0
 11
2163.49939608408
 21
1458.54933009107
 31
0.0
 70
    32
 71
     5
 42
116.0
  3
ISO-25
100
AcDbAlignedDimension
 13
2007.021664027319
 23
1516.54933009107
 33
0.0
 14
2007.021664027319
 24
1400.54933009107
 34
0.0
 50
90.0
100
AcDbRotatedDimension
1001
ACAD
1000
DSTYLE
1002
{
1070
    41
1040
25.0
1070
   371
1070
    18
1002
}
  0
LEADER
  5
7CF
330
1F
100
AcDbEntity
  8
0
100
AcDbLeader
  3
ISO-25
 40
25.0
 41
16.66666666666666
 76
     2
 10
947.2609181398128
 20
1246.772308501991
 30
0.0
 10
981.4204481507696
 20
1289.094176881154
 30
0.0
213
0.0
223
-12.5
233
0.0
1001
ACAD
1000
DSTYLE
1002
{
1070
    41
1040
25.0
1070
   147
1040
6.25
1070
    77
1070
     0
1070
    73
1070
     1
1070
    74
1070
     1
1070
   279
1070
     1
1070
   342
1005
DA
1002
}
  0
LEADER
  5
7D0
330
1F
100
AcDbEntity
  8
0
100
AcDbLeader
  3
ISO-25
 40
25.0
 41
16.66666666666666
 76
     2
 10
1176.730660069422
 20
1497.687379678304
 30
0.0
 10
1120.79132338234
 20
1553.947170700053
 30
0.0
213
0.0
223
-12.5
233
0.0
1001
ACAD
1000
DSTYLE
1002
{
1070
    41
1040
25.0
1070
   147
1040
6.25
1070
    77
1070
     0
1070
    73
1070
     1
1070
    74
1070
     1
1070
   279
1070
     1
1070
   342
1005
DA
1002
}
  0
LEADER
  5
7D1
330
1F
100
AcDbEntity
  8
0
100
AcDbLeader
  3
ISO-25
 40
25.0
 41
16.66666666666666
 76
     2
 10
1148.11894395628
 20
1295.920286834601
 30
0.0
 10
1105.761131207966
 20
1354.624816245135
 30
0.0
213
0.0
223
-12.5
233
0.0
1001
ACAD
1000
DSTYLE
1002
{
1070
    41
1040
25.0
1070
   147
1040
6.25
1070
    77
1070
     0
1070
    73
1070
     1
1070
    74
1070
     1
1070
   279
1070
     1
1070
   342
1005
DA
1002
}
  0
LEADER
  5
7D2
330
1F
100
AcDbEntity
  8
0
100
AcDbLeader
  3
ISO-25
 40
25.0
 41
16.66666666666666
 76
     2
 10
1168.014562726198
 20
618.2986403071035
 30
0.0
 10
1120.076064431147
 20
648.7808620715586
 30
0.0
213
0.0
223
-12.5
233
0.0
1001
ACAD
1000
DSTYLE
1002
{
1070
    41
1040
25.0
1070
   147
1040
6.25
1070
    77
1070
     0
1070
    73
1070
     1
1070
    74
1070
     1
1070
   279
1070
     1
1070
   342
1005
DA
1002
}
  0
LEADER
  5
7D3
330
1F
100
AcDbEntity
  8
0
100
AcDbLeader
  3
ISO-25
 40
25.0
 41
16.66666666666666
 76
     2
 10
1974.370812071733
 20
1256.248013964324
 30
0.0
 10
1937.327433395007
 20
1293.262137702476
 30
0.0
213
0.0
223
-12.5
233
0.0
1001
ACAD
1000
DSTYLE
1002
{
1070
    41
1040
25.0
1070
   147
1040
6.25
1070
    77
1070
     0
1070
    73
1070
     1
1070
    74
1070
     1
1070
   279
1070
     1
1070
   342
1005
DA
1002
}
  0
TEXT
  5
8C9
330
1F
100
AcDbEntity
  8
0
100
AcDbText
 10
249.2632881086038
 20
83.52862940911927
 30
0.0
 40
30.0
  1
※実寸には製造上の誤差が多少生ずる場合があります。シンクの穴あけ加工は現物合わせにてお願いします。
100
AcDbText
  0
LINE
  5
F27
330
1F
100
AcDbEntity
  8
実形
100
AcDbLine
 10
809.3722126116663
 20
778.5493300910702
 30
0.0
 11
1199.372212611666
 21
778.5493300910702
 31
0.0
  0
ARC
  5
1202
330
1F
100
AcDbEntity
  8
実形
100
AcDbCircle
 10
1004.372212611666
 20
1698.54933009107
 30
0.0
 40
460.0
100
AcDbArc
 50
259.2202061986661
 51
280.7797938013339
  0
ARC
  5
1203
330
1F
100
AcDbEntity
  8
実形
100
AcDbCircle
 10
1004.372212611666
 20
1218.54933009107
 30
0.0
 40
460.0
100
AcDbArc
 50
79.22020619866614
 51
100.7797938013339
  0
ARC
  5
1205
330
1F
100
AcDbEntity
  8
実形
100
AcDbCircle
 10
2124.372212611666
 20
1458.54933009107
 30
0.0
 40
1300.0
100
AcDbArc
 50
174.9947651088417
 51
185.0052348911583
  0
ARC
  5
1206
330
1F
100
AcDbEntity
  8
実形
100
AcDbCircle
 10
-115.6277873883337
 20
1458.54933009107
 30
0.0
 40
1300.0
100
AcDbArc
 50
354.9947651088417
 51
5.005234891158308
  0
ARC
  5
1207
330
1F
100
AcDbEntity
  8
実形
100
AcDbCircle
 10
1069.834422328653
 20
1562.372975437008
 30
0.0
 40
110.0
100
AcDbArc
 50
5.005234891158346
 51
79.22020619866618
  0
ARC
  5
1208
330
1F
100
AcDbEntity
  8
実形
100
AcDbCircle
 10
1069.834422328653
 20
1354.725684745132
 30
0.0
 40
110.0
100
AcDbArc
 50
280.7797938013339
 51
354.9947651088413
  0
ARC
  5
1209
330
1F
100
AcDbEntity
  8
実形
100
AcDbCircle
 10
938.9100028946796
 20
1354.725684745132
 30
0.0
 40
110.0
100
AcDbArc
 50
185.0052348911581
 51
259.2202061986659
  0
ARC
  5
120A
330
1F
100
AcDbEntity
  8
実形
100
AcDbCircle
 10
938.9100028946796
 20
1562.372975437008
 30
0.0
 40
110.0
100
AcDbArc
 50
100.7797938013339
 51
174.9947651088418
  0
ARC
  5
120B
330
1F
100
AcDbEntity
  8
実形
100
AcDbCircle
 10
1004.372212611666
 20
1218.54933009107
 30
0.0
 40
475.0
100
AcDbArc
 50
79.22020619866614
 51
100.7797938013339
  0
ARC
  5
120C
330
1F
100
AcDbEntity
  8
実形
100
AcDbCircle
 10
1069.834422328653
 20
1562.372975437008
 30
0.0
 40
125.0
100
AcDbArc
 50
5.005234891158346
 51
79.22020619866618
  0
ARC
  5
120E
330
1F
100
AcDbEntity
  8
実形
100
AcDbCircle
 10
-115.6277873883337
 20
1458.54933009107
 30
0.0
 40
1315.0
100
AcDbArc
 50
354.9947651088417
 51
5.005234891158308
  0
ARC
  5
120F
330
1F
100
AcDbEntity
  8
実形
100
AcDbCircle
 10
1069.834422328653
 20
1354.725684745132
 30
0.0
 40
125.0
100
AcDbArc
 50
280.7797938013339
 51
354.9947651088413
  0
ARC
  5
1210
330
1F
100
AcDbEntity
  8
実形
100
AcDbCircle
 10
1004.372212611666
 20
1698.54933009107
 30
0.0
 40
475.0
100
AcDbArc
 50
259.2202061986661
 51
280.7797938013339
  0
ARC
  5
1211
330
1F
100
AcDbEntity
  8
実形
100
AcDbCircle
 10
938.9100028946796
 20
1354.725684745132
 30
0.0
 40
125.0
100
AcDbArc
 50
185.0052348911581
 51
259.2202061986659
  0
ARC
  5
1212
330
1F
100
AcDbEntity
  8
実形
100
AcDbCircle
 10
2124.372212611666
 20
1458.54933009107
 30
0.0
 40
1315.0
100
AcDbArc
 50
174.9947651088417
 51
185.0052348911583
  0
ARC
  5
1213
330
1F
100
AcDbEntity
  8
実形
100
AcDbCircle
 10
938.9100028946796
 20
1562.372975437008
 30
0.0
 40
125.0
100
AcDbArc
 50
100.7797938013339
 51
174.9947651088418
  0
LINE
  5
1238
330
1F
100
AcDbEntity
  8
実形
100
AcDbLine
 10
1199.372212611666
 20
778.5493300910702
 30
0.0
 11
809.3722126116663
 21
778.5493300910702
 31
0.0
  0
LINE
  5
1239
330
1F
100
AcDbEntity
  8
実形
100
AcDbLine
 10
824.3722126116663
 20
778.5493300910702
 30
0.0
 11
824.3722126116663
 21
626.1186973089198
 31
0.0
  0
LINE
  5
123A
330
1F
100
AcDbEntity
  8
実形
100
AcDbLine
 10
846.057393072601
 20
597.2939895734929
 30
0.0
 11
876.3722126116663
 21
588.5493300910702
 31
0.0
  0
LINE
  5
123B
330
1F
100
AcDbEntity
  8
実形
100
AcDbLine
 10
876.3722126116663
 20
588.5493300910702
 30
0.0
 11
876.3722126116663
 21
578.5493300910702
 31
0.0
  0
LINE
  5
123C
330
1F
100
AcDbEntity
  8
実形
100
AcDbLine
 10
876.3722126116663
 20
578.5493300910702
 30
0.0
 11
992.3722126116663
 21
578.5493300910702
 31
0.0
  0
LINE
  5
123D
330
1F
100
AcDbEntity
  8
実形
100
AcDbLine
 10
992.3722126116663
 20
578.5493300910702
 30
0.0
 11
992.3722126116663
 21
588.5493300910702
 31
0.0
  0
LINE
  5
123E
330
1F
100
AcDbEntity
  8
実形
100
AcDbLine
 10
992.3722126116663
 20
588.5493300910702
 30
0.0
 11
876.3722126116663
 21
588.5493300910702
 31
0.0
  0
LINE
  5
123F
330
1F
100
AcDbEntity
  8
実形
100
AcDbLine
 10
992.3722126116663
 20
588.5493300910702
 30
0.0
 11
1156.708842630453
 21
601.388129311288
 31
0.0
  0
LINE
  5
1240
330
1F
100
AcDbEntity
  8
実形
100
AcDbLine
 10
1184.372212611666
 20
631.2969935517653
 30
0.0
 11
1184.372212611666
 21
778.5493300910702
 31
0.0
  0
ARC
  5
1241
330
1F
100
AcDbEntity
  8
実形
100
AcDbCircle
 10
1154.372212611666
 20
631.2969935517653
 30
0.0
 40
30.0
100
AcDbArc
 50
274.4671590613892
 51
0.0
  0
ARC
  5
1242
330
1F
100
AcDbEntity
  8
実形
100
AcDbCircle
 10
854.3722126116664
 20
626.1186973089198
 30
0.0
 40
30.0
100
AcDbArc
 50
180.0
 51
253.9091836511478
  0
LINE
  5
12A9
330
1F
100
AcDbEntity
  8
実形
100
AcDbLine
 10
1807.021664027319
 20
1693.54933009107
 30
0.0
 11
1807.021664027319
 21
1223.54933009107
 31
0.0
  0
LINE
  5
12AA
330
1F
100
AcDbEntity
  8
実形
100
AcDbLine
 10
1807.021664027319
 20
1238.54933009107
 30
0.0
 11
1954.671115442972
 21
1238.54933009107
 31
0.0
  0
LINE
  5
12AB
330
1F
100
AcDbEntity
  8
実形
100
AcDbLine
 10
1984.54333566465
 20
1265.783383774248
 30
0.0
 11
1997.021664027319
 21
1400.54933009107
 31
0.0
  0
LINE
  5
12AC
330
1F
100
AcDbEntity
  8
実形
100
AcDbLine
 10
1997.021664027319
 20
1400.54933009107
 30
0.0
 11
2007.021664027319
 21
1400.54933009107
 31
0.0
  0
LINE
  5
12AD
330
1F
100
AcDbEntity
  8
実形
100
AcDbLine
 10
2007.021664027319
 20
1400.54933009107
 30
0.0
 11
2007.021664027319
 21
1516.54933009107
 31
0.0
  0
LINE
  5
12AE
330
1F
100
AcDbEntity
  8
実形
100
AcDbLine
 10
2007.021664027319
 20
1516.54933009107
 30
0.0
 11
1997.021664027319
 21
1516.54933009107
 31
0.0
  0
LINE
  5
12AF
330
1F
100
AcDbEntity
  8
実形
100
AcDbLine
 10
1997.021664027319
 20
1516.54933009107
 30
0.0
 11
1997.021664027319
 21
1400.54933009107
 31
0.0
  0
LINE
  5
12B0
330
1F
100
AcDbEntity
  8
実形
100
AcDbLine
 10
1807.021664027319
 20
1678.54933009107
 30
0.0
 11
1954.671115442971
 21
1678.54933009107
 31
0.0
  0
LINE
  5
12B1
330
1F
100
AcDbEntity
  8
実形
100
AcDbLine
 10
1984.54333566465
 20
1651.315276407892
 30
0.0
 11
1997.021664027319
 21
1516.54933009107
 31
0.0
  0
ARC
  5
12B2
330
1F
100
AcDbEntity
  8
実形
100
AcDbCircle
 10
1954.671115442971
 20
1648.54933009107
 30
0.0
 40
30.0
100
AcDbArc
 50
5.290081205371282
 51
90.0
  0
ARC
  5
12B3
330
1F
100
AcDbEntity
  8
実形
100
AcDbCircle
 10
1954.671115442972
 20
1268.54933009107
 30
0.0
 40
30.0
100
AcDbArc
 50
270.0
 51
354.7099187946287
  0
LINE
  5
142B
330
1F
100
AcDbEntity
  8
センター
 48
0.45
370
    15
100
AcDbLine
 10
1887.521926724939
 20
1458.54933009107
 30
0.0
 11
2048.113454092217
 21
1458.54933009107
 31
0.0
  0
LINE
  5
1453
330
1F
100
AcDbEntity
  8
センター
100
AcDbLine
 10
1807.021664027319
 20
1486.04933009107
 30
0.0
 11
1807.021664027319
 21
1313.89368934848
 31
0.0
  0
TEXT
  5
17A0
330
1F
100
AcDbEntity
  8
補助
100
AcDbText
 10
2086.666666666667
 20
84.0
 30
0.0
 40
35.0
  1
尺度
 72
     4
 11
2124.0
 21
101.5
 31
0.0
100
AcDbText
  0
TEXT
  5
17A1
330
1F
100
AcDbEntity
  8
補助
100
AcDbText
 10
2086.666666666667
 20
149.0
 30
0.0
 40
35.0
  1
品番
 72
     4
 11
2124.0
 21
166.5
 31
0.0
100
AcDbText
  0
LINE
  5
17A2
330
1F
100
AcDbEntity
  8
補助
100
AcDbLine
 10
2064.0
 20
69.0
 30
0.0
 11
2784.0
 21
69.0
 31
0.0
  0
LINE
  5
17A3
330
1F
100
AcDbEntity
  8
補助
100
AcDbLine
 10
2064.0
 20
199.0
 30
0.0
 11
2784.0
 21
199.0
 31
0.0
  0
LINE
  5
17A4
330
1F
100
AcDbEntity
  8
補助
100
AcDbLine
 10
2064.0
 20
134.0
 30
0.0
 11
2784.0
 21
134.0
 31
0.0
  0
LINE
  5
17A5
330
1F
100
AcDbEntity
  8
補助
100
AcDbLine
 10
2064.0
 20
4.0
 30
0.0
 11
2064.0
 21
199.0
 31
0.0
  0
TEXT
  5
17A6
330
1F
100
AcDbEntity
  8
補助
100
AcDbText
 10
2300.255774665348
 20
16.49999999999999
 30
0.0
 40
40.0
  1
中外交易株式会社
 72
     4
 11
2488.255774665347
 21
36.5
 31
0.0
100
AcDbText
  0
TEXT
  5
17A7
330
1F
100
AcDbEntity
  8
0
100
AcDbText
 10
2271.666666666666
 20
149.0
 30
0.0
 40
35.0
  1
A１m/m 360-440
 72
     4
 11
2484.0
 21
166.5
 31
0.0
100
AcDbText
  0
LINE
  5
17A8
330
1F
100
AcDbEntity
  8
補助
100
AcDbLine
 10
2184.0
 20
69.0
 30
0.0
 11
2784.0
 21
69.0
 31
0.0
  0
LINE
  5
17A9
102
{ACAD_REACTORS
330
17B6
102
}
330
1F
100
AcDbEntity
  8
補助
370
     5
100
AcDbLine
 10
2207.843923164362
 20
40.53787547858519
 30
0.0
 11
2183.255774665347
 21
40.53787547858519
 31
0.0
  0
LINE
  5
17AA
102
{ACAD_REACTORS
330
17B6
102
}
330
1F
100
AcDbEntity
  8
補助
370
     5
100
AcDbLine
 10
2183.255774665347
 20
40.53787547858519
 30
0.0
 11
2183.255774665347
 21
30.53787547858519
 31
0.0
  0
LINE
  5
17AB
102
{ACAD_REACTORS
330
17B6
102
}
330
1F
100
AcDbEntity
  8
補助
370
     5
100
AcDbLine
 10
2183.255774665347
 20
30.53787547858519
 30
0.0
 11
2207.346428692676
 21
30.53787547858514
 31
0.0
  0
LINE
  5
17AC
102
{ACAD_REACTORS
330
17B6
102
}
330
1F
100
AcDbEntity
  8
補助
370
     5
100
AcDbLine
 10
2210.641894042939
 20
56.5
 30
0.0
 11
2210.641894042939
 21
16.5
 31
0.0
  0
LINE
  5
17AD
102
{ACAD_REACTORS
330
17B6
102
}
330
1F
100
AcDbEntity
  8
補助
370
     5
100
AcDbLine
 10
2210.641894042939
 20
16.5
 30
0.0
 11
2245.64189404294
 21
16.5
 31
0.0
  0
LINE
  5
17AE
102
{ACAD_REACTORS
330
17B6
102
}
330
1F
100
AcDbEntity
  8
補助
370
     5
100
AcDbLine
 10
2245.64189404294
 20
16.5
 30
0.0
 11
2210.641894042939
 21
36.5
 31
0.0
  0
LINE
  5
17AF
102
{ACAD_REACTORS
330
17B6
102
}
330
1F
100
AcDbEntity
  8
補助
370
     5
100
AcDbLine
 10
2210.641894042939
 20
36.5
 30
0.0
 11
2245.64189404294
 21
56.5
 31
0.0
  0
LINE
  5
17B0
102
{ACAD_REACTORS
330
17B6
102
}
330
1F
100
AcDbEntity
  8
補助
370
     5
100
AcDbLine
 10
2245.64189404294
 20
56.5
 30
0.0
 11
2210.641894042939
 21
56.5
 31
0.0
  0
LINE
  5
17B1
102
{ACAD_REACTORS
330
17B6
102
}
330
1F
100
AcDbEntity
  8
補助
370
     5
100
AcDbLine
 10
2276.75434681301
 20
40.53787547858519
 30
0.0
 11
2252.166198313995
 21
40.53787547858519
 31
0.0
  0
LINE
  5
17B2
102
{ACAD_REACTORS
330
17B6
102
}
330
1F
100
AcDbEntity
  8
補助
370
     5
100
AcDbLine
 10
2252.166198313995
 20
40.53787547858519
 30
0.0
 11
2252.166198313995
 21
30.53787547858519
 31
0.0
  0
LINE
  5
17B3
102
{ACAD_REACTORS
330
17B6
102
}
330
1F
100
AcDbEntity
  8
補助
370
     5
100
AcDbLine
 10
2252.166198313995
 20
30.53787547858519
 30
0.0
 11
2276.256852341323
 21
30.53787547858514
 31
0.0
  0
ARC
  5
17B4
102
{ACAD_REACTORS
330
17B6
102
}
330
1F
100
AcDbEntity
  8
補助
370
     5
100
AcDbCircle
 10
2188.255774665348
 20
36.5
 30
0.0
 40
20.0
100
AcDbArc
 50
11.6477236670758
 51
342.6561058784832
  0
ARC
  5
17B5
102
{ACAD_REACTORS
330
17B6
102
}
330
1F
100
AcDbEntity
  8
補助
370
     5
100
AcDbCircle
 10
2257.166198313996
 20
36.5
 30
0.0
 40
20.0
100
AcDbArc
 50
11.6477236670758
 51
342.6561058784832
  0
HATCH
  5
17B6
330
1F
100
AcDbEntity
  8
補助
100
AcDbHatch
 10
0.0
 20
0.0
 30
0.0
210
0.0
220
0.0
230
1.0
  2
SOLID
 70
     1
 71
     1
 91
        3
 92
        1
 93
        4
 72
     2
 10
2257.166198313996
 20
36.5
 40
20.0
 50
11.6477236670758
 51
342.6561058784832
 73
     1
 72
     1
 10
2276.256852341323
 20
30.53787547858514
 11
2252.166198313995
 21
30.53787547858519
 72
     1
 10
2252.166198313995
 20
30.53787547858519
 11
2252.166198313995
 21
40.53787547858519
 72
     1
 10
2252.166198313995
 20
40.53787547858519
 11
2276.75434681301
 21
40.53787547858519
 97
        4
330
17B5
330
17B3
330
17B2
330
17B1
 92
        1
 93
        4
 72
     2
 10
2188.255774665348
 20
36.5
 40
20.0
 50
11.6477236670758
 51
342.6561058784832
 73
     1
 72
     1
 10
2207.346428692676
 20
30.53787547858514
 11
2183.255774665347
 21
30.53787547858519
 72
     1
 10
2183.255774665347
 20
30.53787547858519
 11
2183.255774665347
 21
40.53787547858519
 72
     1
 10
2183.255774665347
 20
40.53787547858519
 11
2207.843923164362
 21
40.53787547858519
 97
        4
330
17B4
330
17AB
330
17AA
330
17A9
 92
        1
 93
        5
 72
     1
 10
2245.64189404294
 20
56.5
 11
2210.641894042939
 21
56.5
 72
     1
 10
2210.641894042939
 20
56.5
 11
2210.641894042939
 21
16.5
 72
     1
 10
2210.641894042939
 20
16.5
 11
2245.64189404294
 21
16.5
 72
     1
 10
2245.64189404294
 20
16.5
 11
2210.641894042939
 21
36.5
 72
     1
 10
2210.641894042939
 20
36.5
 11
2245.64189404294
 21
56.5
 97
        5
330
17B0
330
17AC
330
17AD
330
17AE
330
17AF
 75
     0
 76
     1
 98
        1
 10
-60.0
 20
0.0
  0
LINE
  5
17B7
330
1F
100
AcDbEntity
  8
補助
100
AcDbLine
 10
2184.0
 20
69.0
 30
0.0
 11
2184.0
 21
199.0
 31
0.0
  0
TEXT
  5
17B8
330
1F
100
AcDbEntity
  8
0
100
AcDbText
 10
2430.916666666667
 20
84.0
 30
0.0
 40
35.0
  1
1：10
 72
     4
 11
2484.0
 21
101.5
 31
0.0
100
AcDbText
  0
LINE
  5
17B9
330
1F
100
AcDbEntity
  8
補助
100
AcDbLine
 10
2784.0
 20
69.0
 30
0.0
 11
2784.0
 21
134.0
 31
0.0
  0
LINE
  5
17BA
330
1F
100
AcDbEntity
  8
補助
100
AcDbLine
 10
2784.0
 20
134.0
 30
0.0
 11
2784.0
 21
199.0
 31
0.0
  0
LINE
  5
17BB
330
1F
100
AcDbEntity
  8
補助
100
AcDbLine
 10
2784.0
 20
4.0
 30
0.0
 11
2784.0
 21
69.0
 31
0.0
  0
LINE
  5
1974
330
1F
100
AcDbEntity
  8
実形
100
AcDbLine
 10
702.0083418411784
 20
778.5493300910701
 30
0.0
 11
581.8041109700106
 21
778.5493300910702
 31
0.0
  0
LINE
  5
1975
330
1F
100
AcDbEntity
  8
実形
100
AcDbLine
 10
702.0083418411784
 20
588.5493300910702
 30
0.0
 11
581.8041109700106
 21
588.5493300910703
 31
0.0
  0
LINE
  5
1976
330
1F
100
AcDbEntity
  8
実形
100
AcDbLine
 10
702.0083418411785
 20
578.5493300910702
 30
0.0
 11
648.8041109700105
 21
578.5493300910702
 31
0.0
  0
TEXT
  5
1977
330
1F
100
AcDbEntity
  8
寸法
 62
     0
370
    18
100
AcDbText
 10
568.5127834428321
 20
647.2698330042285
 30
0.0
 40
25.0
  1
190
 50
90.0
100
AcDbText
  0
LINE
  5
1978
330
1F
100
AcDbEntity
  8
実形
100
AcDbLine
 10
581.8041109700106
 20
778.5493300910702
 30
0.0
 11
581.8041109700106
 21
588.5493300910702
 31
0.0
  0
TEXT
  5
1979
330
1F
100
AcDbEntity
  8
寸法
 62
     0
370
    18
100
AcDbText
 10
580.3495825401048
 20
776.9492394807794
 30
0.0
 40
3.0
  1
●
100
AcDbText
  0
TEXT
  5
197A
330
1F
100
AcDbEntity
  8
寸法
 62
     0
370
    18
100
AcDbText
 10
580.4195393607012
 20
587.0196735628951
 30
0.0
 40
3.0
  1
●
100
AcDbText
  0
TEXT
  5
197B
330
1F
100
AcDbEntity
  8
寸法
 62
     0
370
    18
100
AcDbText
 10
629.3424699288082
 20
592.8165612008488
 30
0.0
 40
25.0
  1
15
 50
90.0
100
AcDbText
  0
LINE
  5
197C
330
1F
100
AcDbEntity
  8
実形
 62
     0
100
AcDbLine
 10
702.0083418411784
 20
603.5493300910701
 30
0.0
 11
648.8041109700105
 21
603.54933009107
 31
0.0
  0
LINE
  5
197D
330
1F
100
AcDbEntity
  8
実形
 62
     0
100
AcDbLine
 10
648.8041109700105
 20
603.5493300910699
 30
0.0
 11
648.8041109700105
 21
588.5493300910702
 31
0.0
  0
TEXT
  5
197E
330
1F
100
AcDbEntity
  8
寸法
 62
     0
370
    18
100
AcDbText
 10
647.4497499450214
 20
587.2614502169471
 30
0.0
 40
3.0
  1
●
100
AcDbText
  0
TEXT
  5
197F
330
1F
100
AcDbEntity
  8
寸法
 62
     0
370
    18
100
AcDbText
 10
647.3159708632108
 20
602.2385594757724
 30
0.0
 40
3.0
  1
●
100
AcDbText
  0
LINE
  5
1980
330
1F
100
AcDbEntity
  8
実形
100
AcDbLine
 10
648.8041109700105
 20
588.5493300910702
 30
0.0
 11
648.8041109700105
 21
578.5493300910702
 31
0.0
  0
TEXT
  5
1981
330
1F
100
AcDbEntity
  8
寸法
 62
     0
370
    18
100
AcDbText
 10
647.4040274637907
 20
577.0959341747275
 30
0.0
 40
3.0
  1
●
100
AcDbText
  0
TEXT
  5
1982
330
1F
100
AcDbEntity
  8
寸法
 62
     0
370
    18
100
AcDbText
 10
628.9237451248139
 20
557.1999547740715
 30
0.0
 40
25.0
  1
7
 50
90.0
100
AcDbText
  0
LINE
  5
1983
330
1F
100
AcDbEntity
  8
実形
100
AcDbLine
 10
702.0083418411786
 20
588.5493300910702
 30
0.0
 11
581.8041109700106
 21
588.5493300910703
 31
0.0
  0
DIMENSION
  5
19A7
330
1F
100
AcDbEntity
  8
寸法
100
AcDbDimension
  2
*D18
 10
1982.021664027319
 20
1085.155376226058
 30
0.0
 11
1989.521664027319
 21
1085.155376226058
 31
0.0
 70
    32
  1
 
 71
     5
 42
15.0
  3
ISO-25
100
AcDbAlignedDimension
 13
1997.021664027319
 23
1206.062110263493
 33
0.0
 14
1982.021664027319
 24
1206.062110263493
 34
0.0
100
AcDbRotatedDimension
1001
ACAD
1000
DSTYLE
1002
{
1070
    41
1040
25.0
1070
   371
1070
    18
1002
}
  0
DIMENSION
  5
19A8
330
1F
100
AcDbEntity
  8
寸法
100
AcDbDimension
  2
*D19
 10
1807.021664027319
 20
1021.783689327016
 30
0.0
 11
1902.021664027319
 21
1040.533689327016
 31
0.0
 70
    32
 71
     5
 42
190.0
  3
ISO-25
100
AcDbAlignedDimension
 13
1997.021664027319
 23
1182.768149043056
 33
0.0
 14
1807.021664027319
 24
1204.361485972281
 34
0.0
100
AcDbRotatedDimension
1001
ACAD
1000
DSTYLE
1002
{
1070
    41
1040
25.0
1070
   371
1070
    18
1002
}
  0
TEXT
  5
19A9
330
1F
100
AcDbEntity
  8
寸法
370
    18
100
AcDbText
 10
1933.201766141002
 20
1097.390549008875
 30
0.0
 40
25.0
  1
15
100
AcDbText
  0
TEXT
  5
19AA
330
1F
100
AcDbEntity
  8
寸法
370
    18
100
AcDbText
 10
2016.892402266692
 20
1096.140268406838
 30
0.0
 40
25.0
  1
7
100
AcDbText
  0
LINE
  5
19AB
330
1F
100
AcDbEntity
  8
実形
100
AcDbLine
 10
1997.021664027319
 20
1085.155376226058
 30
0.0
 11
1997.021664027319
 21
1141.062110263493
 31
0.0
  0
LINE
  5
19AC
330
1F
100
AcDbEntity
  8
実形
100
AcDbLine
 10
1997.021664027319
 20
1085.155376226058
 30
0.0
 11
2007.021664027319
 21
1085.155376226058
 31
0.0
  0
LINE
  5
19AD
330
1F
100
AcDbEntity
  8
実形
100
AcDbLine
 10
2007.02166402732
 20
1141.062110263493
 30
0.0
 11
2007.02166402732
 21
1085.155376226058
 31
0.0
  0
TEXT
  5
19AE
330
1F
100
AcDbEntity
  8
寸法
 62
     0
370
    18
100
AcDbText
 10
2004.698105082536
 20
1082.740835435303
 30
0.0
 40
5.0
  1
●
100
AcDbText
  0
LINE
  5
1A2C
330
1F
100
AcDbEntity
  8
補助
100
AcDbLine
 10
2784.0
 20
1959.0
 30
0.0
 11
2019.387286519283
 21
1959.000000000001
 31
0.0
  0
LINE
  5
1A2D
330
1F
100
AcDbEntity
  8
補助
100
AcDbLine
 10
2784.0
 20
1894.0
 30
0.0
 11
2019.387286519283
 21
1894.0
 31
0.0
  0
LINE
  5
1A2E
330
1F
100
AcDbEntity
  8
補助
100
AcDbLine
 10
2202.547653420927
 20
1894.0
 30
0.0
 11
2202.547653420927
 21
2024.0
 31
0.0
  0
LINE
  5
1A2F
330
1F
100
AcDbEntity
  8
補助
100
AcDbLine
 10
2019.387286519283
 20
1894.0
 30
0.0
 11
2019.387286519283
 21
2024.0
 31
0.0
  0
TEXT
  5
1A30
330
1F
100
AcDbEntity
  8
補助
100
AcDbText
 10
2050.295698850121
 20
1976.328571428572
 30
0.0
 40
30.0
  1
部品名
  7
明朝
 72
     4
 11
2116.124270278692
 21
1991.5
 31
0.0
100
AcDbText
  0
TEXT
  5
1A31
330
1F
100
AcDbEntity
  8
補助
100
AcDbText
 10
2627.614285714286
 20
1976.071428571429
 30
0.0
 40
30.0
  1
厚さ
  7
明朝
 72
     4
 11
2671.5
 21
1991.5
 31
0.0
100
AcDbText
  0
LINE
  5
1A32
330
1F
100
AcDbEntity
  8
補助
100
AcDbLine
 10
2559.0
 20
1894.0
 30
0.0
 11
2559.0
 21
2024.0
 31
0.0
  0
TEXT
  5
1A33
330
1F
100
AcDbEntity
  8
補助
100
AcDbText
 10
2338.490869919937
 20
1975.947979478155
 30
0.0
 40
30.0
  1
材質
  7
明朝
 72
     4
 11
2382.376584205651
 21
1991.119408049583
 31
0.0
100
AcDbText
  0
TEXT
  5
1A34
330
1F
100
AcDbEntity
  8
実形
100
AcDbText
 10
2048.227810657788
 20
1910.557142857143
 30
0.0
 40
30.0
  1
ボウル
  7
明朝
 72
     4
 11
2114.056382086359
 21
1926.5
 31
0.0
100
AcDbText
  0
TEXT
  5
1A35
330
1F
100
AcDbEntity
  8
実形
100
AcDbText
 10
2594.700000000001
 20
1911.842857142857
 30
0.0
 40
30.0
  1
1.0ｍｍ
  7
明朝
 72
     4
 11
2671.500000000001
 21
1926.5
 31
0.0
100
AcDbText
  0
TEXT
  5
1A36
330
1F
100
AcDbEntity
  8
実形
100
AcDbText
 10
2261.016869107866
 20
1910.728571428572
 30
0.0
 40
30.0
  1
SUS304（BA）
  7
明朝
 72
     4
 11
2392.674011965008
 21
1926.5
 31
0.0
100
AcDbText
  0
LINE
  5
1A37
330
1F
100
AcDbEntity
  8
補助
100
AcDbLine
 10
126.0
 20
2024.0
 30
0.0
 11
126.0
 21
4.0
 31
0.0
  0
VIEWPORT
  5
2E
102
{ACAD_XDICTIONARY
360
1A70
102
}
330
1B
100
AcDbEntity
 67
     1
  8
0
100
AcDbViewport
 10
144.7270812988281
 20
101.2295806407928
 30
0.0
 40
411.6736216682419
 41
222.1517806396485
 68
     1
 69
     1
 12
144.7270812988281
 22
101.2295806407928
 13
0.0
 23
0.0
 14
10.0
 24
10.0
 15
10.0
 25
10.0
 16
0.0
 26
0.0
 36
1.0
 17
0.0
 27
0.0
 37
0.0
 42
50.0
 43
0.0
 44
0.0
 45
222.1517806396485
 50
0.0
 51
0.0
 72
   100
 90
    32800
  1

281
     0
 71
     1
 74
     0
110
0.0
120
0.0
130
0.0
111
1.0
121
0.0
131
0.0
112
0.0
122
1.0
132
0.0
 79
     0
146
0.0
  0
VIEWPORT
  5
30
102
{ACAD_XDICTIONARY
360
1A72
102
}
330
1B
100
AcDbEntity
 67
     1
  8
0
100
AcDbViewport
 10
139.2237563133239
 20
101.2295821905136
 30
0.0
 40
222.7580101013184
 41
161.9673315048218
 68
     2
 69
     2
 12
210.0
 22
148.5
 13
0.0
 23
0.0
 14
10.0
 24
10.0
 15
10.0
 25
10.0
 16
0.0
 26
0.0
 36
1.0
 17
0.0
 27
0.0
 37
0.0
 42
50.0
 43
0.0
 44
0.0
 45
309.0686705647124
 50
0.0
 51
0.0
 72
   100
 90
    32864
  1

281
     0
 71
     1
 74
     0
110
0.0
120
0.0
130
0.0
111
1.0
121
0.0
131
0.0
112
0.0
122
1.0
132
0.0
 79
     0
146
0.0
  0
ENDSEC
  0
SECTION
  2
OBJECTS
  0
DICTIONARY
  5
C
330
0
100
AcDbDictionary
281
     1
  3
ACAD_COLOR
350
182D
  3
ACAD_GROUP
350
D
  3
ACAD_LAYOUT
350
1A
  3
ACAD_MATERIAL
350
182C
  3
ACAD_MLINESTYLE
350
17
  3
ACAD_PLOTSETTINGS
350
19
  3
ACAD_PLOTSTYLENAME
350
E
  3
ACAD_TABLESTYLE
350
182E
  3
AcadDim
350
124
  3
ACDBHEADERROUNDTRIPXREC
350
1A69
  3
AcDbVariableDictionary
350
1858
  3
DWGPROPS
350
1A68
  0
DICTIONARY
  5
19F3
330
2
100
AcDbDictionary
280
     1
281
     1
  3
ACAD_LAYERFILTERS
360
19F5
  3
ACAD_LAYERSTATES
360
19F6
  3
ACLYDICTIONARY
360
19F4
  0
DICTIONARY
  5
1865
330
1F
100
AcDbDictionary
280
     1
281
     1
  3
ACAD_SORTENTS
360
1866
  0
DICTIONARY
  5
1A70
330
2E
100
AcDbDictionary
280
     1
281
     1
  3
ACAD_XREC_ROUNDTRIP
360
1A71
  0
DICTIONARY
  5
1A72
330
30
100
AcDbDictionary
280
     1
281
     1
  3
ACAD_XREC_ROUNDTRIP
360
1A73
  0
DICTIONARY
  5
182D
102
{ACAD_REACTORS
330
C
102
}
330
C
100
AcDbDictionary
281
     1
  0
DICTIONARY
  5
D
102
{ACAD_REACTORS
330
C
102
}
330
C
100
AcDbDictionary
281
     1
  0
DICTIONARY
  5
1A
102
{ACAD_REACTORS
330
C
102
}
330
C
100
AcDbDictionary
281
     1
  3
Model
350
22
  3
ﾚｲｱｳﾄ1
350
1E
  3
ﾚｲｱｳﾄ2
350
26
  0
DICTIONARY
  5
182C
102
{ACAD_REACTORS
330
C
102
}
330
C
100
AcDbDictionary
281
     1
  0
DICTIONARY
  5
17
102
{ACAD_REACTORS
330
C
102
}
330
C
100
AcDbDictionary
281
     1
  3
Standard
350
18
  0
DICTIONARY
  5
19
102
{ACAD_REACTORS
330
C
102
}
330
C
100
AcDbDictionary
281
     1
  0
ACDBDICTIONARYWDFLT
  5
E
102
{ACAD_REACTORS
330
C
102
}
330
C
100
AcDbDictionary
281
     1
  3
Normal
350
F
100
AcDbDictionaryWithDefault
340
F
  0
DICTIONARY
  5
182E
102
{ACAD_REACTORS
330
C
102
}
330
C
100
AcDbDictionary
281
     1
  3
Standard
350
182F
  0
XRECORD
  5
124
102
{ACAD_REACTORS
330
C
102
}
330
C
100
AcDbXrecord
280
     1
 90
   990106
  3

 60
     0
 61
     0
 62
     1
 63
     3
 64
     0
 65
     0
 66
     0
 67
     3
 68
     1
 69
     0
 70
     0
 71
     0
 72
     0
 40
30.0
170
     0
  0
DICTIONARY
  5
1A69
102
{ACAD_REACTORS
330
C
102
}
330
C
100
AcDbDictionary
281
     1
  0
DICTIONARY
  5
1858
102
{ACAD_REACTORS
330
C
102
}
330
C
100
AcDbDictionary
281
     1
  3
CTABLESTYLE
350
1859
  3
DIMASSOC
350
1A65
  3
PROJECTNAME
350
1A66
  0
XRECORD
  5
1A68
102
{ACAD_REACTORS
330
C
102
}
330
C
100
AcDbXrecord
280
     1
  1
DWGPROPS COOKIE
  2

  3

  4

  6

  7

  8

  9

300
=
301
=
302
=
303
=
304
=
305
=
306
=
307
=
308
=
309
=
 40
0.6613984259259259
 41
2451673.575802199
 42
2458803.771277292
  1

 90
        0
  0
DICTIONARY
  5
19F5
102
{ACAD_REACTORS
330
19F3
102
}
330
19F3
100
AcDbDictionary
281
     1
  0
DICTIONARY
  5
19F6
102
{ACAD_REACTORS
330
19F3
102
}
330
19F3
100
AcDbDictionary
281
     1
  0
DICTIONARY
  5
19F4
102
{ACAD_REACTORS
330
19F3
102
}
330
19F3
100
AcDbDictionary
281
     1
1001
ACAD
1000
<All
  0
SORTENTSTABLE
  5
1866
102
{ACAD_REACTORS
330
1865
102
}
330
1865
100
AcDbSortentsTable
330
1F
331
1205
  5
1206
331
A5
  5
2E6
331
1976
  5
1977
331
197E
  5
197F
331
33A
  5
33B
331
3B1
  5
3CE
331
17A4
  5
17A5
331
17AC
  5
17AD
331
123D
  5
123E
331
17B4
  5
17B5
331
1A2D
  5
1A2E
331
19AE
  5
1A2C
331
1A35
  5
1A36
331
458
  5
494
331
12AD
  5
12AE
331
3E9
  5
3F6
331
2EB
  5
2EE
331
1206
  5
1207
331
57F
  5
7CF
331
1977
  5
1978
331
197F
  5
1980
331
120E
  5
120F
331
33B
  5
33C
331
17A5
  5
17A6
331
4F8
  5
505
331
35B
  5
368
331
123E
  5
123F
331
7CF
  5
7D0
331
17AD
  5
17AE
331
17B5
  5
17B6
331
19A7
  5
19A8
331
1A2E
  5
1A2F
331
1A36
  5
1A37
331
12AE
  5
12AF
331
F27
  5
1202
331
1207
  5
1208
331
1978
  5
1979
331
1980
  5
1981
331
120F
  5
1210
331
33C
  5
35B
331
17A6
  5
17A7
331
17AE
  5
17AF
331
7D0
  5
7D1
331
123F
  5
1240
331
17B6
  5
17B7
331
19A8
  5
19A9
331
1A2F
  5
1A30
331
1A37
  5
A0
331
569
  5
57F
331
12AF
  5
12B0
331
A0
  5
A5
331
1979
  5
197A
331
1981
  5
1982
331
1208
  5
1209
331
1210
  5
1211
331
1238
  5
1239
331
44B
  5
458
331
17A7
  5
17A8
331
17AF
  5
17B0
331
7D1
  5
7D2
331
1240
  5
1241
331
17B7
  5
17B8
331
19A9
  5
19AA
331
1A30
  5
1A31
331
8C9
  5
F27
331
3DC
  5
3E9
331
12B0
  5
12B1
331
395
  5
397
331
2E6
  5
2EB
331
2EE
  5
2FE
331
197A
  5
197B
331
1982
  5
1983
331
4A3
  5
4F8
331
2FE
  5
33A
331
1209
  5
120A
331
17A0
  5
17A1
331
43C
  5
43D
331
1211
  5
1212
331
17A8
  5
17A9
331
1239
  5
123A
331
17B0
  5
17B1
331
7D2
  5
7D3
331
1241
  5
1242
331
19AA
  5
19AB
331
1A31
  5
1A32
331
17B8
  5
17B9
331
12A9
  5
12AA
331
12B1
  5
12B2
331
1202
  5
1203
331
494
  5
495
331
197B
  5
197C
331
1983
  5
19A7
331
120A
  5
120B
331
17A1
  5
17A2
331
1212
  5
1213
331
43D
  5
44B
331
17A9
  5
17AA
331
123A
  5
123B
331
17B1
  5
17B2
331
7D3
  5
8C9
331
3CE
  5
3DC
331
1242
  5
12A9
331
19AB
  5
19AC
331
1A32
  5
1A33
331
17B9
  5
17BA
331
12AA
  5
12AB
331
12B2
  5
12B3
331
397
  5
398
331
495
  5
4A3
331
1203
  5
1205
331
3F6
  5
43C
331
1974
  5
1975
331
197C
  5
197D
331
120B
  5
120C
331
17A2
  5
17A3
331
3AF
  5
3B1
331
1213
  5
1238
331
17AA
  5
17AB
331
123B
  5
123C
331
505
  5
569
331
17B2
  5
17B3
331
19AC
  5
19AD
331
1A33
  5
1A34
331
368
  5
395
331
17BA
  5
17BB
331
12AB
  5
12AC
331
12B3
  5
142B
331
142B
  5
1453
331
9C
  5
9C
331
1453
  5
17A0
331
1975
  5
1976
331
197D
  5
197E
331
398
  5
3AF
331
120C
  5
120E
331
17A3
  5
17A4
331
17AB
  5
17AC
331
123C
  5
123D
331
17B3
  5
17B4
331
1A2C
  5
1A2D
331
19AD
  5
19AE
331
1A34
  5
1A35
331
17BB
  5
1974
331
12AC
  5
12AD
  0
XRECORD
  5
1A71
102
{ACAD_REACTORS
330
1A70
102
}
330
1A70
100
AcDbXrecord
280
     1
102
SHADEPLOT
 70
     0
  0
XRECORD
  5
1A73
102
{ACAD_REACTORS
330
1A72
102
}
330
1A72
100
AcDbXrecord
280
     1
102
SHADEPLOT
 70
     0
  0
LAYOUT
  5
22
102
{ACAD_XDICTIONARY
360
1A6C
102
}
102
{ACAD_REACTORS
330
1A
102
}
330
1A
100
AcDbPlotSettings
  1

  2
EPSON PM-800C
  4
A4
  6

 40
3.757083177566528
 41
14.7637300491333
 42
3.757080078125
 43
3.757080078125
 44
209.9733276367187
 45
296.9683227539062
 46
0.0
 47
0.0
 48
0.0
 49
0.0
140
0.0
141
0.0
142
1.0
143
10.0
 70
 11952
 72
     1
 73
     1
 74
     2
  7

 75
    20
147
0.1
148
0.0
149
0.0
100
AcDbLayout
  1
Model
 70
     1
 71
     0
 10
0.0
 20
0.0
 11
12.0
 21
9.0
 12
0.0
 22
0.0
 32
0.0
 14
0.0
 24
0.0
 34
0.0
 15
0.0
 25
0.0
 35
0.0
146
0.0
 13
0.0
 23
0.0
 33
0.0
 16
1.0
 26
0.0
 36
0.0
 17
0.0
 27
1.0
 37
0.0
 76
     0
330
1F
  0
LAYOUT
  5
1E
102
{ACAD_XDICTIONARY
360
1A6A
102
}
102
{ACAD_REACTORS
330
1A
102
}
330
1A
100
AcDbPlotSettings
  1

  2
EPSON PM-800C
  4
A4
  6

 40
3.757083177566528
 41
14.7637300491333
 42
3.757080078125
 43
3.757080078125
 44
209.9733276367187
 45
296.9683227539062
 46
0.0
 47
0.0
 48
0.0
 49
0.0
140
0.0
141
0.0
142
1.0
143
1.0
 70
   688
 72
     1
 73
     1
 74
     5
  7

 75
    16
147
1.0
148
0.0
149
0.0
100
AcDbLayout
  1
ﾚｲｱｳﾄ1
 70
     1
 71
     1
 10
-3.757080078125
 20
-3.757083177566528
 11
293.2112426757813
 21
206.2162444591522
 12
0.0
 22
0.0
 32
0.0
 14
27.8447512626648
 24
20.24591643810271
 34
0.0
 15
250.6027613639831
 25
182.2132479429245
 35
0.0
146
0.0
 13
0.0
 23
0.0
 33
0.0
 16
1.0
 26
0.0
 36
0.0
 17
0.0
 27
1.0
 37
0.0
 76
     0
330
1B
331
2E
  0
LAYOUT
  5
26
102
{ACAD_XDICTIONARY
360
1A6E
102
}
102
{ACAD_REACTORS
330
1A
102
}
330
1A
100
AcDbPlotSettings
  1

  2
EPSON PM-800C
  4

  6

 40
0.0
 41
0.0
 42
0.0
 43
0.0
 44
0.0
 45
0.0
 46
0.0
 47
0.0
 48
0.0
 49
0.0
140
0.0
141
0.0
142
1.0
143
1.0
 70
   688
 72
     0
 73
     0
 74
     5
  7

 75
    16
147
1.0
148
0.0
149
0.0
100
AcDbLayout
  1
ﾚｲｱｳﾄ2
 70
     1
 71
     2
 10
0.0
 20
0.0
 11
12.0
 21
9.0
 12
0.0
 22
0.0
 32
0.0
 14
0.0
 24
0.0
 34
0.0
 15
0.0
 25
0.0
 35
0.0
146
0.0
 13
0.0
 23
0.0
 33
0.0
 16
1.0
 26
0.0
 36
0.0
 17
0.0
 27
1.0
 37
0.0
 76
     0
330
23
  0
MLINESTYLE
  5
18
102
{ACAD_REACTORS
330
17
102
}
330
17
100
AcDbMlineStyle
  2
STANDARD
 70
     0
  3

 62
   256
 51
90.0
 52
90.0
 71
     2
 49
0.5
 62
   256
  6
BYLAYER
 49
-0.5
 62
   256
  6
BYLAYER
  0
ACDBPLACEHOLDER
  5
F
102
{ACAD_REACTORS
330
E
102
}
330
E
  0
TABLESTYLE
  5
182F
102
{ACAD_REACTORS
330
182E
102
}
330
182E
100
AcDbTableStyle
  3
Standard
 70
     0
 71
     0
 40
1.5
 41
1.5
280
     0
281
     0
  7
Standard
140
4.5
170
     2
 62
     0
 63
     7
283
     0
274
    -2
284
     1
 64
     0
275
    -2
285
     1
 65
     0
276
    -2
286
     1
 66
     0
277
    -2
287
     1
 67
     0
278
    -2
288
     1
 68
     0
279
    -2
289
     1
 69
     0
  7
Standard
140
6.0
170
     5
 62
     0
 63
     7
283
     0
274
    -2
284
     1
 64
     0
275
    -2
285
     1
 65
     0
276
    -2
286
     1
 66
     0
277
    -2
287
     1
 67
     0
278
    -2
288
     1
 68
     0
279
    -2
289
     1
 69
     0
  7
Standard
140
4.5
170
     5
 62
     0
 63
     7
283
     0
274
    -2
284
     1
 64
     0
275
    -2
285
     1
 65
     0
276
    -2
286
     1
 66
     0
277
    -2
287
     1
 67
     0
278
    -2
288
     1
 68
     0
279
    -2
289
     1
 69
     0
  0
DICTIONARYVAR
  5
1859
102
{ACAD_REACTORS
330
1858
102
}
330
1858
100
DictionaryVariables
280
     0
  1
STANDARD
  0
DICTIONARYVAR
  5
1A65
102
{ACAD_REACTORS
330
1858
102
}
330
1858
100
DictionaryVariables
280
     0
  1
1
  0
DICTIONARYVAR
  5
1A66
102
{ACAD_REACTORS
330
1858
102
}
330
1858
100
DictionaryVariables
280
     0
  1

  0
DICTIONARY
  5
1A6C
330
22
100
AcDbDictionary
280
     1
281
     1
  3
ACAD_XREC_ROUNDTRIP
360
1A6D
  0
DICTIONARY
  5
1A6A
330
1E
100
AcDbDictionary
280
     1
281
     1
  3
ACAD_XREC_ROUNDTRIP
360
1A6B
  0
DICTIONARY
  5
1A6E
330
26
100
AcDbDictionary
280
     1
281
     1
  3
ACAD_XREC_ROUNDTRIP
360
1A6F
  0
XRECORD
  5
1A6D
102
{ACAD_REACTORS
330
1A6C
102
}
330
1A6C
100
AcDbXrecord
280
     1
102
SHADEPLOT
 70
     0
102
SHADEPLOTRESLEVEL
 70
     2
102
SHADEPLOTCUSTOMDPI
 70
   300
  0
XRECORD
  5
1A6B
102
{ACAD_REACTORS
330
1A6A
102
}
330
1A6A
100
AcDbXrecord
280
     1
102
SHADEPLOT
 70
     0
102
SHADEPLOTRESLEVEL
 70
     2
102
SHADEPLOTCUSTOMDPI
 70
   300
  0
XRECORD
  5
1A6F
102
{ACAD_REACTORS
330
1A6E
102
}
330
1A6E
100
AcDbXrecord
280
     1
102
SHADEPLOT
 70
     0
102
SHADEPLOTRESLEVEL
 70
     2
102
SHADEPLOTCUSTOMDPI
 70
   300
  0
ENDSEC
  0
EOF
