  0
SECTION
  2
HEADER
  9
$ACADVER
  1
AC1015
  9
$ACADMAINTVER
 70
    20
  9
$DWGCODEPAGE
  3
ANSI_932
  9
$INSBASE
 10
0.0
 20
0.0
 30
0.0
  9
$EXTMIN
 10
113.0
 20
4.0
 30
0.0
  9
$EXTMAX
 10
2784.0
 20
2024.0
 30
0.0
  9
$LIMMIN
 10
0.0
 20
0.0
  9
$LIMMAX
 10
29700.0
 20
21000.0
  9
$ORTHOMODE
 70
     1
  9
$REGENMODE
 70
     1
  9
$FILLMODE
 70
     1
  9
$QTEXTMODE
 70
     0
  9
$MIRRTEXT
 70
     1
  9
$LTSCALE
 40
4.0
  9
$ATTMODE
 70
     1
  9
$TEXTSIZE
 40
25.0
  9
$TRACEWID
 40
1.0
  9
$TEXTSTYLE
  7
Standard
  9
$CLAYER
  8
実形
  9
$CELTYPE
  6
ByLayer
  9
$CECOLOR
 62
   256
  9
$CELTSCALE
 40
1.0
  9
$DISPSILH
 70
     0
  9
$DIMSCALE
 40
1.0
  9
$DIMASZ
 40
35.0
  9
$DIMEXO
 40
65.0
  9
$DIMDLI
 40
3.75
  9
$DIMRND
 40
0.0
  9
$DIMDLE
 40
0.0
  9
$DIMEXE
 40
0.0
  9
$DIMTP
 40
0.0
  9
$DIMTM
 40
0.0
  9
$DIMTXT
 40
25.0
  9
$DIMCEN
 40
2.5
  9
$DIMTSZ
 40
0.0
  9
$DIMTOL
 70
     0
  9
$DIMLIM
 70
     0
  9
$DIMTIH
 70
     0
  9
$DIMTOH
 70
     0
  9
$DIMSE1
 70
     0
  9
$DIMSE2
 70
     0
  9
$DIMTAD
 70
     1
  9
$DIMZIN
 70
     8
  9
$DIMBLK
  1
DotSmall
  9
$DIMASO
 70
     1
  9
$DIMSHO
 70
     1
  9
$DIMPOST
  1

  9
$DIMAPOST
  1

  9
$DIMALT
 70
     0
  9
$DIMALTD
 70
     3
  9
$DIMALTF
 40
0.03937007874016
  9
$DIMLFAC
 40
1.0
  9
$DIMTOFL
 70
     1
  9
$DIMTVP
 40
0.0
  9
$DIMTIX
 70
     0
  9
$DIMSOXD
 70
     0
  9
$DIMSAH
 70
     0
  9
$DIMBLK1
  1

  9
$DIMBLK2
  1

  9
$DIMSTYLE
  2
ISO-25
  9
$DIMCLRD
 70
     0
  9
$DIMCLRE
 70
     0
  9
$DIMCLRT
 70
     0
  9
$DIMTFAC
 40
1.0
  9
$DIMGAP
 40
6.25
  9
$DIMJUST
 70
     0
  9
$DIMSD1
 70
     0
  9
$DIMSD2
 70
     0
  9
$DIMTOLJ
 70
     0
  9
$DIMTZIN
 70
     8
  9
$DIMALTZ
 70
     0
  9
$DIMALTTZ
 70
     0
  9
$DIMUPT
 70
     0
  9
$DIMDEC
 70
     2
  9
$DIMTDEC
 70
     2
  9
$DIMALTU
 70
     2
  9
$DIMALTTD
 70
     3
  9
$DIMTXSTY
  7
Standard
  9
$DIMAUNIT
 70
     0
  9
$DIMADEC
 70
     0
  9
$DIMALTRND
 40
0.0
  9
$DIMAZIN
 70
     0
  9
$DIMDSEP
 70
    46
  9
$DIMATFIT
 70
     3
  9
$DIMFRAC
 70
     0
  9
$DIMLDRBLK
  1
Open30
  9
$DIMLUNIT
 70
     2
  9
$DIMLWD
 70
    18
  9
$DIMLWE
 70
    18
  9
$DIMTMOVE
 70
     0
  9
$LUNITS
 70
     2
  9
$LUPREC
 70
     2
  9
$SKETCHINC
 40
1.0
  9
$FILLETRAD
 40
30.0
  9
$AUNITS
 70
     0
  9
$AUPREC
 70
     0
  9
$MENU
  1
.
  9
$ELEVATION
 40
0.0
  9
$PELEVATION
 40
0.0
  9
$THICKNESS
 40
0.0
  9
$LIMCHECK
 70
     1
  9
$CHAMFERA
 40
10.0
  9
$CHAMFERB
 40
10.0
  9
$CHAMFERC
 40
20.0
  9
$CHAMFERD
 40
0.0
  9
$SKPOLY
 70
     0
  9
$TDCREATE
 40
2451673.575802199
  9
$TDUCREATE
 40
2451673.200802199
  9
$TDUPDATE
 40
2458803.791654861
  9
$TDUUPDATE
 40
2458803.416654861
  9
$TDINDWG
 40
0.7757931366
  9
$TDUSRTIMER
 40
0.7757924421
  9
$USRTIMER
 70
     1
  9
$ANGBASE
 50
0.0
  9
$ANGDIR
 70
     0
  9
$PDMODE
 70
     3
  9
$PDSIZE
 40
0.0
  9
$PLINEWID
 40
0.0
  9
$SPLFRAME
 70
     0
  9
$SPLINETYPE
 70
     6
  9
$SPLINESEGS
 70
     8
  9
$HANDSEED
  5
1567
  9
$SURFTAB1
 70
     6
  9
$SURFTAB2
 70
     6
  9
$SURFTYPE
 70
     6
  9
$SURFU
 70
     6
  9
$SURFV
 70
     6
  9
$UCSBASE
  2

  9
$UCSNAME
  2

  9
$UCSORG
 10
0.0
 20
0.0
 30
0.0
  9
$UCSXDIR
 10
1.0
 20
0.0
 30
0.0
  9
$UCSYDIR
 10
0.0
 20
1.0
 30
0.0
  9
$UCSORTHOREF
  2

  9
$UCSORTHOVIEW
 70
     0
  9
$UCSORGTOP
 10
0.0
 20
0.0
 30
0.0
  9
$UCSORGBOTTOM
 10
0.0
 20
0.0
 30
0.0
  9
$UCSORGLEFT
 10
0.0
 20
0.0
 30
0.0
  9
$UCSORGRIGHT
 10
0.0
 20
0.0
 30
0.0
  9
$UCSORGFRONT
 10
0.0
 20
0.0
 30
0.0
  9
$UCSORGBACK
 10
0.0
 20
0.0
 30
0.0
  9
$PUCSBASE
  2

  9
$PUCSNAME
  2

  9
$PUCSORG
 10
0.0
 20
0.0
 30
0.0
  9
$PUCSXDIR
 10
1.0
 20
0.0
 30
0.0
  9
$PUCSYDIR
 10
0.0
 20
1.0
 30
0.0
  9
$PUCSORTHOREF
  2

  9
$PUCSORTHOVIEW
 70
     0
  9
$PUCSORGTOP
 10
0.0
 20
0.0
 30
0.0
  9
$PUCSORGBOTTOM
 10
0.0
 20
0.0
 30
0.0
  9
$PUCSORGLEFT
 10
0.0
 20
0.0
 30
0.0
  9
$PUCSORGRIGHT
 10
0.0
 20
0.0
 30
0.0
  9
$PUCSORGFRONT
 10
0.0
 20
0.0
 30
0.0
  9
$PUCSORGBACK
 10
0.0
 20
0.0
 30
0.0
  9
$USERI1
 70
     0
  9
$USERI2
 70
     0
  9
$USERI3
 70
     0
  9
$USERI4
 70
     0
  9
$USERI5
 70
     0
  9
$USERR1
 40
0.0
  9
$USERR2
 40
0.0
  9
$USERR3
 40
0.0
  9
$USERR4
 40
0.0
  9
$USERR5
 40
0.0
  9
$WORLDVIEW
 70
     1
  9
$SHADEDGE
 70
     3
  9
$SHADEDIF
 70
    70
  9
$TILEMODE
 70
     1
  9
$MAXACTVP
 70
    64
  9
$PINSBASE
 10
0.0
 20
0.0
 30
0.0
  9
$PLIMCHECK
 70
     0
  9
$PEXTMIN
 10
27.8447512626648
 20
20.24591643810271
 30
0.0
  9
$PEXTMAX
 10
250.6027613639831
 20
182.2132479429245
 30
0.0
  9
$PLIMMIN
 10
-3.757080078125
 20
-3.757083177566528
  9
$PLIMMAX
 10
293.2112426757813
 20
206.2162444591522
  9
$UNITMODE
 70
     0
  9
$VISRETAIN
 70
     1
  9
$PLINEGEN
 70
     0
  9
$PSLTSCALE
 70
     1
  9
$TREEDEPTH
 70
  3020
  9
$CMLSTYLE
  2
Standard
  9
$CMLJUST
 70
     0
  9
$CMLSCALE
 40
20.0
  9
$PROXYGRAPHICS
 70
     1
  9
$MEASUREMENT
 70
     1
  9
$CELWEIGHT
370
    -1
  9
$ENDCAPS
280
     0
  9
$JOINSTYLE
280
     0
  9
$LWDISPLAY
290
     0
  9
$INSUNITS
 70
     4
  9
$HYPERLINKBASE
  1

  9
$STYLESHEET
  1

  9
$XEDIT
290
     1
  9
$CEPSNTYPE
380
     0
  9
$PSTYLEMODE
290
     1
  9
$FINGERPRINTGUID
  2
{C8EA1F16-24C9-11D4-9416-CE0A3B32152F}
  9
$VERSIONGUID
  2
{4AFE28C9-B32A-4C04-9CDB-97BF023DD04B}
  9
$EXTNAMES
290
     1
  9
$PSVPSCALE
 40
0.0
  9
$OLESTARTUP
290
     0
  0
ENDSEC
  0
SECTION
  2
CLASSES
  0
CLASS
  1
ACDBDICTIONARYWDFLT
  2
AcDbDictionaryWithDefault
  3
ObjectDBX Classes
 90
        0
280
     0
281
     0
  0
CLASS
  1
ACDBPLACEHOLDER
  2
AcDbPlaceHolder
  3
ObjectDBX Classes
 90
        0
280
     0
281
     0
  0
CLASS
  1
LAYOUT
  2
AcDbLayout
  3
ObjectDBX Classes
 90
        0
280
     0
281
     0
  0
CLASS
  1
TABLESTYLE
  2
AcDbTableStyle
  3
ObjectDBX Classes
 90
     2047
280
     0
281
     0
  0
CLASS
  1
DICTIONARYVAR
  2
AcDbDictionaryVar
  3
ObjectDBX Classes
 90
        0
280
     0
281
     0
  0
CLASS
  1
SORTENTSTABLE
  2
AcDbSortentsTable
  3
ObjectDBX Classes
 90
        0
280
     0
281
     0
  0
ENDSEC
  0
SECTION
  2
TABLES
  0
TABLE
  2
VPORT
  5
8
330
0
100
AcDbSymbolTable
 70
     2
  0
VPORT
  5
155A
330
8
100
AcDbSymbolTableRecord
100
AcDbViewportTableRecord
  2
*Active
 70
     0
 10
0.0
 20
0.0
 11
1.0
 21
1.0
 12
1494.640919071442
 22
997.396397725117
 13
0.0
 23
0.0
 14
10.0
 24
10.0
 15
10.0
 25
10.0
 16
0.0
 26
0.0
 36
1.0
 17
0.0
 27
0.0
 37
0.0
 40
2169.100062334077
 41
1.29038112522686
 42
50.0
 43
0.0
 44
0.0
 50
0.0
 51
0.0
 71
     0
 72
   100
 73
     1
 74
     3
 75
     0
 76
     0
 77
     0
 78
     0
281
     0
 65
     1
110
0.0
120
0.0
130
0.0
111
1.0
121
0.0
131
0.0
112
0.0
122
1.0
132
0.0
 79
     0
146
0.0
  0
ENDTAB
  0
TABLE
  2
LTYPE
  5
5
330
0
100
AcDbSymbolTable
 70
    46
  0
LTYPE
  5
14
330
5
100
AcDbSymbolTableRecord
100
AcDbLinetypeTableRecord
  2
ByBlock
 70
     0
  3

 72
    65
 73
     0
 40
0.0
  0
LTYPE
  5
15
330
5
100
AcDbSymbolTableRecord
100
AcDbLinetypeTableRecord
  2
ByLayer
 70
     0
  3

 72
    65
 73
     0
 40
0.0
  0
LTYPE
  5
16
330
5
100
AcDbSymbolTableRecord
100
AcDbLinetypeTableRecord
  2
Continuous
 70
     0
  3
Solid line
 72
    65
 73
     0
 40
0.0
  0
LTYPE
  5
34
330
5
100
AcDbSymbolTableRecord
100
AcDbLinetypeTableRecord
  2
ACAD_ISO02W100
 70
     0
  3
ISO dash __ __ __ __ __ __ __ __ __ __ __ __ __
 72
    65
 73
     2
 40
15.0
 49
12.0
 74
     0
 49
-3.0
 74
     0
  0
LTYPE
  5
35
330
5
100
AcDbSymbolTableRecord
100
AcDbLinetypeTableRecord
  2
ACAD_ISO03W100
 70
     0
  3
ISO dash space __    __    __    __    __    __
 72
    65
 73
     2
 40
30.0
 49
12.0
 74
     0
 49
-18.0
 74
     0
  0
LTYPE
  5
36
330
5
100
AcDbSymbolTableRecord
100
AcDbLinetypeTableRecord
  2
ACAD_ISO04W100
 70
     0
  3
ISO long-dash dot ____ . ____ . ____ . ____ . _
 72
    65
 73
     4
 40
30.0
 49
24.0
 74
     0
 49
-3.0
 74
     0
 49
0.0
 74
     0
 49
-3.0
 74
     0
  0
LTYPE
  5
37
330
5
100
AcDbSymbolTableRecord
100
AcDbLinetypeTableRecord
  2
ACAD_ISO05W100
 70
     0
  3
ISO long-dash double-dot ____ .. ____ .. ____ .
 72
    65
 73
     6
 40
34.0
 49
24.0
 74
     0
 49
-3.0
 74
     0
 49
0.5
 74
     0
 49
-3.0
 74
     0
 49
0.5
 74
     0
 49
-3.0
 74
     0
  0
LTYPE
  5
38
330
5
100
AcDbSymbolTableRecord
100
AcDbLinetypeTableRecord
  2
ACAD_ISO06W100
 70
     0
  3
ISO long-dash triple-dot ____ ... ____ ... ____
 72
    65
 73
     8
 40
37.5
 49
24.0
 74
     0
 49
-3.0
 74
     0
 49
0.5
 74
     0
 49
-3.0
 74
     0
 49
0.5
 74
     0
 49
-3.0
 74
     0
 49
0.5
 74
     0
 49
-3.0
 74
     0
  0
LTYPE
  5
39
330
5
100
AcDbSymbolTableRecord
100
AcDbLinetypeTableRecord
  2
ACAD_ISO07W100
 70
     0
  3
ISO dot . . . . . . . . . . . . . . . . . . . .
 72
    65
 73
     2
 40
3.0
 49
0.0
 74
     0
 49
-3.0
 74
     0
  0
LTYPE
  5
3A
330
5
100
AcDbSymbolTableRecord
100
AcDbLinetypeTableRecord
  2
ACAD_ISO08W100
 70
     0
  3
ISO long-dash short-dash ____ __ ____ __ ____ _
 72
    65
 73
     4
 40
36.0
 49
24.0
 74
     0
 49
-3.0
 74
     0
 49
6.0
 74
     0
 49
-3.0
 74
     0
  0
LTYPE
  5
3B
330
5
100
AcDbSymbolTableRecord
100
AcDbLinetypeTableRecord
  2
ACAD_ISO09W100
 70
     0
  3
ISO long-dash double-short-dash ____ __ __ ____
 72
    65
 73
     6
 40
45.0
 49
24.0
 74
     0
 49
-3.0
 74
     0
 49
6.0
 74
     0
 49
-3.0
 74
     0
 49
6.0
 74
     0
 49
-3.0
 74
     0
  0
LTYPE
  5
3C
330
5
100
AcDbSymbolTableRecord
100
AcDbLinetypeTableRecord
  2
ACAD_ISO10W100
 70
     0
  3
ISO dash dot __ . __ . __ . __ . __ . __ . __ .
 72
    65
 73
     4
 40
18.0
 49
12.0
 74
     0
 49
-3.0
 74
     0
 49
0.0
 74
     0
 49
-3.0
 74
     0
  0
LTYPE
  5
3D
330
5
100
AcDbSymbolTableRecord
100
AcDbLinetypeTableRecord
  2
ACAD_ISO11W100
 70
     0
  3
ISO double-dash dot __ __ . __ __ . __ __ . __ 
 72
    65
 73
     6
 40
33.0
 49
12.0
 74
     0
 49
-3.0
 74
     0
 49
12.0
 74
     0
 49
-3.0
 74
     0
 49
0.0
 74
     0
 49
-3.0
 74
     0
  0
LTYPE
  5
3E
330
5
100
AcDbSymbolTableRecord
100
AcDbLinetypeTableRecord
  2
ACAD_ISO12W100
 70
     0
  3
ISO dash double-dot __ . . __ . . __ . . __ . .
 72
    65
 73
     6
 40
21.0
 49
12.0
 74
     0
 49
-3.0
 74
     0
 49
0.0
 74
     0
 49
-3.0
 74
     0
 49
0.0
 74
     0
 49
-3.0
 74
     0
  0
LTYPE
  5
3F
330
5
100
AcDbSymbolTableRecord
100
AcDbLinetypeTableRecord
  2
ACAD_ISO13W100
 70
     0
  3
ISO double-dash double-dot __ __ . . __ __ . . 
 72
    65
 73
     8
 40
36.0
 49
12.0
 74
     0
 49
-3.0
 74
     0
 49
12.0
 74
     0
 49
-3.0
 74
     0
 49
0.0
 74
     0
 49
-3.0
 74
     0
 49
0.0
 74
     0
 49
-3.0
 74
     0
  0
LTYPE
  5
40
330
5
100
AcDbSymbolTableRecord
100
AcDbLinetypeTableRecord
  2
ACAD_ISO14W100
 70
     0
  3
ISO dash triple-dot __ . . . __ . . . __ . . . 
 72
    65
 73
     8
 40
24.0
 49
12.0
 74
     0
 49
-3.0
 74
     0
 49
0.0
 74
     0
 49
-3.0
 74
     0
 49
0.0
 74
     0
 49
-3.0
 74
     0
 49
0.0
 74
     0
 49
-3.0
 74
     0
  0
LTYPE
  5
41
330
5
100
AcDbSymbolTableRecord
100
AcDbLinetypeTableRecord
  2
ACAD_ISO15W100
 70
     0
  3
ISO double-dash triple-dot __ __ . . . __ __ . 
 72
    65
 73
    10
 40
39.0
 49
12.0
 74
     0
 49
-3.0
 74
     0
 49
12.0
 74
     0
 49
-3.0
 74
     0
 49
0.0
 74
     0
 49
-3.0
 74
     0
 49
0.0
 74
     0
 49
-3.0
 74
     0
 49
0.0
 74
     0
 49
-3.0
 74
     0
  0
LTYPE
  5
42
330
5
100
AcDbSymbolTableRecord
100
AcDbLinetypeTableRecord
  2
BATTING
 70
     0
  3
Batting SSSSSSSSSSSSSSSSSSSSSSSSSSSSSSSSSSSSSSS
 72
    65
 73
     4
 40
10.16254
 49
0.00254
 74
     0
 49
-2.54
 74
     4
 75
   134
340
33
 46
2.54
 50
0.0
 44
-2.54
 45
0.0
 49
-5.08
 74
     4
 75
   134
340
33
 46
2.54
 50
180.0
 44
2.54
 45
0.0
 49
-2.54
 74
     0
  0
LTYPE
  5
43
330
5
100
AcDbSymbolTableRecord
100
AcDbLinetypeTableRecord
  2
BORDER
 70
     0
  3
Border __ __ . __ __ . __ __ . __ __ . __ __ .
 72
    65
 73
     6
 40
44.45
 49
12.7
 74
     0
 49
-6.349999999999999
 74
     0
 49
12.7
 74
     0
 49
-6.349999999999999
 74
     0
 49
0.0
 74
     0
 49
-6.349999999999999
 74
     0
  0
LTYPE
  5
44
330
5
100
AcDbSymbolTableRecord
100
AcDbLinetypeTableRecord
  2
BORDER2
 70
     0
  3
Border (.5x) __.__.__.__.__.__.__.__.__.__.__.
 72
    65
 73
     6
 40
22.225
 49
6.349999999999999
 74
     0
 49
-3.174999999999999
 74
     0
 49
6.349999999999999
 74
     0
 49
-3.174999999999999
 74
     0
 49
0.0
 74
     0
 49
-3.174999999999999
 74
     0
  0
LTYPE
  5
45
330
5
100
AcDbSymbolTableRecord
100
AcDbLinetypeTableRecord
  2
BORDERX2
 70
     0
  3
Border (2x) ____  ____  .  ____  ____  .  ___
 72
    65
 73
     6
 40
88.9
 49
25.4
 74
     0
 49
-12.7
 74
     0
 49
25.4
 74
     0
 49
-12.7
 74
     0
 49
0.0
 74
     0
 49
-12.7
 74
     0
  0
LTYPE
  5
46
330
5
100
AcDbSymbolTableRecord
100
AcDbLinetypeTableRecord
  2
CENTER
 70
     0
  3
Center ____ _ ____ _ ____ _ ____ _ ____ _ ____
 72
    65
 73
     4
 40
50.8
 49
31.75
 74
     0
 49
-6.349999999999999
 74
     0
 49
6.349999999999999
 74
     0
 49
-6.349999999999999
 74
     0
  0
LTYPE
  5
47
330
5
100
AcDbSymbolTableRecord
100
AcDbLinetypeTableRecord
  2
CENTER2
 70
     0
  3
Center (.5x) ___ _ ___ _ ___ _ ___ _ ___ _ ___
 72
    65
 73
     4
 40
28.575
 49
19.05
 74
     0
 49
-3.174999999999999
 74
     0
 49
3.174999999999999
 74
     0
 49
-3.174999999999999
 74
     0
  0
LTYPE
  5
48
330
5
100
AcDbSymbolTableRecord
100
AcDbLinetypeTableRecord
  2
CENTERX2
 70
     0
  3
Center (2x) ________  __  ________  __  _____
 72
    65
 73
     4
 40
101.6
 49
63.5
 74
     0
 49
-12.7
 74
     0
 49
12.7
 74
     0
 49
-12.7
 74
     0
  0
LTYPE
  5
49
330
5
100
AcDbSymbolTableRecord
100
AcDbLinetypeTableRecord
  2
DASHDOT
 70
     0
  3
Dash dot __ . __ . __ . __ . __ . __ . __ . __
 72
    65
 73
     4
 40
25.4
 49
12.7
 74
     0
 49
-6.349999999999999
 74
     0
 49
0.0
 74
     0
 49
-6.349999999999999
 74
     0
  0
LTYPE
  5
4A
330
5
100
AcDbSymbolTableRecord
100
AcDbLinetypeTableRecord
  2
DASHDOT2
 70
     0
  3
Dash dot (.5x) _._._._._._._._._._._._._._._.
 72
    65
 73
     4
 40
12.7
 49
6.349999999999999
 74
     0
 49
-3.174999999999999
 74
     0
 49
0.0
 74
     0
 49
-3.174999999999999
 74
     0
  0
LTYPE
  5
4B
330
5
100
AcDbSymbolTableRecord
100
AcDbLinetypeTableRecord
  2
DASHDOTX2
 70
     0
  3
Dash dot (2x) ____  .  ____  .  ____  .  ___
 72
    65
 73
     4
 40
50.8
 49
25.4
 74
     0
 49
-12.7
 74
     0
 49
0.0
 74
     0
 49
-12.7
 74
     0
  0
LTYPE
  5
4C
330
5
100
AcDbSymbolTableRecord
100
AcDbLinetypeTableRecord
  2
DASHED
 70
     0
  3
Dashed __ __ __ __ __ __ __ __ __ __ __ __ __ _
 72
    65
 73
     2
 40
19.05
 49
12.7
 74
     0
 49
-6.349999999999999
 74
     0
  0
LTYPE
  5
4D
330
5
100
AcDbSymbolTableRecord
100
AcDbLinetypeTableRecord
  2
DASHED2
 70
     0
  3
Dashed (.5x) _ _ _ _ _ _ _ _ _ _ _ _ _ _ _ _ _
 72
    65
 73
     2
 40
9.524999999999998
 49
6.349999999999999
 74
     0
 49
-3.174999999999999
 74
     0
  0
LTYPE
  5
4E
330
5
100
AcDbSymbolTableRecord
100
AcDbLinetypeTableRecord
  2
DASHEDX2
 70
     0
  3
Dashed (2x) ____  ____  ____  ____  ____  ___
 72
    65
 73
     2
 40
38.1
 49
25.4
 74
     0
 49
-12.7
 74
     0
  0
LTYPE
  5
4F
330
5
100
AcDbSymbolTableRecord
100
AcDbLinetypeTableRecord
  2
DIVIDE
 70
     0
  3
Divide ____ . . ____ . . ____ . . ____ . . ____
 72
    65
 73
     6
 40
31.75
 49
12.7
 74
     0
 49
-6.349999999999999
 74
     0
 49
0.0
 74
     0
 49
-6.349999999999999
 74
     0
 49
0.0
 74
     0
 49
-6.349999999999999
 74
     0
  0
LTYPE
  5
50
330
5
100
AcDbSymbolTableRecord
100
AcDbLinetypeTableRecord
  2
DIVIDE2
 70
     0
  3
Divide (.5x) __..__..__..__..__..__..__..__.._
 72
    65
 73
     6
 40
15.875
 49
6.349999999999999
 74
     0
 49
-3.174999999999999
 74
     0
 49
0.0
 74
     0
 49
-3.174999999999999
 74
     0
 49
0.0
 74
     0
 49
-3.174999999999999
 74
     0
  0
LTYPE
  5
51
330
5
100
AcDbSymbolTableRecord
100
AcDbLinetypeTableRecord
  2
DIVIDEX2
 70
     0
  3
Divide (2x) ________  .  .  ________  .  .  _
 72
    65
 73
     6
 40
63.49999999999999
 49
25.4
 74
     0
 49
-12.7
 74
     0
 49
0.0
 74
     0
 49
-12.7
 74
     0
 49
0.0
 74
     0
 49
-12.7
 74
     0
  0
LTYPE
  5
52
330
5
100
AcDbSymbolTableRecord
100
AcDbLinetypeTableRecord
  2
DOT
 70
     0
  3
Dot . . . . . . . . . . . . . . . . . . . . . .
 72
    65
 73
     2
 40
6.349999999999999
 49
0.0
 74
     0
 49
-6.349999999999999
 74
     0
  0
LTYPE
  5
53
330
5
100
AcDbSymbolTableRecord
100
AcDbLinetypeTableRecord
  2
DOT2
 70
     0
  3
Dot (.5x) .....................................
 72
    65
 73
     2
 40
3.174999999999999
 49
0.0
 74
     0
 49
-3.174999999999999
 74
     0
  0
LTYPE
  5
54
330
5
100
AcDbSymbolTableRecord
100
AcDbLinetypeTableRecord
  2
DOTX2
 70
     0
  3
Dot (2x) .  .  .  .  .  .  .  .  .  .  .  .  . 
 72
    65
 73
     2
 40
12.7
 49
0.0
 74
     0
 49
-12.7
 74
     0
  0
LTYPE
  5
55
330
5
100
AcDbSymbolTableRecord
100
AcDbLinetypeTableRecord
  2
FENCELINE1
 70
     0
  3
Fenceline circle ----0-----0----0-----0----0---
 72
    65
 73
     4
 40
36.83
 49
6.349999999999999
 74
     0
 49
-2.54
 74
     4
 75
   133
340
33
 46
2.54
 50
0.0
 44
-2.54
 45
0.0
 49
-2.54
 74
     0
 49
25.4
 74
     0
  0
LTYPE
  5
56
330
5
100
AcDbSymbolTableRecord
100
AcDbLinetypeTableRecord
  2
FENCELINE2
 70
     0
  3
Fenceline square ----[]-----[]----[]-----[]----
 72
    65
 73
     4
 40
36.83
 49
6.349999999999999
 74
     0
 49
-2.54
 74
     4
 75
   132
340
33
 46
2.54
 50
0.0
 44
-2.54
 45
0.0
 49
-2.54
 74
     0
 49
25.4
 74
     0
  0
LTYPE
  5
57
330
5
100
AcDbSymbolTableRecord
100
AcDbLinetypeTableRecord
  2
GAS_LINE
 70
     0
  3
Gas line ----GAS----GAS----GAS----GAS----GAS---
 72
    65
 73
     3
 40
24.13
 49
12.7
 74
     0
 49
-5.08
 74
     2
 75
     0
340
11
 46
2.54
 50
0.0
 44
-2.54
 45
-1.27
  9
GAS
 49
-6.349999999999999
 74
     0
  0
LTYPE
  5
58
330
5
100
AcDbSymbolTableRecord
100
AcDbLinetypeTableRecord
  2
HIDDEN
 70
     0
  3
Hidden __ __ __ __ __ __ __ __ __ __ __ __ __ _
 72
    65
 73
     2
 40
9.524999999999998
 49
6.349999999999999
 74
     0
 49
-3.174999999999999
 74
     0
  0
LTYPE
  5
59
330
5
100
AcDbSymbolTableRecord
100
AcDbLinetypeTableRecord
  2
HIDDEN2
 70
     0
  3
Hidden (.5x) _ _ _ _ _ _ _ _ _ _ _ _ _ _ _ _ _
 72
    65
 73
     2
 40
4.762499999999999
 49
3.174999999999999
 74
     0
 49
-1.587499999999999
 74
     0
  0
LTYPE
  5
5A
330
5
100
AcDbSymbolTableRecord
100
AcDbLinetypeTableRecord
  2
HIDDENX2
 70
     0
  3
Hidden (2x) ____ ____ ____ ____ ____ ____ ____
 72
    65
 73
     2
 40
19.05
 49
12.7
 74
     0
 49
-6.349999999999999
 74
     0
  0
LTYPE
  5
5B
330
5
100
AcDbSymbolTableRecord
100
AcDbLinetypeTableRecord
  2
HOT_WATER_SUPPLY
 70
     0
  3
Hot water supply ---- HW ---- HW ---- HW ----
 72
    65
 73
     3
 40
22.86
 49
12.7
 74
     0
 49
-5.08
 74
     2
 75
     0
340
11
 46
2.54
 50
0.0
 44
-2.54
 45
-1.27
  9
HW
 49
-5.08
 74
     0
  0
LTYPE
  5
5C
330
5
100
AcDbSymbolTableRecord
100
AcDbLinetypeTableRecord
  2
PHANTOM
 70
     0
  3
Phantom ______  __  __  ______  __  __  ______
 72
    65
 73
     6
 40
63.5
 49
31.75
 74
     0
 49
-6.349999999999999
 74
     0
 49
6.349999999999999
 74
     0
 49
-6.349999999999999
 74
     0
 49
6.349999999999999
 74
     0
 49
-6.349999999999999
 74
     0
  0
LTYPE
  5
5D
330
5
100
AcDbSymbolTableRecord
100
AcDbLinetypeTableRecord
  2
PHANTOM2
 70
     0
  3
Phantom (.5x) ___ _ _ ___ _ _ ___ _ _ ___ _ _
 72
    65
 73
     6
 40
31.75
 49
15.875
 74
     0
 49
-3.174999999999999
 74
     0
 49
3.174999999999999
 74
     0
 49
-3.174999999999999
 74
     0
 49
3.174999999999999
 74
     0
 49
-3.174999999999999
 74
     0
  0
LTYPE
  5
5E
330
5
100
AcDbSymbolTableRecord
100
AcDbLinetypeTableRecord
  2
PHANTOMX2
 70
     0
  3
Phantom (2x) ____________    ____    ____   _
 72
    65
 73
     6
 40
127.0
 49
63.5
 74
     0
 49
-12.7
 74
     0
 49
12.7
 74
     0
 49
-12.7
 74
     0
 49
12.7
 74
     0
 49
-12.7
 74
     0
  0
LTYPE
  5
5F
330
5
100
AcDbSymbolTableRecord
100
AcDbLinetypeTableRecord
  2
TRACKS
 70
     0
  3
Tracks -|-|-|-|-|-|-|-|-|-|-|-|-|-|-|-|-|-|-|-|
 72
    65
 73
     2
 40
7.62
 49
3.81
 74
     4
 75
   130
340
33
 46
6.349999999999999
 50
0.0
 44
0.0
 45
0.0
 49
3.81
 74
     0
  0
LTYPE
  5
60
330
5
100
AcDbSymbolTableRecord
100
AcDbLinetypeTableRecord
  2
ZIGZAG
 70
     0
  3
Zig zag /\/\/\/\/\/\/\/\/\/\/\/\/\/\/\/\/\/\/\/
 72
    65
 73
     4
 40
20.32254
 49
0.00254
 74
     0
 49
-5.08
 74
     4
 75
   131
340
33
 46
5.08
 50
0.0
 44
-5.08
 45
0.0
 49
-10.16
 74
     4
 75
   131
340
33
 46
5.08
 50
180.0
 44
5.08
 45
0.0
 49
-5.08
 74
     0
  0
ENDTAB
  0
TABLE
  2
LAYER
  5
2
102
{ACAD_XDICTIONARY
360
14CF
102
}
330
0
100
AcDbSymbolTable
 70
     9
  0
LAYER
  5
10
330
2
100
AcDbSymbolTableRecord
100
AcDbLayerTableRecord
  2
0
 70
     0
 62
     7
  6
Continuous
370
    -3
390
F
  0
LAYER
  5
C3
330
2
100
AcDbSymbolTableRecord
100
AcDbLayerTableRecord
  2
Defpoints
 70
     0
 62
     7
  6
Continuous
290
     0
370
    -3
390
F
  0
LAYER
  5
256
330
2
100
AcDbSymbolTableRecord
100
AcDbLayerTableRecord
  2
センター
 70
     0
 62
     7
  6
CENTER2
370
    18
390
F
  0
LAYER
  5
268
330
2
100
AcDbSymbolTableRecord
100
AcDbLayerTableRecord
  2
実形
 70
     0
 62
     7
  6
Continuous
370
    -3
390
F
  0
LAYER
  5
269
330
2
100
AcDbSymbolTableRecord
100
AcDbLayerTableRecord
  2
補助
 70
     0
 62
     7
  6
Continuous
370
    -3
390
F
  0
LAYER
  5
26A
330
2
100
AcDbSymbolTableRecord
100
AcDbLayerTableRecord
  2
寸法
 70
     0
 62
     7
  6
Continuous
370
    18
390
F
  0
LAYER
  5
26B
330
2
100
AcDbSymbolTableRecord
100
AcDbLayerTableRecord
  2
ハッチング
 70
     0
 62
     7
  6
Continuous
370
    18
390
F
  0
LAYER
  5
26D
330
2
100
AcDbSymbolTableRecord
100
AcDbLayerTableRecord
  2
文字
 70
     0
 62
     7
  6
Continuous
370
    -3
390
F
  0
LAYER
  5
129D
330
2
100
AcDbSymbolTableRecord
100
AcDbLayerTableRecord
  2
Cen
 70
     0
 62
     7
  6
CENTER2
370
    15
390
F
  0
ENDTAB
  0
TABLE
  2
STYLE
  5
3
330
0
100
AcDbSymbolTable
 70
     3
  0
STYLE
  5
11
330
3
100
AcDbSymbolTableRecord
100
AcDbTextStyleTableRecord
  2
Standard
 70
     0
 40
0.0
 41
1.0
 50
0.0
 71
     0
 42
25.0
  3
txt.shx
  4
bigfont.shx
  0
STYLE
  5
33
330
3
100
AcDbSymbolTableRecord
100
AcDbTextStyleTableRecord
  2

 70
     1
 40
0.0
 41
1.0
 50
0.0
 71
     0
 42
2.5
  3
ltypeshp.shx
  4

  0
STYLE
  5
14F9
330
3
100
AcDbSymbolTableRecord
100
AcDbTextStyleTableRecord
  2
明朝
 70
     0
 40
0.0
 41
1.0
 50
0.0
 71
     0
 42
25.0
  3
MS Mincho.ttf
  4

1001
ACAD
1000
MS Mincho
1071
    32785
  0
ENDTAB
  0
TABLE
  2
VIEW
  5
6
330
0
100
AcDbSymbolTable
 70
     0
  0
ENDTAB
  0
TABLE
  2
UCS
  5
7
330
0
100
AcDbSymbolTable
 70
     0
  0
ENDTAB
  0
TABLE
  2
APPID
  5
9
330
0
100
AcDbSymbolTable
 70
     1
  0
APPID
  5
12
330
9
100
AcDbSymbolTableRecord
100
AcDbRegAppTableRecord
  2
ACAD
 70
     0
  0
ENDTAB
  0
TABLE
  2
DIMSTYLE
  5
A
330
0
100
AcDbSymbolTable
 70
     1
100
AcDbDimStyleTable
 71
     1
340
27
  0
DIMSTYLE
105
27
102
{ACAD_REACTORS
330
368
330
44B
330
458
330
4A3
330
569
330
57F
330
35B
330
3CE
330
43D
330
3E9
330
3DC
330
3F6
330
4F8
330
505
330
1176
330
120A
330
120B
330
120C
330
121E
330
121F
330
1386
330
1387
102
}
330
A
100
AcDbSymbolTableRecord
100
AcDbDimStyleTableRecord
  2
ISO-25
 70
     0
 41
35.0
 42
65.0
 43
3.75
 44
0.0
 73
     0
 74
     0
 77
     1
 78
     8
140
25.0
141
2.5
143
0.03937007874016
147
6.25
171
     3
172
     1
271
     2
272
     2
274
     3
283
     0
284
     8
340
11
341
DA
342
D0
371
    15
372
    15
  0
ENDTAB
  0
TABLE
  2
BLOCK_RECORD
  5
1
330
0
100
AcDbSymbolTable
 70
    26
  0
BLOCK_RECORD
  5
1F
102
{ACAD_XDICTIONARY
360
1519
102
}
330
1
100
AcDbSymbolTableRecord
100
AcDbBlockTableRecord
  2
*Model_Space
340
22
  0
BLOCK_RECORD
  5
1B
330
1
100
AcDbSymbolTableRecord
100
AcDbBlockTableRecord
  2
*Paper_Space
340
1E
  0
BLOCK_RECORD
  5
23
330
1
100
AcDbSymbolTableRecord
100
AcDbBlockTableRecord
  2
*Paper_Space0
340
26
  0
BLOCK_RECORD
  5
D0
330
1
100
AcDbSymbolTableRecord
100
AcDbBlockTableRecord
  2
_DotSmall
340
0
102
{BLKREFS
331
13C1
331
13C2
331
13CA
331
13CB
331
13D2
331
13D3
331
13DB
331
13DC
331
13E4
331
13E5
331
13ED
331
13EE
331
13F6
331
13F7
331
13FF
331
1400
331
1408
331
1409
331
141A
331
141B
331
142C
331
142D
331
1435
331
1436
331
143D
331
143E
331
1447
331
1448
331
144F
331
1450
331
1459
331
145A
331
1461
331
1462
331
146A
331
146B
331
1472
331
1473
331
147B
331
147C
331
14A4
331
14A5
331
14AD
331
14AE
102
}
  0
BLOCK_RECORD
  5
D4
330
1
100
AcDbSymbolTableRecord
100
AcDbBlockTableRecord
  2
_Origin2
340
0
  0
BLOCK_RECORD
  5
DA
330
1
100
AcDbSymbolTableRecord
100
AcDbBlockTableRecord
  2
_Open30
340
0
  0
BLOCK_RECORD
  5
35C
330
1
100
AcDbSymbolTableRecord
100
AcDbBlockTableRecord
  2
*D4
340
0
  0
BLOCK_RECORD
  5
369
330
1
100
AcDbSymbolTableRecord
100
AcDbBlockTableRecord
  2
*D5
340
0
  0
BLOCK_RECORD
  5
3CF
330
1
100
AcDbSymbolTableRecord
100
AcDbBlockTableRecord
  2
*D6
340
0
  0
BLOCK_RECORD
  5
3DD
330
1
100
AcDbSymbolTableRecord
100
AcDbBlockTableRecord
  2
*D7
340
0
  0
BLOCK_RECORD
  5
3EA
330
1
100
AcDbSymbolTableRecord
100
AcDbBlockTableRecord
  2
*D8
340
0
  0
BLOCK_RECORD
  5
3F7
330
1
100
AcDbSymbolTableRecord
100
AcDbBlockTableRecord
  2
*D9
340
0
  0
BLOCK_RECORD
  5
43E
330
1
100
AcDbSymbolTableRecord
100
AcDbBlockTableRecord
  2
*D10
340
0
  0
BLOCK_RECORD
  5
44C
330
1
100
AcDbSymbolTableRecord
100
AcDbBlockTableRecord
  2
*D11
340
0
  0
BLOCK_RECORD
  5
459
330
1
100
AcDbSymbolTableRecord
100
AcDbBlockTableRecord
  2
*D12
340
0
  0
BLOCK_RECORD
  5
4A4
330
1
100
AcDbSymbolTableRecord
100
AcDbBlockTableRecord
  2
*D13
340
0
  0
BLOCK_RECORD
  5
4F9
330
1
100
AcDbSymbolTableRecord
100
AcDbBlockTableRecord
  2
*D14
340
0
  0
BLOCK_RECORD
  5
506
330
1
100
AcDbSymbolTableRecord
100
AcDbBlockTableRecord
  2
*D15
340
0
  0
BLOCK_RECORD
  5
56A
330
1
100
AcDbSymbolTableRecord
100
AcDbBlockTableRecord
  2
*D16
340
0
  0
BLOCK_RECORD
  5
580
330
1
100
AcDbSymbolTableRecord
100
AcDbBlockTableRecord
  2
*D17
340
0
  0
BLOCK_RECORD
  5
1180
330
1
100
AcDbSymbolTableRecord
100
AcDbBlockTableRecord
  2
*D18
340
0
  0
BLOCK_RECORD
  5
122C
330
1
100
AcDbSymbolTableRecord
100
AcDbBlockTableRecord
  2
*D19
340
0
  0
BLOCK_RECORD
  5
1238
330
1
100
AcDbSymbolTableRecord
100
AcDbBlockTableRecord
  2
*D20
340
0
  0
BLOCK_RECORD
  5
1244
330
1
100
AcDbSymbolTableRecord
100
AcDbBlockTableRecord
  2
*D21
340
0
  0
BLOCK_RECORD
  5
1250
330
1
100
AcDbSymbolTableRecord
100
AcDbBlockTableRecord
  2
*D22
340
0
  0
BLOCK_RECORD
  5
125C
330
1
100
AcDbSymbolTableRecord
100
AcDbBlockTableRecord
  2
*D23
340
0
  0
BLOCK_RECORD
  5
138E
330
1
100
AcDbSymbolTableRecord
100
AcDbBlockTableRecord
  2
*D24
340
0
  0
BLOCK_RECORD
  5
1399
330
1
100
AcDbSymbolTableRecord
100
AcDbBlockTableRecord
  2
*D25
340
0
  0
ENDTAB
  0
ENDSEC
  0
SECTION
  2
BLOCKS
  0
BLOCK
  5
20
330
1F
100
AcDbEntity
  8
0
100
AcDbBlockBegin
  2
*Model_Space
 70
     0
 10
0.0
 20
0.0
 30
0.0
  3
*Model_Space
  1

  0
ENDBLK
  5
21
330
1F
100
AcDbEntity
  8
0
100
AcDbBlockEnd
  0
BLOCK
  5
1C
330
1B
100
AcDbEntity
 67
     1
  8
0
100
AcDbBlockBegin
  2
*Paper_Space
 70
     0
 10
0.0
 20
0.0
 30
0.0
  3
*Paper_Space
  1

  0
ENDBLK
  5
1D
330
1B
100
AcDbEntity
 67
     1
  8
0
100
AcDbBlockEnd
  0
BLOCK
  5
24
330
23
100
AcDbEntity
  8
0
100
AcDbBlockBegin
  2
*Paper_Space0
 70
     0
 10
0.0
 20
0.0
 30
0.0
  3
*Paper_Space0
  1

  0
ENDBLK
  5
25
330
23
100
AcDbEntity
  8
0
100
AcDbBlockEnd
  0
BLOCK
  5
D2
330
D0
100
AcDbEntity
  8
0
100
AcDbBlockBegin
  2
_DotSmall
 70
     0
 10
0.0
 20
0.0
 30
0.0
  3
_DotSmall
  1

  0
LWPOLYLINE
  5
D1
330
D0
100
AcDbEntity
  8
0
 62
     0
100
AcDbPolyline
 90
        2
 70
     1
 43
0.5
 10
-0.0625
 20
0.0
 42
1.0
 10
0.0625
 20
0.0
 42
1.0
  0
ENDBLK
  5
D3
330
D0
100
AcDbEntity
  8
0
100
AcDbBlockEnd
  0
BLOCK
  5
D8
330
D4
100
AcDbEntity
  8
0
100
AcDbBlockBegin
  2
_Origin2
 70
     0
 10
0.0
 20
0.0
 30
0.0
  3
_Origin2
  1

  0
CIRCLE
  5
D5
330
D4
100
AcDbEntity
  8
0
 62
     0
370
    -2
100
AcDbCircle
 10
0.0
 20
0.0
 30
0.0
 40
0.5
  0
CIRCLE
  5
D6
330
D4
100
AcDbEntity
  8
0
 62
     0
370
    -2
100
AcDbCircle
 10
0.0
 20
0.0
 30
0.0
 40
0.25
  0
LINE
  5
D7
330
D4
100
AcDbEntity
  8
0
 62
     0
370
    -2
100
AcDbLine
 10
-0.5
 20
0.0
 30
0.0
 11
-1.0
 21
0.0
 31
0.0
  0
ENDBLK
  5
D9
330
D4
100
AcDbEntity
  8
0
100
AcDbBlockEnd
  0
BLOCK
  5
DE
330
DA
100
AcDbEntity
  8
0
100
AcDbBlockBegin
  2
_Open30
 70
     0
 10
0.0
 20
0.0
 30
0.0
  3
_Open30
  1

  0
LINE
  5
DB
330
DA
100
AcDbEntity
  8
0
 62
     0
370
    -2
100
AcDbLine
 10
-1.0
 20
0.26794919
 30
0.0
 11
0.0
 21
0.0
 31
0.0
  0
LINE
  5
DC
330
DA
100
AcDbEntity
  8
0
 62
     0
370
    -2
100
AcDbLine
 10
0.0
 20
0.0
 30
0.0
 11
-1.0
 21
-0.26794919
 31
0.0
  0
LINE
  5
DD
330
DA
100
AcDbEntity
  8
0
 62
     0
370
    -2
100
AcDbLine
 10
0.0
 20
0.0
 30
0.0
 11
-1.0
 21
0.0
 31
0.0
  0
ENDBLK
  5
DF
330
DA
100
AcDbEntity
  8
0
100
AcDbBlockEnd
  0
BLOCK
  5
366
330
35C
100
AcDbEntity
  8
0
100
AcDbBlockBegin
  2
*D4
 70
     1
 10
0.0
 20
0.0
 30
0.0
  3
*D4
  1

  0
LINE
  5
1478
330
35C
100
AcDbEntity
  8
寸法
 62
     0
370
    15
100
AcDbLine
 10
924.8347009217905
 20
1548.64010564108
 30
0.0
 11
924.8347009217905
 21
1747.162625317523
 31
0.0
  0
LINE
  5
1479
330
35C
100
AcDbEntity
  8
寸法
 62
     0
370
    15
100
AcDbLine
 10
774.8347009217905
 20
1498.359507154115
 30
0.0
 11
774.8347009217905
 21
1747.162625317523
 31
0.0
  0
LINE
  5
147A
330
35C
100
AcDbEntity
  8
寸法
 62
     0
370
    18
100
AcDbLine
 10
924.8347009217905
 20
1747.162625317523
 30
0.0
 11
774.8347009217905
 21
1747.162625317523
 31
0.0
  0
INSERT
  5
147B
330
35C
100
AcDbEntity
  8
寸法
 62
     0
370
    18
100
AcDbBlockReference
  2
_DotSmall
 10
924.8347009217905
 20
1747.162625317523
 30
0.0
 41
25.0
 42
25.0
 43
25.0
  0
INSERT
  5
147C
330
35C
100
AcDbEntity
  8
寸法
 62
     0
370
    18
100
AcDbBlockReference
  2
_DotSmall
 10
774.8347009217905
 20
1747.162625317523
 30
0.0
 41
25.0
 42
25.0
 43
25.0
 50
180.0
  0
MTEXT
  5
147D
330
35C
100
AcDbEntity
  8
寸法
 62
     0
100
AcDbMText
 10
849.8347009217905
 20
1765.912625317523
 30
0.0
 40
25.0
 41
0.0
 71
     5
 72
     1
  1
150
 73
     1
 44
1.0
1001
ACAD
1000
MTEXTBEGIN
1070
    73
1070
     1
1070
    44
1040
1.0
1070
    74
1070
     0
1000
MTEXTEND
  0
POINT
  5
147E
330
35C
100
AcDbEntity
  8
Defpoints
 62
     0
100
AcDbPoint
 10
924.8347009217905
 20
1483.64010564108
 30
0.0
  0
POINT
  5
147F
330
35C
100
AcDbEntity
  8
Defpoints
 62
     0
100
AcDbPoint
 10
774.8347009217905
 20
1433.359507154115
 30
0.0
  0
POINT
  5
1480
330
35C
100
AcDbEntity
  8
Defpoints
 62
     0
100
AcDbPoint
 10
774.8347009217905
 20
1747.162625317523
 30
0.0
  0
ENDBLK
  5
367
330
35C
100
AcDbEntity
  8
0
100
AcDbBlockEnd
  0
BLOCK
  5
373
330
369
100
AcDbEntity
  8
0
100
AcDbBlockBegin
  2
*D5
 70
     1
 10
0.0
 20
0.0
 30
0.0
  3
*D5
  1

  0
LINE
  5
146F
330
369
100
AcDbEntity
  8
寸法
 62
     0
370
    15
100
AcDbLine
 10
1018.374313753725
 20
1433.359507154115
 30
0.0
 11
1049.83470092179
 21
1433.359507154115
 31
0.0
  0
LINE
  5
1470
330
369
100
AcDbEntity
  8
寸法
 62
     0
370
    15
100
AcDbLine
 10
1046.248925009262
 20
1653.359507154115
 30
0.0
 11
1049.83470092179
 21
1653.359507154115
 31
0.0
  0
LINE
  5
1471
330
369
100
AcDbEntity
  8
寸法
 62
     0
370
    18
100
AcDbLine
 10
1049.83470092179
 20
1433.359507154115
 30
0.0
 11
1049.83470092179
 21
1653.359507154115
 31
0.0
  0
INSERT
  5
1472
330
369
100
AcDbEntity
  8
寸法
 62
     0
370
    18
100
AcDbBlockReference
  2
_DotSmall
 10
1049.83470092179
 20
1433.359507154115
 30
0.0
 41
25.0
 42
25.0
 43
25.0
 50
270.0
  0
INSERT
  5
1473
330
369
100
AcDbEntity
  8
寸法
 62
     0
370
    18
100
AcDbBlockReference
  2
_DotSmall
 10
1049.83470092179
 20
1653.359507154115
 30
0.0
 41
25.0
 42
25.0
 43
25.0
 50
90.0
  0
MTEXT
  5
1474
330
369
100
AcDbEntity
  8
寸法
 62
     0
100
AcDbMText
 10
1031.08470092179
 20
1543.359507154115
 30
0.0
 40
25.0
 41
0.0
 71
     5
 72
     1
  1
220
 11
0.0000000000000001
 21
1.0
 31
0.0
 73
     1
 44
1.0
1001
ACAD
1000
MTEXTBEGIN
1070
    73
1070
     1
1070
    44
1040
1.0
1070
    74
1070
     0
1000
MTEXTEND
  0
POINT
  5
1475
330
369
100
AcDbEntity
  8
Defpoints
 62
     0
100
AcDbPoint
 10
953.3743137537248
 20
1433.359507154115
 30
0.0
  0
POINT
  5
1476
330
369
100
AcDbEntity
  8
Defpoints
 62
     0
100
AcDbPoint
 10
1111.248925009262
 20
1653.359507154115
 30
0.0
  0
POINT
  5
1477
330
369
100
AcDbEntity
  8
Defpoints
 62
     0
100
AcDbPoint
 10
1049.83470092179
 20
1653.359507154115
 30
0.0
  0
ENDBLK
  5
374
330
369
100
AcDbEntity
  8
0
100
AcDbBlockEnd
  0
BLOCK
  5
3DA
330
3CF
100
AcDbEntity
  8
0
100
AcDbBlockBegin
  2
*D6
 70
     1
 10
0.0
 20
0.0
 30
0.0
  3
*D6
  1

  0
LINE
  5
1467
330
3CF
100
AcDbEntity
  8
寸法
 62
     0
370
    15
100
AcDbLine
 10
694.8347009217904
 20
1668.359507154115
 30
0.0
 11
616.6593861979172
 21
1668.359507154115
 31
0.0
  0
LINE
  5
1468
330
3CF
100
AcDbEntity
  8
寸法
 62
     0
370
    15
100
AcDbLine
 10
694.8347009217904
 20
1653.359507154115
 30
0.0
 11
616.6593861979172
 21
1653.359507154115
 31
0.0
  0
LINE
  5
1469
330
3CF
100
AcDbEntity
  8
寸法
 62
     0
370
    18
100
AcDbLine
 10
616.6593861979172
 20
1668.359507154115
 30
0.0
 11
616.6593861979172
 21
1653.359507154115
 31
0.0
  0
INSERT
  5
146A
330
3CF
100
AcDbEntity
  8
寸法
 62
     0
370
    18
100
AcDbBlockReference
  2
_DotSmall
 10
616.6593861979172
 20
1668.359507154115
 30
0.0
 41
25.0
 42
25.0
 43
25.0
 50
90.0
  0
INSERT
  5
146B
330
3CF
100
AcDbEntity
  8
寸法
 62
     0
370
    18
100
AcDbBlockReference
  2
_DotSmall
 10
616.6593861979172
 20
1653.359507154115
 30
0.0
 41
25.0
 42
25.0
 43
25.0
 50
270.0
  0
POINT
  5
146C
330
3CF
100
AcDbEntity
  8
Defpoints
 62
     0
100
AcDbPoint
 10
759.8347009217905
 20
1668.359507154115
 30
0.0
  0
POINT
  5
146D
330
3CF
100
AcDbEntity
  8
Defpoints
 62
     0
100
AcDbPoint
 10
759.8347009217905
 20
1653.359507154115
 30
0.0
  0
POINT
  5
146E
330
3CF
100
AcDbEntity
  8
Defpoints
 62
     0
100
AcDbPoint
 10
616.6593861979172
 20
1653.359507154115
 30
0.0
  0
ENDBLK
  5
3DB
330
3CF
100
AcDbEntity
  8
0
100
AcDbBlockEnd
  0
BLOCK
  5
3E7
330
3DD
100
AcDbEntity
  8
0
100
AcDbBlockBegin
  2
*D7
 70
     1
 10
0.0
 20
0.0
 30
0.0
  3
*D7
  1

  0
LINE
  5
145E
330
3DD
100
AcDbEntity
  8
寸法
 62
     0
370
    15
100
AcDbLine
 10
694.8347009217904
 20
1653.359507154115
 30
0.0
 11
616.6593861979173
 21
1653.359507154115
 31
0.0
  0
LINE
  5
145F
330
3DD
100
AcDbEntity
  8
寸法
 62
     0
370
    15
100
AcDbLine
 10
694.8347009217904
 20
1213.359507154115
 30
0.0
 11
616.6593861979172
 21
1213.359507154115
 31
0.0
  0
LINE
  5
1460
330
3DD
100
AcDbEntity
  8
寸法
 62
     0
370
    18
100
AcDbLine
 10
616.6593861979173
 20
1653.359507154115
 30
0.0
 11
616.6593861979172
 21
1213.359507154115
 31
0.0
  0
INSERT
  5
1461
330
3DD
100
AcDbEntity
  8
寸法
 62
     0
370
    18
100
AcDbBlockReference
  2
_DotSmall
 10
616.6593861979173
 20
1653.359507154115
 30
0.0
 41
25.0
 42
25.0
 43
25.0
 50
90.0
  0
INSERT
  5
1462
330
3DD
100
AcDbEntity
  8
寸法
 62
     0
370
    18
100
AcDbBlockReference
  2
_DotSmall
 10
616.6593861979172
 20
1213.359507154115
 30
0.0
 41
25.0
 42
25.0
 43
25.0
 50
270.0
  0
MTEXT
  5
1463
330
3DD
100
AcDbEntity
  8
寸法
 62
     0
100
AcDbMText
 10
597.9093861979171
 20
1433.359507154115
 30
0.0
 40
25.0
 41
0.0
 71
     5
 72
     1
  1
440
 11
0.0000000000000001
 21
1.0
 31
0.0
 73
     1
 44
1.0
1001
ACAD
1000
MTEXTBEGIN
1070
    73
1070
     1
1070
    44
1040
1.0
1070
    74
1070
     0
1000
MTEXTEND
  0
POINT
  5
1464
330
3DD
100
AcDbEntity
  8
Defpoints
 62
     0
100
AcDbPoint
 10
759.8347009217905
 20
1653.359507154115
 30
0.0
  0
POINT
  5
1465
330
3DD
100
AcDbEntity
  8
Defpoints
 62
     0
100
AcDbPoint
 10
759.8347009217905
 20
1213.359507154115
 30
0.0
  0
POINT
  5
1466
330
3DD
100
AcDbEntity
  8
Defpoints
 62
     0
100
AcDbPoint
 10
616.6593861979172
 20
1213.359507154115
 30
0.0
  0
ENDBLK
  5
3E8
330
3DD
100
AcDbEntity
  8
0
100
AcDbBlockEnd
  0
BLOCK
  5
3F4
330
3EA
100
AcDbEntity
  8
0
100
AcDbBlockBegin
  2
*D8
 70
     1
 10
0.0
 20
0.0
 30
0.0
  3
*D8
  1

  0
LINE
  5
1455
330
3EA
100
AcDbEntity
  8
寸法
 62
     0
370
    15
100
AcDbLine
 10
694.8347009217904
 20
1213.359507154115
 30
0.0
 11
616.6593861979172
 21
1213.359507154115
 31
0.0
  0
LINE
  5
1456
330
3EA
100
AcDbEntity
  8
寸法
 62
     0
370
    15
100
AcDbLine
 10
694.8347009217904
 20
1198.359507154115
 30
0.0
 11
616.6593861979172
 21
1198.359507154115
 31
0.0
  0
LINE
  5
1457
330
3EA
100
AcDbEntity
  8
寸法
 62
     0
370
    18
100
AcDbLine
 10
616.6593861979172
 20
1213.359507154115
 30
0.0
 11
616.6593861979172
 21
1198.359507154115
 31
0.0
  0
MTEXT
  5
1458
330
3EA
100
AcDbEntity
  8
寸法
 62
     0
370
    18
100
AcDbMText
 10
602.3432804933317
 20
1155.675266445888
 30
0.0
 40
25.0
 41
0.0
 71
     5
 72
     1
  1
15
 11
0.0000000000000001
 21
1.0
 31
0.0
 73
     1
 44
1.0
1001
ACAD
1000
MTEXTBEGIN
1070
    73
1070
     1
1070
    44
1040
1.0
1070
    74
1070
     0
1000
MTEXTEND
  0
INSERT
  5
1459
330
3EA
100
AcDbEntity
  8
寸法
 62
     0
370
    18
100
AcDbBlockReference
  2
_DotSmall
 10
616.6593861979172
 20
1213.359507154115
 30
0.0
 41
25.0
 42
25.0
 43
25.0
 50
90.0
  0
INSERT
  5
145A
330
3EA
100
AcDbEntity
  8
寸法
 62
     0
370
    18
100
AcDbBlockReference
  2
_DotSmall
 10
616.6593861979172
 20
1198.359507154115
 30
0.0
 41
25.0
 42
25.0
 43
25.0
 50
270.0
  0
POINT
  5
145B
330
3EA
100
AcDbEntity
  8
Defpoints
 62
     0
100
AcDbPoint
 10
759.8347009217905
 20
1213.359507154115
 30
0.0
  0
POINT
  5
145C
330
3EA
100
AcDbEntity
  8
Defpoints
 62
     0
100
AcDbPoint
 10
759.8347009217905
 20
1198.359507154115
 30
0.0
  0
POINT
  5
145D
330
3EA
100
AcDbEntity
  8
Defpoints
 62
     0
100
AcDbPoint
 10
616.6593861979172
 20
1198.359507154115
 30
0.0
  0
ENDBLK
  5
3F5
330
3EA
100
AcDbEntity
  8
0
100
AcDbBlockEnd
  0
BLOCK
  5
401
330
3F7
100
AcDbEntity
  8
0
100
AcDbBlockBegin
  2
*D9
 70
     1
 10
0.0
 20
0.0
 30
0.0
  3
*D9
  1

  0
LINE
  5
144C
330
3F7
100
AcDbEntity
  8
寸法
 62
     0
370
    15
100
AcDbLine
 10
694.8347009217904
 20
1668.359507154115
 30
0.0
 11
547.819487873233
 21
1668.359507154115
 31
0.0
  0
LINE
  5
144D
330
3F7
100
AcDbEntity
  8
寸法
 62
     0
370
    15
100
AcDbLine
 10
694.8347009217904
 20
1198.359507154115
 30
0.0
 11
547.8194878732328
 21
1198.359507154115
 31
0.0
  0
LINE
  5
144E
330
3F7
100
AcDbEntity
  8
寸法
 62
     0
370
    18
100
AcDbLine
 10
547.819487873233
 20
1668.359507154115
 30
0.0
 11
547.8194878732328
 21
1198.359507154115
 31
0.0
  0
INSERT
  5
144F
330
3F7
100
AcDbEntity
  8
寸法
 62
     0
370
    18
100
AcDbBlockReference
  2
_DotSmall
 10
547.819487873233
 20
1668.359507154115
 30
0.0
 41
25.0
 42
25.0
 43
25.0
 50
90.0
  0
INSERT
  5
1450
330
3F7
100
AcDbEntity
  8
寸法
 62
     0
370
    18
100
AcDbBlockReference
  2
_DotSmall
 10
547.8194878732328
 20
1198.359507154115
 30
0.0
 41
25.0
 42
25.0
 43
25.0
 50
270.0
  0
MTEXT
  5
1451
330
3F7
100
AcDbEntity
  8
寸法
 62
     0
100
AcDbMText
 10
529.0694878732328
 20
1433.359507154115
 30
0.0
 40
25.0
 41
0.0
 71
     5
 72
     1
  1
470
 11
0.0000000000000001
 21
1.0
 31
0.0
 73
     1
 44
1.0
1001
ACAD
1000
MTEXTBEGIN
1070
    73
1070
     1
1070
    44
1040
1.0
1070
    74
1070
     0
1000
MTEXTEND
  0
POINT
  5
1452
330
3F7
100
AcDbEntity
  8
Defpoints
 62
     0
100
AcDbPoint
 10
759.8347009217905
 20
1668.359507154115
 30
0.0
  0
POINT
  5
1453
330
3F7
100
AcDbEntity
  8
Defpoints
 62
     0
100
AcDbPoint
 10
759.8347009217905
 20
1198.359507154115
 30
0.0
  0
POINT
  5
1454
330
3F7
100
AcDbEntity
  8
Defpoints
 62
     0
100
AcDbPoint
 10
547.8194878732328
 20
1198.359507154115
 30
0.0
  0
ENDBLK
  5
402
330
3F7
100
AcDbEntity
  8
0
100
AcDbBlockEnd
  0
BLOCK
  5
449
330
43E
100
AcDbEntity
  8
0
100
AcDbBlockBegin
  2
*D10
 70
     1
 10
0.0
 20
0.0
 30
0.0
  3
*D10
  1

  0
LINE
  5
1443
330
43E
100
AcDbEntity
  8
寸法
 62
     0
370
    15
100
AcDbLine
 10
759.8347009217905
 20
1133.359507154115
 30
0.0
 11
759.8347009217905
 21
1050.42738938406
 31
0.0
  0
LINE
  5
1444
330
43E
100
AcDbEntity
  8
寸法
 62
     0
370
    15
100
AcDbLine
 10
774.8347009217905
 20
1133.359507154115
 30
0.0
 11
774.8347009217905
 21
1050.42738938406
 31
0.0
  0
LINE
  5
1445
330
43E
100
AcDbEntity
  8
寸法
 62
     0
370
    18
100
AcDbLine
 10
759.8347009217905
 20
1050.42738938406
 30
0.0
 11
774.8347009217905
 21
1050.42738938406
 31
0.0
  0
LINE
  5
1446
330
43E
100
AcDbEntity
  8
寸法
 62
     0
370
    18
100
AcDbLine
 10
774.8347009217905
 20
1050.42738938406
 30
0.0
 11
840.5847009217904
 21
1050.42738938406
 31
0.0
  0
INSERT
  5
1447
330
43E
100
AcDbEntity
  8
寸法
 62
     0
370
    18
100
AcDbBlockReference
  2
_DotSmall
 10
759.8347009217905
 20
1050.42738938406
 30
0.0
 41
25.0
 42
25.0
 43
25.0
 50
180.0
  0
INSERT
  5
1448
330
43E
100
AcDbEntity
  8
寸法
 62
     0
370
    18
100
AcDbBlockReference
  2
_DotSmall
 10
774.8347009217905
 20
1050.42738938406
 30
0.0
 41
25.0
 42
25.0
 43
25.0
  0
POINT
  5
1449
330
43E
100
AcDbEntity
  8
Defpoints
 62
     0
100
AcDbPoint
 10
759.8347009217905
 20
1198.359507154115
 30
0.0
  0
POINT
  5
144A
330
43E
100
AcDbEntity
  8
Defpoints
 62
     0
100
AcDbPoint
 10
774.8347009217905
 20
1198.359507154115
 30
0.0
  0
POINT
  5
144B
330
43E
100
AcDbEntity
  8
Defpoints
 62
     0
100
AcDbPoint
 10
774.8347009217905
 20
1050.42738938406
 30
0.0
  0
ENDBLK
  5
44A
330
43E
100
AcDbEntity
  8
0
100
AcDbBlockEnd
  0
BLOCK
  5
456
330
44C
100
AcDbEntity
  8
0
100
AcDbBlockBegin
  2
*D11
 70
     1
 10
0.0
 20
0.0
 30
0.0
  3
*D11
  1

  0
LINE
  5
143A
330
44C
100
AcDbEntity
  8
寸法
 62
     0
370
    15
100
AcDbLine
 10
774.8347009217905
 20
1133.359507154115
 30
0.0
 11
774.8347009217905
 21
1050.42738938406
 31
0.0
  0
LINE
  5
143B
330
44C
100
AcDbEntity
  8
寸法
 62
     0
370
    15
100
AcDbLine
 10
1324.83470092179
 20
1133.359507154115
 30
0.0
 11
1324.83470092179
 21
1050.42738938406
 31
0.0
  0
LINE
  5
143C
330
44C
100
AcDbEntity
  8
寸法
 62
     0
370
    18
100
AcDbLine
 10
774.8347009217905
 20
1050.42738938406
 30
0.0
 11
1324.83470092179
 21
1050.42738938406
 31
0.0
  0
INSERT
  5
143D
330
44C
100
AcDbEntity
  8
寸法
 62
     0
370
    18
100
AcDbBlockReference
  2
_DotSmall
 10
774.8347009217905
 20
1050.42738938406
 30
0.0
 41
25.0
 42
25.0
 43
25.0
 50
180.0
  0
INSERT
  5
143E
330
44C
100
AcDbEntity
  8
寸法
 62
     0
370
    18
100
AcDbBlockReference
  2
_DotSmall
 10
1324.83470092179
 20
1050.42738938406
 30
0.0
 41
25.0
 42
25.0
 43
25.0
  0
MTEXT
  5
143F
330
44C
100
AcDbEntity
  8
寸法
 62
     0
100
AcDbMText
 10
1049.83470092179
 20
1069.17738938406
 30
0.0
 40
25.0
 41
0.0
 71
     5
 72
     1
  1
550
 73
     1
 44
1.0
1001
ACAD
1000
MTEXTBEGIN
1070
    73
1070
     1
1070
    44
1040
1.0
1070
    74
1070
     0
1000
MTEXTEND
  0
POINT
  5
1440
330
44C
100
AcDbEntity
  8
Defpoints
 62
     0
100
AcDbPoint
 10
774.8347009217905
 20
1198.359507154115
 30
0.0
  0
POINT
  5
1441
330
44C
100
AcDbEntity
  8
Defpoints
 62
     0
100
AcDbPoint
 10
1324.83470092179
 20
1198.359507154115
 30
0.0
  0
POINT
  5
1442
330
44C
100
AcDbEntity
  8
Defpoints
 62
     0
100
AcDbPoint
 10
1324.83470092179
 20
1050.42738938406
 30
0.0
  0
ENDBLK
  5
457
330
44C
100
AcDbEntity
  8
0
100
AcDbBlockEnd
  0
BLOCK
  5
465
330
459
100
AcDbEntity
  8
0
100
AcDbBlockBegin
  2
*D12
 70
     1
 10
0.0
 20
0.0
 30
0.0
  3
*D12
  1

  0
LINE
  5
1432
330
459
100
AcDbEntity
  8
寸法
 62
     0
370
    15
100
AcDbLine
 10
1324.83470092179
 20
1133.359507154115
 30
0.0
 11
1324.83470092179
 21
1050.42738938406
 31
0.0
  0
LINE
  5
1433
330
459
100
AcDbEntity
  8
寸法
 62
     0
370
    15
100
AcDbLine
 10
1339.83470092179
 20
1133.359507154115
 30
0.0
 11
1339.83470092179
 21
1050.42738938406
 31
0.0
  0
LINE
  5
1434
330
459
100
AcDbEntity
  8
寸法
 62
     0
370
    18
100
AcDbLine
 10
1324.83470092179
 20
1050.42738938406
 30
0.0
 11
1339.83470092179
 21
1050.42738938406
 31
0.0
  0
INSERT
  5
1435
330
459
100
AcDbEntity
  8
寸法
 62
     0
370
    18
100
AcDbBlockReference
  2
_DotSmall
 10
1324.83470092179
 20
1050.42738938406
 30
0.0
 41
25.0
 42
25.0
 43
25.0
 50
180.0
  0
INSERT
  5
1436
330
459
100
AcDbEntity
  8
寸法
 62
     0
370
    18
100
AcDbBlockReference
  2
_DotSmall
 10
1339.83470092179
 20
1050.42738938406
 30
0.0
 41
25.0
 42
25.0
 43
25.0
  0
POINT
  5
1437
330
459
100
AcDbEntity
  8
Defpoints
 62
     0
100
AcDbPoint
 10
1324.83470092179
 20
1198.359507154115
 30
0.0
  0
POINT
  5
1438
330
459
100
AcDbEntity
  8
Defpoints
 62
     0
100
AcDbPoint
 10
1339.83470092179
 20
1198.359507154115
 30
0.0
  0
POINT
  5
1439
330
459
100
AcDbEntity
  8
Defpoints
 62
     0
100
AcDbPoint
 10
1339.83470092179
 20
1050.42738938406
 30
0.0
  0
ENDBLK
  5
466
330
459
100
AcDbEntity
  8
0
100
AcDbBlockEnd
  0
BLOCK
  5
4AE
330
4A4
100
AcDbEntity
  8
0
100
AcDbBlockBegin
  2
*D13
 70
     1
 10
0.0
 20
0.0
 30
0.0
  3
*D13
  1

  0
LINE
  5
1429
330
4A4
100
AcDbEntity
  8
寸法
 62
     0
370
    15
100
AcDbLine
 10
759.8347009217905
 20
1133.359507154115
 30
0.0
 11
759.8347009217905
 21
972.6354792281908
 31
0.0
  0
LINE
  5
142A
330
4A4
100
AcDbEntity
  8
寸法
 62
     0
370
    15
100
AcDbLine
 10
1339.83470092179
 20
1133.359507154115
 30
0.0
 11
1339.83470092179
 21
972.6354792281908
 31
0.0
  0
LINE
  5
142B
330
4A4
100
AcDbEntity
  8
寸法
 62
     0
370
    18
100
AcDbLine
 10
759.8347009217905
 20
972.6354792281908
 30
0.0
 11
1339.83470092179
 21
972.6354792281908
 31
0.0
  0
INSERT
  5
142C
330
4A4
100
AcDbEntity
  8
寸法
 62
     0
370
    18
100
AcDbBlockReference
  2
_DotSmall
 10
759.8347009217905
 20
972.6354792281908
 30
0.0
 41
25.0
 42
25.0
 43
25.0
 50
180.0
  0
INSERT
  5
142D
330
4A4
100
AcDbEntity
  8
寸法
 62
     0
370
    18
100
AcDbBlockReference
  2
_DotSmall
 10
1339.83470092179
 20
972.6354792281908
 30
0.0
 41
25.0
 42
25.0
 43
25.0
  0
MTEXT
  5
142E
330
4A4
100
AcDbEntity
  8
寸法
 62
     0
100
AcDbMText
 10
1049.83470092179
 20
991.3854792281908
 30
0.0
 40
25.0
 41
0.0
 71
     5
 72
     1
  1
580
 73
     1
 44
1.0
1001
ACAD
1000
MTEXTBEGIN
1070
    73
1070
     1
1070
    44
1040
1.0
1070
    74
1070
     0
1000
MTEXTEND
  0
POINT
  5
142F
330
4A4
100
AcDbEntity
  8
Defpoints
 62
     0
100
AcDbPoint
 10
759.8347009217905
 20
1198.359507154115
 30
0.0
  0
POINT
  5
1430
330
4A4
100
AcDbEntity
  8
Defpoints
 62
     0
100
AcDbPoint
 10
1339.83470092179
 20
1198.359507154115
 30
0.0
  0
POINT
  5
1431
330
4A4
100
AcDbEntity
  8
Defpoints
 62
     0
100
AcDbPoint
 10
1339.83470092179
 20
972.6354792281908
 30
0.0
  0
ENDBLK
  5
4AF
330
4A4
100
AcDbEntity
  8
0
100
AcDbBlockEnd
  0
BLOCK
  5
503
330
4F9
100
AcDbEntity
  8
0
100
AcDbBlockBegin
  2
*D14
 70
     1
 10
0.0
 20
0.0
 30
0.0
  3
*D14
  1

  0
LINE
  5
14AA
330
4F9
100
AcDbEntity
  8
寸法
 62
     0
370
    15
100
AcDbLine
 10
844.8347009217904
 20
488.3595071541149
 30
0.0
 11
844.8347009217904
 21
436.932099853042
 31
0.0
  0
LINE
  5
14AB
330
4F9
100
AcDbEntity
  8
寸法
 62
     0
370
    15
100
AcDbLine
 10
1004.83470092179
 20
488.3595071541149
 30
0.0
 11
1004.83470092179
 21
436.932099853042
 31
0.0
  0
LINE
  5
14AC
330
4F9
100
AcDbEntity
  8
寸法
 62
     0
370
    18
100
AcDbLine
 10
844.8347009217904
 20
436.932099853042
 30
0.0
 11
1004.83470092179
 21
436.932099853042
 31
0.0
  0
INSERT
  5
14AD
330
4F9
100
AcDbEntity
  8
寸法
 62
     0
370
    18
100
AcDbBlockReference
  2
_DotSmall
 10
844.8347009217904
 20
436.932099853042
 30
0.0
 41
25.0
 42
25.0
 43
25.0
 50
180.0
  0
INSERT
  5
14AE
330
4F9
100
AcDbEntity
  8
寸法
 62
     0
370
    18
100
AcDbBlockReference
  2
_DotSmall
 10
1004.83470092179
 20
436.932099853042
 30
0.0
 41
25.0
 42
25.0
 43
25.0
  0
MTEXT
  5
14AF
330
4F9
100
AcDbEntity
  8
寸法
 62
     0
100
AcDbMText
 10
924.8347009217905
 20
455.682099853042
 30
0.0
 40
25.0
 41
0.0
 71
     5
 72
     1
  1
158
 73
     1
 44
1.0
1001
ACAD
1000
MTEXTBEGIN
1070
    73
1070
     1
1070
    44
1040
1.0
1070
    74
1070
     0
1000
MTEXTEND
  0
POINT
  5
14B0
330
4F9
100
AcDbEntity
  8
Defpoints
 62
     0
100
AcDbPoint
 10
844.8347009217904
 20
553.3595071541149
 30
0.0
  0
POINT
  5
14B1
330
4F9
100
AcDbEntity
  8
Defpoints
 62
     0
100
AcDbPoint
 10
1004.83470092179
 20
553.3595071541149
 30
0.0
  0
POINT
  5
14B2
330
4F9
100
AcDbEntity
  8
Defpoints
 62
     0
100
AcDbPoint
 10
1004.83470092179
 20
436.932099853042
 30
0.0
  0
ENDBLK
  5
504
330
4F9
100
AcDbEntity
  8
0
100
AcDbBlockEnd
  0
BLOCK
  5
510
330
506
100
AcDbEntity
  8
0
100
AcDbBlockBegin
  2
*D15
 70
     1
 10
0.0
 20
0.0
 30
0.0
  3
*D15
  1

  0
LINE
  5
1417
330
506
100
AcDbEntity
  8
寸法
 62
     0
370
    15
100
AcDbLine
 10
834.3347009217904
 20
488.359507154115
 30
0.0
 11
834.3347009217904
 21
376.9727012841131
 31
0.0
  0
LINE
  5
1418
330
506
100
AcDbEntity
  8
寸法
 62
     0
370
    15
100
AcDbLine
 10
1015.33470092179
 20
488.3595071541149
 30
0.0
 11
1015.33470092179
 21
376.9727012841131
 31
0.0
  0
LINE
  5
1419
330
506
100
AcDbEntity
  8
寸法
 62
     0
370
    18
100
AcDbLine
 10
834.3347009217904
 20
376.9727012841131
 30
0.0
 11
1015.33470092179
 21
376.9727012841131
 31
0.0
  0
INSERT
  5
141A
330
506
100
AcDbEntity
  8
寸法
 62
     0
370
    18
100
AcDbBlockReference
  2
_DotSmall
 10
834.3347009217904
 20
376.9727012841131
 30
0.0
 41
25.0
 42
25.0
 43
25.0
 50
180.0
  0
INSERT
  5
141B
330
506
100
AcDbEntity
  8
寸法
 62
     0
370
    18
100
AcDbBlockReference
  2
_DotSmall
 10
1015.33470092179
 20
376.9727012841131
 30
0.0
 41
25.0
 42
25.0
 43
25.0
  0
MTEXT
  5
141C
330
506
100
AcDbEntity
  8
寸法
 62
     0
100
AcDbMText
 10
924.8347009217905
 20
395.7227012841131
 30
0.0
 40
25.0
 41
0.0
 71
     5
 72
     1
  1
181
 73
     1
 44
1.0
1001
ACAD
1000
MTEXTBEGIN
1070
    73
1070
     1
1070
    44
1040
1.0
1070
    74
1070
     0
1000
MTEXTEND
  0
POINT
  5
141D
330
506
100
AcDbEntity
  8
Defpoints
 62
     0
100
AcDbPoint
 10
834.3347009217904
 20
553.3595071541149
 30
0.0
  0
POINT
  5
141E
330
506
100
AcDbEntity
  8
Defpoints
 62
     0
100
AcDbPoint
 10
1015.33470092179
 20
553.3595071541149
 30
0.0
  0
POINT
  5
141F
330
506
100
AcDbEntity
  8
Defpoints
 62
     0
100
AcDbPoint
 10
1015.33470092179
 20
376.9727012841131
 30
0.0
  0
ENDBLK
  5
511
330
506
100
AcDbEntity
  8
0
100
AcDbBlockEnd
  0
BLOCK
  5
574
330
56A
100
AcDbEntity
  8
0
100
AcDbBlockBegin
  2
*D16
 70
     1
 10
0.0
 20
0.0
 30
0.0
  3
*D16
  1

  0
LINE
  5
14A1
330
56A
100
AcDbEntity
  8
寸法
 62
     0
370
    15
100
AcDbLine
 10
2059.834700921791
 20
1513.359507154115
 30
0.0
 11
2105.140845013711
 21
1513.359507154115
 31
0.0
  0
LINE
  5
14A2
330
56A
100
AcDbEntity
  8
寸法
 62
     0
370
    15
100
AcDbLine
 10
2059.834700921791
 20
1353.359507154115
 30
0.0
 11
2105.140845013711
 21
1353.359507154115
 31
0.0
  0
LINE
  5
14A3
330
56A
100
AcDbEntity
  8
寸法
 62
     0
370
    18
100
AcDbLine
 10
2105.140845013711
 20
1513.359507154115
 30
0.0
 11
2105.140845013711
 21
1353.359507154115
 31
0.0
  0
INSERT
  5
14A4
330
56A
100
AcDbEntity
  8
寸法
 62
     0
370
    18
100
AcDbBlockReference
  2
_DotSmall
 10
2105.140845013711
 20
1513.359507154115
 30
0.0
 41
25.0
 42
25.0
 43
25.0
 50
90.0
  0
INSERT
  5
14A5
330
56A
100
AcDbEntity
  8
寸法
 62
     0
370
    18
100
AcDbBlockReference
  2
_DotSmall
 10
2105.140845013711
 20
1353.359507154115
 30
0.0
 41
25.0
 42
25.0
 43
25.0
 50
270.0
  0
MTEXT
  5
14A6
330
56A
100
AcDbEntity
  8
寸法
 62
     0
100
AcDbMText
 10
2086.39084501371
 20
1433.359507154115
 30
0.0
 40
25.0
 41
0.0
 71
     5
 72
     1
  1
158
 11
0.0000000000000001
 21
1.0
 31
0.0
 73
     1
 44
1.0
1001
ACAD
1000
MTEXTBEGIN
1070
    73
1070
     1
1070
    44
1040
1.0
1070
    74
1070
     0
1000
MTEXTEND
  0
POINT
  5
14A7
330
56A
100
AcDbEntity
  8
Defpoints
 62
     0
100
AcDbPoint
 10
1994.83470092179
 20
1513.359507154115
 30
0.0
  0
POINT
  5
14A8
330
56A
100
AcDbEntity
  8
Defpoints
 62
     0
100
AcDbPoint
 10
1994.83470092179
 20
1353.359507154115
 30
0.0
  0
POINT
  5
14A9
330
56A
100
AcDbEntity
  8
Defpoints
 62
     0
100
AcDbPoint
 10
2105.140845013711
 20
1353.359507154115
 30
0.0
  0
ENDBLK
  5
575
330
56A
100
AcDbEntity
  8
0
100
AcDbBlockEnd
  0
BLOCK
  5
58A
330
580
100
AcDbEntity
  8
0
100
AcDbBlockBegin
  2
*D17
 70
     1
 10
0.0
 20
0.0
 30
0.0
  3
*D17
  1

  0
LINE
  5
1405
330
580
100
AcDbEntity
  8
寸法
 62
     0
370
    15
100
AcDbLine
 10
2059.834700921791
 20
1523.859507154115
 30
0.0
 11
2170.062432978552
 21
1523.859507154115
 31
0.0
  0
LINE
  5
1406
330
580
100
AcDbEntity
  8
寸法
 62
     0
370
    15
100
AcDbLine
 10
2059.834700921791
 20
1342.859507154115
 30
0.0
 11
2170.062432978552
 21
1342.859507154115
 31
0.0
  0
LINE
  5
1407
330
580
100
AcDbEntity
  8
寸法
 62
     0
370
    18
100
AcDbLine
 10
2170.062432978552
 20
1523.859507154115
 30
0.0
 11
2170.062432978552
 21
1342.859507154115
 31
0.0
  0
INSERT
  5
1408
330
580
100
AcDbEntity
  8
寸法
 62
     0
370
    18
100
AcDbBlockReference
  2
_DotSmall
 10
2170.062432978552
 20
1523.859507154115
 30
0.0
 41
25.0
 42
25.0
 43
25.0
 50
90.0
  0
INSERT
  5
1409
330
580
100
AcDbEntity
  8
寸法
 62
     0
370
    18
100
AcDbBlockReference
  2
_DotSmall
 10
2170.062432978552
 20
1342.859507154115
 30
0.0
 41
25.0
 42
25.0
 43
25.0
 50
270.0
  0
MTEXT
  5
140A
330
580
100
AcDbEntity
  8
寸法
 62
     0
100
AcDbMText
 10
2151.312432978552
 20
1433.359507154115
 30
0.0
 40
25.0
 41
0.0
 71
     5
 72
     1
  1
181
 11
0.0000000000000001
 21
1.0
 31
0.0
 73
     1
 44
1.0
1001
ACAD
1000
MTEXTBEGIN
1070
    73
1070
     1
1070
    44
1040
1.0
1070
    74
1070
     0
1000
MTEXTEND
  0
POINT
  5
140B
330
580
100
AcDbEntity
  8
Defpoints
 62
     0
100
AcDbPoint
 10
1994.83470092179
 20
1523.859507154115
 30
0.0
  0
POINT
  5
140C
330
580
100
AcDbEntity
  8
Defpoints
 62
     0
100
AcDbPoint
 10
1994.83470092179
 20
1342.859507154115
 30
0.0
  0
POINT
  5
140D
330
580
100
AcDbEntity
  8
Defpoints
 62
     0
100
AcDbPoint
 10
2170.062432978552
 20
1342.859507154115
 30
0.0
  0
ENDBLK
  5
58B
330
580
100
AcDbEntity
  8
0
100
AcDbBlockEnd
  0
BLOCK
  5
118A
330
1180
100
AcDbEntity
  8
0
100
AcDbBlockBegin
  2
*D18
 70
     1
 10
0.0
 20
0.0
 30
0.0
  3
*D18
  1

  0
LINE
  5
13FC
330
1180
100
AcDbEntity
  8
寸法
 62
     0
370
    15
100
AcDbLine
 10
1784.834700921791
 20
1460.859507154115
 30
0.0
 11
1784.834700921791
 21
1533.66604454553
 31
0.0
  0
LINE
  5
13FD
330
1180
100
AcDbEntity
  8
寸法
 62
     0
370
    15
100
AcDbLine
 10
1834.83470092179
 20
1535.859507154115
 30
0.0
 11
1834.83470092179
 21
1533.66604454553
 31
0.0
  0
LINE
  5
13FE
330
1180
100
AcDbEntity
  8
寸法
 62
     0
370
    18
100
AcDbLine
 10
1784.834700921791
 20
1533.66604454553
 30
0.0
 11
1834.83470092179
 21
1533.66604454553
 31
0.0
  0
INSERT
  5
13FF
330
1180
100
AcDbEntity
  8
寸法
 62
     0
370
    18
100
AcDbBlockReference
  2
_DotSmall
 10
1784.834700921791
 20
1533.66604454553
 30
0.0
 41
25.0
 42
25.0
 43
25.0
 50
180.0
  0
INSERT
  5
1400
330
1180
100
AcDbEntity
  8
寸法
 62
     0
370
    18
100
AcDbBlockReference
  2
_DotSmall
 10
1834.83470092179
 20
1533.66604454553
 30
0.0
 41
25.0
 42
25.0
 43
25.0
  0
MTEXT
  5
1401
330
1180
100
AcDbEntity
  8
寸法
 62
     0
100
AcDbMText
 10
1809.834700921791
 20
1552.41604454553
 30
0.0
 40
25.0
 41
0.0
 71
     5
 72
     1
  1
50
 73
     1
 44
1.0
1001
ACAD
1000
MTEXTBEGIN
1070
    73
1070
     1
1070
    44
1040
1.0
1070
    74
1070
     0
1000
MTEXTEND
  0
POINT
  5
1402
330
1180
100
AcDbEntity
  8
Defpoints
 62
     0
100
AcDbPoint
 10
1784.834700921791
 20
1395.859507154115
 30
0.0
  0
POINT
  5
1403
330
1180
100
AcDbEntity
  8
Defpoints
 62
     0
100
AcDbPoint
 10
1834.83470092179
 20
1470.859507154115
 30
0.0
  0
POINT
  5
1404
330
1180
100
AcDbEntity
  8
Defpoints
 62
     0
100
AcDbPoint
 10
1834.83470092179
 20
1533.66604454553
 30
0.0
  0
ENDBLK
  5
118B
330
1180
100
AcDbEntity
  8
0
100
AcDbBlockEnd
  0
BLOCK
  5
1236
330
122C
100
AcDbEntity
  8
0
100
AcDbBlockBegin
  2
*D19
 70
     1
 10
0.0
 20
0.0
 30
0.0
  3
*D19
  1

  0
LINE
  5
13F3
330
122C
100
AcDbEntity
  8
寸法
 62
     0
370
    18
100
AcDbLine
 10
1797.257943187953
 20
603.2354156502325
 30
0.0
 11
1797.257943187953
 21
735.3613790132132
 31
0.0
  0
LINE
  5
13F4
330
122C
100
AcDbEntity
  8
寸法
 62
     0
370
    18
100
AcDbLine
 10
2172.257943187953
 20
603.2354156502325
 30
0.0
 11
2172.257943187953
 21
735.3613790132132
 31
0.0
  0
LINE
  5
13F5
330
122C
100
AcDbEntity
  8
寸法
 62
     0
370
    18
100
AcDbLine
 10
1797.257943187953
 20
735.3613790132132
 30
0.0
 11
2172.257943187953
 21
735.3613790132132
 31
0.0
  0
INSERT
  5
13F6
330
122C
100
AcDbEntity
  8
寸法
 62
     0
370
    18
100
AcDbBlockReference
  2
_DotSmall
 10
1797.257943187953
 20
735.3613790132132
 30
0.0
 41
25.0
 42
25.0
 43
25.0
 50
180.0
  0
INSERT
  5
13F7
330
122C
100
AcDbEntity
  8
寸法
 62
     0
370
    18
100
AcDbBlockReference
  2
_DotSmall
 10
2172.257943187953
 20
735.3613790132132
 30
0.0
 41
25.0
 42
25.0
 43
25.0
  0
MTEXT
  5
13F8
330
122C
100
AcDbEntity
  8
寸法
 62
     0
100
AcDbMText
 10
1984.757943187953
 20
754.1113790132132
 30
0.0
 40
25.0
 41
0.0
 71
     5
 72
     1
  1
75
 73
     1
 44
1.0
1001
ACAD
1000
MTEXTBEGIN
1070
    73
1070
     1
1070
    44
1040
1.0
1070
    74
1070
     0
1000
MTEXTEND
  0
POINT
  5
13F9
330
122C
100
AcDbEntity
  8
Defpoints
 62
     0
100
AcDbPoint
 10
1797.257943187953
 20
538.2354156502325
 30
0.0
  0
POINT
  5
13FA
330
122C
100
AcDbEntity
  8
Defpoints
 62
     0
100
AcDbPoint
 10
2172.257943187953
 20
538.2354156502325
 30
0.0
  0
POINT
  5
13FB
330
122C
100
AcDbEntity
  8
Defpoints
 62
     0
100
AcDbPoint
 10
2172.257943187953
 20
735.3613790132132
 30
0.0
  0
ENDBLK
  5
1237
330
122C
100
AcDbEntity
  8
0
100
AcDbBlockEnd
  0
BLOCK
  5
1242
330
1238
100
AcDbEntity
  8
0
100
AcDbBlockBegin
  2
*D20
 70
     1
 10
0.0
 20
0.0
 30
0.0
  3
*D20
  1

  0
LINE
  5
13EA
330
1238
100
AcDbEntity
  8
寸法
 62
     0
370
    18
100
AcDbLine
 10
2144.757943187953
 20
603.2354156502325
 30
0.0
 11
2144.757943187953
 21
688.1541523888228
 31
0.0
  0
LINE
  5
13EB
330
1238
100
AcDbEntity
  8
寸法
 62
     0
370
    18
100
AcDbLine
 10
1824.757943187953
 20
603.2354156502325
 30
0.0
 11
1824.757943187953
 21
688.1541523888228
 31
0.0
  0
LINE
  5
13EC
330
1238
100
AcDbEntity
  8
寸法
 62
     0
370
    18
100
AcDbLine
 10
2144.757943187953
 20
688.1541523888228
 30
0.0
 11
1824.757943187953
 21
688.1541523888228
 31
0.0
  0
INSERT
  5
13ED
330
1238
100
AcDbEntity
  8
寸法
 62
     0
370
    18
100
AcDbBlockReference
  2
_DotSmall
 10
2144.757943187953
 20
688.1541523888228
 30
0.0
 41
25.0
 42
25.0
 43
25.0
  0
INSERT
  5
13EE
330
1238
100
AcDbEntity
  8
寸法
 62
     0
370
    18
100
AcDbBlockReference
  2
_DotSmall
 10
1824.757943187953
 20
688.1541523888228
 30
0.0
 41
25.0
 42
25.0
 43
25.0
 50
180.0
  0
MTEXT
  5
13EF
330
1238
100
AcDbEntity
  8
寸法
 62
     0
100
AcDbMText
 10
1984.757943187953
 20
706.9041523888228
 30
0.0
 40
25.0
 41
0.0
 71
     5
 72
     1
  1
64
 73
     1
 44
1.0
1001
ACAD
1000
MTEXTBEGIN
1070
    73
1070
     1
1070
    44
1040
1.0
1070
    74
1070
     0
1000
MTEXTEND
  0
POINT
  5
13F0
330
1238
100
AcDbEntity
  8
Defpoints
 62
     0
100
AcDbPoint
 10
2144.757943187953
 20
538.2354156502325
 30
0.0
  0
POINT
  5
13F1
330
1238
100
AcDbEntity
  8
Defpoints
 62
     0
100
AcDbPoint
 10
1824.757943187953
 20
538.2354156502325
 30
0.0
  0
POINT
  5
13F2
330
1238
100
AcDbEntity
  8
Defpoints
 62
     0
100
AcDbPoint
 10
1824.757943187953
 20
688.1541523888228
 30
0.0
  0
ENDBLK
  5
1243
330
1238
100
AcDbEntity
  8
0
100
AcDbBlockEnd
  0
BLOCK
  5
124E
330
1244
100
AcDbEntity
  8
0
100
AcDbBlockBegin
  2
*D21
 70
     1
 10
0.0
 20
0.0
 30
0.0
  3
*D21
  1

  0
LINE
  5
13E1
330
1244
100
AcDbEntity
  8
寸法
 62
     0
370
    18
100
AcDbLine
 10
1859.757943187953
 20
603.2354156502325
 30
0.0
 11
1859.757943187953
 21
637.1193129235417
 31
0.0
  0
LINE
  5
13E2
330
1244
100
AcDbEntity
  8
寸法
 62
     0
370
    18
100
AcDbLine
 10
2109.757943187953
 20
603.2354156502325
 30
0.0
 11
2109.757943187953
 21
637.1193129235417
 31
0.0
  0
LINE
  5
13E3
330
1244
100
AcDbEntity
  8
寸法
 62
     0
370
    18
100
AcDbLine
 10
1859.757943187953
 20
637.1193129235417
 30
0.0
 11
2109.757943187953
 21
637.1193129235417
 31
0.0
  0
INSERT
  5
13E4
330
1244
100
AcDbEntity
  8
寸法
 62
     0
370
    18
100
AcDbBlockReference
  2
_DotSmall
 10
1859.757943187953
 20
637.1193129235417
 30
0.0
 41
25.0
 42
25.0
 43
25.0
 50
180.0
  0
INSERT
  5
13E5
330
1244
100
AcDbEntity
  8
寸法
 62
     0
370
    18
100
AcDbBlockReference
  2
_DotSmall
 10
2109.757943187953
 20
637.1193129235417
 30
0.0
 41
25.0
 42
25.0
 43
25.0
  0
MTEXT
  5
13E6
330
1244
100
AcDbEntity
  8
寸法
 62
     0
100
AcDbMText
 10
1984.757943187953
 20
655.8693129235417
 30
0.0
 40
25.0
 41
0.0
 71
     5
 72
     1
  1
50
 73
     1
 44
1.0
1001
ACAD
1000
MTEXTBEGIN
1070
    73
1070
     1
1070
    44
1040
1.0
1070
    74
1070
     0
1000
MTEXTEND
  0
POINT
  5
13E7
330
1244
100
AcDbEntity
  8
Defpoints
 62
     0
100
AcDbPoint
 10
1859.757943187953
 20
538.2354156502325
 30
0.0
  0
POINT
  5
13E8
330
1244
100
AcDbEntity
  8
Defpoints
 62
     0
100
AcDbPoint
 10
2109.757943187953
 20
538.2354156502325
 30
0.0
  0
POINT
  5
13E9
330
1244
100
AcDbEntity
  8
Defpoints
 62
     0
100
AcDbPoint
 10
2109.757943187953
 20
637.1193129235417
 30
0.0
  0
ENDBLK
  5
124F
330
1244
100
AcDbEntity
  8
0
100
AcDbBlockEnd
  0
BLOCK
  5
125A
330
1250
100
AcDbEntity
  8
0
100
AcDbBlockBegin
  2
*D22
 70
     1
 10
0.0
 20
0.0
 30
0.0
  3
*D22
  1

  0
LINE
  5
13D8
330
1250
100
AcDbEntity
  8
寸法
 62
     0
370
    18
100
AcDbLine
 10
2237.257943187953
 20
563.7354156502325
 30
0.0
 11
2319.678621247655
 21
563.7354156502324
 31
0.0
  0
LINE
  5
13D9
330
1250
100
AcDbEntity
  8
寸法
 62
     0
370
    18
100
AcDbLine
 10
2237.257943187953
 20
412.7354156502325
 30
0.0
 11
2319.678621247655
 21
412.7354156502325
 31
0.0
  0
LINE
  5
13DA
330
1250
100
AcDbEntity
  8
寸法
 62
     0
370
    18
100
AcDbLine
 10
2319.678621247655
 20
563.7354156502324
 30
0.0
 11
2319.678621247655
 21
412.7354156502325
 31
0.0
  0
INSERT
  5
13DB
330
1250
100
AcDbEntity
  8
寸法
 62
     0
370
    18
100
AcDbBlockReference
  2
_DotSmall
 10
2319.678621247655
 20
563.7354156502324
 30
0.0
 41
25.0
 42
25.0
 43
25.0
 50
90.0
  0
INSERT
  5
13DC
330
1250
100
AcDbEntity
  8
寸法
 62
     0
370
    18
100
AcDbBlockReference
  2
_DotSmall
 10
2319.678621247655
 20
412.7354156502325
 30
0.0
 41
25.0
 42
25.0
 43
25.0
 50
270.0
  0
MTEXT
  5
13DD
330
1250
100
AcDbEntity
  8
寸法
 62
     0
100
AcDbMText
 10
2300.928621247655
 20
488.2354156502328
 30
0.0
 40
25.0
 41
0.0
 71
     5
 72
     1
  1
31
 11
0.0000000000000001
 21
1.0
 31
0.0
 73
     1
 44
1.0
1001
ACAD
1000
MTEXTBEGIN
1070
    73
1070
     1
1070
    44
1040
1.0
1070
    74
1070
     0
1000
MTEXTEND
  0
POINT
  5
13DE
330
1250
100
AcDbEntity
  8
Defpoints
 62
     0
100
AcDbPoint
 10
2172.257943187953
 20
563.7354156502325
 30
0.0
  0
POINT
  5
13DF
330
1250
100
AcDbEntity
  8
Defpoints
 62
     0
100
AcDbPoint
 10
2172.257943187953
 20
412.7354156502325
 30
0.0
  0
POINT
  5
13E0
330
1250
100
AcDbEntity
  8
Defpoints
 62
     0
100
AcDbPoint
 10
2319.678621247655
 20
412.7354156502325
 30
0.0
  0
ENDBLK
  5
125B
330
1250
100
AcDbEntity
  8
0
100
AcDbBlockEnd
  0
BLOCK
  5
1266
330
125C
100
AcDbEntity
  8
0
100
AcDbBlockBegin
  2
*D23
 70
     1
 10
0.0
 20
0.0
 30
0.0
  3
*D23
  1

  0
LINE
  5
13CF
330
125C
100
AcDbEntity
  8
寸法
 62
     0
370
    18
100
AcDbLine
 10
2237.257943187953
 20
538.2354156502325
 30
0.0
 11
2273.710955958545
 21
538.2354156502325
 31
0.0
  0
LINE
  5
13D0
330
125C
100
AcDbEntity
  8
寸法
 62
     0
370
    18
100
AcDbLine
 10
2237.257943187953
 20
438.2354156502325
 30
0.0
 11
2273.710955958545
 21
438.2354156502325
 31
0.0
  0
LINE
  5
13D1
330
125C
100
AcDbEntity
  8
寸法
 62
     0
370
    18
100
AcDbLine
 10
2273.710955958545
 20
538.2354156502325
 30
0.0
 11
2273.710955958545
 21
438.2354156502325
 31
0.0
  0
INSERT
  5
13D2
330
125C
100
AcDbEntity
  8
寸法
 62
     0
370
    18
100
AcDbBlockReference
  2
_DotSmall
 10
2273.710955958545
 20
538.2354156502325
 30
0.0
 41
25.0
 42
25.0
 43
25.0
 50
90.0
  0
INSERT
  5
13D3
330
125C
100
AcDbEntity
  8
寸法
 62
     0
370
    18
100
AcDbBlockReference
  2
_DotSmall
 10
2273.710955958545
 20
438.2354156502325
 30
0.0
 41
25.0
 42
25.0
 43
25.0
 50
270.0
  0
MTEXT
  5
13D4
330
125C
100
AcDbEntity
  8
寸法
 62
     0
100
AcDbMText
 10
2254.960955958545
 20
488.2354156502328
 30
0.0
 40
25.0
 41
0.0
 71
     5
 72
     1
  1
20
 11
0.0000000000000001
 21
1.0
 31
0.0
 73
     1
 44
1.0
1001
ACAD
1000
MTEXTBEGIN
1070
    73
1070
     1
1070
    44
1040
1.0
1070
    74
1070
     0
1000
MTEXTEND
  0
POINT
  5
13D5
330
125C
100
AcDbEntity
  8
Defpoints
 62
     0
100
AcDbPoint
 10
2172.257943187953
 20
538.2354156502325
 30
0.0
  0
POINT
  5
13D6
330
125C
100
AcDbEntity
  8
Defpoints
 62
     0
100
AcDbPoint
 10
2172.257943187953
 20
438.2354156502325
 30
0.0
  0
POINT
  5
13D7
330
125C
100
AcDbEntity
  8
Defpoints
 62
     0
100
AcDbPoint
 10
2273.710955958545
 20
438.2354156502325
 30
0.0
  0
ENDBLK
  5
1267
330
125C
100
AcDbEntity
  8
0
100
AcDbBlockEnd
  0
BLOCK
  5
1397
330
138E
100
AcDbEntity
  8
0
100
AcDbBlockBegin
  2
*D24
 70
     1
 10
0.0
 20
0.0
 30
0.0
  3
*D24
  1

  0
LINE
  5
13C7
330
138E
100
AcDbEntity
  8
寸法
 62
     0
370
    15
100
AcDbLine
 10
1984.834700921791
 20
1135.519664801637
 30
0.0
 11
1984.834700921791
 21
1079.612930764202
 31
0.0
  0
LINE
  5
13C8
330
138E
100
AcDbEntity
  8
寸法
 62
     0
370
    15
100
AcDbLine
 10
1969.83470092179
 20
1135.519664801637
 30
0.0
 11
1969.83470092179
 21
1079.612930764202
 31
0.0
  0
LINE
  5
13C9
330
138E
100
AcDbEntity
  8
寸法
 62
     0
370
    18
100
AcDbLine
 10
1984.834700921791
 20
1079.612930764202
 30
0.0
 11
1969.83470092179
 21
1079.612930764202
 31
0.0
  0
INSERT
  5
13CA
330
138E
100
AcDbEntity
  8
寸法
 62
     0
370
    18
100
AcDbBlockReference
  2
_DotSmall
 10
1984.834700921791
 20
1079.612930764202
 30
0.0
 41
25.0
 42
25.0
 43
25.0
  0
INSERT
  5
13CB
330
138E
100
AcDbEntity
  8
寸法
 62
     0
370
    18
100
AcDbBlockReference
  2
_DotSmall
 10
1969.83470092179
 20
1079.612930764202
 30
0.0
 41
25.0
 42
25.0
 43
25.0
 50
180.0
  0
POINT
  5
13CC
330
138E
100
AcDbEntity
  8
Defpoints
 62
     0
100
AcDbPoint
 10
1984.834700921791
 20
1200.519664801637
 30
0.0
  0
POINT
  5
13CD
330
138E
100
AcDbEntity
  8
Defpoints
 62
     0
100
AcDbPoint
 10
1969.83470092179
 20
1200.519664801637
 30
0.0
  0
POINT
  5
13CE
330
138E
100
AcDbEntity
  8
Defpoints
 62
     0
100
AcDbPoint
 10
1969.83470092179
 20
1079.612930764202
 30
0.0
  0
ENDBLK
  5
1398
330
138E
100
AcDbEntity
  8
0
100
AcDbBlockEnd
  0
BLOCK
  5
13A3
330
1399
100
AcDbEntity
  8
0
100
AcDbBlockBegin
  2
*D25
 70
     1
 10
0.0
 20
0.0
 30
0.0
  3
*D25
  1

  0
LINE
  5
13BE
330
1399
100
AcDbEntity
  8
寸法
 62
     0
370
    15
100
AcDbLine
 10
1984.834700921791
 20
1112.2257035812
 30
0.0
 11
1984.834700921791
 21
1016.24124386516
 31
0.0
  0
LINE
  5
13BF
330
1399
100
AcDbEntity
  8
寸法
 62
     0
370
    15
100
AcDbLine
 10
1784.83470092179
 20
1133.819040510425
 30
0.0
 11
1784.83470092179
 21
1016.24124386516
 31
0.0
  0
LINE
  5
13C0
330
1399
100
AcDbEntity
  8
寸法
 62
     0
370
    18
100
AcDbLine
 10
1984.834700921791
 20
1016.24124386516
 30
0.0
 11
1784.83470092179
 21
1016.24124386516
 31
0.0
  0
INSERT
  5
13C1
330
1399
100
AcDbEntity
  8
寸法
 62
     0
370
    18
100
AcDbBlockReference
  2
_DotSmall
 10
1984.834700921791
 20
1016.24124386516
 30
0.0
 41
25.0
 42
25.0
 43
25.0
  0
INSERT
  5
13C2
330
1399
100
AcDbEntity
  8
寸法
 62
     0
370
    18
100
AcDbBlockReference
  2
_DotSmall
 10
1784.83470092179
 20
1016.24124386516
 30
0.0
 41
25.0
 42
25.0
 43
25.0
 50
180.0
  0
MTEXT
  5
13C3
330
1399
100
AcDbEntity
  8
寸法
 62
     0
100
AcDbMText
 10
1884.834700921791
 20
1034.99124386516
 30
0.0
 40
25.0
 41
0.0
 71
     5
 72
     1
  1
200
 73
     1
 44
1.0
1001
ACAD
1000
MTEXTBEGIN
1070
    73
1070
     1
1070
    44
1040
1.0
1070
    74
1070
     0
1000
MTEXTEND
  0
POINT
  5
13C4
330
1399
100
AcDbEntity
  8
Defpoints
 62
     0
100
AcDbPoint
 10
1984.834700921791
 20
1177.2257035812
 30
0.0
  0
POINT
  5
13C5
330
1399
100
AcDbEntity
  8
Defpoints
 62
     0
100
AcDbPoint
 10
1784.83470092179
 20
1198.819040510425
 30
0.0
  0
POINT
  5
13C6
330
1399
100
AcDbEntity
  8
Defpoints
 62
     0
100
AcDbPoint
 10
1784.83470092179
 20
1016.24124386516
 30
0.0
  0
ENDBLK
  5
13A4
330
1399
100
AcDbEntity
  8
0
100
AcDbBlockEnd
  0
ENDSEC
  0
SECTION
  2
ENTITIES
  0
LINE
  5
9C
330
1F
100
AcDbEntity
  8
補助
100
AcDbLine
 10
113.0
 20
4.0
 30
0.0
 11
2784.0
 21
4.0
 31
0.0
  0
LINE
  5
A0
330
1F
100
AcDbEntity
  8
補助
100
AcDbLine
 10
2784.0
 20
2024.0
 30
0.0
 11
113.0
 21
2024.0
 31
0.0
  0
LINE
  5
A5
330
1F
100
AcDbEntity
  8
補助
100
AcDbLine
 10
2784.0
 20
4.0
 30
0.0
 11
2784.0
 21
2024.0
 31
0.0
  0
LINE
  5
2E6
330
1F
100
AcDbEntity
  8
実形
100
AcDbLine
 10
759.8347009217905
 20
763.3595071541149
 30
0.0
 11
1339.83470092179
 21
763.3595071541149
 31
0.0
  0
CIRCLE
  5
2EB
330
1F
100
AcDbEntity
  8
実形
100
AcDbCircle
 10
924.8347009217905
 20
1433.359507154115
 30
0.0
 40
79.0
  0
CIRCLE
  5
2EE
330
1F
100
AcDbEntity
  8
実形
100
AcDbCircle
 10
924.8347009217905
 20
1433.359507154115
 30
0.0
 40
90.5
  0
LINE
  5
2F9
330
1F
100
AcDbEntity
  8
実形
100
AcDbLine
 10
834.3347009217904
 20
563.3595071541149
 30
0.0
 11
1004.83470092179
 21
563.3595071541149
 31
0.0
  0
LINE
  5
2FA
330
1F
100
AcDbEntity
  8
実形
100
AcDbLine
 10
1004.83470092179
 20
563.3595071541149
 30
0.0
 11
1015.33470092179
 21
563.3595071541149
 31
0.0
  0
LINE
  5
2FB
330
1F
100
AcDbEntity
  8
実形
100
AcDbLine
 10
1015.33470092179
 20
563.3595071541149
 30
0.0
 11
1015.33470092179
 21
563.3595071541149
 31
0.0
  0
LINE
  5
2FE
330
1F
100
AcDbEntity
  8
実形
100
AcDbLine
 10
1784.834700921791
 20
1668.359507154115
 30
0.0
 11
1784.834700921791
 21
1198.359507154115
 31
0.0
  0
LINE
  5
301
330
1F
100
AcDbEntity
  8
実形
100
AcDbLine
 10
1984.834700921791
 20
1342.859507154115
 30
0.0
 11
1984.834700921791
 21
1523.859507154115
 31
0.0
  0
LINE
  5
306
330
1F
100
AcDbEntity
  8
実形
100
AcDbLine
 10
834.3347009217904
 20
563.3595071541149
 30
0.0
 11
834.3347009217904
 21
553.3595071541149
 31
0.0
  0
LINE
  5
307
330
1F
100
AcDbEntity
  8
実形
100
AcDbLine
 10
834.3347009217904
 20
553.3595071541149
 30
0.0
 11
1015.33470092179
 21
553.3595071541149
 31
0.0
  0
LINE
  5
308
330
1F
100
AcDbEntity
  8
実形
100
AcDbLine
 10
1015.33470092179
 20
553.3595071541149
 30
0.0
 11
1015.33470092179
 21
563.3595071541149
 31
0.0
  0
LINE
  5
309
330
1F
100
AcDbEntity
  8
実形
100
AcDbLine
 10
1984.834700921791
 20
1523.859507154115
 30
0.0
 11
1994.83470092179
 21
1523.859507154115
 31
0.0
  0
LINE
  5
30A
330
1F
100
AcDbEntity
  8
実形
100
AcDbLine
 10
1994.83470092179
 20
1523.859507154115
 30
0.0
 11
1994.83470092179
 21
1342.859507154115
 31
0.0
  0
LINE
  5
30B
330
1F
100
AcDbEntity
  8
実形
100
AcDbLine
 10
1994.83470092179
 20
1342.859507154115
 30
0.0
 11
1984.834700921791
 21
1342.859507154115
 31
0.0
  0
LINE
  5
33A
330
1F
100
AcDbEntity
  8
センター
370
    15
100
AcDbLine
 10
802.0436926908487
 20
1433.359507154115
 30
0.0
 11
1052.02220092179
 21
1433.359507154115
 31
0.0
  0
LINE
  5
33B
330
1F
100
AcDbEntity
  8
センター
370
    15
100
AcDbLine
 10
924.8347009217905
 20
1556.150515385056
 30
0.0
 11
924.8347009217905
 21
1310.568498923173
 31
0.0
  0
LINE
  5
33C
330
1F
100
AcDbEntity
  8
センター
 48
0.5
370
    15
100
AcDbLine
 10
924.8347009217905
 20
641.5761310295283
 30
0.0
 11
924.8347009217905
 21
485.1603107222281
 31
0.0
  0
LINE
  5
33D
330
1F
100
AcDbEntity
  8
センター
 48
0.5
370
    15
100
AcDbLine
 10
1771.310210867413
 20
1433.487662858661
 30
0.0
 11
2017.209864499895
 21
1433.359507154115
 31
0.0
  0
DIMENSION
  5
35B
330
1F
100
AcDbEntity
  8
寸法
100
AcDbDimension
  2
*D4
 10
774.8347009217905
 20
1747.162625317523
 30
0.0
 11
849.8347009217905
 21
1765.912625317523
 31
0.0
 70
    32
 71
     5
 42
150.0
  3
ISO-25
100
AcDbAlignedDimension
 13
924.8347009217905
 23
1483.64010564108
 33
0.0
 14
774.8347009217905
 24
1433.359507154115
 34
0.0
100
AcDbRotatedDimension
1001
ACAD
1000
DSTYLE
1002
{
1070
    41
1040
25.0
1070
   371
1070
    18
1002
}
  0
DIMENSION
  5
368
330
1F
100
AcDbEntity
  8
寸法
100
AcDbDimension
  2
*D5
 10
1049.83470092179
 20
1653.359507154115
 30
0.0
 11
1031.08470092179
 21
1543.359507154115
 31
0.0
 70
    32
 71
     5
 42
220.0
  3
ISO-25
100
AcDbAlignedDimension
 13
953.3743137537248
 23
1433.359507154115
 33
0.0
 14
1111.248925009262
 24
1653.359507154115
 34
0.0
 50
90.0
100
AcDbRotatedDimension
1001
ACAD
1000
DSTYLE
1002
{
1070
    41
1040
25.0
1070
   371
1070
    18
1002
}
  0
TEXT
  5
395
330
1F
100
AcDbEntity
  8
寸法
370
    18
100
AcDbText
 10
1013.151668668996
 20
1261.537477392292
 30
0.0
 40
25.0
  1
2000R
100
AcDbText
  0
TEXT
  5
397
330
1F
100
AcDbEntity
  8
寸法
370
    18
100
AcDbText
 10
1129.210822504714
 20
1461.489049405148
 30
0.0
 40
25.0
  1
1300R
100
AcDbText
  0
TEXT
  5
398
330
1F
100
AcDbEntity
  8
寸法
370
    18
100
AcDbText
 10
1151.423494426349
 20
1312.436503267662
 30
0.0
 40
25.0
  1
110R
100
AcDbText
  0
TEXT
  5
3AF
330
1F
100
AcDbEntity
  8
寸法
100
AcDbText
 10
1187.032906886491
 20
622.6342861151747
 30
0.0
 40
25.0
  1
30R
100
AcDbText
  0
TEXT
  5
3B1
330
1F
100
AcDbEntity
  8
寸法
370
    18
100
AcDbText
 10
1842.371285582655
 20
1271.84313521256
 30
0.0
 40
25.0
  1
30R
100
AcDbText
  0
DIMENSION
  5
3CE
330
1F
100
AcDbEntity
  8
寸法
100
AcDbDimension
  2
*D6
 10
616.6593861979172
 20
1653.359507154115
 30
0.0
 11
616.659386197917
 21
1660.859507154115
 31
0.0
 70
    32
  1
 
 71
     5
 42
15.0
  3
ISO-25
100
AcDbAlignedDimension
 13
759.8347009217905
 23
1668.359507154115
 33
0.0
 14
759.8347009217905
 24
1653.359507154115
 34
0.0
 50
90.0
100
AcDbRotatedDimension
1001
ACAD
1000
DSTYLE
1002
{
1070
    41
1040
25.0
1070
   371
1070
    18
1002
}
  0
DIMENSION
  5
3DC
330
1F
100
AcDbEntity
  8
寸法
100
AcDbDimension
  2
*D7
 10
616.6593861979172
 20
1213.359507154115
 30
0.0
 11
597.9093861979171
 21
1433.359507154115
 31
0.0
 70
    32
 71
     5
 42
440.0
  3
ISO-25
100
AcDbAlignedDimension
 13
759.8347009217905
 23
1653.359507154115
 33
0.0
 14
759.8347009217905
 24
1213.359507154115
 34
0.0
 50
90.0
100
AcDbRotatedDimension
1001
ACAD
1000
DSTYLE
1002
{
1070
    41
1040
25.0
1070
   371
1070
    18
1070
   279
1070
     1
1002
}
  0
DIMENSION
  5
3E9
330
1F
100
AcDbEntity
  8
寸法
370
    18
100
AcDbDimension
  2
*D8
 10
616.6593861979172
 20
1198.359507154115
 30
0.0
 11
621.0932804933317
 21
1155.675266445888
 31
0.0
 70
   160
 71
     5
 42
15.0
  3
ISO-25
100
AcDbAlignedDimension
 13
759.8347009217905
 23
1213.359507154115
 33
0.0
 14
759.8347009217905
 24
1198.359507154115
 34
0.0
 50
90.0
100
AcDbRotatedDimension
1001
ACAD
1000
DSTYLE
1002
{
1070
    41
1040
25.0
1070
   371
1070
    18
1070
   279
1070
     1
1002
}
  0
DIMENSION
  5
3F6
330
1F
100
AcDbEntity
  8
寸法
100
AcDbDimension
  2
*D9
 10
547.8194878732328
 20
1198.359507154115
 30
0.0
 11
529.0694878732328
 21
1433.359507154115
 31
0.0
 70
    32
 71
     5
 42
470.0
  3
ISO-25
100
AcDbAlignedDimension
 13
759.8347009217905
 23
1668.359507154115
 33
0.0
 14
759.8347009217905
 24
1198.359507154115
 34
0.0
 50
90.0
100
AcDbRotatedDimension
1001
ACAD
1000
DSTYLE
1002
{
1070
    41
1040
25.0
1070
   371
1070
    18
1002
}
  0
TEXT
  5
43C
330
1F
100
AcDbEntity
  8
寸法
370
    18
100
AcDbText
 10
621.0932804933317
 20
1693.61068009344
 30
0.0
 40
25.0
  1
15
 50
90.0
100
AcDbText
  0
DIMENSION
  5
43D
330
1F
100
AcDbEntity
  8
寸法
100
AcDbDimension
  2
*D10
 10
774.8347009217905
 20
1050.42738938406
 30
0.0
 11
834.3347009217904
 21
1050.42738938406
 31
0.0
 70
   160
  1
 
 71
     5
 42
15.0
  3
ISO-25
100
AcDbAlignedDimension
 13
759.8347009217905
 23
1198.359507154115
 33
0.0
 14
774.8347009217905
 24
1198.359507154115
 34
0.0
100
AcDbRotatedDimension
1001
ACAD
1000
DSTYLE
1002
{
1070
    41
1040
25.0
1070
   371
1070
    18
1002
}
  0
DIMENSION
  5
44B
330
1F
100
AcDbEntity
  8
寸法
100
AcDbDimension
  2
*D11
 10
1324.83470092179
 20
1050.42738938406
 30
0.0
 11
1049.83470092179
 21
1069.17738938406
 31
0.0
 70
    32
 71
     5
 42
550.0
  3
ISO-25
100
AcDbAlignedDimension
 13
774.8347009217905
 23
1198.359507154115
 33
0.0
 14
1324.83470092179
 24
1198.359507154115
 34
0.0
100
AcDbRotatedDimension
1001
ACAD
1000
DSTYLE
1002
{
1070
    41
1040
25.0
1070
   371
1070
    18
1070
   279
1070
     1
1002
}
  0
DIMENSION
  5
458
330
1F
100
AcDbEntity
  8
寸法
100
AcDbDimension
  2
*D12
 10
1339.83470092179
 20
1050.42738938406
 30
0.0
 11
1332.33470092179
 21
1050.42738938406
 31
0.0
 70
    32
  1
 
 71
     5
 42
15.0
  3
ISO-25
100
AcDbAlignedDimension
 13
1324.83470092179
 23
1198.359507154115
 33
0.0
 14
1339.83470092179
 24
1198.359507154115
 34
0.0
100
AcDbRotatedDimension
1001
ACAD
1000
DSTYLE
1002
{
1070
    41
1040
25.0
1070
   371
1070
    18
1070
   279
1070
     1
1002
}
  0
TEXT
  5
494
330
1F
100
AcDbEntity
  8
寸法
100
AcDbText
 10
701.2364844755747
 20
1052.715387018456
 30
0.0
 40
25.0
  1
15
100
AcDbText
  0
TEXT
  5
495
330
1F
100
AcDbEntity
  8
寸法
370
    18
100
AcDbText
 10
1363.098160968384
 20
1052.715387018456
 30
0.0
 40
25.0
  1
15
100
AcDbText
  0
DIMENSION
  5
4A3
330
1F
100
AcDbEntity
  8
寸法
100
AcDbDimension
  2
*D13
 10
1339.83470092179
 20
972.6354792281908
 30
0.0
 11
1049.83470092179
 21
991.3854792281908
 31
0.0
 70
    32
 71
     5
 42
580.0
  3
ISO-25
100
AcDbAlignedDimension
 13
759.8347009217905
 23
1198.359507154115
 33
0.0
 14
1339.83470092179
 24
1198.359507154115
 34
0.0
100
AcDbRotatedDimension
1001
ACAD
1000
DSTYLE
1002
{
1070
    41
1040
25.0
1070
   371
1070
    18
1002
}
  0
DIMENSION
  5
4F8
330
1F
100
AcDbEntity
  8
寸法
100
AcDbDimension
  2
*D14
 10
1004.83470092179
 20
436.932099853042
 30
0.0
 11
924.8347009217905
 21
455.682099853042
 31
0.0
 70
    32
  1
158
 71
     5
 42
160.0
  3
ISO-25
100
AcDbAlignedDimension
 13
844.8347009217904
 23
553.3595071541149
 33
0.0
 14
1004.83470092179
 24
553.3595071541149
 34
0.0
100
AcDbRotatedDimension
1001
ACAD
1000
DSTYLE
1002
{
1070
    41
1040
25.0
1070
   371
1070
    18
1002
}
  0
DIMENSION
  5
505
330
1F
100
AcDbEntity
  8
寸法
100
AcDbDimension
  2
*D15
 10
1015.33470092179
 20
376.9727012841131
 30
0.0
 11
924.8347009217905
 21
395.7227012841131
 31
0.0
 70
    32
 71
     5
 42
181.0
  3
ISO-25
100
AcDbAlignedDimension
 13
834.3347009217904
 23
553.3595071541149
 33
0.0
 14
1015.33470092179
 24
553.3595071541149
 34
0.0
100
AcDbRotatedDimension
1001
ACAD
1000
DSTYLE
1002
{
1070
    41
1040
25.0
1070
   371
1070
    18
1002
}
  0
DIMENSION
  5
569
330
1F
100
AcDbEntity
  8
寸法
100
AcDbDimension
  2
*D16
 10
2105.140845013711
 20
1353.359507154115
 30
0.0
 11
2086.39084501371
 21
1433.359507154115
 31
0.0
 70
    32
  1
158
 71
     5
 42
160.0
  3
ISO-25
100
AcDbAlignedDimension
 13
1994.83470092179
 23
1513.359507154115
 33
0.0
 14
1994.83470092179
 24
1353.359507154115
 34
0.0
 50
90.0
100
AcDbRotatedDimension
1001
ACAD
1000
DSTYLE
1002
{
1070
    41
1040
25.0
1070
   371
1070
    18
1002
}
  0
DIMENSION
  5
57F
330
1F
100
AcDbEntity
  8
寸法
100
AcDbDimension
  2
*D17
 10
2170.062432978552
 20
1342.859507154115
 30
0.0
 11
2151.312432978552
 21
1433.359507154115
 31
0.0
 70
    32
 71
     5
 42
181.0
  3
ISO-25
100
AcDbAlignedDimension
 13
1994.83470092179
 23
1523.859507154115
 33
0.0
 14
1994.83470092179
 24
1342.859507154115
 34
0.0
 50
90.0
100
AcDbRotatedDimension
1001
ACAD
1000
DSTYLE
1002
{
1070
    41
1040
25.0
1070
   371
1070
    18
1002
}
  0
LEADER
  5
7CF
330
1F
100
AcDbEntity
  8
0
100
AcDbLeader
  3
ISO-25
 40
25.0
 41
16.66666666666666
 76
     2
 10
960.7539231771797
 20
1219.440465538275
 30
0.0
 10
999.9763323718243
 20
1254.277291756994
 30
0.0
213
0.0
223
-12.5
233
0.0
1001
ACAD
1000
DSTYLE
1002
{
1070
    41
1040
25.0
1070
   147
1040
6.25
1070
    77
1070
     0
1070
    73
1070
     1
1070
    74
1070
     1
1070
   279
1070
     1
1070
   342
1005
DA
1002
}
  0
LEADER
  5
7D0
330
1F
100
AcDbEntity
  8
0
100
AcDbLeader
  3
ISO-25
 40
25.0
 41
16.66666666666666
 76
     2
 10
1317.193148379546
 20
1472.497556741348
 30
0.0
 10
1243.10637454046
 20
1474.674858968481
 30
0.0
213
0.0
223
-12.5
233
0.0
1001
ACAD
1000
DSTYLE
1002
{
1070
    41
1040
25.0
1070
   147
1040
6.25
1070
    77
1070
     0
1070
    73
1070
     1
1070
    74
1070
     1
1070
   279
1070
     1
1070
   342
1005
DA
1002
}
  0
LEADER
  5
7D1
330
1F
100
AcDbEntity
  8
0
100
AcDbLeader
  3
ISO-25
 40
25.0
 41
16.66666666666666
 76
     2
 10
1282.071844204213
 20
1263.589693533239
 30
0.0
 10
1234.133345909163
 20
1305.165211816251
 30
0.0
213
0.0
223
-12.5
233
0.0
1001
ACAD
1000
DSTYLE
1002
{
1070
    41
1040
25.0
1070
   147
1040
6.25
1070
    77
1070
     0
1070
    73
1070
     1
1070
    74
1070
     1
1070
   279
1070
     1
1070
   342
1005
DA
1002
}
  0
LEADER
  5
7D2
330
1F
100
AcDbEntity
  8
0
100
AcDbLeader
  3
ISO-25
 40
25.0
 41
16.66666666666666
 76
     2
 10
1308.477051036322
 20
593.1088173701482
 30
0.0
 10
1260.538552741272
 20
623.5910391346033
 30
0.0
213
0.0
223
-12.5
233
0.0
1001
ACAD
1000
DSTYLE
1002
{
1070
    41
1040
25.0
1070
   147
1040
6.25
1070
    77
1070
     0
1070
    73
1070
     1
1070
    74
1070
     1
1070
   279
1070
     1
1070
   342
1005
DA
1002
}
  0
LEADER
  5
7D3
330
1F
100
AcDbEntity
  8
0
100
AcDbLeader
  3
ISO-25
 40
25.0
 41
16.66666666666666
 76
     2
 10
1962.183848966205
 20
1231.058191027369
 30
0.0
 10
1920.140470289479
 20
1268.072314765521
 30
0.0
213
0.0
223
-12.5
233
0.0
1001
ACAD
1000
DSTYLE
1002
{
1070
    41
1040
25.0
1070
   147
1040
6.25
1070
    77
1070
     0
1070
    73
1070
     1
1070
    74
1070
     1
1070
   279
1070
     1
1070
   342
1005
DA
1002
}
  0
TEXT
  5
8C9
330
1F
100
AcDbEntity
  8
0
100
AcDbText
 10
249.2632881086038
 20
83.52862940911927
 30
0.0
 40
30.0
  1
※実寸には製造上の誤差が多少生ずる場合があります。シンクの穴あけ加工は現物合わせにてお願いします。
100
AcDbText
  0
LINE
  5
F27
330
1F
100
AcDbEntity
  8
実形
100
AcDbLine
 10
759.8347009217905
 20
763.3595071541149
 30
0.0
 11
1339.83470092179
 21
763.3595071541149
 31
0.0
  0
LINE
  5
F2A
330
1F
100
AcDbEntity
  8
実形
100
AcDbLine
 10
774.8347009217905
 20
763.3595071541149
 30
0.0
 11
774.8347009217905
 21
601.7351204132389
 31
0.0
  0
LINE
  5
F2B
330
1F
100
AcDbEntity
  8
実形
100
AcDbLine
 10
797.5011281620087
 20
572.6452817994379
 30
0.0
 11
834.3347009217904
 21
563.3595071541149
 31
0.0
  0
ARC
  5
F2C
330
1F
100
AcDbEntity
  8
実形
100
AcDbCircle
 10
804.8347009217904
 20
601.7351204132389
 30
0.0
 40
30.0
100
AcDbArc
 50
180.0
 51
255.8505239136548
  0
LINE
  5
F2E
330
1F
100
AcDbEntity
  8
実形
100
AcDbLine
 10
1784.834700921791
 20
1653.359507154115
 30
0.0
 11
1943.109025690982
 21
1653.359507154115
 31
0.0
  0
LINE
  5
F2F
330
1F
100
AcDbEntity
  8
実形
100
AcDbLine
 10
1972.90977913912
 20
1626.811331877837
 30
0.0
 11
1984.834700921791
 21
1523.859507154115
 31
0.0
  0
LINE
  5
F30
330
1F
100
AcDbEntity
  8
実形
100
AcDbLine
 10
1984.834700921791
 20
1342.859507154115
 30
0.0
 11
1972.90977913912
 21
1239.907682430392
 31
0.0
  0
LINE
  5
F31
330
1F
100
AcDbEntity
  8
実形
100
AcDbLine
 10
1943.109025690982
 20
1213.359507154115
 30
0.0
 11
1784.834700921791
 21
1213.359507154115
 31
0.0
  0
ARC
  5
F32
330
1F
100
AcDbEntity
  8
実形
100
AcDbCircle
 10
1943.109025690982
 20
1623.359507154115
 30
0.0
 40
30.0
100
AcDbArc
 50
6.607133302227483
 51
90.0
  0
ARC
  5
F33
330
1F
100
AcDbEntity
  8
実形
100
AcDbCircle
 10
1943.109025690982
 20
1243.359507154115
 30
0.0
 40
30.0
100
AcDbArc
 50
270.0
 51
353.3928666977725
  0
ARC
  5
1058
330
1F
100
AcDbEntity
  8
実形
100
AcDbCircle
 10
1049.83470092179
 20
3213.359507154115
 30
0.0
 40
2000.0
100
AcDbArc
 50
265.1279555298176
 51
274.8720444701823
  0
ARC
  5
1059
330
1F
100
AcDbEntity
  8
実形
100
AcDbCircle
 10
1049.83470092179
 20
-346.6404928458851
 30
0.0
 40
2000.0
100
AcDbArc
 50
85.12795552981767
 51
94.87204447018234
  0
ARC
  5
105B
330
1F
100
AcDbEntity
  8
実形
100
AcDbCircle
 10
2074.83470092179
 20
1433.359507154115
 30
0.0
 40
1300.0
100
AcDbArc
 50
175.0263005811522
 51
184.9736994188478
  0
ARC
  5
105C
330
1F
100
AcDbEntity
  8
実形
100
AcDbCircle
 10
24.8347009217905
 20
1433.359507154115
 30
0.0
 40
1300.0
100
AcDbArc
 50
355.0263005811522
 51
4.973699418847809
  0
ARC
  5
105D
330
1F
100
AcDbEntity
  8
実形
100
AcDbCircle
 10
1210.353875383634
 20
1536.53066098748
 30
0.0
 40
110.0
100
AcDbArc
 50
4.973699418847864
 51
85.12795552981767
  0
ARC
  5
105E
330
1F
100
AcDbEntity
  8
実形
100
AcDbCircle
 10
1210.353875383634
 20
1330.18835332075
 30
0.0
 40
110.0
100
AcDbArc
 50
274.8720444701826
 51
355.0263005811522
  0
ARC
  5
105F
330
1F
100
AcDbEntity
  8
実形
100
AcDbCircle
 10
889.3155264599466
 20
1330.18835332075
 30
0.0
 40
110.0
100
AcDbArc
 50
184.9736994188475
 51
265.127955529817
  0
ARC
  5
1060
330
1F
100
AcDbEntity
  8
実形
100
AcDbCircle
 10
889.3155264599466
 20
1536.53066098748
 30
0.0
 40
110.0
100
AcDbArc
 50
94.87204447018243
 51
175.0263005811522
  0
ARC
  5
109B
330
1F
100
AcDbEntity
  8
実形
100
AcDbCircle
 10
1210.353875383634
 20
1536.53066098748
 30
0.0
 40
125.0
100
AcDbArc
 50
4.973699418847864
 51
85.12795552981767
  0
ARC
  5
109C
330
1F
100
AcDbEntity
  8
実形
100
AcDbCircle
 10
24.8347009217905
 20
1433.359507154115
 30
0.0
 40
1315.0
100
AcDbArc
 50
355.0263005811522
 51
4.973699418847809
  0
ARC
  5
109D
330
1F
100
AcDbEntity
  8
実形
100
AcDbCircle
 10
1210.353875383634
 20
1330.18835332075
 30
0.0
 40
125.0
100
AcDbArc
 50
274.8720444701826
 51
355.0263005811522
  0
ARC
  5
109E
330
1F
100
AcDbEntity
  8
実形
100
AcDbCircle
 10
1049.83470092179
 20
3213.359507154115
 30
0.0
 40
2015.0
100
AcDbArc
 50
265.1279555298176
 51
274.8720444701823
  0
ARC
  5
109F
330
1F
100
AcDbEntity
  8
実形
100
AcDbCircle
 10
889.3155264599466
 20
1330.18835332075
 30
0.0
 40
125.0
100
AcDbArc
 50
184.9736994188475
 51
265.127955529817
  0
ARC
  5
10A1
330
1F
100
AcDbEntity
  8
実形
100
AcDbCircle
 10
2074.83470092179
 20
1433.359507154115
 30
0.0
 40
1315.0
100
AcDbArc
 50
175.0263005811522
 51
184.9736994188478
  0
ARC
  5
10A2
330
1F
100
AcDbEntity
  8
実形
100
AcDbCircle
 10
889.3155264599466
 20
1536.53066098748
 30
0.0
 40
125.0
100
AcDbArc
 50
94.87204447018243
 51
175.0263005811522
  0
ARC
  5
10A3
330
1F
100
AcDbEntity
  8
実形
100
AcDbCircle
 10
1049.83470092179
 20
-346.6404928458851
 30
0.0
 40
2015.0
100
AcDbArc
 50
85.12795552981767
 51
94.87204447018234
  0
LINE
  5
10A4
330
1F
100
AcDbEntity
  8
実形
100
AcDbLine
 10
1324.83470092179
 20
763.3595071541149
 30
0.0
 11
1324.83470092179
 21
606.9407617228725
 31
0.0
  0
LINE
  5
10A5
330
1F
100
AcDbEntity
  8
実形
100
AcDbLine
 10
1296.286954332946
 20
576.9759330060286
 30
0.0
 11
1015.33470092179
 21
563.3595071541149
 31
0.0
  0
ARC
  5
10A7
330
1F
100
AcDbEntity
  8
実形
100
AcDbCircle
 10
1294.83470092179
 20
606.9407617228725
 30
0.0
 40
30.0
100
AcDbArc
 50
272.7746841173154
 51
0.0
  0
LINE
  5
1157
330
1F
100
AcDbEntity
  8
実形
  6
HIDDEN2
100
AcDbLine
 10
776.4480980381391
 20
1470.859507154115
 30
0.0
 11
766.9169213032237
 21
1470.859507154115
 31
0.0
  0
LINE
  5
1158
330
1F
100
AcDbEntity
  8
実形
  6
HIDDEN2
100
AcDbLine
 10
766.9169213032237
 20
1470.859507154115
 30
0.0
 11
766.9169213032237
 21
1395.859507154115
 31
0.0
  0
LINE
  5
1159
330
1F
100
AcDbEntity
  8
実形
  6
HIDDEN2
100
AcDbLine
 10
766.9169213032237
 20
1395.859507154115
 30
0.0
 11
776.4480980381391
 21
1395.859507154115
 31
0.0
  0
LINE
  5
1175
330
1F
100
AcDbEntity
  8
センター
 48
0.4
370
    15
100
AcDbLine
 10
1834.83470092179
 20
1524.21245718664
 30
0.0
 11
1834.83470092179
 21
1340.881470441175
 31
0.0
  0
DIMENSION
  5
1176
330
1F
100
AcDbEntity
  8
寸法
100
AcDbDimension
  2
*D18
 10
1834.83470092179
 20
1533.66604454553
 30
0.0
 11
1809.834700921791
 21
1552.41604454553
 31
0.0
 70
    32
 71
     5
 42
50.00000000000023
  3
ISO-25
100
AcDbAlignedDimension
 13
1784.834700921791
 23
1395.859507154115
 33
0.0
 14
1834.83470092179
 24
1470.859507154115
 34
0.0
100
AcDbRotatedDimension
1001
ACAD
1000
DSTYLE
1002
{
1070
    41
1040
25.0
1070
   371
1070
    18
1002
}
  0
ARC
  5
1177
330
1F
100
AcDbEntity
  8
実形
100
AcDbCircle
 10
1834.83470092179
 20
1455.859507154115
 30
0.0
 40
15.0
100
AcDbArc
 50
90.0
 51
180.0
  0
ARC
  5
1178
330
1F
100
AcDbEntity
  8
実形
100
AcDbCircle
 10
1834.83470092179
 20
1410.859507154115
 30
0.0
 40
15.0
100
AcDbArc
 50
180.0
 51
270.0
  0
ARC
  5
1179
330
1F
100
AcDbEntity
  8
実形
100
AcDbCircle
 10
1834.83470092179
 20
1410.859507154115
 30
0.0
 40
15.0
100
AcDbArc
 50
270.0
 51
0.0
  0
ARC
  5
117A
330
1F
100
AcDbEntity
  8
実形
100
AcDbCircle
 10
1834.83470092179
 20
1455.859507154115
 30
0.0
 40
15.0
100
AcDbArc
 50
0.0
 51
90.0
  0
LINE
  5
117B
330
1F
100
AcDbEntity
  8
実形
100
AcDbLine
 10
1834.83470092179
 20
1470.859507154115
 30
0.0
 11
1834.83470092179
 21
1470.859507154115
 31
0.0
  0
LINE
  5
117C
330
1F
100
AcDbEntity
  8
実形
100
AcDbLine
 10
1849.83470092179
 20
1410.859507154115
 30
0.0
 11
1849.83470092179
 21
1455.859507154115
 31
0.0
  0
LINE
  5
117D
330
1F
100
AcDbEntity
  8
実形
100
AcDbLine
 10
1834.83470092179
 20
1395.859507154115
 30
0.0
 11
1834.83470092179
 21
1395.859507154115
 31
0.0
  0
LINE
  5
117E
330
1F
100
AcDbEntity
  8
実形
100
AcDbLine
 10
1819.834700921791
 20
1455.859507154115
 30
0.0
 11
1819.83470092179
 21
1410.859507154115
 31
0.0
  0
LINE
  5
1195
330
1F
100
AcDbEntity
  8
実形
100
AcDbLine
 10
1784.834700921791
 20
1460.859507154115
 30
0.0
 11
1784.834700921791
 21
1411.631519223912
 31
0.0
  0
DIMENSION
  5
120A
330
1F
100
AcDbEntity
  8
寸法
100
AcDbDimension
  2
*D19
 10
2172.257943187953
 20
735.3613790132132
 30
0.0
 11
1984.757943187953
 21
754.1113790132132
 31
0.0
 70
    32
  1
75
 71
     5
 42
375.0
  3
ISO-25
100
AcDbAlignedDimension
 13
1797.257943187953
 23
538.2354156502325
 33
0.0
 14
2172.257943187953
 24
538.2354156502325
 34
0.0
100
AcDbRotatedDimension
1001
ACAD
1000
DSTYLE
1002
{
1070
    41
1040
25.0
1070
   371
1070
    18
1070
   372
1070
    18
1002
}
  0
DIMENSION
  5
120B
330
1F
100
AcDbEntity
  8
寸法
100
AcDbDimension
  2
*D20
 10
1824.757943187953
 20
688.1541523888228
 30
0.0
 11
1984.757943187953
 21
706.9041523888228
 31
0.0
 70
    32
  1
64
 71
     5
 42
320.0
  3
ISO-25
100
AcDbAlignedDimension
 13
2144.757943187953
 23
538.2354156502325
 33
0.0
 14
1824.757943187953
 24
538.2354156502325
 34
0.0
100
AcDbRotatedDimension
1001
ACAD
1000
DSTYLE
1002
{
1070
    41
1040
25.0
1070
   371
1070
    18
1070
   372
1070
    18
1002
}
  0
DIMENSION
  5
120C
330
1F
100
AcDbEntity
  8
寸法
100
AcDbDimension
  2
*D21
 10
2109.757943187953
 20
637.1193129235417
 30
0.0
 11
1984.757943187953
 21
655.8693129235417
 31
0.0
 70
    32
  1
50
 71
     5
 42
250.0
  3
ISO-25
100
AcDbAlignedDimension
 13
1859.757943187953
 23
538.2354156502325
 33
0.0
 14
2109.757943187953
 24
538.2354156502325
 34
0.0
100
AcDbRotatedDimension
1001
ACAD
1000
DSTYLE
1002
{
1070
    41
1040
25.0
1070
   371
1070
    18
1070
   372
1070
    18
1002
}
  0
LINE
  5
120D
330
1F
100
AcDbEntity
  8
センター
 48
0.5
100
AcDbLine
 10
1773.901474426573
 20
488.2354156502325
 30
0.0
 11
2195.614411949333
 21
488.2354156502325
 31
0.0
  0
LINE
  5
120E
330
1F
100
AcDbEntity
  8
実形
100
AcDbLine
 10
1872.757943187953
 20
417.7354156502324
 30
0.0
 11
2096.757943187953
 21
417.7354156502324
 31
0.0
  0
LINE
  5
120F
330
1F
100
AcDbEntity
  8
実形
100
AcDbLine
 10
2096.757943187953
 20
558.7354156502325
 30
0.0
 11
1872.757943187953
 21
558.7354156502325
 31
0.0
  0
LINE
  5
1210
330
1F
100
AcDbEntity
  8
実形
100
AcDbLine
 10
2059.757943187953
 20
538.2354156502324
 30
0.0
 11
1909.757943187953
 21
538.2354156502324
 31
0.0
  0
LINE
  5
1211
330
1F
100
AcDbEntity
  8
実形
100
AcDbLine
 10
1909.757943187953
 20
438.2354156502324
 30
0.0
 11
2059.757943187953
 21
438.2354156502324
 31
0.0
  0
LINE
  5
1212
330
1F
100
AcDbEntity
  8
実形
100
AcDbLine
 10
2096.757943187953
 20
563.7354156502325
 30
0.0
 11
1872.757943187953
 21
563.7354156502325
 31
0.0
  0
LINE
  5
1213
330
1F
100
AcDbEntity
  8
実形
100
AcDbLine
 10
1872.757943187953
 20
412.7354156502324
 30
0.0
 11
2096.757943187953
 21
412.7354156502324
 31
0.0
  0
LINE
  5
1214
330
1F
100
AcDbEntity
  8
センター
 48
0.5
100
AcDbLine
 10
1984.757943187953
 20
594.9799300291711
 30
0.0
 11
1984.757943187953
 21
381.490901271294
 31
0.0
  0
CIRCLE
  5
1215
330
1F
100
AcDbEntity
  8
実形
100
AcDbCircle
 10
1824.757943187953
 20
488.2354156502325
 30
0.0
 40
8.966055913162964
  0
ARC
  5
1216
330
1F
100
AcDbEntity
  8
実形
100
AcDbCircle
 10
1909.757943187953
 20
488.2354156502324
 30
0.0
 40
50.0
100
AcDbArc
 50
90.0
 51
180.0
  0
ARC
  5
1217
330
1F
100
AcDbEntity
  8
実形
100
AcDbCircle
 10
1909.757943187953
 20
488.2354156502325
 30
0.0
 40
50.0
100
AcDbArc
 50
180.0
 51
270.0
  0
ARC
  5
1218
330
1F
100
AcDbEntity
  8
実形
100
AcDbCircle
 10
1872.757943187953
 20
488.2354156502325
 30
0.0
 40
70.5
100
AcDbArc
 50
90.0
 51
180.0
  0
ARC
  5
1219
330
1F
100
AcDbEntity
  8
実形
100
AcDbCircle
 10
1872.757943187953
 20
488.2354156502325
 30
0.0
 40
70.5
100
AcDbArc
 50
180.0
 51
270.0
  0
ARC
  5
121A
330
1F
100
AcDbEntity
  8
実形
100
AcDbCircle
 10
1872.757943187953
 20
488.2354156502325
 30
0.0
 40
75.5
100
AcDbArc
 50
90.0
 51
180.0
  0
ARC
  5
121B
330
1F
100
AcDbEntity
  8
実形
100
AcDbCircle
 10
1872.757943187953
 20
488.2354156502325
 30
0.0
 40
75.5
100
AcDbArc
 50
180.0
 51
270.0
  0
LINE
  5
121C
330
1F
100
AcDbEntity
  8
実形
100
AcDbLine
 10
1859.757943187953
 20
488.2354156502324
 30
0.0
 11
1859.757943187953
 21
488.2354156502325
 31
0.0
  0
LINE
  5
121D
330
1F
100
AcDbEntity
  8
実形
100
AcDbLine
 10
1797.257943187953
 20
488.2354156502323
 30
0.0
 11
1797.257943187953
 21
488.2354156502325
 31
0.0
  0
DIMENSION
  5
121E
330
1F
100
AcDbEntity
  8
寸法
100
AcDbDimension
  2
*D22
 10
2319.678621247655
 20
412.7354156502325
 30
0.0
 11
2300.928621247655
 21
488.2354156502328
 31
0.0
 70
    32
  1
31
 71
     5
 42
151.0
  3
ISO-25
100
AcDbAlignedDimension
 13
2172.257943187953
 23
563.7354156502325
 33
0.0
 14
2172.257943187953
 24
412.7354156502325
 34
0.0
 50
90.0
100
AcDbRotatedDimension
1001
ACAD
1000
DSTYLE
1002
{
1070
    41
1040
25.0
1070
   371
1070
    18
1070
   372
1070
    18
1002
}
  0
DIMENSION
  5
121F
330
1F
100
AcDbEntity
  8
寸法
100
AcDbDimension
  2
*D23
 10
2273.710955958545
 20
438.2354156502325
 30
0.0
 11
2254.960955958545
 21
488.2354156502328
 31
0.0
 70
    32
  1
20
 71
     5
 42
100.0
  3
ISO-25
100
AcDbAlignedDimension
 13
2172.257943187953
 23
538.2354156502325
 33
0.0
 14
2172.257943187953
 24
438.2354156502325
 34
0.0
 50
90.0
100
AcDbRotatedDimension
1001
ACAD
1000
DSTYLE
1002
{
1070
    41
1040
25.0
1070
   371
1070
    18
1070
   372
1070
    18
1002
}
  0
CIRCLE
  5
1220
330
1F
100
AcDbEntity
  8
実形
100
AcDbCircle
 10
2144.757943187953
 20
488.2354156502325
 30
0.0
 40
8.966055913162964
  0
ARC
  5
1221
330
1F
100
AcDbEntity
  8
実形
100
AcDbCircle
 10
2059.757943187953
 20
488.2354156502325
 30
0.0
 40
50.0
100
AcDbArc
 50
270.0
 51
0.0
  0
ARC
  5
1222
330
1F
100
AcDbEntity
  8
実形
100
AcDbCircle
 10
2059.757943187953
 20
488.2354156502324
 30
0.0
 40
50.0
100
AcDbArc
 50
0.0
 51
90.0
  0
ARC
  5
1223
330
1F
100
AcDbEntity
  8
実形
100
AcDbCircle
 10
2096.757943187953
 20
488.2354156502325
 30
0.0
 40
70.5
100
AcDbArc
 50
270.0
 51
0.0
  0
ARC
  5
1224
330
1F
100
AcDbEntity
  8
実形
100
AcDbCircle
 10
2096.757943187953
 20
488.2354156502325
 30
0.0
 40
70.5
100
AcDbArc
 50
0.0
 51
90.0
  0
ARC
  5
1225
330
1F
100
AcDbEntity
  8
実形
100
AcDbCircle
 10
2096.757943187953
 20
488.2354156502325
 30
0.0
 40
75.5
100
AcDbArc
 50
270.0
 51
0.0
  0
ARC
  5
1226
330
1F
100
AcDbEntity
  8
実形
100
AcDbCircle
 10
2096.757943187953
 20
488.2354156502325
 30
0.0
 40
75.5
100
AcDbArc
 50
0.0
 51
90.0
  0
LINE
  5
1227
330
1F
100
AcDbEntity
  8
実形
100
AcDbLine
 10
2109.757943187953
 20
488.2354156502325
 30
0.0
 11
2109.757943187953
 21
488.2354156502324
 31
0.0
  0
LINE
  5
1228
330
1F
100
AcDbEntity
  8
実形
100
AcDbLine
 10
2172.257943187953
 20
488.2354156502325
 30
0.0
 11
2172.257943187953
 21
488.2354156502325
 31
0.0
  0
LINE
  5
1229
330
1F
100
AcDbEntity
  8
実形
100
AcDbLine
 10
1812.518034555574
 20
828.0804091658575
 30
0.0
 11
2162.959001528803
 21
828.0804091658575
 31
0.0
  0
LINE
  5
122A
330
1F
100
AcDbEntity
  8
実形
100
AcDbLine
 10
1812.518034555574
 20
835.0804091658575
 30
0.0
 11
2162.959001528803
 21
835.0804091658575
 31
0.0
  0
TEXT
  5
122B
330
1F
100
AcDbEntity
  8
0
100
AcDbText
 10
1827.590762077323
 20
846.3760274952239
 30
0.0
 40
30.0
  1
オーバーフロー詳細
100
AcDbText
  0
TEXT
  5
12C9
330
1F
100
AcDbEntity
  8
補助
100
AcDbText
 10
2086.666666666667
 20
84.0
 30
0.0
 40
35.0
  1
尺度
 72
     4
 11
2124.0
 21
101.5
 31
0.0
100
AcDbText
  0
TEXT
  5
12CA
330
1F
100
AcDbEntity
  8
補助
100
AcDbText
 10
2086.666666666667
 20
149.0
 30
0.0
 40
35.0
  1
品番
 72
     4
 11
2124.0
 21
166.5
 31
0.0
100
AcDbText
  0
LINE
  5
12CB
330
1F
100
AcDbEntity
  8
補助
100
AcDbLine
 10
2064.0
 20
69.0
 30
0.0
 11
2784.0
 21
69.0
 31
0.0
  0
LINE
  5
12CC
330
1F
100
AcDbEntity
  8
補助
100
AcDbLine
 10
2064.0
 20
199.0
 30
0.0
 11
2784.0
 21
199.0
 31
0.0
  0
LINE
  5
12CD
330
1F
100
AcDbEntity
  8
補助
100
AcDbLine
 10
2064.0
 20
134.0
 30
0.0
 11
2784.0
 21
134.0
 31
0.0
  0
LINE
  5
12CE
330
1F
100
AcDbEntity
  8
補助
100
AcDbLine
 10
2064.0
 20
4.0
 30
0.0
 11
2064.0
 21
199.0
 31
0.0
  0
TEXT
  5
12CF
330
1F
100
AcDbEntity
  8
補助
100
AcDbText
 10
2300.255774665348
 20
16.49999999999999
 30
0.0
 40
40.0
  1
中外交易株式会社
 72
     4
 11
2488.255774665347
 21
36.5
 31
0.0
100
AcDbText
  0
LINE
  5
12D0
330
1F
100
AcDbEntity
  8
補助
100
AcDbLine
 10
2184.0
 20
69.0
 30
0.0
 11
2784.0
 21
69.0
 31
0.0
  0
TEXT
  5
12D1
330
1F
100
AcDbEntity
  8
0
100
AcDbText
 10
2213.333333333334
 20
149.0
 30
0.0
 40
35.0
  1
A１m/m 550-440(OF)
 72
     4
 11
2484.0
 21
166.5
 31
0.0
100
AcDbText
  0
LINE
  5
12D2
102
{ACAD_REACTORS
330
12DF
102
}
330
1F
100
AcDbEntity
  8
補助
370
     5
100
AcDbLine
 10
2207.843923164362
 20
40.53787547858519
 30
0.0
 11
2183.255774665347
 21
40.53787547858519
 31
0.0
  0
LINE
  5
12D3
102
{ACAD_REACTORS
330
12DF
102
}
330
1F
100
AcDbEntity
  8
補助
370
     5
100
AcDbLine
 10
2183.255774665347
 20
40.53787547858519
 30
0.0
 11
2183.255774665347
 21
30.53787547858519
 31
0.0
  0
LINE
  5
12D4
102
{ACAD_REACTORS
330
12DF
102
}
330
1F
100
AcDbEntity
  8
補助
370
     5
100
AcDbLine
 10
2183.255774665347
 20
30.53787547858519
 30
0.0
 11
2207.346428692676
 21
30.53787547858514
 31
0.0
  0
LINE
  5
12D5
102
{ACAD_REACTORS
330
12DF
102
}
330
1F
100
AcDbEntity
  8
補助
370
     5
100
AcDbLine
 10
2210.641894042939
 20
56.5
 30
0.0
 11
2210.641894042939
 21
16.5
 31
0.0
  0
LINE
  5
12D6
102
{ACAD_REACTORS
330
12DF
102
}
330
1F
100
AcDbEntity
  8
補助
370
     5
100
AcDbLine
 10
2210.641894042939
 20
16.5
 30
0.0
 11
2245.64189404294
 21
16.5
 31
0.0
  0
LINE
  5
12D7
102
{ACAD_REACTORS
330
12DF
102
}
330
1F
100
AcDbEntity
  8
補助
370
     5
100
AcDbLine
 10
2245.64189404294
 20
16.5
 30
0.0
 11
2210.641894042939
 21
36.5
 31
0.0
  0
LINE
  5
12D8
102
{ACAD_REACTORS
330
12DF
102
}
330
1F
100
AcDbEntity
  8
補助
370
     5
100
AcDbLine
 10
2210.641894042939
 20
36.5
 30
0.0
 11
2245.64189404294
 21
56.5
 31
0.0
  0
LINE
  5
12D9
102
{ACAD_REACTORS
330
12DF
102
}
330
1F
100
AcDbEntity
  8
補助
370
     5
100
AcDbLine
 10
2245.64189404294
 20
56.5
 30
0.0
 11
2210.641894042939
 21
56.5
 31
0.0
  0
LINE
  5
12DA
102
{ACAD_REACTORS
330
12DF
102
}
330
1F
100
AcDbEntity
  8
補助
370
     5
100
AcDbLine
 10
2276.75434681301
 20
40.53787547858519
 30
0.0
 11
2252.166198313995
 21
40.53787547858519
 31
0.0
  0
LINE
  5
12DB
102
{ACAD_REACTORS
330
12DF
102
}
330
1F
100
AcDbEntity
  8
補助
370
     5
100
AcDbLine
 10
2252.166198313995
 20
40.53787547858519
 30
0.0
 11
2252.166198313995
 21
30.53787547858519
 31
0.0
  0
LINE
  5
12DC
102
{ACAD_REACTORS
330
12DF
102
}
330
1F
100
AcDbEntity
  8
補助
370
     5
100
AcDbLine
 10
2252.166198313995
 20
30.53787547858519
 30
0.0
 11
2276.256852341323
 21
30.53787547858514
 31
0.0
  0
ARC
  5
12DD
102
{ACAD_REACTORS
330
12DF
102
}
330
1F
100
AcDbEntity
  8
補助
370
     5
100
AcDbCircle
 10
2188.255774665348
 20
36.5
 30
0.0
 40
20.0
100
AcDbArc
 50
11.64772366707421
 51
342.6561058784886
  0
ARC
  5
12DE
102
{ACAD_REACTORS
330
12DF
102
}
330
1F
100
AcDbEntity
  8
補助
370
     5
100
AcDbCircle
 10
2257.166198313996
 20
36.5
 30
0.0
 40
20.0
100
AcDbArc
 50
11.64772366707421
 51
342.6561058784886
  0
HATCH
  5
12DF
330
1F
100
AcDbEntity
  8
補助
100
AcDbHatch
 10
0.0
 20
0.0
 30
0.0
210
0.0
220
0.0
230
1.0
  2
SOLID
 70
     1
 71
     1
 91
        3
 92
        1
 93
        4
 72
     2
 10
2257.166198313996
 20
36.5
 40
20.0
 50
11.64772366707421
 51
342.6561058784886
 73
     1
 72
     1
 10
2276.256852341323
 20
30.53787547858514
 11
2252.166198313995
 21
30.53787547858519
 72
     1
 10
2252.166198313995
 20
30.53787547858519
 11
2252.166198313995
 21
40.53787547858519
 72
     1
 10
2252.166198313995
 20
40.53787547858519
 11
2276.75434681301
 21
40.53787547858519
 97
        4
330
12DE
330
12DC
330
12DB
330
12DA
 92
        1
 93
        4
 72
     2
 10
2188.255774665348
 20
36.5
 40
20.0
 50
11.64772366707421
 51
342.6561058784886
 73
     1
 72
     1
 10
2207.346428692676
 20
30.53787547858514
 11
2183.255774665347
 21
30.53787547858519
 72
     1
 10
2183.255774665347
 20
30.53787547858519
 11
2183.255774665347
 21
40.53787547858519
 72
     1
 10
2183.255774665347
 20
40.53787547858519
 11
2207.843923164362
 21
40.53787547858519
 97
        4
330
12DD
330
12D4
330
12D3
330
12D2
 92
        1
 93
        5
 72
     1
 10
2245.64189404294
 20
56.5
 11
2210.641894042939
 21
56.5
 72
     1
 10
2210.641894042939
 20
56.5
 11
2210.641894042939
 21
16.5
 72
     1
 10
2210.641894042939
 20
16.5
 11
2245.64189404294
 21
16.5
 72
     1
 10
2245.64189404294
 20
16.5
 11
2210.641894042939
 21
36.5
 72
     1
 10
2210.641894042939
 20
36.5
 11
2245.64189404294
 21
56.5
 97
        5
330
12D9
330
12D5
330
12D6
330
12D7
330
12D8
 75
     0
 76
     1
 98
        1
 10
-60.0
 20
0.0
  0
LINE
  5
12E0
330
1F
100
AcDbEntity
  8
補助
100
AcDbLine
 10
2184.0
 20
69.0
 30
0.0
 11
2184.0
 21
199.0
 31
0.0
  0
TEXT
  5
12E1
330
1F
100
AcDbEntity
  8
0
100
AcDbText
 10
2430.916666666667
 20
84.0
 30
0.0
 40
35.0
  1
1：10
 72
     4
 11
2484.0
 21
101.5
 31
0.0
100
AcDbText
  0
LINE
  5
12E2
330
1F
100
AcDbEntity
  8
補助
100
AcDbLine
 10
2784.0
 20
69.0
 30
0.0
 11
2784.0
 21
134.0
 31
0.0
  0
LINE
  5
12E3
330
1F
100
AcDbEntity
  8
補助
100
AcDbLine
 10
2784.0
 20
134.0
 30
0.0
 11
2784.0
 21
199.0
 31
0.0
  0
LINE
  5
12E4
330
1F
100
AcDbEntity
  8
補助
100
AcDbLine
 10
2784.0
 20
4.0
 30
0.0
 11
2784.0
 21
69.0
 31
0.0
  0
LINE
  5
1353
330
1F
100
AcDbEntity
  8
実形
100
AcDbLine
 10
667.4708301513025
 20
763.3595071541147
 30
0.0
 11
547.2665992801348
 21
763.3595071541149
 31
0.0
  0
LINE
  5
1354
330
1F
100
AcDbEntity
  8
実形
100
AcDbLine
 10
667.4708301513025
 20
563.3595071541149
 30
0.0
 11
547.2665992801348
 21
563.359507154115
 31
0.0
  0
LINE
  5
1355
330
1F
100
AcDbEntity
  8
実形
100
AcDbLine
 10
667.4708301513027
 20
553.3595071541149
 30
0.0
 11
614.2665992801347
 21
553.3595071541149
 31
0.0
  0
TEXT
  5
1356
330
1F
100
AcDbEntity
  8
寸法
 62
     0
370
    18
100
AcDbText
 10
538.890099149019
 20
629.6005355943125
 30
0.0
 40
25.0
  1
200
 50
90.0
100
AcDbText
  0
LINE
  5
1357
330
1F
100
AcDbEntity
  8
実形
100
AcDbLine
 10
547.2665992801348
 20
763.3595071541149
 30
0.0
 11
547.2665992801348
 21
563.3595071541149
 31
0.0
  0
TEXT
  5
1358
330
1F
100
AcDbEntity
  8
寸法
 62
     0
370
    18
100
AcDbText
 10
545.812070850229
 20
761.759416543824
 30
0.0
 40
3.0
  1
●
100
AcDbText
  0
TEXT
  5
1359
330
1F
100
AcDbEntity
  8
寸法
 62
     0
370
    18
100
AcDbText
 10
545.8820276708254
 20
561.8298506259398
 30
0.0
 40
3.0
  1
●
100
AcDbText
  0
TEXT
  5
135A
330
1F
100
AcDbEntity
  8
寸法
 62
     0
370
    18
100
AcDbText
 10
594.8049582389323
 20
567.6267382638934
 30
0.0
 40
25.0
  1
15
 50
90.0
100
AcDbText
  0
LINE
  5
135B
330
1F
100
AcDbEntity
  8
実形
 62
     0
100
AcDbLine
 10
667.4708301513025
 20
578.3595071541148
 30
0.0
 11
614.2665992801347
 21
578.3595071541147
 31
0.0
  0
LINE
  5
135C
330
1F
100
AcDbEntity
  8
実形
 62
     0
100
AcDbLine
 10
614.2665992801347
 20
578.3595071541145
 30
0.0
 11
614.2665992801347
 21
563.3595071541149
 31
0.0
  0
TEXT
  5
135D
330
1F
100
AcDbEntity
  8
寸法
 62
     0
370
    18
100
AcDbText
 10
612.9122382551456
 20
562.0716272799918
 30
0.0
 40
3.0
  1
●
100
AcDbText
  0
TEXT
  5
135E
330
1F
100
AcDbEntity
  8
寸法
 62
     0
370
    18
100
AcDbText
 10
612.778459173335
 20
577.0487365388171
 30
0.0
 40
3.0
  1
●
100
AcDbText
  0
LINE
  5
135F
330
1F
100
AcDbEntity
  8
実形
100
AcDbLine
 10
614.2665992801347
 20
563.3595071541149
 30
0.0
 11
614.2665992801347
 21
553.3595071541149
 31
0.0
  0
TEXT
  5
1360
330
1F
100
AcDbEntity
  8
寸法
 62
     0
370
    18
100
AcDbText
 10
612.8665157739149
 20
551.9061112377722
 30
0.0
 40
3.0
  1
●
100
AcDbText
  0
TEXT
  5
1361
330
1F
100
AcDbEntity
  8
寸法
 62
     0
370
    18
100
AcDbText
 10
594.386233434938
 20
532.0101318371162
 30
0.0
 40
25.0
  1
7
 50
90.0
100
AcDbText
  0
LINE
  5
1362
330
1F
100
AcDbEntity
  8
実形
100
AcDbLine
 10
667.4708301513028
 20
563.3595071541149
 30
0.0
 11
547.2665992801348
 21
563.359507154115
 31
0.0
  0
DIMENSION
  5
1386
330
1F
100
AcDbEntity
  8
寸法
100
AcDbDimension
  2
*D24
 10
1969.83470092179
 20
1079.612930764202
 30
0.0
 11
1977.33470092179
 21
1079.612930764202
 31
0.0
 70
    32
  1
 
 71
     5
 42
15.0
  3
ISO-25
100
AcDbAlignedDimension
 13
1984.834700921791
 23
1200.519664801637
 33
0.0
 14
1969.83470092179
 24
1200.519664801637
 34
0.0
100
AcDbRotatedDimension
1001
ACAD
1000
DSTYLE
1002
{
1070
    41
1040
25.0
1070
   371
1070
    18
1002
}
  0
DIMENSION
  5
1387
330
1F
100
AcDbEntity
  8
寸法
100
AcDbDimension
  2
*D25
 10
1784.83470092179
 20
1016.24124386516
 30
0.0
 11
1884.834700921791
 21
1034.99124386516
 31
0.0
 70
    32
 71
     5
 42
200.0000000000002
  3
ISO-25
100
AcDbAlignedDimension
 13
1984.834700921791
 23
1177.2257035812
 33
0.0
 14
1784.83470092179
 24
1198.819040510425
 34
0.0
100
AcDbRotatedDimension
1001
ACAD
1000
DSTYLE
1002
{
1070
    41
1040
25.0
1070
   371
1070
    18
1002
}
  0
TEXT
  5
1388
330
1F
100
AcDbEntity
  8
寸法
370
    18
100
AcDbText
 10
1921.014803035474
 20
1091.848103547019
 30
0.0
 40
25.0
  1
15
100
AcDbText
  0
TEXT
  5
1389
330
1F
100
AcDbEntity
  8
寸法
370
    18
100
AcDbText
 10
2004.705439161164
 20
1090.597822944982
 30
0.0
 40
25.0
  1
7
100
AcDbText
  0
LINE
  5
138A
330
1F
100
AcDbEntity
  8
実形
100
AcDbLine
 10
1984.834700921791
 20
1079.612930764202
 30
0.0
 11
1984.834700921791
 21
1135.519664801637
 31
0.0
  0
LINE
  5
138B
330
1F
100
AcDbEntity
  8
実形
100
AcDbLine
 10
1984.834700921791
 20
1079.612930764202
 30
0.0
 11
1994.83470092179
 21
1079.612930764202
 31
0.0
  0
LINE
  5
138C
330
1F
100
AcDbEntity
  8
実形
100
AcDbLine
 10
1994.834700921791
 20
1135.519664801637
 30
0.0
 11
1994.834700921791
 21
1079.612930764202
 31
0.0
  0
TEXT
  5
138D
330
1F
100
AcDbEntity
  8
寸法
 62
     0
370
    18
100
AcDbText
 10
1992.511141977007
 20
1077.198389973447
 30
0.0
 40
5.0
  1
●
100
AcDbText
  0
LINE
  5
150C
330
1F
100
AcDbEntity
  8
補助
100
AcDbLine
 10
2784.0
 20
1959.0
 30
0.0
 11
2019.387286519283
 21
1959.000000000001
 31
0.0
  0
LINE
  5
150D
330
1F
100
AcDbEntity
  8
補助
100
AcDbLine
 10
2784.0
 20
1894.0
 30
0.0
 11
2019.387286519283
 21
1894.0
 31
0.0
  0
LINE
  5
150E
330
1F
100
AcDbEntity
  8
補助
100
AcDbLine
 10
2202.547653420927
 20
1894.0
 30
0.0
 11
2202.547653420927
 21
2024.0
 31
0.0
  0
LINE
  5
150F
330
1F
100
AcDbEntity
  8
補助
100
AcDbLine
 10
2019.387286519283
 20
1894.0
 30
0.0
 11
2019.387286519283
 21
2024.0
 31
0.0
  0
TEXT
  5
1510
330
1F
100
AcDbEntity
  8
補助
100
AcDbText
 10
2050.295698850121
 20
1976.328571428572
 30
0.0
 40
30.0
  1
部品名
  7
明朝
 72
     4
 11
2116.124270278692
 21
1991.5
 31
0.0
100
AcDbText
  0
TEXT
  5
1511
330
1F
100
AcDbEntity
  8
補助
100
AcDbText
 10
2627.614285714286
 20
1976.071428571429
 30
0.0
 40
30.0
  1
厚さ
  7
明朝
 72
     4
 11
2671.5
 21
1991.5
 31
0.0
100
AcDbText
  0
LINE
  5
1512
330
1F
100
AcDbEntity
  8
補助
100
AcDbLine
 10
2559.0
 20
1894.0
 30
0.0
 11
2559.0
 21
2024.0
 31
0.0
  0
TEXT
  5
1513
330
1F
100
AcDbEntity
  8
補助
100
AcDbText
 10
2338.490869919937
 20
1975.947979478155
 30
0.0
 40
30.0
  1
材質
  7
明朝
 72
     4
 11
2382.376584205651
 21
1991.119408049583
 31
0.0
100
AcDbText
  0
TEXT
  5
1514
330
1F
100
AcDbEntity
  8
実形
100
AcDbText
 10
2048.227810657788
 20
1910.557142857143
 30
0.0
 40
30.0
  1
ボウル
  7
明朝
 72
     4
 11
2114.056382086359
 21
1926.5
 31
0.0
100
AcDbText
  0
TEXT
  5
1515
330
1F
100
AcDbEntity
  8
実形
100
AcDbText
 10
2594.700000000001
 20
1911.842857142857
 30
0.0
 40
30.0
  1
1.0ｍｍ
  7
明朝
 72
     4
 11
2671.500000000001
 21
1926.5
 31
0.0
100
AcDbText
  0
TEXT
  5
1516
330
1F
100
AcDbEntity
  8
実形
100
AcDbText
 10
2261.016869107866
 20
1910.728571428572
 30
0.0
 40
30.0
  1
SUS304（BA）
  7
明朝
 72
     4
 11
2392.674011965008
 21
1926.5
 31
0.0
100
AcDbText
  0
LINE
  5
1537
330
1F
100
AcDbEntity
  8
補助
100
AcDbLine
 10
113.0
 20
2024.0
 30
0.0
 11
113.0
 21
4.0
 31
0.0
  0
VIEWPORT
  5
2E
102
{ACAD_XDICTIONARY
360
1563
102
}
330
1B
100
AcDbEntity
 67
     1
  8
0
100
AcDbViewport
 10
144.7270812988281
 20
101.2295806407928
 30
0.0
 40
411.6736216682419
 41
222.1517806396485
 68
     1
 69
     1
 12
144.7270812988281
 22
101.2295806407928
 13
0.0
 23
0.0
 14
10.0
 24
10.0
 15
10.0
 25
10.0
 16
0.0
 26
0.0
 36
1.0
 17
0.0
 27
0.0
 37
0.0
 42
50.0
 43
0.0
 44
0.0
 45
222.1517806396485
 50
0.0
 51
0.0
 72
   100
 90
    32800
  1

281
     0
 71
     1
 74
     0
110
0.0
120
0.0
130
0.0
111
1.0
121
0.0
131
0.0
112
0.0
122
1.0
132
0.0
 79
     0
146
0.0
  0
VIEWPORT
  5
30
102
{ACAD_XDICTIONARY
360
1565
102
}
330
1B
100
AcDbEntity
 67
     1
  8
0
100
AcDbViewport
 10
139.2237563133239
 20
101.2295821905136
 30
0.0
 40
222.7580101013184
 41
161.9673315048218
 68
     2
 69
     2
 12
210.0
 22
148.5
 13
0.0
 23
0.0
 14
10.0
 24
10.0
 15
10.0
 25
10.0
 16
0.0
 26
0.0
 36
1.0
 17
0.0
 27
0.0
 37
0.0
 42
50.0
 43
0.0
 44
0.0
 45
309.0686705647124
 50
0.0
 51
0.0
 72
   100
 90
    32864
  1

281
     0
 71
     1
 74
     0
110
0.0
120
0.0
130
0.0
111
1.0
121
0.0
131
0.0
112
0.0
122
1.0
132
0.0
 79
     0
146
0.0
  0
ENDSEC
  0
SECTION
  2
OBJECTS
  0
DICTIONARY
  5
C
330
0
100
AcDbDictionary
281
     1
  3
ACAD_COLOR
350
130E
  3
ACAD_GROUP
350
D
  3
ACAD_LAYOUT
350
1A
  3
ACAD_MATERIAL
350
130D
  3
ACAD_MLINESTYLE
350
17
  3
ACAD_PLOTSETTINGS
350
19
  3
ACAD_PLOTSTYLENAME
350
E
  3
ACAD_TABLESTYLE
350
130F
  3
AcadDim
350
124
  3
ACDBHEADERROUNDTRIPXREC
350
155C
  3
AcDbVariableDictionary
350
1317
  3
DWGPROPS
350
155B
  0
DICTIONARY
  5
14CF
330
2
100
AcDbDictionary
280
     1
281
     1
  3
ACAD_LAYERFILTERS
360
14D1
  3
ACAD_LAYERSTATES
360
14D2
  3
ACLYDICTIONARY
360
14D0
  0
DICTIONARY
  5
1519
330
1F
100
AcDbDictionary
280
     1
281
     1
  3
ACAD_SORTENTS
360
151A
  0
DICTIONARY
  5
1563
330
2E
100
AcDbDictionary
280
     1
281
     1
  3
ACAD_XREC_ROUNDTRIP
360
1564
  0
DICTIONARY
  5
1565
330
30
100
AcDbDictionary
280
     1
281
     1
  3
ACAD_XREC_ROUNDTRIP
360
1566
  0
DICTIONARY
  5
130E
102
{ACAD_REACTORS
330
C
102
}
330
C
100
AcDbDictionary
281
     1
  0
DICTIONARY
  5
D
102
{ACAD_REACTORS
330
C
102
}
330
C
100
AcDbDictionary
281
     1
  0
DICTIONARY
  5
1A
102
{ACAD_REACTORS
330
C
102
}
330
C
100
AcDbDictionary
281
     1
  3
Model
350
22
  3
ﾚｲｱｳﾄ1
350
1E
  3
ﾚｲｱｳﾄ2
350
26
  0
DICTIONARY
  5
130D
102
{ACAD_REACTORS
330
C
102
}
330
C
100
AcDbDictionary
281
     1
  0
DICTIONARY
  5
17
102
{ACAD_REACTORS
330
C
102
}
330
C
100
AcDbDictionary
281
     1
  3
Standard
350
18
  0
DICTIONARY
  5
19
102
{ACAD_REACTORS
330
C
102
}
330
C
100
AcDbDictionary
281
     1
  0
ACDBDICTIONARYWDFLT
  5
E
102
{ACAD_REACTORS
330
C
102
}
330
C
100
AcDbDictionary
281
     1
  3
Normal
350
F
100
AcDbDictionaryWithDefault
340
F
  0
DICTIONARY
  5
130F
102
{ACAD_REACTORS
330
C
102
}
330
C
100
AcDbDictionary
281
     1
  3
Standard
350
1310
  0
XRECORD
  5
124
102
{ACAD_REACTORS
330
C
102
}
330
C
100
AcDbXrecord
280
     1
 90
   990106
  3

 60
     0
 61
     0
 62
     1
 63
     3
 64
     0
 65
     0
 66
     0
 67
     3
 68
     1
 69
     0
 70
     0
 71
     0
 72
     0
 40
30.0
170
     0
  0
DICTIONARY
  5
155C
102
{ACAD_REACTORS
330
C
102
}
330
C
100
AcDbDictionary
281
     1
  0
DICTIONARY
  5
1317
102
{ACAD_REACTORS
330
C
102
}
330
C
100
AcDbDictionary
281
     1
  3
CTABLESTYLE
350
1318
  3
DIMASSOC
350
1558
  3
PROJECTNAME
350
1559
  0
XRECORD
  5
155B
102
{ACAD_REACTORS
330
C
102
}
330
C
100
AcDbXrecord
280
     1
  1
DWGPROPS COOKIE
  2

  3

  4

  6

  7

  8

  9

300
=
301
=
302
=
303
=
304
=
305
=
306
=
307
=
308
=
309
=
 40
0.7757929050925926
 41
2451673.575802199
 42
2458803.791654861
  1

 90
        0
  0
DICTIONARY
  5
14D1
102
{ACAD_REACTORS
330
14CF
102
}
330
14CF
100
AcDbDictionary
281
     1
  0
DICTIONARY
  5
14D2
102
{ACAD_REACTORS
330
14CF
102
}
330
14CF
100
AcDbDictionary
281
     1
  0
DICTIONARY
  5
14D0
102
{ACAD_REACTORS
330
14CF
102
}
330
14CF
100
AcDbDictionary
281
     1
1001
ACAD
1000
<All
  0
SORTENTSTABLE
  5
151A
102
{ACAD_REACTORS
330
1519
102
}
330
1519
100
AcDbSortentsTable
330
1F
331
1354
  5
1357
331
12CD
  5
12D0
331
135C
  5
135F
331
12D5
  5
12D8
331
1060
  5
109D
331
44B
  5
495
331
150F
  5
1512
331
12DD
  5
12E0
331
7D1
  5
8C9
331
8C9
  5
F2B
331
3DC
  5
43C
331
2E6
  5
2F9
331
120F
  5
1212
331
2EE
  5
2FB
331
138C
  5
150D
331
1217
  5
121A
331
1537
  5
2E6
331
121F
  5
1222
331
1158
  5
1176
331
1227
  5
122A
331
2FE
  5
307
331
395
  5
3AF
331
306
  5
309
331
1178
  5
117B
331
F31
  5
1058
331
4A3
  5
569
331
1059
  5
105D
331
43C
  5
458
331
1355
  5
1358
331
A0
  5
2EB
331
12CE
  5
12D1
331
135D
  5
1360
331
12D6
  5
12D9
331
1510
  5
1513
331
12DE
  5
12E1
331
7D2
  5
F27
331
10A1
  5
10A4
331
1210
  5
1213
331
138D
  5
150E
331
1218
  5
121B
331
1220
  5
1223
331
1228
  5
122B
331
1159
  5
1177
331
F2A
  5
F2E
331
494
  5
4F8
331
307
  5
30A
331
1179
  5
117C
331
F32
  5
1059
331
43D
  5
494
331
1356
  5
1359
331
12CF
  5
12D2
331
135E
  5
1361
331
12D7
  5
12DA
331
1511
  5
1514
331
12DF
  5
12E2
331
7D3
  5
F2A
331
1386
  5
1389
331
3CE
  5
3F6
331
10A2
  5
10A5
331
1211
  5
1214
331
1219
  5
121C
331
1221
  5
1224
331
1229
  5
12C9
331
F2B
  5
F2F
331
495
  5
505
331
397
  5
3B1
331
308
  5
30B
331
3F6
  5
44B
331
117A
  5
117D
331
F33
  5
105B
331
105B
  5
105E
331
3AF
  5
3DC
331
1357
  5
135A
331
12D0
  5
12D3
331
135F
  5
1362
331
12D8
  5
12DB
331
1512
  5
1515
331
109B
  5
109E
331
505
  5
7CF
331
1387
  5
138A
331
368
  5
398
331
120A
  5
120D
331
10A3
  5
10A7
331
12E0
  5
12E3
331
1212
  5
1215
331
121A
  5
121D
331
1222
  5
1225
331
2F9
  5
2FE
331
122A
  5
12CA
331
301
  5
308
331
F2C
  5
F30
331
398
  5
3CE
331
309
  5
33A
331
117B
  5
117E
331
105C
  5
105F
331
12C9
  5
12CC
331
1358
  5
135B
331
12D1
  5
12D4
331
1360
  5
1386
331
12D9
  5
12DC
331
1513
  5
1516
331
109C
  5
109F
331
120B
  5
120E
331
10A4
  5
1157
331
1388
  5
138B
331
12E1
  5
12E4
331
1213
  5
1216
331
121B
  5
121E
331
1223
  5
1226
331
2FA
  5
301
331
122B
  5
12CB
331
30A
  5
33B
331
117C
  5
1195
331
33A
  5
33D
331
105D
  5
1060
331
9C
  5
9C
331
12CA
  5
12CD
331
1359
  5
135C
331
12D2
  5
12D5
331
150C
  5
150F
331
1361
  5
1387
331
12DA
  5
12DD
331
3B1
  5
3E9
331
1514
  5
1518
331
109D
  5
10A1
331
458
  5
4A3
331
120C
  5
120F
331
10A5
  5
1158
331
2EB
  5
2FA
331
1389
  5
138C
331
12E2
  5
1353
331
1214
  5
1217
331
121C
  5
121F
331
3E9
  5
43D
331
1224
  5
1227
331
2FB
  5
306
331
1175
  5
1178
331
F2E
  5
F31
331
57F
  5
7D1
331
30B
  5
33C
331
117D
  5
120A
331
33B
  5
35B
331
105E
  5
109B
331
12CB
  5
12CE
331
135A
  5
135D
331
A5
  5
2EE
331
12D3
  5
12D6
331
4F8
  5
57F
331
150D
  5
1510
331
1362
  5
1388
331
12DB
  5
12DE
331
35B
  5
397
331
1515
  5
1523
331
7CF
  5
7D2
331
1195
  5
120C
331
109E
  5
10A2
331
120D
  5
1210
331
138A
  5
138D
331
12E3
  5
1354
331
1215
  5
1218
331
121D
  5
1220
331
1225
  5
1228
331
F27
  5
F2C
331
1176
  5
1179
331
F2F
  5
F32
331
117E
  5
120B
331
33C
  5
368
331
105F
  5
109C
331
1353
  5
1356
331
12CC
  5
12CF
331
135B
  5
135E
331
12D4
  5
12D7
331
150E
  5
1511
331
12DC
  5
12DF
331
1516
  5
1537
331
7D0
  5
7D3
331
109F
  5
10A3
331
120E
  5
1211
331
10A7
  5
1159
331
569
  5
7D0
331
1157
  5
1175
331
138B
  5
150C
331
12E4
  5
1355
331
1216
  5
1219
331
121E
  5
1221
331
1226
  5
1229
331
1177
  5
117A
331
F30
  5
F33
331
1058
  5
105C
331
33D
  5
395
  0
XRECORD
  5
1564
102
{ACAD_REACTORS
330
1563
102
}
330
1563
100
AcDbXrecord
280
     1
102
SHADEPLOT
 70
     0
  0
XRECORD
  5
1566
102
{ACAD_REACTORS
330
1565
102
}
330
1565
100
AcDbXrecord
280
     1
102
SHADEPLOT
 70
     0
  0
LAYOUT
  5
22
102
{ACAD_XDICTIONARY
360
155F
102
}
102
{ACAD_REACTORS
330
1A
102
}
330
1A
100
AcDbPlotSettings
  1

  2
EPSON PM-800C
  4
A4
  6

 40
3.757083177566528
 41
14.7637300491333
 42
3.757080078125
 43
3.757080078125
 44
209.9733276367187
 45
296.9683227539062
 46
0.0
 47
0.0
 48
0.0
 49
0.0
140
0.0
141
0.0
142
1.0
143
10.0
 70
 11952
 72
     1
 73
     1
 74
     2
  7

 75
    20
147
0.1
148
0.0
149
0.0
100
AcDbLayout
  1
Model
 70
     1
 71
     0
 10
0.0
 20
0.0
 11
12.0
 21
9.0
 12
0.0
 22
0.0
 32
0.0
 14
0.0
 24
0.0
 34
0.0
 15
0.0
 25
0.0
 35
0.0
146
0.0
 13
0.0
 23
0.0
 33
0.0
 16
1.0
 26
0.0
 36
0.0
 17
0.0
 27
1.0
 37
0.0
 76
     0
330
1F
  0
LAYOUT
  5
1E
102
{ACAD_XDICTIONARY
360
155D
102
}
102
{ACAD_REACTORS
330
1A
102
}
330
1A
100
AcDbPlotSettings
  1

  2
EPSON PM-800C
  4
A4
  6

 40
3.757083177566528
 41
14.7637300491333
 42
3.757080078125
 43
3.757080078125
 44
209.9733276367187
 45
296.9683227539062
 46
0.0
 47
0.0
 48
0.0
 49
0.0
140
0.0
141
0.0
142
1.0
143
1.0
 70
   688
 72
     1
 73
     1
 74
     5
  7

 75
    16
147
1.0
148
0.0
149
0.0
100
AcDbLayout
  1
ﾚｲｱｳﾄ1
 70
     1
 71
     1
 10
-3.757080078125
 20
-3.757083177566528
 11
293.2112426757813
 21
206.2162444591522
 12
0.0
 22
0.0
 32
0.0
 14
27.8447512626648
 24
20.24591643810271
 34
0.0
 15
250.6027613639831
 25
182.2132479429245
 35
0.0
146
0.0
 13
0.0
 23
0.0
 33
0.0
 16
1.0
 26
0.0
 36
0.0
 17
0.0
 27
1.0
 37
0.0
 76
     0
330
1B
331
2E
  0
LAYOUT
  5
26
102
{ACAD_XDICTIONARY
360
1561
102
}
102
{ACAD_REACTORS
330
1A
102
}
330
1A
100
AcDbPlotSettings
  1

  2
EPSON PM-800C
  4

  6

 40
0.0
 41
0.0
 42
0.0
 43
0.0
 44
0.0
 45
0.0
 46
0.0
 47
0.0
 48
0.0
 49
0.0
140
0.0
141
0.0
142
1.0
143
1.0
 70
   688
 72
     0
 73
     0
 74
     5
  7

 75
    16
147
1.0
148
0.0
149
0.0
100
AcDbLayout
  1
ﾚｲｱｳﾄ2
 70
     1
 71
     2
 10
0.0
 20
0.0
 11
12.0
 21
9.0
 12
0.0
 22
0.0
 32
0.0
 14
0.0
 24
0.0
 34
0.0
 15
0.0
 25
0.0
 35
0.0
146
0.0
 13
0.0
 23
0.0
 33
0.0
 16
1.0
 26
0.0
 36
0.0
 17
0.0
 27
1.0
 37
0.0
 76
     0
330
23
  0
MLINESTYLE
  5
18
102
{ACAD_REACTORS
330
17
102
}
330
17
100
AcDbMlineStyle
  2
STANDARD
 70
     0
  3

 62
   256
 51
90.0
 52
90.0
 71
     2
 49
0.5
 62
   256
  6
BYLAYER
 49
-0.5
 62
   256
  6
BYLAYER
  0
ACDBPLACEHOLDER
  5
F
102
{ACAD_REACTORS
330
E
102
}
330
E
  0
TABLESTYLE
  5
1310
102
{ACAD_REACTORS
330
130F
102
}
330
130F
100
AcDbTableStyle
  3
Standard
 70
     0
 71
     0
 40
1.5
 41
1.5
280
     0
281
     0
  7
Standard
140
4.5
170
     2
 62
     0
 63
     7
283
     0
274
    -2
284
     1
 64
     0
275
    -2
285
     1
 65
     0
276
    -2
286
     1
 66
     0
277
    -2
287
     1
 67
     0
278
    -2
288
     1
 68
     0
279
    -2
289
     1
 69
     0
  7
Standard
140
6.0
170
     5
 62
     0
 63
     7
283
     0
274
    -2
284
     1
 64
     0
275
    -2
285
     1
 65
     0
276
    -2
286
     1
 66
     0
277
    -2
287
     1
 67
     0
278
    -2
288
     1
 68
     0
279
    -2
289
     1
 69
     0
  7
Standard
140
4.5
170
     5
 62
     0
 63
     7
283
     0
274
    -2
284
     1
 64
     0
275
    -2
285
     1
 65
     0
276
    -2
286
     1
 66
     0
277
    -2
287
     1
 67
     0
278
    -2
288
     1
 68
     0
279
    -2
289
     1
 69
     0
  0
DICTIONARYVAR
  5
1318
102
{ACAD_REACTORS
330
1317
102
}
330
1317
100
DictionaryVariables
280
     0
  1
STANDARD
  0
DICTIONARYVAR
  5
1558
102
{ACAD_REACTORS
330
1317
102
}
330
1317
100
DictionaryVariables
280
     0
  1
1
  0
DICTIONARYVAR
  5
1559
102
{ACAD_REACTORS
330
1317
102
}
330
1317
100
DictionaryVariables
280
     0
  1

  0
DICTIONARY
  5
155F
330
22
100
AcDbDictionary
280
     1
281
     1
  3
ACAD_XREC_ROUNDTRIP
360
1560
  0
DICTIONARY
  5
155D
330
1E
100
AcDbDictionary
280
     1
281
     1
  3
ACAD_XREC_ROUNDTRIP
360
155E
  0
DICTIONARY
  5
1561
330
26
100
AcDbDictionary
280
     1
281
     1
  3
ACAD_XREC_ROUNDTRIP
360
1562
  0
XRECORD
  5
1560
102
{ACAD_REACTORS
330
155F
102
}
330
155F
100
AcDbXrecord
280
     1
102
SHADEPLOT
 70
     0
102
SHADEPLOTRESLEVEL
 70
     2
102
SHADEPLOTCUSTOMDPI
 70
   300
  0
XRECORD
  5
155E
102
{ACAD_REACTORS
330
155D
102
}
330
155D
100
AcDbXrecord
280
     1
102
SHADEPLOT
 70
     0
102
SHADEPLOTRESLEVEL
 70
     2
102
SHADEPLOTCUSTOMDPI
 70
   300
  0
XRECORD
  5
1562
102
{ACAD_REACTORS
330
1561
102
}
330
1561
100
AcDbXrecord
280
     1
102
SHADEPLOT
 70
     0
102
SHADEPLOTRESLEVEL
 70
     2
102
SHADEPLOTCUSTOMDPI
 70
   300
  0
ENDSEC
  0
EOF
