  0
SECTION
  2
HEADER
  9
$ACADVER
  1
AC1015
  9
$ACADMAINTVER
 70
    20
  9
$DWGCODEPAGE
  3
ANSI_932
  9
$INSBASE
 10
0.0
 20
0.0
 30
0.0
  9
$EXTMIN
 10
109.0
 20
4.0
 30
0.0
  9
$EXTMAX
 10
2784.0
 20
2024.0
 30
0.0
  9
$LIMMIN
 10
0.0
 20
0.0
  9
$LIMMAX
 10
29700.0
 20
21000.0
  9
$ORTHOMODE
 70
     0
  9
$REGENMODE
 70
     1
  9
$FILLMODE
 70
     1
  9
$QTEXTMODE
 70
     0
  9
$MIRRTEXT
 70
     1
  9
$LTSCALE
 40
4.0
  9
$ATTMODE
 70
     1
  9
$TEXTSIZE
 40
25.0
  9
$TRACEWID
 40
1.0
  9
$TEXTSTYLE
  7
Standard
  9
$CLAYER
  8
実形
  9
$CELTYPE
  6
ByLayer
  9
$CECOLOR
 62
   256
  9
$CELTSCALE
 40
1.0
  9
$DISPSILH
 70
     0
  9
$DIMSCALE
 40
1.0
  9
$DIMASZ
 40
35.0
  9
$DIMEXO
 40
65.0
  9
$DIMDLI
 40
3.75
  9
$DIMRND
 40
0.0
  9
$DIMDLE
 40
0.0
  9
$DIMEXE
 40
0.0
  9
$DIMTP
 40
0.0
  9
$DIMTM
 40
0.0
  9
$DIMTXT
 40
25.0
  9
$DIMCEN
 40
2.5
  9
$DIMTSZ
 40
0.0
  9
$DIMTOL
 70
     0
  9
$DIMLIM
 70
     0
  9
$DIMTIH
 70
     0
  9
$DIMTOH
 70
     0
  9
$DIMSE1
 70
     0
  9
$DIMSE2
 70
     0
  9
$DIMTAD
 70
     1
  9
$DIMZIN
 70
     8
  9
$DIMBLK
  1
DotSmall
  9
$DIMASO
 70
     1
  9
$DIMSHO
 70
     1
  9
$DIMPOST
  1

  9
$DIMAPOST
  1

  9
$DIMALT
 70
     0
  9
$DIMALTD
 70
     3
  9
$DIMALTF
 40
0.03937007874016
  9
$DIMLFAC
 40
1.0
  9
$DIMTOFL
 70
     1
  9
$DIMTVP
 40
0.0
  9
$DIMTIX
 70
     0
  9
$DIMSOXD
 70
     0
  9
$DIMSAH
 70
     0
  9
$DIMBLK1
  1

  9
$DIMBLK2
  1

  9
$DIMSTYLE
  2
ISO-25
  9
$DIMCLRD
 70
     0
  9
$DIMCLRE
 70
     0
  9
$DIMCLRT
 70
     0
  9
$DIMTFAC
 40
1.0
  9
$DIMGAP
 40
6.25
  9
$DIMJUST
 70
     0
  9
$DIMSD1
 70
     0
  9
$DIMSD2
 70
     0
  9
$DIMTOLJ
 70
     0
  9
$DIMTZIN
 70
     8
  9
$DIMALTZ
 70
     0
  9
$DIMALTTZ
 70
     0
  9
$DIMUPT
 70
     0
  9
$DIMDEC
 70
     2
  9
$DIMTDEC
 70
     2
  9
$DIMALTU
 70
     2
  9
$DIMALTTD
 70
     3
  9
$DIMTXSTY
  7
Standard
  9
$DIMAUNIT
 70
     0
  9
$DIMADEC
 70
     0
  9
$DIMALTRND
 40
0.0
  9
$DIMAZIN
 70
     0
  9
$DIMDSEP
 70
    46
  9
$DIMATFIT
 70
     3
  9
$DIMFRAC
 70
     0
  9
$DIMLDRBLK
  1
Open30
  9
$DIMLUNIT
 70
     2
  9
$DIMLWD
 70
    18
  9
$DIMLWE
 70
    18
  9
$DIMTMOVE
 70
     0
  9
$LUNITS
 70
     2
  9
$LUPREC
 70
     2
  9
$SKETCHINC
 40
1.0
  9
$FILLETRAD
 40
30.0
  9
$AUNITS
 70
     0
  9
$AUPREC
 70
     0
  9
$MENU
  1
.
  9
$ELEVATION
 40
0.0
  9
$PELEVATION
 40
0.0
  9
$THICKNESS
 40
0.0
  9
$LIMCHECK
 70
     1
  9
$CHAMFERA
 40
10.0
  9
$CHAMFERB
 40
10.0
  9
$CHAMFERC
 40
20.0
  9
$CHAMFERD
 40
0.0
  9
$SKPOLY
 70
     0
  9
$TDCREATE
 40
2451673.575802199
  9
$TDUCREATE
 40
2451673.200802199
  9
$TDUPDATE
 40
2458803.793351632
  9
$TDUUPDATE
 40
2458803.418351632
  9
$TDINDWG
 40
0.5314550694
  9
$TDUSRTIMER
 40
0.5314543750
  9
$USRTIMER
 70
     1
  9
$ANGBASE
 50
0.0
  9
$ANGDIR
 70
     0
  9
$PDMODE
 70
     3
  9
$PDSIZE
 40
0.0
  9
$PLINEWID
 40
0.0
  9
$SPLFRAME
 70
     0
  9
$SPLINETYPE
 70
     6
  9
$SPLINESEGS
 70
     8
  9
$HANDSEED
  5
1142
  9
$SURFTAB1
 70
     6
  9
$SURFTAB2
 70
     6
  9
$SURFTYPE
 70
     6
  9
$SURFU
 70
     6
  9
$SURFV
 70
     6
  9
$UCSBASE
  2

  9
$UCSNAME
  2

  9
$UCSORG
 10
0.0
 20
0.0
 30
0.0
  9
$UCSXDIR
 10
1.0
 20
0.0
 30
0.0
  9
$UCSYDIR
 10
0.0
 20
1.0
 30
0.0
  9
$UCSORTHOREF
  2

  9
$UCSORTHOVIEW
 70
     0
  9
$UCSORGTOP
 10
0.0
 20
0.0
 30
0.0
  9
$UCSORGBOTTOM
 10
0.0
 20
0.0
 30
0.0
  9
$UCSORGLEFT
 10
0.0
 20
0.0
 30
0.0
  9
$UCSORGRIGHT
 10
0.0
 20
0.0
 30
0.0
  9
$UCSORGFRONT
 10
0.0
 20
0.0
 30
0.0
  9
$UCSORGBACK
 10
0.0
 20
0.0
 30
0.0
  9
$PUCSBASE
  2

  9
$PUCSNAME
  2

  9
$PUCSORG
 10
0.0
 20
0.0
 30
0.0
  9
$PUCSXDIR
 10
1.0
 20
0.0
 30
0.0
  9
$PUCSYDIR
 10
0.0
 20
1.0
 30
0.0
  9
$PUCSORTHOREF
  2

  9
$PUCSORTHOVIEW
 70
     0
  9
$PUCSORGTOP
 10
0.0
 20
0.0
 30
0.0
  9
$PUCSORGBOTTOM
 10
0.0
 20
0.0
 30
0.0
  9
$PUCSORGLEFT
 10
0.0
 20
0.0
 30
0.0
  9
$PUCSORGRIGHT
 10
0.0
 20
0.0
 30
0.0
  9
$PUCSORGFRONT
 10
0.0
 20
0.0
 30
0.0
  9
$PUCSORGBACK
 10
0.0
 20
0.0
 30
0.0
  9
$USERI1
 70
     0
  9
$USERI2
 70
     0
  9
$USERI3
 70
     0
  9
$USERI4
 70
     0
  9
$USERI5
 70
     0
  9
$USERR1
 40
0.0
  9
$USERR2
 40
0.0
  9
$USERR3
 40
0.0
  9
$USERR4
 40
0.0
  9
$USERR5
 40
0.0
  9
$WORLDVIEW
 70
     1
  9
$SHADEDGE
 70
     3
  9
$SHADEDIF
 70
    70
  9
$TILEMODE
 70
     1
  9
$MAXACTVP
 70
    64
  9
$PINSBASE
 10
0.0
 20
0.0
 30
0.0
  9
$PLIMCHECK
 70
     0
  9
$PEXTMIN
 10
27.8447512626648
 20
20.24591643810271
 30
0.0
  9
$PEXTMAX
 10
250.6027613639831
 20
182.2132479429245
 30
0.0
  9
$PLIMMIN
 10
-3.757080078125
 20
-3.757083177566528
  9
$PLIMMAX
 10
293.2112426757813
 20
206.2162444591522
  9
$UNITMODE
 70
     0
  9
$VISRETAIN
 70
     1
  9
$PLINEGEN
 70
     0
  9
$PSLTSCALE
 70
     1
  9
$TREEDEPTH
 70
  3020
  9
$CMLSTYLE
  2
Standard
  9
$CMLJUST
 70
     0
  9
$CMLSCALE
 40
20.0
  9
$PROXYGRAPHICS
 70
     1
  9
$MEASUREMENT
 70
     1
  9
$CELWEIGHT
370
    -1
  9
$ENDCAPS
280
     0
  9
$JOINSTYLE
280
     0
  9
$LWDISPLAY
290
     0
  9
$INSUNITS
 70
     4
  9
$HYPERLINKBASE
  1

  9
$STYLESHEET
  1

  9
$XEDIT
290
     1
  9
$CEPSNTYPE
380
     0
  9
$PSTYLEMODE
290
     1
  9
$FINGERPRINTGUID
  2
{C8EA1F16-24C9-11D4-9416-CE0A3B32152F}
  9
$VERSIONGUID
  2
{EE283272-AAB2-4C68-B51A-BB7D671B9583}
  9
$EXTNAMES
290
     1
  9
$PSVPSCALE
 40
0.0
  9
$OLESTARTUP
290
     0
  0
ENDSEC
  0
SECTION
  2
CLASSES
  0
CLASS
  1
ACDBDICTIONARYWDFLT
  2
AcDbDictionaryWithDefault
  3
ObjectDBX Classes
 90
        0
280
     0
281
     0
  0
CLASS
  1
ACDBPLACEHOLDER
  2
AcDbPlaceHolder
  3
ObjectDBX Classes
 90
        0
280
     0
281
     0
  0
CLASS
  1
LAYOUT
  2
AcDbLayout
  3
ObjectDBX Classes
 90
        0
280
     0
281
     0
  0
CLASS
  1
TABLESTYLE
  2
AcDbTableStyle
  3
ObjectDBX Classes
 90
     2047
280
     0
281
     0
  0
CLASS
  1
DICTIONARYVAR
  2
AcDbDictionaryVar
  3
ObjectDBX Classes
 90
        0
280
     0
281
     0
  0
CLASS
  1
SORTENTSTABLE
  2
AcDbSortentsTable
  3
ObjectDBX Classes
 90
        0
280
     0
281
     0
  0
ENDSEC
  0
SECTION
  2
TABLES
  0
TABLE
  2
VPORT
  5
8
330
0
100
AcDbSymbolTable
 70
     2
  0
VPORT
  5
1136
330
8
100
AcDbSymbolTableRecord
100
AcDbViewportTableRecord
  2
*Active
 70
     0
 10
0.0
 20
0.0
 11
1.0
 21
1.0
 12
1500.626821191606
 22
932.2497006030657
 13
0.0
 23
0.0
 14
10.0
 24
10.0
 15
10.0
 25
10.0
 16
0.0
 26
0.0
 36
1.0
 17
0.0
 27
0.0
 37
0.0
 40
2711.217549898634
 41
1.29038112522686
 42
50.0
 43
0.0
 44
0.0
 50
0.0
 51
0.0
 71
     0
 72
   100
 73
     1
 74
     3
 75
     0
 76
     0
 77
     0
 78
     0
281
     0
 65
     1
110
0.0
120
0.0
130
0.0
111
1.0
121
0.0
131
0.0
112
0.0
122
1.0
132
0.0
 79
     0
146
0.0
  0
ENDTAB
  0
TABLE
  2
LTYPE
  5
5
330
0
100
AcDbSymbolTable
 70
    46
  0
LTYPE
  5
14
330
5
100
AcDbSymbolTableRecord
100
AcDbLinetypeTableRecord
  2
ByBlock
 70
     0
  3

 72
    65
 73
     0
 40
0.0
  0
LTYPE
  5
15
330
5
100
AcDbSymbolTableRecord
100
AcDbLinetypeTableRecord
  2
ByLayer
 70
     0
  3

 72
    65
 73
     0
 40
0.0
  0
LTYPE
  5
16
330
5
100
AcDbSymbolTableRecord
100
AcDbLinetypeTableRecord
  2
Continuous
 70
     0
  3
Solid line
 72
    65
 73
     0
 40
0.0
  0
LTYPE
  5
34
330
5
100
AcDbSymbolTableRecord
100
AcDbLinetypeTableRecord
  2
ACAD_ISO02W100
 70
     0
  3
ISO dash __ __ __ __ __ __ __ __ __ __ __ __ __
 72
    65
 73
     2
 40
15.0
 49
12.0
 74
     0
 49
-3.0
 74
     0
  0
LTYPE
  5
35
330
5
100
AcDbSymbolTableRecord
100
AcDbLinetypeTableRecord
  2
ACAD_ISO03W100
 70
     0
  3
ISO dash space __    __    __    __    __    __
 72
    65
 73
     2
 40
30.0
 49
12.0
 74
     0
 49
-18.0
 74
     0
  0
LTYPE
  5
36
330
5
100
AcDbSymbolTableRecord
100
AcDbLinetypeTableRecord
  2
ACAD_ISO04W100
 70
     0
  3
ISO long-dash dot ____ . ____ . ____ . ____ . _
 72
    65
 73
     4
 40
30.0
 49
24.0
 74
     0
 49
-3.0
 74
     0
 49
0.0
 74
     0
 49
-3.0
 74
     0
  0
LTYPE
  5
37
330
5
100
AcDbSymbolTableRecord
100
AcDbLinetypeTableRecord
  2
ACAD_ISO05W100
 70
     0
  3
ISO long-dash double-dot ____ .. ____ .. ____ .
 72
    65
 73
     6
 40
34.0
 49
24.0
 74
     0
 49
-3.0
 74
     0
 49
0.5
 74
     0
 49
-3.0
 74
     0
 49
0.5
 74
     0
 49
-3.0
 74
     0
  0
LTYPE
  5
38
330
5
100
AcDbSymbolTableRecord
100
AcDbLinetypeTableRecord
  2
ACAD_ISO06W100
 70
     0
  3
ISO long-dash triple-dot ____ ... ____ ... ____
 72
    65
 73
     8
 40
37.5
 49
24.0
 74
     0
 49
-3.0
 74
     0
 49
0.5
 74
     0
 49
-3.0
 74
     0
 49
0.5
 74
     0
 49
-3.0
 74
     0
 49
0.5
 74
     0
 49
-3.0
 74
     0
  0
LTYPE
  5
39
330
5
100
AcDbSymbolTableRecord
100
AcDbLinetypeTableRecord
  2
ACAD_ISO07W100
 70
     0
  3
ISO dot . . . . . . . . . . . . . . . . . . . .
 72
    65
 73
     2
 40
3.0
 49
0.0
 74
     0
 49
-3.0
 74
     0
  0
LTYPE
  5
3A
330
5
100
AcDbSymbolTableRecord
100
AcDbLinetypeTableRecord
  2
ACAD_ISO08W100
 70
     0
  3
ISO long-dash short-dash ____ __ ____ __ ____ _
 72
    65
 73
     4
 40
36.0
 49
24.0
 74
     0
 49
-3.0
 74
     0
 49
6.0
 74
     0
 49
-3.0
 74
     0
  0
LTYPE
  5
3B
330
5
100
AcDbSymbolTableRecord
100
AcDbLinetypeTableRecord
  2
ACAD_ISO09W100
 70
     0
  3
ISO long-dash double-short-dash ____ __ __ ____
 72
    65
 73
     6
 40
45.0
 49
24.0
 74
     0
 49
-3.0
 74
     0
 49
6.0
 74
     0
 49
-3.0
 74
     0
 49
6.0
 74
     0
 49
-3.0
 74
     0
  0
LTYPE
  5
3C
330
5
100
AcDbSymbolTableRecord
100
AcDbLinetypeTableRecord
  2
ACAD_ISO10W100
 70
     0
  3
ISO dash dot __ . __ . __ . __ . __ . __ . __ .
 72
    65
 73
     4
 40
18.0
 49
12.0
 74
     0
 49
-3.0
 74
     0
 49
0.0
 74
     0
 49
-3.0
 74
     0
  0
LTYPE
  5
3D
330
5
100
AcDbSymbolTableRecord
100
AcDbLinetypeTableRecord
  2
ACAD_ISO11W100
 70
     0
  3
ISO double-dash dot __ __ . __ __ . __ __ . __ 
 72
    65
 73
     6
 40
33.0
 49
12.0
 74
     0
 49
-3.0
 74
     0
 49
12.0
 74
     0
 49
-3.0
 74
     0
 49
0.0
 74
     0
 49
-3.0
 74
     0
  0
LTYPE
  5
3E
330
5
100
AcDbSymbolTableRecord
100
AcDbLinetypeTableRecord
  2
ACAD_ISO12W100
 70
     0
  3
ISO dash double-dot __ . . __ . . __ . . __ . .
 72
    65
 73
     6
 40
21.0
 49
12.0
 74
     0
 49
-3.0
 74
     0
 49
0.0
 74
     0
 49
-3.0
 74
     0
 49
0.0
 74
     0
 49
-3.0
 74
     0
  0
LTYPE
  5
3F
330
5
100
AcDbSymbolTableRecord
100
AcDbLinetypeTableRecord
  2
ACAD_ISO13W100
 70
     0
  3
ISO double-dash double-dot __ __ . . __ __ . . 
 72
    65
 73
     8
 40
36.0
 49
12.0
 74
     0
 49
-3.0
 74
     0
 49
12.0
 74
     0
 49
-3.0
 74
     0
 49
0.0
 74
     0
 49
-3.0
 74
     0
 49
0.0
 74
     0
 49
-3.0
 74
     0
  0
LTYPE
  5
40
330
5
100
AcDbSymbolTableRecord
100
AcDbLinetypeTableRecord
  2
ACAD_ISO14W100
 70
     0
  3
ISO dash triple-dot __ . . . __ . . . __ . . . 
 72
    65
 73
     8
 40
24.0
 49
12.0
 74
     0
 49
-3.0
 74
     0
 49
0.0
 74
     0
 49
-3.0
 74
     0
 49
0.0
 74
     0
 49
-3.0
 74
     0
 49
0.0
 74
     0
 49
-3.0
 74
     0
  0
LTYPE
  5
41
330
5
100
AcDbSymbolTableRecord
100
AcDbLinetypeTableRecord
  2
ACAD_ISO15W100
 70
     0
  3
ISO double-dash triple-dot __ __ . . . __ __ . 
 72
    65
 73
    10
 40
39.0
 49
12.0
 74
     0
 49
-3.0
 74
     0
 49
12.0
 74
     0
 49
-3.0
 74
     0
 49
0.0
 74
     0
 49
-3.0
 74
     0
 49
0.0
 74
     0
 49
-3.0
 74
     0
 49
0.0
 74
     0
 49
-3.0
 74
     0
  0
LTYPE
  5
42
330
5
100
AcDbSymbolTableRecord
100
AcDbLinetypeTableRecord
  2
BATTING
 70
     0
  3
Batting SSSSSSSSSSSSSSSSSSSSSSSSSSSSSSSSSSSSSSS
 72
    65
 73
     4
 40
10.16254
 49
0.00254
 74
     0
 49
-2.54
 74
     4
 75
   134
340
33
 46
2.54
 50
0.0
 44
-2.54
 45
0.0
 49
-5.08
 74
     4
 75
   134
340
33
 46
2.54
 50
180.0
 44
2.54
 45
0.0
 49
-2.54
 74
     0
  0
LTYPE
  5
43
330
5
100
AcDbSymbolTableRecord
100
AcDbLinetypeTableRecord
  2
BORDER
 70
     0
  3
Border __ __ . __ __ . __ __ . __ __ . __ __ .
 72
    65
 73
     6
 40
44.45
 49
12.7
 74
     0
 49
-6.349999999999999
 74
     0
 49
12.7
 74
     0
 49
-6.349999999999999
 74
     0
 49
0.0
 74
     0
 49
-6.349999999999999
 74
     0
  0
LTYPE
  5
44
330
5
100
AcDbSymbolTableRecord
100
AcDbLinetypeTableRecord
  2
BORDER2
 70
     0
  3
Border (.5x) __.__.__.__.__.__.__.__.__.__.__.
 72
    65
 73
     6
 40
22.225
 49
6.349999999999999
 74
     0
 49
-3.174999999999999
 74
     0
 49
6.349999999999999
 74
     0
 49
-3.174999999999999
 74
     0
 49
0.0
 74
     0
 49
-3.174999999999999
 74
     0
  0
LTYPE
  5
45
330
5
100
AcDbSymbolTableRecord
100
AcDbLinetypeTableRecord
  2
BORDERX2
 70
     0
  3
Border (2x) ____  ____  .  ____  ____  .  ___
 72
    65
 73
     6
 40
88.9
 49
25.4
 74
     0
 49
-12.7
 74
     0
 49
25.4
 74
     0
 49
-12.7
 74
     0
 49
0.0
 74
     0
 49
-12.7
 74
     0
  0
LTYPE
  5
46
330
5
100
AcDbSymbolTableRecord
100
AcDbLinetypeTableRecord
  2
CENTER
 70
     0
  3
Center ____ _ ____ _ ____ _ ____ _ ____ _ ____
 72
    65
 73
     4
 40
50.8
 49
31.75
 74
     0
 49
-6.349999999999999
 74
     0
 49
6.349999999999999
 74
     0
 49
-6.349999999999999
 74
     0
  0
LTYPE
  5
47
330
5
100
AcDbSymbolTableRecord
100
AcDbLinetypeTableRecord
  2
CENTER2
 70
     0
  3
Center (.5x) ___ _ ___ _ ___ _ ___ _ ___ _ ___
 72
    65
 73
     4
 40
28.575
 49
19.05
 74
     0
 49
-3.174999999999999
 74
     0
 49
3.174999999999999
 74
     0
 49
-3.174999999999999
 74
     0
  0
LTYPE
  5
48
330
5
100
AcDbSymbolTableRecord
100
AcDbLinetypeTableRecord
  2
CENTERX2
 70
     0
  3
Center (2x) ________  __  ________  __  _____
 72
    65
 73
     4
 40
101.6
 49
63.5
 74
     0
 49
-12.7
 74
     0
 49
12.7
 74
     0
 49
-12.7
 74
     0
  0
LTYPE
  5
49
330
5
100
AcDbSymbolTableRecord
100
AcDbLinetypeTableRecord
  2
DASHDOT
 70
     0
  3
Dash dot __ . __ . __ . __ . __ . __ . __ . __
 72
    65
 73
     4
 40
25.4
 49
12.7
 74
     0
 49
-6.349999999999999
 74
     0
 49
0.0
 74
     0
 49
-6.349999999999999
 74
     0
  0
LTYPE
  5
4A
330
5
100
AcDbSymbolTableRecord
100
AcDbLinetypeTableRecord
  2
DASHDOT2
 70
     0
  3
Dash dot (.5x) _._._._._._._._._._._._._._._.
 72
    65
 73
     4
 40
12.7
 49
6.349999999999999
 74
     0
 49
-3.174999999999999
 74
     0
 49
0.0
 74
     0
 49
-3.174999999999999
 74
     0
  0
LTYPE
  5
4B
330
5
100
AcDbSymbolTableRecord
100
AcDbLinetypeTableRecord
  2
DASHDOTX2
 70
     0
  3
Dash dot (2x) ____  .  ____  .  ____  .  ___
 72
    65
 73
     4
 40
50.8
 49
25.4
 74
     0
 49
-12.7
 74
     0
 49
0.0
 74
     0
 49
-12.7
 74
     0
  0
LTYPE
  5
4C
330
5
100
AcDbSymbolTableRecord
100
AcDbLinetypeTableRecord
  2
DASHED
 70
     0
  3
Dashed __ __ __ __ __ __ __ __ __ __ __ __ __ _
 72
    65
 73
     2
 40
19.05
 49
12.7
 74
     0
 49
-6.349999999999999
 74
     0
  0
LTYPE
  5
4D
330
5
100
AcDbSymbolTableRecord
100
AcDbLinetypeTableRecord
  2
DASHED2
 70
     0
  3
Dashed (.5x) _ _ _ _ _ _ _ _ _ _ _ _ _ _ _ _ _
 72
    65
 73
     2
 40
9.524999999999998
 49
6.349999999999999
 74
     0
 49
-3.174999999999999
 74
     0
  0
LTYPE
  5
4E
330
5
100
AcDbSymbolTableRecord
100
AcDbLinetypeTableRecord
  2
DASHEDX2
 70
     0
  3
Dashed (2x) ____  ____  ____  ____  ____  ___
 72
    65
 73
     2
 40
38.1
 49
25.4
 74
     0
 49
-12.7
 74
     0
  0
LTYPE
  5
4F
330
5
100
AcDbSymbolTableRecord
100
AcDbLinetypeTableRecord
  2
DIVIDE
 70
     0
  3
Divide ____ . . ____ . . ____ . . ____ . . ____
 72
    65
 73
     6
 40
31.75
 49
12.7
 74
     0
 49
-6.349999999999999
 74
     0
 49
0.0
 74
     0
 49
-6.349999999999999
 74
     0
 49
0.0
 74
     0
 49
-6.349999999999999
 74
     0
  0
LTYPE
  5
50
330
5
100
AcDbSymbolTableRecord
100
AcDbLinetypeTableRecord
  2
DIVIDE2
 70
     0
  3
Divide (.5x) __..__..__..__..__..__..__..__.._
 72
    65
 73
     6
 40
15.875
 49
6.349999999999999
 74
     0
 49
-3.174999999999999
 74
     0
 49
0.0
 74
     0
 49
-3.174999999999999
 74
     0
 49
0.0
 74
     0
 49
-3.174999999999999
 74
     0
  0
LTYPE
  5
51
330
5
100
AcDbSymbolTableRecord
100
AcDbLinetypeTableRecord
  2
DIVIDEX2
 70
     0
  3
Divide (2x) ________  .  .  ________  .  .  _
 72
    65
 73
     6
 40
63.49999999999999
 49
25.4
 74
     0
 49
-12.7
 74
     0
 49
0.0
 74
     0
 49
-12.7
 74
     0
 49
0.0
 74
     0
 49
-12.7
 74
     0
  0
LTYPE
  5
52
330
5
100
AcDbSymbolTableRecord
100
AcDbLinetypeTableRecord
  2
DOT
 70
     0
  3
Dot . . . . . . . . . . . . . . . . . . . . . .
 72
    65
 73
     2
 40
6.349999999999999
 49
0.0
 74
     0
 49
-6.349999999999999
 74
     0
  0
LTYPE
  5
53
330
5
100
AcDbSymbolTableRecord
100
AcDbLinetypeTableRecord
  2
DOT2
 70
     0
  3
Dot (.5x) .....................................
 72
    65
 73
     2
 40
3.174999999999999
 49
0.0
 74
     0
 49
-3.174999999999999
 74
     0
  0
LTYPE
  5
54
330
5
100
AcDbSymbolTableRecord
100
AcDbLinetypeTableRecord
  2
DOTX2
 70
     0
  3
Dot (2x) .  .  .  .  .  .  .  .  .  .  .  .  . 
 72
    65
 73
     2
 40
12.7
 49
0.0
 74
     0
 49
-12.7
 74
     0
  0
LTYPE
  5
55
330
5
100
AcDbSymbolTableRecord
100
AcDbLinetypeTableRecord
  2
FENCELINE1
 70
     0
  3
Fenceline circle ----0-----0----0-----0----0---
 72
    65
 73
     4
 40
36.83
 49
6.349999999999999
 74
     0
 49
-2.54
 74
     4
 75
   133
340
33
 46
2.54
 50
0.0
 44
-2.54
 45
0.0
 49
-2.54
 74
     0
 49
25.4
 74
     0
  0
LTYPE
  5
56
330
5
100
AcDbSymbolTableRecord
100
AcDbLinetypeTableRecord
  2
FENCELINE2
 70
     0
  3
Fenceline square ----[]-----[]----[]-----[]----
 72
    65
 73
     4
 40
36.83
 49
6.349999999999999
 74
     0
 49
-2.54
 74
     4
 75
   132
340
33
 46
2.54
 50
0.0
 44
-2.54
 45
0.0
 49
-2.54
 74
     0
 49
25.4
 74
     0
  0
LTYPE
  5
57
330
5
100
AcDbSymbolTableRecord
100
AcDbLinetypeTableRecord
  2
GAS_LINE
 70
     0
  3
Gas line ----GAS----GAS----GAS----GAS----GAS---
 72
    65
 73
     3
 40
24.13
 49
12.7
 74
     0
 49
-5.08
 74
     2
 75
     0
340
11
 46
2.54
 50
0.0
 44
-2.54
 45
-1.27
  9
GAS
 49
-6.349999999999999
 74
     0
  0
LTYPE
  5
58
330
5
100
AcDbSymbolTableRecord
100
AcDbLinetypeTableRecord
  2
HIDDEN
 70
     0
  3
Hidden __ __ __ __ __ __ __ __ __ __ __ __ __ _
 72
    65
 73
     2
 40
9.524999999999998
 49
6.349999999999999
 74
     0
 49
-3.174999999999999
 74
     0
  0
LTYPE
  5
59
330
5
100
AcDbSymbolTableRecord
100
AcDbLinetypeTableRecord
  2
HIDDEN2
 70
     0
  3
Hidden (.5x) _ _ _ _ _ _ _ _ _ _ _ _ _ _ _ _ _
 72
    65
 73
     2
 40
4.762499999999999
 49
3.174999999999999
 74
     0
 49
-1.587499999999999
 74
     0
  0
LTYPE
  5
5A
330
5
100
AcDbSymbolTableRecord
100
AcDbLinetypeTableRecord
  2
HIDDENX2
 70
     0
  3
Hidden (2x) ____ ____ ____ ____ ____ ____ ____
 72
    65
 73
     2
 40
19.05
 49
12.7
 74
     0
 49
-6.349999999999999
 74
     0
  0
LTYPE
  5
5B
330
5
100
AcDbSymbolTableRecord
100
AcDbLinetypeTableRecord
  2
HOT_WATER_SUPPLY
 70
     0
  3
Hot water supply ---- HW ---- HW ---- HW ----
 72
    65
 73
     3
 40
22.86
 49
12.7
 74
     0
 49
-5.08
 74
     2
 75
     0
340
11
 46
2.54
 50
0.0
 44
-2.54
 45
-1.27
  9
HW
 49
-5.08
 74
     0
  0
LTYPE
  5
5C
330
5
100
AcDbSymbolTableRecord
100
AcDbLinetypeTableRecord
  2
PHANTOM
 70
     0
  3
Phantom ______  __  __  ______  __  __  ______
 72
    65
 73
     6
 40
63.5
 49
31.75
 74
     0
 49
-6.349999999999999
 74
     0
 49
6.349999999999999
 74
     0
 49
-6.349999999999999
 74
     0
 49
6.349999999999999
 74
     0
 49
-6.349999999999999
 74
     0
  0
LTYPE
  5
5D
330
5
100
AcDbSymbolTableRecord
100
AcDbLinetypeTableRecord
  2
PHANTOM2
 70
     0
  3
Phantom (.5x) ___ _ _ ___ _ _ ___ _ _ ___ _ _
 72
    65
 73
     6
 40
31.75
 49
15.875
 74
     0
 49
-3.174999999999999
 74
     0
 49
3.174999999999999
 74
     0
 49
-3.174999999999999
 74
     0
 49
3.174999999999999
 74
     0
 49
-3.174999999999999
 74
     0
  0
LTYPE
  5
5E
330
5
100
AcDbSymbolTableRecord
100
AcDbLinetypeTableRecord
  2
PHANTOMX2
 70
     0
  3
Phantom (2x) ____________    ____    ____   _
 72
    65
 73
     6
 40
127.0
 49
63.5
 74
     0
 49
-12.7
 74
     0
 49
12.7
 74
     0
 49
-12.7
 74
     0
 49
12.7
 74
     0
 49
-12.7
 74
     0
  0
LTYPE
  5
5F
330
5
100
AcDbSymbolTableRecord
100
AcDbLinetypeTableRecord
  2
TRACKS
 70
     0
  3
Tracks -|-|-|-|-|-|-|-|-|-|-|-|-|-|-|-|-|-|-|-|
 72
    65
 73
     2
 40
7.62
 49
3.81
 74
     4
 75
   130
340
33
 46
6.349999999999999
 50
0.0
 44
0.0
 45
0.0
 49
3.81
 74
     0
  0
LTYPE
  5
60
330
5
100
AcDbSymbolTableRecord
100
AcDbLinetypeTableRecord
  2
ZIGZAG
 70
     0
  3
Zig zag /\/\/\/\/\/\/\/\/\/\/\/\/\/\/\/\/\/\/\/
 72
    65
 73
     4
 40
20.32254
 49
0.00254
 74
     0
 49
-5.08
 74
     4
 75
   131
340
33
 46
5.08
 50
0.0
 44
-5.08
 45
0.0
 49
-10.16
 74
     4
 75
   131
340
33
 46
5.08
 50
180.0
 44
5.08
 45
0.0
 49
-5.08
 74
     0
  0
ENDTAB
  0
TABLE
  2
LAYER
  5
2
102
{ACAD_XDICTIONARY
360
10C0
102
}
330
0
100
AcDbSymbolTable
 70
     9
  0
LAYER
  5
10
330
2
100
AcDbSymbolTableRecord
100
AcDbLayerTableRecord
  2
0
 70
     0
 62
     7
  6
Continuous
370
    -3
390
F
  0
LAYER
  5
C3
330
2
100
AcDbSymbolTableRecord
100
AcDbLayerTableRecord
  2
Defpoints
 70
     0
 62
     7
  6
Continuous
290
     0
370
    -3
390
F
  0
LAYER
  5
256
330
2
100
AcDbSymbolTableRecord
100
AcDbLayerTableRecord
  2
センター
 70
     0
 62
     7
  6
CENTER2
370
    18
390
F
  0
LAYER
  5
268
330
2
100
AcDbSymbolTableRecord
100
AcDbLayerTableRecord
  2
実形
 70
     0
 62
     7
  6
Continuous
370
    -3
390
F
  0
LAYER
  5
269
330
2
100
AcDbSymbolTableRecord
100
AcDbLayerTableRecord
  2
補助
 70
     0
 62
     7
  6
Continuous
370
    -3
390
F
  0
LAYER
  5
26A
330
2
100
AcDbSymbolTableRecord
100
AcDbLayerTableRecord
  2
寸法
 70
     0
 62
     7
  6
Continuous
370
    18
390
F
  0
LAYER
  5
26B
330
2
100
AcDbSymbolTableRecord
100
AcDbLayerTableRecord
  2
ハッチング
 70
     0
 62
     7
  6
Continuous
370
    18
390
F
  0
LAYER
  5
26D
330
2
100
AcDbSymbolTableRecord
100
AcDbLayerTableRecord
  2
文字
 70
     0
 62
     7
  6
Continuous
370
    -3
390
F
  0
LAYER
  5
F3A
330
2
100
AcDbSymbolTableRecord
100
AcDbLayerTableRecord
  2
Cen
 70
     0
 62
     7
  6
CENTER2
370
    15
390
F
  0
ENDTAB
  0
TABLE
  2
STYLE
  5
3
330
0
100
AcDbSymbolTable
 70
     3
  0
STYLE
  5
11
330
3
100
AcDbSymbolTableRecord
100
AcDbTextStyleTableRecord
  2
Standard
 70
     0
 40
0.0
 41
1.0
 50
0.0
 71
     0
 42
25.0
  3
txt.shx
  4
bigfont.shx
  0
STYLE
  5
33
330
3
100
AcDbSymbolTableRecord
100
AcDbTextStyleTableRecord
  2

 70
     1
 40
0.0
 41
1.0
 50
0.0
 71
     0
 42
2.5
  3
ltypeshp.shx
  4

  0
STYLE
  5
10EB
330
3
100
AcDbSymbolTableRecord
100
AcDbTextStyleTableRecord
  2
明朝
 70
     0
 40
0.0
 41
1.0
 50
0.0
 71
     0
 42
25.0
  3
MS Mincho.ttf
  4

1001
ACAD
1000
MS Mincho
1071
    32785
  0
ENDTAB
  0
TABLE
  2
VIEW
  5
6
330
0
100
AcDbSymbolTable
 70
     0
  0
ENDTAB
  0
TABLE
  2
UCS
  5
7
330
0
100
AcDbSymbolTable
 70
     0
  0
ENDTAB
  0
TABLE
  2
APPID
  5
9
330
0
100
AcDbSymbolTable
 70
     1
  0
APPID
  5
12
330
9
100
AcDbSymbolTableRecord
100
AcDbRegAppTableRecord
  2
ACAD
 70
     0
  0
ENDTAB
  0
TABLE
  2
DIMSTYLE
  5
A
330
0
100
AcDbSymbolTable
 70
     1
100
AcDbDimStyleTable
 71
     1
340
27
  0
DIMSTYLE
105
27
102
{ACAD_REACTORS
330
368
330
44B
330
458
330
4A3
330
569
330
57F
330
35B
330
3CE
330
43D
330
3E9
330
3DC
330
3F6
330
4F8
330
505
330
850
330
85D
330
80A
330
824
330
83A
330
399
330
1013
330
1014
102
}
330
A
100
AcDbSymbolTableRecord
100
AcDbDimStyleTableRecord
  2
ISO-25
 70
     0
 41
35.0
 42
65.0
 43
3.75
 44
0.0
 73
     0
 74
     0
 77
     1
 78
     8
140
25.0
141
2.5
143
0.03937007874016
147
6.25
171
     3
172
     1
271
     2
272
     2
274
     3
283
     0
284
     8
340
11
341
DA
342
D0
371
    15
372
    15
  0
ENDTAB
  0
TABLE
  2
BLOCK_RECORD
  5
1
330
0
100
AcDbSymbolTable
 70
    26
  0
BLOCK_RECORD
  5
1F
102
{ACAD_XDICTIONARY
360
10E9
102
}
330
1
100
AcDbSymbolTableRecord
100
AcDbBlockTableRecord
  2
*Model_Space
340
22
  0
BLOCK_RECORD
  5
1B
330
1
100
AcDbSymbolTableRecord
100
AcDbBlockTableRecord
  2
*Paper_Space
340
1E
  0
BLOCK_RECORD
  5
23
330
1
100
AcDbSymbolTableRecord
100
AcDbBlockTableRecord
  2
*Paper_Space0
340
26
  0
BLOCK_RECORD
  5
D0
330
1
100
AcDbSymbolTableRecord
100
AcDbBlockTableRecord
  2
_DotSmall
340
0
102
{BLKREFS
331
D48
331
D49
331
D6B
331
D6C
331
D74
331
D75
331
D7D
331
D7E
331
D86
331
D87
331
D8F
331
D90
331
DD2
331
DD3
331
DDB
331
DDC
331
DED
331
DEE
331
E12
331
E13
331
E1B
331
E1C
331
EA7
331
EA8
331
EB0
331
EB1
331
EB9
331
EBA
331
EC1
331
EC2
331
ECA
331
ECB
331
F0A
331
F0B
331
FC6
331
FC7
331
1035
331
1036
331
103D
331
103E
331
106D
331
106E
331
1076
331
1077
102
}
  0
BLOCK_RECORD
  5
D4
330
1
100
AcDbSymbolTableRecord
100
AcDbBlockTableRecord
  2
_Origin2
340
0
  0
BLOCK_RECORD
  5
DA
330
1
100
AcDbSymbolTableRecord
100
AcDbBlockTableRecord
  2
_Open30
340
0
  0
BLOCK_RECORD
  5
35C
330
1
100
AcDbSymbolTableRecord
100
AcDbBlockTableRecord
  2
*D4
340
0
  0
BLOCK_RECORD
  5
369
330
1
100
AcDbSymbolTableRecord
100
AcDbBlockTableRecord
  2
*D5
340
0
  0
BLOCK_RECORD
  5
39A
330
1
100
AcDbSymbolTableRecord
100
AcDbBlockTableRecord
  2
*D6
340
0
  0
BLOCK_RECORD
  5
3CF
330
1
100
AcDbSymbolTableRecord
100
AcDbBlockTableRecord
  2
*D7
340
0
  0
BLOCK_RECORD
  5
3DD
330
1
100
AcDbSymbolTableRecord
100
AcDbBlockTableRecord
  2
*D8
340
0
  0
BLOCK_RECORD
  5
3EA
330
1
100
AcDbSymbolTableRecord
100
AcDbBlockTableRecord
  2
*D9
340
0
  0
BLOCK_RECORD
  5
3F7
330
1
100
AcDbSymbolTableRecord
100
AcDbBlockTableRecord
  2
*D10
340
0
  0
BLOCK_RECORD
  5
43E
330
1
100
AcDbSymbolTableRecord
100
AcDbBlockTableRecord
  2
*D11
340
0
  0
BLOCK_RECORD
  5
44C
330
1
100
AcDbSymbolTableRecord
100
AcDbBlockTableRecord
  2
*D12
340
0
  0
BLOCK_RECORD
  5
459
330
1
100
AcDbSymbolTableRecord
100
AcDbBlockTableRecord
  2
*D13
340
0
  0
BLOCK_RECORD
  5
4A4
330
1
100
AcDbSymbolTableRecord
100
AcDbBlockTableRecord
  2
*D14
340
0
  0
BLOCK_RECORD
  5
4F9
330
1
100
AcDbSymbolTableRecord
100
AcDbBlockTableRecord
  2
*D15
340
0
  0
BLOCK_RECORD
  5
506
330
1
100
AcDbSymbolTableRecord
100
AcDbBlockTableRecord
  2
*D16
340
0
  0
BLOCK_RECORD
  5
56A
330
1
100
AcDbSymbolTableRecord
100
AcDbBlockTableRecord
  2
*D17
340
0
  0
BLOCK_RECORD
  5
580
330
1
100
AcDbSymbolTableRecord
100
AcDbBlockTableRecord
  2
*D18
340
0
  0
BLOCK_RECORD
  5
80B
330
1
100
AcDbSymbolTableRecord
100
AcDbBlockTableRecord
  2
*D19
340
0
  0
BLOCK_RECORD
  5
825
330
1
100
AcDbSymbolTableRecord
100
AcDbBlockTableRecord
  2
*D20
340
0
  0
BLOCK_RECORD
  5
83B
330
1
100
AcDbSymbolTableRecord
100
AcDbBlockTableRecord
  2
*D21
340
0
  0
BLOCK_RECORD
  5
851
330
1
100
AcDbSymbolTableRecord
100
AcDbBlockTableRecord
  2
*D22
340
0
  0
BLOCK_RECORD
  5
85E
330
1
100
AcDbSymbolTableRecord
100
AcDbBlockTableRecord
  2
*D23
340
0
  0
BLOCK_RECORD
  5
101B
330
1
100
AcDbSymbolTableRecord
100
AcDbBlockTableRecord
  2
*D24
340
0
  0
BLOCK_RECORD
  5
1026
330
1
100
AcDbSymbolTableRecord
100
AcDbBlockTableRecord
  2
*D25
340
0
  0
ENDTAB
  0
ENDSEC
  0
SECTION
  2
BLOCKS
  0
BLOCK
  5
20
330
1F
100
AcDbEntity
  8
0
100
AcDbBlockBegin
  2
*Model_Space
 70
     0
 10
0.0
 20
0.0
 30
0.0
  3
*Model_Space
  1

  0
ENDBLK
  5
21
330
1F
100
AcDbEntity
  8
0
100
AcDbBlockEnd
  0
BLOCK
  5
1C
330
1B
100
AcDbEntity
 67
     1
  8
0
100
AcDbBlockBegin
  2
*Paper_Space
 70
     0
 10
0.0
 20
0.0
 30
0.0
  3
*Paper_Space
  1

  0
ENDBLK
  5
1D
330
1B
100
AcDbEntity
 67
     1
  8
0
100
AcDbBlockEnd
  0
BLOCK
  5
24
330
23
100
AcDbEntity
  8
0
100
AcDbBlockBegin
  2
*Paper_Space0
 70
     0
 10
0.0
 20
0.0
 30
0.0
  3
*Paper_Space0
  1

  0
ENDBLK
  5
25
330
23
100
AcDbEntity
  8
0
100
AcDbBlockEnd
  0
BLOCK
  5
D2
330
D0
100
AcDbEntity
  8
0
100
AcDbBlockBegin
  2
_DotSmall
 70
     0
 10
0.0
 20
0.0
 30
0.0
  3
_DotSmall
  1

  0
LWPOLYLINE
  5
D1
330
D0
100
AcDbEntity
  8
0
 62
     0
100
AcDbPolyline
 90
        2
 70
     1
 43
0.5
 10
-0.0625
 20
0.0
 42
1.0
 10
0.0625
 20
0.0
 42
1.0
  0
ENDBLK
  5
D3
330
D0
100
AcDbEntity
  8
0
100
AcDbBlockEnd
  0
BLOCK
  5
D8
330
D4
100
AcDbEntity
  8
0
100
AcDbBlockBegin
  2
_Origin2
 70
     0
 10
0.0
 20
0.0
 30
0.0
  3
_Origin2
  1

  0
CIRCLE
  5
D5
330
D4
100
AcDbEntity
  8
0
 62
     0
370
    -2
100
AcDbCircle
 10
0.0
 20
0.0
 30
0.0
 40
0.5
  0
CIRCLE
  5
D6
330
D4
100
AcDbEntity
  8
0
 62
     0
370
    -2
100
AcDbCircle
 10
0.0
 20
0.0
 30
0.0
 40
0.25
  0
LINE
  5
D7
330
D4
100
AcDbEntity
  8
0
 62
     0
370
    -2
100
AcDbLine
 10
-0.5
 20
0.0
 30
0.0
 11
-1.0
 21
0.0
 31
0.0
  0
ENDBLK
  5
D9
330
D4
100
AcDbEntity
  8
0
100
AcDbBlockEnd
  0
BLOCK
  5
DE
330
DA
100
AcDbEntity
  8
0
100
AcDbBlockBegin
  2
_Open30
 70
     0
 10
0.0
 20
0.0
 30
0.0
  3
_Open30
  1

  0
LINE
  5
DB
330
DA
100
AcDbEntity
  8
0
 62
     0
370
    -2
100
AcDbLine
 10
-1.0
 20
0.26794919
 30
0.0
 11
0.0
 21
0.0
 31
0.0
  0
LINE
  5
DC
330
DA
100
AcDbEntity
  8
0
 62
     0
370
    -2
100
AcDbLine
 10
0.0
 20
0.0
 30
0.0
 11
-1.0
 21
-0.26794919
 31
0.0
  0
LINE
  5
DD
330
DA
100
AcDbEntity
  8
0
 62
     0
370
    -2
100
AcDbLine
 10
0.0
 20
0.0
 30
0.0
 11
-1.0
 21
0.0
 31
0.0
  0
ENDBLK
  5
DF
330
DA
100
AcDbEntity
  8
0
100
AcDbBlockEnd
  0
BLOCK
  5
366
330
35C
100
AcDbEntity
  8
0
100
AcDbBlockBegin
  2
*D4
 70
     1
 10
0.0
 20
0.0
 30
0.0
  3
*D4
  1

  0
LINE
  5
EBE
330
35C
100
AcDbEntity
  8
寸法
 62
     0
370
    15
100
AcDbLine
 10
862.4564365682308
 20
1686.242840796207
 30
0.0
 11
862.4564365682308
 21
1844.545958959615
 31
0.0
  0
LINE
  5
EBF
330
35C
100
AcDbEntity
  8
寸法
 62
     0
370
    15
100
AcDbLine
 10
712.4564365682308
 20
1595.742840796207
 30
0.0
 11
712.4564365682308
 21
1844.545958959615
 31
0.0
  0
LINE
  5
EC0
330
35C
100
AcDbEntity
  8
寸法
 62
     0
370
    18
100
AcDbLine
 10
862.4564365682308
 20
1844.545958959615
 30
0.0
 11
712.4564365682308
 21
1844.545958959615
 31
0.0
  0
INSERT
  5
EC1
330
35C
100
AcDbEntity
  8
寸法
 62
     0
370
    18
100
AcDbBlockReference
  2
_DotSmall
 10
862.4564365682308
 20
1844.545958959615
 30
0.0
 41
35.0
 42
35.0
 43
35.0
  0
INSERT
  5
EC2
330
35C
100
AcDbEntity
  8
寸法
 62
     0
370
    18
100
AcDbBlockReference
  2
_DotSmall
 10
712.4564365682308
 20
1844.545958959615
 30
0.0
 41
35.0
 42
35.0
 43
35.0
 50
180.0
  0
MTEXT
  5
EC3
330
35C
100
AcDbEntity
  8
寸法
 62
     0
100
AcDbMText
 10
787.4564365682308
 20
1863.295958959615
 30
0.0
 40
25.0
 41
0.0
 71
     5
 72
     1
  1
150
 73
     1
 44
1.0
1001
ACAD
1000
MTEXTBEGIN
1070
    73
1070
     1
1070
    44
1040
1.0
1070
    74
1070
     0
1000
MTEXTEND
  0
POINT
  5
EC4
330
35C
100
AcDbEntity
  8
Defpoints
 62
     0
100
AcDbPoint
 10
862.4564365682308
 20
1621.242840796207
 30
0.0
  0
POINT
  5
EC5
330
35C
100
AcDbEntity
  8
Defpoints
 62
     0
100
AcDbPoint
 10
712.4564365682308
 20
1530.742840796207
 30
0.0
  0
POINT
  5
EC6
330
35C
100
AcDbEntity
  8
Defpoints
 62
     0
100
AcDbPoint
 10
712.4564365682308
 20
1844.545958959615
 30
0.0
  0
ENDBLK
  5
367
330
35C
100
AcDbEntity
  8
0
100
AcDbBlockEnd
  0
BLOCK
  5
373
330
369
100
AcDbEntity
  8
0
100
AcDbBlockBegin
  2
*D5
 70
     1
 10
0.0
 20
0.0
 30
0.0
  3
*D5
  1

  0
LINE
  5
F07
330
369
100
AcDbEntity
  8
寸法
 62
     0
370
    15
100
AcDbLine
 10
1017.956436568231
 20
1530.742840796207
 30
0.0
 11
1037.456436568231
 21
1530.742840796207
 31
0.0
  0
LINE
  5
F08
330
369
100
AcDbEntity
  8
寸法
 62
     0
370
    15
100
AcDbLine
 10
1032.95278315653
 20
1750.742840796207
 30
0.0
 11
1037.456436568231
 21
1750.742840796207
 31
0.0
  0
LINE
  5
F09
330
369
100
AcDbEntity
  8
寸法
 62
     0
370
    18
100
AcDbLine
 10
1037.456436568231
 20
1530.742840796207
 30
0.0
 11
1037.456436568231
 21
1750.742840796207
 31
0.0
  0
INSERT
  5
F0A
330
369
100
AcDbEntity
  8
寸法
 62
     0
370
    18
100
AcDbBlockReference
  2
_DotSmall
 10
1037.456436568231
 20
1530.742840796207
 30
0.0
 41
35.0
 42
35.0
 43
35.0
 50
270.0
  0
INSERT
  5
F0B
330
369
100
AcDbEntity
  8
寸法
 62
     0
370
    18
100
AcDbBlockReference
  2
_DotSmall
 10
1037.456436568231
 20
1750.742840796207
 30
0.0
 41
35.0
 42
35.0
 43
35.0
 50
90.0
  0
MTEXT
  5
F0C
330
369
100
AcDbEntity
  8
寸法
 62
     0
100
AcDbMText
 10
1018.70643656823
 20
1640.742840796207
 30
0.0
 40
25.0
 41
0.0
 71
     5
 72
     1
  1
220
 11
0.0000000000000001
 21
1.0
 31
0.0
 73
     1
 44
1.0
1001
ACAD
1000
MTEXTBEGIN
1070
    73
1070
     1
1070
    44
1040
1.0
1070
    74
1070
     0
1000
MTEXTEND
  0
POINT
  5
F0D
330
369
100
AcDbEntity
  8
Defpoints
 62
     0
100
AcDbPoint
 10
952.9564365682309
 20
1530.742840796207
 30
0.0
  0
POINT
  5
F0E
330
369
100
AcDbEntity
  8
Defpoints
 62
     0
100
AcDbPoint
 10
1097.95278315653
 20
1750.742840796207
 30
0.0
  0
POINT
  5
F0F
330
369
100
AcDbEntity
  8
Defpoints
 62
     0
100
AcDbPoint
 10
1037.456436568231
 20
1750.742840796207
 30
0.0
  0
ENDBLK
  5
374
330
369
100
AcDbEntity
  8
0
100
AcDbBlockEnd
  0
BLOCK
  5
3A4
330
39A
100
AcDbEntity
  8
0
100
AcDbBlockBegin
  2
*D6
 70
     1
 10
0.0
 20
0.0
 30
0.0
  3
*D6
  1

  0
LINE
  5
FC3
330
39A
100
AcDbEntity
  8
寸法
 62
     0
370
    15
100
AcDbLine
 10
1832.456436568231
 20
1558.242840796207
 30
0.0
 11
1832.456436568231
 21
1631.049378187622
 31
0.0
  0
LINE
  5
FC4
330
39A
100
AcDbEntity
  8
寸法
 62
     0
370
    15
100
AcDbLine
 10
1882.456436568231
 20
1633.242840796207
 30
0.0
 11
1882.456436568231
 21
1631.049378187622
 31
0.0
  0
LINE
  5
FC5
330
39A
100
AcDbEntity
  8
寸法
 62
     0
370
    18
100
AcDbLine
 10
1832.456436568231
 20
1631.049378187622
 30
0.0
 11
1882.456436568231
 21
1631.049378187622
 31
0.0
  0
INSERT
  5
FC6
330
39A
100
AcDbEntity
  8
寸法
 62
     0
370
    18
100
AcDbBlockReference
  2
_DotSmall
 10
1832.456436568231
 20
1631.049378187622
 30
0.0
 41
35.0
 42
35.0
 43
35.0
 50
180.0
  0
INSERT
  5
FC7
330
39A
100
AcDbEntity
  8
寸法
 62
     0
370
    18
100
AcDbBlockReference
  2
_DotSmall
 10
1882.456436568231
 20
1631.049378187622
 30
0.0
 41
35.0
 42
35.0
 43
35.0
  0
MTEXT
  5
FC8
330
39A
100
AcDbEntity
  8
寸法
 62
     0
100
AcDbMText
 10
1857.456436568231
 20
1649.799378187622
 30
0.0
 40
25.0
 41
0.0
 71
     5
 72
     1
  1
50
 73
     1
 44
1.0
1001
ACAD
1000
MTEXTBEGIN
1070
    73
1070
     1
1070
    44
1040
1.0
1070
    74
1070
     0
1000
MTEXTEND
  0
POINT
  5
FC9
330
39A
100
AcDbEntity
  8
Defpoints
 62
     0
100
AcDbPoint
 10
1832.456436568231
 20
1493.242840796207
 30
0.0
  0
POINT
  5
FCA
330
39A
100
AcDbEntity
  8
Defpoints
 62
     0
100
AcDbPoint
 10
1882.456436568231
 20
1568.242840796207
 30
0.0
  0
POINT
  5
FCB
330
39A
100
AcDbEntity
  8
Defpoints
 62
     0
100
AcDbPoint
 10
1882.456436568231
 20
1631.049378187622
 30
0.0
  0
ENDBLK
  5
3A5
330
39A
100
AcDbEntity
  8
0
100
AcDbBlockEnd
  0
BLOCK
  5
3DA
330
3CF
100
AcDbEntity
  8
0
100
AcDbBlockBegin
  2
*D7
 70
     1
 10
0.0
 20
0.0
 30
0.0
  3
*D7
  1

  0
LINE
  5
EB6
330
3CF
100
AcDbEntity
  8
寸法
 62
     0
370
    15
100
AcDbLine
 10
632.4564365682308
 20
1765.742840796207
 30
0.0
 11
554.2811218443575
 21
1765.742840796207
 31
0.0
  0
LINE
  5
EB7
330
3CF
100
AcDbEntity
  8
寸法
 62
     0
370
    15
100
AcDbLine
 10
632.4564365682308
 20
1750.742840796207
 30
0.0
 11
554.2811218443575
 21
1750.742840796207
 31
0.0
  0
LINE
  5
EB8
330
3CF
100
AcDbEntity
  8
寸法
 62
     0
370
    18
100
AcDbLine
 10
554.2811218443575
 20
1765.742840796207
 30
0.0
 11
554.2811218443575
 21
1750.742840796207
 31
0.0
  0
INSERT
  5
EB9
330
3CF
100
AcDbEntity
  8
寸法
 62
     0
370
    18
100
AcDbBlockReference
  2
_DotSmall
 10
554.2811218443575
 20
1765.742840796207
 30
0.0
 41
35.0
 42
35.0
 43
35.0
 50
90.0
  0
INSERT
  5
EBA
330
3CF
100
AcDbEntity
  8
寸法
 62
     0
370
    18
100
AcDbBlockReference
  2
_DotSmall
 10
554.2811218443575
 20
1750.742840796207
 30
0.0
 41
35.0
 42
35.0
 43
35.0
 50
270.0
  0
POINT
  5
EBB
330
3CF
100
AcDbEntity
  8
Defpoints
 62
     0
100
AcDbPoint
 10
697.4564365682308
 20
1765.742840796207
 30
0.0
  0
POINT
  5
EBC
330
3CF
100
AcDbEntity
  8
Defpoints
 62
     0
100
AcDbPoint
 10
697.4564365682308
 20
1750.742840796207
 30
0.0
  0
POINT
  5
EBD
330
3CF
100
AcDbEntity
  8
Defpoints
 62
     0
100
AcDbPoint
 10
554.2811218443575
 20
1750.742840796207
 30
0.0
  0
ENDBLK
  5
3DB
330
3CF
100
AcDbEntity
  8
0
100
AcDbBlockEnd
  0
BLOCK
  5
3E7
330
3DD
100
AcDbEntity
  8
0
100
AcDbBlockBegin
  2
*D8
 70
     1
 10
0.0
 20
0.0
 30
0.0
  3
*D8
  1

  0
LINE
  5
EAD
330
3DD
100
AcDbEntity
  8
寸法
 62
     0
370
    15
100
AcDbLine
 10
632.4564365682308
 20
1750.742840796207
 30
0.0
 11
554.2811218443575
 21
1750.742840796207
 31
0.0
  0
LINE
  5
EAE
330
3DD
100
AcDbEntity
  8
寸法
 62
     0
370
    15
100
AcDbLine
 10
632.4564365682308
 20
1310.742840796207
 30
0.0
 11
554.2811218443575
 21
1310.742840796207
 31
0.0
  0
LINE
  5
EAF
330
3DD
100
AcDbEntity
  8
寸法
 62
     0
370
    18
100
AcDbLine
 10
554.2811218443575
 20
1750.742840796207
 30
0.0
 11
554.2811218443575
 21
1310.742840796207
 31
0.0
  0
INSERT
  5
EB0
330
3DD
100
AcDbEntity
  8
寸法
 62
     0
370
    18
100
AcDbBlockReference
  2
_DotSmall
 10
554.2811218443575
 20
1750.742840796207
 30
0.0
 41
35.0
 42
35.0
 43
35.0
 50
90.0
  0
INSERT
  5
EB1
330
3DD
100
AcDbEntity
  8
寸法
 62
     0
370
    18
100
AcDbBlockReference
  2
_DotSmall
 10
554.2811218443575
 20
1310.742840796207
 30
0.0
 41
35.0
 42
35.0
 43
35.0
 50
270.0
  0
MTEXT
  5
EB2
330
3DD
100
AcDbEntity
  8
寸法
 62
     0
100
AcDbMText
 10
535.5311218443573
 20
1530.742840796207
 30
0.0
 40
25.0
 41
0.0
 71
     5
 72
     1
  1
440
 11
0.0000000000000001
 21
1.0
 31
0.0
 73
     1
 44
1.0
1001
ACAD
1000
MTEXTBEGIN
1070
    73
1070
     1
1070
    44
1040
1.0
1070
    74
1070
     0
1000
MTEXTEND
  0
POINT
  5
EB3
330
3DD
100
AcDbEntity
  8
Defpoints
 62
     0
100
AcDbPoint
 10
697.4564365682308
 20
1750.742840796207
 30
0.0
  0
POINT
  5
EB4
330
3DD
100
AcDbEntity
  8
Defpoints
 62
     0
100
AcDbPoint
 10
697.4564365682308
 20
1310.742840796207
 30
0.0
  0
POINT
  5
EB5
330
3DD
100
AcDbEntity
  8
Defpoints
 62
     0
100
AcDbPoint
 10
554.2811218443575
 20
1310.742840796207
 30
0.0
  0
ENDBLK
  5
3E8
330
3DD
100
AcDbEntity
  8
0
100
AcDbBlockEnd
  0
BLOCK
  5
3F4
330
3EA
100
AcDbEntity
  8
0
100
AcDbBlockBegin
  2
*D9
 70
     1
 10
0.0
 20
0.0
 30
0.0
  3
*D9
  1

  0
LINE
  5
E17
330
3EA
100
AcDbEntity
  8
寸法
 62
     0
370
    15
100
AcDbLine
 10
632.4564365682308
 20
1310.742840796207
 30
0.0
 11
554.2811218443575
 21
1310.742840796207
 31
0.0
  0
LINE
  5
E18
330
3EA
100
AcDbEntity
  8
寸法
 62
     0
370
    15
100
AcDbLine
 10
632.4564365682308
 20
1295.742840796207
 30
0.0
 11
554.2811218443575
 21
1295.742840796207
 31
0.0
  0
LINE
  5
E19
330
3EA
100
AcDbEntity
  8
寸法
 62
     0
370
    18
100
AcDbLine
 10
554.2811218443575
 20
1310.742840796207
 30
0.0
 11
554.2811218443575
 21
1295.742840796207
 31
0.0
  0
MTEXT
  5
E1A
330
3EA
100
AcDbEntity
  8
寸法
 62
     0
370
    18
100
AcDbMText
 10
539.9650161397722
 20
1253.058600087981
 30
0.0
 40
25.0
 41
0.0
 71
     5
 72
     1
  1
15
 11
0.0000000000000001
 21
1.0
 31
0.0
 73
     1
 44
1.0
1001
ACAD
1000
MTEXTBEGIN
1070
    73
1070
     1
1070
    44
1040
1.0
1070
    74
1070
     0
1000
MTEXTEND
  0
INSERT
  5
E1B
330
3EA
100
AcDbEntity
  8
寸法
 62
     0
370
    18
100
AcDbBlockReference
  2
_DotSmall
 10
554.2811218443575
 20
1310.742840796207
 30
0.0
 41
35.0
 42
35.0
 43
35.0
 50
90.0
  0
INSERT
  5
E1C
330
3EA
100
AcDbEntity
  8
寸法
 62
     0
370
    18
100
AcDbBlockReference
  2
_DotSmall
 10
554.2811218443575
 20
1295.742840796207
 30
0.0
 41
35.0
 42
35.0
 43
35.0
 50
270.0
  0
POINT
  5
E1D
330
3EA
100
AcDbEntity
  8
Defpoints
 62
     0
100
AcDbPoint
 10
697.4564365682308
 20
1310.742840796207
 30
0.0
  0
POINT
  5
E1E
330
3EA
100
AcDbEntity
  8
Defpoints
 62
     0
100
AcDbPoint
 10
697.4564365682308
 20
1295.742840796207
 30
0.0
  0
POINT
  5
E1F
330
3EA
100
AcDbEntity
  8
Defpoints
 62
     0
100
AcDbPoint
 10
554.2811218443575
 20
1295.742840796207
 30
0.0
  0
ENDBLK
  5
3F5
330
3EA
100
AcDbEntity
  8
0
100
AcDbBlockEnd
  0
BLOCK
  5
401
330
3F7
100
AcDbEntity
  8
0
100
AcDbBlockBegin
  2
*D10
 70
     1
 10
0.0
 20
0.0
 30
0.0
  3
*D10
  1

  0
LINE
  5
EA4
330
3F7
100
AcDbEntity
  8
寸法
 62
     0
370
    15
100
AcDbLine
 10
632.4564365682308
 20
1765.742840796207
 30
0.0
 11
485.4412235196734
 21
1765.742840796207
 31
0.0
  0
LINE
  5
EA5
330
3F7
100
AcDbEntity
  8
寸法
 62
     0
370
    15
100
AcDbLine
 10
632.4564365682308
 20
1295.742840796207
 30
0.0
 11
485.4412235196732
 21
1295.742840796207
 31
0.0
  0
LINE
  5
EA6
330
3F7
100
AcDbEntity
  8
寸法
 62
     0
370
    18
100
AcDbLine
 10
485.4412235196734
 20
1765.742840796207
 30
0.0
 11
485.4412235196732
 21
1295.742840796207
 31
0.0
  0
INSERT
  5
EA7
330
3F7
100
AcDbEntity
  8
寸法
 62
     0
370
    18
100
AcDbBlockReference
  2
_DotSmall
 10
485.4412235196734
 20
1765.742840796207
 30
0.0
 41
35.0
 42
35.0
 43
35.0
 50
90.0
  0
INSERT
  5
EA8
330
3F7
100
AcDbEntity
  8
寸法
 62
     0
370
    18
100
AcDbBlockReference
  2
_DotSmall
 10
485.4412235196732
 20
1295.742840796207
 30
0.0
 41
35.0
 42
35.0
 43
35.0
 50
270.0
  0
MTEXT
  5
EA9
330
3F7
100
AcDbEntity
  8
寸法
 62
     0
100
AcDbMText
 10
466.6912235196731
 20
1530.742840796207
 30
0.0
 40
25.0
 41
0.0
 71
     5
 72
     1
  1
470
 11
0.0000000000000001
 21
1.0
 31
0.0
 73
     1
 44
1.0
1001
ACAD
1000
MTEXTBEGIN
1070
    73
1070
     1
1070
    44
1040
1.0
1070
    74
1070
     0
1000
MTEXTEND
  0
POINT
  5
EAA
330
3F7
100
AcDbEntity
  8
Defpoints
 62
     0
100
AcDbPoint
 10
697.4564365682308
 20
1765.742840796207
 30
0.0
  0
POINT
  5
EAB
330
3F7
100
AcDbEntity
  8
Defpoints
 62
     0
100
AcDbPoint
 10
697.4564365682308
 20
1295.742840796207
 30
0.0
  0
POINT
  5
EAC
330
3F7
100
AcDbEntity
  8
Defpoints
 62
     0
100
AcDbPoint
 10
485.4412235196732
 20
1295.742840796207
 30
0.0
  0
ENDBLK
  5
402
330
3F7
100
AcDbEntity
  8
0
100
AcDbBlockEnd
  0
BLOCK
  5
449
330
43E
100
AcDbEntity
  8
0
100
AcDbBlockBegin
  2
*D11
 70
     1
 10
0.0
 20
0.0
 30
0.0
  3
*D11
  1

  0
LINE
  5
E0E
330
43E
100
AcDbEntity
  8
寸法
 62
     0
370
    15
100
AcDbLine
 10
697.4564365682308
 20
1230.742840796207
 30
0.0
 11
697.4564365682308
 21
1147.810723026152
 31
0.0
  0
LINE
  5
E0F
330
43E
100
AcDbEntity
  8
寸法
 62
     0
370
    15
100
AcDbLine
 10
712.4564365682308
 20
1230.742840796207
 30
0.0
 11
712.4564365682308
 21
1147.810723026152
 31
0.0
  0
LINE
  5
E10
330
43E
100
AcDbEntity
  8
寸法
 62
     0
370
    18
100
AcDbLine
 10
697.4564365682308
 20
1147.810723026152
 30
0.0
 11
712.4564365682308
 21
1147.810723026152
 31
0.0
  0
LINE
  5
E11
330
43E
100
AcDbEntity
  8
寸法
 62
     0
370
    18
100
AcDbLine
 10
712.4564365682308
 20
1147.810723026152
 30
0.0
 11
778.2064365682308
 21
1147.810723026152
 31
0.0
  0
INSERT
  5
E12
330
43E
100
AcDbEntity
  8
寸法
 62
     0
370
    18
100
AcDbBlockReference
  2
_DotSmall
 10
697.4564365682308
 20
1147.810723026152
 30
0.0
 41
35.0
 42
35.0
 43
35.0
 50
180.0
  0
INSERT
  5
E13
330
43E
100
AcDbEntity
  8
寸法
 62
     0
370
    18
100
AcDbBlockReference
  2
_DotSmall
 10
712.4564365682308
 20
1147.810723026152
 30
0.0
 41
35.0
 42
35.0
 43
35.0
  0
POINT
  5
E14
330
43E
100
AcDbEntity
  8
Defpoints
 62
     0
100
AcDbPoint
 10
697.4564365682308
 20
1295.742840796207
 30
0.0
  0
POINT
  5
E15
330
43E
100
AcDbEntity
  8
Defpoints
 62
     0
100
AcDbPoint
 10
712.4564365682308
 20
1295.742840796207
 30
0.0
  0
POINT
  5
E16
330
43E
100
AcDbEntity
  8
Defpoints
 62
     0
100
AcDbPoint
 10
712.4564365682308
 20
1147.810723026152
 30
0.0
  0
ENDBLK
  5
44A
330
43E
100
AcDbEntity
  8
0
100
AcDbBlockEnd
  0
BLOCK
  5
456
330
44C
100
AcDbEntity
  8
0
100
AcDbBlockBegin
  2
*D12
 70
     1
 10
0.0
 20
0.0
 30
0.0
  3
*D12
  1

  0
LINE
  5
DD8
330
44C
100
AcDbEntity
  8
寸法
 62
     0
370
    15
100
AcDbLine
 10
712.4564365682308
 20
1230.742840796207
 30
0.0
 11
712.4564365682308
 21
1147.810723026152
 31
0.0
  0
LINE
  5
DD9
330
44C
100
AcDbEntity
  8
寸法
 62
     0
370
    15
100
AcDbLine
 10
1362.456436568231
 20
1230.742840796207
 30
0.0
 11
1362.456436568231
 21
1147.810723026152
 31
0.0
  0
LINE
  5
DDA
330
44C
100
AcDbEntity
  8
寸法
 62
     0
370
    18
100
AcDbLine
 10
712.4564365682308
 20
1147.810723026152
 30
0.0
 11
1362.456436568231
 21
1147.810723026152
 31
0.0
  0
INSERT
  5
DDB
330
44C
100
AcDbEntity
  8
寸法
 62
     0
370
    18
100
AcDbBlockReference
  2
_DotSmall
 10
712.4564365682308
 20
1147.810723026152
 30
0.0
 41
35.0
 42
35.0
 43
35.0
 50
180.0
  0
INSERT
  5
DDC
330
44C
100
AcDbEntity
  8
寸法
 62
     0
370
    18
100
AcDbBlockReference
  2
_DotSmall
 10
1362.456436568231
 20
1147.810723026152
 30
0.0
 41
35.0
 42
35.0
 43
35.0
  0
MTEXT
  5
DDD
330
44C
100
AcDbEntity
  8
寸法
 62
     0
100
AcDbMText
 10
1037.456436568231
 20
1166.560723026152
 30
0.0
 40
25.0
 41
0.0
 71
     5
 72
     1
  1
650
 73
     1
 44
1.0
1001
ACAD
1000
MTEXTBEGIN
1070
    73
1070
     1
1070
    44
1040
1.0
1070
    74
1070
     0
1000
MTEXTEND
  0
POINT
  5
DDE
330
44C
100
AcDbEntity
  8
Defpoints
 62
     0
100
AcDbPoint
 10
712.4564365682308
 20
1295.742840796207
 30
0.0
  0
POINT
  5
DDF
330
44C
100
AcDbEntity
  8
Defpoints
 62
     0
100
AcDbPoint
 10
1362.456436568231
 20
1295.742840796207
 30
0.0
  0
POINT
  5
DE0
330
44C
100
AcDbEntity
  8
Defpoints
 62
     0
100
AcDbPoint
 10
1362.456436568231
 20
1147.810723026152
 30
0.0
  0
ENDBLK
  5
457
330
44C
100
AcDbEntity
  8
0
100
AcDbBlockEnd
  0
BLOCK
  5
465
330
459
100
AcDbEntity
  8
0
100
AcDbBlockBegin
  2
*D13
 70
     1
 10
0.0
 20
0.0
 30
0.0
  3
*D13
  1

  0
LINE
  5
D45
330
459
100
AcDbEntity
  8
寸法
 62
     0
370
    15
100
AcDbLine
 10
1362.456436568231
 20
1230.742840796207
 30
0.0
 11
1362.456436568231
 21
1147.810723026152
 31
0.0
  0
LINE
  5
D46
330
459
100
AcDbEntity
  8
寸法
 62
     0
370
    15
100
AcDbLine
 10
1377.456436568231
 20
1230.742840796207
 30
0.0
 11
1377.456436568231
 21
1147.810723026152
 31
0.0
  0
LINE
  5
D47
330
459
100
AcDbEntity
  8
寸法
 62
     0
370
    18
100
AcDbLine
 10
1362.456436568231
 20
1147.810723026152
 30
0.0
 11
1377.456436568231
 21
1147.810723026152
 31
0.0
  0
INSERT
  5
D48
330
459
100
AcDbEntity
  8
寸法
 62
     0
370
    18
100
AcDbBlockReference
  2
_DotSmall
 10
1362.456436568231
 20
1147.810723026152
 30
0.0
 41
35.0
 42
35.0
 43
35.0
 50
180.0
  0
INSERT
  5
D49
330
459
100
AcDbEntity
  8
寸法
 62
     0
370
    18
100
AcDbBlockReference
  2
_DotSmall
 10
1377.456436568231
 20
1147.810723026152
 30
0.0
 41
35.0
 42
35.0
 43
35.0
  0
POINT
  5
D4A
330
459
100
AcDbEntity
  8
Defpoints
 62
     0
100
AcDbPoint
 10
1362.456436568231
 20
1295.742840796207
 30
0.0
  0
POINT
  5
D4B
330
459
100
AcDbEntity
  8
Defpoints
 62
     0
100
AcDbPoint
 10
1377.456436568231
 20
1295.742840796207
 30
0.0
  0
POINT
  5
D4C
330
459
100
AcDbEntity
  8
Defpoints
 62
     0
100
AcDbPoint
 10
1377.456436568231
 20
1147.810723026152
 30
0.0
  0
ENDBLK
  5
466
330
459
100
AcDbEntity
  8
0
100
AcDbBlockEnd
  0
BLOCK
  5
4AE
330
4A4
100
AcDbEntity
  8
0
100
AcDbBlockBegin
  2
*D14
 70
     1
 10
0.0
 20
0.0
 30
0.0
  3
*D14
  1

  0
LINE
  5
DCF
330
4A4
100
AcDbEntity
  8
寸法
 62
     0
370
    15
100
AcDbLine
 10
697.4564365682308
 20
1230.742840796207
 30
0.0
 11
697.4564365682308
 21
1070.018812870283
 31
0.0
  0
LINE
  5
DD0
330
4A4
100
AcDbEntity
  8
寸法
 62
     0
370
    15
100
AcDbLine
 10
1377.456436568231
 20
1230.742840796207
 30
0.0
 11
1377.456436568231
 21
1070.018812870283
 31
0.0
  0
LINE
  5
DD1
330
4A4
100
AcDbEntity
  8
寸法
 62
     0
370
    18
100
AcDbLine
 10
697.4564365682308
 20
1070.018812870283
 30
0.0
 11
1377.456436568231
 21
1070.018812870283
 31
0.0
  0
INSERT
  5
DD2
330
4A4
100
AcDbEntity
  8
寸法
 62
     0
370
    18
100
AcDbBlockReference
  2
_DotSmall
 10
697.4564365682308
 20
1070.018812870283
 30
0.0
 41
35.0
 42
35.0
 43
35.0
 50
180.0
  0
INSERT
  5
DD3
330
4A4
100
AcDbEntity
  8
寸法
 62
     0
370
    18
100
AcDbBlockReference
  2
_DotSmall
 10
1377.456436568231
 20
1070.018812870283
 30
0.0
 41
35.0
 42
35.0
 43
35.0
  0
MTEXT
  5
DD4
330
4A4
100
AcDbEntity
  8
寸法
 62
     0
100
AcDbMText
 10
1037.456436568231
 20
1088.768812870283
 30
0.0
 40
25.0
 41
0.0
 71
     5
 72
     1
  1
680
 73
     1
 44
1.0
1001
ACAD
1000
MTEXTBEGIN
1070
    73
1070
     1
1070
    44
1040
1.0
1070
    74
1070
     0
1000
MTEXTEND
  0
POINT
  5
DD5
330
4A4
100
AcDbEntity
  8
Defpoints
 62
     0
100
AcDbPoint
 10
697.4564365682308
 20
1295.742840796207
 30
0.0
  0
POINT
  5
DD6
330
4A4
100
AcDbEntity
  8
Defpoints
 62
     0
100
AcDbPoint
 10
1377.456436568231
 20
1295.742840796207
 30
0.0
  0
POINT
  5
DD7
330
4A4
100
AcDbEntity
  8
Defpoints
 62
     0
100
AcDbPoint
 10
1377.456436568231
 20
1070.018812870283
 30
0.0
  0
ENDBLK
  5
4AF
330
4A4
100
AcDbEntity
  8
0
100
AcDbBlockEnd
  0
BLOCK
  5
503
330
4F9
100
AcDbEntity
  8
0
100
AcDbBlockBegin
  2
*D15
 70
     1
 10
0.0
 20
0.0
 30
0.0
  3
*D15
  1

  0
LINE
  5
1073
330
4F9
100
AcDbEntity
  8
寸法
 62
     0
370
    15
100
AcDbLine
 10
782.4564365682308
 20
585.7428407962069
 30
0.0
 11
782.4564365682308
 21
534.3154334951341
 31
0.0
  0
LINE
  5
1074
330
4F9
100
AcDbEntity
  8
寸法
 62
     0
370
    15
100
AcDbLine
 10
942.4564365682309
 20
585.7428407962069
 30
0.0
 11
942.4564365682309
 21
534.3154334951341
 31
0.0
  0
LINE
  5
1075
330
4F9
100
AcDbEntity
  8
寸法
 62
     0
370
    18
100
AcDbLine
 10
782.4564365682308
 20
534.3154334951341
 30
0.0
 11
942.4564365682309
 21
534.3154334951341
 31
0.0
  0
INSERT
  5
1076
330
4F9
100
AcDbEntity
  8
寸法
 62
     0
370
    18
100
AcDbBlockReference
  2
_DotSmall
 10
782.4564365682308
 20
534.3154334951341
 30
0.0
 41
35.0
 42
35.0
 43
35.0
 50
180.0
  0
INSERT
  5
1077
330
4F9
100
AcDbEntity
  8
寸法
 62
     0
370
    18
100
AcDbBlockReference
  2
_DotSmall
 10
942.4564365682309
 20
534.3154334951341
 30
0.0
 41
35.0
 42
35.0
 43
35.0
  0
MTEXT
  5
1078
330
4F9
100
AcDbEntity
  8
寸法
 62
     0
100
AcDbMText
 10
862.4564365682308
 20
553.0654334951341
 30
0.0
 40
25.0
 41
0.0
 71
     5
 72
     1
  1
158
 73
     1
 44
1.0
1001
ACAD
1000
MTEXTBEGIN
1070
    73
1070
     1
1070
    44
1040
1.0
1070
    74
1070
     0
1000
MTEXTEND
  0
POINT
  5
1079
330
4F9
100
AcDbEntity
  8
Defpoints
 62
     0
100
AcDbPoint
 10
782.4564365682308
 20
650.742840796207
 30
0.0
  0
POINT
  5
107A
330
4F9
100
AcDbEntity
  8
Defpoints
 62
     0
100
AcDbPoint
 10
942.4564365682309
 20
650.742840796207
 30
0.0
  0
POINT
  5
107B
330
4F9
100
AcDbEntity
  8
Defpoints
 62
     0
100
AcDbPoint
 10
942.4564365682309
 20
534.3154334951341
 30
0.0
  0
ENDBLK
  5
504
330
4F9
100
AcDbEntity
  8
0
100
AcDbBlockEnd
  0
BLOCK
  5
510
330
506
100
AcDbEntity
  8
0
100
AcDbBlockBegin
  2
*D16
 70
     1
 10
0.0
 20
0.0
 30
0.0
  3
*D16
  1

  0
LINE
  5
DEA
330
506
100
AcDbEntity
  8
寸法
 62
     0
370
    15
100
AcDbLine
 10
771.9564365682308
 20
585.7428407962071
 30
0.0
 11
771.9564365682308
 21
474.3560349262052
 31
0.0
  0
LINE
  5
DEB
330
506
100
AcDbEntity
  8
寸法
 62
     0
370
    15
100
AcDbLine
 10
952.9564365682308
 20
585.7428407962069
 30
0.0
 11
952.9564365682308
 21
474.3560349262052
 31
0.0
  0
LINE
  5
DEC
330
506
100
AcDbEntity
  8
寸法
 62
     0
370
    18
100
AcDbLine
 10
771.9564365682308
 20
474.3560349262052
 30
0.0
 11
952.9564365682308
 21
474.3560349262052
 31
0.0
  0
INSERT
  5
DED
330
506
100
AcDbEntity
  8
寸法
 62
     0
370
    18
100
AcDbBlockReference
  2
_DotSmall
 10
771.9564365682308
 20
474.3560349262052
 30
0.0
 41
35.0
 42
35.0
 43
35.0
 50
180.0
  0
INSERT
  5
DEE
330
506
100
AcDbEntity
  8
寸法
 62
     0
370
    18
100
AcDbBlockReference
  2
_DotSmall
 10
952.9564365682308
 20
474.3560349262052
 30
0.0
 41
35.0
 42
35.0
 43
35.0
  0
MTEXT
  5
DEF
330
506
100
AcDbEntity
  8
寸法
 62
     0
100
AcDbMText
 10
862.4564365682308
 20
493.1060349262052
 30
0.0
 40
25.0
 41
0.0
 71
     5
 72
     1
  1
181
 73
     1
 44
1.0
1001
ACAD
1000
MTEXTBEGIN
1070
    73
1070
     1
1070
    44
1040
1.0
1070
    74
1070
     0
1000
MTEXTEND
  0
POINT
  5
DF0
330
506
100
AcDbEntity
  8
Defpoints
 62
     0
100
AcDbPoint
 10
771.9564365682308
 20
650.7428407962071
 30
0.0
  0
POINT
  5
DF1
330
506
100
AcDbEntity
  8
Defpoints
 62
     0
100
AcDbPoint
 10
952.9564365682308
 20
650.742840796207
 30
0.0
  0
POINT
  5
DF2
330
506
100
AcDbEntity
  8
Defpoints
 62
     0
100
AcDbPoint
 10
952.9564365682308
 20
474.3560349262052
 30
0.0
  0
ENDBLK
  5
511
330
506
100
AcDbEntity
  8
0
100
AcDbBlockEnd
  0
BLOCK
  5
574
330
56A
100
AcDbEntity
  8
0
100
AcDbBlockBegin
  2
*D17
 70
     1
 10
0.0
 20
0.0
 30
0.0
  3
*D17
  1

  0
LINE
  5
106A
330
56A
100
AcDbEntity
  8
寸法
 62
     0
370
    15
100
AcDbLine
 10
2097.456436568231
 20
1610.742840796207
 30
0.0
 11
2142.762580660151
 21
1610.742840796207
 31
0.0
  0
LINE
  5
106B
330
56A
100
AcDbEntity
  8
寸法
 62
     0
370
    15
100
AcDbLine
 10
2097.456436568231
 20
1450.742840796207
 30
0.0
 11
2142.762580660151
 21
1450.742840796207
 31
0.0
  0
LINE
  5
106C
330
56A
100
AcDbEntity
  8
寸法
 62
     0
370
    18
100
AcDbLine
 10
2142.762580660151
 20
1610.742840796207
 30
0.0
 11
2142.762580660151
 21
1450.742840796207
 31
0.0
  0
INSERT
  5
106D
330
56A
100
AcDbEntity
  8
寸法
 62
     0
370
    18
100
AcDbBlockReference
  2
_DotSmall
 10
2142.762580660151
 20
1610.742840796207
 30
0.0
 41
35.0
 42
35.0
 43
35.0
 50
90.0
  0
INSERT
  5
106E
330
56A
100
AcDbEntity
  8
寸法
 62
     0
370
    18
100
AcDbBlockReference
  2
_DotSmall
 10
2142.762580660151
 20
1450.742840796207
 30
0.0
 41
35.0
 42
35.0
 43
35.0
 50
270.0
  0
MTEXT
  5
106F
330
56A
100
AcDbEntity
  8
寸法
 62
     0
100
AcDbMText
 10
2124.012580660151
 20
1530.742840796207
 30
0.0
 40
25.0
 41
0.0
 71
     5
 72
     1
  1
158
 11
0.0000000000000001
 21
1.0
 31
0.0
 73
     1
 44
1.0
1001
ACAD
1000
MTEXTBEGIN
1070
    73
1070
     1
1070
    44
1040
1.0
1070
    74
1070
     0
1000
MTEXTEND
  0
POINT
  5
1070
330
56A
100
AcDbEntity
  8
Defpoints
 62
     0
100
AcDbPoint
 10
2032.456436568231
 20
1610.742840796207
 30
0.0
  0
POINT
  5
1071
330
56A
100
AcDbEntity
  8
Defpoints
 62
     0
100
AcDbPoint
 10
2032.456436568231
 20
1450.742840796207
 30
0.0
  0
POINT
  5
1072
330
56A
100
AcDbEntity
  8
Defpoints
 62
     0
100
AcDbPoint
 10
2142.762580660151
 20
1450.742840796207
 30
0.0
  0
ENDBLK
  5
575
330
56A
100
AcDbEntity
  8
0
100
AcDbBlockEnd
  0
BLOCK
  5
58A
330
580
100
AcDbEntity
  8
0
100
AcDbBlockBegin
  2
*D18
 70
     1
 10
0.0
 20
0.0
 30
0.0
  3
*D18
  1

  0
LINE
  5
EC7
330
580
100
AcDbEntity
  8
寸法
 62
     0
370
    15
100
AcDbLine
 10
2097.456436568231
 20
1621.242840796207
 30
0.0
 11
2207.684168624993
 21
1621.242840796207
 31
0.0
  0
LINE
  5
EC8
330
580
100
AcDbEntity
  8
寸法
 62
     0
370
    15
100
AcDbLine
 10
2097.456436568231
 20
1440.242840796207
 30
0.0
 11
2207.684168624993
 21
1440.242840796207
 31
0.0
  0
LINE
  5
EC9
330
580
100
AcDbEntity
  8
寸法
 62
     0
370
    18
100
AcDbLine
 10
2207.684168624993
 20
1621.242840796207
 30
0.0
 11
2207.684168624993
 21
1440.242840796207
 31
0.0
  0
INSERT
  5
ECA
330
580
100
AcDbEntity
  8
寸法
 62
     0
370
    18
100
AcDbBlockReference
  2
_DotSmall
 10
2207.684168624993
 20
1621.242840796207
 30
0.0
 41
35.0
 42
35.0
 43
35.0
 50
90.0
  0
INSERT
  5
ECB
330
580
100
AcDbEntity
  8
寸法
 62
     0
370
    18
100
AcDbBlockReference
  2
_DotSmall
 10
2207.684168624993
 20
1440.242840796207
 30
0.0
 41
35.0
 42
35.0
 43
35.0
 50
270.0
  0
MTEXT
  5
ECC
330
580
100
AcDbEntity
  8
寸法
 62
     0
100
AcDbMText
 10
2188.934168624992
 20
1530.742840796207
 30
0.0
 40
25.0
 41
0.0
 71
     5
 72
     1
  1
181
 11
0.0000000000000001
 21
1.0
 31
0.0
 73
     1
 44
1.0
1001
ACAD
1000
MTEXTBEGIN
1070
    73
1070
     1
1070
    44
1040
1.0
1070
    74
1070
     0
1000
MTEXTEND
  0
POINT
  5
ECD
330
580
100
AcDbEntity
  8
Defpoints
 62
     0
100
AcDbPoint
 10
2032.456436568231
 20
1621.242840796207
 30
0.0
  0
POINT
  5
ECE
330
580
100
AcDbEntity
  8
Defpoints
 62
     0
100
AcDbPoint
 10
2032.456436568231
 20
1440.242840796207
 30
0.0
  0
POINT
  5
ECF
330
580
100
AcDbEntity
  8
Defpoints
 62
     0
100
AcDbPoint
 10
2207.684168624993
 20
1440.242840796207
 30
0.0
  0
ENDBLK
  5
58B
330
580
100
AcDbEntity
  8
0
100
AcDbBlockEnd
  0
BLOCK
  5
815
330
80B
100
AcDbEntity
  8
0
100
AcDbBlockBegin
  2
*D19
 70
     1
 10
0.0
 20
0.0
 30
0.0
  3
*D19
  1

  0
LINE
  5
D71
330
80B
100
AcDbEntity
  8
寸法
 62
     0
370
    18
100
AcDbLine
 10
1915.059798689085
 20
648.2291243232886
 30
0.0
 11
1915.059798689085
 21
682.1130215965978
 31
0.0
  0
LINE
  5
D72
330
80B
100
AcDbEntity
  8
寸法
 62
     0
370
    18
100
AcDbLine
 10
2165.059798689085
 20
648.2291243232886
 30
0.0
 11
2165.059798689085
 21
682.1130215965978
 31
0.0
  0
LINE
  5
D73
330
80B
100
AcDbEntity
  8
寸法
 62
     0
370
    18
100
AcDbLine
 10
1915.059798689085
 20
682.1130215965978
 30
0.0
 11
2165.059798689085
 21
682.1130215965978
 31
0.0
  0
INSERT
  5
D74
330
80B
100
AcDbEntity
  8
寸法
 62
     0
370
    18
100
AcDbBlockReference
  2
_DotSmall
 10
1915.059798689085
 20
682.1130215965978
 30
0.0
 41
35.0
 42
35.0
 43
35.0
 50
180.0
  0
INSERT
  5
D75
330
80B
100
AcDbEntity
  8
寸法
 62
     0
370
    18
100
AcDbBlockReference
  2
_DotSmall
 10
2165.059798689085
 20
682.1130215965978
 30
0.0
 41
35.0
 42
35.0
 43
35.0
  0
MTEXT
  5
D76
330
80B
100
AcDbEntity
  8
寸法
 62
     0
100
AcDbMText
 10
2040.059798689085
 20
700.8630215965978
 30
0.0
 40
25.0
 41
0.0
 71
     5
 72
     1
  1
50
 73
     1
 44
1.0
1001
ACAD
1000
MTEXTBEGIN
1070
    73
1070
     1
1070
    44
1040
1.0
1070
    74
1070
     0
1000
MTEXTEND
  0
POINT
  5
D77
330
80B
100
AcDbEntity
  8
Defpoints
 62
     0
100
AcDbPoint
 10
1915.059798689085
 20
583.2291243232885
 30
0.0
  0
POINT
  5
D78
330
80B
100
AcDbEntity
  8
Defpoints
 62
     0
100
AcDbPoint
 10
2165.059798689085
 20
583.2291243232885
 30
0.0
  0
POINT
  5
D79
330
80B
100
AcDbEntity
  8
Defpoints
 62
     0
100
AcDbPoint
 10
2165.059798689085
 20
682.1130215965978
 30
0.0
  0
ENDBLK
  5
816
330
80B
100
AcDbEntity
  8
0
100
AcDbBlockEnd
  0
BLOCK
  5
82F
330
825
100
AcDbEntity
  8
0
100
AcDbBlockBegin
  2
*D20
 70
     1
 10
0.0
 20
0.0
 30
0.0
  3
*D20
  1

  0
LINE
  5
D68
330
825
100
AcDbEntity
  8
寸法
 62
     0
370
    18
100
AcDbLine
 10
2200.059798689085
 20
648.2291243232886
 30
0.0
 11
2200.059798689085
 21
733.1478610618789
 31
0.0
  0
LINE
  5
D69
330
825
100
AcDbEntity
  8
寸法
 62
     0
370
    18
100
AcDbLine
 10
1880.059798689085
 20
648.2291243232886
 30
0.0
 11
1880.059798689085
 21
733.1478610618789
 31
0.0
  0
LINE
  5
D6A
330
825
100
AcDbEntity
  8
寸法
 62
     0
370
    18
100
AcDbLine
 10
2200.059798689085
 20
733.1478610618789
 30
0.0
 11
1880.059798689085
 21
733.1478610618789
 31
0.0
  0
INSERT
  5
D6B
330
825
100
AcDbEntity
  8
寸法
 62
     0
370
    18
100
AcDbBlockReference
  2
_DotSmall
 10
2200.059798689085
 20
733.1478610618789
 30
0.0
 41
35.0
 42
35.0
 43
35.0
  0
INSERT
  5
D6C
330
825
100
AcDbEntity
  8
寸法
 62
     0
370
    18
100
AcDbBlockReference
  2
_DotSmall
 10
1880.059798689085
 20
733.1478610618789
 30
0.0
 41
35.0
 42
35.0
 43
35.0
 50
180.0
  0
MTEXT
  5
D6D
330
825
100
AcDbEntity
  8
寸法
 62
     0
100
AcDbMText
 10
2040.059798689085
 20
751.8978610618789
 30
0.0
 40
25.0
 41
0.0
 71
     5
 72
     1
  1
64
 73
     1
 44
1.0
1001
ACAD
1000
MTEXTBEGIN
1070
    73
1070
     1
1070
    44
1040
1.0
1070
    74
1070
     0
1000
MTEXTEND
  0
POINT
  5
D6E
330
825
100
AcDbEntity
  8
Defpoints
 62
     0
100
AcDbPoint
 10
2200.059798689085
 20
583.2291243232885
 30
0.0
  0
POINT
  5
D6F
330
825
100
AcDbEntity
  8
Defpoints
 62
     0
100
AcDbPoint
 10
1880.059798689085
 20
583.2291243232885
 30
0.0
  0
POINT
  5
D70
330
825
100
AcDbEntity
  8
Defpoints
 62
     0
100
AcDbPoint
 10
1880.059798689085
 20
733.1478610618789
 30
0.0
  0
ENDBLK
  5
830
330
825
100
AcDbEntity
  8
0
100
AcDbBlockEnd
  0
BLOCK
  5
845
330
83B
100
AcDbEntity
  8
0
100
AcDbBlockBegin
  2
*D21
 70
     1
 10
0.0
 20
0.0
 30
0.0
  3
*D21
  1

  0
LINE
  5
D7A
330
83B
100
AcDbEntity
  8
寸法
 62
     0
370
    18
100
AcDbLine
 10
1852.559798689085
 20
648.2291243232886
 30
0.0
 11
1852.559798689085
 21
780.3550876862693
 31
0.0
  0
LINE
  5
D7B
330
83B
100
AcDbEntity
  8
寸法
 62
     0
370
    18
100
AcDbLine
 10
2227.559798689085
 20
648.2291243232886
 30
0.0
 11
2227.559798689085
 21
780.3550876862693
 31
0.0
  0
LINE
  5
D7C
330
83B
100
AcDbEntity
  8
寸法
 62
     0
370
    18
100
AcDbLine
 10
1852.559798689085
 20
780.3550876862693
 30
0.0
 11
2227.559798689085
 21
780.3550876862693
 31
0.0
  0
INSERT
  5
D7D
330
83B
100
AcDbEntity
  8
寸法
 62
     0
370
    18
100
AcDbBlockReference
  2
_DotSmall
 10
1852.559798689085
 20
780.3550876862693
 30
0.0
 41
35.0
 42
35.0
 43
35.0
 50
180.0
  0
INSERT
  5
D7E
330
83B
100
AcDbEntity
  8
寸法
 62
     0
370
    18
100
AcDbBlockReference
  2
_DotSmall
 10
2227.559798689085
 20
780.3550876862693
 30
0.0
 41
35.0
 42
35.0
 43
35.0
  0
MTEXT
  5
D7F
330
83B
100
AcDbEntity
  8
寸法
 62
     0
100
AcDbMText
 10
2040.059798689085
 20
799.1050876862693
 30
0.0
 40
25.0
 41
0.0
 71
     5
 72
     1
  1
75
 73
     1
 44
1.0
1001
ACAD
1000
MTEXTBEGIN
1070
    73
1070
     1
1070
    44
1040
1.0
1070
    74
1070
     0
1000
MTEXTEND
  0
POINT
  5
D80
330
83B
100
AcDbEntity
  8
Defpoints
 62
     0
100
AcDbPoint
 10
1852.559798689085
 20
583.2291243232885
 30
0.0
  0
POINT
  5
D81
330
83B
100
AcDbEntity
  8
Defpoints
 62
     0
100
AcDbPoint
 10
2227.559798689085
 20
583.2291243232885
 30
0.0
  0
POINT
  5
D82
330
83B
100
AcDbEntity
  8
Defpoints
 62
     0
100
AcDbPoint
 10
2227.559798689085
 20
780.3550876862693
 30
0.0
  0
ENDBLK
  5
846
330
83B
100
AcDbEntity
  8
0
100
AcDbBlockEnd
  0
BLOCK
  5
85B
330
851
100
AcDbEntity
  8
0
100
AcDbBlockBegin
  2
*D22
 70
     1
 10
0.0
 20
0.0
 30
0.0
  3
*D22
  1

  0
LINE
  5
D8C
330
851
100
AcDbEntity
  8
寸法
 62
     0
370
    18
100
AcDbLine
 10
2292.559798689085
 20
583.2291243232885
 30
0.0
 11
2329.012811459677
 21
583.2291243232885
 31
0.0
  0
LINE
  5
D8D
330
851
100
AcDbEntity
  8
寸法
 62
     0
370
    18
100
AcDbLine
 10
2292.559798689085
 20
483.2291243232885
 30
0.0
 11
2329.012811459677
 21
483.2291243232885
 31
0.0
  0
LINE
  5
D8E
330
851
100
AcDbEntity
  8
寸法
 62
     0
370
    18
100
AcDbLine
 10
2329.012811459677
 20
583.2291243232885
 30
0.0
 11
2329.012811459677
 21
483.2291243232885
 31
0.0
  0
INSERT
  5
D8F
330
851
100
AcDbEntity
  8
寸法
 62
     0
370
    18
100
AcDbBlockReference
  2
_DotSmall
 10
2329.012811459677
 20
583.2291243232885
 30
0.0
 41
35.0
 42
35.0
 43
35.0
 50
90.0
  0
INSERT
  5
D90
330
851
100
AcDbEntity
  8
寸法
 62
     0
370
    18
100
AcDbBlockReference
  2
_DotSmall
 10
2329.012811459677
 20
483.2291243232885
 30
0.0
 41
35.0
 42
35.0
 43
35.0
 50
270.0
  0
MTEXT
  5
D91
330
851
100
AcDbEntity
  8
寸法
 62
     0
100
AcDbMText
 10
2310.262811459677
 20
533.2291243232889
 30
0.0
 40
25.0
 41
0.0
 71
     5
 72
     1
  1
20
 11
0.0000000000000001
 21
1.0
 31
0.0
 73
     1
 44
1.0
1001
ACAD
1000
MTEXTBEGIN
1070
    73
1070
     1
1070
    44
1040
1.0
1070
    74
1070
     0
1000
MTEXTEND
  0
POINT
  5
D92
330
851
100
AcDbEntity
  8
Defpoints
 62
     0
100
AcDbPoint
 10
2227.559798689085
 20
583.2291243232885
 30
0.0
  0
POINT
  5
D93
330
851
100
AcDbEntity
  8
Defpoints
 62
     0
100
AcDbPoint
 10
2227.559798689085
 20
483.2291243232885
 30
0.0
  0
POINT
  5
D94
330
851
100
AcDbEntity
  8
Defpoints
 62
     0
100
AcDbPoint
 10
2329.012811459677
 20
483.2291243232885
 30
0.0
  0
ENDBLK
  5
85C
330
851
100
AcDbEntity
  8
0
100
AcDbBlockEnd
  0
BLOCK
  5
868
330
85E
100
AcDbEntity
  8
0
100
AcDbBlockBegin
  2
*D23
 70
     1
 10
0.0
 20
0.0
 30
0.0
  3
*D23
  1

  0
LINE
  5
D83
330
85E
100
AcDbEntity
  8
寸法
 62
     0
370
    18
100
AcDbLine
 10
2292.559798689085
 20
608.7291243232885
 30
0.0
 11
2374.980476748788
 21
608.7291243232884
 31
0.0
  0
LINE
  5
D84
330
85E
100
AcDbEntity
  8
寸法
 62
     0
370
    18
100
AcDbLine
 10
2292.559798689085
 20
457.7291243232886
 30
0.0
 11
2374.980476748788
 21
457.7291243232886
 31
0.0
  0
LINE
  5
D85
330
85E
100
AcDbEntity
  8
寸法
 62
     0
370
    18
100
AcDbLine
 10
2374.980476748788
 20
608.7291243232884
 30
0.0
 11
2374.980476748788
 21
457.7291243232886
 31
0.0
  0
INSERT
  5
D86
330
85E
100
AcDbEntity
  8
寸法
 62
     0
370
    18
100
AcDbBlockReference
  2
_DotSmall
 10
2374.980476748788
 20
608.7291243232884
 30
0.0
 41
35.0
 42
35.0
 43
35.0
 50
90.0
  0
INSERT
  5
D87
330
85E
100
AcDbEntity
  8
寸法
 62
     0
370
    18
100
AcDbBlockReference
  2
_DotSmall
 10
2374.980476748788
 20
457.7291243232886
 30
0.0
 41
35.0
 42
35.0
 43
35.0
 50
270.0
  0
MTEXT
  5
D88
330
85E
100
AcDbEntity
  8
寸法
 62
     0
100
AcDbMText
 10
2356.230476748788
 20
533.2291243232889
 30
0.0
 40
25.0
 41
0.0
 71
     5
 72
     1
  1
31
 11
0.0000000000000001
 21
1.0
 31
0.0
 73
     1
 44
1.0
1001
ACAD
1000
MTEXTBEGIN
1070
    73
1070
     1
1070
    44
1040
1.0
1070
    74
1070
     0
1000
MTEXTEND
  0
POINT
  5
D89
330
85E
100
AcDbEntity
  8
Defpoints
 62
     0
100
AcDbPoint
 10
2227.559798689085
 20
608.7291243232885
 30
0.0
  0
POINT
  5
D8A
330
85E
100
AcDbEntity
  8
Defpoints
 62
     0
100
AcDbPoint
 10
2227.559798689085
 20
457.7291243232886
 30
0.0
  0
POINT
  5
D8B
330
85E
100
AcDbEntity
  8
Defpoints
 62
     0
100
AcDbPoint
 10
2374.980476748788
 20
457.7291243232886
 30
0.0
  0
ENDBLK
  5
869
330
85E
100
AcDbEntity
  8
0
100
AcDbBlockEnd
  0
BLOCK
  5
1024
330
101B
100
AcDbEntity
  8
0
100
AcDbBlockBegin
  2
*D24
 70
     1
 10
0.0
 20
0.0
 30
0.0
  3
*D24
  1

  0
LINE
  5
1032
330
101B
100
AcDbEntity
  8
寸法
 62
     0
370
    15
100
AcDbLine
 10
2022.456436568231
 20
1247.902998443729
 30
0.0
 11
2022.456436568231
 21
1191.996264406294
 31
0.0
  0
LINE
  5
1033
330
101B
100
AcDbEntity
  8
寸法
 62
     0
370
    15
100
AcDbLine
 10
2007.456436568231
 20
1247.902998443729
 30
0.0
 11
2007.456436568231
 21
1191.996264406294
 31
0.0
  0
LINE
  5
1034
330
101B
100
AcDbEntity
  8
寸法
 62
     0
370
    18
100
AcDbLine
 10
2022.456436568231
 20
1191.996264406294
 30
0.0
 11
2007.456436568231
 21
1191.996264406294
 31
0.0
  0
INSERT
  5
1035
330
101B
100
AcDbEntity
  8
寸法
 62
     0
370
    18
100
AcDbBlockReference
  2
_DotSmall
 10
2022.456436568231
 20
1191.996264406294
 30
0.0
 41
25.0
 42
25.0
 43
25.0
  0
INSERT
  5
1036
330
101B
100
AcDbEntity
  8
寸法
 62
     0
370
    18
100
AcDbBlockReference
  2
_DotSmall
 10
2007.456436568231
 20
1191.996264406294
 30
0.0
 41
25.0
 42
25.0
 43
25.0
 50
180.0
  0
POINT
  5
1037
330
101B
100
AcDbEntity
  8
Defpoints
 62
     0
100
AcDbPoint
 10
2022.456436568231
 20
1312.902998443729
 30
0.0
  0
POINT
  5
1038
330
101B
100
AcDbEntity
  8
Defpoints
 62
     0
100
AcDbPoint
 10
2007.456436568231
 20
1312.902998443729
 30
0.0
  0
POINT
  5
1039
330
101B
100
AcDbEntity
  8
Defpoints
 62
     0
100
AcDbPoint
 10
2007.456436568231
 20
1191.996264406294
 30
0.0
  0
ENDBLK
  5
1025
330
101B
100
AcDbEntity
  8
0
100
AcDbBlockEnd
  0
BLOCK
  5
1030
330
1026
100
AcDbEntity
  8
0
100
AcDbBlockBegin
  2
*D25
 70
     1
 10
0.0
 20
0.0
 30
0.0
  3
*D25
  1

  0
LINE
  5
103A
330
1026
100
AcDbEntity
  8
寸法
 62
     0
370
    15
100
AcDbLine
 10
2022.456436568231
 20
1224.609037223292
 30
0.0
 11
2022.456436568231
 21
1128.624577507252
 31
0.0
  0
LINE
  5
103B
330
1026
100
AcDbEntity
  8
寸法
 62
     0
370
    15
100
AcDbLine
 10
1832.456436568231
 20
1246.202374152517
 30
0.0
 11
1832.456436568231
 21
1128.624577507252
 31
0.0
  0
LINE
  5
103C
330
1026
100
AcDbEntity
  8
寸法
 62
     0
370
    18
100
AcDbLine
 10
2022.456436568231
 20
1128.624577507252
 30
0.0
 11
1832.456436568231
 21
1128.624577507252
 31
0.0
  0
INSERT
  5
103D
330
1026
100
AcDbEntity
  8
寸法
 62
     0
370
    18
100
AcDbBlockReference
  2
_DotSmall
 10
2022.456436568231
 20
1128.624577507252
 30
0.0
 41
25.0
 42
25.0
 43
25.0
  0
INSERT
  5
103E
330
1026
100
AcDbEntity
  8
寸法
 62
     0
370
    18
100
AcDbBlockReference
  2
_DotSmall
 10
1832.456436568231
 20
1128.624577507252
 30
0.0
 41
25.0
 42
25.0
 43
25.0
 50
180.0
  0
MTEXT
  5
103F
330
1026
100
AcDbEntity
  8
寸法
 62
     0
100
AcDbMText
 10
1927.456436568231
 20
1147.374577507252
 30
0.0
 40
25.0
 41
0.0
 71
     5
 72
     1
  1
190
 73
     1
 44
1.0
1001
ACAD
1000
MTEXTBEGIN
1070
    73
1070
     1
1070
    44
1040
1.0
1070
    74
1070
     0
1000
MTEXTEND
  0
POINT
  5
1040
330
1026
100
AcDbEntity
  8
Defpoints
 62
     0
100
AcDbPoint
 10
2022.456436568231
 20
1289.609037223292
 30
0.0
  0
POINT
  5
1041
330
1026
100
AcDbEntity
  8
Defpoints
 62
     0
100
AcDbPoint
 10
1832.456436568231
 20
1311.202374152517
 30
0.0
  0
POINT
  5
1042
330
1026
100
AcDbEntity
  8
Defpoints
 62
     0
100
AcDbPoint
 10
1832.456436568231
 20
1128.624577507252
 30
0.0
  0
ENDBLK
  5
1031
330
1026
100
AcDbEntity
  8
0
100
AcDbBlockEnd
  0
ENDSEC
  0
SECTION
  2
ENTITIES
  0
LINE
  5
9C
330
1F
100
AcDbEntity
  8
補助
100
AcDbLine
 10
109.0
 20
4.0
 30
0.0
 11
2784.0
 21
4.0
 31
0.0
  0
LINE
  5
A0
330
1F
100
AcDbEntity
  8
補助
100
AcDbLine
 10
2784.0
 20
2024.0
 30
0.0
 11
109.0
 21
2024.0
 31
0.0
  0
LINE
  5
A5
330
1F
100
AcDbEntity
  8
補助
100
AcDbLine
 10
2784.0
 20
4.0
 30
0.0
 11
2784.0
 21
2024.0
 31
0.0
  0
LINE
  5
2E6
330
1F
100
AcDbEntity
  8
実形
100
AcDbLine
 10
697.4564365682308
 20
850.742840796207
 30
0.0
 11
1377.456436568231
 21
850.742840796207
 31
0.0
  0
CIRCLE
  5
2EB
330
1F
100
AcDbEntity
  8
実形
100
AcDbCircle
 10
862.4564365682308
 20
1530.742840796207
 30
0.0
 40
79.0
  0
CIRCLE
  5
2EE
330
1F
100
AcDbEntity
  8
実形
100
AcDbCircle
 10
862.4564365682308
 20
1530.742840796207
 30
0.0
 40
90.5
  0
LINE
  5
2F9
330
1F
100
AcDbEntity
  8
実形
100
AcDbLine
 10
771.9564365682308
 20
660.7428407962069
 30
0.0
 11
942.4564365682309
 21
660.7428407962069
 31
0.0
  0
LINE
  5
2FA
330
1F
100
AcDbEntity
  8
実形
100
AcDbLine
 10
942.4564365682309
 20
660.7428407962069
 30
0.0
 11
952.9564365682308
 21
660.7428407962069
 31
0.0
  0
LINE
  5
2FB
330
1F
100
AcDbEntity
  8
実形
100
AcDbLine
 10
952.9564365682308
 20
660.7428407962069
 30
0.0
 11
952.9564365682308
 21
660.7428407962069
 31
0.0
  0
LINE
  5
2FE
330
1F
100
AcDbEntity
  8
実形
100
AcDbLine
 10
1832.456436568231
 20
1765.742840796207
 30
0.0
 11
1832.456436568231
 21
1295.742840796207
 31
0.0
  0
LINE
  5
301
330
1F
100
AcDbEntity
  8
実形
100
AcDbLine
 10
2022.456436568231
 20
1440.242840796207
 30
0.0
 11
2022.456436568231
 21
1621.242840796207
 31
0.0
  0
LINE
  5
306
330
1F
100
AcDbEntity
  8
実形
100
AcDbLine
 10
771.9564365682308
 20
660.7428407962069
 30
0.0
 11
771.9564365682308
 21
650.742840796207
 31
0.0
  0
LINE
  5
307
330
1F
100
AcDbEntity
  8
実形
100
AcDbLine
 10
771.9564365682308
 20
650.742840796207
 30
0.0
 11
952.9564365682308
 21
650.742840796207
 31
0.0
  0
LINE
  5
308
330
1F
100
AcDbEntity
  8
実形
100
AcDbLine
 10
952.9564365682308
 20
650.742840796207
 30
0.0
 11
952.9564365682308
 21
660.7428407962069
 31
0.0
  0
LINE
  5
309
330
1F
100
AcDbEntity
  8
実形
100
AcDbLine
 10
2022.456436568231
 20
1621.242840796207
 30
0.0
 11
2032.456436568231
 21
1621.242840796207
 31
0.0
  0
LINE
  5
30A
330
1F
100
AcDbEntity
  8
実形
100
AcDbLine
 10
2032.456436568231
 20
1621.242840796207
 30
0.0
 11
2032.456436568231
 21
1440.242840796207
 31
0.0
  0
LINE
  5
30B
330
1F
100
AcDbEntity
  8
実形
100
AcDbLine
 10
2032.456436568231
 20
1440.242840796207
 30
0.0
 11
2022.456436568231
 21
1440.242840796207
 31
0.0
  0
LINE
  5
32C
330
1F
100
AcDbEntity
  8
実形
100
AcDbLine
 10
1867.456436568231
 20
1553.242840796207
 30
0.0
 11
1867.456436568231
 21
1508.242840796207
 31
0.0
  0
LINE
  5
32D
330
1F
100
AcDbEntity
  8
実形
100
AcDbLine
 10
1882.45643656823
 20
1493.242840796207
 30
0.0
 11
1882.456436568231
 21
1493.242840796207
 31
0.0
  0
LINE
  5
32E
330
1F
100
AcDbEntity
  8
実形
100
AcDbLine
 10
1897.456436568231
 20
1508.242840796207
 30
0.0
 11
1897.456436568231
 21
1553.242840796207
 31
0.0
  0
LINE
  5
32F
330
1F
100
AcDbEntity
  8
実形
100
AcDbLine
 10
1882.45643656823
 20
1568.242840796207
 30
0.0
 11
1882.456436568231
 21
1568.242840796207
 31
0.0
  0
LINE
  5
331
330
1F
100
AcDbEntity
  8
実形
  6
HIDDEN2
100
AcDbLine
 10
713.884618633434
 20
1568.242701961726
 30
0.0
 11
704.3534595419316
 21
1568.261041118273
 31
0.0
  0
LINE
  5
332
330
1F
100
AcDbEntity
  8
実形
  6
HIDDEN2
100
AcDbLine
 10
704.3534595419316
 20
1568.261041118273
 30
0.0
 11
704.2091503155631
 21
1493.261179952753
 31
0.0
  0
LINE
  5
333
330
1F
100
AcDbEntity
  8
実形
  6
HIDDEN2
100
AcDbLine
 10
704.2091503155631
 20
1493.261179952753
 30
0.0
 11
713.7403094070655
 21
1493.242840796207
 31
0.0
  0
ARC
  5
334
330
1F
100
AcDbEntity
  8
実形
100
AcDbCircle
 10
1882.45643656823
 20
1553.242840796207
 30
0.0
 40
15.0
100
AcDbArc
 50
0.0
 51
90.0
  0
ARC
  5
335
330
1F
100
AcDbEntity
  8
実形
100
AcDbCircle
 10
1882.456436568231
 20
1508.242840796207
 30
0.0
 40
15.0
100
AcDbArc
 50
270.0
 51
0.0000000000002163
  0
ARC
  5
336
330
1F
100
AcDbEntity
  8
実形
100
AcDbCircle
 10
1882.45643656823
 20
1508.242840796207
 30
0.0
 40
15.0
100
AcDbArc
 50
180.0
 51
269.9999999999992
  0
ARC
  5
337
330
1F
100
AcDbEntity
  8
実形
100
AcDbCircle
 10
1882.456436568231
 20
1553.242840796207
 30
0.0
 40
15.0
100
AcDbArc
 50
90.0
 51
179.9999999999998
  0
LINE
  5
33A
330
1F
100
AcDbEntity
  8
センター
370
    15
100
AcDbLine
 10
687.152884488235
 20
1530.742840796207
 30
0.0
 11
1037.759988648226
 21
1530.742840796207
 31
0.0
  0
LINE
  5
33B
330
1F
100
AcDbEntity
  8
センター
370
    15
100
AcDbLine
 10
862.4564365682308
 20
1721.046392876203
 30
0.0
 11
862.4564365682308
 21
1340.439288716211
 31
0.0
  0
LINE
  5
33C
330
1F
100
AcDbEntity
  8
センター
 48
0.5
370
    15
100
AcDbLine
 10
862.4564365682308
 20
738.9594646716204
 30
0.0
 11
862.4564365682308
 21
582.5436443643202
 31
0.0
  0
LINE
  5
33D
330
1F
100
AcDbEntity
  8
センター
 48
0.7
370
    15
100
AcDbLine
 10
1781.029487488828
 20
1530.742840796207
 30
0.0
 11
2075.27588541588
 21
1530.742840796207
 31
0.0
  0
LINE
  5
353
330
1F
100
AcDbEntity
  8
センター
 48
0.4
370
    15
100
AcDbLine
 10
1882.456436568231
 20
1621.595790828732
 30
0.0
 11
1882.456436568231
 21
1438.264804083267
 31
0.0
  0
DIMENSION
  5
35B
330
1F
100
AcDbEntity
  8
寸法
100
AcDbDimension
  2
*D4
 10
712.4564365682308
 20
1844.545958959615
 30
0.0
 11
787.4564365682308
 21
1863.295958959615
 31
0.0
 70
    32
 71
     5
 42
150.0
  3
ISO-25
100
AcDbAlignedDimension
 13
862.4564365682308
 23
1621.242840796207
 33
0.0
 14
712.4564365682308
 24
1530.742840796207
 34
0.0
100
AcDbRotatedDimension
1001
ACAD
1000
DSTYLE
1002
{
1070
   371
1070
    18
1002
}
  0
DIMENSION
  5
368
330
1F
100
AcDbEntity
  8
寸法
100
AcDbDimension
  2
*D5
 10
1037.456436568231
 20
1750.742840796207
 30
0.0
 11
1018.70643656823
 21
1640.742840796207
 31
0.0
 70
    32
 71
     5
 42
220.0
  3
ISO-25
100
AcDbAlignedDimension
 13
952.9564365682309
 23
1530.742840796207
 33
0.0
 14
1097.95278315653
 24
1750.742840796207
 34
0.0
 50
90.0
100
AcDbRotatedDimension
1001
ACAD
1000
DSTYLE
1002
{
1070
   371
1070
    18
1002
}
  0
TEXT
  5
395
330
1F
100
AcDbEntity
  8
寸法
370
    18
100
AcDbText
 10
1030.442576186908
 20
1358.618480678234
 30
0.0
 40
25.0
  1
2100R
100
AcDbText
  0
TEXT
  5
397
330
1F
100
AcDbEntity
  8
寸法
370
    18
100
AcDbText
 10
1166.832558151154
 20
1558.87238304724
 30
0.0
 40
25.0
  1
1300R
100
AcDbText
  0
TEXT
  5
398
330
1F
100
AcDbEntity
  8
寸法
370
    18
100
AcDbText
 10
1184.778615413746
 20
1397.494981168956
 30
0.0
 40
25.0
  1
110R
100
AcDbText
  0
DIMENSION
  5
399
330
1F
100
AcDbEntity
  8
寸法
100
AcDbDimension
  2
*D6
 10
1882.456436568231
 20
1631.049378187622
 30
0.0
 11
1857.456436568231
 21
1649.799378187622
 31
0.0
 70
    32
 71
     5
 42
50.00000000000023
  3
ISO-25
100
AcDbAlignedDimension
 13
1832.456436568231
 23
1493.242840796207
 33
0.0
 14
1882.456436568231
 24
1568.242840796207
 34
0.0
100
AcDbRotatedDimension
1001
ACAD
1000
DSTYLE
1002
{
1070
   371
1070
    18
1002
}
  0
TEXT
  5
3AF
330
1F
100
AcDbEntity
  8
寸法
100
AcDbText
 10
1224.654642532931
 20
720.0176197572668
 30
0.0
 40
25.0
  1
30R
100
AcDbText
  0
TEXT
  5
3B1
330
1F
100
AcDbEntity
  8
寸法
370
    18
100
AcDbText
 10
1889.553243850307
 20
1369.139474856566
 30
0.0
 40
25.0
  1
30R
100
AcDbText
  0
DIMENSION
  5
3CE
330
1F
100
AcDbEntity
  8
寸法
100
AcDbDimension
  2
*D7
 10
554.2811218443575
 20
1750.742840796207
 30
0.0
 11
554.2811218443573
 21
1758.242840796207
 31
0.0
 70
    32
  1
 
 71
     5
 42
15.0
  3
ISO-25
100
AcDbAlignedDimension
 13
697.4564365682308
 23
1765.742840796207
 33
0.0
 14
697.4564365682308
 24
1750.742840796207
 34
0.0
 50
90.0
100
AcDbRotatedDimension
1001
ACAD
1000
DSTYLE
1002
{
1070
   371
1070
    18
1002
}
  0
DIMENSION
  5
3DC
330
1F
100
AcDbEntity
  8
寸法
100
AcDbDimension
  2
*D8
 10
554.2811218443575
 20
1310.742840796207
 30
0.0
 11
535.5311218443573
 21
1530.742840796207
 31
0.0
 70
    32
 71
     5
 42
440.0
  3
ISO-25
100
AcDbAlignedDimension
 13
697.4564365682308
 23
1750.742840796207
 33
0.0
 14
697.4564365682308
 24
1310.742840796207
 34
0.0
 50
90.0
100
AcDbRotatedDimension
1001
ACAD
1000
DSTYLE
1002
{
1070
   371
1070
    18
1070
   279
1070
     1
1002
}
  0
DIMENSION
  5
3E9
330
1F
100
AcDbEntity
  8
寸法
370
    18
100
AcDbDimension
  2
*D9
 10
554.2811218443575
 20
1295.742840796207
 30
0.0
 11
558.7150161397722
 21
1253.058600087981
 31
0.0
 70
   160
 71
     5
 42
15.0
  3
ISO-25
100
AcDbAlignedDimension
 13
697.4564365682308
 23
1310.742840796207
 33
0.0
 14
697.4564365682308
 24
1295.742840796207
 34
0.0
 50
90.0
100
AcDbRotatedDimension
1001
ACAD
1000
DSTYLE
1002
{
1070
   371
1070
    18
1070
   279
1070
     1
1002
}
  0
DIMENSION
  5
3F6
330
1F
100
AcDbEntity
  8
寸法
100
AcDbDimension
  2
*D10
 10
485.4412235196732
 20
1295.742840796207
 30
0.0
 11
466.6912235196731
 21
1530.742840796207
 31
0.0
 70
    32
 71
     5
 42
470.0
  3
ISO-25
100
AcDbAlignedDimension
 13
697.4564365682308
 23
1765.742840796207
 33
0.0
 14
697.4564365682308
 24
1295.742840796207
 34
0.0
 50
90.0
100
AcDbRotatedDimension
1001
ACAD
1000
DSTYLE
1002
{
1070
   371
1070
    18
1002
}
  0
TEXT
  5
43C
330
1F
100
AcDbEntity
  8
寸法
370
    18
100
AcDbText
 10
558.7150161397722
 20
1790.994013735533
 30
0.0
 40
25.0
  1
15
 50
90.0
100
AcDbText
  0
DIMENSION
  5
43D
330
1F
100
AcDbEntity
  8
寸法
100
AcDbDimension
  2
*D11
 10
712.4564365682308
 20
1147.810723026152
 30
0.0
 11
771.9564365682308
 21
1147.810723026152
 31
0.0
 70
   160
  1
 
 71
     5
 42
15.0
  3
ISO-25
100
AcDbAlignedDimension
 13
697.4564365682308
 23
1295.742840796207
 33
0.0
 14
712.4564365682308
 24
1295.742840796207
 34
0.0
100
AcDbRotatedDimension
1001
ACAD
1000
DSTYLE
1002
{
1070
   371
1070
    18
1002
}
  0
DIMENSION
  5
44B
330
1F
100
AcDbEntity
  8
寸法
100
AcDbDimension
  2
*D12
 10
1362.456436568231
 20
1147.810723026152
 30
0.0
 11
1037.456436568231
 21
1166.560723026152
 31
0.0
 70
    32
 71
     5
 42
650.0
  3
ISO-25
100
AcDbAlignedDimension
 13
712.4564365682308
 23
1295.742840796207
 33
0.0
 14
1362.456436568231
 24
1295.742840796207
 34
0.0
100
AcDbRotatedDimension
1001
ACAD
1000
DSTYLE
1002
{
1070
   371
1070
    18
1070
   279
1070
     1
1002
}
  0
DIMENSION
  5
458
330
1F
100
AcDbEntity
  8
寸法
100
AcDbDimension
  2
*D13
 10
1377.456436568231
 20
1147.810723026152
 30
0.0
 11
1369.956436568231
 21
1147.810723026152
 31
0.0
 70
    32
  1
 
 71
     5
 42
15.0
  3
ISO-25
100
AcDbAlignedDimension
 13
1362.456436568231
 23
1295.742840796207
 33
0.0
 14
1377.456436568231
 24
1295.742840796207
 34
0.0
100
AcDbRotatedDimension
1001
ACAD
1000
DSTYLE
1002
{
1070
   371
1070
    18
1070
   279
1070
     1
1002
}
  0
TEXT
  5
494
330
1F
100
AcDbEntity
  8
寸法
100
AcDbText
 10
638.8582201220152
 20
1150.098720660548
 30
0.0
 40
25.0
  1
15
100
AcDbText
  0
TEXT
  5
495
330
1F
100
AcDbEntity
  8
寸法
370
    18
100
AcDbText
 10
1400.719896614824
 20
1150.098720660548
 30
0.0
 40
25.0
  1
15
100
AcDbText
  0
DIMENSION
  5
4A3
330
1F
100
AcDbEntity
  8
寸法
100
AcDbDimension
  2
*D14
 10
1377.456436568231
 20
1070.018812870283
 30
0.0
 11
1037.456436568231
 21
1088.768812870283
 31
0.0
 70
    32
 71
     5
 42
680.0
  3
ISO-25
100
AcDbAlignedDimension
 13
697.4564365682308
 23
1295.742840796207
 33
0.0
 14
1377.456436568231
 24
1295.742840796207
 34
0.0
100
AcDbRotatedDimension
1001
ACAD
1000
DSTYLE
1002
{
1070
   371
1070
    18
1002
}
  0
DIMENSION
  5
4F8
330
1F
100
AcDbEntity
  8
寸法
100
AcDbDimension
  2
*D15
 10
942.4564365682309
 20
534.3154334951341
 30
0.0
 11
862.4564365682308
 21
553.0654334951341
 31
0.0
 70
    32
  1
158
 71
     5
 42
160.0
  3
ISO-25
100
AcDbAlignedDimension
 13
782.4564365682308
 23
650.742840796207
 33
0.0
 14
942.4564365682309
 24
650.742840796207
 34
0.0
100
AcDbRotatedDimension
1001
ACAD
1000
DSTYLE
1002
{
1070
   371
1070
    18
1002
}
  0
DIMENSION
  5
505
330
1F
100
AcDbEntity
  8
寸法
100
AcDbDimension
  2
*D16
 10
952.9564365682308
 20
474.3560349262052
 30
0.0
 11
862.4564365682308
 21
493.1060349262052
 31
0.0
 70
    32
 71
     5
 42
181.0
  3
ISO-25
100
AcDbAlignedDimension
 13
771.9564365682308
 23
650.7428407962071
 33
0.0
 14
952.9564365682308
 24
650.742840796207
 34
0.0
100
AcDbRotatedDimension
1001
ACAD
1000
DSTYLE
1002
{
1070
   371
1070
    18
1002
}
  0
DIMENSION
  5
569
330
1F
100
AcDbEntity
  8
寸法
100
AcDbDimension
  2
*D17
 10
2142.762580660151
 20
1450.742840796207
 30
0.0
 11
2124.012580660151
 21
1530.742840796207
 31
0.0
 70
    32
  1
158
 71
     5
 42
160.0
  3
ISO-25
100
AcDbAlignedDimension
 13
2032.456436568231
 23
1610.742840796207
 33
0.0
 14
2032.456436568231
 24
1450.742840796207
 34
0.0
 50
90.0
100
AcDbRotatedDimension
1001
ACAD
1000
DSTYLE
1002
{
1070
   371
1070
    18
1002
}
  0
DIMENSION
  5
57F
330
1F
100
AcDbEntity
  8
寸法
100
AcDbDimension
  2
*D18
 10
2207.684168624993
 20
1440.242840796207
 30
0.0
 11
2188.934168624992
 21
1530.742840796207
 31
0.0
 70
    32
 71
     5
 42
181.0
  3
ISO-25
100
AcDbAlignedDimension
 13
2032.456436568231
 23
1621.242840796207
 33
0.0
 14
2032.456436568231
 24
1440.242840796207
 34
0.0
 50
90.0
100
AcDbRotatedDimension
1001
ACAD
1000
DSTYLE
1002
{
1070
   371
1070
    18
1002
}
  0
LEADER
  5
7CF
330
1F
100
AcDbEntity
  8
0
100
AcDbLeader
  3
ISO-25
 40
25.0
 41
16.66666666666666
 76
     2
 10
975.6483068246208
 20
1319.732315760931
 30
0.0
 10
1014.870716019265
 20
1354.569141979651
 30
0.0
213
0.0
223
-12.5
233
0.0
1001
ACAD
1000
DSTYLE
1002
{
1070
    41
1040
25.0
1070
   147
1040
6.25
1070
    77
1070
     0
1070
    73
1070
     1
1070
    74
1070
     1
1070
   279
1070
     1
1070
   342
1005
DA
1002
}
  0
LEADER
  5
7D0
330
1F
100
AcDbEntity
  8
0
100
AcDbLeader
  3
ISO-25
 40
25.0
 41
16.66666666666666
 76
     2
 10
1354.814884025986
 20
1569.88089038344
 30
0.0
 10
1280.7281101869
 20
1572.058192610573
 30
0.0
213
0.0
223
-12.5
233
0.0
1001
ACAD
1000
DSTYLE
1002
{
1070
    41
1040
25.0
1070
   147
1040
6.25
1070
    77
1070
     0
1070
    73
1070
     1
1070
    74
1070
     1
1070
   279
1070
     1
1070
   342
1005
DA
1002
}
  0
LEADER
  5
7D1
330
1F
100
AcDbEntity
  8
0
100
AcDbLeader
  3
ISO-25
 40
25.0
 41
16.66666666666666
 76
     2
 10
1319.693579850654
 20
1360.973027175331
 30
0.0
 10
1271.755081555603
 20
1391.455248939786
 30
0.0
213
0.0
223
-12.5
233
0.0
1001
ACAD
1000
DSTYLE
1002
{
1070
    41
1040
25.0
1070
   147
1040
6.25
1070
    77
1070
     0
1070
    73
1070
     1
1070
    74
1070
     1
1070
   279
1070
     1
1070
   342
1005
DA
1002
}
  0
LEADER
  5
7D2
330
1F
100
AcDbEntity
  8
0
100
AcDbLeader
  3
ISO-25
 40
25.0
 41
16.66666666666666
 76
     2
 10
1346.098786682763
 20
690.4921510122403
 30
0.0
 10
1298.160288387712
 20
720.9743727766954
 30
0.0
213
0.0
223
-12.5
233
0.0
1001
ACAD
1000
DSTYLE
1002
{
1070
    41
1040
25.0
1070
   147
1040
6.25
1070
    77
1070
     0
1070
    73
1070
     1
1070
    74
1070
     1
1070
   279
1070
     1
1070
   342
1005
DA
1002
}
  0
LINE
  5
7E9
330
1F
100
AcDbEntity
  8
実形
100
AcDbLine
 10
1852.559798689085
 20
533.2291243232884
 30
0.0
 11
1852.559798689085
 21
533.2291243232885
 31
0.0
  0
LINE
  5
7EA
330
1F
100
AcDbEntity
  8
実形
100
AcDbLine
 10
1928.059798689085
 20
457.7291243232885
 30
0.0
 11
2152.059798689085
 21
457.7291243232885
 31
0.0
  0
LINE
  5
7EB
330
1F
100
AcDbEntity
  8
実形
100
AcDbLine
 10
2227.559798689085
 20
533.2291243232885
 30
0.0
 11
2227.559798689085
 21
533.2291243232885
 31
0.0
  0
LINE
  5
7EC
330
1F
100
AcDbEntity
  8
実形
100
AcDbLine
 10
2152.059798689085
 20
608.7291243232885
 30
0.0
 11
1928.059798689085
 21
608.7291243232885
 31
0.0
  0
LINE
  5
7ED
330
1F
100
AcDbEntity
  8
実形
100
AcDbLine
 10
1915.059798689085
 20
533.2291243232885
 30
0.0
 11
1915.059798689085
 21
533.2291243232885
 31
0.0
  0
LINE
  5
7EE
330
1F
100
AcDbEntity
  8
実形
100
AcDbLine
 10
1965.059798689085
 20
483.2291243232885
 30
0.0
 11
2115.059798689086
 21
483.2291243232885
 31
0.0
  0
LINE
  5
7EF
330
1F
100
AcDbEntity
  8
実形
100
AcDbLine
 10
2165.059798689085
 20
533.2291243232885
 30
0.0
 11
2165.059798689085
 21
533.2291243232885
 31
0.0
  0
LINE
  5
7F0
330
1F
100
AcDbEntity
  8
実形
100
AcDbLine
 10
2115.059798689086
 20
583.2291243232885
 30
0.0
 11
1965.059798689085
 21
583.2291243232885
 31
0.0
  0
ARC
  5
7F3
330
1F
100
AcDbEntity
  8
実形
100
AcDbCircle
 10
2152.059798689085
 20
533.2291243232885
 30
0.0
 40
75.5
100
AcDbArc
 50
0.0
 51
90.0
  0
ARC
  5
7F4
330
1F
100
AcDbEntity
  8
実形
100
AcDbCircle
 10
2152.059798689085
 20
533.2291243232885
 30
0.0
 40
75.5
100
AcDbArc
 50
270.0
 51
0.0
  0
ARC
  5
7F5
330
1F
100
AcDbEntity
  8
実形
100
AcDbCircle
 10
1928.059798689085
 20
533.2291243232885
 30
0.0
 40
75.5
100
AcDbArc
 50
180.0
 51
270.0
  0
ARC
  5
7F6
330
1F
100
AcDbEntity
  8
実形
100
AcDbCircle
 10
1928.059798689085
 20
533.2291243232885
 30
0.0
 40
75.5
100
AcDbArc
 50
90.0
 51
180.0000000000001
  0
LINE
  5
7F7
330
1F
100
AcDbEntity
  8
実形
100
AcDbLine
 10
2152.059798689085
 20
603.7291243232886
 30
0.0
 11
1928.059798689085
 21
603.7291243232886
 31
0.0
  0
ARC
  5
7F8
330
1F
100
AcDbEntity
  8
実形
100
AcDbCircle
 10
2152.059798689085
 20
533.2291243232885
 30
0.0
 40
70.5
100
AcDbArc
 50
0.0
 51
90.0
  0
ARC
  5
7F9
330
1F
100
AcDbEntity
  8
実形
100
AcDbCircle
 10
2152.059798689085
 20
533.2291243232885
 30
0.0
 40
70.5
100
AcDbArc
 50
270.0
 51
0.0
  0
LINE
  5
7FA
330
1F
100
AcDbEntity
  8
実形
100
AcDbLine
 10
1928.059798689085
 20
462.7291243232884
 30
0.0
 11
2152.059798689085
 21
462.7291243232884
 31
0.0
  0
ARC
  5
7FD
330
1F
100
AcDbEntity
  8
実形
100
AcDbCircle
 10
1928.059798689085
 20
533.2291243232885
 30
0.0
 40
70.5
100
AcDbArc
 50
180.0
 51
270.0
  0
ARC
  5
7FE
330
1F
100
AcDbEntity
  8
実形
100
AcDbCircle
 10
1928.059798689085
 20
533.2291243232885
 30
0.0
 40
70.5
100
AcDbArc
 50
90.0
 51
180.0000000000001
  0
ARC
  5
7FF
330
1F
100
AcDbEntity
  8
実形
100
AcDbCircle
 10
2115.059798689086
 20
533.2291243232885
 30
0.0
 40
50.0
100
AcDbArc
 50
0.0
 51
90.0
  0
ARC
  5
800
330
1F
100
AcDbEntity
  8
実形
100
AcDbCircle
 10
2115.059798689086
 20
533.2291243232885
 30
0.0
 40
50.0
100
AcDbArc
 50
270.0
 51
0.0
  0
ARC
  5
801
330
1F
100
AcDbEntity
  8
実形
100
AcDbCircle
 10
1965.059798689085
 20
533.2291243232885
 30
0.0
 40
50.0
100
AcDbArc
 50
180.0
 51
270.0
  0
ARC
  5
802
330
1F
100
AcDbEntity
  8
実形
100
AcDbCircle
 10
1965.059798689085
 20
533.2291243232885
 30
0.0
 40
50.0
100
AcDbArc
 50
89.99999999999998
 51
180.0
  0
CIRCLE
  5
803
330
1F
100
AcDbEntity
  8
実形
100
AcDbCircle
 10
1880.059798689085
 20
533.2291243232885
 30
0.0
 40
8.966055913162964
  0
CIRCLE
  5
804
330
1F
100
AcDbEntity
  8
実形
100
AcDbCircle
 10
2200.059798689085
 20
533.2291243232885
 30
0.0
 40
8.966055913162964
  0
LINE
  5
808
330
1F
100
AcDbEntity
  8
センター
 48
0.5
100
AcDbLine
 10
1829.203329927705
 20
533.2291243232885
 30
0.0
 11
2250.916267450465
 21
533.2291243232885
 31
0.0
  0
LINE
  5
809
330
1F
100
AcDbEntity
  8
センター
 48
0.5
100
AcDbLine
 10
2040.059798689085
 20
639.9736387022271
 30
0.0
 11
2040.059798689085
 21
426.48460994435
 31
0.0
  0
DIMENSION
  5
80A
330
1F
100
AcDbEntity
  8
寸法
100
AcDbDimension
  2
*D19
 10
2165.059798689085
 20
682.1130215965978
 30
0.0
 11
2040.059798689085
 21
700.8630215965978
 31
0.0
 70
    32
  1
50
 71
     5
 42
250.0
  3
ISO-25
100
AcDbAlignedDimension
 13
1915.059798689085
 23
583.2291243232885
 33
0.0
 14
2165.059798689085
 24
583.2291243232885
 34
0.0
100
AcDbRotatedDimension
1001
ACAD
1000
DSTYLE
1002
{
1070
   371
1070
    18
1070
   372
1070
    18
1002
}
  0
DIMENSION
  5
824
330
1F
100
AcDbEntity
  8
寸法
100
AcDbDimension
  2
*D20
 10
1880.059798689085
 20
733.1478610618789
 30
0.0
 11
2040.059798689085
 21
751.8978610618789
 31
0.0
 70
    32
  1
64
 71
     5
 42
320.0
  3
ISO-25
100
AcDbAlignedDimension
 13
2200.059798689085
 23
583.2291243232885
 33
0.0
 14
1880.059798689085
 24
583.2291243232885
 34
0.0
100
AcDbRotatedDimension
1001
ACAD
1000
DSTYLE
1002
{
1070
   371
1070
    18
1070
   372
1070
    18
1002
}
  0
DIMENSION
  5
83A
330
1F
100
AcDbEntity
  8
寸法
100
AcDbDimension
  2
*D21
 10
2227.559798689085
 20
780.3550876862693
 30
0.0
 11
2040.059798689085
 21
799.1050876862693
 31
0.0
 70
    32
  1
75
 71
     5
 42
375.0
  3
ISO-25
100
AcDbAlignedDimension
 13
1852.559798689085
 23
583.2291243232885
 33
0.0
 14
2227.559798689085
 24
583.2291243232885
 34
0.0
100
AcDbRotatedDimension
1001
ACAD
1000
DSTYLE
1002
{
1070
   371
1070
    18
1070
   372
1070
    18
1002
}
  0
DIMENSION
  5
850
330
1F
100
AcDbEntity
  8
寸法
100
AcDbDimension
  2
*D22
 10
2329.012811459677
 20
483.2291243232885
 30
0.0
 11
2310.262811459677
 21
533.2291243232889
 31
0.0
 70
    32
  1
20
 71
     5
 42
99.99999999999994
  3
ISO-25
100
AcDbAlignedDimension
 13
2227.559798689085
 23
583.2291243232885
 33
0.0
 14
2227.559798689085
 24
483.2291243232885
 34
0.0
 50
90.0
100
AcDbRotatedDimension
1001
ACAD
1000
DSTYLE
1002
{
1070
   371
1070
    18
1070
   372
1070
    18
1002
}
  0
DIMENSION
  5
85D
330
1F
100
AcDbEntity
  8
寸法
100
AcDbDimension
  2
*D23
 10
2374.980476748788
 20
457.7291243232886
 30
0.0
 11
2356.230476748788
 21
533.2291243232889
 31
0.0
 70
    32
  1
31
 71
     5
 42
150.9999999999999
  3
ISO-25
100
AcDbAlignedDimension
 13
2227.559798689085
 23
608.7291243232885
 33
0.0
 14
2227.559798689085
 24
457.7291243232886
 34
0.0
 50
90.0
100
AcDbRotatedDimension
1001
ACAD
1000
DSTYLE
1002
{
1070
   371
1070
    18
1070
   372
1070
    18
1002
}
  0
TEXT
  5
8C9
330
1F
100
AcDbEntity
  8
0
100
AcDbText
 10
249.2632881086038
 20
83.52862940911927
 30
0.0
 40
30.0
  1
※実寸には製造上の誤差が多少生ずる場合があります。シンクの穴あけ加工は現物合わせにてお願いします。
100
AcDbText
  0
TEXT
  5
8CA
330
1F
100
AcDbEntity
  8
0
100
AcDbText
 10
1882.892617578455
 20
891.36973616828
 30
0.0
 40
30.0
  1
オーバーフロー詳細
100
AcDbText
  0
LINE
  5
8CB
330
1F
100
AcDbEntity
  8
実形
100
AcDbLine
 10
1867.819890056707
 20
880.0741178389136
 30
0.0
 11
2218.260857029935
 21
880.0741178389136
 31
0.0
  0
LINE
  5
8CE
330
1F
100
AcDbEntity
  8
実形
100
AcDbLine
 10
1867.819890056707
 20
873.0741178389136
 30
0.0
 11
2218.260857029935
 21
873.0741178389136
 31
0.0
  0
ARC
  5
F11
330
1F
100
AcDbEntity
  8
実形
100
AcDbCircle
 10
1037.456436568231
 20
3410.742840796207
 30
0.0
 40
2100.0
100
AcDbArc
 50
263.9166063649692
 51
276.0833936350309
  0
ARC
  5
F12
330
1F
100
AcDbEntity
  8
実形
100
AcDbCircle
 10
1037.456436568231
 20
-349.257159203793
 30
0.0
 40
2100.0
100
AcDbArc
 50
83.91660636496917
 51
96.08339363503082
  0
ARC
  5
F19
330
1F
100
AcDbEntity
  8
実形
100
AcDbCircle
 10
62.45643656823085
 20
1530.742840796207
 30
0.0
 40
1300.0
100
AcDbArc
 50
355.237827315748
 51
4.762172684252075
  0
ARC
  5
F1A
330
1F
100
AcDbEntity
  8
実形
100
AcDbCircle
 10
2012.456436568231
 20
1530.742840796207
 30
0.0
 40
1300.0
100
AcDbArc
 50
175.2378273157479
 51
184.762172684252
  0
ARC
  5
F1B
330
1F
100
AcDbEntity
  8
実形
100
AcDbCircle
 10
1248.34842224147
 20
1629.53655677036
 30
0.0
 40
110.0
100
AcDbArc
 50
4.762172684252022
 51
83.9166063649692
  0
ARC
  5
F1C
330
1F
100
AcDbEntity
  8
実形
100
AcDbCircle
 10
1248.34842224147
 20
1431.949124822054
 30
0.0
 40
110.0
100
AcDbArc
 50
276.083393635031
 51
355.237827315748
  0
ARC
  5
F1D
330
1F
100
AcDbEntity
  8
実形
100
AcDbCircle
 10
826.5644508949915
 20
1431.949124822054
 30
0.0
 40
110.0
100
AcDbArc
 50
184.7621726842521
 51
263.9166063649685
  0
ARC
  5
F1E
330
1F
100
AcDbEntity
  8
実形
100
AcDbCircle
 10
826.5644508949915
 20
1629.53655677036
 30
0.0
 40
110.0
100
AcDbArc
 50
96.0833936350307
 51
175.2378273157477
  0
ARC
  5
F1F
330
1F
100
AcDbEntity
  8
実形
100
AcDbCircle
 10
1248.34842224147
 20
1629.53655677036
 30
0.0
 40
125.0
100
AcDbArc
 50
4.762172684252022
 51
83.9166063649692
  0
ARC
  5
F20
330
1F
100
AcDbEntity
  8
実形
100
AcDbCircle
 10
62.45643656823085
 20
1530.742840796207
 30
0.0
 40
1315.0
100
AcDbArc
 50
355.237827315748
 51
4.762172684252075
  0
ARC
  5
F21
330
1F
100
AcDbEntity
  8
実形
100
AcDbCircle
 10
1248.34842224147
 20
1431.949124822054
 30
0.0
 40
125.0
100
AcDbArc
 50
276.083393635031
 51
355.237827315748
  0
ARC
  5
F22
330
1F
100
AcDbEntity
  8
実形
100
AcDbCircle
 10
1037.456436568231
 20
3410.742840796207
 30
0.0
 40
2115.0
100
AcDbArc
 50
263.9166063649692
 51
276.0833936350309
  0
ARC
  5
F23
330
1F
100
AcDbEntity
  8
実形
100
AcDbCircle
 10
826.5644508949915
 20
1431.949124822054
 30
0.0
 40
125.0
100
AcDbArc
 50
184.7621726842521
 51
263.9166063649685
  0
ARC
  5
F24
330
1F
100
AcDbEntity
  8
実形
100
AcDbCircle
 10
2012.456436568231
 20
1530.742840796207
 30
0.0
 40
1315.0
100
AcDbArc
 50
175.2378273157479
 51
184.762172684252
  0
ARC
  5
F25
330
1F
100
AcDbEntity
  8
実形
100
AcDbCircle
 10
826.5644508949915
 20
1629.53655677036
 30
0.0
 40
125.0
100
AcDbArc
 50
96.0833936350307
 51
175.2378273157477
  0
ARC
  5
F26
330
1F
100
AcDbEntity
  8
実形
100
AcDbCircle
 10
1037.456436568231
 20
-349.257159203793
 30
0.0
 40
2115.0
100
AcDbArc
 50
83.91660636496917
 51
96.08339363503082
  0
LINE
  5
F27
330
1F
100
AcDbEntity
  8
実形
100
AcDbLine
 10
697.4564365682308
 20
850.742840796207
 30
0.0
 11
1377.456436568231
 21
850.742840796207
 31
0.0
  0
LINE
  5
F28
330
1F
100
AcDbEntity
  8
実形
100
AcDbLine
 10
1362.456436568231
 20
850.742840796207
 30
0.0
 11
1362.456436568231
 21
704.6640593443887
 31
0.0
  0
LINE
  5
F29
330
1F
100
AcDbEntity
  8
実形
100
AcDbLine
 10
1333.554601177652
 20
674.6841655071749
 30
0.0
 11
952.9564365682308
 21
660.7428407962069
 31
0.0
  0
LINE
  5
F2A
330
1F
100
AcDbEntity
  8
実形
100
AcDbLine
 10
712.4564365682308
 20
850.742840796207
 30
0.0
 11
712.4564365682308
 21
699.1184540553311
 31
0.0
  0
LINE
  5
F2B
330
1F
100
AcDbEntity
  8
実形
100
AcDbLine
 10
735.122863808449
 20
670.0286154415301
 30
0.0
 11
771.9564365682308
 21
660.7428407962069
 31
0.0
  0
ARC
  5
F2C
330
1F
100
AcDbEntity
  8
実形
100
AcDbCircle
 10
742.4564365682308
 20
699.1184540553311
 30
0.0
 40
30.0
100
AcDbArc
 50
180.0
 51
255.8505239136548
  0
ARC
  5
F2D
330
1F
100
AcDbEntity
  8
実形
100
AcDbCircle
 10
1332.456436568231
 20
704.6640593443887
 30
0.0
 40
30.0
100
AcDbArc
 50
272.0978085861922
 51
0.0
  0
LINE
  5
F2E
330
1F
100
AcDbEntity
  8
実形
100
AcDbLine
 10
1832.456436568231
 20
1750.742840796207
 30
0.0
 11
1980.730761337422
 21
1750.742840796207
 31
0.0
  0
LINE
  5
F2F
330
1F
100
AcDbEntity
  8
実形
100
AcDbLine
 10
2010.53151478556
 20
1724.194665519929
 30
0.0
 11
2022.456436568231
 21
1621.242840796207
 31
0.0
  0
LINE
  5
F30
330
1F
100
AcDbEntity
  8
実形
100
AcDbLine
 10
2022.456436568231
 20
1440.242840796207
 30
0.0
 11
2010.53151478556
 21
1337.291016072484
 31
0.0
  0
LINE
  5
F31
330
1F
100
AcDbEntity
  8
実形
100
AcDbLine
 10
1980.730761337422
 20
1310.742840796207
 30
0.0
 11
1832.456436568231
 21
1310.742840796207
 31
0.0
  0
ARC
  5
F32
330
1F
100
AcDbEntity
  8
実形
100
AcDbCircle
 10
1980.730761337422
 20
1720.742840796207
 30
0.0
 40
30.0
100
AcDbArc
 50
6.607133302227483
 51
90.0
  0
ARC
  5
F33
330
1F
100
AcDbEntity
  8
実形
100
AcDbCircle
 10
1980.730761337422
 20
1340.742840796207
 30
0.0
 40
30.0
100
AcDbArc
 50
270.0
 51
353.3928666977725
  0
TEXT
  5
F66
330
1F
100
AcDbEntity
  8
補助
100
AcDbText
 10
2086.666666666667
 20
84.0
 30
0.0
 40
35.0
  1
尺度
 72
     4
 11
2124.0
 21
101.5
 31
0.0
100
AcDbText
  0
TEXT
  5
F67
330
1F
100
AcDbEntity
  8
補助
100
AcDbText
 10
2086.666666666667
 20
149.0
 30
0.0
 40
35.0
  1
品番
 72
     4
 11
2124.0
 21
166.5
 31
0.0
100
AcDbText
  0
LINE
  5
F68
330
1F
100
AcDbEntity
  8
補助
100
AcDbLine
 10
2064.0
 20
69.0
 30
0.0
 11
2784.0
 21
69.0
 31
0.0
  0
LINE
  5
F69
330
1F
100
AcDbEntity
  8
補助
100
AcDbLine
 10
2064.0
 20
199.0
 30
0.0
 11
2784.0
 21
199.0
 31
0.0
  0
LINE
  5
F6A
330
1F
100
AcDbEntity
  8
補助
100
AcDbLine
 10
2064.0
 20
134.0
 30
0.0
 11
2784.0
 21
134.0
 31
0.0
  0
LINE
  5
F6B
330
1F
100
AcDbEntity
  8
補助
100
AcDbLine
 10
2064.0
 20
4.0
 30
0.0
 11
2064.0
 21
199.0
 31
0.0
  0
TEXT
  5
F6C
330
1F
100
AcDbEntity
  8
補助
100
AcDbText
 10
2300.255774665348
 20
16.49999999999999
 30
0.0
 40
40.0
  1
中外交易株式会社
 72
     4
 11
2488.255774665347
 21
36.5
 31
0.0
100
AcDbText
  0
LINE
  5
F6D
330
1F
100
AcDbEntity
  8
補助
100
AcDbLine
 10
2184.0
 20
69.0
 30
0.0
 11
2784.0
 21
69.0
 31
0.0
  0
TEXT
  5
F6E
330
1F
100
AcDbEntity
  8
0
100
AcDbText
 10
2213.333333333334
 20
149.0
 30
0.0
 40
35.0
  1
A１m/m 650-440(OF)
 72
     4
 11
2484.0
 21
166.5
 31
0.0
100
AcDbText
  0
LINE
  5
F6F
102
{ACAD_REACTORS
330
F7C
102
}
330
1F
100
AcDbEntity
  8
補助
370
     5
100
AcDbLine
 10
2207.843923164362
 20
40.53787547858519
 30
0.0
 11
2183.255774665347
 21
40.53787547858519
 31
0.0
  0
LINE
  5
F70
102
{ACAD_REACTORS
330
F7C
102
}
330
1F
100
AcDbEntity
  8
補助
370
     5
100
AcDbLine
 10
2183.255774665347
 20
40.53787547858519
 30
0.0
 11
2183.255774665347
 21
30.53787547858519
 31
0.0
  0
LINE
  5
F71
102
{ACAD_REACTORS
330
F7C
102
}
330
1F
100
AcDbEntity
  8
補助
370
     5
100
AcDbLine
 10
2183.255774665347
 20
30.53787547858519
 30
0.0
 11
2207.346428692676
 21
30.53787547858514
 31
0.0
  0
LINE
  5
F72
102
{ACAD_REACTORS
330
F7C
102
}
330
1F
100
AcDbEntity
  8
補助
370
     5
100
AcDbLine
 10
2210.641894042939
 20
56.5
 30
0.0
 11
2210.641894042939
 21
16.5
 31
0.0
  0
LINE
  5
F73
102
{ACAD_REACTORS
330
F7C
102
}
330
1F
100
AcDbEntity
  8
補助
370
     5
100
AcDbLine
 10
2210.641894042939
 20
16.5
 30
0.0
 11
2245.64189404294
 21
16.5
 31
0.0
  0
LINE
  5
F74
102
{ACAD_REACTORS
330
F7C
102
}
330
1F
100
AcDbEntity
  8
補助
370
     5
100
AcDbLine
 10
2245.64189404294
 20
16.5
 30
0.0
 11
2210.641894042939
 21
36.5
 31
0.0
  0
LINE
  5
F75
102
{ACAD_REACTORS
330
F7C
102
}
330
1F
100
AcDbEntity
  8
補助
370
     5
100
AcDbLine
 10
2210.641894042939
 20
36.5
 30
0.0
 11
2245.64189404294
 21
56.5
 31
0.0
  0
LINE
  5
F76
102
{ACAD_REACTORS
330
F7C
102
}
330
1F
100
AcDbEntity
  8
補助
370
     5
100
AcDbLine
 10
2245.64189404294
 20
56.5
 30
0.0
 11
2210.641894042939
 21
56.5
 31
0.0
  0
LINE
  5
F77
102
{ACAD_REACTORS
330
F7C
102
}
330
1F
100
AcDbEntity
  8
補助
370
     5
100
AcDbLine
 10
2276.75434681301
 20
40.53787547858519
 30
0.0
 11
2252.166198313995
 21
40.53787547858519
 31
0.0
  0
LINE
  5
F78
102
{ACAD_REACTORS
330
F7C
102
}
330
1F
100
AcDbEntity
  8
補助
370
     5
100
AcDbLine
 10
2252.166198313995
 20
40.53787547858519
 30
0.0
 11
2252.166198313995
 21
30.53787547858519
 31
0.0
  0
LINE
  5
F79
102
{ACAD_REACTORS
330
F7C
102
}
330
1F
100
AcDbEntity
  8
補助
370
     5
100
AcDbLine
 10
2252.166198313995
 20
30.53787547858519
 30
0.0
 11
2276.256852341323
 21
30.53787547858514
 31
0.0
  0
ARC
  5
F7A
102
{ACAD_REACTORS
330
F7C
102
}
330
1F
100
AcDbEntity
  8
補助
370
     5
100
AcDbCircle
 10
2188.255774665348
 20
36.5
 30
0.0
 40
20.0
100
AcDbArc
 50
11.6477236670746
 51
342.6561058784882
  0
ARC
  5
F7B
102
{ACAD_REACTORS
330
F7C
102
}
330
1F
100
AcDbEntity
  8
補助
370
     5
100
AcDbCircle
 10
2257.166198313996
 20
36.5
 30
0.0
 40
20.0
100
AcDbArc
 50
11.6477236670746
 51
342.6561058784882
  0
HATCH
  5
F7C
330
1F
100
AcDbEntity
  8
補助
100
AcDbHatch
 10
0.0
 20
0.0
 30
0.0
210
0.0
220
0.0
230
1.0
  2
SOLID
 70
     1
 71
     1
 91
        3
 92
        1
 93
        4
 72
     2
 10
2257.166198313996
 20
36.5
 40
20.0
 50
11.6477236670746
 51
342.6561058784882
 73
     1
 72
     1
 10
2276.256852341323
 20
30.53787547858514
 11
2252.166198313995
 21
30.53787547858519
 72
     1
 10
2252.166198313995
 20
30.53787547858519
 11
2252.166198313995
 21
40.53787547858519
 72
     1
 10
2252.166198313995
 20
40.53787547858519
 11
2276.75434681301
 21
40.53787547858519
 97
        4
330
F7B
330
F79
330
F78
330
F77
 92
        1
 93
        4
 72
     2
 10
2188.255774665348
 20
36.5
 40
20.0
 50
11.6477236670746
 51
342.6561058784882
 73
     1
 72
     1
 10
2207.346428692676
 20
30.53787547858514
 11
2183.255774665347
 21
30.53787547858519
 72
     1
 10
2183.255774665347
 20
30.53787547858519
 11
2183.255774665347
 21
40.53787547858519
 72
     1
 10
2183.255774665347
 20
40.53787547858519
 11
2207.843923164362
 21
40.53787547858519
 97
        4
330
F7A
330
F71
330
F70
330
F6F
 92
        1
 93
        5
 72
     1
 10
2245.64189404294
 20
56.5
 11
2210.641894042939
 21
56.5
 72
     1
 10
2210.641894042939
 20
56.5
 11
2210.641894042939
 21
16.5
 72
     1
 10
2210.641894042939
 20
16.5
 11
2245.64189404294
 21
16.5
 72
     1
 10
2245.64189404294
 20
16.5
 11
2210.641894042939
 21
36.5
 72
     1
 10
2210.641894042939
 20
36.5
 11
2245.64189404294
 21
56.5
 97
        5
330
F76
330
F72
330
F73
330
F74
330
F75
 75
     0
 76
     1
 98
        1
 10
-60.0
 20
0.0
  0
LINE
  5
F7D
330
1F
100
AcDbEntity
  8
補助
100
AcDbLine
 10
2184.0
 20
69.0
 30
0.0
 11
2184.0
 21
199.0
 31
0.0
  0
TEXT
  5
F7E
330
1F
100
AcDbEntity
  8
0
100
AcDbText
 10
2430.916666666667
 20
84.0
 30
0.0
 40
35.0
  1
1：10
 72
     4
 11
2484.0
 21
101.5
 31
0.0
100
AcDbText
  0
LINE
  5
F7F
330
1F
100
AcDbEntity
  8
補助
100
AcDbLine
 10
2784.0
 20
69.0
 30
0.0
 11
2784.0
 21
134.0
 31
0.0
  0
LINE
  5
F80
330
1F
100
AcDbEntity
  8
補助
100
AcDbLine
 10
2784.0
 20
134.0
 30
0.0
 11
2784.0
 21
199.0
 31
0.0
  0
LINE
  5
F81
330
1F
100
AcDbEntity
  8
補助
100
AcDbLine
 10
2784.0
 20
4.0
 30
0.0
 11
2784.0
 21
69.0
 31
0.0
  0
LINE
  5
FE0
330
1F
100
AcDbEntity
  8
実形
100
AcDbLine
 10
605.092565797743
 20
850.7428407962068
 30
0.0
 11
484.8883349265752
 21
850.742840796207
 31
0.0
  0
LINE
  5
FE1
330
1F
100
AcDbEntity
  8
実形
100
AcDbLine
 10
605.092565797743
 20
660.7428407962069
 30
0.0
 11
484.8883349265752
 21
660.7428407962071
 31
0.0
  0
LINE
  5
FE2
330
1F
100
AcDbEntity
  8
実形
100
AcDbLine
 10
605.0925657977431
 20
650.742840796207
 30
0.0
 11
551.8883349265751
 21
650.742840796207
 31
0.0
  0
TEXT
  5
FE3
330
1F
100
AcDbEntity
  8
寸法
 62
     0
370
    18
100
AcDbText
 10
471.5970073993966
 20
719.4633437093653
 30
0.0
 40
25.0
  1
190
 50
90.0
100
AcDbText
  0
LINE
  5
FE4
330
1F
100
AcDbEntity
  8
実形
100
AcDbLine
 10
484.8883349265752
 20
850.742840796207
 30
0.0
 11
484.8883349265752
 21
660.7428407962069
 31
0.0
  0
TEXT
  5
FE5
330
1F
100
AcDbEntity
  8
寸法
 62
     0
370
    18
100
AcDbText
 10
483.4338064966694
 20
849.1427501859162
 30
0.0
 40
3.0
  1
●
100
AcDbText
  0
TEXT
  5
FE6
330
1F
100
AcDbEntity
  8
寸法
 62
     0
370
    18
100
AcDbText
 10
483.5037633172658
 20
659.2131842680319
 30
0.0
 40
3.0
  1
●
100
AcDbText
  0
TEXT
  5
FE7
330
1F
100
AcDbEntity
  8
寸法
 62
     0
370
    18
100
AcDbText
 10
532.4266938853727
 20
665.0100719059856
 30
0.0
 40
25.0
  1
15
 50
90.0
100
AcDbText
  0
LINE
  5
FE8
330
1F
100
AcDbEntity
  8
実形
 62
     0
100
AcDbLine
 10
605.092565797743
 20
675.7428407962069
 30
0.0
 11
551.8883349265751
 21
675.7428407962067
 31
0.0
  0
LINE
  5
FE9
330
1F
100
AcDbEntity
  8
実形
 62
     0
100
AcDbLine
 10
551.8883349265751
 20
675.7428407962066
 30
0.0
 11
551.8883349265751
 21
660.7428407962069
 31
0.0
  0
TEXT
  5
FEA
330
1F
100
AcDbEntity
  8
寸法
 62
     0
370
    18
100
AcDbText
 10
550.533973901586
 20
659.4549609220839
 30
0.0
 40
3.0
  1
●
100
AcDbText
  0
TEXT
  5
FEB
330
1F
100
AcDbEntity
  8
寸法
 62
     0
370
    18
100
AcDbText
 10
550.4001948197753
 20
674.4320701809092
 30
0.0
 40
3.0
  1
●
100
AcDbText
  0
LINE
  5
FEC
330
1F
100
AcDbEntity
  8
実形
100
AcDbLine
 10
551.8883349265751
 20
660.7428407962069
 30
0.0
 11
551.8883349265751
 21
650.742840796207
 31
0.0
  0
TEXT
  5
FED
330
1F
100
AcDbEntity
  8
寸法
 62
     0
370
    18
100
AcDbText
 10
550.4882514203552
 20
649.2894448798643
 30
0.0
 40
3.0
  1
●
100
AcDbText
  0
TEXT
  5
FEE
330
1F
100
AcDbEntity
  8
寸法
 62
     0
370
    18
100
AcDbText
 10
532.0079690813783
 20
629.3934654792082
 30
0.0
 40
25.0
  1
7
 50
90.0
100
AcDbText
  0
LINE
  5
FEF
330
1F
100
AcDbEntity
  8
実形
100
AcDbLine
 10
605.0925657977431
 20
660.7428407962069
 30
0.0
 11
484.8883349265752
 21
660.7428407962071
 31
0.0
  0
DIMENSION
  5
1013
330
1F
100
AcDbEntity
  8
寸法
100
AcDbDimension
  2
*D24
 10
2007.456436568231
 20
1191.996264406294
 30
0.0
 11
2014.956436568231
 21
1191.996264406294
 31
0.0
 70
    32
  1
 
 71
     5
 42
15.0
  3
ISO-25
100
AcDbAlignedDimension
 13
2022.456436568231
 23
1312.902998443729
 33
0.0
 14
2007.456436568231
 24
1312.902998443729
 34
0.0
100
AcDbRotatedDimension
1001
ACAD
1000
DSTYLE
1002
{
1070
    41
1040
25.0
1070
   371
1070
    18
1002
}
  0
DIMENSION
  5
1014
330
1F
100
AcDbEntity
  8
寸法
100
AcDbDimension
  2
*D25
 10
1832.456436568231
 20
1128.624577507252
 30
0.0
 11
1927.456436568231
 21
1147.374577507252
 31
0.0
 70
    32
 71
     5
 42
190.0
  3
ISO-25
100
AcDbAlignedDimension
 13
2022.456436568231
 23
1289.609037223292
 33
0.0
 14
1832.456436568231
 24
1311.202374152517
 34
0.0
100
AcDbRotatedDimension
1001
ACAD
1000
DSTYLE
1002
{
1070
    41
1040
25.0
1070
   371
1070
    18
1002
}
  0
TEXT
  5
1015
330
1F
100
AcDbEntity
  8
寸法
370
    18
100
AcDbText
 10
1958.636538681914
 20
1204.231437189111
 30
0.0
 40
25.0
  1
15
100
AcDbText
  0
TEXT
  5
1016
330
1F
100
AcDbEntity
  8
寸法
370
    18
100
AcDbText
 10
2042.327174807604
 20
1202.981156587074
 30
0.0
 40
25.0
  1
7
100
AcDbText
  0
LINE
  5
1017
330
1F
100
AcDbEntity
  8
実形
100
AcDbLine
 10
2022.456436568231
 20
1191.996264406294
 30
0.0
 11
2022.456436568231
 21
1247.902998443729
 31
0.0
  0
LINE
  5
1018
330
1F
100
AcDbEntity
  8
実形
100
AcDbLine
 10
2022.456436568231
 20
1191.996264406294
 30
0.0
 11
2032.456436568231
 21
1191.996264406294
 31
0.0
  0
LINE
  5
1019
330
1F
100
AcDbEntity
  8
実形
100
AcDbLine
 10
2032.456436568232
 20
1247.902998443729
 30
0.0
 11
2032.456436568232
 21
1191.996264406294
 31
0.0
  0
TEXT
  5
101A
330
1F
100
AcDbEntity
  8
寸法
 62
     0
370
    18
100
AcDbText
 10
2030.132877623448
 20
1189.581723615539
 30
0.0
 40
5.0
  1
●
100
AcDbText
  0
LINE
  5
10AB
330
1F
100
AcDbEntity
  8
実形
100
AcDbLine
 10
1949.357466681503
 20
1363.37683864478
 30
0.0
 11
1990.738310150568
 21
1319.738240789724
 31
0.0
  0
LINE
  5
10AC
330
1F
100
AcDbEntity
  8
実形
100
AcDbLine
 10
1990.738310150568
 20
1319.738240789724
 30
0.0
 11
1977.227944135606
 21
1348.999945136287
 31
0.0
  0
LINE
  5
10AD
330
1F
100
AcDbEntity
  8
実形
100
AcDbLine
 10
1990.738310150569
 20
1319.738240789724
 30
0.0
 11
1962.234897795285
 21
1334.782602365698
 31
0.0
  0
LINE
  5
10E8
330
1F
100
AcDbEntity
  8
補助
100
AcDbLine
 10
109.0
 20
2024.0
 30
0.0
 11
109.0
 21
4.0
 31
0.0
  0
LINE
  5
10FE
330
1F
100
AcDbEntity
  8
補助
100
AcDbLine
 10
2784.0
 20
1959.0
 30
0.0
 11
2019.387286519283
 21
1959.000000000001
 31
0.0
  0
LINE
  5
10FF
330
1F
100
AcDbEntity
  8
補助
100
AcDbLine
 10
2784.0
 20
1894.0
 30
0.0
 11
2019.387286519283
 21
1894.0
 31
0.0
  0
LINE
  5
1100
330
1F
100
AcDbEntity
  8
補助
100
AcDbLine
 10
2202.547653420927
 20
1894.0
 30
0.0
 11
2202.547653420927
 21
2024.0
 31
0.0
  0
LINE
  5
1101
330
1F
100
AcDbEntity
  8
補助
100
AcDbLine
 10
2019.387286519283
 20
1894.0
 30
0.0
 11
2019.387286519283
 21
2024.0
 31
0.0
  0
TEXT
  5
1102
330
1F
100
AcDbEntity
  8
補助
100
AcDbText
 10
2050.295698850121
 20
1976.328571428572
 30
0.0
 40
30.0
  1
部品名
  7
明朝
 72
     4
 11
2116.124270278692
 21
1991.5
 31
0.0
100
AcDbText
  0
TEXT
  5
1103
330
1F
100
AcDbEntity
  8
補助
100
AcDbText
 10
2627.614285714286
 20
1976.071428571429
 30
0.0
 40
30.0
  1
厚さ
  7
明朝
 72
     4
 11
2671.5
 21
1991.5
 31
0.0
100
AcDbText
  0
LINE
  5
1104
330
1F
100
AcDbEntity
  8
補助
100
AcDbLine
 10
2559.0
 20
1894.0
 30
0.0
 11
2559.0
 21
2024.0
 31
0.0
  0
TEXT
  5
1105
330
1F
100
AcDbEntity
  8
補助
100
AcDbText
 10
2338.490869919937
 20
1975.947979478155
 30
0.0
 40
30.0
  1
材質
  7
明朝
 72
     4
 11
2382.376584205651
 21
1991.119408049583
 31
0.0
100
AcDbText
  0
TEXT
  5
1106
330
1F
100
AcDbEntity
  8
実形
100
AcDbText
 10
2048.227810657788
 20
1910.557142857143
 30
0.0
 40
30.0
  1
ボウル
  7
明朝
 72
     4
 11
2114.056382086359
 21
1926.5
 31
0.0
100
AcDbText
  0
TEXT
  5
1107
330
1F
100
AcDbEntity
  8
実形
100
AcDbText
 10
2594.700000000001
 20
1911.842857142857
 30
0.0
 40
30.0
  1
1.0ｍｍ
  7
明朝
 72
     4
 11
2671.500000000001
 21
1926.5
 31
0.0
100
AcDbText
  0
TEXT
  5
1108
330
1F
100
AcDbEntity
  8
実形
100
AcDbText
 10
2261.016869107866
 20
1910.728571428572
 30
0.0
 40
30.0
  1
SUS304（BA）
  7
明朝
 72
     4
 11
2392.674011965008
 21
1926.5
 31
0.0
100
AcDbText
  0
VIEWPORT
  5
2E
102
{ACAD_XDICTIONARY
360
113E
102
}
330
1B
100
AcDbEntity
 67
     1
  8
0
100
AcDbViewport
 10
144.7270812988281
 20
101.2295806407928
 30
0.0
 40
411.6736216682419
 41
222.1517806396485
 68
     1
 69
     1
 12
144.7270812988281
 22
101.2295806407928
 13
0.0
 23
0.0
 14
10.0
 24
10.0
 15
10.0
 25
10.0
 16
0.0
 26
0.0
 36
1.0
 17
0.0
 27
0.0
 37
0.0
 42
50.0
 43
0.0
 44
0.0
 45
222.1517806396485
 50
0.0
 51
0.0
 72
   100
 90
    32800
  1

281
     0
 71
     1
 74
     0
110
0.0
120
0.0
130
0.0
111
1.0
121
0.0
131
0.0
112
0.0
122
1.0
132
0.0
 79
     0
146
0.0
  0
VIEWPORT
  5
30
102
{ACAD_XDICTIONARY
360
1140
102
}
330
1B
100
AcDbEntity
 67
     1
  8
0
100
AcDbViewport
 10
139.2237563133239
 20
101.2295821905136
 30
0.0
 40
222.7580101013184
 41
161.9673315048218
 68
     2
 69
     2
 12
210.0
 22
148.5
 13
0.0
 23
0.0
 14
10.0
 24
10.0
 15
10.0
 25
10.0
 16
0.0
 26
0.0
 36
1.0
 17
0.0
 27
0.0
 37
0.0
 42
50.0
 43
0.0
 44
0.0
 45
309.0686705647124
 50
0.0
 51
0.0
 72
   100
 90
    32864
  1

281
     0
 71
     1
 74
     0
110
0.0
120
0.0
130
0.0
111
1.0
121
0.0
131
0.0
112
0.0
122
1.0
132
0.0
 79
     0
146
0.0
  0
ENDSEC
  0
SECTION
  2
OBJECTS
  0
DICTIONARY
  5
C
330
0
100
AcDbDictionary
281
     1
  3
ACAD_COLOR
350
FAA
  3
ACAD_GROUP
350
D
  3
ACAD_LAYOUT
350
1A
  3
ACAD_MATERIAL
350
FA9
  3
ACAD_MLINESTYLE
350
17
  3
ACAD_PLOTSETTINGS
350
19
  3
ACAD_PLOTSTYLENAME
350
E
  3
ACAD_TABLESTYLE
350
FAB
  3
AcadDim
350
124
  3
ACDBHEADERROUNDTRIPXREC
350
1137
  3
AcDbVariableDictionary
350
104C
  0
DICTIONARY
  5
10C0
330
2
100
AcDbDictionary
280
     1
281
     1
  3
ACAD_LAYERFILTERS
360
10C2
  3
ACAD_LAYERSTATES
360
10C3
  3
ACLYDICTIONARY
360
10C1
  0
DICTIONARY
  5
10E9
330
1F
100
AcDbDictionary
280
     1
281
     1
  3
ACAD_SORTENTS
360
10EA
  0
DICTIONARY
  5
113E
330
2E
100
AcDbDictionary
280
     1
281
     1
  3
ACAD_XREC_ROUNDTRIP
360
113F
  0
DICTIONARY
  5
1140
330
30
100
AcDbDictionary
280
     1
281
     1
  3
ACAD_XREC_ROUNDTRIP
360
1141
  0
DICTIONARY
  5
FAA
102
{ACAD_REACTORS
330
C
102
}
330
C
100
AcDbDictionary
281
     1
  0
DICTIONARY
  5
D
102
{ACAD_REACTORS
330
C
102
}
330
C
100
AcDbDictionary
281
     1
  0
DICTIONARY
  5
1A
102
{ACAD_REACTORS
330
C
102
}
330
C
100
AcDbDictionary
281
     1
  3
Model
350
22
  3
ﾚｲｱｳﾄ1
350
1E
  3
ﾚｲｱｳﾄ2
350
26
  0
DICTIONARY
  5
FA9
102
{ACAD_REACTORS
330
C
102
}
330
C
100
AcDbDictionary
281
     1
  0
DICTIONARY
  5
17
102
{ACAD_REACTORS
330
C
102
}
330
C
100
AcDbDictionary
281
     1
  3
Standard
350
18
  0
DICTIONARY
  5
19
102
{ACAD_REACTORS
330
C
102
}
330
C
100
AcDbDictionary
281
     1
  0
ACDBDICTIONARYWDFLT
  5
E
102
{ACAD_REACTORS
330
C
102
}
330
C
100
AcDbDictionary
281
     1
  3
Normal
350
F
100
AcDbDictionaryWithDefault
340
F
  0
DICTIONARY
  5
FAB
102
{ACAD_REACTORS
330
C
102
}
330
C
100
AcDbDictionary
281
     1
  3
Standard
350
FAC
  0
XRECORD
  5
124
102
{ACAD_REACTORS
330
C
102
}
330
C
100
AcDbXrecord
280
     1
 90
   990106
  3

 60
     0
 61
     0
 62
     1
 63
     3
 64
     0
 65
     0
 66
     0
 67
     3
 68
     1
 69
     0
 70
     0
 71
     0
 72
     0
 40
30.0
170
     0
  0
DICTIONARY
  5
1137
102
{ACAD_REACTORS
330
C
102
}
330
C
100
AcDbDictionary
281
     1
  0
DICTIONARY
  5
104C
102
{ACAD_REACTORS
330
C
102
}
330
C
100
AcDbDictionary
281
     1
  3
CTABLESTYLE
350
104D
  3
DIMASSOC
350
1134
  3
PROJECTNAME
350
1135
  0
DICTIONARY
  5
10C2
102
{ACAD_REACTORS
330
10C0
102
}
330
10C0
100
AcDbDictionary
281
     1
  0
DICTIONARY
  5
10C3
102
{ACAD_REACTORS
330
10C0
102
}
330
10C0
100
AcDbDictionary
281
     1
  0
DICTIONARY
  5
10C1
102
{ACAD_REACTORS
330
10C0
102
}
330
10C0
100
AcDbDictionary
281
     1
1001
ACAD
1000
<All
  0
SORTENTSTABLE
  5
10EA
102
{ACAD_REACTORS
330
10E9
102
}
330
10E9
100
AcDbSortentsTable
330
1F
331
7F0
  5
7F3
331
335
  5
336
331
7F8
  5
7F9
331
33D
  5
353
331
2E6
  5
2EB
331
800
  5
801
331
2EE
  5
2F9
331
808
  5
809
331
FE3
  5
FE4
331
FEB
  5
FEC
331
F6C
  5
F6D
331
F74
  5
F75
331
F1D
  5
F1E
331
1013
  5
1014
331
F7C
  5
F7D
331
2FE
  5
301
331
306
  5
307
331
44B
  5
458
331
3DC
  5
3E9
331
7D1
  5
7D2
331
32E
  5
32F
331
7E9
  5
7EA
331
F25
  5
F26
331
F2D
  5
F2E
331
8C9
  5
8CA
331
336
  5
337
331
395
  5
397
331
7F9
  5
7FA
331
801
  5
802
331
4A3
  5
4F8
331
850
  5
85D
331
809
  5
80A
331
A0
  5
A5
331
FE4
  5
FE5
331
F6D
  5
F6E
331
FEC
  5
FED
331
1014
  5
1015
331
F1E
  5
F1F
331
F75
  5
F76
331
F7D
  5
F7E
331
43C
  5
43D
331
307
  5
308
331
7D2
  5
7E9
331
7EA
  5
7EB
331
32F
  5
331
331
F26
  5
F27
331
10AB
  5
10AC
331
8CA
  5
8CB
331
F2E
  5
F2F
331
337
  5
33A
331
494
  5
495
331
7FA
  5
7FD
331
802
  5
803
331
80A
  5
824
331
FE5
  5
FE6
331
F66
  5
F67
331
FED
  5
FEE
331
F6E
  5
F6F
331
F76
  5
F77
331
F1F
  5
F20
331
1015
  5
1016
331
F7E
  5
F7F
331
43D
  5
44B
331
3CE
  5
3DC
331
308
  5
309
331
7EB
  5
7EC
331
F27
  5
F28
331
8CB
  5
8CE
331
F2F
  5
F30
331
10AC
  5
10AD
331
7F3
  5
7F4
331
397
  5
398
331
83A
  5
850
331
3F6
  5
43C
331
495
  5
4A3
331
803
  5
804
331
3AF
  5
3B1
331
F67
  5
F68
331
FE6
  5
FE7
331
F6F
  5
F70
331
FEE
  5
FEF
331
1016
  5
1017
331
F77
  5
F78
331
F7F
  5
F80
331
2F9
  5
2FA
331
301
  5
306
331
309
  5
30A
331
368
  5
395
331
505
  5
569
331
7EC
  5
7ED
331
F20
  5
F21
331
F28
  5
F29
331
10AD
  5
10C9
331
F30
  5
F31
331
331
  5
332
331
398
  5
399
331
7F4
  5
7F5
331
804
  5
808
331
FE7
  5
FE8
331
F11
  5
F12
331
F68
  5
F69
331
FEF
  5
1013
331
F19
  5
F1A
331
F70
  5
F71
331
F78
  5
F79
331
1017
  5
1018
331
2FA
  5
2FB
331
30A
  5
30B
331
824
  5
83A
331
7ED
  5
7EE
331
F21
  5
F22
331
85D
  5
8C9
331
F80
  5
F81
331
F29
  5
F2A
331
F31
  5
F32
331
332
  5
333
331
7F5
  5
7F6
331
33A
  5
33B
331
399
  5
3AF
331
7FD
  5
7FE
331
2EB
  5
2EE
331
9C
  5
9C
331
FE0
  5
FE1
331
F69
  5
F6A
331
F12
  5
F19
331
FE8
  5
FE9
331
F1A
  5
F1B
331
F71
  5
F72
331
F79
  5
F7A
331
3B1
  5
3CE
331
2FB
  5
2FE
331
30B
  5
32C
331
458
  5
494
331
7EE
  5
7EF
331
1018
  5
1019
331
F22
  5
F23
331
F81
  5
F82
331
F2A
  5
F2B
331
F32
  5
F33
331
8CE
  5
F11
331
3E9
  5
3F6
331
333
  5
334
331
7F6
  5
7F7
331
33B
  5
33C
331
353
  5
35B
331
57F
  5
7CF
331
7FE
  5
7FF
331
FE1
  5
FE2
331
FE9
  5
FEA
331
A5
  5
2E6
331
F6A
  5
F6B
331
F1B
  5
F1C
331
F72
  5
F73
331
F7A
  5
F7B
331
35B
  5
368
331
4F8
  5
505
331
7CF
  5
7D0
331
32C
  5
32D
331
7EF
  5
7F0
331
1019
  5
101A
331
F23
  5
F24
331
F2B
  5
F2C
331
F33
  5
F66
331
10E8
  5
A0
331
334
  5
335
331
7F7
  5
7F8
331
33C
  5
33D
331
7FF
  5
800
331
FE2
  5
FE3
331
F6B
  5
F6C
331
FEA
  5
FEB
331
F1C
  5
F1D
331
F73
  5
F74
331
F7B
  5
F7C
331
7D0
  5
7D1
331
32D
  5
32E
331
569
  5
57F
331
101A
  5
10AB
331
F24
  5
F25
331
F2C
  5
F2D
  0
XRECORD
  5
113F
102
{ACAD_REACTORS
330
113E
102
}
330
113E
100
AcDbXrecord
280
     1
102
SHADEPLOT
 70
     0
  0
XRECORD
  5
1141
102
{ACAD_REACTORS
330
1140
102
}
330
1140
100
AcDbXrecord
280
     1
102
SHADEPLOT
 70
     0
  0
LAYOUT
  5
22
102
{ACAD_XDICTIONARY
360
113A
102
}
102
{ACAD_REACTORS
330
1A
102
}
330
1A
100
AcDbPlotSettings
  1

  2
EPSON PM-800C
  4
A4
  6

 40
3.757083177566528
 41
14.7637300491333
 42
3.757080078125
 43
3.757080078125
 44
209.9733276367187
 45
296.9683227539062
 46
0.0
 47
0.0
 48
0.0
 49
0.0
140
0.0
141
0.0
142
1.0
143
10.0
 70
 11952
 72
     1
 73
     1
 74
     2
  7

 75
    20
147
0.1
148
0.0
149
0.0
100
AcDbLayout
  1
Model
 70
     1
 71
     0
 10
0.0
 20
0.0
 11
12.0
 21
9.0
 12
0.0
 22
0.0
 32
0.0
 14
0.0
 24
0.0
 34
0.0
 15
0.0
 25
0.0
 35
0.0
146
0.0
 13
0.0
 23
0.0
 33
0.0
 16
1.0
 26
0.0
 36
0.0
 17
0.0
 27
1.0
 37
0.0
 76
     0
330
1F
  0
LAYOUT
  5
1E
102
{ACAD_XDICTIONARY
360
1138
102
}
102
{ACAD_REACTORS
330
1A
102
}
330
1A
100
AcDbPlotSettings
  1

  2
EPSON PM-800C
  4
A4
  6

 40
3.757083177566528
 41
14.7637300491333
 42
3.757080078125
 43
3.757080078125
 44
209.9733276367187
 45
296.9683227539062
 46
0.0
 47
0.0
 48
0.0
 49
0.0
140
0.0
141
0.0
142
1.0
143
1.0
 70
   688
 72
     1
 73
     1
 74
     5
  7

 75
    16
147
1.0
148
0.0
149
0.0
100
AcDbLayout
  1
ﾚｲｱｳﾄ1
 70
     1
 71
     1
 10
-3.757080078125
 20
-3.757083177566528
 11
293.2112426757813
 21
206.2162444591522
 12
0.0
 22
0.0
 32
0.0
 14
27.8447512626648
 24
20.24591643810271
 34
0.0
 15
250.6027613639831
 25
182.2132479429245
 35
0.0
146
0.0
 13
0.0
 23
0.0
 33
0.0
 16
1.0
 26
0.0
 36
0.0
 17
0.0
 27
1.0
 37
0.0
 76
     0
330
1B
331
2E
  0
LAYOUT
  5
26
102
{ACAD_XDICTIONARY
360
113C
102
}
102
{ACAD_REACTORS
330
1A
102
}
330
1A
100
AcDbPlotSettings
  1

  2
EPSON PM-800C
  4

  6

 40
0.0
 41
0.0
 42
0.0
 43
0.0
 44
0.0
 45
0.0
 46
0.0
 47
0.0
 48
0.0
 49
0.0
140
0.0
141
0.0
142
1.0
143
1.0
 70
   688
 72
     0
 73
     0
 74
     5
  7

 75
    16
147
1.0
148
0.0
149
0.0
100
AcDbLayout
  1
ﾚｲｱｳﾄ2
 70
     1
 71
     2
 10
0.0
 20
0.0
 11
12.0
 21
9.0
 12
0.0
 22
0.0
 32
0.0
 14
0.0
 24
0.0
 34
0.0
 15
0.0
 25
0.0
 35
0.0
146
0.0
 13
0.0
 23
0.0
 33
0.0
 16
1.0
 26
0.0
 36
0.0
 17
0.0
 27
1.0
 37
0.0
 76
     0
330
23
  0
MLINESTYLE
  5
18
102
{ACAD_REACTORS
330
17
102
}
330
17
100
AcDbMlineStyle
  2
STANDARD
 70
     0
  3

 62
   256
 51
90.0
 52
90.0
 71
     2
 49
0.5
 62
   256
  6
BYLAYER
 49
-0.5
 62
   256
  6
BYLAYER
  0
ACDBPLACEHOLDER
  5
F
102
{ACAD_REACTORS
330
E
102
}
330
E
  0
TABLESTYLE
  5
FAC
102
{ACAD_REACTORS
330
FAB
102
}
330
FAB
100
AcDbTableStyle
  3
Standard
 70
     0
 71
     0
 40
1.5
 41
1.5
280
     0
281
     0
  7
Standard
140
4.5
170
     2
 62
     0
 63
     7
283
     0
274
    -2
284
     1
 64
     0
275
    -2
285
     1
 65
     0
276
    -2
286
     1
 66
     0
277
    -2
287
     1
 67
     0
278
    -2
288
     1
 68
     0
279
    -2
289
     1
 69
     0
  7
Standard
140
6.0
170
     5
 62
     0
 63
     7
283
     0
274
    -2
284
     1
 64
     0
275
    -2
285
     1
 65
     0
276
    -2
286
     1
 66
     0
277
    -2
287
     1
 67
     0
278
    -2
288
     1
 68
     0
279
    -2
289
     1
 69
     0
  7
Standard
140
4.5
170
     5
 62
     0
 63
     7
283
     0
274
    -2
284
     1
 64
     0
275
    -2
285
     1
 65
     0
276
    -2
286
     1
 66
     0
277
    -2
287
     1
 67
     0
278
    -2
288
     1
 68
     0
279
    -2
289
     1
 69
     0
  0
DICTIONARYVAR
  5
104D
102
{ACAD_REACTORS
330
104C
102
}
330
104C
100
DictionaryVariables
280
     0
  1
STANDARD
  0
DICTIONARYVAR
  5
1134
102
{ACAD_REACTORS
330
104C
102
}
330
104C
100
DictionaryVariables
280
     0
  1
1
  0
DICTIONARYVAR
  5
1135
102
{ACAD_REACTORS
330
104C
102
}
330
104C
100
DictionaryVariables
280
     0
  1

  0
DICTIONARY
  5
113A
330
22
100
AcDbDictionary
280
     1
281
     1
  3
ACAD_XREC_ROUNDTRIP
360
113B
  0
DICTIONARY
  5
1138
330
1E
100
AcDbDictionary
280
     1
281
     1
  3
ACAD_XREC_ROUNDTRIP
360
1139
  0
DICTIONARY
  5
113C
330
26
100
AcDbDictionary
280
     1
281
     1
  3
ACAD_XREC_ROUNDTRIP
360
113D
  0
XRECORD
  5
113B
102
{ACAD_REACTORS
330
113A
102
}
330
113A
100
AcDbXrecord
280
     1
102
SHADEPLOT
 70
     0
102
SHADEPLOTRESLEVEL
 70
     2
102
SHADEPLOTCUSTOMDPI
 70
   300
  0
XRECORD
  5
1139
102
{ACAD_REACTORS
330
1138
102
}
330
1138
100
AcDbXrecord
280
     1
102
SHADEPLOT
 70
     0
102
SHADEPLOTRESLEVEL
 70
     2
102
SHADEPLOTCUSTOMDPI
 70
   300
  0
XRECORD
  5
113D
102
{ACAD_REACTORS
330
113C
102
}
330
113C
100
AcDbXrecord
280
     1
102
SHADEPLOT
 70
     0
102
SHADEPLOTRESLEVEL
 70
     2
102
SHADEPLOTCUSTOMDPI
 70
   300
  0
ENDSEC
  0
EOF
