  0
SECTION
  2
HEADER
  9
$ACADVER
  1
AC1015
  9
$ACADMAINTVER
 70
    20
  9
$DWGCODEPAGE
  3
ANSI_932
  9
$INSBASE
 10
0.0
 20
0.0
 30
0.0
  9
$EXTMIN
 10
119.0
 20
4.0
 30
0.0
  9
$EXTMAX
 10
2784.000000000001
 20
2024.0
 30
0.0
  9
$LIMMIN
 10
0.0
 20
0.0
  9
$LIMMAX
 10
29700.0
 20
21000.0
  9
$ORTHOMODE
 70
     0
  9
$REGENMODE
 70
     1
  9
$FILLMODE
 70
     1
  9
$QTEXTMODE
 70
     0
  9
$MIRRTEXT
 70
     1
  9
$LTSCALE
 40
4.0
  9
$ATTMODE
 70
     1
  9
$TEXTSIZE
 40
25.0
  9
$TRACEWID
 40
1.0
  9
$TEXTSTYLE
  7
MS明朝
  9
$CLAYER
  8
実形
  9
$CELTYPE
  6
ByLayer
  9
$CECOLOR
 62
   256
  9
$CELTSCALE
 40
1.0
  9
$DISPSILH
 70
     0
  9
$DIMSCALE
 40
1.0
  9
$DIMASZ
 40
35.0
  9
$DIMEXO
 40
65.0
  9
$DIMDLI
 40
3.75
  9
$DIMRND
 40
0.0
  9
$DIMDLE
 40
0.0
  9
$DIMEXE
 40
0.0
  9
$DIMTP
 40
0.0
  9
$DIMTM
 40
0.0
  9
$DIMTXT
 40
25.0
  9
$DIMCEN
 40
2.5
  9
$DIMTSZ
 40
0.0
  9
$DIMTOL
 70
     0
  9
$DIMLIM
 70
     0
  9
$DIMTIH
 70
     0
  9
$DIMTOH
 70
     0
  9
$DIMSE1
 70
     0
  9
$DIMSE2
 70
     0
  9
$DIMTAD
 70
     1
  9
$DIMZIN
 70
     8
  9
$DIMBLK
  1
DotSmall
  9
$DIMASO
 70
     1
  9
$DIMSHO
 70
     1
  9
$DIMPOST
  1

  9
$DIMAPOST
  1

  9
$DIMALT
 70
     0
  9
$DIMALTD
 70
     3
  9
$DIMALTF
 40
0.03937007874016
  9
$DIMLFAC
 40
1.0
  9
$DIMTOFL
 70
     1
  9
$DIMTVP
 40
0.0
  9
$DIMTIX
 70
     0
  9
$DIMSOXD
 70
     0
  9
$DIMSAH
 70
     0
  9
$DIMBLK1
  1

  9
$DIMBLK2
  1

  9
$DIMSTYLE
  2
ISO-25
  9
$DIMCLRD
 70
     0
  9
$DIMCLRE
 70
     0
  9
$DIMCLRT
 70
     0
  9
$DIMTFAC
 40
1.0
  9
$DIMGAP
 40
6.25
  9
$DIMJUST
 70
     0
  9
$DIMSD1
 70
     0
  9
$DIMSD2
 70
     0
  9
$DIMTOLJ
 70
     0
  9
$DIMTZIN
 70
     8
  9
$DIMALTZ
 70
     0
  9
$DIMALTTZ
 70
     0
  9
$DIMUPT
 70
     0
  9
$DIMDEC
 70
     2
  9
$DIMTDEC
 70
     2
  9
$DIMALTU
 70
     2
  9
$DIMALTTD
 70
     3
  9
$DIMTXSTY
  7
Standard
  9
$DIMAUNIT
 70
     0
  9
$DIMADEC
 70
     0
  9
$DIMALTRND
 40
0.0
  9
$DIMAZIN
 70
     0
  9
$DIMDSEP
 70
    46
  9
$DIMATFIT
 70
     3
  9
$DIMFRAC
 70
     0
  9
$DIMLDRBLK
  1
Open30
  9
$DIMLUNIT
 70
     2
  9
$DIMLWD
 70
    18
  9
$DIMLWE
 70
    18
  9
$DIMTMOVE
 70
     0
  9
$LUNITS
 70
     2
  9
$LUPREC
 70
     2
  9
$SKETCHINC
 40
1.0
  9
$FILLETRAD
 40
30.0
  9
$AUNITS
 70
     0
  9
$AUPREC
 70
     0
  9
$MENU
  1
.
  9
$ELEVATION
 40
0.0
  9
$PELEVATION
 40
0.0
  9
$THICKNESS
 40
0.0
  9
$LIMCHECK
 70
     1
  9
$CHAMFERA
 40
10.0
  9
$CHAMFERB
 40
10.0
  9
$CHAMFERC
 40
20.0
  9
$CHAMFERD
 40
0.0
  9
$SKPOLY
 70
     0
  9
$TDCREATE
 40
2451673.575802199
  9
$TDUCREATE
 40
2451673.200802199
  9
$TDUPDATE
 40
2458803.770603635
  9
$TDUUPDATE
 40
2458803.395603635
  9
$TDINDWG
 40
0.9433687153
  9
$TDUSRTIMER
 40
0.9433680208
  9
$USRTIMER
 70
     1
  9
$ANGBASE
 50
0.0
  9
$ANGDIR
 70
     0
  9
$PDMODE
 70
     3
  9
$PDSIZE
 40
0.0
  9
$PLINEWID
 40
0.0
  9
$SPLFRAME
 70
     0
  9
$SPLINETYPE
 70
     6
  9
$SPLINESEGS
 70
     8
  9
$HANDSEED
  5
124D
  9
$SURFTAB1
 70
     6
  9
$SURFTAB2
 70
     6
  9
$SURFTYPE
 70
     6
  9
$SURFU
 70
     6
  9
$SURFV
 70
     6
  9
$UCSBASE
  2

  9
$UCSNAME
  2

  9
$UCSORG
 10
0.0
 20
0.0
 30
0.0
  9
$UCSXDIR
 10
1.0
 20
0.0
 30
0.0
  9
$UCSYDIR
 10
0.0
 20
1.0
 30
0.0
  9
$UCSORTHOREF
  2

  9
$UCSORTHOVIEW
 70
     0
  9
$UCSORGTOP
 10
0.0
 20
0.0
 30
0.0
  9
$UCSORGBOTTOM
 10
0.0
 20
0.0
 30
0.0
  9
$UCSORGLEFT
 10
0.0
 20
0.0
 30
0.0
  9
$UCSORGRIGHT
 10
0.0
 20
0.0
 30
0.0
  9
$UCSORGFRONT
 10
0.0
 20
0.0
 30
0.0
  9
$UCSORGBACK
 10
0.0
 20
0.0
 30
0.0
  9
$PUCSBASE
  2

  9
$PUCSNAME
  2

  9
$PUCSORG
 10
0.0
 20
0.0
 30
0.0
  9
$PUCSXDIR
 10
1.0
 20
0.0
 30
0.0
  9
$PUCSYDIR
 10
0.0
 20
1.0
 30
0.0
  9
$PUCSORTHOREF
  2

  9
$PUCSORTHOVIEW
 70
     0
  9
$PUCSORGTOP
 10
0.0
 20
0.0
 30
0.0
  9
$PUCSORGBOTTOM
 10
0.0
 20
0.0
 30
0.0
  9
$PUCSORGLEFT
 10
0.0
 20
0.0
 30
0.0
  9
$PUCSORGRIGHT
 10
0.0
 20
0.0
 30
0.0
  9
$PUCSORGFRONT
 10
0.0
 20
0.0
 30
0.0
  9
$PUCSORGBACK
 10
0.0
 20
0.0
 30
0.0
  9
$USERI1
 70
     0
  9
$USERI2
 70
     0
  9
$USERI3
 70
     0
  9
$USERI4
 70
     0
  9
$USERI5
 70
     0
  9
$USERR1
 40
0.0
  9
$USERR2
 40
0.0
  9
$USERR3
 40
0.0
  9
$USERR4
 40
0.0
  9
$USERR5
 40
0.0
  9
$WORLDVIEW
 70
     1
  9
$SHADEDGE
 70
     3
  9
$SHADEDIF
 70
    70
  9
$TILEMODE
 70
     1
  9
$MAXACTVP
 70
    64
  9
$PINSBASE
 10
0.0
 20
0.0
 30
0.0
  9
$PLIMCHECK
 70
     0
  9
$PEXTMIN
 10
27.8447512626648
 20
20.24591643810271
 30
0.0
  9
$PEXTMAX
 10
250.6027613639831
 20
182.2132479429245
 30
0.0
  9
$PLIMMIN
 10
-3.757080078125
 20
-3.757083177566528
  9
$PLIMMAX
 10
293.2112426757813
 20
206.2162444591522
  9
$UNITMODE
 70
     0
  9
$VISRETAIN
 70
     1
  9
$PLINEGEN
 70
     0
  9
$PSLTSCALE
 70
     1
  9
$TREEDEPTH
 70
  3020
  9
$CMLSTYLE
  2
Standard
  9
$CMLJUST
 70
     0
  9
$CMLSCALE
 40
20.0
  9
$PROXYGRAPHICS
 70
     1
  9
$MEASUREMENT
 70
     1
  9
$CELWEIGHT
370
    -1
  9
$ENDCAPS
280
     0
  9
$JOINSTYLE
280
     0
  9
$LWDISPLAY
290
     0
  9
$INSUNITS
 70
     4
  9
$HYPERLINKBASE
  1

  9
$STYLESHEET
  1

  9
$XEDIT
290
     1
  9
$CEPSNTYPE
380
     0
  9
$PSTYLEMODE
290
     1
  9
$FINGERPRINTGUID
  2
{C8EA1F16-24C9-11D4-9416-CE0A3B32152F}
  9
$VERSIONGUID
  2
{2DD3CCA8-944F-409E-85F5-4A3622B25955}
  9
$EXTNAMES
290
     1
  9
$PSVPSCALE
 40
0.0
  9
$OLESTARTUP
290
     0
  0
ENDSEC
  0
SECTION
  2
CLASSES
  0
CLASS
  1
ACDBDICTIONARYWDFLT
  2
AcDbDictionaryWithDefault
  3
ObjectDBX Classes
 90
        0
280
     0
281
     0
  0
CLASS
  1
ACDBPLACEHOLDER
  2
AcDbPlaceHolder
  3
ObjectDBX Classes
 90
        0
280
     0
281
     0
  0
CLASS
  1
LAYOUT
  2
AcDbLayout
  3
ObjectDBX Classes
 90
        0
280
     0
281
     0
  0
CLASS
  1
TABLESTYLE
  2
AcDbTableStyle
  3
ObjectDBX Classes
 90
     2047
280
     0
281
     0
  0
CLASS
  1
DICTIONARYVAR
  2
AcDbDictionaryVar
  3
ObjectDBX Classes
 90
        0
280
     0
281
     0
  0
CLASS
  1
SORTENTSTABLE
  2
AcDbSortentsTable
  3
ObjectDBX Classes
 90
        0
280
     0
281
     0
  0
ENDSEC
  0
SECTION
  2
TABLES
  0
TABLE
  2
VPORT
  5
8
330
0
100
AcDbSymbolTable
 70
     2
  0
VPORT
  5
1240
330
8
100
AcDbSymbolTableRecord
100
AcDbViewportTableRecord
  2
*Active
 70
     0
 10
0.0
 20
0.0
 11
1.0
 21
1.0
 12
1447.520808113194
 22
1025.010256547708
 13
0.0
 23
0.0
 14
10.0
 24
10.0
 15
10.0
 25
10.0
 16
0.0
 26
0.0
 36
1.0
 17
0.0
 27
0.0
 37
0.0
 40
2130.995423834656
 41
1.29038112522686
 42
50.0
 43
0.0
 44
0.0
 50
0.0
 51
0.0
 71
     0
 72
   100
 73
     1
 74
     3
 75
     0
 76
     0
 77
     0
 78
     0
281
     0
 65
     1
110
0.0
120
0.0
130
0.0
111
1.0
121
0.0
131
0.0
112
0.0
122
1.0
132
0.0
 79
     0
146
0.0
  0
ENDTAB
  0
TABLE
  2
LTYPE
  5
5
330
0
100
AcDbSymbolTable
 70
    46
  0
LTYPE
  5
14
330
5
100
AcDbSymbolTableRecord
100
AcDbLinetypeTableRecord
  2
ByBlock
 70
     0
  3

 72
    65
 73
     0
 40
0.0
  0
LTYPE
  5
15
330
5
100
AcDbSymbolTableRecord
100
AcDbLinetypeTableRecord
  2
ByLayer
 70
     0
  3

 72
    65
 73
     0
 40
0.0
  0
LTYPE
  5
16
330
5
100
AcDbSymbolTableRecord
100
AcDbLinetypeTableRecord
  2
Continuous
 70
     0
  3
Solid line
 72
    65
 73
     0
 40
0.0
  0
LTYPE
  5
34
330
5
100
AcDbSymbolTableRecord
100
AcDbLinetypeTableRecord
  2
ACAD_ISO02W100
 70
     0
  3
ISO dash __ __ __ __ __ __ __ __ __ __ __ __ __
 72
    65
 73
     2
 40
15.0
 49
12.0
 74
     0
 49
-3.0
 74
     0
  0
LTYPE
  5
35
330
5
100
AcDbSymbolTableRecord
100
AcDbLinetypeTableRecord
  2
ACAD_ISO03W100
 70
     0
  3
ISO dash space __    __    __    __    __    __
 72
    65
 73
     2
 40
30.0
 49
12.0
 74
     0
 49
-18.0
 74
     0
  0
LTYPE
  5
36
330
5
100
AcDbSymbolTableRecord
100
AcDbLinetypeTableRecord
  2
ACAD_ISO04W100
 70
     0
  3
ISO long-dash dot ____ . ____ . ____ . ____ . _
 72
    65
 73
     4
 40
30.0
 49
24.0
 74
     0
 49
-3.0
 74
     0
 49
0.0
 74
     0
 49
-3.0
 74
     0
  0
LTYPE
  5
37
330
5
100
AcDbSymbolTableRecord
100
AcDbLinetypeTableRecord
  2
ACAD_ISO05W100
 70
     0
  3
ISO long-dash double-dot ____ .. ____ .. ____ .
 72
    65
 73
     6
 40
34.0
 49
24.0
 74
     0
 49
-3.0
 74
     0
 49
0.5
 74
     0
 49
-3.0
 74
     0
 49
0.5
 74
     0
 49
-3.0
 74
     0
  0
LTYPE
  5
38
330
5
100
AcDbSymbolTableRecord
100
AcDbLinetypeTableRecord
  2
ACAD_ISO06W100
 70
     0
  3
ISO long-dash triple-dot ____ ... ____ ... ____
 72
    65
 73
     8
 40
37.5
 49
24.0
 74
     0
 49
-3.0
 74
     0
 49
0.5
 74
     0
 49
-3.0
 74
     0
 49
0.5
 74
     0
 49
-3.0
 74
     0
 49
0.5
 74
     0
 49
-3.0
 74
     0
  0
LTYPE
  5
39
330
5
100
AcDbSymbolTableRecord
100
AcDbLinetypeTableRecord
  2
ACAD_ISO07W100
 70
     0
  3
ISO dot . . . . . . . . . . . . . . . . . . . .
 72
    65
 73
     2
 40
3.0
 49
0.0
 74
     0
 49
-3.0
 74
     0
  0
LTYPE
  5
3A
330
5
100
AcDbSymbolTableRecord
100
AcDbLinetypeTableRecord
  2
ACAD_ISO08W100
 70
     0
  3
ISO long-dash short-dash ____ __ ____ __ ____ _
 72
    65
 73
     4
 40
36.0
 49
24.0
 74
     0
 49
-3.0
 74
     0
 49
6.0
 74
     0
 49
-3.0
 74
     0
  0
LTYPE
  5
3B
330
5
100
AcDbSymbolTableRecord
100
AcDbLinetypeTableRecord
  2
ACAD_ISO09W100
 70
     0
  3
ISO long-dash double-short-dash ____ __ __ ____
 72
    65
 73
     6
 40
45.0
 49
24.0
 74
     0
 49
-3.0
 74
     0
 49
6.0
 74
     0
 49
-3.0
 74
     0
 49
6.0
 74
     0
 49
-3.0
 74
     0
  0
LTYPE
  5
3C
330
5
100
AcDbSymbolTableRecord
100
AcDbLinetypeTableRecord
  2
ACAD_ISO10W100
 70
     0
  3
ISO dash dot __ . __ . __ . __ . __ . __ . __ .
 72
    65
 73
     4
 40
18.0
 49
12.0
 74
     0
 49
-3.0
 74
     0
 49
0.0
 74
     0
 49
-3.0
 74
     0
  0
LTYPE
  5
3D
330
5
100
AcDbSymbolTableRecord
100
AcDbLinetypeTableRecord
  2
ACAD_ISO11W100
 70
     0
  3
ISO double-dash dot __ __ . __ __ . __ __ . __ 
 72
    65
 73
     6
 40
33.0
 49
12.0
 74
     0
 49
-3.0
 74
     0
 49
12.0
 74
     0
 49
-3.0
 74
     0
 49
0.0
 74
     0
 49
-3.0
 74
     0
  0
LTYPE
  5
3E
330
5
100
AcDbSymbolTableRecord
100
AcDbLinetypeTableRecord
  2
ACAD_ISO12W100
 70
     0
  3
ISO dash double-dot __ . . __ . . __ . . __ . .
 72
    65
 73
     6
 40
21.0
 49
12.0
 74
     0
 49
-3.0
 74
     0
 49
0.0
 74
     0
 49
-3.0
 74
     0
 49
0.0
 74
     0
 49
-3.0
 74
     0
  0
LTYPE
  5
3F
330
5
100
AcDbSymbolTableRecord
100
AcDbLinetypeTableRecord
  2
ACAD_ISO13W100
 70
     0
  3
ISO double-dash double-dot __ __ . . __ __ . . 
 72
    65
 73
     8
 40
36.0
 49
12.0
 74
     0
 49
-3.0
 74
     0
 49
12.0
 74
     0
 49
-3.0
 74
     0
 49
0.0
 74
     0
 49
-3.0
 74
     0
 49
0.0
 74
     0
 49
-3.0
 74
     0
  0
LTYPE
  5
40
330
5
100
AcDbSymbolTableRecord
100
AcDbLinetypeTableRecord
  2
ACAD_ISO14W100
 70
     0
  3
ISO dash triple-dot __ . . . __ . . . __ . . . 
 72
    65
 73
     8
 40
24.0
 49
12.0
 74
     0
 49
-3.0
 74
     0
 49
0.0
 74
     0
 49
-3.0
 74
     0
 49
0.0
 74
     0
 49
-3.0
 74
     0
 49
0.0
 74
     0
 49
-3.0
 74
     0
  0
LTYPE
  5
41
330
5
100
AcDbSymbolTableRecord
100
AcDbLinetypeTableRecord
  2
ACAD_ISO15W100
 70
     0
  3
ISO double-dash triple-dot __ __ . . . __ __ . 
 72
    65
 73
    10
 40
39.0
 49
12.0
 74
     0
 49
-3.0
 74
     0
 49
12.0
 74
     0
 49
-3.0
 74
     0
 49
0.0
 74
     0
 49
-3.0
 74
     0
 49
0.0
 74
     0
 49
-3.0
 74
     0
 49
0.0
 74
     0
 49
-3.0
 74
     0
  0
LTYPE
  5
42
330
5
100
AcDbSymbolTableRecord
100
AcDbLinetypeTableRecord
  2
BATTING
 70
     0
  3
Batting SSSSSSSSSSSSSSSSSSSSSSSSSSSSSSSSSSSSSSS
 72
    65
 73
     4
 40
10.16254
 49
0.00254
 74
     0
 49
-2.54
 74
     4
 75
   134
340
33
 46
2.54
 50
0.0
 44
-2.54
 45
0.0
 49
-5.08
 74
     4
 75
   134
340
33
 46
2.54
 50
180.0
 44
2.54
 45
0.0
 49
-2.54
 74
     0
  0
LTYPE
  5
43
330
5
100
AcDbSymbolTableRecord
100
AcDbLinetypeTableRecord
  2
BORDER
 70
     0
  3
Border __ __ . __ __ . __ __ . __ __ . __ __ .
 72
    65
 73
     6
 40
44.45
 49
12.7
 74
     0
 49
-6.349999999999999
 74
     0
 49
12.7
 74
     0
 49
-6.349999999999999
 74
     0
 49
0.0
 74
     0
 49
-6.349999999999999
 74
     0
  0
LTYPE
  5
44
330
5
100
AcDbSymbolTableRecord
100
AcDbLinetypeTableRecord
  2
BORDER2
 70
     0
  3
Border (.5x) __.__.__.__.__.__.__.__.__.__.__.
 72
    65
 73
     6
 40
22.225
 49
6.349999999999999
 74
     0
 49
-3.174999999999999
 74
     0
 49
6.349999999999999
 74
     0
 49
-3.174999999999999
 74
     0
 49
0.0
 74
     0
 49
-3.174999999999999
 74
     0
  0
LTYPE
  5
45
330
5
100
AcDbSymbolTableRecord
100
AcDbLinetypeTableRecord
  2
BORDERX2
 70
     0
  3
Border (2x) ____  ____  .  ____  ____  .  ___
 72
    65
 73
     6
 40
88.9
 49
25.4
 74
     0
 49
-12.7
 74
     0
 49
25.4
 74
     0
 49
-12.7
 74
     0
 49
0.0
 74
     0
 49
-12.7
 74
     0
  0
LTYPE
  5
46
330
5
100
AcDbSymbolTableRecord
100
AcDbLinetypeTableRecord
  2
CENTER
 70
     0
  3
Center ____ _ ____ _ ____ _ ____ _ ____ _ ____
 72
    65
 73
     4
 40
50.8
 49
31.75
 74
     0
 49
-6.349999999999999
 74
     0
 49
6.349999999999999
 74
     0
 49
-6.349999999999999
 74
     0
  0
LTYPE
  5
47
330
5
100
AcDbSymbolTableRecord
100
AcDbLinetypeTableRecord
  2
CENTER2
 70
     0
  3
Center (.5x) ___ _ ___ _ ___ _ ___ _ ___ _ ___
 72
    65
 73
     4
 40
28.575
 49
19.05
 74
     0
 49
-3.174999999999999
 74
     0
 49
3.174999999999999
 74
     0
 49
-3.174999999999999
 74
     0
  0
LTYPE
  5
48
330
5
100
AcDbSymbolTableRecord
100
AcDbLinetypeTableRecord
  2
CENTERX2
 70
     0
  3
Center (2x) ________  __  ________  __  _____
 72
    65
 73
     4
 40
101.6
 49
63.5
 74
     0
 49
-12.7
 74
     0
 49
12.7
 74
     0
 49
-12.7
 74
     0
  0
LTYPE
  5
49
330
5
100
AcDbSymbolTableRecord
100
AcDbLinetypeTableRecord
  2
DASHDOT
 70
     0
  3
Dash dot __ . __ . __ . __ . __ . __ . __ . __
 72
    65
 73
     4
 40
25.4
 49
12.7
 74
     0
 49
-6.349999999999999
 74
     0
 49
0.0
 74
     0
 49
-6.349999999999999
 74
     0
  0
LTYPE
  5
4A
330
5
100
AcDbSymbolTableRecord
100
AcDbLinetypeTableRecord
  2
DASHDOT2
 70
     0
  3
Dash dot (.5x) _._._._._._._._._._._._._._._.
 72
    65
 73
     4
 40
12.7
 49
6.349999999999999
 74
     0
 49
-3.174999999999999
 74
     0
 49
0.0
 74
     0
 49
-3.174999999999999
 74
     0
  0
LTYPE
  5
4B
330
5
100
AcDbSymbolTableRecord
100
AcDbLinetypeTableRecord
  2
DASHDOTX2
 70
     0
  3
Dash dot (2x) ____  .  ____  .  ____  .  ___
 72
    65
 73
     4
 40
50.8
 49
25.4
 74
     0
 49
-12.7
 74
     0
 49
0.0
 74
     0
 49
-12.7
 74
     0
  0
LTYPE
  5
4C
330
5
100
AcDbSymbolTableRecord
100
AcDbLinetypeTableRecord
  2
DASHED
 70
     0
  3
Dashed __ __ __ __ __ __ __ __ __ __ __ __ __ _
 72
    65
 73
     2
 40
19.05
 49
12.7
 74
     0
 49
-6.349999999999999
 74
     0
  0
LTYPE
  5
4D
330
5
100
AcDbSymbolTableRecord
100
AcDbLinetypeTableRecord
  2
DASHED2
 70
     0
  3
Dashed (.5x) _ _ _ _ _ _ _ _ _ _ _ _ _ _ _ _ _
 72
    65
 73
     2
 40
9.524999999999998
 49
6.349999999999999
 74
     0
 49
-3.174999999999999
 74
     0
  0
LTYPE
  5
4E
330
5
100
AcDbSymbolTableRecord
100
AcDbLinetypeTableRecord
  2
DASHEDX2
 70
     0
  3
Dashed (2x) ____  ____  ____  ____  ____  ___
 72
    65
 73
     2
 40
38.1
 49
25.4
 74
     0
 49
-12.7
 74
     0
  0
LTYPE
  5
4F
330
5
100
AcDbSymbolTableRecord
100
AcDbLinetypeTableRecord
  2
DIVIDE
 70
     0
  3
Divide ____ . . ____ . . ____ . . ____ . . ____
 72
    65
 73
     6
 40
31.75
 49
12.7
 74
     0
 49
-6.349999999999999
 74
     0
 49
0.0
 74
     0
 49
-6.349999999999999
 74
     0
 49
0.0
 74
     0
 49
-6.349999999999999
 74
     0
  0
LTYPE
  5
50
330
5
100
AcDbSymbolTableRecord
100
AcDbLinetypeTableRecord
  2
DIVIDE2
 70
     0
  3
Divide (.5x) __..__..__..__..__..__..__..__.._
 72
    65
 73
     6
 40
15.875
 49
6.349999999999999
 74
     0
 49
-3.174999999999999
 74
     0
 49
0.0
 74
     0
 49
-3.174999999999999
 74
     0
 49
0.0
 74
     0
 49
-3.174999999999999
 74
     0
  0
LTYPE
  5
51
330
5
100
AcDbSymbolTableRecord
100
AcDbLinetypeTableRecord
  2
DIVIDEX2
 70
     0
  3
Divide (2x) ________  .  .  ________  .  .  _
 72
    65
 73
     6
 40
63.49999999999999
 49
25.4
 74
     0
 49
-12.7
 74
     0
 49
0.0
 74
     0
 49
-12.7
 74
     0
 49
0.0
 74
     0
 49
-12.7
 74
     0
  0
LTYPE
  5
52
330
5
100
AcDbSymbolTableRecord
100
AcDbLinetypeTableRecord
  2
DOT
 70
     0
  3
Dot . . . . . . . . . . . . . . . . . . . . . .
 72
    65
 73
     2
 40
6.349999999999999
 49
0.0
 74
     0
 49
-6.349999999999999
 74
     0
  0
LTYPE
  5
53
330
5
100
AcDbSymbolTableRecord
100
AcDbLinetypeTableRecord
  2
DOT2
 70
     0
  3
Dot (.5x) .....................................
 72
    65
 73
     2
 40
3.174999999999999
 49
0.0
 74
     0
 49
-3.174999999999999
 74
     0
  0
LTYPE
  5
54
330
5
100
AcDbSymbolTableRecord
100
AcDbLinetypeTableRecord
  2
DOTX2
 70
     0
  3
Dot (2x) .  .  .  .  .  .  .  .  .  .  .  .  . 
 72
    65
 73
     2
 40
12.7
 49
0.0
 74
     0
 49
-12.7
 74
     0
  0
LTYPE
  5
55
330
5
100
AcDbSymbolTableRecord
100
AcDbLinetypeTableRecord
  2
FENCELINE1
 70
     0
  3
Fenceline circle ----0-----0----0-----0----0---
 72
    65
 73
     4
 40
36.83
 49
6.349999999999999
 74
     0
 49
-2.54
 74
     4
 75
   133
340
33
 46
2.54
 50
0.0
 44
-2.54
 45
0.0
 49
-2.54
 74
     0
 49
25.4
 74
     0
  0
LTYPE
  5
56
330
5
100
AcDbSymbolTableRecord
100
AcDbLinetypeTableRecord
  2
FENCELINE2
 70
     0
  3
Fenceline square ----[]-----[]----[]-----[]----
 72
    65
 73
     4
 40
36.83
 49
6.349999999999999
 74
     0
 49
-2.54
 74
     4
 75
   132
340
33
 46
2.54
 50
0.0
 44
-2.54
 45
0.0
 49
-2.54
 74
     0
 49
25.4
 74
     0
  0
LTYPE
  5
57
330
5
100
AcDbSymbolTableRecord
100
AcDbLinetypeTableRecord
  2
GAS_LINE
 70
     0
  3
Gas line ----GAS----GAS----GAS----GAS----GAS---
 72
    65
 73
     3
 40
24.13
 49
12.7
 74
     0
 49
-5.08
 74
     2
 75
     0
340
11
 46
2.54
 50
0.0
 44
-2.54
 45
-1.27
  9
GAS
 49
-6.349999999999999
 74
     0
  0
LTYPE
  5
58
330
5
100
AcDbSymbolTableRecord
100
AcDbLinetypeTableRecord
  2
HIDDEN
 70
     0
  3
Hidden __ __ __ __ __ __ __ __ __ __ __ __ __ _
 72
    65
 73
     2
 40
9.524999999999998
 49
6.349999999999999
 74
     0
 49
-3.174999999999999
 74
     0
  0
LTYPE
  5
59
330
5
100
AcDbSymbolTableRecord
100
AcDbLinetypeTableRecord
  2
HIDDEN2
 70
     0
  3
Hidden (.5x) _ _ _ _ _ _ _ _ _ _ _ _ _ _ _ _ _
 72
    65
 73
     2
 40
4.762499999999999
 49
3.174999999999999
 74
     0
 49
-1.587499999999999
 74
     0
  0
LTYPE
  5
5A
330
5
100
AcDbSymbolTableRecord
100
AcDbLinetypeTableRecord
  2
HIDDENX2
 70
     0
  3
Hidden (2x) ____ ____ ____ ____ ____ ____ ____
 72
    65
 73
     2
 40
19.05
 49
12.7
 74
     0
 49
-6.349999999999999
 74
     0
  0
LTYPE
  5
5B
330
5
100
AcDbSymbolTableRecord
100
AcDbLinetypeTableRecord
  2
HOT_WATER_SUPPLY
 70
     0
  3
Hot water supply ---- HW ---- HW ---- HW ----
 72
    65
 73
     3
 40
22.86
 49
12.7
 74
     0
 49
-5.08
 74
     2
 75
     0
340
11
 46
2.54
 50
0.0
 44
-2.54
 45
-1.27
  9
HW
 49
-5.08
 74
     0
  0
LTYPE
  5
5C
330
5
100
AcDbSymbolTableRecord
100
AcDbLinetypeTableRecord
  2
PHANTOM
 70
     0
  3
Phantom ______  __  __  ______  __  __  ______
 72
    65
 73
     6
 40
63.5
 49
31.75
 74
     0
 49
-6.349999999999999
 74
     0
 49
6.349999999999999
 74
     0
 49
-6.349999999999999
 74
     0
 49
6.349999999999999
 74
     0
 49
-6.349999999999999
 74
     0
  0
LTYPE
  5
5D
330
5
100
AcDbSymbolTableRecord
100
AcDbLinetypeTableRecord
  2
PHANTOM2
 70
     0
  3
Phantom (.5x) ___ _ _ ___ _ _ ___ _ _ ___ _ _
 72
    65
 73
     6
 40
31.75
 49
15.875
 74
     0
 49
-3.174999999999999
 74
     0
 49
3.174999999999999
 74
     0
 49
-3.174999999999999
 74
     0
 49
3.174999999999999
 74
     0
 49
-3.174999999999999
 74
     0
  0
LTYPE
  5
5E
330
5
100
AcDbSymbolTableRecord
100
AcDbLinetypeTableRecord
  2
PHANTOMX2
 70
     0
  3
Phantom (2x) ____________    ____    ____   _
 72
    65
 73
     6
 40
127.0
 49
63.5
 74
     0
 49
-12.7
 74
     0
 49
12.7
 74
     0
 49
-12.7
 74
     0
 49
12.7
 74
     0
 49
-12.7
 74
     0
  0
LTYPE
  5
5F
330
5
100
AcDbSymbolTableRecord
100
AcDbLinetypeTableRecord
  2
TRACKS
 70
     0
  3
Tracks -|-|-|-|-|-|-|-|-|-|-|-|-|-|-|-|-|-|-|-|
 72
    65
 73
     2
 40
7.62
 49
3.81
 74
     4
 75
   130
340
33
 46
6.349999999999999
 50
0.0
 44
0.0
 45
0.0
 49
3.81
 74
     0
  0
LTYPE
  5
60
330
5
100
AcDbSymbolTableRecord
100
AcDbLinetypeTableRecord
  2
ZIGZAG
 70
     0
  3
Zig zag /\/\/\/\/\/\/\/\/\/\/\/\/\/\/\/\/\/\/\/
 72
    65
 73
     4
 40
20.32254
 49
0.00254
 74
     0
 49
-5.08
 74
     4
 75
   131
340
33
 46
5.08
 50
0.0
 44
-5.08
 45
0.0
 49
-10.16
 74
     4
 75
   131
340
33
 46
5.08
 50
180.0
 44
5.08
 45
0.0
 49
-5.08
 74
     0
  0
ENDTAB
  0
TABLE
  2
LAYER
  5
2
102
{ACAD_XDICTIONARY
360
E11
102
}
330
0
100
AcDbSymbolTable
 70
     8
  0
LAYER
  5
10
330
2
100
AcDbSymbolTableRecord
100
AcDbLayerTableRecord
  2
0
 70
     0
 62
     7
  6
Continuous
370
    -3
390
F
  0
LAYER
  5
C3
330
2
100
AcDbSymbolTableRecord
100
AcDbLayerTableRecord
  2
Defpoints
 70
     0
 62
     7
  6
Continuous
290
     0
370
    -3
390
F
  0
LAYER
  5
256
330
2
100
AcDbSymbolTableRecord
100
AcDbLayerTableRecord
  2
センター
 70
     0
 62
     7
  6
CENTER2
370
    18
390
F
  0
LAYER
  5
268
330
2
100
AcDbSymbolTableRecord
100
AcDbLayerTableRecord
  2
実形
 70
     0
 62
     7
  6
Continuous
370
    -3
390
F
  0
LAYER
  5
269
330
2
100
AcDbSymbolTableRecord
100
AcDbLayerTableRecord
  2
補助
 70
     0
 62
     7
  6
Continuous
370
    -3
390
F
  0
LAYER
  5
26A
330
2
100
AcDbSymbolTableRecord
100
AcDbLayerTableRecord
  2
寸法
 70
     0
 62
     7
  6
Continuous
370
    18
390
F
  0
LAYER
  5
26B
330
2
100
AcDbSymbolTableRecord
100
AcDbLayerTableRecord
  2
ハッチング
 70
     0
 62
     7
  6
Continuous
370
    18
390
F
  0
LAYER
  5
26D
330
2
100
AcDbSymbolTableRecord
100
AcDbLayerTableRecord
  2
文字
 70
     0
 62
     7
  6
Continuous
370
    -3
390
F
  0
ENDTAB
  0
TABLE
  2
STYLE
  5
3
330
0
100
AcDbSymbolTable
 70
     4
  0
STYLE
  5
11
330
3
100
AcDbSymbolTableRecord
100
AcDbTextStyleTableRecord
  2
Standard
 70
     0
 40
0.0
 41
1.0
 50
0.0
 71
     0
 42
25.0
  3
txt.shx
  4
bigfont.shx
  0
STYLE
  5
33
330
3
100
AcDbSymbolTableRecord
100
AcDbTextStyleTableRecord
  2

 70
     1
 40
0.0
 41
1.0
 50
0.0
 71
     0
 42
2.5
  3
ltypeshp.shx
  4

  0
STYLE
  5
1111
330
3
100
AcDbSymbolTableRecord
100
AcDbTextStyleTableRecord
  2
MS明朝
 70
     0
 40
0.0
 41
1.0
 50
0.0
 71
     0
 42
25.0
  3
MS PMincho.ttf
  4

1001
ACAD
1000
MS PMincho
1071
    32786
  0
STYLE
  5
11C9
330
3
100
AcDbSymbolTableRecord
100
AcDbTextStyleTableRecord
  2
明朝
 70
     0
 40
0.0
 41
1.0
 50
0.0
 71
     0
 42
25.0
  3
MS Mincho.ttf
  4

1001
ACAD
1000
MS Mincho
1071
    32785
  0
ENDTAB
  0
TABLE
  2
VIEW
  5
6
330
0
100
AcDbSymbolTable
 70
     0
  0
ENDTAB
  0
TABLE
  2
UCS
  5
7
330
0
100
AcDbSymbolTable
 70
     0
  0
ENDTAB
  0
TABLE
  2
APPID
  5
9
330
0
100
AcDbSymbolTable
 70
     2
  0
APPID
  5
12
330
9
100
AcDbSymbolTableRecord
100
AcDbRegAppTableRecord
  2
ACAD
 70
     0
  0
APPID
  5
E10
330
9
100
AcDbSymbolTableRecord
100
AcDbRegAppTableRecord
  2
ACAD_PSEXT
 70
     0
  0
ENDTAB
  0
TABLE
  2
DIMSTYLE
  5
A
330
0
100
AcDbSymbolTable
 70
     1
100
AcDbDimStyleTable
 71
     1
340
27
  0
DIMSTYLE
105
27
102
{ACAD_REACTORS
330
368
330
44B
330
458
330
4A3
330
569
330
57F
330
35B
330
3CE
330
43D
330
3E9
330
3DC
330
3F6
330
4F8
330
505
330
1154
102
}
330
A
100
AcDbSymbolTableRecord
100
AcDbDimStyleTableRecord
  2
ISO-25
 70
     0
 41
35.0
 42
65.0
 43
3.75
 44
0.0
 73
     0
 74
     0
 77
     1
 78
     8
140
25.0
141
2.5
143
0.03937007874016
147
6.25
171
     3
172
     1
271
     2
272
     2
274
     3
283
     0
284
     8
340
11
341
DA
342
D0
371
    15
372
    15
  0
ENDTAB
  0
TABLE
  2
BLOCK_RECORD
  5
1
330
0
100
AcDbSymbolTable
 70
    21
  0
BLOCK_RECORD
  5
1F
102
{ACAD_XDICTIONARY
360
10EE
102
}
330
1
100
AcDbSymbolTableRecord
100
AcDbBlockTableRecord
  2
*Model_Space
340
22
  0
BLOCK_RECORD
  5
1B
330
1
100
AcDbSymbolTableRecord
100
AcDbBlockTableRecord
  2
*Paper_Space
340
1E
  0
BLOCK_RECORD
  5
23
330
1
100
AcDbSymbolTableRecord
100
AcDbBlockTableRecord
  2
*Paper_Space0
340
26
  0
BLOCK_RECORD
  5
D0
330
1
100
AcDbSymbolTableRecord
100
AcDbBlockTableRecord
  2
_DotSmall
340
0
102
{BLKREFS
331
1007
331
1008
331
1019
331
101A
331
1022
331
1023
331
102B
331
102C
331
1034
331
1035
331
103C
331
103D
331
1046
331
1047
331
104E
331
104F
331
1058
331
1059
331
1060
331
1061
331
1069
331
106A
331
1071
331
1072
331
107A
331
107B
331
1083
331
1084
331
115A
331
115B
102
}
  0
BLOCK_RECORD
  5
D4
330
1
100
AcDbSymbolTableRecord
100
AcDbBlockTableRecord
  2
_Origin2
340
0
  0
BLOCK_RECORD
  5
DA
330
1
100
AcDbSymbolTableRecord
100
AcDbBlockTableRecord
  2
_Open30
340
0
  0
BLOCK_RECORD
  5
35C
330
1
100
AcDbSymbolTableRecord
100
AcDbBlockTableRecord
  2
*D4
340
0
  0
BLOCK_RECORD
  5
369
330
1
100
AcDbSymbolTableRecord
100
AcDbBlockTableRecord
  2
*D5
340
0
  0
BLOCK_RECORD
  5
3CF
330
1
100
AcDbSymbolTableRecord
100
AcDbBlockTableRecord
  2
*D6
340
0
  0
BLOCK_RECORD
  5
3DD
330
1
100
AcDbSymbolTableRecord
100
AcDbBlockTableRecord
  2
*D7
340
0
  0
BLOCK_RECORD
  5
3EA
330
1
100
AcDbSymbolTableRecord
100
AcDbBlockTableRecord
  2
*D8
340
0
  0
BLOCK_RECORD
  5
3F7
330
1
100
AcDbSymbolTableRecord
100
AcDbBlockTableRecord
  2
*D9
340
0
  0
BLOCK_RECORD
  5
43E
330
1
100
AcDbSymbolTableRecord
100
AcDbBlockTableRecord
  2
*D10
340
0
  0
BLOCK_RECORD
  5
44C
330
1
100
AcDbSymbolTableRecord
100
AcDbBlockTableRecord
  2
*D11
340
0
  0
BLOCK_RECORD
  5
459
330
1
100
AcDbSymbolTableRecord
100
AcDbBlockTableRecord
  2
*D12
340
0
  0
BLOCK_RECORD
  5
4A4
330
1
100
AcDbSymbolTableRecord
100
AcDbBlockTableRecord
  2
*D13
340
0
  0
BLOCK_RECORD
  5
4F9
330
1
100
AcDbSymbolTableRecord
100
AcDbBlockTableRecord
  2
*D14
340
0
  0
BLOCK_RECORD
  5
506
330
1
100
AcDbSymbolTableRecord
100
AcDbBlockTableRecord
  2
*D15
340
0
  0
BLOCK_RECORD
  5
56A
330
1
100
AcDbSymbolTableRecord
100
AcDbBlockTableRecord
  2
*D16
340
0
  0
BLOCK_RECORD
  5
580
330
1
100
AcDbSymbolTableRecord
100
AcDbBlockTableRecord
  2
*D17
340
0
  0
BLOCK_RECORD
  5
EF1
330
1
100
AcDbSymbolTableRecord
100
AcDbBlockTableRecord
  2
A$C7AE77685
340
0
  0
BLOCK_RECORD
  5
EF6
330
1
100
AcDbSymbolTableRecord
100
AcDbBlockTableRecord
  2
A$C1C5F30A7
340
0
  0
BLOCK_RECORD
  5
1155
330
1
100
AcDbSymbolTableRecord
100
AcDbBlockTableRecord
  2
*D20
340
0
  0
ENDTAB
  0
ENDSEC
  0
SECTION
  2
BLOCKS
  0
BLOCK
  5
20
330
1F
100
AcDbEntity
  8
0
100
AcDbBlockBegin
  2
*Model_Space
 70
     0
 10
0.0
 20
0.0
 30
0.0
  3
*Model_Space
  1

  0
ENDBLK
  5
21
330
1F
100
AcDbEntity
  8
0
100
AcDbBlockEnd
  0
BLOCK
  5
1C
330
1B
100
AcDbEntity
 67
     1
  8
0
100
AcDbBlockBegin
  2
*Paper_Space
 70
     0
 10
0.0
 20
0.0
 30
0.0
  3
*Paper_Space
  1

  0
ENDBLK
  5
1D
330
1B
100
AcDbEntity
 67
     1
  8
0
100
AcDbBlockEnd
  0
BLOCK
  5
24
330
23
100
AcDbEntity
  8
0
100
AcDbBlockBegin
  2
*Paper_Space0
 70
     0
 10
0.0
 20
0.0
 30
0.0
  3
*Paper_Space0
  1

  0
ENDBLK
  5
25
330
23
100
AcDbEntity
  8
0
100
AcDbBlockEnd
  0
BLOCK
  5
D2
330
D0
100
AcDbEntity
  8
0
100
AcDbBlockBegin
  2
_DotSmall
 70
     0
 10
0.0
 20
0.0
 30
0.0
  3
_DotSmall
  1

  0
LWPOLYLINE
  5
D1
330
D0
100
AcDbEntity
  8
0
 62
     0
100
AcDbPolyline
 90
        2
 70
     1
 43
0.5
 10
-0.0625
 20
0.0
 42
1.0
 10
0.0625
 20
0.0
 42
1.0
  0
ENDBLK
  5
D3
330
D0
100
AcDbEntity
  8
0
100
AcDbBlockEnd
  0
BLOCK
  5
D8
330
D4
100
AcDbEntity
  8
0
100
AcDbBlockBegin
  2
_Origin2
 70
     0
 10
0.0
 20
0.0
 30
0.0
  3
_Origin2
  1

  0
CIRCLE
  5
D5
330
D4
100
AcDbEntity
  8
0
 62
     0
370
    -2
100
AcDbCircle
 10
0.0
 20
0.0
 30
0.0
 40
0.5
  0
CIRCLE
  5
D6
330
D4
100
AcDbEntity
  8
0
 62
     0
370
    -2
100
AcDbCircle
 10
0.0
 20
0.0
 30
0.0
 40
0.25
  0
LINE
  5
D7
330
D4
100
AcDbEntity
  8
0
 62
     0
370
    -2
100
AcDbLine
 10
-0.5
 20
0.0
 30
0.0
 11
-1.0
 21
0.0
 31
0.0
  0
ENDBLK
  5
D9
330
D4
100
AcDbEntity
  8
0
100
AcDbBlockEnd
  0
BLOCK
  5
DE
330
DA
100
AcDbEntity
  8
0
100
AcDbBlockBegin
  2
_Open30
 70
     0
 10
0.0
 20
0.0
 30
0.0
  3
_Open30
  1

  0
LINE
  5
DB
330
DA
100
AcDbEntity
  8
0
 62
     0
370
    -2
100
AcDbLine
 10
-1.0
 20
0.26794919
 30
0.0
 11
0.0
 21
0.0
 31
0.0
  0
LINE
  5
DC
330
DA
100
AcDbEntity
  8
0
 62
     0
370
    -2
100
AcDbLine
 10
0.0
 20
0.0
 30
0.0
 11
-1.0
 21
-0.26794919
 31
0.0
  0
LINE
  5
DD
330
DA
100
AcDbEntity
  8
0
 62
     0
370
    -2
100
AcDbLine
 10
0.0
 20
0.0
 30
0.0
 11
-1.0
 21
0.0
 31
0.0
  0
ENDBLK
  5
DF
330
DA
100
AcDbEntity
  8
0
100
AcDbBlockEnd
  0
BLOCK
  5
366
330
35C
100
AcDbEntity
  8
0
100
AcDbBlockBegin
  2
*D4
 70
     1
 10
0.0
 20
0.0
 30
0.0
  3
*D4
  1

  0
LINE
  5
1077
330
35C
100
AcDbEntity
  8
実形
 62
     0
370
    15
100
AcDbLine
 10
782.4564365682308
 20
1671.242840796207
 30
0.0
 11
782.4564365682308
 21
1814.545958959615
 31
0.0
  0
LINE
  5
1078
330
35C
100
AcDbEntity
  8
実形
 62
     0
370
    15
100
AcDbLine
 10
632.4564365682308
 20
1580.742840796207
 30
0.0
 11
632.4564365682308
 21
1814.545958959615
 31
0.0
  0
LINE
  5
1079
330
35C
100
AcDbEntity
  8
実形
 62
     0
370
    18
100
AcDbLine
 10
782.4564365682308
 20
1814.545958959615
 30
0.0
 11
632.4564365682308
 21
1814.545958959615
 31
0.0
  0
INSERT
  5
107A
330
35C
100
AcDbEntity
  8
実形
 62
     0
370
    18
100
AcDbBlockReference
  2
_DotSmall
 10
782.4564365682308
 20
1814.545958959615
 30
0.0
 41
25.0
 42
25.0
 43
25.0
  0
INSERT
  5
107B
330
35C
100
AcDbEntity
  8
実形
 62
     0
370
    18
100
AcDbBlockReference
  2
_DotSmall
 10
632.4564365682308
 20
1814.545958959615
 30
0.0
 41
25.0
 42
25.0
 43
25.0
 50
180.0
  0
MTEXT
  5
107C
330
35C
100
AcDbEntity
  8
実形
 62
     0
100
AcDbMText
 10
707.4564365682308
 20
1833.295958959615
 30
0.0
 40
25.0
 41
0.0
 71
     5
 72
     1
  1
150
 73
     1
 44
1.0
1001
ACAD
1000
MTEXTBEGIN
1070
    73
1070
     1
1070
    44
1040
1.0
1070
    74
1070
     0
1000
MTEXTEND
  0
POINT
  5
107D
330
35C
100
AcDbEntity
  8
Defpoints
 62
     0
100
AcDbPoint
 10
782.4564365682308
 20
1606.242840796207
 30
0.0
  0
POINT
  5
107E
330
35C
100
AcDbEntity
  8
Defpoints
 62
     0
100
AcDbPoint
 10
632.4564365682308
 20
1515.742840796207
 30
0.0
  0
POINT
  5
107F
330
35C
100
AcDbEntity
  8
Defpoints
 62
     0
100
AcDbPoint
 10
632.4564365682308
 20
1814.545958959615
 30
0.0
  0
ENDBLK
  5
367
330
35C
100
AcDbEntity
  8
0
100
AcDbBlockEnd
  0
BLOCK
  5
373
330
369
100
AcDbEntity
  8
0
100
AcDbBlockBegin
  2
*D5
 70
     1
 10
0.0
 20
0.0
 30
0.0
  3
*D5
  1

  0
LINE
  5
106E
330
369
100
AcDbEntity
  8
実形
 62
     0
370
    15
100
AcDbLine
 10
937.9564365682309
 20
1515.742840796207
 30
0.0
 11
997.4564365682308
 21
1515.742840796207
 31
0.0
  0
LINE
  5
106F
330
369
100
AcDbEntity
  8
実形
 62
     0
370
    15
100
AcDbLine
 10
994.0722175113723
 20
1720.742840796207
 30
0.0
 11
997.4564365682308
 21
1720.742840796207
 31
0.0
  0
LINE
  5
1070
330
369
100
AcDbEntity
  8
実形
 62
     0
370
    18
100
AcDbLine
 10
997.4564365682308
 20
1515.742840796207
 30
0.0
 11
997.4564365682308
 21
1720.742840796207
 31
0.0
  0
INSERT
  5
1071
330
369
100
AcDbEntity
  8
実形
 62
     0
370
    18
100
AcDbBlockReference
  2
_DotSmall
 10
997.4564365682308
 20
1515.742840796207
 30
0.0
 41
25.0
 42
25.0
 43
25.0
 50
270.0
  0
INSERT
  5
1072
330
369
100
AcDbEntity
  8
実形
 62
     0
370
    18
100
AcDbBlockReference
  2
_DotSmall
 10
997.4564365682308
 20
1720.742840796207
 30
0.0
 41
25.0
 42
25.0
 43
25.0
 50
90.0
  0
MTEXT
  5
1073
330
369
100
AcDbEntity
  8
実形
 62
     0
100
AcDbMText
 10
978.7064365682306
 20
1618.242840796207
 30
0.0
 40
25.0
 41
0.0
 71
     5
 72
     1
  1
205
 11
0.0000000000000001
 21
1.0
 31
0.0
 73
     1
 44
1.0
1001
ACAD
1000
MTEXTBEGIN
1070
    73
1070
     1
1070
    44
1040
1.0
1070
    74
1070
     0
1000
MTEXTEND
  0
POINT
  5
1074
330
369
100
AcDbEntity
  8
Defpoints
 62
     0
100
AcDbPoint
 10
872.9564365682309
 20
1515.742840796207
 30
0.0
  0
POINT
  5
1075
330
369
100
AcDbEntity
  8
Defpoints
 62
     0
100
AcDbPoint
 10
1059.072217511372
 20
1720.742840796207
 30
0.0
  0
POINT
  5
1076
330
369
100
AcDbEntity
  8
Defpoints
 62
     0
100
AcDbPoint
 10
997.4564365682308
 20
1720.742840796207
 30
0.0
  0
ENDBLK
  5
374
330
369
100
AcDbEntity
  8
0
100
AcDbBlockEnd
  0
BLOCK
  5
3DA
330
3CF
100
AcDbEntity
  8
0
100
AcDbBlockBegin
  2
*D6
 70
     1
 10
0.0
 20
0.0
 30
0.0
  3
*D6
  1

  0
LINE
  5
1066
330
3CF
100
AcDbEntity
  8
実形
 62
     0
370
    15
100
AcDbLine
 10
552.4564365682308
 20
1735.742840796207
 30
0.0
 11
474.2811218443575
 21
1735.742840796207
 31
0.0
  0
LINE
  5
1067
330
3CF
100
AcDbEntity
  8
実形
 62
     0
370
    15
100
AcDbLine
 10
552.4564365682308
 20
1720.742840796207
 30
0.0
 11
474.2811218443575
 21
1720.742840796207
 31
0.0
  0
LINE
  5
1068
330
3CF
100
AcDbEntity
  8
実形
 62
     0
370
    18
100
AcDbLine
 10
474.2811218443575
 20
1735.742840796207
 30
0.0
 11
474.2811218443575
 21
1720.742840796207
 31
0.0
  0
INSERT
  5
1069
330
3CF
100
AcDbEntity
  8
実形
 62
     0
370
    18
100
AcDbBlockReference
  2
_DotSmall
 10
474.2811218443575
 20
1735.742840796207
 30
0.0
 41
25.0
 42
25.0
 43
25.0
 50
90.0
  0
INSERT
  5
106A
330
3CF
100
AcDbEntity
  8
実形
 62
     0
370
    18
100
AcDbBlockReference
  2
_DotSmall
 10
474.2811218443575
 20
1720.742840796207
 30
0.0
 41
25.0
 42
25.0
 43
25.0
 50
270.0
  0
POINT
  5
106B
330
3CF
100
AcDbEntity
  8
Defpoints
 62
     0
100
AcDbPoint
 10
617.4564365682308
 20
1735.742840796207
 30
0.0
  0
POINT
  5
106C
330
3CF
100
AcDbEntity
  8
Defpoints
 62
     0
100
AcDbPoint
 10
617.4564365682308
 20
1720.742840796207
 30
0.0
  0
POINT
  5
106D
330
3CF
100
AcDbEntity
  8
Defpoints
 62
     0
100
AcDbPoint
 10
474.2811218443575
 20
1720.742840796207
 30
0.0
  0
ENDBLK
  5
3DB
330
3CF
100
AcDbEntity
  8
0
100
AcDbBlockEnd
  0
BLOCK
  5
3E7
330
3DD
100
AcDbEntity
  8
0
100
AcDbBlockBegin
  2
*D7
 70
     1
 10
0.0
 20
0.0
 30
0.0
  3
*D7
  1

  0
LINE
  5
105D
330
3DD
100
AcDbEntity
  8
実形
 62
     0
370
    15
100
AcDbLine
 10
552.4564365682308
 20
1720.742840796207
 30
0.0
 11
474.2811218443576
 21
1720.742840796207
 31
0.0
  0
LINE
  5
105E
330
3DD
100
AcDbEntity
  8
実形
 62
     0
370
    15
100
AcDbLine
 10
552.4564365682308
 20
1310.742840796207
 30
0.0
 11
474.2811218443575
 21
1310.742840796207
 31
0.0
  0
LINE
  5
105F
330
3DD
100
AcDbEntity
  8
実形
 62
     0
370
    18
100
AcDbLine
 10
474.2811218443576
 20
1720.742840796207
 30
0.0
 11
474.2811218443575
 21
1310.742840796207
 31
0.0
  0
INSERT
  5
1060
330
3DD
100
AcDbEntity
  8
実形
 62
     0
370
    18
100
AcDbBlockReference
  2
_DotSmall
 10
474.2811218443576
 20
1720.742840796207
 30
0.0
 41
25.0
 42
25.0
 43
25.0
 50
90.0
  0
INSERT
  5
1061
330
3DD
100
AcDbEntity
  8
実形
 62
     0
370
    18
100
AcDbBlockReference
  2
_DotSmall
 10
474.2811218443575
 20
1310.742840796207
 30
0.0
 41
25.0
 42
25.0
 43
25.0
 50
270.0
  0
MTEXT
  5
1062
330
3DD
100
AcDbEntity
  8
実形
 62
     0
100
AcDbMText
 10
455.5311218443574
 20
1515.742840796207
 30
0.0
 40
25.0
 41
0.0
 71
     5
 72
     1
  1
410
 11
0.0000000000000001
 21
1.0
 31
0.0
 73
     1
 44
1.0
1001
ACAD
1000
MTEXTBEGIN
1070
    73
1070
     1
1070
    44
1040
1.0
1070
    74
1070
     0
1000
MTEXTEND
  0
POINT
  5
1063
330
3DD
100
AcDbEntity
  8
Defpoints
 62
     0
100
AcDbPoint
 10
617.4564365682308
 20
1720.742840796207
 30
0.0
  0
POINT
  5
1064
330
3DD
100
AcDbEntity
  8
Defpoints
 62
     0
100
AcDbPoint
 10
617.4564365682308
 20
1310.742840796207
 30
0.0
  0
POINT
  5
1065
330
3DD
100
AcDbEntity
  8
Defpoints
 62
     0
100
AcDbPoint
 10
474.2811218443575
 20
1310.742840796207
 30
0.0
  0
ENDBLK
  5
3E8
330
3DD
100
AcDbEntity
  8
0
100
AcDbBlockEnd
  0
BLOCK
  5
3F4
330
3EA
100
AcDbEntity
  8
0
100
AcDbBlockBegin
  2
*D8
 70
     1
 10
0.0
 20
0.0
 30
0.0
  3
*D8
  1

  0
LINE
  5
1054
330
3EA
100
AcDbEntity
  8
実形
 62
     0
370
    15
100
AcDbLine
 10
552.4564365682308
 20
1310.742840796207
 30
0.0
 11
474.2811218443575
 21
1310.742840796207
 31
0.0
  0
LINE
  5
1055
330
3EA
100
AcDbEntity
  8
実形
 62
     0
370
    15
100
AcDbLine
 10
552.4564365682308
 20
1295.742840796207
 30
0.0
 11
474.2811218443575
 21
1295.742840796207
 31
0.0
  0
LINE
  5
1056
330
3EA
100
AcDbEntity
  8
実形
 62
     0
370
    18
100
AcDbLine
 10
474.2811218443575
 20
1310.742840796207
 30
0.0
 11
474.2811218443575
 21
1295.742840796207
 31
0.0
  0
MTEXT
  5
1057
330
3EA
100
AcDbEntity
  8
実形
 62
     0
370
    18
100
AcDbMText
 10
459.9650161397721
 20
1253.058600087981
 30
0.0
 40
25.0
 41
0.0
 71
     5
 72
     1
  1
15
 11
0.0000000000000001
 21
1.0
 31
0.0
 73
     1
 44
1.0
1001
ACAD
1000
MTEXTBEGIN
1070
    73
1070
     1
1070
    44
1040
1.0
1070
    74
1070
     0
1000
MTEXTEND
  0
INSERT
  5
1058
330
3EA
100
AcDbEntity
  8
実形
 62
     0
370
    18
100
AcDbBlockReference
  2
_DotSmall
 10
474.2811218443575
 20
1310.742840796207
 30
0.0
 41
25.0
 42
25.0
 43
25.0
 50
90.0
  0
INSERT
  5
1059
330
3EA
100
AcDbEntity
  8
実形
 62
     0
370
    18
100
AcDbBlockReference
  2
_DotSmall
 10
474.2811218443575
 20
1295.742840796207
 30
0.0
 41
25.0
 42
25.0
 43
25.0
 50
270.0
  0
POINT
  5
105A
330
3EA
100
AcDbEntity
  8
Defpoints
 62
     0
100
AcDbPoint
 10
617.4564365682308
 20
1310.742840796207
 30
0.0
  0
POINT
  5
105B
330
3EA
100
AcDbEntity
  8
Defpoints
 62
     0
100
AcDbPoint
 10
617.4564365682308
 20
1295.742840796207
 30
0.0
  0
POINT
  5
105C
330
3EA
100
AcDbEntity
  8
Defpoints
 62
     0
100
AcDbPoint
 10
474.2811218443575
 20
1295.742840796207
 30
0.0
  0
ENDBLK
  5
3F5
330
3EA
100
AcDbEntity
  8
0
100
AcDbBlockEnd
  0
BLOCK
  5
401
330
3F7
100
AcDbEntity
  8
0
100
AcDbBlockBegin
  2
*D9
 70
     1
 10
0.0
 20
0.0
 30
0.0
  3
*D9
  1

  0
LINE
  5
104B
330
3F7
100
AcDbEntity
  8
実形
 62
     0
370
    15
100
AcDbLine
 10
552.4564365682308
 20
1735.742840796207
 30
0.0
 11
405.4412235196734
 21
1735.742840796207
 31
0.0
  0
LINE
  5
104C
330
3F7
100
AcDbEntity
  8
実形
 62
     0
370
    15
100
AcDbLine
 10
552.4564365682308
 20
1295.742840796207
 30
0.0
 11
405.4412235196732
 21
1295.742840796207
 31
0.0
  0
LINE
  5
104D
330
3F7
100
AcDbEntity
  8
実形
 62
     0
370
    18
100
AcDbLine
 10
405.4412235196734
 20
1735.742840796207
 30
0.0
 11
405.4412235196732
 21
1295.742840796207
 31
0.0
  0
INSERT
  5
104E
330
3F7
100
AcDbEntity
  8
実形
 62
     0
370
    18
100
AcDbBlockReference
  2
_DotSmall
 10
405.4412235196734
 20
1735.742840796207
 30
0.0
 41
25.0
 42
25.0
 43
25.0
 50
90.0
  0
INSERT
  5
104F
330
3F7
100
AcDbEntity
  8
実形
 62
     0
370
    18
100
AcDbBlockReference
  2
_DotSmall
 10
405.4412235196732
 20
1295.742840796207
 30
0.0
 41
25.0
 42
25.0
 43
25.0
 50
270.0
  0
MTEXT
  5
1050
330
3F7
100
AcDbEntity
  8
実形
 62
     0
100
AcDbMText
 10
386.6912235196731
 20
1515.742840796207
 30
0.0
 40
25.0
 41
0.0
 71
     5
 72
     1
  1
440
 11
0.0000000000000001
 21
1.0
 31
0.0
 73
     1
 44
1.0
1001
ACAD
1000
MTEXTBEGIN
1070
    73
1070
     1
1070
    44
1040
1.0
1070
    74
1070
     0
1000
MTEXTEND
  0
POINT
  5
1051
330
3F7
100
AcDbEntity
  8
Defpoints
 62
     0
100
AcDbPoint
 10
617.4564365682308
 20
1735.742840796207
 30
0.0
  0
POINT
  5
1052
330
3F7
100
AcDbEntity
  8
Defpoints
 62
     0
100
AcDbPoint
 10
617.4564365682308
 20
1295.742840796207
 30
0.0
  0
POINT
  5
1053
330
3F7
100
AcDbEntity
  8
Defpoints
 62
     0
100
AcDbPoint
 10
405.4412235196732
 20
1295.742840796207
 30
0.0
  0
ENDBLK
  5
402
330
3F7
100
AcDbEntity
  8
0
100
AcDbBlockEnd
  0
BLOCK
  5
449
330
43E
100
AcDbEntity
  8
0
100
AcDbBlockBegin
  2
*D10
 70
     1
 10
0.0
 20
0.0
 30
0.0
  3
*D10
  1

  0
LINE
  5
1042
330
43E
100
AcDbEntity
  8
実形
 62
     0
370
    15
100
AcDbLine
 10
617.4564365682308
 20
1230.742840796207
 30
0.0
 11
617.4564365682308
 21
1147.810723026152
 31
0.0
  0
LINE
  5
1043
330
43E
100
AcDbEntity
  8
実形
 62
     0
370
    15
100
AcDbLine
 10
632.4564365682308
 20
1230.742840796207
 30
0.0
 11
632.4564365682308
 21
1147.810723026152
 31
0.0
  0
LINE
  5
1044
330
43E
100
AcDbEntity
  8
実形
 62
     0
370
    18
100
AcDbLine
 10
617.4564365682308
 20
1147.810723026152
 30
0.0
 11
632.4564365682308
 21
1147.810723026152
 31
0.0
  0
LINE
  5
1045
330
43E
100
AcDbEntity
  8
実形
 62
     0
370
    18
100
AcDbLine
 10
632.4564365682308
 20
1147.810723026152
 30
0.0
 11
698.2064365682308
 21
1147.810723026152
 31
0.0
  0
INSERT
  5
1046
330
43E
100
AcDbEntity
  8
実形
 62
     0
370
    18
100
AcDbBlockReference
  2
_DotSmall
 10
617.4564365682308
 20
1147.810723026152
 30
0.0
 41
25.0
 42
25.0
 43
25.0
 50
180.0
  0
INSERT
  5
1047
330
43E
100
AcDbEntity
  8
実形
 62
     0
370
    18
100
AcDbBlockReference
  2
_DotSmall
 10
632.4564365682308
 20
1147.810723026152
 30
0.0
 41
25.0
 42
25.0
 43
25.0
  0
POINT
  5
1048
330
43E
100
AcDbEntity
  8
Defpoints
 62
     0
100
AcDbPoint
 10
617.4564365682308
 20
1295.742840796207
 30
0.0
  0
POINT
  5
1049
330
43E
100
AcDbEntity
  8
Defpoints
 62
     0
100
AcDbPoint
 10
632.4564365682308
 20
1295.742840796207
 30
0.0
  0
POINT
  5
104A
330
43E
100
AcDbEntity
  8
Defpoints
 62
     0
100
AcDbPoint
 10
632.4564365682308
 20
1147.810723026152
 30
0.0
  0
ENDBLK
  5
44A
330
43E
100
AcDbEntity
  8
0
100
AcDbBlockEnd
  0
BLOCK
  5
456
330
44C
100
AcDbEntity
  8
0
100
AcDbBlockBegin
  2
*D11
 70
     1
 10
0.0
 20
0.0
 30
0.0
  3
*D11
  1

  0
LINE
  5
1039
330
44C
100
AcDbEntity
  8
実形
 62
     0
370
    15
100
AcDbLine
 10
632.4564365682308
 20
1230.742840796207
 30
0.0
 11
632.4564365682308
 21
1147.810723026152
 31
0.0
  0
LINE
  5
103A
330
44C
100
AcDbEntity
  8
実形
 62
     0
370
    15
100
AcDbLine
 10
1362.456436568231
 20
1230.742840796207
 30
0.0
 11
1362.456436568231
 21
1147.810723026152
 31
0.0
  0
LINE
  5
103B
330
44C
100
AcDbEntity
  8
実形
 62
     0
370
    18
100
AcDbLine
 10
632.4564365682308
 20
1147.810723026152
 30
0.0
 11
1362.456436568231
 21
1147.810723026152
 31
0.0
  0
INSERT
  5
103C
330
44C
100
AcDbEntity
  8
実形
 62
     0
370
    18
100
AcDbBlockReference
  2
_DotSmall
 10
632.4564365682308
 20
1147.810723026152
 30
0.0
 41
25.0
 42
25.0
 43
25.0
 50
180.0
  0
INSERT
  5
103D
330
44C
100
AcDbEntity
  8
実形
 62
     0
370
    18
100
AcDbBlockReference
  2
_DotSmall
 10
1362.456436568231
 20
1147.810723026152
 30
0.0
 41
25.0
 42
25.0
 43
25.0
  0
MTEXT
  5
103E
330
44C
100
AcDbEntity
  8
実形
 62
     0
100
AcDbMText
 10
997.4564365682308
 20
1166.560723026152
 30
0.0
 40
25.0
 41
0.0
 71
     5
 72
     1
  1
730
 73
     1
 44
1.0
1001
ACAD
1000
MTEXTBEGIN
1070
    73
1070
     1
1070
    44
1040
1.0
1070
    74
1070
     0
1000
MTEXTEND
  0
POINT
  5
103F
330
44C
100
AcDbEntity
  8
Defpoints
 62
     0
100
AcDbPoint
 10
632.4564365682308
 20
1295.742840796207
 30
0.0
  0
POINT
  5
1040
330
44C
100
AcDbEntity
  8
Defpoints
 62
     0
100
AcDbPoint
 10
1362.456436568231
 20
1295.742840796207
 30
0.0
  0
POINT
  5
1041
330
44C
100
AcDbEntity
  8
Defpoints
 62
     0
100
AcDbPoint
 10
1362.456436568231
 20
1147.810723026152
 30
0.0
  0
ENDBLK
  5
457
330
44C
100
AcDbEntity
  8
0
100
AcDbBlockEnd
  0
BLOCK
  5
465
330
459
100
AcDbEntity
  8
0
100
AcDbBlockBegin
  2
*D12
 70
     1
 10
0.0
 20
0.0
 30
0.0
  3
*D12
  1

  0
LINE
  5
1031
330
459
100
AcDbEntity
  8
実形
 62
     0
370
    15
100
AcDbLine
 10
1362.456436568231
 20
1230.742840796207
 30
0.0
 11
1362.456436568231
 21
1147.810723026152
 31
0.0
  0
LINE
  5
1032
330
459
100
AcDbEntity
  8
実形
 62
     0
370
    15
100
AcDbLine
 10
1377.456436568231
 20
1230.742840796207
 30
0.0
 11
1377.456436568231
 21
1147.810723026152
 31
0.0
  0
LINE
  5
1033
330
459
100
AcDbEntity
  8
実形
 62
     0
370
    18
100
AcDbLine
 10
1362.456436568231
 20
1147.810723026152
 30
0.0
 11
1377.456436568231
 21
1147.810723026152
 31
0.0
  0
INSERT
  5
1034
330
459
100
AcDbEntity
  8
実形
 62
     0
370
    18
100
AcDbBlockReference
  2
_DotSmall
 10
1362.456436568231
 20
1147.810723026152
 30
0.0
 41
25.0
 42
25.0
 43
25.0
 50
180.0
  0
INSERT
  5
1035
330
459
100
AcDbEntity
  8
実形
 62
     0
370
    18
100
AcDbBlockReference
  2
_DotSmall
 10
1377.456436568231
 20
1147.810723026152
 30
0.0
 41
25.0
 42
25.0
 43
25.0
  0
POINT
  5
1036
330
459
100
AcDbEntity
  8
Defpoints
 62
     0
100
AcDbPoint
 10
1362.456436568231
 20
1295.742840796207
 30
0.0
  0
POINT
  5
1037
330
459
100
AcDbEntity
  8
Defpoints
 62
     0
100
AcDbPoint
 10
1377.456436568231
 20
1295.742840796207
 30
0.0
  0
POINT
  5
1038
330
459
100
AcDbEntity
  8
Defpoints
 62
     0
100
AcDbPoint
 10
1377.456436568231
 20
1147.810723026152
 30
0.0
  0
ENDBLK
  5
466
330
459
100
AcDbEntity
  8
0
100
AcDbBlockEnd
  0
BLOCK
  5
4AE
330
4A4
100
AcDbEntity
  8
0
100
AcDbBlockBegin
  2
*D13
 70
     1
 10
0.0
 20
0.0
 30
0.0
  3
*D13
  1

  0
LINE
  5
1028
330
4A4
100
AcDbEntity
  8
実形
 62
     0
370
    15
100
AcDbLine
 10
617.4564365682308
 20
1230.742840796207
 30
0.0
 11
617.4564365682308
 21
1070.018812870283
 31
0.0
  0
LINE
  5
1029
330
4A4
100
AcDbEntity
  8
実形
 62
     0
370
    15
100
AcDbLine
 10
1377.456436568231
 20
1230.742840796207
 30
0.0
 11
1377.456436568231
 21
1070.018812870283
 31
0.0
  0
LINE
  5
102A
330
4A4
100
AcDbEntity
  8
実形
 62
     0
370
    18
100
AcDbLine
 10
617.4564365682308
 20
1070.018812870283
 30
0.0
 11
1377.456436568231
 21
1070.018812870283
 31
0.0
  0
INSERT
  5
102B
330
4A4
100
AcDbEntity
  8
実形
 62
     0
370
    18
100
AcDbBlockReference
  2
_DotSmall
 10
617.4564365682308
 20
1070.018812870283
 30
0.0
 41
25.0
 42
25.0
 43
25.0
 50
180.0
  0
INSERT
  5
102C
330
4A4
100
AcDbEntity
  8
実形
 62
     0
370
    18
100
AcDbBlockReference
  2
_DotSmall
 10
1377.456436568231
 20
1070.018812870283
 30
0.0
 41
25.0
 42
25.0
 43
25.0
  0
MTEXT
  5
102D
330
4A4
100
AcDbEntity
  8
実形
 62
     0
100
AcDbMText
 10
997.4564365682308
 20
1088.768812870283
 30
0.0
 40
25.0
 41
0.0
 71
     5
 72
     1
  1
760
 73
     1
 44
1.0
1001
ACAD
1000
MTEXTBEGIN
1070
    73
1070
     1
1070
    44
1040
1.0
1070
    74
1070
     0
1000
MTEXTEND
  0
POINT
  5
102E
330
4A4
100
AcDbEntity
  8
Defpoints
 62
     0
100
AcDbPoint
 10
617.4564365682308
 20
1295.742840796207
 30
0.0
  0
POINT
  5
102F
330
4A4
100
AcDbEntity
  8
Defpoints
 62
     0
100
AcDbPoint
 10
1377.456436568231
 20
1295.742840796207
 30
0.0
  0
POINT
  5
1030
330
4A4
100
AcDbEntity
  8
Defpoints
 62
     0
100
AcDbPoint
 10
1377.456436568231
 20
1070.018812870283
 30
0.0
  0
ENDBLK
  5
4AF
330
4A4
100
AcDbEntity
  8
0
100
AcDbBlockEnd
  0
BLOCK
  5
503
330
4F9
100
AcDbEntity
  8
0
100
AcDbBlockBegin
  2
*D14
 70
     1
 10
0.0
 20
0.0
 30
0.0
  3
*D14
  1

  0
LINE
  5
101F
330
4F9
100
AcDbEntity
  8
実形
 62
     0
370
    15
100
AcDbLine
 10
702.4564365682309
 20
585.7428407962069
 30
0.0
 11
702.4564365682309
 21
534.3154334951341
 31
0.0
  0
LINE
  5
1020
330
4F9
100
AcDbEntity
  8
実形
 62
     0
370
    15
100
AcDbLine
 10
862.4564365682308
 20
585.7428407962069
 30
0.0
 11
862.4564365682308
 21
534.3154334951341
 31
0.0
  0
LINE
  5
1021
330
4F9
100
AcDbEntity
  8
実形
 62
     0
370
    18
100
AcDbLine
 10
702.4564365682309
 20
534.3154334951341
 30
0.0
 11
862.4564365682308
 21
534.3154334951341
 31
0.0
  0
INSERT
  5
1022
330
4F9
100
AcDbEntity
  8
実形
 62
     0
370
    18
100
AcDbBlockReference
  2
_DotSmall
 10
702.4564365682309
 20
534.3154334951341
 30
0.0
 41
25.0
 42
25.0
 43
25.0
 50
180.0
  0
INSERT
  5
1023
330
4F9
100
AcDbEntity
  8
実形
 62
     0
370
    18
100
AcDbBlockReference
  2
_DotSmall
 10
862.4564365682308
 20
534.3154334951341
 30
0.0
 41
25.0
 42
25.0
 43
25.0
  0
MTEXT
  5
1024
330
4F9
100
AcDbEntity
  8
実形
 62
     0
100
AcDbMText
 10
782.4564365682308
 20
553.0654334951341
 30
0.0
 40
25.0
 41
0.0
 71
     5
 72
     1
  1
158
 73
     1
 44
1.0
1001
ACAD
1000
MTEXTBEGIN
1070
    73
1070
     1
1070
    44
1040
1.0
1070
    74
1070
     0
1000
MTEXTEND
  0
POINT
  5
1025
330
4F9
100
AcDbEntity
  8
Defpoints
 62
     0
100
AcDbPoint
 10
702.4564365682309
 20
650.742840796207
 30
0.0
  0
POINT
  5
1026
330
4F9
100
AcDbEntity
  8
Defpoints
 62
     0
100
AcDbPoint
 10
862.4564365682308
 20
650.742840796207
 30
0.0
  0
POINT
  5
1027
330
4F9
100
AcDbEntity
  8
Defpoints
 62
     0
100
AcDbPoint
 10
862.4564365682308
 20
534.3154334951341
 30
0.0
  0
ENDBLK
  5
504
330
4F9
100
AcDbEntity
  8
0
100
AcDbBlockEnd
  0
BLOCK
  5
510
330
506
100
AcDbEntity
  8
0
100
AcDbBlockBegin
  2
*D15
 70
     1
 10
0.0
 20
0.0
 30
0.0
  3
*D15
  1

  0
LINE
  5
1016
330
506
100
AcDbEntity
  8
実形
 62
     0
370
    15
100
AcDbLine
 10
691.9564365682308
 20
585.7428407962071
 30
0.0
 11
691.9564365682308
 21
474.3560349262052
 31
0.0
  0
LINE
  5
1017
330
506
100
AcDbEntity
  8
実形
 62
     0
370
    15
100
AcDbLine
 10
872.9564365682309
 20
585.7428407962069
 30
0.0
 11
872.9564365682309
 21
474.3560349262052
 31
0.0
  0
LINE
  5
1018
330
506
100
AcDbEntity
  8
実形
 62
     0
370
    18
100
AcDbLine
 10
691.9564365682308
 20
474.3560349262052
 30
0.0
 11
872.9564365682309
 21
474.3560349262052
 31
0.0
  0
INSERT
  5
1019
330
506
100
AcDbEntity
  8
実形
 62
     0
370
    18
100
AcDbBlockReference
  2
_DotSmall
 10
691.9564365682308
 20
474.3560349262052
 30
0.0
 41
25.0
 42
25.0
 43
25.0
 50
180.0
  0
INSERT
  5
101A
330
506
100
AcDbEntity
  8
実形
 62
     0
370
    18
100
AcDbBlockReference
  2
_DotSmall
 10
872.9564365682309
 20
474.3560349262052
 30
0.0
 41
25.0
 42
25.0
 43
25.0
  0
MTEXT
  5
101B
330
506
100
AcDbEntity
  8
実形
 62
     0
100
AcDbMText
 10
782.4564365682308
 20
493.1060349262052
 30
0.0
 40
25.0
 41
0.0
 71
     5
 72
     1
  1
181
 73
     1
 44
1.0
1001
ACAD
1000
MTEXTBEGIN
1070
    73
1070
     1
1070
    44
1040
1.0
1070
    74
1070
     0
1000
MTEXTEND
  0
POINT
  5
101C
330
506
100
AcDbEntity
  8
Defpoints
 62
     0
100
AcDbPoint
 10
691.9564365682308
 20
650.7428407962071
 30
0.0
  0
POINT
  5
101D
330
506
100
AcDbEntity
  8
Defpoints
 62
     0
100
AcDbPoint
 10
872.9564365682309
 20
650.742840796207
 30
0.0
  0
POINT
  5
101E
330
506
100
AcDbEntity
  8
Defpoints
 62
     0
100
AcDbPoint
 10
872.9564365682309
 20
474.3560349262052
 30
0.0
  0
ENDBLK
  5
511
330
506
100
AcDbEntity
  8
0
100
AcDbBlockEnd
  0
BLOCK
  5
574
330
56A
100
AcDbEntity
  8
0
100
AcDbBlockBegin
  2
*D16
 70
     1
 10
0.0
 20
0.0
 30
0.0
  3
*D16
  1

  0
LINE
  5
1080
330
56A
100
AcDbEntity
  8
実形
 62
     0
370
    15
100
AcDbLine
 10
2097.456436568231
 20
1595.742840796207
 30
0.0
 11
2142.762580660151
 21
1595.742840796207
 31
0.0
  0
LINE
  5
1081
330
56A
100
AcDbEntity
  8
実形
 62
     0
370
    15
100
AcDbLine
 10
2097.456436568231
 20
1435.742840796207
 30
0.0
 11
2142.762580660151
 21
1435.742840796207
 31
0.0
  0
LINE
  5
1082
330
56A
100
AcDbEntity
  8
実形
 62
     0
370
    18
100
AcDbLine
 10
2142.762580660151
 20
1595.742840796207
 30
0.0
 11
2142.762580660151
 21
1435.742840796207
 31
0.0
  0
INSERT
  5
1083
330
56A
100
AcDbEntity
  8
実形
 62
     0
370
    18
100
AcDbBlockReference
  2
_DotSmall
 10
2142.762580660151
 20
1595.742840796207
 30
0.0
 41
25.0
 42
25.0
 43
25.0
 50
90.0
  0
INSERT
  5
1084
330
56A
100
AcDbEntity
  8
実形
 62
     0
370
    18
100
AcDbBlockReference
  2
_DotSmall
 10
2142.762580660151
 20
1435.742840796207
 30
0.0
 41
25.0
 42
25.0
 43
25.0
 50
270.0
  0
MTEXT
  5
1085
330
56A
100
AcDbEntity
  8
実形
 62
     0
100
AcDbMText
 10
2124.012580660151
 20
1515.742840796207
 30
0.0
 40
25.0
 41
0.0
 71
     5
 72
     1
  1
158
 11
0.0000000000000001
 21
1.0
 31
0.0
 73
     1
 44
1.0
1001
ACAD
1000
MTEXTBEGIN
1070
    73
1070
     1
1070
    44
1040
1.0
1070
    74
1070
     0
1000
MTEXTEND
  0
POINT
  5
1086
330
56A
100
AcDbEntity
  8
Defpoints
 62
     0
100
AcDbPoint
 10
2032.456436568231
 20
1595.742840796207
 30
0.0
  0
POINT
  5
1087
330
56A
100
AcDbEntity
  8
Defpoints
 62
     0
100
AcDbPoint
 10
2032.456436568231
 20
1435.742840796207
 30
0.0
  0
POINT
  5
1088
330
56A
100
AcDbEntity
  8
Defpoints
 62
     0
100
AcDbPoint
 10
2142.762580660151
 20
1435.742840796207
 30
0.0
  0
ENDBLK
  5
575
330
56A
100
AcDbEntity
  8
0
100
AcDbBlockEnd
  0
BLOCK
  5
58A
330
580
100
AcDbEntity
  8
0
100
AcDbBlockBegin
  2
*D17
 70
     1
 10
0.0
 20
0.0
 30
0.0
  3
*D17
  1

  0
LINE
  5
1004
330
580
100
AcDbEntity
  8
実形
 62
     0
370
    15
100
AcDbLine
 10
2097.456436568231
 20
1606.242840796207
 30
0.0
 11
2207.684168624993
 21
1606.242840796207
 31
0.0
  0
LINE
  5
1005
330
580
100
AcDbEntity
  8
実形
 62
     0
370
    15
100
AcDbLine
 10
2097.456436568231
 20
1425.242840796207
 30
0.0
 11
2207.684168624993
 21
1425.242840796207
 31
0.0
  0
LINE
  5
1006
330
580
100
AcDbEntity
  8
実形
 62
     0
370
    18
100
AcDbLine
 10
2207.684168624993
 20
1606.242840796207
 30
0.0
 11
2207.684168624993
 21
1425.242840796207
 31
0.0
  0
INSERT
  5
1007
330
580
100
AcDbEntity
  8
実形
 62
     0
370
    18
100
AcDbBlockReference
  2
_DotSmall
 10
2207.684168624993
 20
1606.242840796207
 30
0.0
 41
25.0
 42
25.0
 43
25.0
 50
90.0
  0
INSERT
  5
1008
330
580
100
AcDbEntity
  8
実形
 62
     0
370
    18
100
AcDbBlockReference
  2
_DotSmall
 10
2207.684168624993
 20
1425.242840796207
 30
0.0
 41
25.0
 42
25.0
 43
25.0
 50
270.0
  0
MTEXT
  5
1009
330
580
100
AcDbEntity
  8
実形
 62
     0
100
AcDbMText
 10
2188.934168624992
 20
1515.742840796207
 30
0.0
 40
25.0
 41
0.0
 71
     5
 72
     1
  1
181
 11
0.0000000000000001
 21
1.0
 31
0.0
 73
     1
 44
1.0
1001
ACAD
1000
MTEXTBEGIN
1070
    73
1070
     1
1070
    44
1040
1.0
1070
    74
1070
     0
1000
MTEXTEND
  0
POINT
  5
100A
330
580
100
AcDbEntity
  8
Defpoints
 62
     0
100
AcDbPoint
 10
2032.456436568231
 20
1606.242840796207
 30
0.0
  0
POINT
  5
100B
330
580
100
AcDbEntity
  8
Defpoints
 62
     0
100
AcDbPoint
 10
2032.456436568231
 20
1425.242840796207
 30
0.0
  0
POINT
  5
100C
330
580
100
AcDbEntity
  8
Defpoints
 62
     0
100
AcDbPoint
 10
2207.684168624993
 20
1425.242840796207
 30
0.0
  0
ENDBLK
  5
58B
330
580
100
AcDbEntity
  8
0
100
AcDbBlockEnd
  0
BLOCK
  5
EF4
330
EF1
100
AcDbEntity
  8
0
100
AcDbBlockBegin
  2
A$C7AE77685
 70
     0
 10
0.0
 20
0.0
 30
0.0
  3
A$C7AE77685
  1

  0
TEXT
  5
EF2
330
EF1
100
AcDbEntity
  8
0
100
AcDbText
 10
-510.0
 20
145.0
 30
0.0
 40
35.0
  1
A1m/m850-530S
 72
     4
 11
-300.0
 21
162.5
 31
0.0
100
AcDbText
  0
TEXT
  5
EF3
330
EF1
100
AcDbEntity
  8
0
100
AcDbText
 10
-353.0833333333333
 20
80.0
 30
0.0
 40
35.0
  1
1：10
 72
     4
 11
-300.0
 21
97.5
 31
0.0
100
AcDbText
  0
ENDBLK
  5
EF5
330
EF1
100
AcDbEntity
  8
0
100
AcDbBlockEnd
  0
BLOCK
  5
F23
330
EF6
100
AcDbEntity
  8
0
100
AcDbBlockBegin
  2
A$C1C5F30A7
 70
     0
 10
0.0
 20
0.0
 30
0.0
  3
A$C1C5F30A7
  1

  0
LINE
  5
EF7
330
EF6
100
AcDbEntity
  8
実形
100
AcDbLine
 10
0.0
 20
0.0
 30
0.0
 11
0.0
 21
2020.0
 31
0.0
  0
TEXT
  5
EF8
330
EF6
100
AcDbEntity
  8
実形
100
AcDbText
 10
-508.75
 20
1905.0
 30
0.0
 40
35.0
  1
SUS304
 72
     4
 11
-412.5
 21
1922.5
 31
0.0
100
AcDbText
  0
TEXT
  5
EF9
330
EF6
100
AcDbEntity
  8
実形
100
AcDbText
 10
-693.3333333333333
 20
1905.0
 30
0.0
 40
35.0
  1
天　板
 72
     4
 11
-635.0
 21
1922.5
 31
0.0
100
AcDbText
  0
LINE
  5
EFA
330
EF6
100
AcDbEntity
  8
実形
100
AcDbLine
 10
-275.0
 20
1825.0
 30
0.0
 11
-275.0
 21
2020.0
 31
0.0
  0
LINE
  5
EFB
330
EF6
100
AcDbEntity
  8
実形
100
AcDbLine
 10
-550.0
 20
1825.0
 30
0.0
 11
-550.0
 21
2020.0
 31
0.0
  0
LINE
  5
EFC
330
EF6
100
AcDbEntity
  8
実形
100
AcDbLine
 10
-720.0
 20
1825.0
 30
0.0
 11
-720.0
 21
2020.0
 31
0.0
  0
LINE
  5
EFD
330
EF6
100
AcDbEntity
  8
実形
100
AcDbLine
 10
0.0
 20
1825.0
 30
0.0
 11
-720.0
 21
1825.0
 31
0.0
  0
LINE
  5
EFE
330
EF6
100
AcDbEntity
  8
実形
100
AcDbLine
 10
0.0
 20
1890.0
 30
0.0
 11
-720.0
 21
1890.0
 31
0.0
  0
TEXT
  5
EFF
330
EF6
100
AcDbEntity
  8
実形
100
AcDbText
 10
-205.75
 20
1840.0
 30
0.0
 40
35.0
  1
1.0ｍｍ
 72
     4
 11
-137.5
 21
1857.5
 31
0.0
100
AcDbText
  0
TEXT
  5
F00
330
EF6
100
AcDbEntity
  8
実形
100
AcDbText
 10
-508.75
 20
1840.0
 30
0.0
 40
35.0
  1
SUS304
 72
     4
 11
-412.5
 21
1857.5
 31
0.0
100
AcDbText
  0
TEXT
  5
F01
330
EF6
100
AcDbEntity
  8
実形
100
AcDbText
 10
-694.5
 20
1838.833333333333
 30
0.0
 40
35.0
  1
ボール
 72
     4
 11
-635.0
 21
1857.5
 31
0.0
100
AcDbText
  0
LINE
  5
F02
330
EF6
100
AcDbEntity
  8
実形
100
AcDbLine
 10
0.0
 20
1955.0
 30
0.0
 11
-720.0
 21
1955.0
 31
0.0
  0
TEXT
  5
F03
330
EF6
100
AcDbEntity
  8
実形
100
AcDbText
 10
-216.8333333333333
 20
1970.0
 30
0.0
 40
35.0
  1
素材寸法
 72
     4
 11
-137.5
 21
1987.5
 31
0.0
100
AcDbText
  0
TEXT
  5
F04
330
EF6
100
AcDbEntity
  8
実形
100
AcDbText
 10
-449.8333333333333
 20
1970.0
 30
0.0
 40
35.0
  1
材質
 72
     4
 11
-412.5
 21
1987.5
 31
0.0
100
AcDbText
  0
TEXT
  5
F05
330
EF6
100
AcDbEntity
  8
実形
100
AcDbText
 10
-692.1666666666666
 20
1970.0
 30
0.0
 40
35.0
  1
部品名
 72
     4
 11
-635.0
 21
1987.5
 31
0.0
100
AcDbText
  0
TEXT
  5
F06
330
EF6
100
AcDbEntity
  8
実形
100
AcDbText
 10
-697.3333333333333
 20
80.0
 30
0.0
 40
35.0
  1
尺度
 72
     4
 11
-660.0
 21
97.5
 31
0.0
100
AcDbText
  0
TEXT
  5
F07
330
EF6
100
AcDbEntity
  8
実形
100
AcDbText
 10
-697.3333333333333
 20
145.0
 30
0.0
 40
35.0
  1
品番
 72
     4
 11
-660.0
 21
162.5
 31
0.0
100
AcDbText
  0
LINE
  5
F08
330
EF6
100
AcDbEntity
  8
実形
100
AcDbLine
 10
-720.0
 20
65.0
 30
0.0
 11
0.0
 21
65.0
 31
0.0
  0
LINE
  5
F09
330
EF6
100
AcDbEntity
  8
実形
100
AcDbLine
 10
-720.0
 20
195.0
 30
0.0
 11
0.0
 21
195.0
 31
0.0
  0
LINE
  5
F0A
330
EF6
100
AcDbEntity
  8
実形
100
AcDbLine
 10
-720.0
 20
130.0
 30
0.0
 11
0.0
 21
130.0
 31
0.0
  0
LINE
  5
F0B
330
EF6
100
AcDbEntity
  8
実形
100
AcDbLine
 10
-720.0
 20
0.0
 30
0.0
 11
-720.0
 21
195.0
 31
0.0
  0
TEXT
  5
F0C
330
EF6
100
AcDbEntity
  8
実形
100
AcDbText
 10
-483.7442253346526
 20
12.49999999999999
 30
0.0
 40
40.0
  1
中外交易株式会社
 72
     4
 11
-295.7442253346526
 21
32.5
 31
0.0
100
AcDbText
  0
TEXT
  5
F0D
330
EF6
100
AcDbEntity
  8
実形
100
AcDbText
 10
-518.75
 20
145.0
 30
0.0
 40
35.0
  1
A1m/m1070-530S
 72
     4
 11
-300.0
 21
162.5
 31
0.0
100
AcDbText
  0
LINE
  5
F0E
330
EF6
100
AcDbEntity
  8
実形
100
AcDbLine
 10
-600.0
 20
65.0
 30
0.0
 11
0.0
 21
65.0
 31
0.0
  0
LINE
  5
F0F
102
{ACAD_REACTORS
330
F1C
102
}
330
EF6
100
AcDbEntity
  8
実形
370
     5
100
AcDbLine
 10
-576.156076835638
 20
36.53787547858519
 30
0.0
 11
-600.7442253346526
 21
36.53787547858519
 31
0.0
  0
LINE
  5
F10
102
{ACAD_REACTORS
330
F1C
102
}
330
EF6
100
AcDbEntity
  8
実形
370
     5
100
AcDbLine
 10
-600.7442253346526
 20
36.53787547858519
 30
0.0
 11
-600.7442253346526
 21
26.53787547858519
 31
0.0
  0
LINE
  5
F11
102
{ACAD_REACTORS
330
F1C
102
}
330
EF6
100
AcDbEntity
  8
実形
370
     5
100
AcDbLine
 10
-600.7442253346526
 20
26.53787547858519
 30
0.0
 11
-576.6535713073245
 21
26.53787547858514
 31
0.0
  0
LINE
  5
F12
102
{ACAD_REACTORS
330
F1C
102
}
330
EF6
100
AcDbEntity
  8
実形
370
     5
100
AcDbLine
 10
-573.3581059570606
 20
52.5
 30
0.0
 11
-573.3581059570606
 21
12.5
 31
0.0
  0
LINE
  5
F13
102
{ACAD_REACTORS
330
F1C
102
}
330
EF6
100
AcDbEntity
  8
実形
370
     5
100
AcDbLine
 10
-573.3581059570606
 20
12.5
 30
0.0
 11
-538.3581059570606
 21
12.5
 31
0.0
  0
LINE
  5
F14
102
{ACAD_REACTORS
330
F1C
102
}
330
EF6
100
AcDbEntity
  8
実形
370
     5
100
AcDbLine
 10
-538.3581059570606
 20
12.5
 30
0.0
 11
-573.3581059570606
 21
32.5
 31
0.0
  0
LINE
  5
F15
102
{ACAD_REACTORS
330
F1C
102
}
330
EF6
100
AcDbEntity
  8
実形
370
     5
100
AcDbLine
 10
-573.3581059570606
 20
32.5
 30
0.0
 11
-538.3581059570606
 21
52.5
 31
0.0
  0
LINE
  5
F16
102
{ACAD_REACTORS
330
F1C
102
}
330
EF6
100
AcDbEntity
  8
実形
370
     5
100
AcDbLine
 10
-538.3581059570606
 20
52.5
 30
0.0
 11
-573.3581059570606
 21
52.5
 31
0.0
  0
LINE
  5
F17
102
{ACAD_REACTORS
330
F1C
102
}
330
EF6
100
AcDbEntity
  8
実形
370
     5
100
AcDbLine
 10
-507.2456531869902
 20
36.53787547858519
 30
0.0
 11
-531.8338016860048
 21
36.53787547858519
 31
0.0
  0
LINE
  5
F18
102
{ACAD_REACTORS
330
F1C
102
}
330
EF6
100
AcDbEntity
  8
実形
370
     5
100
AcDbLine
 10
-531.8338016860048
 20
36.53787547858519
 30
0.0
 11
-531.8338016860048
 21
26.53787547858519
 31
0.0
  0
LINE
  5
F19
102
{ACAD_REACTORS
330
F1C
102
}
330
EF6
100
AcDbEntity
  8
実形
370
     5
100
AcDbLine
 10
-531.8338016860048
 20
26.53787547858519
 30
0.0
 11
-507.7431476586766
 21
26.53787547858514
 31
0.0
  0
ARC
  5
F1A
102
{ACAD_REACTORS
330
F1C
102
}
330
EF6
100
AcDbEntity
  8
実形
370
     5
100
AcDbCircle
 10
-595.7442253346526
 20
32.5
 30
0.0
 40
20.0
100
AcDbArc
 50
11.64772366707625
 51
342.6561058784754
  0
ARC
  5
F1B
102
{ACAD_REACTORS
330
F1C
102
}
330
EF6
100
AcDbEntity
  8
実形
370
     5
100
AcDbCircle
 10
-526.8338016860048
 20
32.5
 30
0.0
 40
20.0
100
AcDbArc
 50
11.64772366707625
 51
342.6561058784754
  0
HATCH
  5
F1C
330
EF6
100
AcDbEntity
  8
実形
100
AcDbHatch
 10
0.0
 20
0.0
 30
0.0
210
0.0
220
0.0
230
1.0
  2
SOLID
 70
     1
 71
     1
 91
        3
 92
        1
 93
        4
 72
     2
 10
-526.8338016860048
 20
32.5
 40
20.0
 50
11.6477236670766
 51
342.656105878473
 73
     1
 72
     1
 10
-507.7431476586766
 20
26.53787547858514
 11
-531.8338016860048
 21
26.53787547858519
 72
     1
 10
-531.8338016860048
 20
26.53787547858519
 11
-531.8338016860048
 21
36.53787547858519
 72
     1
 10
-531.8338016860048
 20
36.53787547858519
 11
-507.2456531869902
 21
36.53787547858519
 97
        4
330
F1B
330
F19
330
F18
330
F17
 92
        1
 93
        4
 72
     2
 10
-595.7442253346526
 20
32.5
 40
20.0
 50
11.6477236670766
 51
342.656105878473
 73
     1
 72
     1
 10
-576.6535713073245
 20
26.53787547858514
 11
-600.7442253346526
 21
26.53787547858519
 72
     1
 10
-600.7442253346526
 20
26.53787547858519
 11
-600.7442253346526
 21
36.53787547858519
 72
     1
 10
-600.7442253346526
 20
36.53787547858519
 11
-576.156076835638
 21
36.53787547858519
 97
        4
330
F1A
330
F11
330
F10
330
F0F
 92
        1
 93
        5
 72
     1
 10
-538.3581059570606
 20
52.5
 11
-573.3581059570606
 21
52.5
 72
     1
 10
-573.3581059570606
 20
52.5
 11
-573.3581059570606
 21
12.5
 72
     1
 10
-573.3581059570606
 20
12.5
 11
-538.3581059570606
 21
12.5
 72
     1
 10
-538.3581059570606
 20
12.5
 11
-573.3581059570606
 21
32.5
 72
     1
 10
-573.3581059570606
 20
32.5
 11
-538.3581059570606
 21
52.5
 97
        5
330
F16
330
F12
330
F13
330
F14
330
F15
 75
     0
 76
     1
 98
        1
 10
-2844.0
 20
-4.0
  0
LINE
  5
F1D
330
EF6
100
AcDbEntity
  8
実形
100
AcDbLine
 10
-600.0
 20
65.0
 30
0.0
 11
-600.0
 21
195.0
 31
0.0
  0
TEXT
  5
F1E
330
EF6
100
AcDbEntity
  8
実形
100
AcDbText
 10
-353.0833333333333
 20
80.0
 30
0.0
 40
35.0
  1
1：10
 72
     4
 11
-300.0
 21
97.5
 31
0.0
100
AcDbText
  0
LINE
  5
F1F
330
EF6
100
AcDbEntity
  8
実形
100
AcDbLine
 10
0.0
 20
65.0
 30
0.0
 11
0.0
 21
130.0
 31
0.0
  0
LINE
  5
F20
330
EF6
100
AcDbEntity
  8
実形
100
AcDbLine
 10
0.0
 20
130.0
 30
0.0
 11
0.0
 21
195.0
 31
0.0
  0
LINE
  5
F21
330
EF6
100
AcDbEntity
  8
実形
100
AcDbLine
 10
0.0
 20
0.0
 30
0.0
 11
0.0
 21
65.0
 31
0.0
  0
TEXT
  5
F22
330
EF6
100
AcDbEntity
  8
実形
100
AcDbText
 10
-205.75
 20
1905.0
 30
0.0
 40
35.0
  1
1.0ｍｍ
 72
     4
 11
-137.5
 21
1922.5
 31
0.0
100
AcDbText
  0
ENDBLK
  5
F24
330
EF6
100
AcDbEntity
  8
0
100
AcDbBlockEnd
  0
BLOCK
  5
1160
330
1155
100
AcDbEntity
  8
0
100
AcDbBlockBegin
  2
*D20
 70
     1
 10
0.0
 20
0.0
 30
0.0
  3
*D20
  1

  0
LINE
  5
1156
330
1155
100
AcDbEntity
  8
実形
 62
     0
370
    18
100
AcDbLine
 10
617.4564365682308
 20
915.742840796207
 30
0.0
 11
617.4564365682308
 21
961.1383650153721
 31
0.0
  0
LINE
  5
1157
330
1155
100
AcDbEntity
  8
実形
 62
     0
370
    18
100
AcDbLine
 10
632.4564365682308
 20
915.742840796207
 30
0.0
 11
632.4564365682308
 21
961.1383650153721
 31
0.0
  0
LINE
  5
1158
330
1155
100
AcDbEntity
  8
実形
 62
     0
370
    18
100
AcDbLine
 10
617.4564365682308
 20
961.1383650153721
 30
0.0
 11
632.4564365682308
 21
961.1383650153721
 31
0.0
  0
LINE
  5
1159
330
1155
100
AcDbEntity
  8
実形
 62
     0
370
    18
100
AcDbLine
 10
632.4564365682308
 20
961.1383650153721
 30
0.0
 11
713.2897699015642
 21
961.1383650153721
 31
0.0
  0
INSERT
  5
115A
330
1155
100
AcDbEntity
  8
実形
 62
     0
370
    18
100
AcDbBlockReference
  2
_DotSmall
 10
617.4564365682308
 20
961.1383650153721
 30
0.0
 41
35.0
 42
35.0
 43
35.0
 50
180.0
  0
INSERT
  5
115B
330
1155
100
AcDbEntity
  8
実形
 62
     0
370
    18
100
AcDbBlockReference
  2
_DotSmall
 10
632.4564365682308
 20
961.1383650153721
 30
0.0
 41
35.0
 42
35.0
 43
35.0
  0
MTEXT
  5
115C
330
1155
100
AcDbEntity
  8
実形
 62
     0
100
AcDbMText
 10
690.3731032348974
 20
979.8883650153721
 30
0.0
 40
25.0
 41
0.0
 71
     5
 72
     1
  1
15
 73
     1
 44
1.0
1001
ACAD
1000
MTEXTBEGIN
1070
    73
1070
     1
1070
    44
1040
1.0
1070
    74
1070
     0
1000
MTEXTEND
  0
POINT
  5
115D
330
1155
100
AcDbEntity
  8
Defpoints
 62
     0
100
AcDbPoint
 10
617.4564365682308
 20
850.742840796207
 30
0.0
  0
POINT
  5
115E
330
1155
100
AcDbEntity
  8
Defpoints
 62
     0
100
AcDbPoint
 10
632.4564365682308
 20
850.742840796207
 30
0.0
  0
POINT
  5
115F
330
1155
100
AcDbEntity
  8
Defpoints
 62
     0
100
AcDbPoint
 10
632.4564365682308
 20
961.1383650153721
 30
0.0
  0
ENDBLK
  5
1161
330
1155
100
AcDbEntity
  8
0
100
AcDbBlockEnd
  0
ENDSEC
  0
SECTION
  2
ENTITIES
  0
LINE
  5
73
330
1F
100
AcDbEntity
  8
実形
100
AcDbLine
 10
119.0
 20
4.0
 30
0.0
 11
278.0
 21
4.0
 31
0.0
  0
LINE
  5
9C
330
1F
100
AcDbEntity
  8
実形
100
AcDbLine
 10
119.0
 20
4.0
 30
0.0
 11
2784.0
 21
4.0
 31
0.0
  0
LINE
  5
A0
330
1F
100
AcDbEntity
  8
実形
100
AcDbLine
 10
2784.0
 20
2024.0
 30
0.0
 11
119.0
 21
2024.0
 31
0.0
  0
LINE
  5
A5
330
1F
100
AcDbEntity
  8
実形
100
AcDbLine
 10
2784.0
 20
4.0
 30
0.0
 11
2784.0
 21
2024.0
 31
0.0
  0
TEXT
  5
2C9
330
1F
100
AcDbEntity
  8
実形
100
AcDbText
 10
2311.480520007774
 20
149.5770031673892
 30
0.0
 40
35.0
  1
A1m/m730-410
  7
MS明朝
 72
     4
 11
2476.845688547099
 21
167.0770031673892
 31
0.0
100
AcDbText
  0
LINE
  5
2E6
330
1F
100
AcDbEntity
  8
実形
100
AcDbLine
 10
617.4564365682308
 20
850.742840796207
 30
0.0
 11
1377.456436568231
 21
850.742840796207
 31
0.0
  0
CIRCLE
  5
2EB
330
1F
100
AcDbEntity
  8
実形
100
AcDbCircle
 10
782.4564365682308
 20
1515.742840796207
 30
0.0
 40
79.0
  0
CIRCLE
  5
2EE
330
1F
100
AcDbEntity
  8
実形
100
AcDbCircle
 10
782.4564365682308
 20
1515.742840796207
 30
0.0
 40
90.5
  0
LINE
  5
2F7
330
1F
100
AcDbEntity
  8
実形
100
AcDbLine
 10
632.4564365682308
 20
850.742840796207
 30
0.0
 11
632.4564365682308
 21
699.1184540553312
 31
0.0
  0
LINE
  5
2F9
330
1F
100
AcDbEntity
  8
実形
100
AcDbLine
 10
691.9564365682308
 20
660.7428407962069
 30
0.0
 11
862.4564365682308
 21
660.7428407962069
 31
0.0
  0
LINE
  5
2FA
330
1F
100
AcDbEntity
  8
実形
100
AcDbLine
 10
862.4564365682308
 20
660.7428407962069
 30
0.0
 11
872.9564365682309
 21
660.7428407962069
 31
0.0
  0
LINE
  5
2FB
330
1F
100
AcDbEntity
  8
実形
100
AcDbLine
 10
872.9564365682309
 20
660.7428407962069
 30
0.0
 11
872.9564365682309
 21
660.7428407962069
 31
0.0
  0
LINE
  5
2FE
330
1F
100
AcDbEntity
  8
実形
100
AcDbLine
 10
1832.456436568231
 20
1735.742840796207
 30
0.0
 11
1832.456436568231
 21
1295.742840796207
 31
0.0
  0
LINE
  5
2FF
330
1F
100
AcDbEntity
  8
実形
100
AcDbLine
 10
1832.456436568231
 20
1310.742840796207
 30
0.0
 11
1981.130230555181
 21
1310.742840796207
 31
0.0
  0
LINE
  5
300
330
1F
100
AcDbEntity
  8
実形
100
AcDbLine
 10
2010.876065270135
 20
1336.846006554073
 30
0.0
 11
2022.456436568231
 21
1425.242840796207
 31
0.0
  0
LINE
  5
301
330
1F
100
AcDbEntity
  8
実形
100
AcDbLine
 10
2022.456436568231
 20
1425.242840796207
 30
0.0
 11
2022.456436568231
 21
1606.242840796207
 31
0.0
  0
LINE
  5
302
330
1F
100
AcDbEntity
  8
実形
100
AcDbLine
 10
2022.456436568231
 20
1606.242840796207
 30
0.0
 11
2010.876065270135
 21
1694.639675038341
 31
0.0
  0
LINE
  5
303
330
1F
100
AcDbEntity
  8
実形
100
AcDbLine
 10
1981.130230555181
 20
1720.742840796207
 30
0.0
 11
1832.456436568231
 21
1720.742840796207
 31
0.0
  0
LINE
  5
306
330
1F
100
AcDbEntity
  8
実形
100
AcDbLine
 10
691.9564365682308
 20
660.7428407962069
 30
0.0
 11
691.9564365682308
 21
650.742840796207
 31
0.0
  0
LINE
  5
307
330
1F
100
AcDbEntity
  8
実形
100
AcDbLine
 10
691.9564365682308
 20
650.742840796207
 30
0.0
 11
872.9564365682309
 21
650.742840796207
 31
0.0
  0
LINE
  5
308
330
1F
100
AcDbEntity
  8
実形
100
AcDbLine
 10
872.9564365682309
 20
650.742840796207
 30
0.0
 11
872.9564365682309
 21
660.7428407962069
 31
0.0
  0
LINE
  5
309
330
1F
100
AcDbEntity
  8
実形
100
AcDbLine
 10
2022.456436568231
 20
1606.242840796207
 30
0.0
 11
2032.456436568231
 21
1606.242840796207
 31
0.0
  0
LINE
  5
30A
330
1F
100
AcDbEntity
  8
実形
100
AcDbLine
 10
2032.456436568231
 20
1606.242840796207
 30
0.0
 11
2032.456436568231
 21
1425.242840796207
 31
0.0
  0
LINE
  5
30B
330
1F
100
AcDbEntity
  8
実形
100
AcDbLine
 10
2032.456436568231
 20
1425.242840796207
 30
0.0
 11
2022.456436568231
 21
1425.242840796207
 31
0.0
  0
ARC
  5
30F
330
1F
100
AcDbEntity
  8
実形
100
AcDbCircle
 10
1981.130230555181
 20
1340.742840796207
 30
0.0
 40
30.0
100
AcDbArc
 50
270.0
 51
352.5365055400147
  0
ARC
  5
310
330
1F
100
AcDbEntity
  8
実形
100
AcDbCircle
 10
1981.130230555181
 20
1690.742840796207
 30
0.0
 40
30.0
100
AcDbArc
 50
7.463494459985321
 51
90.0
  0
LINE
  5
33A
330
1F
100
AcDbEntity
  8
実形
  6
ACAD_ISO08W100
 48
0.5
370
    15
100
AcDbLine
 10
607.152884488235
 20
1515.742840796207
 30
0.0
 11
957.7599886482266
 21
1515.742840796207
 31
0.0
  0
LINE
  5
33B
330
1F
100
AcDbEntity
  8
実形
  6
ACAD_ISO08W100
 48
0.5
370
    15
100
AcDbLine
 10
782.4564365682308
 20
1691.046392876202
 30
0.0
 11
782.4564365682308
 21
1340.439288716211
 31
0.0
  0
LINE
  5
33C
330
1F
100
AcDbEntity
  8
実形
  6
ACAD_ISO08W100
 48
0.5
370
    15
100
AcDbLine
 10
782.4564365682308
 20
738.9594646716204
 30
0.0
 11
782.4564365682308
 21
582.5436443643202
 31
0.0
  0
LINE
  5
33D
330
1F
100
AcDbEntity
  8
実形
  6
ACAD_ISO08W100
 48
0.5
370
    15
100
AcDbLine
 10
1781.029487488828
 20
1515.742840796207
 30
0.0
 11
2075.27588541588
 21
1515.742840796207
 31
0.0
  0
LINE
  5
356
330
1F
100
AcDbEntity
  8
実形
100
AcDbLine
 10
655.122863808449
 20
670.0286154415302
 30
0.0
 11
691.9564365682308
 21
660.7428407962069
 31
0.0
  0
ARC
  5
358
330
1F
100
AcDbEntity
  8
実形
100
AcDbCircle
 10
662.4564365682308
 20
699.1184540553312
 30
0.0
 40
30.0
100
AcDbArc
 50
180.0
 51
255.8505239136548
  0
DIMENSION
  5
35B
330
1F
100
AcDbEntity
  8
実形
100
AcDbDimension
  2
*D4
 10
632.4564365682308
 20
1814.545958959615
 30
0.0
 11
707.4564365682308
 21
1833.295958959615
 31
0.0
 70
    32
 71
     5
 42
150.0
  3
ISO-25
100
AcDbAlignedDimension
 13
782.4564365682308
 23
1606.242840796207
 33
0.0
 14
632.4564365682308
 24
1515.742840796207
 34
0.0
100
AcDbRotatedDimension
1001
ACAD
1000
DSTYLE
1002
{
1070
    41
1040
25.0
1070
   371
1070
    18
1002
}
  0
DIMENSION
  5
368
330
1F
100
AcDbEntity
  8
実形
100
AcDbDimension
  2
*D5
 10
997.4564365682308
 20
1720.742840796207
 30
0.0
 11
978.7064365682306
 21
1618.242840796207
 31
0.0
 70
    32
 71
     5
 42
205.0
  3
ISO-25
100
AcDbAlignedDimension
 13
872.9564365682309
 23
1515.742840796207
 33
0.0
 14
1059.072217511372
 24
1720.742840796207
 34
0.0
 50
90.0
100
AcDbRotatedDimension
1001
ACAD
1000
DSTYLE
1002
{
1070
    41
1040
25.0
1070
   371
1070
    18
1002
}
  0
TEXT
  5
395
330
1F
100
AcDbEntity
  8
実形
370
    18
100
AcDbText
 10
1012.722129599996
 20
1358.618480678234
 30
0.0
 40
25.0
  1
3600R
100
AcDbText
  0
TEXT
  5
397
330
1F
100
AcDbEntity
  8
実形
370
    18
100
AcDbText
 10
1163.586245287441
 20
1545.462142919475
 30
0.0
 40
25.0
  1
1500R
100
AcDbText
  0
TEXT
  5
398
330
1F
100
AcDbEntity
  8
実形
370
    18
100
AcDbText
 10
1205.545164983035
 20
1384.077649477564
 30
0.0
 40
25.0
  1
80R
100
AcDbText
  0
TEXT
  5
3AF
330
1F
100
AcDbEntity
  8
実形
100
AcDbText
 10
1224.654642532931
 20
720.0176197572668
 30
0.0
 40
25.0
  1
30R
100
AcDbText
  0
TEXT
  5
3B1
330
1F
100
AcDbEntity
  8
実形
370
    18
100
AcDbText
 10
1884.993021229096
 20
1369.226468854652
 30
0.0
 40
25.0
  1
30R
100
AcDbText
  0
DIMENSION
  5
3CE
330
1F
100
AcDbEntity
  8
実形
100
AcDbDimension
  2
*D6
 10
474.2811218443575
 20
1720.742840796207
 30
0.0
 11
474.2811218443573
 21
1728.242840796207
 31
0.0
 70
    32
  1
 
 71
     5
 42
15.0
  3
ISO-25
100
AcDbAlignedDimension
 13
617.4564365682308
 23
1735.742840796207
 33
0.0
 14
617.4564365682308
 24
1720.742840796207
 34
0.0
 50
90.0
100
AcDbRotatedDimension
1001
ACAD
1000
DSTYLE
1002
{
1070
    41
1040
25.0
1070
   371
1070
    18
1002
}
  0
DIMENSION
  5
3DC
330
1F
100
AcDbEntity
  8
実形
100
AcDbDimension
  2
*D7
 10
474.2811218443575
 20
1310.742840796207
 30
0.0
 11
455.5311218443574
 21
1515.742840796207
 31
0.0
 70
    32
 71
     5
 42
410.0
  3
ISO-25
100
AcDbAlignedDimension
 13
617.4564365682308
 23
1720.742840796207
 33
0.0
 14
617.4564365682308
 24
1310.742840796207
 34
0.0
 50
90.0
100
AcDbRotatedDimension
1001
ACAD
1000
DSTYLE
1002
{
1070
    41
1040
25.0
1070
   371
1070
    18
1070
   279
1070
     1
1002
}
  0
DIMENSION
  5
3E9
330
1F
100
AcDbEntity
  8
実形
370
    18
100
AcDbDimension
  2
*D8
 10
474.2811218443575
 20
1295.742840796207
 30
0.0
 11
478.7150161397721
 21
1253.058600087981
 31
0.0
 70
   160
 71
     5
 42
15.0
  3
ISO-25
100
AcDbAlignedDimension
 13
617.4564365682308
 23
1310.742840796207
 33
0.0
 14
617.4564365682308
 24
1295.742840796207
 34
0.0
 50
90.0
100
AcDbRotatedDimension
1001
ACAD
1000
DSTYLE
1002
{
1070
    41
1040
25.0
1070
   371
1070
    18
1070
   279
1070
     1
1002
}
  0
DIMENSION
  5
3F6
330
1F
100
AcDbEntity
  8
実形
100
AcDbDimension
  2
*D9
 10
405.4412235196732
 20
1295.742840796207
 30
0.0
 11
386.6912235196731
 21
1515.742840796207
 31
0.0
 70
    32
 71
     5
 42
440.0
  3
ISO-25
100
AcDbAlignedDimension
 13
617.4564365682308
 23
1735.742840796207
 33
0.0
 14
617.4564365682308
 24
1295.742840796207
 34
0.0
 50
90.0
100
AcDbRotatedDimension
1001
ACAD
1000
DSTYLE
1002
{
1070
    41
1040
25.0
1070
   371
1070
    18
1002
}
  0
TEXT
  5
43C
330
1F
100
AcDbEntity
  8
実形
370
    18
100
AcDbText
 10
478.7150161397721
 20
1760.994013735533
 30
0.0
 40
25.0
  1
15
 50
90.0
100
AcDbText
  0
DIMENSION
  5
43D
330
1F
100
AcDbEntity
  8
実形
100
AcDbDimension
  2
*D10
 10
632.4564365682308
 20
1147.810723026152
 30
0.0
 11
691.9564365682308
 21
1147.810723026152
 31
0.0
 70
   160
  1
 
 71
     5
 42
15.0
  3
ISO-25
100
AcDbAlignedDimension
 13
617.4564365682308
 23
1295.742840796207
 33
0.0
 14
632.4564365682308
 24
1295.742840796207
 34
0.0
100
AcDbRotatedDimension
1001
ACAD
1000
DSTYLE
1002
{
1070
    41
1040
25.0
1070
   371
1070
    18
1002
}
  0
DIMENSION
  5
44B
330
1F
100
AcDbEntity
  8
実形
100
AcDbDimension
  2
*D11
 10
1362.456436568231
 20
1147.810723026152
 30
0.0
 11
997.4564365682308
 21
1166.560723026152
 31
0.0
 70
    32
 71
     5
 42
730.0
  3
ISO-25
100
AcDbAlignedDimension
 13
632.4564365682308
 23
1295.742840796207
 33
0.0
 14
1362.456436568231
 24
1295.742840796207
 34
0.0
100
AcDbRotatedDimension
1001
ACAD
1000
DSTYLE
1002
{
1070
    41
1040
25.0
1070
   371
1070
    18
1070
   279
1070
     1
1002
}
  0
DIMENSION
  5
458
330
1F
100
AcDbEntity
  8
実形
100
AcDbDimension
  2
*D12
 10
1377.456436568231
 20
1147.810723026152
 30
0.0
 11
1369.956436568231
 21
1147.810723026152
 31
0.0
 70
    32
  1
 
 71
     5
 42
15.0
  3
ISO-25
100
AcDbAlignedDimension
 13
1362.456436568231
 23
1295.742840796207
 33
0.0
 14
1377.456436568231
 24
1295.742840796207
 34
0.0
100
AcDbRotatedDimension
1001
ACAD
1000
DSTYLE
1002
{
1070
    41
1040
25.0
1070
   371
1070
    18
1070
   279
1070
     1
1002
}
  0
TEXT
  5
494
330
1F
100
AcDbEntity
  8
実形
100
AcDbText
 10
558.8582201220151
 20
1150.098720660548
 30
0.0
 40
25.0
  1
15
100
AcDbText
  0
TEXT
  5
495
330
1F
100
AcDbEntity
  8
実形
370
    18
100
AcDbText
 10
1400.719896614824
 20
1150.098720660548
 30
0.0
 40
25.0
  1
15
100
AcDbText
  0
DIMENSION
  5
4A3
330
1F
100
AcDbEntity
  8
実形
100
AcDbDimension
  2
*D13
 10
1377.456436568231
 20
1070.018812870283
 30
0.0
 11
997.4564365682308
 21
1088.768812870283
 31
0.0
 70
    32
 71
     5
 42
760.0
  3
ISO-25
100
AcDbAlignedDimension
 13
617.4564365682308
 23
1295.742840796207
 33
0.0
 14
1377.456436568231
 24
1295.742840796207
 34
0.0
100
AcDbRotatedDimension
1001
ACAD
1000
DSTYLE
1002
{
1070
    41
1040
25.0
1070
   371
1070
    18
1002
}
  0
DIMENSION
  5
4F8
330
1F
100
AcDbEntity
  8
実形
100
AcDbDimension
  2
*D14
 10
862.4564365682308
 20
534.3154334951341
 30
0.0
 11
782.4564365682308
 21
553.0654334951341
 31
0.0
 70
    32
  1
158
 71
     5
 42
160.0
  3
ISO-25
100
AcDbAlignedDimension
 13
702.4564365682309
 23
650.742840796207
 33
0.0
 14
862.4564365682308
 24
650.742840796207
 34
0.0
100
AcDbRotatedDimension
1001
ACAD
1000
DSTYLE
1002
{
1070
    41
1040
25.0
1070
   371
1070
    18
1002
}
  0
DIMENSION
  5
505
330
1F
100
AcDbEntity
  8
実形
100
AcDbDimension
  2
*D15
 10
872.9564365682309
 20
474.3560349262052
 30
0.0
 11
782.4564365682308
 21
493.1060349262052
 31
0.0
 70
    32
 71
     5
 42
181.0
  3
ISO-25
100
AcDbAlignedDimension
 13
691.9564365682308
 23
650.7428407962071
 33
0.0
 14
872.9564365682309
 24
650.742840796207
 34
0.0
100
AcDbRotatedDimension
1001
ACAD
1000
DSTYLE
1002
{
1070
    41
1040
25.0
1070
   371
1070
    18
1002
}
  0
DIMENSION
  5
569
330
1F
100
AcDbEntity
  8
実形
100
AcDbDimension
  2
*D16
 10
2142.762580660151
 20
1435.742840796207
 30
0.0
 11
2124.012580660151
 21
1515.742840796207
 31
0.0
 70
    32
  1
158
 71
     5
 42
160.0
  3
ISO-25
100
AcDbAlignedDimension
 13
2032.456436568231
 23
1595.742840796207
 33
0.0
 14
2032.456436568231
 24
1435.742840796207
 34
0.0
 50
90.0
100
AcDbRotatedDimension
1001
ACAD
1000
DSTYLE
1002
{
1070
    41
1040
25.0
1070
   371
1070
    18
1002
}
  0
DIMENSION
  5
57F
330
1F
100
AcDbEntity
  8
実形
100
AcDbDimension
  2
*D17
 10
2207.684168624993
 20
1425.242840796207
 30
0.0
 11
2188.934168624992
 21
1515.742840796207
 31
0.0
 70
    32
 71
     5
 42
181.0
  3
ISO-25
100
AcDbAlignedDimension
 13
2032.456436568231
 23
1606.242840796207
 33
0.0
 14
2032.456436568231
 24
1425.242840796207
 34
0.0
 50
90.0
100
AcDbRotatedDimension
1001
ACAD
1000
DSTYLE
1002
{
1070
    41
1040
25.0
1070
   371
1070
    18
1002
}
  0
LEADER
  5
7CF
330
1F
100
AcDbEntity
  8
実形
100
AcDbLeader
  3
ISO-25
 40
25.0
 41
16.66666666666666
 76
     2
 10
960.2540940813714
 20
1319.732315760931
 30
0.0
 10
999.476503276016
 20
1354.569141979651
 30
0.0
213
0.0
223
-12.5
233
0.0
1001
ACAD
1000
DSTYLE
1002
{
1070
    41
1040
25.0
1070
   147
1040
6.25
1070
    77
1070
     0
1070
    73
1070
     1
1070
    74
1070
     1
1070
   279
1070
     1
1070
   342
1005
DA
1002
}
  0
LEADER
  5
7D0
330
1F
100
AcDbEntity
  8
実形
100
AcDbLeader
  3
ISO-25
 40
25.0
 41
16.66666666666666
 76
     2
 10
1354.814884025986
 20
1554.88089038344
 30
0.0
 10
1280.7281101869
 20
1557.058192610573
 30
0.0
213
0.0
223
-12.5
233
0.0
1001
ACAD
1000
DSTYLE
1002
{
1070
    41
1040
25.0
1070
   147
1040
6.25
1070
    77
1070
     0
1070
    73
1070
     1
1070
    74
1070
     1
1070
   279
1070
     1
1070
   342
1005
DA
1002
}
  0
LEADER
  5
7D1
330
1F
100
AcDbEntity
  8
実形
100
AcDbLeader
  3
ISO-25
 40
25.0
 41
16.66666666666666
 76
     2
 10
1328.666608481951
 20
1350.214537525386
 30
0.0
 10
1280.7281101869
 20
1380.696759289841
 30
0.0
213
0.0
223
-12.5
233
0.0
1001
ACAD
1000
DSTYLE
1002
{
1070
    41
1040
25.0
1070
   147
1040
6.25
1070
    77
1070
     0
1070
    73
1070
     1
1070
    74
1070
     1
1070
   279
1070
     1
1070
   342
1005
DA
1002
}
  0
LEADER
  5
7D2
330
1F
100
AcDbEntity
  8
実形
100
AcDbLeader
  3
ISO-25
 40
25.0
 41
16.66666666666666
 76
     2
 10
1346.098786682763
 20
690.4921510122403
 30
0.0
 10
1298.160288387712
 20
720.9743727766954
 30
0.0
213
0.0
223
-12.5
233
0.0
1001
ACAD
1000
DSTYLE
1002
{
1070
    41
1040
25.0
1070
   147
1040
6.25
1070
    77
1070
     0
1070
    73
1070
     1
1070
    74
1070
     1
1070
   279
1070
     1
1070
   342
1005
DA
1002
}
  0
LEADER
  5
7D3
330
1F
100
AcDbEntity
  8
実形
100
AcDbLeader
  3
ISO-25
 40
25.0
 41
16.66666666666666
 76
     2
 10
1999.805584612645
 20
1328.44152466946
 30
0.0
 10
1962.762205935919
 20
1365.455648407613
 30
0.0
213
0.0
223
-12.5
233
0.0
1001
ACAD
1000
DSTYLE
1002
{
1070
    41
1040
25.0
1070
   147
1040
6.25
1070
    77
1070
     0
1070
    73
1070
     1
1070
    74
1070
     1
1070
   279
1070
     1
1070
   342
1005
DA
1002
}
  0
TEXT
  5
8C9
330
1F
100
AcDbEntity
  8
実形
100
AcDbText
 10
249.2632881086038
 20
83.52862940911927
 30
0.0
 40
30.0
  1
※実寸には製造上の誤差が多少生ずる場合があります。シンクの穴あけ加工は現物合わせにてお願いします。
100
AcDbText
  0
ARC
  5
9D4
330
1F
100
AcDbEntity
  8
実形
100
AcDbCircle
 10
997.4564365682308
 20
4910.742840796206
 30
0.0
 40
3600.0
100
AcDbArc
 50
265.4305115441177
 51
274.5694884558822
  0
ARC
  5
9D5
330
1F
100
AcDbEntity
  8
実形
100
AcDbCircle
 10
997.4564365682308
 20
-1879.257159203793
 30
0.0
 40
3600.0
100
AcDbArc
 50
85.43051154411781
 51
94.5694884558822
  0
ARC
  5
9D7
330
1F
100
AcDbEntity
  8
実形
100
AcDbCircle
 10
2132.456436568231
 20
1515.742840796207
 30
0.0
 40
1500.0
100
AcDbArc
 50
175.4028734510808
 51
184.5971265489192
  0
ARC
  5
9D8
330
1F
100
AcDbEntity
  8
実形
100
AcDbCircle
 10
-137.5435634317691
 20
1515.742840796207
 30
0.0
 40
1500.0
100
AcDbArc
 50
355.4028734510808
 51
4.597126548919193
  0
ARC
  5
9D9
330
1F
100
AcDbEntity
  8
実形
100
AcDbCircle
 10
1277.888153536738
 20
1629.554327912335
 30
0.0
 40
80.0
100
AcDbArc
 50
4.597126548919201
 51
85.43051154411777
  0
ARC
  5
9DA
330
1F
100
AcDbEntity
  8
実形
100
AcDbCircle
 10
1277.888153536738
 20
1401.931353680079
 30
0.0
 40
80.0
100
AcDbArc
 50
274.5694884558804
 51
355.4028734510801
  0
ARC
  5
9DB
330
1F
100
AcDbEntity
  8
実形
100
AcDbCircle
 10
717.024719599724
 20
1401.931353680079
 30
0.0
 40
80.0
100
AcDbArc
 50
184.597126548919
 51
265.4305115441164
  0
ARC
  5
9DC
330
1F
100
AcDbEntity
  8
実形
100
AcDbCircle
 10
717.024719599724
 20
1629.554327912335
 30
0.0
 40
80.0
100
AcDbArc
 50
94.56948845588247
 51
175.4028734510808
  0
ARC
  5
9DD
330
1F
100
AcDbEntity
  8
実形
100
AcDbCircle
 10
997.4564365682308
 20
-1879.257159203793
 30
0.0
 40
3615.0
100
AcDbArc
 50
85.43051154411781
 51
94.5694884558822
  0
ARC
  5
9DE
330
1F
100
AcDbEntity
  8
実形
100
AcDbCircle
 10
1277.888153536738
 20
1629.554327912335
 30
0.0
 40
95.0
100
AcDbArc
 50
4.597126548919201
 51
85.43051154411777
  0
ARC
  5
9DF
330
1F
100
AcDbEntity
  8
実形
100
AcDbCircle
 10
-137.5435634317691
 20
1515.742840796207
 30
0.0
 40
1515.0
100
AcDbArc
 50
355.4028734510808
 51
4.597126548919193
  0
ARC
  5
9E0
330
1F
100
AcDbEntity
  8
実形
100
AcDbCircle
 10
1277.888153536738
 20
1401.931353680079
 30
0.0
 40
95.0
100
AcDbArc
 50
274.5694884558804
 51
355.4028734510801
  0
ARC
  5
9E1
330
1F
100
AcDbEntity
  8
実形
100
AcDbCircle
 10
997.4564365682308
 20
4910.742840796206
 30
0.0
 40
3615.0
100
AcDbArc
 50
265.4305115441177
 51
274.5694884558822
  0
ARC
  5
9E2
330
1F
100
AcDbEntity
  8
実形
100
AcDbCircle
 10
717.024719599724
 20
1401.931353680079
 30
0.0
 40
95.0
100
AcDbArc
 50
184.597126548919
 51
265.4305115441164
  0
ARC
  5
9E3
330
1F
100
AcDbEntity
  8
実形
100
AcDbCircle
 10
2132.456436568231
 20
1515.742840796207
 30
0.0
 40
1515.0
100
AcDbArc
 50
175.4028734510808
 51
184.5971265489192
  0
ARC
  5
9E4
330
1F
100
AcDbEntity
  8
実形
100
AcDbCircle
 10
717.024719599724
 20
1629.554327912335
 30
0.0
 40
95.0
100
AcDbArc
 50
94.56948845588247
 51
175.4028734510808
  0
LINE
  5
9E5
330
1F
100
AcDbEntity
  8
実形
100
AcDbLine
 10
1362.456436568231
 20
850.742840796207
 30
0.0
 11
1362.456436568231
 21
704.8376174515023
 31
0.0
  0
LINE
  5
9E6
330
1F
100
AcDbEntity
  8
実形
100
AcDbLine
 10
1333.375310660307
 20
674.8516929134311
 30
0.0
 11
872.9564365682309
 21
660.7428407962069
 31
0.0
  0
ARC
  5
9E7
330
1F
100
AcDbEntity
  8
実形
100
AcDbCircle
 10
1332.456436568231
 20
704.8376174515023
 30
0.0
 40
30.0
100
AcDbArc
 50
271.7551947565486
 51
0.0
  0
LINE
  5
E26
330
1F
100
AcDbEntity
  8
実形
100
AcDbLine
 10
542.5925657977429
 20
850.7428407962068
 30
0.0
 11
422.3883349265752
 21
850.742840796207
 31
0.0
  0
LINE
  5
E27
330
1F
100
AcDbEntity
  8
実形
100
AcDbLine
 10
542.5925657977429
 20
660.7428407962069
 30
0.0
 11
422.3883349265752
 21
660.7428407962071
 31
0.0
  0
LINE
  5
E28
330
1F
100
AcDbEntity
  8
実形
100
AcDbLine
 10
542.5925657977431
 20
650.742840796207
 30
0.0
 11
489.3883349265751
 21
650.742840796207
 31
0.0
  0
TEXT
  5
E29
330
1F
100
AcDbEntity
  8
実形
 62
     0
370
    18
100
AcDbText
 10
409.0970073993966
 20
733.2254002726062
 30
0.0
 40
25.0
  1
190
 50
90.0
100
AcDbText
  0
LINE
  5
E2A
330
1F
100
AcDbEntity
  8
実形
100
AcDbLine
 10
422.3883349265752
 20
850.742840796207
 30
0.0
 11
422.3883349265752
 21
660.7428407962069
 31
0.0
  0
TEXT
  5
E2B
330
1F
100
AcDbEntity
  8
実形
 62
     0
370
    18
100
AcDbText
 10
420.9338064966694
 20
849.1427501859162
 30
0.0
 40
3.0
  1
●
100
AcDbText
  0
TEXT
  5
E2C
330
1F
100
AcDbEntity
  8
実形
 62
     0
370
    18
100
AcDbText
 10
421.0037633172658
 20
659.2131842680319
 30
0.0
 40
3.0
  1
●
100
AcDbText
  0
TEXT
  5
E2D
330
1F
100
AcDbEntity
  8
実形
 62
     0
370
    18
100
AcDbText
 10
469.9266938853727
 20
665.0100719059856
 30
0.0
 40
25.0
  1
15
 50
90.0
100
AcDbText
  0
LINE
  5
E2E
330
1F
100
AcDbEntity
  8
実形
 62
     0
100
AcDbLine
 10
542.5925657977429
 20
675.7428407962069
 30
0.0
 11
489.3883349265751
 21
675.7428407962067
 31
0.0
  0
LINE
  5
E2F
330
1F
100
AcDbEntity
  8
実形
 62
     0
100
AcDbLine
 10
489.3883349265751
 20
675.7428407962066
 30
0.0
 11
489.3883349265751
 21
660.7428407962069
 31
0.0
  0
TEXT
  5
E30
330
1F
100
AcDbEntity
  8
実形
 62
     0
370
    18
100
AcDbText
 10
487.5968708559103
 20
658.7954520872852
 30
0.0
 40
4.0
  1
●
100
AcDbText
  0
TEXT
  5
E31
330
1F
100
AcDbEntity
  8
実形
 62
     0
370
    18
100
AcDbText
 10
487.4904238121962
 20
673.5412114915477
 30
0.0
 40
4.0
  1
●
100
AcDbText
  0
LINE
  5
E32
330
1F
100
AcDbEntity
  8
実形
100
AcDbLine
 10
489.3883349265751
 20
660.7428407962069
 30
0.0
 11
489.3883349265751
 21
650.742840796207
 31
0.0
  0
TEXT
  5
E33
330
1F
100
AcDbEntity
  8
実形
 62
     0
370
    18
100
AcDbText
 10
487.5626358768386
 20
649.0015832517863
 30
0.0
 40
4.0
  1
●
100
AcDbText
  0
TEXT
  5
E34
330
1F
100
AcDbEntity
  8
実形
 62
     0
370
    18
100
AcDbText
 10
469.5079690813783
 20
629.3934654792082
 30
0.0
 40
25.0
  1
7
 50
90.0
100
AcDbText
  0
TEXT
  5
E47
330
1F
100
AcDbEntity
  8
実形
370
    18
100
AcDbText
 10
1966.910682138893
 20
1169.963110507859
 30
0.0
 40
25.0
  1
15
100
AcDbText
  0
LINE
  5
E48
330
1F
100
AcDbEntity
  8
実形
100
AcDbLine
 10
1832.456436568231
 20
1230.742840796207
 30
0.0
 11
1832.456436568231
 21
1110.742840796207
 31
0.0
  0
LINE
  5
E49
330
1F
100
AcDbEntity
  8
実形
100
AcDbLine
 10
2022.456436568231
 20
1230.742840796207
 30
0.0
 11
2022.456436568231
 21
1110.742840796207
 31
0.0
  0
LINE
  5
E4A
330
1F
100
AcDbEntity
  8
実形
100
AcDbLine
 10
2032.456436568231
 20
1230.742840796207
 30
0.0
 11
2032.456436568231
 21
1164.549084277766
 31
0.0
  0
LINE
  5
E4B
330
1F
100
AcDbEntity
  8
実形
100
AcDbLine
 10
2007.456436568231
 20
1230.742840796207
 30
0.0
 11
2007.45643656823
 21
1164.549084277766
 31
0.0
  0
LINE
  5
E4C
330
1F
100
AcDbEntity
  8
実形
100
AcDbLine
 10
1832.456436568231
 20
1110.742840796207
 30
0.0
 11
2022.456436568231
 21
1110.742840796207
 31
0.0
  0
LINE
  5
E4D
330
1F
100
AcDbEntity
  8
実形
100
AcDbLine
 10
2007.45643656823
 20
1164.549084277766
 30
0.0
 11
2032.456436568231
 21
1164.549084277766
 31
0.0
  0
TEXT
  5
E4E
330
1F
100
AcDbEntity
  8
実形
370
    18
100
AcDbText
 10
1901.69014334752
 20
1118.425029203249
 30
0.0
 40
25.0
  1
190
100
AcDbText
  0
TEXT
  5
E4F
330
1F
100
AcDbEntity
  8
実形
370
    18
100
AcDbText
 10
2040.239769979054
 20
1168.474157890191
 30
0.0
 40
25.0
  1
7
100
AcDbText
  0
TEXT
  5
E50
330
1F
100
AcDbEntity
  8
実形
370
    18
100
AcDbText
 10
1830.642932913393
 20
1108.750283017963
 30
0.0
 40
4.0
  1
●
100
AcDbText
  0
TEXT
  5
E51
330
1F
100
AcDbEntity
  8
実形
370
    18
100
AcDbText
 10
2020.556461881319
 20
1108.835132545582
 30
0.0
 40
4.0
  1
●
100
AcDbText
  0
TEXT
  5
E52
330
1F
100
AcDbEntity
  8
実形
370
    18
100
AcDbText
 10
2030.589159730559
 20
1162.592384449208
 30
0.0
 40
4.0
  1
●
100
AcDbText
  0
TEXT
  5
E53
330
1F
100
AcDbEntity
  8
実形
370
    18
100
AcDbText
 10
2005.605148945388
 20
1162.515513466221
 30
0.0
 40
4.0
  1
●
100
AcDbText
  0
TEXT
  5
E54
330
1F
100
AcDbEntity
  8
実形
370
    18
100
AcDbText
 10
2020.617120194439
 20
1162.528239059187
 30
0.0
 40
4.0
  1
●
100
AcDbText
  0
LINE
  5
FA2
330
1F
100
AcDbEntity
  8
実形
100
AcDbLine
 10
2784.0
 20
4.0
 30
0.0
 11
2784.0
 21
2024.0
 31
0.0
  0
TEXT
  5
FB1
330
1F
100
AcDbEntity
  8
実形
100
AcDbText
 10
2080.85393258427
 20
85.57303370786517
 30
0.0
 40
30.0
  1
尺度
  7
MS明朝
 72
     4
 11
2124.0
 21
101.5
 31
0.0
100
AcDbText
  0
TEXT
  5
FB2
330
1F
100
AcDbEntity
  8
実形
100
AcDbText
 10
2080.85393258427
 20
152.0898876404494
 30
0.0
 40
30.0
  1
品番
  7
MS明朝
 72
     4
 11
2124.0
 21
166.5
 31
0.0
100
AcDbText
  0
LINE
  5
FB3
330
1F
100
AcDbEntity
  8
実形
100
AcDbLine
 10
2064.0
 20
69.0
 30
0.0
 11
2784.0
 21
69.0
 31
0.0
  0
LINE
  5
FB4
330
1F
100
AcDbEntity
  8
実形
100
AcDbLine
 10
2064.0
 20
199.0
 30
0.0
 11
2784.0
 21
199.0
 31
0.0
  0
LINE
  5
FB5
330
1F
100
AcDbEntity
  8
実形
100
AcDbLine
 10
2064.0
 20
134.0
 30
0.0
 11
2784.0
 21
134.0
 31
0.0
  0
LINE
  5
FB6
330
1F
100
AcDbEntity
  8
実形
100
AcDbLine
 10
2064.0
 20
4.0
 30
0.0
 11
2064.0
 21
199.0
 31
0.0
  0
TEXT
  5
FB7
330
1F
100
AcDbEntity
  8
実形
100
AcDbText
 10
2286.907460058606
 20
18.80337078651685
 30
0.0
 40
35.0
  1
中外交易株式会社
  7
MS明朝
 72
     4
 11
2488.255774665347
 21
36.5
 31
0.0
100
AcDbText
  0
LINE
  5
FB9
330
1F
100
AcDbEntity
  8
実形
100
AcDbLine
 10
2184.0
 20
69.0
 30
0.0
 11
2784.0
 21
69.0
 31
0.0
  0
LINE
  5
FBA
102
{ACAD_REACTORS
330
FC7
102
}
330
1F
100
AcDbEntity
  8
実形
370
     5
100
AcDbLine
 10
2207.843923164362
 20
40.53787547858519
 30
0.0
 11
2183.255774665347
 21
40.53787547858519
 31
0.0
  0
LINE
  5
FBB
102
{ACAD_REACTORS
330
FC7
102
}
330
1F
100
AcDbEntity
  8
実形
370
     5
100
AcDbLine
 10
2183.255774665347
 20
40.53787547858519
 30
0.0
 11
2183.255774665347
 21
30.53787547858519
 31
0.0
  0
LINE
  5
FBC
102
{ACAD_REACTORS
330
FC7
102
}
330
1F
100
AcDbEntity
  8
実形
370
     5
100
AcDbLine
 10
2183.255774665347
 20
30.53787547858519
 30
0.0
 11
2207.346428692676
 21
30.53787547858514
 31
0.0
  0
LINE
  5
FBD
102
{ACAD_REACTORS
330
FC7
102
}
330
1F
100
AcDbEntity
  8
実形
370
     5
100
AcDbLine
 10
2210.641894042939
 20
56.5
 30
0.0
 11
2210.641894042939
 21
16.5
 31
0.0
  0
LINE
  5
FBE
102
{ACAD_REACTORS
330
FC7
102
}
330
1F
100
AcDbEntity
  8
実形
370
     5
100
AcDbLine
 10
2210.641894042939
 20
16.5
 30
0.0
 11
2245.64189404294
 21
16.5
 31
0.0
  0
LINE
  5
FBF
102
{ACAD_REACTORS
330
FC7
102
}
330
1F
100
AcDbEntity
  8
実形
370
     5
100
AcDbLine
 10
2245.64189404294
 20
16.5
 30
0.0
 11
2210.641894042939
 21
36.5
 31
0.0
  0
LINE
  5
FC0
102
{ACAD_REACTORS
330
FC7
102
}
330
1F
100
AcDbEntity
  8
実形
370
     5
100
AcDbLine
 10
2210.641894042939
 20
36.5
 30
0.0
 11
2245.64189404294
 21
56.5
 31
0.0
  0
LINE
  5
FC1
102
{ACAD_REACTORS
330
FC7
102
}
330
1F
100
AcDbEntity
  8
実形
370
     5
100
AcDbLine
 10
2245.64189404294
 20
56.5
 30
0.0
 11
2210.641894042939
 21
56.5
 31
0.0
  0
LINE
  5
FC2
102
{ACAD_REACTORS
330
FC7
102
}
330
1F
100
AcDbEntity
  8
実形
370
     5
100
AcDbLine
 10
2276.75434681301
 20
40.53787547858519
 30
0.0
 11
2252.166198313995
 21
40.53787547858519
 31
0.0
  0
LINE
  5
FC3
102
{ACAD_REACTORS
330
FC7
102
}
330
1F
100
AcDbEntity
  8
実形
370
     5
100
AcDbLine
 10
2252.166198313995
 20
40.53787547858519
 30
0.0
 11
2252.166198313995
 21
30.53787547858519
 31
0.0
  0
LINE
  5
FC4
102
{ACAD_REACTORS
330
FC7
102
}
330
1F
100
AcDbEntity
  8
実形
370
     5
100
AcDbLine
 10
2252.166198313995
 20
30.53787547858519
 30
0.0
 11
2276.256852341323
 21
30.53787547858514
 31
0.0
  0
ARC
  5
FC5
102
{ACAD_REACTORS
330
FC7
102
}
330
1F
100
AcDbEntity
  8
実形
370
     5
100
AcDbCircle
 10
2188.255774665348
 20
36.5
 30
0.0
 40
20.0
100
AcDbArc
 50
11.6477236670759
 51
342.6561058784776
  0
ARC
  5
FC6
102
{ACAD_REACTORS
330
FC7
102
}
330
1F
100
AcDbEntity
  8
実形
370
     5
100
AcDbCircle
 10
2257.166198313996
 20
36.5
 30
0.0
 40
20.0
100
AcDbArc
 50
11.6477236670759
 51
342.6561058784776
  0
HATCH
  5
FC7
330
1F
100
AcDbEntity
  8
実形
100
AcDbHatch
 10
0.0
 20
0.0
 30
0.0
210
0.0
220
0.0
230
1.0
  2
SOLID
 70
     1
 71
     1
 91
        3
 92
        1
 93
        4
 72
     2
 10
2257.166198313996
 20
36.5
 40
20.0
 50
11.6477236670766
 51
342.656105878473
 73
     1
 72
     1
 10
2276.256852341323
 20
30.53787547858514
 11
2252.166198313995
 21
30.53787547858519
 72
     1
 10
2252.166198313995
 20
30.53787547858519
 11
2252.166198313995
 21
40.53787547858519
 72
     1
 10
2252.166198313995
 20
40.53787547858519
 11
2276.75434681301
 21
40.53787547858519
 97
        4
330
FC6
330
FC4
330
FC3
330
FC2
 92
        1
 93
        4
 72
     2
 10
2188.255774665348
 20
36.5
 40
20.0
 50
11.6477236670766
 51
342.656105878473
 73
     1
 72
     1
 10
2207.346428692676
 20
30.53787547858514
 11
2183.255774665347
 21
30.53787547858519
 72
     1
 10
2183.255774665347
 20
30.53787547858519
 11
2183.255774665347
 21
40.53787547858519
 72
     1
 10
2183.255774665347
 20
40.53787547858519
 11
2207.843923164362
 21
40.53787547858519
 97
        4
330
FC5
330
FBC
330
FBB
330
FBA
 92
        1
 93
        5
 72
     1
 10
2245.64189404294
 20
56.5
 11
2210.641894042939
 21
56.5
 72
     1
 10
2210.641894042939
 20
56.5
 11
2210.641894042939
 21
16.5
 72
     1
 10
2210.641894042939
 20
16.5
 11
2245.64189404294
 21
16.5
 72
     1
 10
2245.64189404294
 20
16.5
 11
2210.641894042939
 21
36.5
 72
     1
 10
2210.641894042939
 20
36.5
 11
2245.64189404294
 21
56.5
 97
        5
330
FC1
330
FBD
330
FBE
330
FBF
330
FC0
 75
     0
 76
     1
 98
        1
 10
-60.0
 20
0.0
  0
LINE
  5
FC8
330
1F
100
AcDbEntity
  8
実形
100
AcDbLine
 10
2184.0
 20
69.0
 30
0.0
 11
2184.0
 21
199.0
 31
0.0
  0
TEXT
  5
FC9
330
1F
100
AcDbEntity
  8
実形
100
AcDbText
 10
2433.662921348315
 20
84.29494382022472
 30
0.0
 40
35.0
  1
1：10
  7
MS明朝
 72
     4
 11
2484.0
 21
101.5
 31
0.0
100
AcDbText
  0
LINE
  5
FCA
330
1F
100
AcDbEntity
  8
実形
100
AcDbLine
 10
2784.0
 20
69.0
 30
0.0
 11
2784.0
 21
134.0
 31
0.0
  0
LINE
  5
FCB
330
1F
100
AcDbEntity
  8
実形
100
AcDbLine
 10
2784.0
 20
134.0
 30
0.0
 11
2784.0
 21
199.0
 31
0.0
  0
LINE
  5
FCC
330
1F
100
AcDbEntity
  8
実形
100
AcDbLine
 10
2784.0
 20
4.0
 30
0.0
 11
2784.0
 21
69.0
 31
0.0
  0
LINE
  5
1100
330
1F
100
AcDbEntity
  8
実形
100
AcDbLine
 10
119.0
 20
2024.0
 30
0.0
 11
119.0
 21
4.0
 31
0.0
  0
DIMENSION
  5
1154
330
1F
100
AcDbEntity
  8
実形
100
AcDbDimension
  2
*D20
 10
632.4564365682308
 20
961.1383650153721
 30
0.0
 11
690.3731032348974
 21
979.8883650153721
 31
0.0
 70
    32
 71
     5
 42
15.0
  3
ISO-25
100
AcDbAlignedDimension
 13
617.4564365682308
 23
850.742840796207
 33
0.0
 14
632.4564365682308
 24
850.742840796207
 34
0.0
100
AcDbRotatedDimension
1001
ACAD
1000
DSTYLE
1002
{
1070
   371
1070
    18
1070
   372
1070
    18
1002
}
  0
LINE
  5
11F1
330
1F
100
AcDbEntity
  8
実形
100
AcDbLine
 10
2559.000000000001
 20
2024.0
 30
0.0
 11
2784.0
 21
2024.0
 31
0.0
  0
LINE
  5
11F2
330
1F
100
AcDbEntity
  8
実形
100
AcDbLine
 10
2784.000000000001
 20
1829.0
 30
0.0
 11
2784.0
 21
2024.0
 31
0.0
  0
LINE
  5
1205
330
1F
100
AcDbEntity
  8
実形
100
AcDbLine
 10
2784.0
 20
2024.0
 30
0.0
 11
2784.0
 21
1894.0
 31
0.0
  0
LINE
  5
1206
330
1F
100
AcDbEntity
  8
補助
100
AcDbLine
 10
2784.0
 20
1959.0
 30
0.0
 11
2019.387286519283
 21
1959.000000000001
 31
0.0
  0
LINE
  5
1207
330
1F
100
AcDbEntity
  8
補助
100
AcDbLine
 10
2784.0
 20
1894.0
 30
0.0
 11
2019.387286519283
 21
1894.0
 31
0.0
  0
LINE
  5
1208
330
1F
100
AcDbEntity
  8
補助
100
AcDbLine
 10
2202.547653420927
 20
1894.0
 30
0.0
 11
2202.547653420927
 21
2024.0
 31
0.0
  0
LINE
  5
1209
330
1F
100
AcDbEntity
  8
補助
100
AcDbLine
 10
2019.387286519283
 20
1894.0
 30
0.0
 11
2019.387286519283
 21
2024.0
 31
0.0
  0
TEXT
  5
120A
330
1F
100
AcDbEntity
  8
補助
100
AcDbText
 10
2050.295698850121
 20
1976.328571428572
 30
0.0
 40
30.0
  1
部品名
  7
明朝
 72
     4
 11
2116.124270278692
 21
1991.5
 31
0.0
100
AcDbText
  0
TEXT
  5
120B
330
1F
100
AcDbEntity
  8
補助
100
AcDbText
 10
2627.614285714286
 20
1976.071428571429
 30
0.0
 40
30.0
  1
厚さ
  7
明朝
 72
     4
 11
2671.5
 21
1991.5
 31
0.0
100
AcDbText
  0
LINE
  5
120C
330
1F
100
AcDbEntity
  8
補助
100
AcDbLine
 10
2559.0
 20
1894.0
 30
0.0
 11
2559.0
 21
2024.0
 31
0.0
  0
TEXT
  5
120D
330
1F
100
AcDbEntity
  8
補助
100
AcDbText
 10
2338.490869919937
 20
1975.947979478155
 30
0.0
 40
30.0
  1
材質
  7
明朝
 72
     4
 11
2382.376584205651
 21
1991.119408049583
 31
0.0
100
AcDbText
  0
TEXT
  5
120E
330
1F
100
AcDbEntity
  8
実形
100
AcDbText
 10
2048.227810657788
 20
1910.557142857143
 30
0.0
 40
30.0
  1
ボウル
  7
明朝
 72
     4
 11
2114.056382086359
 21
1926.5
 31
0.0
100
AcDbText
  0
TEXT
  5
120F
330
1F
100
AcDbEntity
  8
実形
100
AcDbText
 10
2594.700000000001
 20
1911.842857142857
 30
0.0
 40
30.0
  1
1.0ｍｍ
  7
明朝
 72
     4
 11
2671.500000000001
 21
1926.5
 31
0.0
100
AcDbText
  0
TEXT
  5
1210
330
1F
100
AcDbEntity
  8
実形
100
AcDbText
 10
2261.016869107866
 20
1910.728571428572
 30
0.0
 40
30.0
  1
SUS304（BA）
  7
明朝
 72
     4
 11
2392.674011965008
 21
1926.5
 31
0.0
100
AcDbText
  0
VIEWPORT
  5
2E
102
{ACAD_XDICTIONARY
360
1249
102
}
330
1B
100
AcDbEntity
 67
     1
  8
0
100
AcDbViewport
 10
144.7270812988281
 20
101.2295806407928
 30
0.0
 40
411.6736216682419
 41
222.1517806396485
 68
     1
 69
     1
 12
144.7270812988281
 22
101.2295806407928
 13
0.0
 23
0.0
 14
10.0
 24
10.0
 15
10.0
 25
10.0
 16
0.0
 26
0.0
 36
1.0
 17
0.0
 27
0.0
 37
0.0
 42
50.0
 43
0.0
 44
0.0
 45
222.1517806396485
 50
0.0
 51
0.0
 72
   100
 90
    32800
  1

281
     0
 71
     1
 74
     0
110
0.0
120
0.0
130
0.0
111
1.0
121
0.0
131
0.0
112
0.0
122
1.0
132
0.0
 79
     0
146
0.0
  0
VIEWPORT
  5
30
102
{ACAD_XDICTIONARY
360
124B
102
}
330
1B
100
AcDbEntity
 67
     1
  8
0
100
AcDbViewport
 10
139.2237563133239
 20
101.2295821905136
 30
0.0
 40
222.7580101013184
 41
161.9673315048218
 68
     2
 69
     2
 12
210.0
 22
148.5
 13
0.0
 23
0.0
 14
10.0
 24
10.0
 15
10.0
 25
10.0
 16
0.0
 26
0.0
 36
1.0
 17
0.0
 27
0.0
 37
0.0
 42
50.0
 43
0.0
 44
0.0
 45
309.0686705647124
 50
0.0
 51
0.0
 72
   100
 90
    32864
  1

281
     0
 71
     1
 74
     0
110
0.0
120
0.0
130
0.0
111
1.0
121
0.0
131
0.0
112
0.0
122
1.0
132
0.0
 79
     0
146
0.0
  0
ENDSEC
  0
SECTION
  2
OBJECTS
  0
DICTIONARY
  5
C
330
0
100
AcDbDictionary
281
     1
  3
ACAD_COLOR
350
DDA
  3
ACAD_GROUP
350
D
  3
ACAD_LAYOUT
350
1A
  3
ACAD_MATERIAL
350
DD9
  3
ACAD_MLINESTYLE
350
17
  3
ACAD_PLOTSETTINGS
350
19
  3
ACAD_PLOTSTYLENAME
350
E
  3
ACAD_TABLESTYLE
350
DDB
  3
AcadDim
350
124
  3
ACDBHEADERROUNDTRIPXREC
350
1242
  3
AcDbVariableDictionary
350
DEA
  3
DWGPROPS
350
1241
  0
DICTIONARY
  5
E11
330
2
100
AcDbDictionary
280
     1
281
     1
  3
ACAD_LAYERFILTERS
360
E6C
  3
ACAD_LAYERSTATES
360
E12
  3
ACLYDICTIONARY
360
E6B
  0
DICTIONARY
  5
10EE
330
1F
100
AcDbDictionary
280
     1
281
     1
  3
ACAD_SORTENTS
360
10EF
  0
DICTIONARY
  5
1249
330
2E
100
AcDbDictionary
280
     1
281
     1
  3
ACAD_XREC_ROUNDTRIP
360
124A
  0
DICTIONARY
  5
124B
330
30
100
AcDbDictionary
280
     1
281
     1
  3
ACAD_XREC_ROUNDTRIP
360
124C
  0
DICTIONARY
  5
DDA
102
{ACAD_REACTORS
330
C
102
}
330
C
100
AcDbDictionary
281
     1
  0
DICTIONARY
  5
D
102
{ACAD_REACTORS
330
C
102
}
330
C
100
AcDbDictionary
281
     1
  0
DICTIONARY
  5
1A
102
{ACAD_REACTORS
330
C
102
}
330
C
100
AcDbDictionary
281
     1
  3
Model
350
22
  3
ﾚｲｱｳﾄ1
350
1E
  3
ﾚｲｱｳﾄ2
350
26
  0
DICTIONARY
  5
DD9
102
{ACAD_REACTORS
330
C
102
}
330
C
100
AcDbDictionary
281
     1
  0
DICTIONARY
  5
17
102
{ACAD_REACTORS
330
C
102
}
330
C
100
AcDbDictionary
281
     1
  3
Standard
350
18
  0
DICTIONARY
  5
19
102
{ACAD_REACTORS
330
C
102
}
330
C
100
AcDbDictionary
281
     1
  0
ACDBDICTIONARYWDFLT
  5
E
102
{ACAD_REACTORS
330
C
102
}
330
C
100
AcDbDictionary
281
     1
  3
Normal
350
F
100
AcDbDictionaryWithDefault
340
F
  0
DICTIONARY
  5
DDB
102
{ACAD_REACTORS
330
C
102
}
330
C
100
AcDbDictionary
281
     1
  3
Standard
350
DDC
  0
XRECORD
  5
124
102
{ACAD_REACTORS
330
C
102
}
330
C
100
AcDbXrecord
280
     1
 90
   990106
  3

 60
     0
 61
     0
 62
     1
 63
     3
 64
     0
 65
     0
 66
     0
 67
     3
 68
     1
 69
     0
 70
     0
 71
     0
 72
     0
 40
30.0
170
     0
  0
DICTIONARY
  5
1242
102
{ACAD_REACTORS
330
C
102
}
330
C
100
AcDbDictionary
281
     1
  0
DICTIONARY
  5
DEA
102
{ACAD_REACTORS
330
C
102
}
330
C
100
AcDbDictionary
281
     1
  3
CTABLESTYLE
350
DEB
  3
DIMASSOC
350
123E
  3
PROJECTNAME
350
123F
  0
XRECORD
  5
1241
102
{ACAD_REACTORS
330
C
102
}
330
C
100
AcDbXrecord
280
     1
  1
DWGPROPS COOKIE
  2

  3

  4

  6

  7

  8

  9

300
=
301
=
302
=
303
=
304
=
305
=
306
=
307
=
308
=
309
=
 40
0.9433685995370369
 41
2451673.575802199
 42
2458803.770603635
  1

 90
        0
  0
DICTIONARY
  5
E6C
102
{ACAD_REACTORS
330
E11
102
}
330
E11
100
AcDbDictionary
281
     1
  0
DICTIONARY
  5
E12
102
{ACAD_REACTORS
330
E11
102
}
330
E11
100
AcDbDictionary
281
     1
  0
DICTIONARY
  5
E6B
102
{ACAD_REACTORS
330
E11
102
}
330
E11
100
AcDbDictionary
281
     1
1001
ACAD
1000
<All
  0
SORTENTSTABLE
  5
10EF
102
{ACAD_REACTORS
330
10EE
102
}
330
10EE
100
AcDbSortentsTable
330
1F
331
458
  5
495
331
303
  5
307
331
E2D
  5
E2F
331
30B
  5
310
331
3E9
  5
43C
331
57F
  5
7D0
331
9DE
  5
9E0
331
9E6
  5
E26
331
E4D
  5
E4F
331
FB4
  5
FB6
331
A5
  5
2E6
331
33B
  5
33D
331
4F8
  5
569
331
35B
  5
395
331
7CF
  5
7D1
331
E26
  5
E28
331
FBC
  5
FBE
331
FC4
  5
FC6
331
FCC
  5
FE7
331
E2E
  5
E30
331
9D7
  5
9D9
331
9DF
  5
9E1
331
9E7
  5
E27
331
E4E
  5
E50
331
FB5
  5
FB7
331
33C
  5
356
331
7D0
  5
7D2
331
E27
  5
E29
331
FBD
  5
FBF
331
FC5
  5
FC7
331
569
  5
7CF
331
E2F
  5
E31
331
9D8
  5
9DA
331
9E0
  5
9E2
331
E47
  5
E49
331
E4F
  5
E51
331
FB6
  5
FB9
331
2E6
  5
2EE
331
33D
  5
358
331
2EE
  5
2F9
331
44B
  5
494
331
3DC
  5
3F6
331
2FE
  5
300
331
7D1
  5
7D3
331
FBE
  5
FC0
331
FC6
  5
FC8
331
8C9
  5
9D5
331
306
  5
308
331
E28
  5
E2A
331
E30
  5
E32
331
395
  5
398
331
9D9
  5
9DB
331
9E1
  5
9E3
331
4A3
  5
505
331
E48
  5
E4A
331
E50
  5
E52
331
FB7
  5
FBA
331
A0
  5
2C9
331
43C
  5
44B
331
356
  5
35B
331
2F7
  5
2FA
331
7D2
  5
8C9
331
2FF
  5
301
331
FBF
  5
FC1
331
FC7
  5
FC9
331
307
  5
309
331
E29
  5
E2B
331
30F
  5
33A
331
E31
  5
E33
331
73
  5
73
331
9DA
  5
9DC
331
494
  5
4A3
331
9E2
  5
9E4
331
E49
  5
E4B
331
E51
  5
E53
331
43D
  5
458
331
3CE
  5
3E9
331
7D3
  5
9D4
331
FC0
  5
FC2
331
FC8
  5
FCA
331
300
  5
302
331
308
  5
30A
331
E2A
  5
E2C
331
310
  5
33B
331
E32
  5
E34
331
495
  5
4F8
331
397
  5
3AF
331
2C9
  5
2EB
331
3F6
  5
43D
331
9DB
  5
9DD
331
9C
  5
9C
331
9E3
  5
9E5
331
E4A
  5
E4C
331
E52
  5
E54
331
FB1
  5
FB3
331
3AF
  5
3CE
331
358
  5
368
331
505
  5
57F
331
2F9
  5
2FB
331
FB9
  5
FBB
331
FC1
  5
FC3
331
FC9
  5
FCB
331
368
  5
397
331
301
  5
303
331
309
  5
30B
331
E2B
  5
E2D
331
9D4
  5
9D7
331
E33
  5
E47
331
9DC
  5
9DE
331
398
  5
3B1
331
9E4
  5
9E6
331
E4B
  5
E4D
331
E53
  5
FA2
331
FA2
  5
FA5
331
FB2
  5
FB4
331
2FA
  5
2FE
331
FBA
  5
FBC
331
FC2
  5
FC4
331
FCA
  5
FCC
331
302
  5
306
331
30A
  5
30F
331
E2C
  5
E2E
331
E34
  5
E48
331
9D5
  5
9D8
331
9DD
  5
9DF
331
9E5
  5
9E7
331
E4C
  5
E4E
331
E54
  5
FA3
331
FB3
  5
FB5
331
33A
  5
33C
331
2EB
  5
2F7
331
3B1
  5
3DC
331
2FB
  5
2FF
331
1100
  5
A5
331
FBB
  5
FBD
331
FC3
  5
FC5
331
FCB
  5
FCD
  0
XRECORD
  5
124A
102
{ACAD_REACTORS
330
1249
102
}
330
1249
100
AcDbXrecord
280
     1
102
SHADEPLOT
 70
     0
  0
XRECORD
  5
124C
102
{ACAD_REACTORS
330
124B
102
}
330
124B
100
AcDbXrecord
280
     1
102
SHADEPLOT
 70
     0
  0
LAYOUT
  5
22
102
{ACAD_XDICTIONARY
360
1245
102
}
102
{ACAD_REACTORS
330
1A
102
}
330
1A
100
AcDbPlotSettings
  1

  2
EPSON PM-800C
  4
A4
  6

 40
3.757083177566528
 41
14.7637300491333
 42
3.757080078125
 43
3.757080078125
 44
209.9733276367187
 45
296.9683227539062
 46
0.0
 47
0.0
 48
0.0
 49
0.0
140
0.0
141
0.0
142
1.0
143
10.0
 70
 11952
 72
     1
 73
     1
 74
     2
  7

 75
    20
147
0.1
148
0.0
149
0.0
100
AcDbLayout
  1
Model
 70
     1
 71
     0
 10
0.0
 20
0.0
 11
12.0
 21
9.0
 12
0.0
 22
0.0
 32
0.0
 14
0.0
 24
0.0
 34
0.0
 15
0.0
 25
0.0
 35
0.0
146
0.0
 13
0.0
 23
0.0
 33
0.0
 16
1.0
 26
0.0
 36
0.0
 17
0.0
 27
1.0
 37
0.0
 76
     0
330
1F
  0
LAYOUT
  5
1E
102
{ACAD_XDICTIONARY
360
1243
102
}
102
{ACAD_REACTORS
330
1A
102
}
330
1A
100
AcDbPlotSettings
  1

  2
EPSON PM-800C
  4
A4
  6

 40
3.757083177566528
 41
14.7637300491333
 42
3.757080078125
 43
3.757080078125
 44
209.9733276367187
 45
296.9683227539062
 46
0.0
 47
0.0
 48
0.0
 49
0.0
140
0.0
141
0.0
142
1.0
143
1.0
 70
   688
 72
     1
 73
     1
 74
     5
  7

 75
    16
147
1.0
148
0.0
149
0.0
100
AcDbLayout
  1
ﾚｲｱｳﾄ1
 70
     1
 71
     1
 10
-3.757080078125
 20
-3.757083177566528
 11
293.2112426757813
 21
206.2162444591522
 12
0.0
 22
0.0
 32
0.0
 14
27.8447512626648
 24
20.24591643810271
 34
0.0
 15
250.6027613639831
 25
182.2132479429245
 35
0.0
146
0.0
 13
0.0
 23
0.0
 33
0.0
 16
1.0
 26
0.0
 36
0.0
 17
0.0
 27
1.0
 37
0.0
 76
     0
330
1B
331
2E
  0
LAYOUT
  5
26
102
{ACAD_XDICTIONARY
360
1247
102
}
102
{ACAD_REACTORS
330
1A
102
}
330
1A
100
AcDbPlotSettings
  1

  2
EPSON PM-800C
  4

  6

 40
0.0
 41
0.0
 42
0.0
 43
0.0
 44
0.0
 45
0.0
 46
0.0
 47
0.0
 48
0.0
 49
0.0
140
0.0
141
0.0
142
1.0
143
1.0
 70
   688
 72
     0
 73
     0
 74
     5
  7

 75
    16
147
1.0
148
0.0
149
0.0
100
AcDbLayout
  1
ﾚｲｱｳﾄ2
 70
     1
 71
     2
 10
0.0
 20
0.0
 11
12.0
 21
9.0
 12
0.0
 22
0.0
 32
0.0
 14
0.0
 24
0.0
 34
0.0
 15
0.0
 25
0.0
 35
0.0
146
0.0
 13
0.0
 23
0.0
 33
0.0
 16
1.0
 26
0.0
 36
0.0
 17
0.0
 27
1.0
 37
0.0
 76
     0
330
23
  0
MLINESTYLE
  5
18
102
{ACAD_REACTORS
330
17
102
}
330
17
100
AcDbMlineStyle
  2
STANDARD
 70
     0
  3

 62
   256
 51
90.0
 52
90.0
 71
     2
 49
0.5
 62
   256
  6
BYLAYER
 49
-0.5
 62
   256
  6
BYLAYER
  0
ACDBPLACEHOLDER
  5
F
102
{ACAD_REACTORS
330
E
102
}
330
E
  0
TABLESTYLE
  5
DDC
102
{ACAD_REACTORS
330
DDB
102
}
330
DDB
100
AcDbTableStyle
  3
Standard
 70
     0
 71
     0
 40
1.5
 41
1.5
280
     0
281
     0
  7
Standard
140
4.5
170
     2
 62
     0
 63
     7
283
     0
274
    -2
284
     1
 64
     0
275
    -2
285
     1
 65
     0
276
    -2
286
     1
 66
     0
277
    -2
287
     1
 67
     0
278
    -2
288
     1
 68
     0
279
    -2
289
     1
 69
     0
  7
Standard
140
6.0
170
     5
 62
     0
 63
     7
283
     0
274
    -2
284
     1
 64
     0
275
    -2
285
     1
 65
     0
276
    -2
286
     1
 66
     0
277
    -2
287
     1
 67
     0
278
    -2
288
     1
 68
     0
279
    -2
289
     1
 69
     0
  7
Standard
140
4.5
170
     5
 62
     0
 63
     7
283
     0
274
    -2
284
     1
 64
     0
275
    -2
285
     1
 65
     0
276
    -2
286
     1
 66
     0
277
    -2
287
     1
 67
     0
278
    -2
288
     1
 68
     0
279
    -2
289
     1
 69
     0
  0
DICTIONARYVAR
  5
DEB
102
{ACAD_REACTORS
330
DEA
102
}
330
DEA
100
DictionaryVariables
280
     0
  1
STANDARD
  0
DICTIONARYVAR
  5
123E
102
{ACAD_REACTORS
330
DEA
102
}
330
DEA
100
DictionaryVariables
280
     0
  1
1
  0
DICTIONARYVAR
  5
123F
102
{ACAD_REACTORS
330
DEA
102
}
330
DEA
100
DictionaryVariables
280
     0
  1

  0
DICTIONARY
  5
1245
330
22
100
AcDbDictionary
280
     1
281
     1
  3
ACAD_XREC_ROUNDTRIP
360
1246
  0
DICTIONARY
  5
1243
330
1E
100
AcDbDictionary
280
     1
281
     1
  3
ACAD_XREC_ROUNDTRIP
360
1244
  0
DICTIONARY
  5
1247
330
26
100
AcDbDictionary
280
     1
281
     1
  3
ACAD_XREC_ROUNDTRIP
360
1248
  0
XRECORD
  5
1246
102
{ACAD_REACTORS
330
1245
102
}
330
1245
100
AcDbXrecord
280
     1
102
SHADEPLOT
 70
     0
102
SHADEPLOTRESLEVEL
 70
     2
102
SHADEPLOTCUSTOMDPI
 70
   300
  0
XRECORD
  5
1244
102
{ACAD_REACTORS
330
1243
102
}
330
1243
100
AcDbXrecord
280
     1
102
SHADEPLOT
 70
     0
102
SHADEPLOTRESLEVEL
 70
     2
102
SHADEPLOTCUSTOMDPI
 70
   300
  0
XRECORD
  5
1248
102
{ACAD_REACTORS
330
1247
102
}
330
1247
100
AcDbXrecord
280
     1
102
SHADEPLOT
 70
     0
102
SHADEPLOTRESLEVEL
 70
     2
102
SHADEPLOTCUSTOMDPI
 70
   300
  0
ENDSEC
  0
EOF
