  0
SECTION
  2
HEADER
  9
$ACADVER
  1
AC1015
  9
$ACADMAINTVER
 70
    20
  9
$DWGCODEPAGE
  3
ANSI_932
  9
$INSBASE
 10
0.0
 20
0.0
 30
0.0
  9
$EXTMIN
 10
111.0
 20
4.0
 30
0.0
  9
$EXTMAX
 10
2784.000000000001
 20
2024.0
 30
0.0
  9
$LIMMIN
 10
0.0
 20
0.0
  9
$LIMMAX
 10
29700.0
 20
21000.0
  9
$ORTHOMODE
 70
     1
  9
$REGENMODE
 70
     1
  9
$FILLMODE
 70
     1
  9
$QTEXTMODE
 70
     0
  9
$MIRRTEXT
 70
     1
  9
$LTSCALE
 40
4.0
  9
$ATTMODE
 70
     1
  9
$TEXTSIZE
 40
25.0
  9
$TRACEWID
 40
1.0
  9
$TEXTSTYLE
  7
ms明朝
  9
$CLAYER
  8
実形
  9
$CELTYPE
  6
ByLayer
  9
$CECOLOR
 62
     3
  9
$CELTSCALE
 40
1.0
  9
$DISPSILH
 70
     0
  9
$DIMSCALE
 40
1.0
  9
$DIMASZ
 40
30.0
  9
$DIMEXO
 40
65.0
  9
$DIMDLI
 40
3.75
  9
$DIMRND
 40
0.0
  9
$DIMDLE
 40
0.0
  9
$DIMEXE
 40
0.0
  9
$DIMTP
 40
0.0
  9
$DIMTM
 40
0.0
  9
$DIMTXT
 40
25.0
  9
$DIMCEN
 40
2.5
  9
$DIMTSZ
 40
0.0
  9
$DIMTOL
 70
     0
  9
$DIMLIM
 70
     0
  9
$DIMTIH
 70
     0
  9
$DIMTOH
 70
     0
  9
$DIMSE1
 70
     0
  9
$DIMSE2
 70
     0
  9
$DIMTAD
 70
     1
  9
$DIMZIN
 70
     8
  9
$DIMBLK
  1
DotSmall
  9
$DIMASO
 70
     1
  9
$DIMSHO
 70
     1
  9
$DIMPOST
  1

  9
$DIMAPOST
  1

  9
$DIMALT
 70
     0
  9
$DIMALTD
 70
     3
  9
$DIMALTF
 40
0.03937007874016
  9
$DIMLFAC
 40
1.0
  9
$DIMTOFL
 70
     1
  9
$DIMTVP
 40
0.0
  9
$DIMTIX
 70
     0
  9
$DIMSOXD
 70
     0
  9
$DIMSAH
 70
     0
  9
$DIMBLK1
  1

  9
$DIMBLK2
  1

  9
$DIMSTYLE
  2
ISO-25
  9
$DIMCLRD
 70
     0
  9
$DIMCLRE
 70
     0
  9
$DIMCLRT
 70
     0
  9
$DIMTFAC
 40
1.0
  9
$DIMGAP
 40
6.25
  9
$DIMJUST
 70
     0
  9
$DIMSD1
 70
     0
  9
$DIMSD2
 70
     0
  9
$DIMTOLJ
 70
     0
  9
$DIMTZIN
 70
     8
  9
$DIMALTZ
 70
     0
  9
$DIMALTTZ
 70
     0
  9
$DIMUPT
 70
     0
  9
$DIMDEC
 70
     2
  9
$DIMTDEC
 70
     2
  9
$DIMALTU
 70
     2
  9
$DIMALTTD
 70
     3
  9
$DIMTXSTY
  7
Standard
  9
$DIMAUNIT
 70
     0
  9
$DIMADEC
 70
     0
  9
$DIMALTRND
 40
0.0
  9
$DIMAZIN
 70
     0
  9
$DIMDSEP
 70
    46
  9
$DIMATFIT
 70
     3
  9
$DIMFRAC
 70
     0
  9
$DIMLDRBLK
  1
Open30
  9
$DIMLUNIT
 70
     2
  9
$DIMLWD
 70
    15
  9
$DIMLWE
 70
    15
  9
$DIMTMOVE
 70
     1
  9
$LUNITS
 70
     2
  9
$LUPREC
 70
     2
  9
$SKETCHINC
 40
1.0
  9
$FILLETRAD
 40
26.0
  9
$AUNITS
 70
     0
  9
$AUPREC
 70
     0
  9
$MENU
  1
.
  9
$ELEVATION
 40
0.0
  9
$PELEVATION
 40
0.0
  9
$THICKNESS
 40
0.0
  9
$LIMCHECK
 70
     1
  9
$CHAMFERA
 40
10.0
  9
$CHAMFERB
 40
10.0
  9
$CHAMFERC
 40
20.0
  9
$CHAMFERD
 40
0.0
  9
$SKPOLY
 70
     0
  9
$TDCREATE
 40
2451673.575802199
  9
$TDUCREATE
 40
2451673.200802199
  9
$TDUPDATE
 40
2458803.767221690
  9
$TDUUPDATE
 40
2458803.392221690
  9
$TDINDWG
 40
2.2923153356
  9
$TDUSRTIMER
 40
2.2923146412
  9
$USRTIMER
 70
     1
  9
$ANGBASE
 50
0.0
  9
$ANGDIR
 70
     0
  9
$PDMODE
 70
     0
  9
$PDSIZE
 40
0.0
  9
$PLINEWID
 40
0.0
  9
$SPLFRAME
 70
     0
  9
$SPLINETYPE
 70
     6
  9
$SPLINESEGS
 70
     8
  9
$HANDSEED
  5
2503
  9
$SURFTAB1
 70
     6
  9
$SURFTAB2
 70
     6
  9
$SURFTYPE
 70
     6
  9
$SURFU
 70
     6
  9
$SURFV
 70
     6
  9
$UCSBASE
  2

  9
$UCSNAME
  2

  9
$UCSORG
 10
0.0
 20
0.0
 30
0.0
  9
$UCSXDIR
 10
1.0
 20
0.0
 30
0.0
  9
$UCSYDIR
 10
0.0
 20
1.0
 30
0.0
  9
$UCSORTHOREF
  2

  9
$UCSORTHOVIEW
 70
     0
  9
$UCSORGTOP
 10
0.0
 20
0.0
 30
0.0
  9
$UCSORGBOTTOM
 10
0.0
 20
0.0
 30
0.0
  9
$UCSORGLEFT
 10
0.0
 20
0.0
 30
0.0
  9
$UCSORGRIGHT
 10
0.0
 20
0.0
 30
0.0
  9
$UCSORGFRONT
 10
0.0
 20
0.0
 30
0.0
  9
$UCSORGBACK
 10
0.0
 20
0.0
 30
0.0
  9
$PUCSBASE
  2

  9
$PUCSNAME
  2

  9
$PUCSORG
 10
0.0
 20
0.0
 30
0.0
  9
$PUCSXDIR
 10
1.0
 20
0.0
 30
0.0
  9
$PUCSYDIR
 10
0.0
 20
1.0
 30
0.0
  9
$PUCSORTHOREF
  2

  9
$PUCSORTHOVIEW
 70
     0
  9
$PUCSORGTOP
 10
0.0
 20
0.0
 30
0.0
  9
$PUCSORGBOTTOM
 10
0.0
 20
0.0
 30
0.0
  9
$PUCSORGLEFT
 10
0.0
 20
0.0
 30
0.0
  9
$PUCSORGRIGHT
 10
0.0
 20
0.0
 30
0.0
  9
$PUCSORGFRONT
 10
0.0
 20
0.0
 30
0.0
  9
$PUCSORGBACK
 10
0.0
 20
0.0
 30
0.0
  9
$USERI1
 70
     0
  9
$USERI2
 70
     0
  9
$USERI3
 70
     0
  9
$USERI4
 70
     0
  9
$USERI5
 70
     0
  9
$USERR1
 40
0.0
  9
$USERR2
 40
0.0
  9
$USERR3
 40
0.0
  9
$USERR4
 40
0.0
  9
$USERR5
 40
0.0
  9
$WORLDVIEW
 70
     1
  9
$SHADEDGE
 70
     3
  9
$SHADEDIF
 70
    70
  9
$TILEMODE
 70
     1
  9
$MAXACTVP
 70
    64
  9
$PINSBASE
 10
0.0
 20
0.0
 30
0.0
  9
$PLIMCHECK
 70
     0
  9
$PEXTMIN
 10
27.8447512626648
 20
20.24591643810271
 30
0.0
  9
$PEXTMAX
 10
250.6027613639831
 20
182.2132479429245
 30
0.0
  9
$PLIMMIN
 10
-3.757080078125
 20
-3.757083177566528
  9
$PLIMMAX
 10
293.2112426757813
 20
206.2162444591522
  9
$UNITMODE
 70
     0
  9
$VISRETAIN
 70
     1
  9
$PLINEGEN
 70
     0
  9
$PSLTSCALE
 70
     1
  9
$TREEDEPTH
 70
  3020
  9
$CMLSTYLE
  2
Standard
  9
$CMLJUST
 70
     0
  9
$CMLSCALE
 40
20.0
  9
$PROXYGRAPHICS
 70
     1
  9
$MEASUREMENT
 70
     1
  9
$CELWEIGHT
370
    -1
  9
$ENDCAPS
280
     0
  9
$JOINSTYLE
280
     0
  9
$LWDISPLAY
290
     0
  9
$INSUNITS
 70
     4
  9
$HYPERLINKBASE
  1

  9
$STYLESHEET
  1

  9
$XEDIT
290
     1
  9
$CEPSNTYPE
380
     0
  9
$PSTYLEMODE
290
     1
  9
$FINGERPRINTGUID
  2
{C8EA1F16-24C9-11D4-9416-CE0A3B32152F}
  9
$VERSIONGUID
  2
{2282ECBC-5252-414F-A7A4-B38AB409B59C}
  9
$EXTNAMES
290
     1
  9
$PSVPSCALE
 40
0.0
  9
$OLESTARTUP
290
     0
  0
ENDSEC
  0
SECTION
  2
CLASSES
  0
CLASS
  1
ACDBDICTIONARYWDFLT
  2
AcDbDictionaryWithDefault
  3
ObjectDBX Classes
 90
        0
280
     0
281
     0
  0
CLASS
  1
ACDBPLACEHOLDER
  2
AcDbPlaceHolder
  3
ObjectDBX Classes
 90
        0
280
     0
281
     0
  0
CLASS
  1
LAYOUT
  2
AcDbLayout
  3
ObjectDBX Classes
 90
        0
280
     0
281
     0
  0
CLASS
  1
DICTIONARYVAR
  2
AcDbDictionaryVar
  3
ObjectDBX Classes
 90
        0
280
     0
281
     0
  0
CLASS
  1
TABLESTYLE
  2
AcDbTableStyle
  3
ObjectDBX Classes
 90
     2047
280
     0
281
     0
  0
CLASS
  1
SORTENTSTABLE
  2
AcDbSortentsTable
  3
ObjectDBX Classes
 90
        0
280
     0
281
     0
  0
ENDSEC
  0
SECTION
  2
TABLES
  0
TABLE
  2
VPORT
  5
8
330
0
100
AcDbSymbolTable
 70
     2
  0
VPORT
  5
24F7
330
8
100
AcDbSymbolTableRecord
100
AcDbViewportTableRecord
  2
*Active
 70
     0
 10
0.0
 20
0.0
 11
1.0
 21
1.0
 12
1382.956491241006
 22
1032.247156653555
 13
0.0
 23
0.0
 14
10.0
 24
10.0
 15
10.0
 25
10.0
 16
0.0
 26
0.0
 36
1.0
 17
0.0
 27
0.0
 37
0.0
 40
2214.426243265958
 41
1.29038112522686
 42
50.0
 43
0.0
 44
0.0
 50
0.0
 51
0.0
 71
     0
 72
   100
 73
     1
 74
     3
 75
     0
 76
     0
 77
     0
 78
     0
281
     0
 65
     1
110
0.0
120
0.0
130
0.0
111
1.0
121
0.0
131
0.0
112
0.0
122
1.0
132
0.0
 79
     0
146
0.0
  0
ENDTAB
  0
TABLE
  2
LTYPE
  5
5
330
0
100
AcDbSymbolTable
 70
    46
  0
LTYPE
  5
14
330
5
100
AcDbSymbolTableRecord
100
AcDbLinetypeTableRecord
  2
ByBlock
 70
     0
  3

 72
    65
 73
     0
 40
0.0
  0
LTYPE
  5
15
330
5
100
AcDbSymbolTableRecord
100
AcDbLinetypeTableRecord
  2
ByLayer
 70
     0
  3

 72
    65
 73
     0
 40
0.0
  0
LTYPE
  5
16
330
5
100
AcDbSymbolTableRecord
100
AcDbLinetypeTableRecord
  2
Continuous
 70
     0
  3
Solid line
 72
    65
 73
     0
 40
0.0
  0
LTYPE
  5
34
330
5
100
AcDbSymbolTableRecord
100
AcDbLinetypeTableRecord
  2
ACAD_ISO02W100
 70
     0
  3
ISO dash __ __ __ __ __ __ __ __ __ __ __ __ __
 72
    65
 73
     2
 40
15.0
 49
12.0
 74
     0
 49
-3.0
 74
     0
  0
LTYPE
  5
35
330
5
100
AcDbSymbolTableRecord
100
AcDbLinetypeTableRecord
  2
ACAD_ISO03W100
 70
     0
  3
ISO dash space __    __    __    __    __    __
 72
    65
 73
     2
 40
30.0
 49
12.0
 74
     0
 49
-18.0
 74
     0
  0
LTYPE
  5
36
330
5
100
AcDbSymbolTableRecord
100
AcDbLinetypeTableRecord
  2
ACAD_ISO04W100
 70
     0
  3
ISO long-dash dot ____ . ____ . ____ . ____ . _
 72
    65
 73
     4
 40
30.0
 49
24.0
 74
     0
 49
-3.0
 74
     0
 49
0.0
 74
     0
 49
-3.0
 74
     0
  0
LTYPE
  5
37
330
5
100
AcDbSymbolTableRecord
100
AcDbLinetypeTableRecord
  2
ACAD_ISO05W100
 70
     0
  3
ISO long-dash double-dot ____ .. ____ .. ____ .
 72
    65
 73
     6
 40
34.0
 49
24.0
 74
     0
 49
-3.0
 74
     0
 49
0.5
 74
     0
 49
-3.0
 74
     0
 49
0.5
 74
     0
 49
-3.0
 74
     0
  0
LTYPE
  5
38
330
5
100
AcDbSymbolTableRecord
100
AcDbLinetypeTableRecord
  2
ACAD_ISO06W100
 70
     0
  3
ISO long-dash triple-dot ____ ... ____ ... ____
 72
    65
 73
     8
 40
37.5
 49
24.0
 74
     0
 49
-3.0
 74
     0
 49
0.5
 74
     0
 49
-3.0
 74
     0
 49
0.5
 74
     0
 49
-3.0
 74
     0
 49
0.5
 74
     0
 49
-3.0
 74
     0
  0
LTYPE
  5
39
330
5
100
AcDbSymbolTableRecord
100
AcDbLinetypeTableRecord
  2
ACAD_ISO07W100
 70
     0
  3
ISO dot . . . . . . . . . . . . . . . . . . . .
 72
    65
 73
     2
 40
3.0
 49
0.0
 74
     0
 49
-3.0
 74
     0
  0
LTYPE
  5
3A
330
5
100
AcDbSymbolTableRecord
100
AcDbLinetypeTableRecord
  2
ACAD_ISO08W100
 70
     0
  3
ISO long-dash short-dash ____ __ ____ __ ____ _
 72
    65
 73
     4
 40
36.0
 49
24.0
 74
     0
 49
-3.0
 74
     0
 49
6.0
 74
     0
 49
-3.0
 74
     0
  0
LTYPE
  5
3B
330
5
100
AcDbSymbolTableRecord
100
AcDbLinetypeTableRecord
  2
ACAD_ISO09W100
 70
     0
  3
ISO long-dash double-short-dash ____ __ __ ____
 72
    65
 73
     6
 40
45.0
 49
24.0
 74
     0
 49
-3.0
 74
     0
 49
6.0
 74
     0
 49
-3.0
 74
     0
 49
6.0
 74
     0
 49
-3.0
 74
     0
  0
LTYPE
  5
3C
330
5
100
AcDbSymbolTableRecord
100
AcDbLinetypeTableRecord
  2
ACAD_ISO10W100
 70
     0
  3
ISO dash dot __ . __ . __ . __ . __ . __ . __ .
 72
    65
 73
     4
 40
18.0
 49
12.0
 74
     0
 49
-3.0
 74
     0
 49
0.0
 74
     0
 49
-3.0
 74
     0
  0
LTYPE
  5
3D
330
5
100
AcDbSymbolTableRecord
100
AcDbLinetypeTableRecord
  2
ACAD_ISO11W100
 70
     0
  3
ISO double-dash dot __ __ . __ __ . __ __ . __ 
 72
    65
 73
     6
 40
33.0
 49
12.0
 74
     0
 49
-3.0
 74
     0
 49
12.0
 74
     0
 49
-3.0
 74
     0
 49
0.0
 74
     0
 49
-3.0
 74
     0
  0
LTYPE
  5
3E
330
5
100
AcDbSymbolTableRecord
100
AcDbLinetypeTableRecord
  2
ACAD_ISO12W100
 70
     0
  3
ISO dash double-dot __ . . __ . . __ . . __ . .
 72
    65
 73
     6
 40
21.0
 49
12.0
 74
     0
 49
-3.0
 74
     0
 49
0.0
 74
     0
 49
-3.0
 74
     0
 49
0.0
 74
     0
 49
-3.0
 74
     0
  0
LTYPE
  5
3F
330
5
100
AcDbSymbolTableRecord
100
AcDbLinetypeTableRecord
  2
ACAD_ISO13W100
 70
     0
  3
ISO double-dash double-dot __ __ . . __ __ . . 
 72
    65
 73
     8
 40
36.0
 49
12.0
 74
     0
 49
-3.0
 74
     0
 49
12.0
 74
     0
 49
-3.0
 74
     0
 49
0.0
 74
     0
 49
-3.0
 74
     0
 49
0.0
 74
     0
 49
-3.0
 74
     0
  0
LTYPE
  5
40
330
5
100
AcDbSymbolTableRecord
100
AcDbLinetypeTableRecord
  2
ACAD_ISO14W100
 70
     0
  3
ISO dash triple-dot __ . . . __ . . . __ . . . 
 72
    65
 73
     8
 40
24.0
 49
12.0
 74
     0
 49
-3.0
 74
     0
 49
0.0
 74
     0
 49
-3.0
 74
     0
 49
0.0
 74
     0
 49
-3.0
 74
     0
 49
0.0
 74
     0
 49
-3.0
 74
     0
  0
LTYPE
  5
41
330
5
100
AcDbSymbolTableRecord
100
AcDbLinetypeTableRecord
  2
ACAD_ISO15W100
 70
     0
  3
ISO double-dash triple-dot __ __ . . . __ __ . 
 72
    65
 73
    10
 40
39.0
 49
12.0
 74
     0
 49
-3.0
 74
     0
 49
12.0
 74
     0
 49
-3.0
 74
     0
 49
0.0
 74
     0
 49
-3.0
 74
     0
 49
0.0
 74
     0
 49
-3.0
 74
     0
 49
0.0
 74
     0
 49
-3.0
 74
     0
  0
LTYPE
  5
42
330
5
100
AcDbSymbolTableRecord
100
AcDbLinetypeTableRecord
  2
BATTING
 70
     0
  3
Batting SSSSSSSSSSSSSSSSSSSSSSSSSSSSSSSSSSSSSSS
 72
    65
 73
     4
 40
10.16254
 49
0.00254
 74
     0
 49
-2.54
 74
     4
 75
   134
340
33
 46
2.54
 50
0.0
 44
-2.54
 45
0.0
 49
-5.08
 74
     4
 75
   134
340
33
 46
2.54
 50
180.0
 44
2.54
 45
0.0
 49
-2.54
 74
     0
  0
LTYPE
  5
43
330
5
100
AcDbSymbolTableRecord
100
AcDbLinetypeTableRecord
  2
BORDER
 70
     0
  3
Border __ __ . __ __ . __ __ . __ __ . __ __ .
 72
    65
 73
     6
 40
44.45
 49
12.7
 74
     0
 49
-6.349999999999999
 74
     0
 49
12.7
 74
     0
 49
-6.349999999999999
 74
     0
 49
0.0
 74
     0
 49
-6.349999999999999
 74
     0
  0
LTYPE
  5
44
330
5
100
AcDbSymbolTableRecord
100
AcDbLinetypeTableRecord
  2
BORDER2
 70
     0
  3
Border (.5x) __.__.__.__.__.__.__.__.__.__.__.
 72
    65
 73
     6
 40
22.225
 49
6.349999999999999
 74
     0
 49
-3.174999999999999
 74
     0
 49
6.349999999999999
 74
     0
 49
-3.174999999999999
 74
     0
 49
0.0
 74
     0
 49
-3.174999999999999
 74
     0
  0
LTYPE
  5
45
330
5
100
AcDbSymbolTableRecord
100
AcDbLinetypeTableRecord
  2
BORDERX2
 70
     0
  3
Border (2x) ____  ____  .  ____  ____  .  ___
 72
    65
 73
     6
 40
88.9
 49
25.4
 74
     0
 49
-12.7
 74
     0
 49
25.4
 74
     0
 49
-12.7
 74
     0
 49
0.0
 74
     0
 49
-12.7
 74
     0
  0
LTYPE
  5
46
330
5
100
AcDbSymbolTableRecord
100
AcDbLinetypeTableRecord
  2
CENTER
 70
     0
  3
Center ____ _ ____ _ ____ _ ____ _ ____ _ ____
 72
    65
 73
     4
 40
50.8
 49
31.75
 74
     0
 49
-6.349999999999999
 74
     0
 49
6.349999999999999
 74
     0
 49
-6.349999999999999
 74
     0
  0
LTYPE
  5
47
330
5
100
AcDbSymbolTableRecord
100
AcDbLinetypeTableRecord
  2
CENTER2
 70
     0
  3
Center (.5x) ___ _ ___ _ ___ _ ___ _ ___ _ ___
 72
    65
 73
     4
 40
28.575
 49
19.05
 74
     0
 49
-3.174999999999999
 74
     0
 49
3.174999999999999
 74
     0
 49
-3.174999999999999
 74
     0
  0
LTYPE
  5
48
330
5
100
AcDbSymbolTableRecord
100
AcDbLinetypeTableRecord
  2
CENTERX2
 70
     0
  3
Center (2x) ________  __  ________  __  _____
 72
    65
 73
     4
 40
101.6
 49
63.5
 74
     0
 49
-12.7
 74
     0
 49
12.7
 74
     0
 49
-12.7
 74
     0
  0
LTYPE
  5
49
330
5
100
AcDbSymbolTableRecord
100
AcDbLinetypeTableRecord
  2
DASHDOT
 70
     0
  3
Dash dot __ . __ . __ . __ . __ . __ . __ . __
 72
    65
 73
     4
 40
25.4
 49
12.7
 74
     0
 49
-6.349999999999999
 74
     0
 49
0.0
 74
     0
 49
-6.349999999999999
 74
     0
  0
LTYPE
  5
4A
330
5
100
AcDbSymbolTableRecord
100
AcDbLinetypeTableRecord
  2
DASHDOT2
 70
     0
  3
Dash dot (.5x) _._._._._._._._._._._._._._._.
 72
    65
 73
     4
 40
12.7
 49
6.349999999999999
 74
     0
 49
-3.174999999999999
 74
     0
 49
0.0
 74
     0
 49
-3.174999999999999
 74
     0
  0
LTYPE
  5
4B
330
5
100
AcDbSymbolTableRecord
100
AcDbLinetypeTableRecord
  2
DASHDOTX2
 70
     0
  3
Dash dot (2x) ____  .  ____  .  ____  .  ___
 72
    65
 73
     4
 40
50.8
 49
25.4
 74
     0
 49
-12.7
 74
     0
 49
0.0
 74
     0
 49
-12.7
 74
     0
  0
LTYPE
  5
4C
330
5
100
AcDbSymbolTableRecord
100
AcDbLinetypeTableRecord
  2
DASHED
 70
     0
  3
Dashed __ __ __ __ __ __ __ __ __ __ __ __ __ _
 72
    65
 73
     2
 40
19.05
 49
12.7
 74
     0
 49
-6.349999999999999
 74
     0
  0
LTYPE
  5
4D
330
5
100
AcDbSymbolTableRecord
100
AcDbLinetypeTableRecord
  2
DASHED2
 70
     0
  3
Dashed (.5x) _ _ _ _ _ _ _ _ _ _ _ _ _ _ _ _ _
 72
    65
 73
     2
 40
9.524999999999998
 49
6.349999999999999
 74
     0
 49
-3.174999999999999
 74
     0
  0
LTYPE
  5
4E
330
5
100
AcDbSymbolTableRecord
100
AcDbLinetypeTableRecord
  2
DASHEDX2
 70
     0
  3
Dashed (2x) ____  ____  ____  ____  ____  ___
 72
    65
 73
     2
 40
38.1
 49
25.4
 74
     0
 49
-12.7
 74
     0
  0
LTYPE
  5
4F
330
5
100
AcDbSymbolTableRecord
100
AcDbLinetypeTableRecord
  2
DIVIDE
 70
     0
  3
Divide ____ . . ____ . . ____ . . ____ . . ____
 72
    65
 73
     6
 40
31.75
 49
12.7
 74
     0
 49
-6.349999999999999
 74
     0
 49
0.0
 74
     0
 49
-6.349999999999999
 74
     0
 49
0.0
 74
     0
 49
-6.349999999999999
 74
     0
  0
LTYPE
  5
50
330
5
100
AcDbSymbolTableRecord
100
AcDbLinetypeTableRecord
  2
DIVIDE2
 70
     0
  3
Divide (.5x) __..__..__..__..__..__..__..__.._
 72
    65
 73
     6
 40
15.875
 49
6.349999999999999
 74
     0
 49
-3.174999999999999
 74
     0
 49
0.0
 74
     0
 49
-3.174999999999999
 74
     0
 49
0.0
 74
     0
 49
-3.174999999999999
 74
     0
  0
LTYPE
  5
51
330
5
100
AcDbSymbolTableRecord
100
AcDbLinetypeTableRecord
  2
DIVIDEX2
 70
     0
  3
Divide (2x) ________  .  .  ________  .  .  _
 72
    65
 73
     6
 40
63.49999999999999
 49
25.4
 74
     0
 49
-12.7
 74
     0
 49
0.0
 74
     0
 49
-12.7
 74
     0
 49
0.0
 74
     0
 49
-12.7
 74
     0
  0
LTYPE
  5
52
330
5
100
AcDbSymbolTableRecord
100
AcDbLinetypeTableRecord
  2
DOT
 70
     0
  3
Dot . . . . . . . . . . . . . . . . . . . . . .
 72
    65
 73
     2
 40
6.349999999999999
 49
0.0
 74
     0
 49
-6.349999999999999
 74
     0
  0
LTYPE
  5
53
330
5
100
AcDbSymbolTableRecord
100
AcDbLinetypeTableRecord
  2
DOT2
 70
     0
  3
Dot (.5x) .....................................
 72
    65
 73
     2
 40
3.174999999999999
 49
0.0
 74
     0
 49
-3.174999999999999
 74
     0
  0
LTYPE
  5
54
330
5
100
AcDbSymbolTableRecord
100
AcDbLinetypeTableRecord
  2
DOTX2
 70
     0
  3
Dot (2x) .  .  .  .  .  .  .  .  .  .  .  .  . 
 72
    65
 73
     2
 40
12.7
 49
0.0
 74
     0
 49
-12.7
 74
     0
  0
LTYPE
  5
55
330
5
100
AcDbSymbolTableRecord
100
AcDbLinetypeTableRecord
  2
FENCELINE1
 70
     0
  3
Fenceline circle ----0-----0----0-----0----0---
 72
    65
 73
     4
 40
36.83
 49
6.349999999999999
 74
     0
 49
-2.54
 74
     4
 75
   133
340
33
 46
2.54
 50
0.0
 44
-2.54
 45
0.0
 49
-2.54
 74
     0
 49
25.4
 74
     0
  0
LTYPE
  5
56
330
5
100
AcDbSymbolTableRecord
100
AcDbLinetypeTableRecord
  2
FENCELINE2
 70
     0
  3
Fenceline square ----[]-----[]----[]-----[]----
 72
    65
 73
     4
 40
36.83
 49
6.349999999999999
 74
     0
 49
-2.54
 74
     4
 75
   132
340
33
 46
2.54
 50
0.0
 44
-2.54
 45
0.0
 49
-2.54
 74
     0
 49
25.4
 74
     0
  0
LTYPE
  5
57
330
5
100
AcDbSymbolTableRecord
100
AcDbLinetypeTableRecord
  2
GAS_LINE
 70
     0
  3
Gas line ----GAS----GAS----GAS----GAS----GAS---
 72
    65
 73
     3
 40
24.13
 49
12.7
 74
     0
 49
-5.08
 74
     2
 75
     0
340
11
 46
2.54
 50
0.0
 44
-2.54
 45
-1.27
  9
GAS
 49
-6.349999999999999
 74
     0
  0
LTYPE
  5
58
330
5
100
AcDbSymbolTableRecord
100
AcDbLinetypeTableRecord
  2
HIDDEN
 70
     0
  3
Hidden __ __ __ __ __ __ __ __ __ __ __ __ __ _
 72
    65
 73
     2
 40
9.524999999999998
 49
6.349999999999999
 74
     0
 49
-3.174999999999999
 74
     0
  0
LTYPE
  5
59
330
5
100
AcDbSymbolTableRecord
100
AcDbLinetypeTableRecord
  2
HIDDEN2
 70
     0
  3
Hidden (.5x) _ _ _ _ _ _ _ _ _ _ _ _ _ _ _ _ _
 72
    65
 73
     2
 40
4.762499999999999
 49
3.174999999999999
 74
     0
 49
-1.587499999999999
 74
     0
  0
LTYPE
  5
5A
330
5
100
AcDbSymbolTableRecord
100
AcDbLinetypeTableRecord
  2
HIDDENX2
 70
     0
  3
Hidden (2x) ____ ____ ____ ____ ____ ____ ____
 72
    65
 73
     2
 40
19.05
 49
12.7
 74
     0
 49
-6.349999999999999
 74
     0
  0
LTYPE
  5
5B
330
5
100
AcDbSymbolTableRecord
100
AcDbLinetypeTableRecord
  2
HOT_WATER_SUPPLY
 70
     0
  3
Hot water supply ---- HW ---- HW ---- HW ----
 72
    65
 73
     3
 40
22.86
 49
12.7
 74
     0
 49
-5.08
 74
     2
 75
     0
340
11
 46
2.54
 50
0.0
 44
-2.54
 45
-1.27
  9
HW
 49
-5.08
 74
     0
  0
LTYPE
  5
5C
330
5
100
AcDbSymbolTableRecord
100
AcDbLinetypeTableRecord
  2
PHANTOM
 70
     0
  3
Phantom ______  __  __  ______  __  __  ______
 72
    65
 73
     6
 40
63.5
 49
31.75
 74
     0
 49
-6.349999999999999
 74
     0
 49
6.349999999999999
 74
     0
 49
-6.349999999999999
 74
     0
 49
6.349999999999999
 74
     0
 49
-6.349999999999999
 74
     0
  0
LTYPE
  5
5D
330
5
100
AcDbSymbolTableRecord
100
AcDbLinetypeTableRecord
  2
PHANTOM2
 70
     0
  3
Phantom (.5x) ___ _ _ ___ _ _ ___ _ _ ___ _ _
 72
    65
 73
     6
 40
31.75
 49
15.875
 74
     0
 49
-3.174999999999999
 74
     0
 49
3.174999999999999
 74
     0
 49
-3.174999999999999
 74
     0
 49
3.174999999999999
 74
     0
 49
-3.174999999999999
 74
     0
  0
LTYPE
  5
5E
330
5
100
AcDbSymbolTableRecord
100
AcDbLinetypeTableRecord
  2
PHANTOMX2
 70
     0
  3
Phantom (2x) ____________    ____    ____   _
 72
    65
 73
     6
 40
127.0
 49
63.5
 74
     0
 49
-12.7
 74
     0
 49
12.7
 74
     0
 49
-12.7
 74
     0
 49
12.7
 74
     0
 49
-12.7
 74
     0
  0
LTYPE
  5
5F
330
5
100
AcDbSymbolTableRecord
100
AcDbLinetypeTableRecord
  2
TRACKS
 70
     0
  3
Tracks -|-|-|-|-|-|-|-|-|-|-|-|-|-|-|-|-|-|-|-|
 72
    65
 73
     2
 40
7.62
 49
3.81
 74
     4
 75
   130
340
33
 46
6.349999999999999
 50
0.0
 44
0.0
 45
0.0
 49
3.81
 74
     0
  0
LTYPE
  5
60
330
5
100
AcDbSymbolTableRecord
100
AcDbLinetypeTableRecord
  2
ZIGZAG
 70
     0
  3
Zig zag /\/\/\/\/\/\/\/\/\/\/\/\/\/\/\/\/\/\/\/
 72
    65
 73
     4
 40
20.32254
 49
0.00254
 74
     0
 49
-5.08
 74
     4
 75
   131
340
33
 46
5.08
 50
0.0
 44
-5.08
 45
0.0
 49
-10.16
 74
     4
 75
   131
340
33
 46
5.08
 50
180.0
 44
5.08
 45
0.0
 49
-5.08
 74
     0
  0
ENDTAB
  0
TABLE
  2
LAYER
  5
2
102
{ACAD_XDICTIONARY
360
DE1
102
}
330
0
100
AcDbSymbolTable
 70
     7
  0
LAYER
  5
10
330
2
100
AcDbSymbolTableRecord
100
AcDbLayerTableRecord
  2
0
 70
     0
 62
     7
  6
Continuous
370
    -3
390
F
  0
LAYER
  5
C3
330
2
100
AcDbSymbolTableRecord
100
AcDbLayerTableRecord
  2
Defpoints
 70
     0
 62
     7
  6
Continuous
290
     0
370
    -3
390
F
  0
LAYER
  5
256
330
2
100
AcDbSymbolTableRecord
100
AcDbLayerTableRecord
  2
Cen
 70
     0
 62
     7
  6
CENTER2
370
    15
390
F
  0
LAYER
  5
5DF
330
2
100
AcDbSymbolTableRecord
100
AcDbLayerTableRecord
  2
実形
 70
     0
 62
     7
  6
Continuous
370
    -3
390
F
  0
LAYER
  5
60C
330
2
100
AcDbSymbolTableRecord
100
AcDbLayerTableRecord
  2
補助
 70
     0
 62
     7
  6
Continuous
370
    -3
390
F
  0
LAYER
  5
619
330
2
100
AcDbSymbolTableRecord
100
AcDbLayerTableRecord
  2
センター
 70
     0
 62
     7
  6
CENTER2
370
    18
390
F
  0
LAYER
  5
61A
330
2
100
AcDbSymbolTableRecord
100
AcDbLayerTableRecord
  2
寸法
 70
     0
 62
     7
  6
Continuous
370
    18
390
F
  0
ENDTAB
  0
TABLE
  2
STYLE
  5
3
330
0
100
AcDbSymbolTable
 70
     4
  0
STYLE
  5
11
330
3
100
AcDbSymbolTableRecord
100
AcDbTextStyleTableRecord
  2
Standard
 70
     0
 40
0.0
 41
1.0
 50
0.0
 71
     0
 42
25.0
  3
txt.shx
  4
bigfont.shx
  0
STYLE
  5
33
330
3
100
AcDbSymbolTableRecord
100
AcDbTextStyleTableRecord
  2

 70
     1
 40
0.0
 41
1.0
 50
0.0
 71
     0
 42
2.5
  3
ltypeshp.shx
  4

  0
STYLE
  5
EEA
330
3
100
AcDbSymbolTableRecord
100
AcDbTextStyleTableRecord
  2
ms明朝
 70
     0
 40
0.0
 41
1.0
 50
0.0
 71
     0
 42
25.0
  3
MS Mincho.ttf
  4

1001
ACAD
1000
MS Mincho
1071
    32785
  0
STYLE
  5
126A
330
3
100
AcDbSymbolTableRecord
100
AcDbTextStyleTableRecord
  2
明朝
 70
     0
 40
0.0
 41
1.0
 50
0.0
 71
     0
 42
25.0
  3
MS Mincho.ttf
  4

1001
ACAD
1000
MS Mincho
1071
    32785
  0
ENDTAB
  0
TABLE
  2
VIEW
  5
6
330
0
100
AcDbSymbolTable
 70
     0
  0
ENDTAB
  0
TABLE
  2
UCS
  5
7
330
0
100
AcDbSymbolTable
 70
     0
  0
ENDTAB
  0
TABLE
  2
APPID
  5
9
330
0
100
AcDbSymbolTable
 70
     2
  0
APPID
  5
12
330
9
100
AcDbSymbolTableRecord
100
AcDbRegAppTableRecord
  2
ACAD
 70
     0
  0
APPID
  5
DE0
330
9
100
AcDbSymbolTableRecord
100
AcDbRegAppTableRecord
  2
ACAD_PSEXT
 70
     0
  0
ENDTAB
  0
TABLE
  2
DIMSTYLE
  5
A
330
0
100
AcDbSymbolTable
 70
     1
100
AcDbDimStyleTable
 71
     1
340
27
  0
DIMSTYLE
105
27
102
{ACAD_REACTORS
330
13E0
330
141A
330
143C
330
15B0
330
15BD
330
15CA
330
15D7
330
16FA
330
16FB
330
1709
330
170D
330
170E
330
170F
330
1710
330
1852
330
1875
330
1877
330
1878
330
1879
330
187A
330
199B
330
19E0
330
19F6
330
1A70
330
1AFA
330
1DC5
330
1F07
330
216C
330
216D
330
216E
330
216F
330
225B
330
229F
330
2335
330
23C4
102
}
330
A
100
AcDbSymbolTableRecord
100
AcDbDimStyleTableRecord
  2
ISO-25
 70
     0
 41
30.0
 42
65.0
 43
3.75
 44
0.0
 73
     0
 74
     0
 77
     1
 78
     8
140
25.0
141
2.5
143
0.03937007874016
147
6.25
171
     3
172
     1
271
     2
272
     2
274
     3
283
     0
284
     8
340
11
341
DA
342
D0
371
    15
372
    15
  0
ENDTAB
  0
TABLE
  2
BLOCK_RECORD
  5
1
330
0
100
AcDbSymbolTable
 70
    42
  0
BLOCK_RECORD
  5
1F
102
{ACAD_XDICTIONARY
360
C47
102
}
330
1
100
AcDbSymbolTableRecord
100
AcDbBlockTableRecord
  2
*Model_Space
340
22
  0
BLOCK_RECORD
  5
1B
330
1
100
AcDbSymbolTableRecord
100
AcDbBlockTableRecord
  2
*Paper_Space
340
1E
  0
BLOCK_RECORD
  5
23
330
1
100
AcDbSymbolTableRecord
100
AcDbBlockTableRecord
  2
*Paper_Space0
340
26
  0
BLOCK_RECORD
  5
D0
330
1
100
AcDbSymbolTableRecord
100
AcDbBlockTableRecord
  2
_DotSmall
340
0
102
{BLKREFS
331
1C0E
331
1C0F
331
1C17
331
1C18
331
1C21
331
1C22
331
1C2C
331
1C2D
331
1C35
331
1C36
331
1C3E
331
1C3F
331
1C46
331
1C47
331
1CEE
331
1CEF
331
1CF7
331
1CF8
331
1D39
331
1D3A
331
1D5F
331
1D60
331
1EB3
331
1EB4
331
1EBA
331
1EBB
331
1EC5
331
1EC6
331
1ECE
331
1ECF
331
1ED7
331
1ED8
331
1F8B
331
1F8C
331
21D0
331
21D1
331
21D9
331
21DA
331
21E2
331
21E3
331
21EA
331
21EB
331
2225
331
2226
331
222E
331
222F
331
22FA
331
22FB
331
2303
331
2304
331
230B
331
230C
331
2315
331
2316
331
2327
331
2328
331
237B
331
237C
331
2384
331
2385
331
238D
331
238E
331
23A8
331
23A9
331
23B2
331
23B3
331
241D
331
241E
331
2427
331
2428
102
}
  0
BLOCK_RECORD
  5
D4
330
1
100
AcDbSymbolTableRecord
100
AcDbBlockTableRecord
  2
_Origin2
340
0
  0
BLOCK_RECORD
  5
DA
330
1
100
AcDbSymbolTableRecord
100
AcDbBlockTableRecord
  2
_Open30
340
0
  0
BLOCK_RECORD
  5
DE3
102
{ACAD_XDICTIONARY
360
DE5
102
}
330
1
100
AcDbSymbolTableRecord
100
AcDbBlockTableRecord
  2
A$C0655774D
340
0
  0
BLOCK_RECORD
  5
DE9
330
1
100
AcDbSymbolTableRecord
100
AcDbBlockTableRecord
  2
_Dot
340
0
  0
BLOCK_RECORD
  5
FBF
102
{ACAD_XDICTIONARY
360
FC3
102
}
330
1
100
AcDbSymbolTableRecord
100
AcDbBlockTableRecord
  2
A$C32F61BAA
340
0
  0
BLOCK_RECORD
  5
13E1
330
1
100
AcDbSymbolTableRecord
100
AcDbBlockTableRecord
  2
*D7
340
0
  0
BLOCK_RECORD
  5
141B
330
1
100
AcDbSymbolTableRecord
100
AcDbBlockTableRecord
  2
*D8
340
0
  0
BLOCK_RECORD
  5
143D
330
1
100
AcDbSymbolTableRecord
100
AcDbBlockTableRecord
  2
*D9
340
0
  0
BLOCK_RECORD
  5
15B1
330
1
100
AcDbSymbolTableRecord
100
AcDbBlockTableRecord
  2
*D10
340
0
  0
BLOCK_RECORD
  5
15BE
330
1
100
AcDbSymbolTableRecord
100
AcDbBlockTableRecord
  2
*D11
340
0
  0
BLOCK_RECORD
  5
15CB
330
1
100
AcDbSymbolTableRecord
100
AcDbBlockTableRecord
  2
*D12
340
0
  0
BLOCK_RECORD
  5
15D8
330
1
100
AcDbSymbolTableRecord
100
AcDbBlockTableRecord
  2
*D13
340
0
  0
BLOCK_RECORD
  5
1714
330
1
100
AcDbSymbolTableRecord
100
AcDbBlockTableRecord
  2
*D14
340
0
  0
BLOCK_RECORD
  5
1720
330
1
100
AcDbSymbolTableRecord
100
AcDbBlockTableRecord
  2
*D15
340
0
  0
BLOCK_RECORD
  5
172C
330
1
100
AcDbSymbolTableRecord
100
AcDbBlockTableRecord
  2
*D16
340
0
  0
BLOCK_RECORD
  5
1738
330
1
100
AcDbSymbolTableRecord
100
AcDbBlockTableRecord
  2
*D17
340
0
  0
BLOCK_RECORD
  5
1744
330
1
100
AcDbSymbolTableRecord
100
AcDbBlockTableRecord
  2
*D18
340
0
  0
BLOCK_RECORD
  5
1750
330
1
100
AcDbSymbolTableRecord
100
AcDbBlockTableRecord
  2
*D19
340
0
  0
BLOCK_RECORD
  5
175C
330
1
100
AcDbSymbolTableRecord
100
AcDbBlockTableRecord
  2
*D20
340
0
  0
BLOCK_RECORD
  5
1853
330
1
100
AcDbSymbolTableRecord
100
AcDbBlockTableRecord
  2
*D21
340
0
  0
BLOCK_RECORD
  5
187B
330
1
100
AcDbSymbolTableRecord
100
AcDbBlockTableRecord
  2
*D22
340
0
  0
BLOCK_RECORD
  5
1895
330
1
100
AcDbSymbolTableRecord
100
AcDbBlockTableRecord
  2
*D23
340
0
  0
BLOCK_RECORD
  5
18A1
330
1
100
AcDbSymbolTableRecord
100
AcDbBlockTableRecord
  2
*D24
340
0
  0
BLOCK_RECORD
  5
18AD
330
1
100
AcDbSymbolTableRecord
100
AcDbBlockTableRecord
  2
*D25
340
0
  0
BLOCK_RECORD
  5
18B9
330
1
100
AcDbSymbolTableRecord
100
AcDbBlockTableRecord
  2
*D26
340
0
  0
BLOCK_RECORD
  5
199C
330
1
100
AcDbSymbolTableRecord
100
AcDbBlockTableRecord
  2
*D27
340
0
  0
BLOCK_RECORD
  5
19E1
330
1
100
AcDbSymbolTableRecord
100
AcDbBlockTableRecord
  2
*D28
340
0
  0
BLOCK_RECORD
  5
19F7
330
1
100
AcDbSymbolTableRecord
100
AcDbBlockTableRecord
  2
*D29
340
0
  0
BLOCK_RECORD
  5
1A71
330
1
100
AcDbSymbolTableRecord
100
AcDbBlockTableRecord
  2
*D30
340
0
  0
BLOCK_RECORD
  5
1AFB
330
1
100
AcDbSymbolTableRecord
100
AcDbBlockTableRecord
  2
*D31
340
0
  0
BLOCK_RECORD
  5
1DC6
330
1
100
AcDbSymbolTableRecord
100
AcDbBlockTableRecord
  2
*D32
340
0
  0
BLOCK_RECORD
  5
1F08
330
1
100
AcDbSymbolTableRecord
100
AcDbBlockTableRecord
  2
*D33
340
0
  0
BLOCK_RECORD
  5
2170
330
1
100
AcDbSymbolTableRecord
100
AcDbBlockTableRecord
  2
*D34
340
0
  0
BLOCK_RECORD
  5
217E
330
1
100
AcDbSymbolTableRecord
100
AcDbBlockTableRecord
  2
*D35
340
0
  0
BLOCK_RECORD
  5
218A
330
1
100
AcDbSymbolTableRecord
100
AcDbBlockTableRecord
  2
*D36
340
0
  0
BLOCK_RECORD
  5
2196
330
1
100
AcDbSymbolTableRecord
100
AcDbBlockTableRecord
  2
*D37
340
0
  0
BLOCK_RECORD
  5
225C
330
1
100
AcDbSymbolTableRecord
100
AcDbBlockTableRecord
  2
*D38
340
0
  0
BLOCK_RECORD
  5
22A0
330
1
100
AcDbSymbolTableRecord
100
AcDbBlockTableRecord
  2
*D39
340
0
  0
BLOCK_RECORD
  5
2336
330
1
100
AcDbSymbolTableRecord
100
AcDbBlockTableRecord
  2
*D40
340
0
  0
BLOCK_RECORD
  5
23C5
330
1
100
AcDbSymbolTableRecord
100
AcDbBlockTableRecord
  2
*D41
340
0
  0
ENDTAB
  0
ENDSEC
  0
SECTION
  2
BLOCKS
  0
BLOCK
  5
20
330
1F
100
AcDbEntity
  8
0
100
AcDbBlockBegin
  2
*Model_Space
 70
     0
 10
0.0
 20
0.0
 30
0.0
  3
*Model_Space
  1

  0
ENDBLK
  5
21
330
1F
100
AcDbEntity
  8
0
100
AcDbBlockEnd
  0
BLOCK
  5
1C
330
1B
100
AcDbEntity
 67
     1
  8
0
100
AcDbBlockBegin
  2
*Paper_Space
 70
     0
 10
0.0
 20
0.0
 30
0.0
  3
*Paper_Space
  1

  0
ENDBLK
  5
1D
330
1B
100
AcDbEntity
 67
     1
  8
0
100
AcDbBlockEnd
  0
BLOCK
  5
24
330
23
100
AcDbEntity
  8
0
100
AcDbBlockBegin
  2
*Paper_Space0
 70
     0
 10
0.0
 20
0.0
 30
0.0
  3
*Paper_Space0
  1

  0
ENDBLK
  5
25
330
23
100
AcDbEntity
  8
0
100
AcDbBlockEnd
  0
BLOCK
  5
D2
330
D0
100
AcDbEntity
  8
0
100
AcDbBlockBegin
  2
_DotSmall
 70
     0
 10
0.0
 20
0.0
 30
0.0
  3
_DotSmall
  1

  0
LWPOLYLINE
  5
D1
330
D0
100
AcDbEntity
  8
0
 62
     0
100
AcDbPolyline
 90
        2
 70
     1
 43
0.5
 10
-0.0625
 20
0.0
 42
1.0
 10
0.0625
 20
0.0
 42
1.0
  0
ENDBLK
  5
D3
330
D0
100
AcDbEntity
  8
0
100
AcDbBlockEnd
  0
BLOCK
  5
D8
330
D4
100
AcDbEntity
  8
0
100
AcDbBlockBegin
  2
_Origin2
 70
     0
 10
0.0
 20
0.0
 30
0.0
  3
_Origin2
  1

  0
CIRCLE
  5
D5
330
D4
100
AcDbEntity
  8
0
 62
     0
370
    -2
100
AcDbCircle
 10
0.0
 20
0.0
 30
0.0
 40
0.5
  0
CIRCLE
  5
D6
330
D4
100
AcDbEntity
  8
0
 62
     0
370
    -2
100
AcDbCircle
 10
0.0
 20
0.0
 30
0.0
 40
0.25
  0
LINE
  5
D7
330
D4
100
AcDbEntity
  8
0
 62
     0
370
    -2
100
AcDbLine
 10
-0.5
 20
0.0
 30
0.0
 11
-1.0
 21
0.0
 31
0.0
  0
ENDBLK
  5
D9
330
D4
100
AcDbEntity
  8
0
100
AcDbBlockEnd
  0
BLOCK
  5
DE
330
DA
100
AcDbEntity
  8
0
100
AcDbBlockBegin
  2
_Open30
 70
     0
 10
0.0
 20
0.0
 30
0.0
  3
_Open30
  1

  0
LINE
  5
DB
330
DA
100
AcDbEntity
  8
0
 62
     0
370
    -2
100
AcDbLine
 10
-1.0
 20
0.26794919
 30
0.0
 11
0.0
 21
0.0
 31
0.0
  0
LINE
  5
DC
330
DA
100
AcDbEntity
  8
0
 62
     0
370
    -2
100
AcDbLine
 10
0.0
 20
0.0
 30
0.0
 11
-1.0
 21
-0.26794919
 31
0.0
  0
LINE
  5
DD
330
DA
100
AcDbEntity
  8
0
 62
     0
370
    -2
100
AcDbLine
 10
0.0
 20
0.0
 30
0.0
 11
-1.0
 21
0.0
 31
0.0
  0
ENDBLK
  5
DF
330
DA
100
AcDbEntity
  8
0
100
AcDbBlockEnd
  0
BLOCK
  5
DE7
330
DE3
100
AcDbEntity
  8
0
100
AcDbBlockBegin
  2
A$C0655774D
 70
     0
 10
0.0
 20
0.0
 30
0.0
  3
A$C0655774D
  1

  0
HATCH
  5
DE4
330
DE3
100
AcDbEntity
  8
実形
 62
     0
100
AcDbHatch
 10
0.0
 20
0.0
 30
0.0
210
0.0
220
0.0
230
1.0
  2
SOLID
 70
     1
 71
     0
 91
        1
 92
        7
 72
     1
 73
     1
 93
        2
 10
4.552682973722539
 20
0.0000016847325242
 42
-1.0
 10
4.548727101171948
 20
9.101409440015231
 42
-1.0
 97
        0
 75
     0
 76
     1
 47
0.1166526434546944
 98
        1
 10
6.651064143657322
 20
3.151410098740825
  0
ENDBLK
  5
DE8
330
DE3
100
AcDbEntity
  8
0
100
AcDbBlockEnd
  0
BLOCK
  5
DEA
330
DE9
100
AcDbEntity
  8
0
100
AcDbBlockBegin
  2
_Dot
 70
     0
 10
0.0
 20
0.0
 30
0.0
  3
_Dot
  1

  0
LWPOLYLINE
  5
DEB
330
DE9
100
AcDbEntity
  8
0
 62
     0
100
AcDbPolyline
 90
        2
 70
     1
 43
0.5
 10
-0.25
 20
0.0
 42
1.0
 10
0.25
 20
0.0
 42
1.0
  0
LINE
  5
DEC
330
DE9
100
AcDbEntity
  8
0
 62
     0
370
    -2
100
AcDbLine
 10
-0.5
 20
0.0
 30
0.0
 11
-1.0
 21
0.0
 31
0.0
  0
ENDBLK
  5
DED
330
DE9
100
AcDbEntity
  8
0
100
AcDbBlockEnd
  0
BLOCK
  5
FC5
330
FBF
100
AcDbEntity
  8
0
100
AcDbBlockBegin
  2
A$C32F61BAA
 70
     0
 10
0.0
 20
0.0
 30
0.0
  3
A$C32F61BAA
  1

  0
TEXT
  5
FC0
330
FBF
100
AcDbEntity
  8
実形
100
AcDbText
 10
3.510854310754125
 20
15.9044409174766
 30
0.0
 40
30.0
  1
ポケット
  7
ms明朝
 72
     4
 11
91.2822828821827
 21
31.84729806033374
 31
0.0
100
AcDbText
  0
TEXT
  5
FC1
330
FBF
100
AcDbEntity
  8
実形
100
AcDbText
 10
246.6289328493167
 20
9.727913587939967
 30
0.0
 40
30.0
  1
樹脂（PP）
  7
ms明朝
 72
     4
 11
356.3432185636025
 21
25.1564850165114
 31
0.0
100
AcDbText
  0
TEXT
  5
FC2
330
FBF
100
AcDbEntity
  8
実形
100
AcDbText
 10
569.9321645690563
 20
17.07857082758117
 30
0.0
 40
30.0
  1
3ｍｍ
  7
ms明朝
 72
     4
 11
624.7893074261992
 21
31.73571368472404
 31
0.0
100
AcDbText
  0
ENDBLK
  5
FC6
330
FBF
100
AcDbEntity
  8
0
100
AcDbBlockEnd
  0
BLOCK
  5
13EB
330
13E1
100
AcDbEntity
  8
0
100
AcDbBlockBegin
  2
*D7
 70
     1
 10
0.0
 20
0.0
 30
0.0
  3
*D7
  1

  0
LINE
  5
1CF4
330
13E1
100
AcDbEntity
  8
実形
 62
     0
370
    15
100
AcDbLine
 10
770.1830589825731
 20
1051.032137148834
 30
0.0
 11
770.1830589825731
 21
1022.944296542805
 31
0.0
  0
LINE
  5
1CF5
330
13E1
100
AcDbEntity
  8
実形
 62
     0
370
    15
100
AcDbLine
 10
1512.183058982573
 20
1051.032137148834
 30
0.0
 11
1512.183058982573
 21
1022.944296542805
 31
0.0
  0
LINE
  5
1CF6
330
13E1
100
AcDbEntity
  8
実形
 62
     0
370
    15
100
AcDbLine
 10
770.1830589825731
 20
1022.944296542805
 30
0.0
 11
1512.183058982573
 21
1022.944296542805
 31
0.0
  0
INSERT
  5
1CF7
330
13E1
100
AcDbEntity
  8
実形
 62
     0
370
    15
100
AcDbBlockReference
  2
_DotSmall
 10
770.1830589825731
 20
1022.944296542805
 30
0.0
 41
30.0
 42
30.0
 43
30.0
 50
180.0
  0
INSERT
  5
1CF8
330
13E1
100
AcDbEntity
  8
実形
 62
     0
370
    15
100
AcDbBlockReference
  2
_DotSmall
 10
1512.183058982573
 20
1022.944296542805
 30
0.0
 41
30.0
 42
30.0
 43
30.0
  0
MTEXT
  5
1CF9
330
13E1
100
AcDbEntity
  8
実形
 62
     0
100
AcDbMText
 10
1141.183058982573
 20
1041.694296542805
 30
0.0
 40
25.0
 41
0.0
 71
     5
 72
     1
  1
742
 73
     1
 44
1.0
1001
ACAD
1000
MTEXTBEGIN
1070
    73
1070
     1
1070
    44
1040
1.0
1070
    74
1070
     0
1000
MTEXTEND
  0
POINT
  5
1CFA
330
13E1
100
AcDbEntity
  8
Defpoints
 62
     0
100
AcDbPoint
 10
770.1830589825731
 20
1116.032137148834
 30
0.0
  0
POINT
  5
1CFB
330
13E1
100
AcDbEntity
  8
Defpoints
 62
     0
100
AcDbPoint
 10
1512.183058982573
 20
1116.032137148834
 30
0.0
  0
POINT
  5
1CFC
330
13E1
100
AcDbEntity
  8
Defpoints
 62
     0
100
AcDbPoint
 10
1512.183058982573
 20
1022.944296542805
 30
0.0
  0
ENDBLK
  5
13EC
330
13E1
100
AcDbEntity
  8
0
100
AcDbBlockEnd
  0
BLOCK
  5
1427
330
141B
100
AcDbEntity
  8
0
100
AcDbBlockBegin
  2
*D8
 70
     1
 10
0.0
 20
0.0
 30
0.0
  3
*D8
  1

  0
LINE
  5
222A
330
141B
100
AcDbEntity
  8
実形
 62
     0
370
    15
100
AcDbLine
 10
753.1830589825732
 20
1051.032137148834
 30
0.0
 11
753.1830589825732
 21
1022.944296542805
 31
0.0
  0
LINE
  5
222B
330
141B
100
AcDbEntity
  8
実形
 62
     0
370
    15
100
AcDbLine
 10
770.1830589825731
 20
1051.032137148834
 30
0.0
 11
770.1830589825731
 21
1022.944296542805
 31
0.0
  0
LINE
  5
222C
330
141B
100
AcDbEntity
  8
実形
 62
     0
370
    15
100
AcDbLine
 10
753.1830589825732
 20
1022.944296542805
 30
0.0
 11
770.1830589825731
 21
1022.944296542805
 31
0.0
  0
MTEXT
  5
222D
330
141B
100
AcDbEntity
  8
実形
 62
     0
100
AcDbMText
 10
725.8853530687283
 20
1042.695687321577
 30
0.0
 40
25.0
 41
0.0
 71
     5
 72
     1
  1
17
 73
     1
 44
1.0
1001
ACAD
1000
MTEXTBEGIN
1070
    73
1070
     1
1070
    44
1040
1.0
1070
    74
1070
     0
1000
MTEXTEND
  0
INSERT
  5
222E
330
141B
100
AcDbEntity
  8
実形
 62
     0
370
    15
100
AcDbBlockReference
  2
_DotSmall
 10
753.1830589825732
 20
1022.944296542805
 30
0.0
 41
30.0
 42
30.0
 43
30.0
 50
180.0
  0
INSERT
  5
222F
330
141B
100
AcDbEntity
  8
実形
 62
     0
370
    15
100
AcDbBlockReference
  2
_DotSmall
 10
770.1830589825731
 20
1022.944296542805
 30
0.0
 41
30.0
 42
30.0
 43
30.0
  0
POINT
  5
2230
330
141B
100
AcDbEntity
  8
Defpoints
 62
     0
100
AcDbPoint
 10
753.1830589825732
 20
1116.032137148834
 30
0.0
  0
POINT
  5
2231
330
141B
100
AcDbEntity
  8
Defpoints
 62
     0
100
AcDbPoint
 10
770.1830589825731
 20
1116.032137148834
 30
0.0
  0
POINT
  5
2232
330
141B
100
AcDbEntity
  8
Defpoints
 62
     0
100
AcDbPoint
 10
770.1830589825731
 20
1022.944296542805
 30
0.0
  0
ENDBLK
  5
1428
330
141B
100
AcDbEntity
  8
0
100
AcDbBlockEnd
  0
BLOCK
  5
1449
330
143D
100
AcDbEntity
  8
0
100
AcDbBlockBegin
  2
*D9
 70
     1
 10
0.0
 20
0.0
 30
0.0
  3
*D9
  1

  0
LINE
  5
2221
330
143D
100
AcDbEntity
  8
実形
 62
     0
370
    15
100
AcDbLine
 10
1512.183058982573
 20
1051.032137148834
 30
0.0
 11
1512.183058982573
 21
1022.944296542805
 31
0.0
  0
LINE
  5
2222
330
143D
100
AcDbEntity
  8
実形
 62
     0
370
    15
100
AcDbLine
 10
1529.183058982573
 20
1051.032137148834
 30
0.0
 11
1529.183058982573
 21
1022.944296542805
 31
0.0
  0
LINE
  5
2223
330
143D
100
AcDbEntity
  8
実形
 62
     0
370
    15
100
AcDbLine
 10
1512.183058982573
 20
1022.944296542805
 30
0.0
 11
1529.183058982573
 21
1022.944296542805
 31
0.0
  0
MTEXT
  5
2224
330
143D
100
AcDbEntity
  8
実形
 62
     0
100
AcDbMText
 10
1565.526604807497
 20
1040.861417266935
 30
0.0
 40
25.0
 41
0.0
 71
     5
 72
     1
  1
17
 73
     1
 44
1.0
1001
ACAD
1000
MTEXTBEGIN
1070
    73
1070
     1
1070
    44
1040
1.0
1070
    74
1070
     0
1000
MTEXTEND
  0
INSERT
  5
2225
330
143D
100
AcDbEntity
  8
実形
 62
     0
370
    15
100
AcDbBlockReference
  2
_DotSmall
 10
1512.183058982573
 20
1022.944296542805
 30
0.0
 41
30.0
 42
30.0
 43
30.0
 50
180.0
  0
INSERT
  5
2226
330
143D
100
AcDbEntity
  8
実形
 62
     0
370
    15
100
AcDbBlockReference
  2
_DotSmall
 10
1529.183058982573
 20
1022.944296542805
 30
0.0
 41
30.0
 42
30.0
 43
30.0
  0
POINT
  5
2227
330
143D
100
AcDbEntity
  8
Defpoints
 62
     0
100
AcDbPoint
 10
1512.183058982573
 20
1116.032137148834
 30
0.0
  0
POINT
  5
2228
330
143D
100
AcDbEntity
  8
Defpoints
 62
     0
100
AcDbPoint
 10
1529.183058982573
 20
1116.032137148834
 30
0.0
  0
POINT
  5
2229
330
143D
100
AcDbEntity
  8
Defpoints
 62
     0
100
AcDbPoint
 10
1529.183058982573
 20
1022.944296542805
 30
0.0
  0
ENDBLK
  5
144A
330
143D
100
AcDbEntity
  8
0
100
AcDbBlockEnd
  0
BLOCK
  5
15BB
330
15B1
100
AcDbEntity
  8
0
 62
     3
100
AcDbBlockBegin
  2
*D10
 70
     1
 10
0.0
 20
0.0
 30
0.0
  3
*D10
  1

  0
LINE
  5
1EB0
330
15B1
100
AcDbEntity
  8
実形
 62
     0
370
    15
100
AcDbLine
 10
1904.304433811637
 20
674.1120942765392
 30
0.0
 11
1904.304433811637
 21
731.7473567090492
 31
0.0
  0
LINE
  5
1EB1
330
15B1
100
AcDbEntity
  8
実形
 62
     0
370
    15
100
AcDbLine
 10
2054.304433811632
 20
674.1120942765392
 30
0.0
 11
2054.304433811632
 21
731.7473567090492
 31
0.0
  0
LINE
  5
1EB2
330
15B1
100
AcDbEntity
  8
実形
 62
     0
370
    15
100
AcDbLine
 10
1904.304433811637
 20
731.7473567090492
 30
0.0
 11
2054.304433811632
 21
731.7473567090492
 31
0.0
  0
INSERT
  5
1EB3
330
15B1
100
AcDbEntity
  8
実形
 62
     0
370
    15
100
AcDbBlockReference
  2
_DotSmall
 10
1904.304433811637
 20
731.7473567090492
 30
0.0
 41
30.0
 42
30.0
 43
30.0
 50
180.0
  0
INSERT
  5
1EB4
330
15B1
100
AcDbEntity
  8
実形
 62
     0
370
    15
100
AcDbBlockReference
  2
_DotSmall
 10
2054.304433811632
 20
731.7473567090492
 30
0.0
 41
30.0
 42
30.0
 43
30.0
  0
MTEXT
  5
1EB5
330
15B1
100
AcDbEntity
  8
実形
 62
     0
100
AcDbMText
 10
1979.304433811634
 20
750.4973567090492
 30
0.0
 40
25.0
 41
0.0
 71
     5
 72
     1
  1
15
 73
     1
 44
1.0
1001
ACAD
1000
MTEXTBEGIN
1070
    73
1070
     1
1070
    44
1040
1.0
1070
    74
1070
     0
1000
MTEXTEND
  0
POINT
  5
1EB6
330
15B1
100
AcDbEntity
  8
Defpoints
 62
     0
100
AcDbPoint
 10
1904.304433811637
 20
609.1120942765392
 30
0.0
  0
POINT
  5
1EB7
330
15B1
100
AcDbEntity
  8
Defpoints
 62
     0
100
AcDbPoint
 10
2054.304433811632
 20
609.1120942765392
 30
0.0
  0
POINT
  5
1EB8
330
15B1
100
AcDbEntity
  8
Defpoints
 62
     0
100
AcDbPoint
 10
2054.304433811632
 20
731.7473567090492
 30
0.0
  0
ENDBLK
  5
15BC
330
15B1
100
AcDbEntity
  8
0
 62
     3
100
AcDbBlockEnd
  0
BLOCK
  5
15C8
330
15BE
100
AcDbEntity
  8
0
 62
     3
100
AcDbBlockBegin
  2
*D11
 70
     1
 10
0.0
 20
0.0
 30
0.0
  3
*D11
  1

  0
LINE
  5
1ECB
330
15BE
100
AcDbEntity
  8
実形
 62
     0
370
    15
100
AcDbLine
 10
2054.304433811632
 20
674.1120942765392
 30
0.0
 11
2054.304433811632
 21
731.7473567090492
 31
0.0
  0
LINE
  5
1ECC
330
15BE
100
AcDbEntity
  8
実形
 62
     0
370
    15
100
AcDbLine
 10
2114.304433811633
 20
674.1120942765392
 30
0.0
 11
2114.304433811633
 21
731.7473567090492
 31
0.0
  0
LINE
  5
1ECD
330
15BE
100
AcDbEntity
  8
実形
 62
     0
370
    15
100
AcDbLine
 10
2054.304433811632
 20
731.7473567090492
 30
0.0
 11
2114.304433811633
 21
731.7473567090492
 31
0.0
  0
INSERT
  5
1ECE
330
15BE
100
AcDbEntity
  8
実形
 62
     0
370
    15
100
AcDbBlockReference
  2
_DotSmall
 10
2054.304433811632
 20
731.7473567090492
 30
0.0
 41
30.0
 42
30.0
 43
30.0
 50
180.0
  0
INSERT
  5
1ECF
330
15BE
100
AcDbEntity
  8
実形
 62
     0
370
    15
100
AcDbBlockReference
  2
_DotSmall
 10
2114.304433811633
 20
731.7473567090492
 30
0.0
 41
30.0
 42
30.0
 43
30.0
  0
MTEXT
  5
1ED0
330
15BE
100
AcDbEntity
  8
実形
 62
     0
100
AcDbMText
 10
2084.304433811633
 20
750.4973567090492
 30
0.0
 40
25.0
 41
0.0
 71
     5
 72
     1
  1
6
 73
     1
 44
1.0
1001
ACAD
1000
MTEXTBEGIN
1070
    73
1070
     1
1070
    44
1040
1.0
1070
    74
1070
     0
1000
MTEXTEND
  0
POINT
  5
1ED1
330
15BE
100
AcDbEntity
  8
Defpoints
 62
     0
100
AcDbPoint
 10
2054.304433811632
 20
609.1120942765392
 30
0.0
  0
POINT
  5
1ED2
330
15BE
100
AcDbEntity
  8
Defpoints
 62
     0
100
AcDbPoint
 10
2114.304433811633
 20
609.1120942765392
 30
0.0
  0
POINT
  5
1ED3
330
15BE
100
AcDbEntity
  8
Defpoints
 62
     0
100
AcDbPoint
 10
2114.304433811633
 20
731.7473567090492
 30
0.0
  0
ENDBLK
  5
15C9
330
15BE
100
AcDbEntity
  8
0
 62
     3
100
AcDbBlockEnd
  0
BLOCK
  5
15D5
330
15CB
100
AcDbEntity
  8
0
 62
     3
100
AcDbBlockBegin
  2
*D12
 70
     1
 10
0.0
 20
0.0
 30
0.0
  3
*D12
  1

  0
LINE
  5
1EC2
330
15CB
100
AcDbEntity
  8
実形
 62
     0
370
    15
100
AcDbLine
 10
2114.304433811633
 20
674.1120942765392
 30
0.0
 11
2114.304433811633
 21
731.7473567090492
 31
0.0
  0
LINE
  5
1EC3
330
15CB
100
AcDbEntity
  8
実形
 62
     0
370
    15
100
AcDbLine
 10
2284.304433811628
 20
674.1120942765386
 30
0.0
 11
2284.304433811628
 21
731.7473567090492
 31
0.0
  0
LINE
  5
1EC4
330
15CB
100
AcDbEntity
  8
実形
 62
     0
370
    15
100
AcDbLine
 10
2114.304433811633
 20
731.7473567090492
 30
0.0
 11
2284.304433811628
 21
731.7473567090492
 31
0.0
  0
INSERT
  5
1EC5
330
15CB
100
AcDbEntity
  8
実形
 62
     0
370
    15
100
AcDbBlockReference
  2
_DotSmall
 10
2114.304433811633
 20
731.7473567090492
 30
0.0
 41
30.0
 42
30.0
 43
30.0
 50
180.0
  0
INSERT
  5
1EC6
330
15CB
100
AcDbEntity
  8
実形
 62
     0
370
    15
100
AcDbBlockReference
  2
_DotSmall
 10
2284.304433811628
 20
731.7473567090492
 30
0.0
 41
30.0
 42
30.0
 43
30.0
  0
MTEXT
  5
1EC7
330
15CB
100
AcDbEntity
  8
実形
 62
     0
100
AcDbMText
 10
2199.30443381163
 20
750.4973567090492
 30
0.0
 40
25.0
 41
0.0
 71
     5
 72
     1
  1
17
 73
     1
 44
1.0
1001
ACAD
1000
MTEXTBEGIN
1070
    73
1070
     1
1070
    44
1040
1.0
1070
    74
1070
     0
1000
MTEXTEND
  0
POINT
  5
1EC8
330
15CB
100
AcDbEntity
  8
Defpoints
 62
     0
100
AcDbPoint
 10
2114.304433811633
 20
609.1120942765392
 30
0.0
  0
POINT
  5
1EC9
330
15CB
100
AcDbEntity
  8
Defpoints
 62
     0
100
AcDbPoint
 10
2284.304433811628
 20
609.1120942765386
 30
0.0
  0
POINT
  5
1ECA
330
15CB
100
AcDbEntity
  8
Defpoints
 62
     0
100
AcDbPoint
 10
2284.304433811628
 20
731.7473567090492
 30
0.0
  0
ENDBLK
  5
15D6
330
15CB
100
AcDbEntity
  8
0
 62
     3
100
AcDbBlockEnd
  0
BLOCK
  5
15E2
330
15D8
100
AcDbEntity
  8
0
 62
     3
100
AcDbBlockBegin
  2
*D13
 70
     1
 10
0.0
 20
0.0
 30
0.0
  3
*D13
  1

  0
LINE
  5
1ED4
330
15D8
100
AcDbEntity
  8
実形
 62
     0
370
    15
100
AcDbLine
 10
1839.304433811637
 20
652.0437097219073
 30
0.0
 11
1800.70566117656
 21
652.0437097219073
 31
0.0
  0
LINE
  5
1ED5
330
15D8
100
AcDbEntity
  8
実形
 62
     0
370
    15
100
AcDbLine
 10
1839.304433811637
 20
592.0437097219073
 30
0.0
 11
1800.70566117656
 21
592.0437097219073
 31
0.0
  0
LINE
  5
1ED6
330
15D8
100
AcDbEntity
  8
実形
 62
     0
370
    15
100
AcDbLine
 10
1800.70566117656
 20
652.0437097219073
 30
0.0
 11
1800.70566117656
 21
592.0437097219073
 31
0.0
  0
INSERT
  5
1ED7
330
15D8
100
AcDbEntity
  8
実形
 62
     0
370
    15
100
AcDbBlockReference
  2
_DotSmall
 10
1800.70566117656
 20
652.0437097219073
 30
0.0
 41
30.0
 42
30.0
 43
30.0
 50
90.0
  0
INSERT
  5
1ED8
330
15D8
100
AcDbEntity
  8
実形
 62
     0
370
    15
100
AcDbBlockReference
  2
_DotSmall
 10
1800.70566117656
 20
592.0437097219073
 30
0.0
 41
30.0
 42
30.0
 43
30.0
 50
270.0
  0
MTEXT
  5
1ED9
330
15D8
100
AcDbEntity
  8
実形
 62
     0
100
AcDbMText
 10
1781.95566117656
 20
622.0437097219076
 30
0.0
 40
25.0
 41
0.0
 71
     5
 72
     1
  1
6
 11
0.0000000000000001
 21
1.0
 31
0.0
 73
     1
 44
1.0
1001
ACAD
1000
MTEXTBEGIN
1070
    73
1070
     1
1070
    44
1040
1.0
1070
    74
1070
     0
1000
MTEXTEND
  0
POINT
  5
1EDA
330
15D8
100
AcDbEntity
  8
Defpoints
 62
     0
100
AcDbPoint
 10
1904.304433811637
 20
652.0437097219073
 30
0.0
  0
POINT
  5
1EDB
330
15D8
100
AcDbEntity
  8
Defpoints
 62
     0
100
AcDbPoint
 10
1904.304433811637
 20
592.0437097219073
 30
0.0
  0
POINT
  5
1EDC
330
15D8
100
AcDbEntity
  8
Defpoints
 62
     0
100
AcDbPoint
 10
1800.70566117656
 20
592.0437097219073
 30
0.0
  0
ENDBLK
  5
15E3
330
15D8
100
AcDbEntity
  8
0
 62
     3
100
AcDbBlockEnd
  0
BLOCK
  5
171E
330
1714
100
AcDbEntity
  8
0
 62
     3
100
AcDbBlockBegin
  2
*D14
 70
     1
 10
0.0
 20
0.0
 30
0.0
  3
*D14
  1

  0
LINE
  5
1C0B
330
1714
100
AcDbEntity
  8
0
 62
     0
370
    15
100
AcDbLine
 10
1220.683058982573
 20
435.4662879013103
 30
0.0
 11
1220.683058982573
 21
379.0718132032953
 31
0.0
  0
LINE
  5
1C0C
330
1714
100
AcDbEntity
  8
0
 62
     0
370
    15
100
AcDbLine
 10
1061.683058982573
 20
435.4662879013104
 30
0.0
 11
1061.683058982573
 21
379.0718132032953
 31
0.0
  0
LINE
  5
1C0D
330
1714
100
AcDbEntity
  8
0
 62
     0
370
    15
100
AcDbLine
 10
1220.683058982573
 20
379.0718132032953
 30
0.0
 11
1061.683058982573
 21
379.0718132032953
 31
0.0
  0
INSERT
  5
1C0E
330
1714
100
AcDbEntity
  8
0
 62
     0
370
    15
100
AcDbBlockReference
  2
_DotSmall
 10
1220.683058982573
 20
379.0718132032953
 30
0.0
 41
30.0
 42
30.0
 43
30.0
  0
INSERT
  5
1C0F
330
1714
100
AcDbEntity
  8
0
 62
     0
370
    15
100
AcDbBlockReference
  2
_DotSmall
 10
1061.683058982573
 20
379.0718132032953
 30
0.0
 41
30.0
 42
30.0
 43
30.0
 50
180.0
  0
MTEXT
  5
1C10
330
1714
100
AcDbEntity
  8
0
 62
     0
100
AcDbMText
 10
1141.183058982573
 20
397.8218132032953
 30
0.0
 40
25.0
 41
0.0
 71
     5
 72
     1
  1
158
 73
     1
 44
1.0
1001
ACAD
1000
MTEXTBEGIN
1070
    73
1070
     1
1070
    44
1040
1.0
1070
    74
1070
     0
1000
MTEXTEND
  0
POINT
  5
1C11
330
1714
100
AcDbEntity
  8
Defpoints
 62
     0
100
AcDbPoint
 10
1220.683058982573
 20
500.4662879013103
 30
0.0
  0
POINT
  5
1C12
330
1714
100
AcDbEntity
  8
Defpoints
 62
     0
100
AcDbPoint
 10
1061.683058982573
 20
500.4662879013104
 30
0.0
  0
POINT
  5
1C13
330
1714
100
AcDbEntity
  8
Defpoints
 62
     0
100
AcDbPoint
 10
1061.683058982573
 20
379.0718132032953
 30
0.0
  0
ENDBLK
  5
171F
330
1714
100
AcDbEntity
  8
0
 62
     3
100
AcDbBlockEnd
  0
BLOCK
  5
172A
330
1720
100
AcDbEntity
  8
0
 62
     3
100
AcDbBlockBegin
  2
*D15
 70
     1
 10
0.0
 20
0.0
 30
0.0
  3
*D15
  1

  0
LINE
  5
1C14
330
1720
100
AcDbEntity
  8
0
 62
     0
370
    15
100
AcDbLine
 10
1231.683058982573
 20
573.4662879013103
 30
0.0
 11
1231.683058982573
 21
610.6193124392821
 31
0.0
  0
LINE
  5
1C15
330
1720
100
AcDbEntity
  8
0
 62
     0
370
    15
100
AcDbLine
 10
1050.683058982573
 20
573.4662879013103
 30
0.0
 11
1050.683058982573
 21
610.6193124392821
 31
0.0
  0
LINE
  5
1C16
330
1720
100
AcDbEntity
  8
0
 62
     0
370
    15
100
AcDbLine
 10
1231.683058982573
 20
610.6193124392821
 30
0.0
 11
1050.683058982573
 21
610.6193124392821
 31
0.0
  0
INSERT
  5
1C17
330
1720
100
AcDbEntity
  8
0
 62
     0
370
    15
100
AcDbBlockReference
  2
_DotSmall
 10
1231.683058982573
 20
610.6193124392821
 30
0.0
 41
30.0
 42
30.0
 43
30.0
  0
INSERT
  5
1C18
330
1720
100
AcDbEntity
  8
0
 62
     0
370
    15
100
AcDbBlockReference
  2
_DotSmall
 10
1050.683058982573
 20
610.6193124392821
 30
0.0
 41
30.0
 42
30.0
 43
30.0
 50
180.0
  0
MTEXT
  5
1C19
330
1720
100
AcDbEntity
  8
0
 62
     0
100
AcDbMText
 10
1141.183058982573
 20
629.3693124392821
 30
0.0
 40
25.0
 41
0.0
 71
     5
 72
     1
  1
181
 73
     1
 44
1.0
1001
ACAD
1000
MTEXTBEGIN
1070
    73
1070
     1
1070
    44
1040
1.0
1070
    74
1070
     0
1000
MTEXTEND
  0
POINT
  5
1C1A
330
1720
100
AcDbEntity
  8
Defpoints
 62
     0
100
AcDbPoint
 10
1231.683058982573
 20
508.4662879013103
 30
0.0
  0
POINT
  5
1C1B
330
1720
100
AcDbEntity
  8
Defpoints
 62
     0
100
AcDbPoint
 10
1050.683058982573
 20
508.4662879013103
 30
0.0
  0
POINT
  5
1C1C
330
1720
100
AcDbEntity
  8
Defpoints
 62
     0
100
AcDbPoint
 10
1050.683058982573
 20
610.6193124392821
 30
0.0
  0
ENDBLK
  5
172B
330
1720
100
AcDbEntity
  8
0
 62
     3
100
AcDbBlockEnd
  0
BLOCK
  5
1736
330
172C
100
AcDbEntity
  8
0
 62
     3
100
AcDbBlockBegin
  2
*D16
 70
     1
 10
0.0
 20
0.0
 30
0.0
  3
*D16
  1

  0
LINE
  5
1C1D
330
172C
100
AcDbEntity
  8
実形
 62
     0
370
    15
100
AcDbLine
 10
1040.683058982573
 20
573.4662879013098
 30
0.0
 11
1040.683058982573
 21
610.5170029346668
 31
0.0
  0
LINE
  5
1C1E
330
172C
100
AcDbEntity
  8
実形
 62
     0
370
    15
100
AcDbLine
 10
1241.683058982573
 20
573.3103480859431
 30
0.0
 11
1241.683058982573
 21
610.5170029346668
 31
0.0
  0
LINE
  5
1C1F
330
172C
100
AcDbEntity
  8
実形
 62
     0
370
    15
100
AcDbLine
 10
1040.683058982573
 20
610.5170029346668
 30
0.0
 11
1241.683058982573
 21
610.5170029346668
 31
0.0
  0
MTEXT
  5
1C20
330
172C
100
AcDbEntity
  8
実形
 62
     0
100
AcDbMText
 10
1039.122112552505
 20
629.9604302409811
 30
0.0
 40
25.0
 41
0.0
 71
     5
 72
     1
  1
10
 73
     1
 44
1.0
1001
ACAD
1000
MTEXTBEGIN
1070
    73
1070
     1
1070
    44
1040
1.0
1070
    74
1070
     0
1000
MTEXTEND
  0
INSERT
  5
1C21
330
172C
100
AcDbEntity
  8
実形
 62
     0
370
    15
100
AcDbBlockReference
  2
_DotSmall
 10
1040.683058982573
 20
610.5170029346668
 30
0.0
 41
30.0
 42
30.0
 43
30.0
 50
180.0
  0
INSERT
  5
1C22
330
172C
100
AcDbEntity
  8
実形
 62
     0
370
    15
100
AcDbBlockReference
  2
_DotSmall
 10
1241.683058982573
 20
610.5170029346668
 30
0.0
 41
30.0
 42
30.0
 43
30.0
  0
POINT
  5
1C23
330
172C
100
AcDbEntity
  8
Defpoints
 62
     0
100
AcDbPoint
 10
1040.683058982573
 20
508.4662879013099
 30
0.0
  0
POINT
  5
1C24
330
172C
100
AcDbEntity
  8
Defpoints
 62
     0
100
AcDbPoint
 10
1241.683058982573
 20
508.3103480859431
 30
0.0
  0
POINT
  5
1C25
330
172C
100
AcDbEntity
  8
Defpoints
 62
     0
100
AcDbPoint
 10
1241.683058982573
 20
610.5170029346668
 30
0.0
  0
ENDBLK
  5
1737
330
172C
100
AcDbEntity
  8
0
 62
     3
100
AcDbBlockEnd
  0
BLOCK
  5
1742
330
1738
100
AcDbEntity
  8
0
 62
     3
100
AcDbBlockBegin
  2
*D17
 70
     1
 10
0.0
 20
0.0
 30
0.0
  3
*D17
  1

  0
LINE
  5
1C26
330
1738
100
AcDbEntity
  8
実形
 62
     0
370
    15
100
AcDbLine
 10
676.1830589825734
 20
698.4662879013103
 30
0.0
 11
623.0623915261504
 21
698.4662879013103
 31
0.0
  0
LINE
  5
1C27
330
1738
100
AcDbEntity
  8
実形
 62
     0
370
    15
100
AcDbLine
 10
676.1830589825734
 20
692.4662879013098
 30
0.0
 11
623.0623915261504
 21
692.4662879013098
 31
0.0
  0
LINE
  5
1C28
330
1738
100
AcDbEntity
  8
実形
 62
     0
370
    15
100
AcDbLine
 10
623.0623915261504
 20
698.4662879013103
 30
0.0
 11
623.0623915261504
 21
728.4662879013104
 31
0.0
  0
LINE
  5
1C29
330
1738
100
AcDbEntity
  8
実形
 62
     0
370
    15
100
AcDbLine
 10
623.0623915261504
 20
692.4662879013098
 30
0.0
 11
623.0623915261504
 21
662.4662879013097
 31
0.0
  0
MTEXT
  5
1C2A
330
1738
100
AcDbEntity
  8
実形
 62
     0
100
AcDbMText
 10
589.1649151150369
 20
731.8327849721117
 30
0.0
 40
25.0
 41
0.0
 71
     5
 72
     1
  1
6
 11
0.0000000000000001
 21
1.0
 31
0.0
 73
     1
 44
1.0
1001
ACAD
1000
MTEXTBEGIN
1070
    73
1070
     1
1070
    44
1040
1.0
1070
    74
1070
     0
1000
MTEXTEND
  0
LINE
  5
1C2B
330
1738
100
AcDbEntity
  8
実形
 62
     0
370
    15
100
AcDbLine
 10
623.0623915261504
 20
698.4662879013103
 30
0.0
 11
623.0623915261504
 21
692.4662879013098
 31
0.0
  0
INSERT
  5
1C2C
330
1738
100
AcDbEntity
  8
実形
 62
     0
370
    15
100
AcDbBlockReference
  2
_DotSmall
 10
623.0623915261504
 20
698.4662879013103
 30
0.0
 41
30.0
 42
30.0
 43
30.0
 50
270.0
  0
INSERT
  5
1C2D
330
1738
100
AcDbEntity
  8
実形
 62
     0
370
    15
100
AcDbBlockReference
  2
_DotSmall
 10
623.0623915261504
 20
692.4662879013098
 30
0.0
 41
30.0
 42
30.0
 43
30.0
 50
90.0
  0
POINT
  5
1C2E
330
1738
100
AcDbEntity
  8
Defpoints
 62
     0
100
AcDbPoint
 10
741.1830589825735
 20
698.4662879013103
 30
0.0
  0
POINT
  5
1C2F
330
1738
100
AcDbEntity
  8
Defpoints
 62
     0
100
AcDbPoint
 10
741.1830589825735
 20
692.4662879013098
 30
0.0
  0
POINT
  5
1C30
330
1738
100
AcDbEntity
  8
Defpoints
 62
     0
100
AcDbPoint
 10
623.0623915261504
 20
692.4662879013098
 30
0.0
  0
ENDBLK
  5
1743
330
1738
100
AcDbEntity
  8
0
 62
     3
100
AcDbBlockEnd
  0
BLOCK
  5
174E
330
1744
100
AcDbEntity
  8
0
 62
     3
100
AcDbBlockBegin
  2
*D18
 70
     1
 10
0.0
 20
0.0
 30
0.0
  3
*D18
  1

  0
LINE
  5
1C31
330
1744
100
AcDbEntity
  8
実形
 62
     0
370
    15
100
AcDbLine
 10
675.3651500653715
 20
528.4662879013104
 30
0.0
 11
623.0623915261504
 21
528.4662879013104
 31
0.0
  0
LINE
  5
1C32
330
1744
100
AcDbEntity
  8
実形
 62
     0
370
    15
100
AcDbLine
 10
675.3651500653715
 20
508.4662879013104
 30
0.0
 11
623.0623915261504
 21
508.4662879013105
 31
0.0
  0
LINE
  5
1C33
330
1744
100
AcDbEntity
  8
実形
 62
     0
370
    15
100
AcDbLine
 10
623.0623915261504
 20
528.4662879013104
 30
0.0
 11
623.0623915261504
 21
508.4662879013105
 31
0.0
  0
MTEXT
  5
1C34
330
1744
100
AcDbEntity
  8
実形
 62
     0
100
AcDbMText
 10
589.5806083427552
 20
537.5896311901806
 30
0.0
 40
25.0
 41
0.0
 71
     5
 72
     1
  1
20
 11
0.0000000000000001
 21
1.0
 31
0.0
 73
     1
 44
1.0
1001
ACAD
1000
MTEXTBEGIN
1070
    73
1070
     1
1070
    44
1040
1.0
1070
    74
1070
     0
1000
MTEXTEND
  0
INSERT
  5
1C35
330
1744
100
AcDbEntity
  8
実形
 62
     0
370
    15
100
AcDbBlockReference
  2
_DotSmall
 10
623.0623915261504
 20
528.4662879013104
 30
0.0
 41
30.0
 42
30.0
 43
30.0
 50
90.0
  0
INSERT
  5
1C36
330
1744
100
AcDbEntity
  8
実形
 62
     0
370
    15
100
AcDbBlockReference
  2
_DotSmall
 10
623.0623915261504
 20
508.4662879013105
 30
0.0
 41
30.0
 42
30.0
 43
30.0
 50
270.0
  0
POINT
  5
1C37
330
1744
100
AcDbEntity
  8
Defpoints
 62
     0
100
AcDbPoint
 10
740.3651500653714
 20
528.4662879013104
 30
0.0
  0
POINT
  5
1C38
330
1744
100
AcDbEntity
  8
Defpoints
 62
     0
100
AcDbPoint
 10
740.3651500653714
 20
508.4662879013104
 30
0.0
  0
POINT
  5
1C39
330
1744
100
AcDbEntity
  8
Defpoints
 62
     0
100
AcDbPoint
 10
623.0623915261504
 20
508.4662879013105
 30
0.0
  0
ENDBLK
  5
174F
330
1744
100
AcDbEntity
  8
0
 62
     3
100
AcDbBlockEnd
  0
BLOCK
  5
175A
330
1750
100
AcDbEntity
  8
0
 62
     3
100
AcDbBlockBegin
  2
*D19
 70
     1
 10
0.0
 20
0.0
 30
0.0
  3
*D19
  1

  0
LINE
  5
1C3A
330
1750
100
AcDbEntity
  8
実形
 62
     0
370
    15
100
AcDbLine
 10
675.7645758162462
 20
498.4662879013103
 30
0.0
 11
623.0623915261504
 21
498.4662879013104
 31
0.0
  0
LINE
  5
1C3B
330
1750
100
AcDbEntity
  8
実形
 62
     0
370
    15
100
AcDbLine
 10
646.9816476962834
 20
528.4662879013104
 30
0.0
 11
623.0623915261504
 21
528.4662879013104
 31
0.0
  0
LINE
  5
1C3C
330
1750
100
AcDbEntity
  8
実形
 62
     0
370
    15
100
AcDbLine
 10
623.0623915261504
 20
498.4662879013104
 30
0.0
 11
623.0623915261504
 21
528.4662879013104
 31
0.0
  0
MTEXT
  5
1C3D
330
1750
100
AcDbEntity
  8
実形
 62
     0
100
AcDbMText
 10
589.8342293568293
 20
487.5874810209361
 30
0.0
 40
25.0
 41
0.0
 71
     5
 72
     1
  1
7
 11
0.0000000000000001
 21
1.0
 31
0.0
 73
     1
 44
1.0
1001
ACAD
1000
MTEXTBEGIN
1070
    73
1070
     1
1070
    44
1040
1.0
1070
    74
1070
     0
1000
MTEXTEND
  0
INSERT
  5
1C3E
330
1750
100
AcDbEntity
  8
実形
 62
     0
370
    15
100
AcDbBlockReference
  2
_DotSmall
 10
623.0623915261504
 20
498.4662879013104
 30
0.0
 41
30.0
 42
30.0
 43
30.0
 50
270.0
  0
INSERT
  5
1C3F
330
1750
100
AcDbEntity
  8
実形
 62
     0
370
    15
100
AcDbBlockReference
  2
_DotSmall
 10
623.0623915261504
 20
528.4662879013104
 30
0.0
 41
30.0
 42
30.0
 43
30.0
 50
90.0
  0
POINT
  5
1C40
330
1750
100
AcDbEntity
  8
Defpoints
 62
     0
100
AcDbPoint
 10
740.7645758162463
 20
498.4662879013103
 30
0.0
  0
POINT
  5
1C41
330
1750
100
AcDbEntity
  8
Defpoints
 62
     0
100
AcDbPoint
 10
711.9816476962833
 20
528.4662879013104
 30
0.0
  0
POINT
  5
1C42
330
1750
100
AcDbEntity
  8
Defpoints
 62
     0
100
AcDbPoint
 10
623.0623915261504
 20
528.4662879013104
 30
0.0
  0
ENDBLK
  5
175B
330
1750
100
AcDbEntity
  8
0
 62
     3
100
AcDbBlockEnd
  0
BLOCK
  5
1766
330
175C
100
AcDbEntity
  8
0
 62
     3
100
AcDbBlockBegin
  2
*D20
 70
     1
 10
0.0
 20
0.0
 30
0.0
  3
*D20
  1

  0
LINE
  5
1C43
330
175C
100
AcDbEntity
  8
実形
 62
     0
370
    15
100
AcDbLine
 10
640.806925653712
 20
698.4662879013103
 30
0.0
 11
536.5214930879639
 21
698.4662879013103
 31
0.0
  0
LINE
  5
1C44
330
175C
100
AcDbEntity
  8
実形
 62
     0
370
    15
100
AcDbLine
 10
640.806925653712
 20
508.4662879013104
 30
0.0
 11
536.5214930879639
 21
508.4662879013105
 31
0.0
  0
LINE
  5
1C45
330
175C
100
AcDbEntity
  8
実形
 62
     0
370
    15
100
AcDbLine
 10
536.5214930879639
 20
698.4662879013103
 30
0.0
 11
536.5214930879639
 21
508.4662879013105
 31
0.0
  0
INSERT
  5
1C46
330
175C
100
AcDbEntity
  8
実形
 62
     0
370
    15
100
AcDbBlockReference
  2
_DotSmall
 10
536.5214930879639
 20
698.4662879013103
 30
0.0
 41
30.0
 42
30.0
 43
30.0
 50
90.0
  0
INSERT
  5
1C47
330
175C
100
AcDbEntity
  8
実形
 62
     0
370
    15
100
AcDbBlockReference
  2
_DotSmall
 10
536.5214930879639
 20
508.4662879013105
 30
0.0
 41
30.0
 42
30.0
 43
30.0
 50
270.0
  0
MTEXT
  5
1C48
330
175C
100
AcDbEntity
  8
実形
 62
     0
100
AcDbMText
 10
517.7714930879638
 20
603.4662879013105
 30
0.0
 40
25.0
 41
0.0
 71
     5
 72
     1
  1
190
 11
0.0000000000000001
 21
1.0
 31
0.0
 73
     1
 44
1.0
1001
ACAD
1000
MTEXTBEGIN
1070
    73
1070
     1
1070
    44
1040
1.0
1070
    74
1070
     0
1000
MTEXTEND
  0
POINT
  5
1C49
330
175C
100
AcDbEntity
  8
Defpoints
 62
     0
100
AcDbPoint
 10
705.806925653712
 20
698.4662879013103
 30
0.0
  0
POINT
  5
1C4A
330
175C
100
AcDbEntity
  8
Defpoints
 62
     0
100
AcDbPoint
 10
705.806925653712
 20
508.4662879013104
 30
0.0
  0
POINT
  5
1C4B
330
175C
100
AcDbEntity
  8
Defpoints
 62
     0
100
AcDbPoint
 10
536.5214930879639
 20
508.4662879013105
 30
0.0
  0
ENDBLK
  5
1767
330
175C
100
AcDbEntity
  8
0
 62
     3
100
AcDbBlockEnd
  0
BLOCK
  5
185D
330
1853
100
AcDbEntity
  8
0
 62
     3
100
AcDbBlockBegin
  2
*D21
 70
     1
 10
0.0
 20
0.0
 30
0.0
  3
*D21
  1

  0
LINE
  5
1D5B
330
1853
100
AcDbEntity
  8
実形
 62
     0
370
    15
100
AcDbLine
 10
1076.183058982573
 20
1424.501432338707
 30
0.0
 11
1011.631506486112
 21
1424.501432338707
 31
0.0
  0
LINE
  5
1D5C
330
1853
100
AcDbEntity
  8
実形
 62
     0
370
    15
100
AcDbLine
 10
1076.183058982573
 20
1644.501432338707
 30
0.0
 11
1011.631506486112
 21
1644.501432338707
 31
0.0
  0
LINE
  5
1D5D
330
1853
100
AcDbEntity
  8
実形
 62
     0
370
    15
100
AcDbLine
 10
1011.631506486112
 20
1424.501432338707
 30
0.0
 11
1011.631506486112
 21
1644.501432338707
 31
0.0
  0
MTEXT
  5
1D5E
330
1853
100
AcDbEntity
  8
実形
 62
     0
100
AcDbMText
 10
991.1720201946627
 20
1525.585563078021
 30
0.0
 40
25.0
 41
0.0
 71
     5
 72
     1
  1
220
 11
0.0000000000000001
 21
1.0
 31
0.0
 73
     1
 44
1.0
1001
ACAD
1000
MTEXTBEGIN
1070
    73
1070
     1
1070
    44
1040
1.0
1070
    74
1070
     0
1000
MTEXTEND
  0
INSERT
  5
1D5F
330
1853
100
AcDbEntity
  8
実形
 62
     0
370
    15
100
AcDbBlockReference
  2
_DotSmall
 10
1011.631506486112
 20
1424.501432338707
 30
0.0
 41
30.0
 42
30.0
 43
30.0
 50
270.0
  0
INSERT
  5
1D60
330
1853
100
AcDbEntity
  8
実形
 62
     0
370
    15
100
AcDbBlockReference
  2
_DotSmall
 10
1011.631506486112
 20
1644.501432338707
 30
0.0
 41
30.0
 42
30.0
 43
30.0
 50
90.0
  0
POINT
  5
1D61
330
1853
100
AcDbEntity
  8
Defpoints
 62
     0
100
AcDbPoint
 10
1141.183058982573
 20
1424.501432338707
 30
0.0
  0
POINT
  5
1D62
330
1853
100
AcDbEntity
  8
Defpoints
 62
     0
100
AcDbPoint
 10
1141.183058982573
 20
1644.501432338707
 30
0.0
  0
POINT
  5
1D63
330
1853
100
AcDbEntity
  8
Defpoints
 62
     0
100
AcDbPoint
 10
1011.631506486112
 20
1644.501432338707
 30
0.0
  0
ENDBLK
  5
185E
330
1853
100
AcDbEntity
  8
0
 62
     3
100
AcDbBlockEnd
  0
BLOCK
  5
1885
330
187B
100
AcDbEntity
  8
0
 62
     3
100
AcDbBlockBegin
  2
*D22
 70
     1
 10
0.0
 20
0.0
 30
0.0
  3
*D22
  1

  0
LINE
  5
23A5
330
187B
100
AcDbEntity
  8
実形
 62
     0
370
    15
100
AcDbLine
 10
726.1830589825729
 20
1638.501432338706
 30
0.0
 11
695.5206130676249
 21
1638.501432338706
 31
0.0
  0
LINE
  5
23A6
330
187B
100
AcDbEntity
  8
実形
 62
     0
370
    15
100
AcDbLine
 10
726.1830589825731
 20
1565.501432338707
 30
0.0
 11
695.5206130676249
 21
1565.501432338707
 31
0.0
  0
LINE
  5
23A7
330
187B
100
AcDbEntity
  8
実形
 62
     0
370
    15
100
AcDbLine
 10
695.5206130676249
 20
1638.501432338706
 30
0.0
 11
695.5206130676249
 21
1565.501432338707
 31
0.0
  0
INSERT
  5
23A8
330
187B
100
AcDbEntity
  8
実形
 62
     0
370
    15
100
AcDbBlockReference
  2
_DotSmall
 10
695.5206130676249
 20
1638.501432338706
 30
0.0
 41
30.0
 42
30.0
 43
30.0
 50
90.0
  0
INSERT
  5
23A9
330
187B
100
AcDbEntity
  8
実形
 62
     0
370
    15
100
AcDbBlockReference
  2
_DotSmall
 10
695.5206130676249
 20
1565.501432338707
 30
0.0
 41
30.0
 42
30.0
 43
30.0
 50
270.0
  0
MTEXT
  5
23AA
330
187B
100
AcDbEntity
  8
実形
 62
     0
100
AcDbMText
 10
676.7706130676247
 20
1602.001432338707
 30
0.0
 40
25.0
 41
0.0
 71
     5
 72
     1
  1
73
 11
0.0000000000000001
 21
1.0
 31
0.0
 73
     1
 44
1.0
1001
ACAD
1000
MTEXTBEGIN
1070
    73
1070
     1
1070
    44
1040
1.0
1070
    74
1070
     0
1000
MTEXTEND
  0
POINT
  5
23AB
330
187B
100
AcDbEntity
  8
Defpoints
 62
     0
100
AcDbPoint
 10
791.1830589825728
 20
1638.501432338706
 30
0.0
  0
POINT
  5
23AC
330
187B
100
AcDbEntity
  8
Defpoints
 62
     0
100
AcDbPoint
 10
791.1830589825731
 20
1565.501432338707
 30
0.0
  0
POINT
  5
23AD
330
187B
100
AcDbEntity
  8
Defpoints
 62
     0
100
AcDbPoint
 10
695.5206130676249
 20
1565.501432338707
 30
0.0
  0
ENDBLK
  5
1886
330
187B
100
AcDbEntity
  8
0
 62
     3
100
AcDbBlockEnd
  0
BLOCK
  5
189F
330
1895
100
AcDbEntity
  8
0
 62
     3
100
AcDbBlockBegin
  2
*D23
 70
     1
 10
0.0
 20
0.0
 30
0.0
  3
*D23
  1

  0
LINE
  5
238A
330
1895
100
AcDbEntity
  8
実形
 62
     0
370
    15
100
AcDbLine
 10
645.8465605944202
 20
1644.501432338707
 30
0.0
 11
583.5618260356867
 21
1644.501432338707
 31
0.0
  0
LINE
  5
238B
330
1895
100
AcDbEntity
  8
実形
 62
     0
370
    15
100
AcDbLine
 10
577.9556536716627
 20
1164.501432338707
 30
0.0
 11
583.5618260356866
 21
1164.501432338707
 31
0.0
  0
LINE
  5
238C
330
1895
100
AcDbEntity
  8
実形
 62
     0
370
    15
100
AcDbLine
 10
583.5618260356867
 20
1644.501432338707
 30
0.0
 11
583.5618260356866
 21
1164.501432338707
 31
0.0
  0
INSERT
  5
238D
330
1895
100
AcDbEntity
  8
実形
 62
     0
370
    15
100
AcDbBlockReference
  2
_DotSmall
 10
583.5618260356867
 20
1644.501432338707
 30
0.0
 41
30.0
 42
30.0
 43
30.0
 50
90.0
  0
INSERT
  5
238E
330
1895
100
AcDbEntity
  8
実形
 62
     0
370
    15
100
AcDbBlockReference
  2
_DotSmall
 10
583.5618260356866
 20
1164.501432338707
 30
0.0
 41
30.0
 42
30.0
 43
30.0
 50
270.0
  0
MTEXT
  5
238F
330
1895
100
AcDbEntity
  8
実形
 62
     0
100
AcDbMText
 10
564.8118260356865
 20
1404.501432338707
 30
0.0
 40
25.0
 41
0.0
 71
     5
 72
     1
  1
480
 11
0.0000000000000001
 21
1.0
 31
0.0
 73
     1
 44
1.0
1001
ACAD
1000
MTEXTBEGIN
1070
    73
1070
     1
1070
    44
1040
1.0
1070
    74
1070
     0
1000
MTEXTEND
  0
POINT
  5
2390
330
1895
100
AcDbEntity
  8
Defpoints
 62
     0
100
AcDbPoint
 10
710.8465605944202
 20
1644.501432338707
 30
0.0
  0
POINT
  5
2391
330
1895
100
AcDbEntity
  8
Defpoints
 62
     0
100
AcDbPoint
 10
642.9556536716627
 20
1164.501432338707
 30
0.0
  0
POINT
  5
2392
330
1895
100
AcDbEntity
  8
Defpoints
 62
     0
100
AcDbPoint
 10
583.5618260356866
 20
1164.501432338707
 30
0.0
  0
ENDBLK
  5
18A0
330
1895
100
AcDbEntity
  8
0
 62
     3
100
AcDbBlockEnd
  0
BLOCK
  5
18AB
330
18A1
100
AcDbEntity
  8
0
 62
     3
100
AcDbBlockBegin
  2
*D24
 70
     1
 10
0.0
 20
0.0
 30
0.0
  3
*D24
  1

  0
LINE
  5
2423
330
18A1
100
AcDbEntity
  8
実形
 62
     0
370
    15
100
AcDbLine
 10
643.6761160729674
 20
1661.501432338707
 30
0.0
 11
583.5618260356864
 21
1661.501432338707
 31
0.0
  0
LINE
  5
2424
330
18A1
100
AcDbEntity
  8
実形
 62
     0
370
    15
100
AcDbLine
 10
628.0105944130307
 20
1644.501432338707
 30
0.0
 11
583.5618260356864
 21
1644.501432338707
 31
0.0
  0
LINE
  5
2425
330
18A1
100
AcDbEntity
  8
実形
 62
     0
370
    15
100
AcDbLine
 10
583.5618260356864
 20
1661.501432338707
 30
0.0
 11
583.5618260356864
 21
1644.501432338707
 31
0.0
  0
MTEXT
  5
2426
330
18A1
100
AcDbEntity
  8
実形
 62
     0
100
AcDbMText
 10
560.7206452544087
 20
1686.78735923864
 30
0.0
 40
25.0
 41
0.0
 71
     5
 72
     1
  1
17
 11
0.0000000000000001
 21
1.0
 31
0.0
 73
     1
 44
1.0
1001
ACAD
1000
MTEXTBEGIN
1070
    73
1070
     1
1070
    44
1040
1.0
1070
    74
1070
     0
1000
MTEXTEND
  0
INSERT
  5
2427
330
18A1
100
AcDbEntity
  8
実形
 62
     0
370
    15
100
AcDbBlockReference
  2
_DotSmall
 10
583.5618260356864
 20
1661.501432338707
 30
0.0
 41
30.0
 42
30.0
 43
30.0
 50
90.0
  0
INSERT
  5
2428
330
18A1
100
AcDbEntity
  8
実形
 62
     0
370
    15
100
AcDbBlockReference
  2
_DotSmall
 10
583.5618260356864
 20
1644.501432338707
 30
0.0
 41
30.0
 42
30.0
 43
30.0
 50
270.0
  0
POINT
  5
2429
330
18A1
100
AcDbEntity
  8
Defpoints
 62
     0
100
AcDbPoint
 10
708.6761160729674
 20
1661.501432338707
 30
0.0
  0
POINT
  5
242A
330
18A1
100
AcDbEntity
  8
Defpoints
 62
     0
100
AcDbPoint
 10
693.0105944130307
 20
1644.501432338707
 30
0.0
  0
POINT
  5
242B
330
18A1
100
AcDbEntity
  8
Defpoints
 62
     0
100
AcDbPoint
 10
583.5618260356864
 20
1644.501432338707
 30
0.0
  0
ENDBLK
  5
18AC
330
18A1
100
AcDbEntity
  8
0
 62
     3
100
AcDbBlockEnd
  0
BLOCK
  5
18B7
330
18AD
100
AcDbEntity
  8
0
 62
     3
100
AcDbBlockBegin
  2
*D25
 70
     1
 10
0.0
 20
0.0
 30
0.0
  3
*D25
  1

  0
LINE
  5
2381
330
18AD
100
AcDbEntity
  8
実形
 62
     0
370
    15
100
AcDbLine
 10
613.278070849962
 20
1661.501432338707
 30
0.0
 11
529.8605954343647
 21
1661.501432338707
 31
0.0
  0
LINE
  5
2382
330
18AD
100
AcDbEntity
  8
実形
 62
     0
370
    15
100
AcDbLine
 10
587.971816195183
 20
1147.501432338707
 30
0.0
 11
529.8605954343645
 21
1147.501432338707
 31
0.0
  0
LINE
  5
2383
330
18AD
100
AcDbEntity
  8
実形
 62
     0
370
    15
100
AcDbLine
 10
529.8605954343647
 20
1661.501432338707
 30
0.0
 11
529.8605954343645
 21
1147.501432338707
 31
0.0
  0
INSERT
  5
2384
330
18AD
100
AcDbEntity
  8
実形
 62
     0
370
    15
100
AcDbBlockReference
  2
_DotSmall
 10
529.8605954343647
 20
1661.501432338707
 30
0.0
 41
30.0
 42
30.0
 43
30.0
 50
90.0
  0
INSERT
  5
2385
330
18AD
100
AcDbEntity
  8
実形
 62
     0
370
    15
100
AcDbBlockReference
  2
_DotSmall
 10
529.8605954343645
 20
1147.501432338707
 30
0.0
 41
30.0
 42
30.0
 43
30.0
 50
270.0
  0
MTEXT
  5
2386
330
18AD
100
AcDbEntity
  8
実形
 62
     0
100
AcDbMText
 10
511.1105954343644
 20
1404.501432338707
 30
0.0
 40
25.0
 41
0.0
 71
     5
 72
     1
  1
514
 11
0.0000000000000001
 21
1.0
 31
0.0
 73
     1
 44
1.0
1001
ACAD
1000
MTEXTBEGIN
1070
    73
1070
     1
1070
    44
1040
1.0
1070
    74
1070
     0
1000
MTEXTEND
  0
POINT
  5
2387
330
18AD
100
AcDbEntity
  8
Defpoints
 62
     0
100
AcDbPoint
 10
678.2780708499619
 20
1661.501432338707
 30
0.0
  0
POINT
  5
2388
330
18AD
100
AcDbEntity
  8
Defpoints
 62
     0
100
AcDbPoint
 10
652.971816195183
 20
1147.501432338707
 30
0.0
  0
POINT
  5
2389
330
18AD
100
AcDbEntity
  8
Defpoints
 62
     0
100
AcDbPoint
 10
529.8605954343645
 20
1147.501432338707
 30
0.0
  0
ENDBLK
  5
18B8
330
18AD
100
AcDbEntity
  8
0
 62
     3
100
AcDbBlockEnd
  0
BLOCK
  5
18C3
330
18B9
100
AcDbEntity
  8
0
 62
     3
100
AcDbBlockBegin
  2
*D26
 70
     1
 10
0.0
 20
0.0
 30
0.0
  3
*D26
  1

  0
LINE
  5
2323
330
18B9
100
AcDbEntity
  8
実形
 62
     0
370
    15
100
AcDbLine
 10
643.036026650545
 20
1164.501432338707
 30
0.0
 11
583.5618260356866
 21
1164.501432338707
 31
0.0
  0
LINE
  5
2324
330
18B9
100
AcDbEntity
  8
実形
 62
     0
370
    15
100
AcDbLine
 10
643.7295071616888
 20
1147.501432338707
 30
0.0
 11
583.5618260356866
 21
1147.501432338707
 31
0.0
  0
LINE
  5
2325
330
18B9
100
AcDbEntity
  8
実形
 62
     0
370
    15
100
AcDbLine
 10
583.5618260356866
 20
1164.501432338707
 30
0.0
 11
583.5618260356866
 21
1147.501432338707
 31
0.0
  0
MTEXT
  5
2326
330
18B9
100
AcDbEntity
  8
実形
 62
     0
100
AcDbMText
 10
565.2390040482496
 20
1117.451541453838
 30
0.0
 40
25.0
 41
0.0
 71
     5
 72
     1
  1
17
 11
0.0000000000000001
 21
1.0
 31
0.0
 73
     1
 44
1.0
1001
ACAD
1000
MTEXTBEGIN
1070
    73
1070
     1
1070
    44
1040
1.0
1070
    74
1070
     0
1000
MTEXTEND
  0
INSERT
  5
2327
330
18B9
100
AcDbEntity
  8
実形
 62
     0
370
    15
100
AcDbBlockReference
  2
_DotSmall
 10
583.5618260356866
 20
1164.501432338707
 30
0.0
 41
30.0
 42
30.0
 43
30.0
 50
90.0
  0
INSERT
  5
2328
330
18B9
100
AcDbEntity
  8
実形
 62
     0
370
    15
100
AcDbBlockReference
  2
_DotSmall
 10
583.5618260356866
 20
1147.501432338707
 30
0.0
 41
30.0
 42
30.0
 43
30.0
 50
270.0
  0
POINT
  5
2329
330
18B9
100
AcDbEntity
  8
Defpoints
 62
     0
100
AcDbPoint
 10
708.0360266505449
 20
1164.501432338707
 30
0.0
  0
POINT
  5
232A
330
18B9
100
AcDbEntity
  8
Defpoints
 62
     0
100
AcDbPoint
 10
708.7295071616888
 20
1147.501432338707
 30
0.0
  0
POINT
  5
232B
330
18B9
100
AcDbEntity
  8
Defpoints
 62
     0
100
AcDbPoint
 10
583.5618260356866
 20
1147.501432338707
 30
0.0
  0
ENDBLK
  5
18C4
330
18B9
100
AcDbEntity
  8
0
 62
     3
100
AcDbBlockEnd
  0
BLOCK
  5
19A6
330
199C
100
AcDbEntity
  8
0
 62
     3
100
AcDbBlockBegin
  2
*D27
 70
     1
 10
0.0
 20
0.0
 30
0.0
  3
*D27
  1

  0
LINE
  5
1CEB
330
199C
100
AcDbEntity
  8
実形
 62
     0
370
    15
100
AcDbLine
 10
753.1830589825732
 20
1051.010435029328
 30
0.0
 11
753.1830589825732
 21
953.1185795498931
 31
0.0
  0
LINE
  5
1CEC
330
199C
100
AcDbEntity
  8
実形
 62
     0
370
    15
100
AcDbLine
 10
1529.183058982573
 20
1034.032137148834
 30
0.0
 11
1529.183058982573
 21
953.1185795498931
 31
0.0
  0
LINE
  5
1CED
330
199C
100
AcDbEntity
  8
実形
 62
     0
370
    15
100
AcDbLine
 10
753.1830589825732
 20
953.1185795498931
 30
0.0
 11
1529.183058982573
 21
953.1185795498931
 31
0.0
  0
INSERT
  5
1CEE
330
199C
100
AcDbEntity
  8
実形
 62
     0
370
    15
100
AcDbBlockReference
  2
_DotSmall
 10
753.1830589825732
 20
953.1185795498931
 30
0.0
 41
30.0
 42
30.0
 43
30.0
 50
180.0
  0
INSERT
  5
1CEF
330
199C
100
AcDbEntity
  8
実形
 62
     0
370
    15
100
AcDbBlockReference
  2
_DotSmall
 10
1529.183058982573
 20
953.1185795498931
 30
0.0
 41
30.0
 42
30.0
 43
30.0
  0
MTEXT
  5
1CF0
330
199C
100
AcDbEntity
  8
実形
 62
     0
100
AcDbMText
 10
1141.183058982573
 20
971.8685795498931
 30
0.0
 40
25.0
 41
0.0
 71
     5
 72
     1
  1
776
 73
     1
 44
1.0
1001
ACAD
1000
MTEXTBEGIN
1070
    73
1070
     1
1070
    44
1040
1.0
1070
    74
1070
     0
1000
MTEXTEND
  0
POINT
  5
1CF1
330
199C
100
AcDbEntity
  8
Defpoints
 62
     0
100
AcDbPoint
 10
753.1830589825732
 20
1116.010435029328
 30
0.0
  0
POINT
  5
1CF2
330
199C
100
AcDbEntity
  8
Defpoints
 62
     0
100
AcDbPoint
 10
1529.183058982573
 20
1099.032137148834
 30
0.0
  0
POINT
  5
1CF3
330
199C
100
AcDbEntity
  8
Defpoints
 62
     0
100
AcDbPoint
 10
1529.183058982573
 20
953.1185795498931
 30
0.0
  0
ENDBLK
  5
19A7
330
199C
100
AcDbEntity
  8
0
 62
     3
100
AcDbBlockEnd
  0
BLOCK
  5
19EB
330
19E1
100
AcDbEntity
  8
0
 62
     3
100
AcDbBlockBegin
  2
*D28
 70
     1
 10
0.0
 20
0.0
 30
0.0
  3
*D28
  1

  0
LINE
  5
2308
330
19E1
100
AcDbEntity
  8
実形
 62
     0
370
    15
100
AcDbLine
 10
791.1830589825731
 20
1120.501432338707
 30
0.0
 11
791.1830589825731
 21
1082.55024635859
 31
0.0
  0
LINE
  5
2309
330
19E1
100
AcDbEntity
  8
実形
 62
     0
370
    15
100
AcDbLine
 10
1491.183058982573
 20
1120.501432338707
 30
0.0
 11
1491.183058982573
 21
1082.55024635859
 31
0.0
  0
LINE
  5
230A
330
19E1
100
AcDbEntity
  8
実形
 62
     0
370
    15
100
AcDbLine
 10
791.1830589825731
 20
1082.55024635859
 30
0.0
 11
1491.183058982573
 21
1082.55024635859
 31
0.0
  0
INSERT
  5
230B
330
19E1
100
AcDbEntity
  8
実形
 62
     0
370
    15
100
AcDbBlockReference
  2
_DotSmall
 10
791.1830589825731
 20
1082.55024635859
 30
0.0
 41
30.0
 42
30.0
 43
30.0
 50
180.0
  0
INSERT
  5
230C
330
19E1
100
AcDbEntity
  8
実形
 62
     0
370
    15
100
AcDbBlockReference
  2
_DotSmall
 10
1491.183058982573
 20
1082.55024635859
 30
0.0
 41
30.0
 42
30.0
 43
30.0
  0
MTEXT
  5
230D
330
19E1
100
AcDbEntity
  8
実形
 62
     0
100
AcDbMText
 10
1141.183058982573
 20
1101.30024635859
 30
0.0
 40
25.0
 41
0.0
 71
     5
 72
     1
  1
700
 73
     1
 44
1.0
1001
ACAD
1000
MTEXTBEGIN
1070
    73
1070
     1
1070
    44
1040
1.0
1070
    74
1070
     0
1000
MTEXTEND
  0
POINT
  5
230E
330
19E1
100
AcDbEntity
  8
Defpoints
 62
     0
100
AcDbPoint
 10
791.1830589825731
 20
1185.501432338706
 30
0.0
  0
POINT
  5
230F
330
19E1
100
AcDbEntity
  8
Defpoints
 62
     0
100
AcDbPoint
 10
1491.183058982573
 20
1185.501432338706
 30
0.0
  0
POINT
  5
2310
330
19E1
100
AcDbEntity
  8
Defpoints
 62
     0
100
AcDbPoint
 10
1491.183058982573
 20
1082.55024635859
 30
0.0
  0
ENDBLK
  5
19EC
330
19E1
100
AcDbEntity
  8
0
 62
     3
100
AcDbBlockEnd
  0
BLOCK
  5
1A03
330
19F7
100
AcDbEntity
  8
0
 62
     3
100
AcDbBlockBegin
  2
*D29
 70
     1
 10
0.0
 20
0.0
 30
0.0
  3
*D29
  1

  0
LINE
  5
1D35
330
19F7
100
AcDbEntity
  8
実形
 62
     0
370
    15
100
AcDbLine
 10
791.1830589825731
 20
1120.501432338707
 30
0.0
 11
791.1830589825731
 21
1082.55024635859
 31
0.0
  0
LINE
  5
1D36
330
19F7
100
AcDbEntity
  8
実形
 62
     0
370
    15
100
AcDbLine
 10
776.1830589825731
 20
1120.501432338707
 30
0.0
 11
776.1830589825731
 21
1082.55024635859
 31
0.0
  0
LINE
  5
1D37
330
19F7
100
AcDbEntity
  8
実形
 62
     0
370
    15
100
AcDbLine
 10
791.1830589825731
 20
1082.55024635859
 30
0.0
 11
776.1830589825731
 21
1082.55024635859
 31
0.0
  0
MTEXT
  5
1D38
330
19F7
100
AcDbEntity
  8
実形
 62
     0
100
AcDbMText
 10
826.3517458472879
 20
1104.208809558441
 30
0.0
 40
25.0
 41
0.0
 71
     5
 72
     1
  1
15
 73
     1
 44
1.0
1001
ACAD
1000
MTEXTBEGIN
1070
    73
1070
     1
1070
    44
1040
1.0
1070
    74
1070
     0
1000
MTEXTEND
  0
INSERT
  5
1D39
330
19F7
100
AcDbEntity
  8
実形
 62
     0
370
    15
100
AcDbBlockReference
  2
_DotSmall
 10
791.1830589825731
 20
1082.55024635859
 30
0.0
 41
30.0
 42
30.0
 43
30.0
  0
INSERT
  5
1D3A
330
19F7
100
AcDbEntity
  8
実形
 62
     0
370
    15
100
AcDbBlockReference
  2
_DotSmall
 10
776.1830589825731
 20
1082.55024635859
 30
0.0
 41
30.0
 42
30.0
 43
30.0
 50
180.0
  0
POINT
  5
1D3B
330
19F7
100
AcDbEntity
  8
Defpoints
 62
     0
100
AcDbPoint
 10
791.1830589825731
 20
1185.501432338706
 30
0.0
  0
POINT
  5
1D3C
330
19F7
100
AcDbEntity
  8
Defpoints
 62
     0
100
AcDbPoint
 10
776.1830589825731
 20
1185.501432338706
 30
0.0
  0
POINT
  5
1D3D
330
19F7
100
AcDbEntity
  8
Defpoints
 62
     0
100
AcDbPoint
 10
776.1830589825731
 20
1082.55024635859
 30
0.0
  0
ENDBLK
  5
1A04
330
19F7
100
AcDbEntity
  8
0
 62
     3
100
AcDbBlockEnd
  0
BLOCK
  5
1A7D
330
1A71
100
AcDbEntity
  8
0
 62
     3
100
AcDbBlockBegin
  2
*D30
 70
     1
 10
0.0
 20
0.0
 30
0.0
  3
*D30
  1

  0
LINE
  5
2311
330
1A71
100
AcDbEntity
  8
実形
 62
     0
370
    15
100
AcDbLine
 10
1491.183058982573
 20
1120.501432338707
 30
0.0
 11
1491.183058982573
 21
1082.55024635859
 31
0.0
  0
LINE
  5
2312
330
1A71
100
AcDbEntity
  8
実形
 62
     0
370
    15
100
AcDbLine
 10
1506.183058982573
 20
1120.501432338707
 30
0.0
 11
1506.183058982573
 21
1082.55024635859
 31
0.0
  0
LINE
  5
2313
330
1A71
100
AcDbEntity
  8
実形
 62
     0
370
    15
100
AcDbLine
 10
1491.183058982573
 20
1082.55024635859
 30
0.0
 11
1506.183058982573
 21
1082.55024635859
 31
0.0
  0
MTEXT
  5
2314
330
1A71
100
AcDbEntity
  8
実形
 62
     0
100
AcDbMText
 10
1466.379767521273
 20
1104.68860929109
 30
0.0
 40
25.0
 41
0.0
 71
     5
 72
     1
  1
15
 73
     1
 44
1.0
1001
ACAD
1000
MTEXTBEGIN
1070
    73
1070
     1
1070
    44
1040
1.0
1070
    74
1070
     0
1000
MTEXTEND
  0
INSERT
  5
2315
330
1A71
100
AcDbEntity
  8
実形
 62
     0
370
    15
100
AcDbBlockReference
  2
_DotSmall
 10
1491.183058982573
 20
1082.55024635859
 30
0.0
 41
30.0
 42
30.0
 43
30.0
 50
180.0
  0
INSERT
  5
2316
330
1A71
100
AcDbEntity
  8
実形
 62
     0
370
    15
100
AcDbBlockReference
  2
_DotSmall
 10
1506.183058982573
 20
1082.55024635859
 30
0.0
 41
30.0
 42
30.0
 43
30.0
  0
POINT
  5
2317
330
1A71
100
AcDbEntity
  8
Defpoints
 62
     0
100
AcDbPoint
 10
1491.183058982573
 20
1185.501432338706
 30
0.0
  0
POINT
  5
2318
330
1A71
100
AcDbEntity
  8
Defpoints
 62
     0
100
AcDbPoint
 10
1506.183058982573
 20
1185.501432338706
 30
0.0
  0
POINT
  5
2319
330
1A71
100
AcDbEntity
  8
Defpoints
 62
     0
100
AcDbPoint
 10
1506.183058982573
 20
1082.55024635859
 30
0.0
  0
ENDBLK
  5
1A7E
330
1A71
100
AcDbEntity
  8
0
 62
     3
100
AcDbBlockEnd
  0
BLOCK
  5
1B05
330
1AFB
100
AcDbEntity
  8
0
 62
     3
100
AcDbBlockBegin
  2
*D31
 70
     1
 10
0.0
 20
0.0
 30
0.0
  3
*D31
  1

  0
LINE
  5
2378
330
1AFB
100
AcDbEntity
  8
実形
 62
     0
370
    15
100
AcDbLine
 10
726.1830589825731
 20
1565.501432338707
 30
0.0
 11
695.5206130676249
 21
1565.501432338707
 31
0.0
  0
LINE
  5
2379
330
1AFB
100
AcDbEntity
  8
実形
 62
     0
370
    15
100
AcDbLine
 10
726.1830589825731
 20
1185.501432338706
 30
0.0
 11
695.5206130676248
 21
1185.501432338706
 31
0.0
  0
LINE
  5
237A
330
1AFB
100
AcDbEntity
  8
実形
 62
     0
370
    15
100
AcDbLine
 10
695.5206130676249
 20
1565.501432338707
 30
0.0
 11
695.5206130676248
 21
1185.501432338706
 31
0.0
  0
INSERT
  5
237B
330
1AFB
100
AcDbEntity
  8
実形
 62
     0
370
    15
100
AcDbBlockReference
  2
_DotSmall
 10
695.5206130676249
 20
1565.501432338707
 30
0.0
 41
30.0
 42
30.0
 43
30.0
 50
90.0
  0
INSERT
  5
237C
330
1AFB
100
AcDbEntity
  8
実形
 62
     0
370
    15
100
AcDbBlockReference
  2
_DotSmall
 10
695.5206130676248
 20
1185.501432338706
 30
0.0
 41
30.0
 42
30.0
 43
30.0
 50
270.0
  0
MTEXT
  5
237D
330
1AFB
100
AcDbEntity
  8
実形
 62
     0
100
AcDbMText
 10
676.7706130676247
 20
1375.501432338707
 30
0.0
 40
25.0
 41
0.0
 71
     5
 72
     1
  1
380
 11
0.0000000000000001
 21
1.0
 31
0.0
 73
     1
 44
1.0
1001
ACAD
1000
MTEXTBEGIN
1070
    73
1070
     1
1070
    44
1040
1.0
1070
    74
1070
     0
1000
MTEXTEND
  0
POINT
  5
237E
330
1AFB
100
AcDbEntity
  8
Defpoints
 62
     0
100
AcDbPoint
 10
791.1830589825731
 20
1565.501432338707
 30
0.0
  0
POINT
  5
237F
330
1AFB
100
AcDbEntity
  8
Defpoints
 62
     0
100
AcDbPoint
 10
791.1830589825731
 20
1185.501432338706
 30
0.0
  0
POINT
  5
2380
330
1AFB
100
AcDbEntity
  8
Defpoints
 62
     0
100
AcDbPoint
 10
695.5206130676248
 20
1185.501432338706
 30
0.0
  0
ENDBLK
  5
1B06
330
1AFB
100
AcDbEntity
  8
0
 62
     3
100
AcDbBlockEnd
  0
BLOCK
  5
1DD1
330
1DC6
100
AcDbEntity
  8
0
 62
     3
100
AcDbBlockBegin
  2
*D32
 70
     1
 10
0.0
 20
0.0
 30
0.0
  3
*D32
  1

  0
ARC
  5
1EB9
330
1DC6
100
AcDbEntity
  8
実形
 62
     0
370
    15
100
AcDbCircle
 10
2113.834404996318
 20
649.8153645058083
 30
0.0
 40
42.0102173231769
100
AcDbArc
 50
44.67309712075233
 51
90.0
  0
INSERT
  5
1EBA
330
1DC6
100
AcDbEntity
  8
実形
 62
     0
370
    15
100
AcDbBlockReference
  2
_DotSmall
 10
2143.709116983939
 20
679.3511046048355
 30
0.0
 41
30.0
 42
30.0
 43
30.0
 50
314.6730971207523
  0
INSERT
  5
1EBB
330
1DC6
100
AcDbEntity
  8
実形
 62
     0
370
    15
100
AcDbBlockReference
  2
_DotSmall
 10
2113.834404996318
 20
691.8255818289857
 30
0.0
 41
30.0
 42
30.0
 43
30.0
 50
180.0
  0
MTEXT
  5
1EBC
330
1DC6
100
AcDbEntity
  8
実形
 62
     0
100
AcDbMText
 10
2145.731900555446
 20
713.3458896332296
 30
0.0
 40
21.0
 41
0.0
 71
     5
 72
     1
  1
45°
 73
     1
 44
1.0
1001
ACAD
1000
MTEXTBEGIN
1070
    73
1070
     1
1070
    44
1040
1.0
1070
    74
1070
     0
1000
MTEXTEND
  0
POINT
  5
1EBD
330
1DC6
100
AcDbEntity
  8
Defpoints
 62
     0
100
AcDbPoint
 10
2124.784604071854
 20
690.3733661792967
 30
0.0
  0
POINT
  5
1EBE
330
1DC6
100
AcDbEntity
  8
Defpoints
 62
     0
100
AcDbPoint
 10
2113.834404996318
 20
554.5834685991893
 30
0.0
  0
POINT
  5
1EBF
330
1DC6
100
AcDbEntity
  8
Defpoints
 62
     0
100
AcDbPoint
 10
2113.834404996318
 20
649.8153645058091
 30
0.0
  0
POINT
  5
1EC0
330
1DC6
100
AcDbEntity
  8
Defpoints
 62
     0
100
AcDbPoint
 10
2171.276338163948
 20
706.6055357224493
 30
0.0
  0
POINT
  5
1EC1
330
1DC6
100
AcDbEntity
  8
Defpoints
 62
     0
100
AcDbPoint
 10
2113.834404996318
 20
799.9833023326781
 30
0.0
  0
ENDBLK
  5
1DD2
330
1DC6
100
AcDbEntity
  8
0
 62
     3
100
AcDbBlockEnd
  0
BLOCK
  5
1F12
330
1F08
100
AcDbEntity
  8
0
 62
     3
100
AcDbBlockBegin
  2
*D33
 70
     1
 10
0.0
 20
0.0
 30
0.0
  3
*D33
  1

  0
LINE
  5
1F87
330
1F08
100
AcDbEntity
  8
実形
 62
     0
370
    15
100
AcDbLine
 10
726.1830589825731
 20
1185.501432338706
 30
0.0
 11
695.5206130676248
 21
1185.501432338706
 31
0.0
  0
LINE
  5
1F88
330
1F08
100
AcDbEntity
  8
実形
 62
     0
370
    15
100
AcDbLine
 10
726.1830589825731
 20
1170.501432338706
 30
0.0
 11
695.5206130676248
 21
1170.501432338706
 31
0.0
  0
LINE
  5
1F89
330
1F08
100
AcDbEntity
  8
実形
 62
     0
370
    15
100
AcDbLine
 10
695.5206130676248
 20
1185.501432338706
 30
0.0
 11
695.5206130676248
 21
1170.501432338706
 31
0.0
  0
MTEXT
  5
1F8A
330
1F08
100
AcDbEntity
  8
実形
 62
     0
100
AcDbMText
 10
668.9832412459418
 20
1188.96267981526
 30
0.0
 40
25.0
 41
0.0
 71
     5
 72
     1
  1
15
 11
0.0000000000000001
 21
1.0
 31
0.0
 73
     1
 44
1.0
1001
ACAD
1000
MTEXTBEGIN
1070
    73
1070
     1
1070
    44
1040
1.0
1070
    74
1070
     0
1000
MTEXTEND
  0
INSERT
  5
1F8B
330
1F08
100
AcDbEntity
  8
実形
 62
     0
370
    15
100
AcDbBlockReference
  2
_DotSmall
 10
695.5206130676248
 20
1185.501432338706
 30
0.0
 41
30.0
 42
30.0
 43
30.0
 50
90.0
  0
INSERT
  5
1F8C
330
1F08
100
AcDbEntity
  8
実形
 62
     0
370
    15
100
AcDbBlockReference
  2
_DotSmall
 10
695.5206130676248
 20
1170.501432338706
 30
0.0
 41
30.0
 42
30.0
 43
30.0
 50
270.0
  0
POINT
  5
1F8D
330
1F08
100
AcDbEntity
  8
Defpoints
 62
     0
100
AcDbPoint
 10
791.1830589825731
 20
1185.501432338706
 30
0.0
  0
POINT
  5
1F8E
330
1F08
100
AcDbEntity
  8
Defpoints
 62
     0
100
AcDbPoint
 10
791.1830589825731
 20
1170.501432338706
 30
0.0
  0
POINT
  5
1F8F
330
1F08
100
AcDbEntity
  8
Defpoints
 62
     0
100
AcDbPoint
 10
695.5206130676248
 20
1170.501432338706
 30
0.0
  0
ENDBLK
  5
1F13
330
1F08
100
AcDbEntity
  8
0
 62
     3
100
AcDbBlockEnd
  0
BLOCK
  5
217C
330
2170
100
AcDbEntity
  8
0
 62
     3
100
AcDbBlockBegin
  2
*D34
 70
     1
 10
0.0
 20
0.0
 30
0.0
  3
*D34
  1

  0
LINE
  5
21CA
330
2170
100
AcDbEntity
  8
実形
 62
     0
370
    15
100
AcDbLine
 10
1835.734181742229
 20
1099.20488644656
 30
0.0
 11
1835.734181742229
 21
1046.084218990136
 31
0.0
  0
LINE
  5
21CB
330
2170
100
AcDbEntity
  8
実形
 62
     0
370
    15
100
AcDbLine
 10
1841.73418174223
 20
1099.20488644656
 30
0.0
 11
1841.73418174223
 21
1046.084218990136
 31
0.0
  0
LINE
  5
21CC
330
2170
100
AcDbEntity
  8
実形
 62
     0
370
    15
100
AcDbLine
 10
1835.734181742229
 20
1046.084218990136
 30
0.0
 11
1805.734181742229
 21
1046.084218990136
 31
0.0
  0
LINE
  5
21CD
330
2170
100
AcDbEntity
  8
実形
 62
     0
370
    15
100
AcDbLine
 10
1841.73418174223
 20
1046.084218990136
 30
0.0
 11
1871.73418174223
 21
1046.084218990136
 31
0.0
  0
MTEXT
  5
21CE
330
2170
100
AcDbEntity
  8
実形
 62
     0
100
AcDbMText
 10
1812.95346683979
 20
1075.628182334886
 30
0.0
 40
25.0
 41
0.0
 71
     5
 72
     1
  1
6
 73
     1
 44
1.0
1001
ACAD
1000
MTEXTBEGIN
1070
    73
1070
     1
1070
    44
1040
1.0
1070
    74
1070
     0
1000
MTEXTEND
  0
LINE
  5
21CF
330
2170
100
AcDbEntity
  8
実形
 62
     0
370
    15
100
AcDbLine
 10
1835.734181742229
 20
1046.084218990136
 30
0.0
 11
1841.73418174223
 21
1046.084218990136
 31
0.0
  0
INSERT
  5
21D0
330
2170
100
AcDbEntity
  8
実形
 62
     0
370
    15
100
AcDbBlockReference
  2
_DotSmall
 10
1835.734181742229
 20
1046.084218990136
 30
0.0
 41
30.0
 42
30.0
 43
30.0
  0
INSERT
  5
21D1
330
2170
100
AcDbEntity
  8
実形
 62
     0
370
    15
100
AcDbBlockReference
  2
_DotSmall
 10
1841.73418174223
 20
1046.084218990136
 30
0.0
 41
30.0
 42
30.0
 43
30.0
 50
180.0
  0
POINT
  5
21D2
330
2170
100
AcDbEntity
  8
Defpoints
 62
     0
100
AcDbPoint
 10
1835.734181742229
 20
1164.204886446559
 30
0.0
  0
POINT
  5
21D3
330
2170
100
AcDbEntity
  8
Defpoints
 62
     0
100
AcDbPoint
 10
1841.73418174223
 20
1164.204886446559
 30
0.0
  0
POINT
  5
21D4
330
2170
100
AcDbEntity
  8
Defpoints
 62
     0
100
AcDbPoint
 10
1841.73418174223
 20
1046.084218990136
 30
0.0
  0
ENDBLK
  5
217D
330
2170
100
AcDbEntity
  8
0
 62
     3
100
AcDbBlockEnd
  0
BLOCK
  5
2188
330
217E
100
AcDbEntity
  8
0
 62
     3
100
AcDbBlockBegin
  2
*D35
 70
     1
 10
0.0
 20
0.0
 30
0.0
  3
*D35
  1

  0
LINE
  5
21D5
330
217E
100
AcDbEntity
  8
実形
 62
     0
370
    15
100
AcDbLine
 10
2005.73418174223
 20
1098.386977529357
 30
0.0
 11
2005.73418174223
 21
1046.084218990136
 31
0.0
  0
LINE
  5
21D6
330
217E
100
AcDbEntity
  8
実形
 62
     0
370
    15
100
AcDbLine
 10
2025.73418174223
 20
1098.386977529357
 30
0.0
 11
2025.73418174223
 21
1046.084218990136
 31
0.0
  0
LINE
  5
21D7
330
217E
100
AcDbEntity
  8
実形
 62
     0
370
    15
100
AcDbLine
 10
2005.73418174223
 20
1046.084218990136
 30
0.0
 11
2025.73418174223
 21
1046.084218990136
 31
0.0
  0
MTEXT
  5
21D8
330
217E
100
AcDbEntity
  8
実形
 62
     0
100
AcDbMText
 10
1974.628481253019
 20
1066.413991732577
 30
0.0
 40
25.0
 41
0.0
 71
     5
 72
     1
  1
20
 73
     1
 44
1.0
1001
ACAD
1000
MTEXTBEGIN
1070
    73
1070
     1
1070
    44
1040
1.0
1070
    74
1070
     0
1000
MTEXTEND
  0
INSERT
  5
21D9
330
217E
100
AcDbEntity
  8
実形
 62
     0
370
    15
100
AcDbBlockReference
  2
_DotSmall
 10
2005.73418174223
 20
1046.084218990136
 30
0.0
 41
30.0
 42
30.0
 43
30.0
 50
180.0
  0
INSERT
  5
21DA
330
217E
100
AcDbEntity
  8
実形
 62
     0
370
    15
100
AcDbBlockReference
  2
_DotSmall
 10
2025.73418174223
 20
1046.084218990136
 30
0.0
 41
30.0
 42
30.0
 43
30.0
  0
POINT
  5
21DB
330
217E
100
AcDbEntity
  8
Defpoints
 62
     0
100
AcDbPoint
 10
2005.73418174223
 20
1163.386977529357
 30
0.0
  0
POINT
  5
21DC
330
217E
100
AcDbEntity
  8
Defpoints
 62
     0
100
AcDbPoint
 10
2025.73418174223
 20
1163.386977529357
 30
0.0
  0
POINT
  5
21DD
330
217E
100
AcDbEntity
  8
Defpoints
 62
     0
100
AcDbPoint
 10
2025.73418174223
 20
1046.084218990136
 30
0.0
  0
ENDBLK
  5
2189
330
217E
100
AcDbEntity
  8
0
 62
     3
100
AcDbBlockEnd
  0
BLOCK
  5
2194
330
218A
100
AcDbEntity
  8
0
 62
     3
100
AcDbBlockBegin
  2
*D36
 70
     1
 10
0.0
 20
0.0
 30
0.0
  3
*D36
  1

  0
LINE
  5
21DE
330
218A
100
AcDbEntity
  8
実形
 62
     0
370
    15
100
AcDbLine
 10
2035.734181742229
 20
1098.786403280232
 30
0.0
 11
2035.734181742229
 21
1046.084218990136
 31
0.0
  0
LINE
  5
21DF
330
218A
100
AcDbEntity
  8
実形
 62
     0
370
    15
100
AcDbLine
 10
2005.73418174223
 20
1070.003475160269
 30
0.0
 11
2005.73418174223
 21
1046.084218990136
 31
0.0
  0
LINE
  5
21E0
330
218A
100
AcDbEntity
  8
実形
 62
     0
370
    15
100
AcDbLine
 10
2035.734181742229
 20
1046.084218990136
 30
0.0
 11
2005.73418174223
 21
1046.084218990136
 31
0.0
  0
MTEXT
  5
21E1
330
218A
100
AcDbEntity
  8
実形
 62
     0
100
AcDbMText
 10
2058.87815336022
 20
1066.983077855034
 30
0.0
 40
25.0
 41
0.0
 71
     5
 72
     1
  1
7
 73
     1
 44
1.0
1001
ACAD
1000
MTEXTBEGIN
1070
    73
1070
     1
1070
    44
1040
1.0
1070
    74
1070
     0
1000
MTEXTEND
  0
INSERT
  5
21E2
330
218A
100
AcDbEntity
  8
実形
 62
     0
370
    15
100
AcDbBlockReference
  2
_DotSmall
 10
2035.734181742229
 20
1046.084218990136
 30
0.0
 41
30.0
 42
30.0
 43
30.0
  0
INSERT
  5
21E3
330
218A
100
AcDbEntity
  8
実形
 62
     0
370
    15
100
AcDbBlockReference
  2
_DotSmall
 10
2005.73418174223
 20
1046.084218990136
 30
0.0
 41
30.0
 42
30.0
 43
30.0
 50
180.0
  0
POINT
  5
21E4
330
218A
100
AcDbEntity
  8
Defpoints
 62
     0
100
AcDbPoint
 10
2035.734181742229
 20
1163.786403280232
 30
0.0
  0
POINT
  5
21E5
330
218A
100
AcDbEntity
  8
Defpoints
 62
     0
100
AcDbPoint
 10
2005.73418174223
 20
1135.003475160269
 30
0.0
  0
POINT
  5
21E6
330
218A
100
AcDbEntity
  8
Defpoints
 62
     0
100
AcDbPoint
 10
2005.73418174223
 20
1046.084218990136
 30
0.0
  0
ENDBLK
  5
2195
330
218A
100
AcDbEntity
  8
0
 62
     3
100
AcDbBlockEnd
  0
BLOCK
  5
21A0
330
2196
100
AcDbEntity
  8
0
 62
     3
100
AcDbBlockBegin
  2
*D37
 70
     1
 10
0.0
 20
0.0
 30
0.0
  3
*D37
  1

  0
LINE
  5
21E7
330
2196
100
AcDbEntity
  8
実形
 62
     0
370
    15
100
AcDbLine
 10
1835.734181742229
 20
1063.828753117698
 30
0.0
 11
1835.734181742229
 21
982.1205061958458
 31
0.0
  0
LINE
  5
21E8
330
2196
100
AcDbEntity
  8
実形
 62
     0
370
    15
100
AcDbLine
 10
2025.73418174223
 20
1063.828753117698
 30
0.0
 11
2025.73418174223
 21
982.1205061958458
 31
0.0
  0
LINE
  5
21E9
330
2196
100
AcDbEntity
  8
実形
 62
     0
370
    15
100
AcDbLine
 10
1835.734181742229
 20
982.1205061958458
 30
0.0
 11
2025.73418174223
 21
982.1205061958458
 31
0.0
  0
INSERT
  5
21EA
330
2196
100
AcDbEntity
  8
実形
 62
     0
370
    15
100
AcDbBlockReference
  2
_DotSmall
 10
1835.734181742229
 20
982.1205061958458
 30
0.0
 41
30.0
 42
30.0
 43
30.0
 50
180.0
  0
INSERT
  5
21EB
330
2196
100
AcDbEntity
  8
実形
 62
     0
370
    15
100
AcDbBlockReference
  2
_DotSmall
 10
2025.73418174223
 20
982.1205061958458
 30
0.0
 41
30.0
 42
30.0
 43
30.0
  0
MTEXT
  5
21EC
330
2196
100
AcDbEntity
  8
実形
 62
     0
100
AcDbMText
 10
1930.734181742229
 20
1000.870506195846
 30
0.0
 40
25.0
 41
0.0
 71
     5
 72
     1
  1
190
 73
     1
 44
1.0
1001
ACAD
1000
MTEXTBEGIN
1070
    73
1070
     1
1070
    44
1040
1.0
1070
    74
1070
     0
1000
MTEXTEND
  0
POINT
  5
21ED
330
2196
100
AcDbEntity
  8
Defpoints
 62
     0
100
AcDbPoint
 10
1835.734181742229
 20
1128.828753117698
 30
0.0
  0
POINT
  5
21EE
330
2196
100
AcDbEntity
  8
Defpoints
 62
     0
100
AcDbPoint
 10
2025.73418174223
 20
1128.828753117698
 30
0.0
  0
POINT
  5
21EF
330
2196
100
AcDbEntity
  8
Defpoints
 62
     0
100
AcDbPoint
 10
2025.73418174223
 20
982.1205061958458
 30
0.0
  0
ENDBLK
  5
21A1
330
2196
100
AcDbEntity
  8
0
 62
     3
100
AcDbBlockEnd
  0
BLOCK
  5
2266
330
225C
100
AcDbEntity
  8
0
 62
     3
100
AcDbBlockBegin
  2
*D38
 70
     1
 10
0.0
 20
0.0
 30
0.0
  3
*D38
  1

  0
LINE
  5
22F6
330
225C
100
AcDbEntity
  8
実形
 62
     0
370
    15
100
AcDbLine
 10
1512.183058982573
 20
1120.723639630494
 30
0.0
 11
1512.183058982573
 21
1082.55024635859
 31
0.0
  0
LINE
  5
22F7
330
225C
100
AcDbEntity
  8
実形
 62
     0
370
    15
100
AcDbLine
 10
791.1830589825731
 20
1117.974561974819
 30
0.0
 11
791.1830589825731
 21
1082.55024635859
 31
0.0
  0
LINE
  5
22F8
330
225C
100
AcDbEntity
  8
実形
 62
     0
370
    15
100
AcDbLine
 10
1512.183058982573
 20
1082.55024635859
 30
0.0
 11
791.1830589825731
 21
1082.55024635859
 31
0.0
  0
MTEXT
  5
22F9
330
225C
100
AcDbEntity
  8
実形
 62
     0
100
AcDbMText
 10
1530.588482572273
 20
1104.041906129359
 30
0.0
 40
25.0
 41
0.0
 71
     5
 72
     1
  1
6
 73
     1
 44
1.0
1001
ACAD
1000
MTEXTBEGIN
1070
    73
1070
     1
1070
    44
1040
1.0
1070
    74
1070
     0
1000
MTEXTEND
  0
INSERT
  5
22FA
330
225C
100
AcDbEntity
  8
実形
 62
     0
370
    15
100
AcDbBlockReference
  2
_DotSmall
 10
1512.183058982573
 20
1082.55024635859
 30
0.0
 41
30.0
 42
30.0
 43
30.0
  0
INSERT
  5
22FB
330
225C
100
AcDbEntity
  8
実形
 62
     0
370
    15
100
AcDbBlockReference
  2
_DotSmall
 10
791.1830589825731
 20
1082.55024635859
 30
0.0
 41
30.0
 42
30.0
 43
30.0
 50
180.0
  0
POINT
  5
22FC
330
225C
100
AcDbEntity
  8
Defpoints
 62
     0
100
AcDbPoint
 10
1512.183058982573
 20
1185.723639630494
 30
0.0
  0
POINT
  5
22FD
330
225C
100
AcDbEntity
  8
Defpoints
 62
     0
100
AcDbPoint
 10
791.1830589825731
 20
1182.974561974819
 30
0.0
  0
POINT
  5
22FE
330
225C
100
AcDbEntity
  8
Defpoints
 62
     0
100
AcDbPoint
 10
791.1830589825731
 20
1082.55024635859
 30
0.0
  0
ENDBLK
  5
2267
330
225C
100
AcDbEntity
  8
0
 62
     3
100
AcDbBlockEnd
  0
BLOCK
  5
22AA
330
22A0
100
AcDbEntity
  8
0
 62
     3
100
AcDbBlockBegin
  2
*D39
 70
     1
 10
0.0
 20
0.0
 30
0.0
  3
*D39
  1

  0
LINE
  5
22FF
330
22A0
100
AcDbEntity
  8
実形
 62
     0
370
    15
100
AcDbLine
 10
770.183058982573
 20
1120.929543994733
 30
0.0
 11
770.183058982573
 21
1082.639814283942
 31
0.0
  0
LINE
  5
2300
330
22A0
100
AcDbEntity
  8
実形
 62
     0
370
    15
100
AcDbLine
 10
1491.183058982573
 20
1120.723639630494
 30
0.0
 11
1491.183058982573
 21
1082.639814283942
 31
0.0
  0
LINE
  5
2301
330
22A0
100
AcDbEntity
  8
実形
 62
     0
370
    15
100
AcDbLine
 10
770.183058982573
 20
1082.639814283942
 30
0.0
 11
1491.183058982573
 21
1082.639814283942
 31
0.0
  0
MTEXT
  5
2302
330
22A0
100
AcDbEntity
  8
実形
 62
     0
100
AcDbMText
 10
756.1387189614142
 20
1101.389814283942
 30
0.0
 40
25.0
 41
0.0
 71
     5
 72
     1
  1
6
 73
     1
 44
1.0
1001
ACAD
1000
MTEXTBEGIN
1070
    73
1070
     1
1070
    44
1040
1.0
1070
    74
1070
     0
1000
MTEXTEND
  0
INSERT
  5
2303
330
22A0
100
AcDbEntity
  8
実形
 62
     0
370
    15
100
AcDbBlockReference
  2
_DotSmall
 10
770.183058982573
 20
1082.639814283942
 30
0.0
 41
30.0
 42
30.0
 43
30.0
 50
180.0
  0
INSERT
  5
2304
330
22A0
100
AcDbEntity
  8
実形
 62
     0
370
    15
100
AcDbBlockReference
  2
_DotSmall
 10
1491.183058982573
 20
1082.639814283942
 30
0.0
 41
30.0
 42
30.0
 43
30.0
  0
POINT
  5
2305
330
22A0
100
AcDbEntity
  8
Defpoints
 62
     0
100
AcDbPoint
 10
770.183058982573
 20
1185.929543994733
 30
0.0
  0
POINT
  5
2306
330
22A0
100
AcDbEntity
  8
Defpoints
 62
     0
100
AcDbPoint
 10
1491.183058982573
 20
1185.723639630494
 30
0.0
  0
POINT
  5
2307
330
22A0
100
AcDbEntity
  8
Defpoints
 62
     0
100
AcDbPoint
 10
1491.183058982573
 20
1082.639814283942
 30
0.0
  0
ENDBLK
  5
22AB
330
22A0
100
AcDbEntity
  8
0
 62
     3
100
AcDbBlockEnd
  0
BLOCK
  5
2340
330
2336
100
AcDbEntity
  8
0
 62
     3
100
AcDbBlockBegin
  2
*D40
 70
     1
 10
0.0
 20
0.0
 30
0.0
  3
*D40
  1

  0
LINE
  5
23AE
330
2336
100
AcDbEntity
  8
実形
 62
     0
370
    15
100
AcDbLine
 10
726.8115976569188
 20
1644.501432338707
 30
0.0
 11
695.5206130676249
 21
1644.501432338707
 31
0.0
  0
LINE
  5
23AF
330
2336
100
AcDbEntity
  8
実形
 62
     0
370
    15
100
AcDbLine
 10
723.4501656658485
 20
1565.501432338707
 30
0.0
 11
695.5206130676249
 21
1565.501432338707
 31
0.0
  0
LINE
  5
23B0
330
2336
100
AcDbEntity
  8
実形
 62
     0
370
    15
100
AcDbLine
 10
695.5206130676249
 20
1644.501432338707
 30
0.0
 11
695.5206130676249
 21
1565.501432338707
 31
0.0
  0
MTEXT
  5
23B1
330
2336
100
AcDbEntity
  8
実形
 62
     0
100
AcDbMText
 10
675.6721560023834
 20
1657.277808926894
 30
0.0
 40
25.0
 41
0.0
 71
     5
 72
     1
  1
6
 11
0.0000000000000001
 21
1.0
 31
0.0
 73
     1
 44
1.0
1001
ACAD
1000
MTEXTBEGIN
1070
    73
1070
     1
1070
    44
1040
1.0
1070
    74
1070
     0
1000
MTEXTEND
  0
INSERT
  5
23B2
330
2336
100
AcDbEntity
  8
実形
 62
     0
370
    15
100
AcDbBlockReference
  2
_DotSmall
 10
695.5206130676249
 20
1644.501432338707
 30
0.0
 41
30.0
 42
30.0
 43
30.0
 50
90.0
  0
INSERT
  5
23B3
330
2336
100
AcDbEntity
  8
実形
 62
     0
370
    15
100
AcDbBlockReference
  2
_DotSmall
 10
695.5206130676249
 20
1565.501432338707
 30
0.0
 41
30.0
 42
30.0
 43
30.0
 50
270.0
  0
POINT
  5
23B4
330
2336
100
AcDbEntity
  8
Defpoints
 62
     0
100
AcDbPoint
 10
791.8115976569188
 20
1644.501432338707
 30
0.0
  0
POINT
  5
23B5
330
2336
100
AcDbEntity
  8
Defpoints
 62
     0
100
AcDbPoint
 10
788.4501656658486
 20
1565.501432338707
 30
0.0
  0
POINT
  5
23B6
330
2336
100
AcDbEntity
  8
Defpoints
 62
     0
100
AcDbPoint
 10
695.5206130676249
 20
1565.501432338707
 30
0.0
  0
ENDBLK
  5
2341
330
2336
100
AcDbEntity
  8
0
 62
     3
100
AcDbBlockEnd
  0
BLOCK
  5
23CF
330
23C5
100
AcDbEntity
  8
0
 62
     3
100
AcDbBlockBegin
  2
*D41
 70
     1
 10
0.0
 20
0.0
 30
0.0
  3
*D41
  1

  0
LINE
  5
2419
330
23C5
100
AcDbEntity
  8
実形
 62
     0
370
    15
100
AcDbLine
 10
725.5805179527178
 20
1164.501432338707
 30
0.0
 11
695.5206130676248
 21
1164.501432338707
 31
0.0
  0
LINE
  5
241A
330
23C5
100
AcDbEntity
  8
実形
 62
     0
370
    15
100
AcDbLine
 10
713.4501656658486
 20
1565.501432338707
 30
0.0
 11
695.5206130676249
 21
1565.501432338707
 31
0.0
  0
LINE
  5
241B
330
23C5
100
AcDbEntity
  8
実形
 62
     0
370
    15
100
AcDbLine
 10
695.5206130676248
 20
1164.501432338707
 30
0.0
 11
695.5206130676249
 21
1565.501432338707
 31
0.0
  0
MTEXT
  5
241C
330
23C5
100
AcDbEntity
  8
実形
 62
     0
100
AcDbMText
 10
665.9018069729154
 20
1145.635574614145
 30
0.0
 40
25.0
 41
0.0
 71
     5
 72
     1
  1
6
 11
0.0000000000000001
 21
1.0
 31
0.0
 73
     1
 44
1.0
1001
ACAD
1000
MTEXTBEGIN
1070
    73
1070
     1
1070
    44
1040
1.0
1070
    74
1070
     0
1000
MTEXTEND
  0
INSERT
  5
241D
330
23C5
100
AcDbEntity
  8
実形
 62
     0
370
    15
100
AcDbBlockReference
  2
_DotSmall
 10
695.5206130676248
 20
1164.501432338707
 30
0.0
 41
30.0
 42
30.0
 43
30.0
 50
270.0
  0
INSERT
  5
241E
330
23C5
100
AcDbEntity
  8
実形
 62
     0
370
    15
100
AcDbBlockReference
  2
_DotSmall
 10
695.5206130676249
 20
1565.501432338707
 30
0.0
 41
30.0
 42
30.0
 43
30.0
 50
90.0
  0
POINT
  5
241F
330
23C5
100
AcDbEntity
  8
Defpoints
 62
     0
100
AcDbPoint
 10
735.5805179527179
 20
1164.501432338707
 30
0.0
  0
POINT
  5
2420
330
23C5
100
AcDbEntity
  8
Defpoints
 62
     0
100
AcDbPoint
 10
723.4501656658485
 20
1565.501432338707
 30
0.0
  0
POINT
  5
2421
330
23C5
100
AcDbEntity
  8
Defpoints
 62
     0
100
AcDbPoint
 10
695.5206130676249
 20
1565.501432338707
 30
0.0
  0
ENDBLK
  5
23D0
330
23C5
100
AcDbEntity
  8
0
 62
     3
100
AcDbBlockEnd
  0
ENDSEC
  0
SECTION
  2
ENTITIES
  0
LINE
  5
9C
330
1F
100
AcDbEntity
  8
補助
100
AcDbLine
 10
111.0
 20
4.0
 30
0.0
 11
2784.0
 21
4.0
 31
0.0
  0
LINE
  5
A0
330
1F
100
AcDbEntity
  8
補助
100
AcDbLine
 10
2784.0
 20
2024.0
 30
0.0
 11
111.0
 21
2024.0
 31
0.0
  0
LINE
  5
A5
330
1F
100
AcDbEntity
  8
補助
100
AcDbLine
 10
2784.0
 20
4.0
 30
0.0
 11
2784.0
 21
2024.0
 31
0.0
  0
LINE
  5
A8
330
1F
100
AcDbEntity
  8
補助
100
AcDbLine
 10
2184.0
 20
69.0
 30
0.0
 11
2184.0
 21
199.0
 31
0.0
  0
LINE
  5
A9
330
1F
100
AcDbEntity
  8
補助
100
AcDbLine
 10
2184.0
 20
69.0
 30
0.0
 11
2784.0
 21
69.0
 31
0.0
  0
LINE
  5
AA
330
1F
100
AcDbEntity
  8
補助
100
AcDbLine
 10
2064.0
 20
134.0
 30
0.0
 11
2784.0
 21
134.0
 31
0.0
  0
LINE
  5
AB
330
1F
100
AcDbEntity
  8
補助
100
AcDbLine
 10
2064.0
 20
199.0
 30
0.0
 11
2784.0
 21
199.0
 31
0.0
  0
LINE
  5
AD
330
1F
100
AcDbEntity
  8
補助
100
AcDbLine
 10
2784.0
 20
4.0
 30
0.0
 11
2784.0
 21
69.0
 31
0.0
  0
MTEXT
  5
532
330
1F
100
AcDbEntity
  8
0
100
AcDbMText
 10
1469.226616777811
 20
1181.110374981098
 30
0.0
 40
25.0
 41
0.0
 71
     9
 72
     1
  1

 73
     1
 44
1.0
1001
ACAD
1000
MTEXTBEGIN
1070
    73
1070
     1
1070
    44
1040
1.0
1070
    74
1070
     0
1000
MTEXTEND
  0
MTEXT
  5
55C
330
1F
100
AcDbEntity
  8
0
100
AcDbMText
 10
1010.02660136874
 20
1423.470120422065
 30
0.0
 40
25.0
 41
0.0
 71
     1
 72
     1
  1

 73
     1
 44
1.0
1001
ACAD
1000
MTEXTBEGIN
1070
    73
1070
     1
1070
    44
1040
1.0
1070
    74
1070
     0
1000
MTEXTEND
  0
LINE
  5
56A
330
1F
100
AcDbEntity
  8
補助
100
AcDbLine
 10
2784.0
 20
134.0
 30
0.0
 11
2784.0
 21
199.0
 31
0.0
  0
TEXT
  5
56C
330
1F
100
AcDbEntity
  8
0
100
AcDbText
 10
2295.583333333333
 20
149.0
 30
0.0
 40
35.0
  1
A1m m742-480
 72
     4
 11
2484.0
 21
166.5
 31
0.0
100
AcDbText
  0
MTEXT
  5
5A9
330
1F
100
AcDbEntity
  8
Cen
100
AcDbMText
 10
1527.939315450184
 20
552.4831097022406
 30
0.0
 40
25.0
 41
0.0
 71
     9
 72
     1
  1

 73
     1
 44
1.0
1001
ACAD
1000
MTEXTBEGIN
1070
    73
1070
     1
1070
    44
1040
1.0
1070
    74
1070
     0
1000
MTEXTEND
  0
LINE
  5
5D0
330
1F
100
AcDbEntity
  8
補助
100
AcDbLine
 10
2784.0
 20
69.0
 30
0.0
 11
2784.0
 21
134.0
 31
0.0
  0
TEXT
  5
5D2
330
1F
100
AcDbEntity
  8
0
100
AcDbText
 10
2430.916666666667
 20
84.0
 30
0.0
 40
35.0
  1
1：10
 72
     4
 11
2484.0
 21
101.5
 31
0.0
100
AcDbText
  0
TEXT
  5
5D8
330
1F
100
AcDbEntity
  8
0
100
AcDbText
 10
231.1659029702105
 20
53.51169987015055
 30
0.0
 40
25.0
  1
※実寸には製造上の誤差が多少生ずる場合があります。シンクの穴あけ加工は現物合わせにてお願いします。
  7
ms明朝
100
AcDbText
  0
TEXT
  5
5F4
330
1F
100
AcDbEntity
  8
補助
100
AcDbText
 10
2305.745707330754
 20
18.8092398179233
 30
0.0
 40
35.0
  1
中外交易株式会社
 72
     4
 11
2470.245707330754
 21
36.3092398179233
 31
0.0
100
AcDbText
  0
LINE
  5
5F5
330
1F
100
AcDbEntity
  8
補助
100
AcDbLine
 10
2064.0
 20
69.0
 30
0.0
 11
2784.0
 21
69.0
 31
0.0
  0
HATCH
  5
5F6
330
1F
100
AcDbEntity
  8
補助
100
AcDbHatch
 10
0.0
 20
0.0
 30
0.0
210
0.0
220
0.0
230
1.0
  2
SOLID
 70
     1
 71
     1
 91
        3
 92
        1
 93
        4
 72
     2
 10
2257.166198313996
 20
36.5
 40
20.0
 50
11.6477236670766
 51
342.6561058784691
 73
     1
 72
     1
 10
2276.256852341323
 20
30.53787547858514
 11
2252.166198313995
 21
30.53787547858519
 72
     1
 10
2252.166198313995
 20
30.53787547858519
 11
2252.166198313995
 21
40.53787547858519
 72
     1
 10
2252.166198313995
 20
40.53787547858519
 11
2276.75434681301
 21
40.53787547858519
 97
        4
330
5F7
330
5F9
330
5FA
330
5FB
 92
        1
 93
        4
 72
     2
 10
2188.255774665348
 20
36.5
 40
20.0
 50
11.6477236670766
 51
342.6561058784691
 73
     1
 72
     1
 10
2207.346428692676
 20
30.53787547858514
 11
2183.255774665347
 21
30.53787547858519
 72
     1
 10
2183.255774665347
 20
30.53787547858519
 11
2183.255774665347
 21
40.53787547858519
 72
     1
 10
2183.255774665347
 20
40.53787547858519
 11
2207.843923164362
 21
40.53787547858519
 97
        4
330
5F8
330
601
330
602
330
603
 92
        1
 93
        5
 72
     1
 10
2245.64189404294
 20
56.5
 11
2210.641894042939
 21
56.5
 72
     1
 10
2210.641894042939
 20
56.5
 11
2210.641894042939
 21
16.5
 72
     1
 10
2210.641894042939
 20
16.5
 11
2245.64189404294
 21
16.5
 72
     1
 10
2245.64189404294
 20
16.5
 11
2210.641894042939
 21
36.5
 72
     1
 10
2210.641894042939
 20
36.5
 11
2245.64189404294
 21
56.5
 97
        5
330
5FC
330
600
330
5FF
330
5FE
330
5FD
 75
     0
 76
     1
 98
        1
 10
-60.0
 20
0.0
  0
ARC
  5
5F7
102
{ACAD_REACTORS
330
5F6
102
}
330
1F
100
AcDbEntity
  8
補助
370
     5
100
AcDbCircle
 10
2257.166198313996
 20
36.5
 30
0.0
 40
20.0
100
AcDbArc
 50
11.6477236670766
 51
342.6561058784691
  0
ARC
  5
5F8
102
{ACAD_REACTORS
330
5F6
102
}
330
1F
100
AcDbEntity
  8
補助
370
     5
100
AcDbCircle
 10
2188.255774665348
 20
36.5
 30
0.0
 40
20.0
100
AcDbArc
 50
11.6477236670766
 51
342.6561058784691
  0
LINE
  5
5F9
102
{ACAD_REACTORS
330
5F6
102
}
330
1F
100
AcDbEntity
  8
補助
370
     5
100
AcDbLine
 10
2252.166198313995
 20
30.53787547858519
 30
0.0
 11
2276.256852341323
 21
30.53787547858514
 31
0.0
  0
LINE
  5
5FA
102
{ACAD_REACTORS
330
5F6
102
}
330
1F
100
AcDbEntity
  8
補助
370
     5
100
AcDbLine
 10
2252.166198313995
 20
40.53787547858519
 30
0.0
 11
2252.166198313995
 21
30.53787547858519
 31
0.0
  0
LINE
  5
5FB
102
{ACAD_REACTORS
330
5F6
102
}
330
1F
100
AcDbEntity
  8
補助
370
     5
100
AcDbLine
 10
2276.75434681301
 20
40.53787547858519
 30
0.0
 11
2252.166198313995
 21
40.53787547858519
 31
0.0
  0
LINE
  5
5FC
102
{ACAD_REACTORS
330
5F6
102
}
330
1F
100
AcDbEntity
  8
補助
370
     5
100
AcDbLine
 10
2245.64189404294
 20
56.5
 30
0.0
 11
2210.641894042939
 21
56.5
 31
0.0
  0
LINE
  5
5FD
102
{ACAD_REACTORS
330
5F6
102
}
330
1F
100
AcDbEntity
  8
補助
370
     5
100
AcDbLine
 10
2210.641894042939
 20
36.5
 30
0.0
 11
2245.64189404294
 21
56.5
 31
0.0
  0
LINE
  5
5FE
102
{ACAD_REACTORS
330
5F6
102
}
330
1F
100
AcDbEntity
  8
補助
370
     5
100
AcDbLine
 10
2245.64189404294
 20
16.5
 30
0.0
 11
2210.641894042939
 21
36.5
 31
0.0
  0
LINE
  5
5FF
102
{ACAD_REACTORS
330
5F6
102
}
330
1F
100
AcDbEntity
  8
補助
370
     5
100
AcDbLine
 10
2210.641894042939
 20
16.5
 30
0.0
 11
2245.64189404294
 21
16.5
 31
0.0
  0
LINE
  5
600
102
{ACAD_REACTORS
330
5F6
102
}
330
1F
100
AcDbEntity
  8
補助
370
     5
100
AcDbLine
 10
2210.641894042939
 20
56.5
 30
0.0
 11
2210.641894042939
 21
16.5
 31
0.0
  0
LINE
  5
601
102
{ACAD_REACTORS
330
5F6
102
}
330
1F
100
AcDbEntity
  8
補助
370
     5
100
AcDbLine
 10
2183.255774665347
 20
30.53787547858519
 30
0.0
 11
2207.346428692676
 21
30.53787547858514
 31
0.0
  0
LINE
  5
602
102
{ACAD_REACTORS
330
5F6
102
}
330
1F
100
AcDbEntity
  8
補助
370
     5
100
AcDbLine
 10
2183.255774665347
 20
40.53787547858519
 30
0.0
 11
2183.255774665347
 21
30.53787547858519
 31
0.0
  0
LINE
  5
603
102
{ACAD_REACTORS
330
5F6
102
}
330
1F
100
AcDbEntity
  8
補助
370
     5
100
AcDbLine
 10
2207.843923164362
 20
40.53787547858519
 30
0.0
 11
2183.255774665347
 21
40.53787547858519
 31
0.0
  0
LINE
  5
A29
330
1F
100
AcDbEntity
  8
補助
100
AcDbLine
 10
2064.0
 20
4.0
 30
0.0
 11
2064.0
 21
199.0
 31
0.0
  0
TEXT
  5
A2C
330
1F
100
AcDbEntity
  8
補助
100
AcDbText
 10
2086.666666666667
 20
149.0
 30
0.0
 40
35.0
  1
品番
 72
     4
 11
2124.0
 21
166.5
 31
0.0
100
AcDbText
  0
TEXT
  5
A2D
330
1F
100
AcDbEntity
  8
補助
100
AcDbText
 10
2086.666666666667
 20
84.0
 30
0.0
 40
35.0
  1
尺度
 72
     4
 11
2124.0
 21
101.5
 31
0.0
100
AcDbText
  0
LINE
  5
1281
330
1F
100
AcDbEntity
  8
補助
100
AcDbLine
 10
2784.000000000001
 20
1959.0
 30
0.0
 11
2019.387286519283
 21
1959.0
 31
0.0
  0
LINE
  5
1282
330
1F
100
AcDbEntity
  8
補助
100
AcDbLine
 10
2784.000000000001
 20
1894.0
 30
0.0
 11
2019.387286519283
 21
1894.0
 31
0.0
  0
LINE
  5
1283
330
1F
100
AcDbEntity
  8
補助
100
AcDbLine
 10
2202.547653420927
 20
1894.0
 30
0.0
 11
2202.547653420927
 21
2024.0
 31
0.0
  0
LINE
  5
1284
330
1F
100
AcDbEntity
  8
補助
100
AcDbLine
 10
2019.387286519283
 20
1894.0
 30
0.0
 11
2019.387286519283
 21
2024.0
 31
0.0
  0
TEXT
  5
1286
330
1F
100
AcDbEntity
  8
補助
100
AcDbText
 10
2067.124270278693
 20
1976.5
 30
0.0
 40
30.0
  1
部品名
 72
     4
 11
2116.124270278692
 21
1991.5
 31
0.0
100
AcDbText
  0
TEXT
  5
1288
330
1F
100
AcDbEntity
  8
補助
100
AcDbText
 10
2641.500000000001
 20
1977.5
 30
0.0
 40
30.0
  1
厚さ
 72
     4
 11
2671.5
 21
1991.5
 31
0.0
100
AcDbText
  0
LINE
  5
1289
330
1F
100
AcDbEntity
  8
補助
100
AcDbLine
 10
2575.567461197155
 20
1894.0
 30
0.0
 11
2575.567461197156
 21
2024.0
 31
0.0
  0
TEXT
  5
128B
330
1F
100
AcDbEntity
  8
補助
100
AcDbText
 10
2362.425646240296
 20
1976.119408049583
 30
0.0
 40
30.0
  1
材質
 72
     4
 11
2394.425646240296
 21
1991.119408049583
 31
0.0
100
AcDbText
  0
TEXT
  5
128C
330
1F
100
AcDbEntity
  8
実形
100
AcDbText
 10
2063.056382086358
 20
1910.5
 30
0.0
 40
30.0
  1
ボウル
 72
     4
 11
2114.056382086359
 21
1926.5
 31
0.0
100
AcDbText
  0
TEXT
  5
128D
330
1F
100
AcDbEntity
  8
実形
100
AcDbText
 10
2613.000000000001
 20
1911.499999999999
 30
0.0
 40
30.0
  1
1.0ｍｍ
 72
     4
 11
2671.5
 21
1926.5
 31
0.0
100
AcDbText
  0
TEXT
  5
128E
330
1F
100
AcDbEntity
  8
実形
100
AcDbText
 10
2233.791614802719
 20
1911.499999999999
 30
0.0
 40
30.0
  1
SUS304（No.9)
 72
     4
 11
2394.291614802719
 21
1926.5
 31
0.0
100
AcDbText
  0
LINE
  5
128F
330
1F
100
AcDbEntity
  8
補助
100
AcDbLine
 10
111.0
 20
2024.0
 30
0.0
 11
111.0
 21
4.0
 31
0.0
  0
LINE
  5
1361
330
1F
100
AcDbEntity
  8
実形
100
AcDbLine
 10
811.183058982573
 20
1565.501432338707
 30
0.0
 11
1471.183058982573
 21
1565.501432338707
 31
0.0
  0
LINE
  5
1362
330
1F
100
AcDbEntity
  8
実形
100
AcDbLine
 10
1491.183058982573
 20
1545.501432338707
 30
0.0
 11
1491.183058982573
 21
1205.501432338707
 31
0.0
  0
LINE
  5
1363
330
1F
100
AcDbEntity
  8
実形
100
AcDbLine
 10
1471.183058982573
 20
1185.501432338706
 30
0.0
 11
811.183058982573
 21
1185.501432338706
 31
0.0
  0
LINE
  5
1364
330
1F
100
AcDbEntity
  8
実形
100
AcDbLine
 10
791.1830589825731
 20
1205.501432338707
 30
0.0
 11
791.1830589825731
 21
1545.501432338707
 31
0.0
  0
LINE
  5
1366
330
1F
100
AcDbEntity
  8
実形
100
AcDbLine
 10
796.1830589825731
 20
1638.501432338707
 30
0.0
 11
1486.183058982573
 21
1638.501432338706
 31
0.0
  0
LINE
  5
1368
330
1F
100
AcDbEntity
  8
実形
100
AcDbLine
 10
796.183058982573
 20
1644.501432338707
 30
0.0
 11
1486.183058982573
 21
1644.501432338707
 31
0.0
  0
LINE
  5
13BF
330
1F
100
AcDbEntity
  8
実形
100
AcDbLine
 10
776.1830589825731
 20
1190.501432338706
 30
0.0
 11
776.1830589825731
 21
1618.501432338707
 31
0.0
  0
LINE
  5
13C0
330
1F
100
AcDbEntity
  8
実形
100
AcDbLine
 10
1506.183058982573
 20
1618.501432338706
 30
0.0
 11
1506.183058982573
 21
1190.501432338707
 31
0.0
  0
LINE
  5
13C1
330
1F
100
AcDbEntity
  8
実形
100
AcDbLine
 10
1486.183058982573
 20
1170.501432338707
 30
0.0
 11
796.1830589825731
 21
1170.501432338706
 31
0.0
  0
LINE
  5
13D8
330
1F
100
AcDbEntity
  8
実形
100
AcDbLine
 10
790.1830589825731
 20
1661.501432338707
 30
0.0
 11
1492.183058982573
 21
1661.501432338707
 31
0.0
  0
LINE
  5
13D9
330
1F
100
AcDbEntity
  8
実形
100
AcDbLine
 10
1486.183058982573
 20
1164.501432338707
 30
0.0
 11
796.1830589825731
 21
1164.501432338707
 31
0.0
  0
LINE
  5
13DA
330
1F
100
AcDbEntity
  8
実形
100
AcDbLine
 10
1512.183058982573
 20
1618.501432338707
 30
0.0
 11
1512.183058982573
 21
1190.501432338707
 31
0.0
  0
LINE
  5
13DB
330
1F
100
AcDbEntity
  8
実形
100
AcDbLine
 10
770.1830589825731
 20
1190.501432338707
 30
0.0
 11
770.183058982573
 21
1618.501432338707
 31
0.0
  0
LINE
  5
13DC
330
1F
100
AcDbEntity
  8
実形
100
AcDbLine
 10
1492.183058982573
 20
1147.501432338707
 30
0.0
 11
790.1830589825731
 21
1147.501432338707
 31
0.0
  0
LINE
  5
13DD
330
1F
100
AcDbEntity
  8
実形
100
AcDbLine
 10
1529.183058982573
 20
1624.501432338707
 30
0.0
 11
1529.183058982573
 21
1184.501432338707
 31
0.0
  0
LINE
  5
13DE
330
1F
100
AcDbEntity
  8
実形
100
AcDbLine
 10
753.1830589825731
 20
1184.501432338707
 30
0.0
 11
753.1830589825731
 21
1624.501432338707
 31
0.0
  0
DIMENSION
  5
13E0
330
1F
100
AcDbEntity
  8
実形
100
AcDbDimension
  2
*D7
 10
1512.183058982573
 20
1022.944296542805
 30
0.0
 11
1141.183058982573
 21
1041.694296542805
 31
0.0
 70
    32
 71
     5
 42
742.0000000000002
  3
ISO-25
100
AcDbAlignedDimension
 13
770.1830589825731
 23
1116.032137148834
 33
0.0
 14
1512.183058982573
 24
1116.032137148834
 34
0.0
100
AcDbRotatedDimension
1001
ACAD
1000
DSTYLE
1002
{
1070
   279
1070
     1
1002
}
  0
DIMENSION
  5
141A
330
1F
100
AcDbEntity
  8
実形
100
AcDbDimension
  2
*D8
 10
770.1830589825731
 20
1022.944296542805
 30
0.0
 11
725.8853530687283
 21
1023.945687321577
 31
0.0
 70
   160
 71
     5
 42
16.99999999999988
  3
ISO-25
100
AcDbAlignedDimension
 13
753.1830589825732
 23
1116.032137148834
 33
0.0
 14
770.1830589825731
 24
1116.032137148834
 34
0.0
100
AcDbRotatedDimension
1001
ACAD
1000
DSTYLE
1002
{
1070
   279
1070
     1
1002
}
  0
DIMENSION
  5
143C
330
1F
100
AcDbEntity
  8
実形
100
AcDbDimension
  2
*D9
 10
1529.183058982573
 20
1022.944296542805
 30
0.0
 11
1565.526604807497
 21
1022.111417266935
 31
0.0
 70
   160
 71
     5
 42
17.0
  3
ISO-25
100
AcDbAlignedDimension
 13
1512.183058982573
 23
1116.032137148834
 33
0.0
 14
1529.183058982573
 24
1116.032137148834
 34
0.0
100
AcDbRotatedDimension
1001
ACAD
1000
DSTYLE
1002
{
1070
   279
1070
     1
1002
}
  0
LINE
  5
1511
330
1F
100
AcDbEntity
  8
実形
100
AcDbLine
 10
777.4256996696924
 20
692.4662879013103
 30
0.0
 11
1504.940418295453
 21
692.4662879013103
 31
0.0
  0
LINE
  5
1517
330
1F
100
AcDbEntity
  8
実形
100
AcDbLine
 10
1491.183058982573
 20
688.4662879013103
 30
0.0
 11
1491.183058982573
 21
546.9841739737944
 31
0.0
  0
LINE
  5
1518
330
1F
100
AcDbEntity
  8
実形
100
AcDbLine
 10
1513.011486107319
 20
698.4662879013103
 30
0.0
 11
1529.183058982573
 21
698.4662879013103
 31
0.0
  0
LINE
  5
1519
330
1F
100
AcDbEntity
  8
実形
100
AcDbLine
 10
1507.061738639013
 20
693.3449675577507
 30
0.0
 11
1511.597272544946
 21
697.8805014636834
 31
0.0
  0
LINE
  5
1544
330
1F
100
AcDbEntity
  8
実形
100
AcDbLine
 10
1944.304433811637
 20
592.0437097219072
 30
0.0
 11
2041.878026940439
 21
592.0437097219068
 31
0.0
  0
LINE
  5
1545
330
1F
100
AcDbEntity
  8
実形
100
AcDbLine
 10
2122.588705059095
 20
652.0437097219071
 30
0.0
 11
2284.304433811628
 21
652.0437097219067
 31
0.0
  0
LINE
  5
1546
330
1F
100
AcDbEntity
  8
実形
100
AcDbLine
 10
2284.304433811632
 20
652.0437097219085
 30
0.0
 11
2284.304433811632
 21
642.0437097219068
 31
0.0
  0
LINE
  5
154C
330
1F
100
AcDbEntity
  8
実形
100
AcDbLine
 10
2063.091230376036
 20
600.8305062863105
 30
0.0
 11
2108.446569435364
 21
646.1858453456381
 31
0.0
  0
LINE
  5
157D
330
1F
100
AcDbEntity
  8
実形
100
AcDbLine
 10
1904.304433811637
 20
552.0437097219072
 30
0.0
 11
1904.304433811637
 21
462.6987234938915
 31
0.0
  0
DIMENSION
  5
15B0
330
1F
100
AcDbEntity
  8
実形
100
AcDbDimension
  2
*D10
 10
2054.304433811632
 20
731.7473567090492
 30
0.0
 11
1979.304433811634
 21
750.4973567090492
 31
0.0
 70
    32
  1
15
 71
     5
 42
149.9999999999954
  3
ISO-25
100
AcDbAlignedDimension
 13
1904.304433811637
 23
609.1120942765392
 33
0.0
 14
2054.304433811632
 24
609.1120942765392
 34
0.0
100
AcDbRotatedDimension
1001
ACAD
1000
DSTYLE
1002
{
1070
   279
1070
     1
1002
}
  0
DIMENSION
  5
15BD
330
1F
100
AcDbEntity
  8
実形
100
AcDbDimension
  2
*D11
 10
2114.304433811633
 20
731.7473567090492
 30
0.0
 11
2084.304433811633
 21
750.4973567090492
 31
0.0
 70
    32
  1
6
 71
     5
 42
60.0
  3
ISO-25
100
AcDbAlignedDimension
 13
2054.304433811632
 23
609.1120942765392
 33
0.0
 14
2114.304433811633
 24
609.1120942765392
 34
0.0
100
AcDbRotatedDimension
1001
ACAD
1000
DSTYLE
1002
{
1070
   279
1070
     1
1002
}
  0
DIMENSION
  5
15CA
330
1F
100
AcDbEntity
  8
実形
100
AcDbDimension
  2
*D12
 10
2284.304433811628
 20
731.7473567090492
 30
0.0
 11
2199.30443381163
 21
750.4973567090492
 31
0.0
 70
    32
  1
17
 71
     5
 42
169.9999999999954
  3
ISO-25
100
AcDbAlignedDimension
 13
2114.304433811633
 23
609.1120942765392
 33
0.0
 14
2284.304433811628
 24
609.1120942765386
 34
0.0
100
AcDbRotatedDimension
1001
ACAD
1000
DSTYLE
1002
{
1070
   279
1070
     1
1002
}
  0
DIMENSION
  5
15D7
330
1F
100
AcDbEntity
  8
実形
100
AcDbDimension
  2
*D13
 10
1800.70566117656
 20
592.0437097219073
 30
0.0
 11
1781.95566117656
 21
622.0437097219076
 31
0.0
 70
    32
  1
6
 71
     5
 42
60.0
  3
ISO-25
100
AcDbAlignedDimension
 13
1904.304433811637
 23
652.0437097219073
 33
0.0
 14
1904.304433811637
 24
592.0437097219073
 34
0.0
 50
90.0
100
AcDbRotatedDimension
1001
ACAD
1000
DSTYLE
1002
{
1070
   279
1070
     1
1002
}
  0
ARC
  5
162C
330
1F
100
AcDbEntity
  8
実形
100
AcDbCircle
 10
1944.304433811637
 20
552.0437097219072
 30
0.0
 40
40.0
100
AcDbArc
 50
89.99999999999984
 51
180.0
  0
ARC
  5
162D
330
1F
100
AcDbEntity
  8
実形
100
AcDbCircle
 10
2041.878026940439
 20
622.0437097219068
 30
0.0
 40
30.0
100
AcDbArc
 50
269.9999999999998
 51
315.0
  0
ARC
  5
162E
330
1F
100
AcDbEntity
  8
実形
100
AcDbCircle
 10
2122.588705059095
 20
632.0437097219071
 30
0.0
 40
20.0
100
AcDbArc
 50
89.99999999999991
 51
135.0
  0
LINE
  5
1630
330
1F
100
AcDbEntity
  8
実形
100
AcDbLine
 10
1914.304433811637
 20
552.0437097219072
 30
0.0
 11
1914.304433811637
 21
462.6987234938915
 31
0.0
  0
ARC
  5
1631
330
1F
100
AcDbEntity
  8
実形
100
AcDbCircle
 10
1944.304433811637
 20
552.0437097219072
 30
0.0
 40
30.0
100
AcDbArc
 50
89.99999999999984
 51
180.0
  0
LINE
  5
1632
330
1F
100
AcDbEntity
  8
実形
100
AcDbLine
 10
1944.304433811637
 20
582.0437097219072
 30
0.0
 11
2041.878026940439
 21
582.0437097219069
 31
0.0
  0
LINE
  5
1633
330
1F
100
AcDbEntity
  8
実形
100
AcDbLine
 10
2070.162298187901
 20
593.759438474445
 30
0.0
 11
2115.517637247229
 21
639.1147775337725
 31
0.0
  0
ARC
  5
1634
330
1F
100
AcDbEntity
  8
実形
100
AcDbCircle
 10
2041.878026940439
 20
622.0437097219068
 30
0.0
 40
40.0
100
AcDbArc
 50
269.9999999999998
 51
315.0
  0
LINE
  5
1635
330
1F
100
AcDbEntity
  8
実形
100
AcDbLine
 10
2122.588705059095
 20
642.0437097219071
 30
0.0
 11
2284.304433811628
 21
642.0437097219068
 31
0.0
  0
ARC
  5
1636
330
1F
100
AcDbEntity
  8
実形
100
AcDbCircle
 10
2122.588705059095
 20
632.0437097219071
 30
0.0
 40
10.0
100
AcDbArc
 50
89.99999999999991
 51
135.0
  0
ARC
  5
1676
330
1F
100
AcDbEntity
  8
実形
100
AcDbCircle
 10
1495.183058982573
 20
688.4662879013103
 30
0.0
 40
4.0
100
AcDbArc
 50
90.0
 51
180.0
  0
ARC
  5
1677
330
1F
100
AcDbEntity
  8
実形
100
AcDbCircle
 10
1504.940418295453
 20
695.4662879013103
 30
0.0
 40
3.0
100
AcDbArc
 50
270.0
 51
315.0
  0
ARC
  5
1678
330
1F
100
AcDbEntity
  8
実形
100
AcDbCircle
 10
1513.011486107319
 20
696.4662879013103
 30
0.0
 40
2.0
100
AcDbArc
 50
90.0
 51
134.9999999999994
  0
LINE
  5
16F5
330
1F
100
AcDbEntity
  8
0
100
AcDbLine
 10
753.1830589825731
 20
698.4662879013103
 30
0.0
 11
1529.183058982573
 21
698.4662879013103
 31
0.0
  0
LINE
  5
16F9
330
1F
100
AcDbEntity
  8
0
100
AcDbLine
 10
1050.683058982573
 20
508.4662879013103
 30
0.0
 11
1231.683058982573
 21
508.4662879013103
 31
0.0
  0
DIMENSION
  5
16FA
330
1F
100
AcDbEntity
  8
0
100
AcDbDimension
  2
*D14
 10
1061.683058982573
 20
379.0718132032953
 30
0.0
 11
1141.183058982573
 21
397.8218132032953
 31
0.0
 70
    32
  1
158
 71
     5
 42
159.0
  3
ISO-25
100
AcDbAlignedDimension
 13
1220.683058982573
 23
500.4662879013103
 33
0.0
 14
1061.683058982573
 24
500.4662879013104
 34
0.0
100
AcDbRotatedDimension
  0
DIMENSION
  5
16FB
330
1F
100
AcDbEntity
  8
0
100
AcDbDimension
  2
*D15
 10
1050.683058982573
 20
610.6193124392821
 30
0.0
 11
1141.183058982573
 21
629.3693124392821
 31
0.0
 70
    32
 71
     5
 42
181.0
  3
ISO-25
100
AcDbAlignedDimension
 13
1231.683058982573
 23
508.4662879013103
 33
0.0
 14
1050.683058982573
 24
508.4662879013103
 34
0.0
100
AcDbRotatedDimension
  0
LINE
  5
16FC
330
1F
100
AcDbEntity
  8
Cen
100
AcDbLine
 10
1141.183058982573
 20
591.7718798565456
 30
0.0
 11
1141.183058982573
 21
476.2117459561859
 31
0.0
  0
CIRCLE
  5
16FD
330
1F
100
AcDbEntity
  8
Cen
  6
HIDDEN2
 48
1.5
100
AcDbCircle
 10
1506.074341398452
 20
691.0882985291673
 30
0.0
 40
64.39211969241114
  0
LEADER
  5
1701
330
1F
100
AcDbEntity
  8
Cen
100
AcDbLeader
  3
ISO-25
 40
25.0
 41
16.66666666666666
 76
     2
 10
1472.836851917571
 20
541.4058313477839
 30
0.0
 10
1423.721887193036
 20
577.2779126437917
 30
0.0
213
0.0
223
12.5
233
0.0
1001
ACAD
1000
DSTYLE
1002
{
1070
   147
1040
6.25
1070
    77
1070
     0
1070
   279
1070
     1
1002
}
  0
TEXT
  5
1702
330
1F
100
AcDbEntity
  8
0
100
AcDbText
 10
1352.529744236583
 20
573.3259174245149
 30
0.0
 40
25.0
  1
20R
100
AcDbText
  0
LINE
  5
1707
330
1F
100
AcDbEntity
  8
実形
100
AcDbLine
 10
1231.683058982573
 20
573.4662879013103
 30
0.0
 11
1231.683058982573
 21
610.6193124392821
 31
0.0
  0
LINE
  5
1708
330
1F
100
AcDbEntity
  8
実形
100
AcDbLine
 10
1050.683058982573
 20
573.4662879013103
 30
0.0
 11
1050.683058982573
 21
608.744312439282
 31
0.0
  0
DIMENSION
  5
1709
330
1F
100
AcDbEntity
  8
実形
100
AcDbDimension
  2
*D16
 10
1241.683058982573
 20
610.5170029346668
 30
0.0
 11
1039.122112552505
 21
611.2104302409811
 31
0.0
 70
   160
  1
10
 71
     5
 42
201.0000000000005
  3
ISO-25
100
AcDbAlignedDimension
 13
1040.683058982573
 23
508.4662879013099
 33
0.0
 14
1241.683058982573
 24
508.3103480859431
 34
0.0
100
AcDbRotatedDimension
1001
ACAD
1000
DSTYLE
1002
{
1070
   279
1070
     1
1002
}
  0
TEXT
  5
170A
330
1F
100
AcDbEntity
  8
実形
100
AcDbText
 10
1221.536931201422
 20
618.9113826234611
 30
0.0
 40
25.0
  1
10
100
AcDbText
  0
DIMENSION
  5
170D
330
1F
100
AcDbEntity
  8
実形
100
AcDbDimension
  2
*D17
 10
623.0623915261504
 20
692.4662879013098
 30
0.0
 11
607.9149151150369
 21
731.8327849721117
 31
0.0
 70
   160
 71
     5
 42
6.000000000000568
  3
ISO-25
100
AcDbAlignedDimension
 13
741.1830589825735
 23
698.4662879013103
 33
0.0
 14
741.1830589825735
 24
692.4662879013098
 34
0.0
 50
90.0
100
AcDbRotatedDimension
1001
ACAD
1000
DSTYLE
1002
{
1070
   279
1070
     1
1002
}
  0
DIMENSION
  5
170E
330
1F
100
AcDbEntity
  8
実形
100
AcDbDimension
  2
*D18
 10
623.0623915261504
 20
508.4662879013105
 30
0.0
 11
608.3306083427552
 21
537.5896311901806
 31
0.0
 70
   160
 71
     5
 42
19.99999999999983
  3
ISO-25
100
AcDbAlignedDimension
 13
740.3651500653714
 23
528.4662879013104
 33
0.0
 14
740.3651500653714
 24
508.4662879013104
 34
0.0
 50
90.0
100
AcDbRotatedDimension
1001
ACAD
1000
DSTYLE
1002
{
1070
   279
1070
     1
1002
}
  0
DIMENSION
  5
170F
330
1F
100
AcDbEntity
  8
実形
100
AcDbDimension
  2
*D19
 10
623.0623915261504
 20
528.4662879013104
 30
0.0
 11
608.5842293568293
 21
487.5874810209361
 31
0.0
 70
   160
  1
7
 71
     5
 42
29.99999999999995
  3
ISO-25
100
AcDbAlignedDimension
 13
740.7645758162463
 23
498.4662879013103
 33
0.0
 14
711.9816476962833
 24
528.4662879013104
 34
0.0
 50
90.0
100
AcDbRotatedDimension
1001
ACAD
1000
DSTYLE
1002
{
1070
   279
1070
     1
1002
}
  0
DIMENSION
  5
1710
330
1F
100
AcDbEntity
  8
実形
100
AcDbDimension
  2
*D20
 10
536.5214930879639
 20
508.4662879013105
 30
0.0
 11
517.7714930879638
 21
603.4662879013105
 31
0.0
 70
    32
 71
     5
 42
189.9999999999998
  3
ISO-25
100
AcDbAlignedDimension
 13
705.806925653712
 23
698.4662879013103
 33
0.0
 14
705.806925653712
 24
508.4662879013104
 34
0.0
 50
90.0
100
AcDbRotatedDimension
1001
ACAD
1000
DSTYLE
1002
{
1070
   279
1070
     1
1002
}
  0
LINE
  5
1711
330
1F
100
AcDbEntity
  8
0
100
AcDbLine
 10
1050.683058982573
 20
498.4662879013103
 30
0.0
 11
1231.683058982573
 21
498.4662879013103
 31
0.0
  0
LINE
  5
1712
330
1F
100
AcDbEntity
  8
実形
100
AcDbLine
 10
1050.683058982573
 20
508.4662879013103
 30
0.0
 11
1050.683058982573
 21
498.4662879013103
 31
0.0
  0
LINE
  5
1713
330
1F
100
AcDbEntity
  8
実形
100
AcDbLine
 10
1231.683058982574
 20
508.4662879013103
 30
0.0
 11
1231.683058982574
 21
498.4662879013102
 31
0.0
  0
LINE
  5
17A9
330
1F
100
AcDbEntity
  8
実形
100
AcDbLine
 10
1231.683058982573
 20
508.4662879013103
 30
0.0
 11
1472.719927073792
 21
527.043310490229
 31
0.0
  0
LINE
  5
17AA
330
1F
100
AcDbEntity
  8
実形
100
AcDbLine
 10
787.1830589825731
 20
692.4662879013098
 30
0.0
 11
777.4256996696924
 21
692.4662879013098
 31
0.0
  0
ARC
  5
17AB
330
1F
100
AcDbEntity
  8
実形
100
AcDbCircle
 10
787.1830589825731
 20
688.4662879013098
 30
0.0
 40
4.0
100
AcDbArc
 50
0.0000000000000911
 51
90.00000000000007
  0
ARC
  5
17AC
330
1F
100
AcDbEntity
  8
実形
 62
     3
100
AcDbCircle
 10
769.3546318578267
 20
696.4662879013097
 30
0.0
 40
2.0
100
AcDbArc
 50
45.00000000000073
 51
90.00000000000007
  0
LINE
  5
17AE
330
1F
100
AcDbEntity
  8
実形
100
AcDbLine
 10
775.3043793261329
 20
693.3449675577501
 30
0.0
 11
770.7688454201997
 21
697.8805014636829
 31
0.0
  0
ARC
  5
17AF
330
1F
100
AcDbEntity
  8
実形
100
AcDbCircle
 10
777.4256996696924
 20
695.4662879013097
 30
0.0
 40
3.0
100
AcDbArc
 50
225.0000000000001
 51
270.0000000000001
  0
LINE
  5
17B3
330
1F
100
AcDbEntity
  8
実形
100
AcDbLine
 10
782.3043793261327
 20
692.4662879013098
 30
0.0
 11
777.4256996696924
 21
692.4662879013098
 31
0.0
  0
ARC
  5
17CA
330
1F
100
AcDbEntity
  8
実形
100
AcDbCircle
 10
1471.183058982573
 20
546.9841739737944
 30
0.0
 40
20.0
100
AcDbArc
 50
274.4071473439595
 51
0.0
  0
LINE
  5
17CB
330
1F
100
AcDbEntity
  8
実形
100
AcDbLine
 10
791.1830589825727
 20
688.4662879013096
 30
0.0
 11
791.1830589825731
 21
546.9841739737937
 31
0.0
  0
ARC
  5
17CC
330
1F
100
AcDbEntity
  8
実形
100
AcDbCircle
 10
811.1830589825734
 20
546.9841739737937
 30
0.0
 40
20.0
100
AcDbArc
 50
180.0000000000001
 51
265.5928526560406
  0
LINE
  5
17CD
330
1F
100
AcDbEntity
  8
実形
100
AcDbLine
 10
1050.683058982573
 20
508.4662879013102
 30
0.0
 11
809.6461908913545
 21
527.0433104902283
 31
0.0
  0
DIMENSION
  5
1852
330
1F
100
AcDbEntity
  8
実形
100
AcDbDimension
  2
*D21
 10
1011.631506486112
 20
1644.501432338707
 30
0.0
 11
1009.922020194663
 21
1525.585563078021
 31
0.0
 70
   160
 71
     5
 42
219.9999999999998
  3
ISO-25
100
AcDbAlignedDimension
 13
1141.183058982573
 23
1424.501432338707
 33
0.0
 14
1141.183058982573
 24
1644.501432338707
 34
0.0
 50
90.0
100
AcDbRotatedDimension
1001
ACAD
1000
DSTYLE
1002
{
1070
   279
1070
     1
1002
}
  0
CIRCLE
  5
1869
330
1F
100
AcDbEntity
  8
実形
100
AcDbCircle
 10
1141.183058982573
 20
1424.501432338707
 30
0.0
 40
79.0
  0
CIRCLE
  5
186A
330
1F
100
AcDbEntity
  8
実形
100
AcDbCircle
 10
1141.183058982573
 20
1424.501432338707
 30
0.0
 40
90.5
  0
CIRCLE
  5
186B
330
1F
100
AcDbEntity
  8
実形
100
AcDbCircle
 10
1141.183058982573
 20
1424.501432338707
 30
0.0
 40
100.0
  0
DIMENSION
  5
1875
330
1F
100
AcDbEntity
  8
実形
100
AcDbDimension
  2
*D22
 10
695.5206130676249
 20
1565.501432338707
 30
0.0
 11
676.7706130676247
 21
1602.001432338707
 31
0.0
 70
    32
 71
     5
 42
73.0
  3
ISO-25
100
AcDbAlignedDimension
 13
791.1830589825728
 23
1638.501432338706
 33
0.0
 14
791.1830589825731
 24
1565.501432338707
 34
0.0
 50
90.0
100
AcDbRotatedDimension
1001
ACAD
1000
DSTYLE
1002
{
1070
   279
1070
     1
1002
}
  0
DIMENSION
  5
1877
330
1F
100
AcDbEntity
  8
実形
100
AcDbDimension
  2
*D23
 10
583.5618260356866
 20
1164.501432338707
 30
0.0
 11
564.8118260356865
 21
1404.501432338707
 31
0.0
 70
    32
 71
     5
 42
479.9999999999998
  3
ISO-25
100
AcDbAlignedDimension
 13
710.8465605944202
 23
1644.501432338707
 33
0.0
 14
642.9556536716627
 24
1164.501432338707
 34
0.0
 50
90.0
100
AcDbRotatedDimension
1001
ACAD
1000
DSTYLE
1002
{
1070
   279
1070
     1
1002
}
  0
DIMENSION
  5
1878
330
1F
100
AcDbEntity
  8
実形
100
AcDbDimension
  2
*D24
 10
583.5618260356864
 20
1644.501432338707
 30
0.0
 11
579.4706452544087
 21
1686.78735923864
 31
0.0
 70
   160
 71
     5
 42
17.00000000000045
  3
ISO-25
100
AcDbAlignedDimension
 13
708.6761160729674
 23
1661.501432338707
 33
0.0
 14
693.0105944130307
 24
1644.501432338707
 34
0.0
 50
90.0
100
AcDbRotatedDimension
1001
ACAD
1000
DSTYLE
1002
{
1070
   279
1070
     1
1002
}
  0
DIMENSION
  5
1879
330
1F
100
AcDbEntity
  8
実形
100
AcDbDimension
  2
*D25
 10
529.8605954343645
 20
1147.501432338707
 30
0.0
 11
511.1105954343644
 21
1404.501432338707
 31
0.0
 70
    32
 71
     5
 42
514.0
  3
ISO-25
100
AcDbAlignedDimension
 13
678.2780708499619
 23
1661.501432338707
 33
0.0
 14
652.971816195183
 24
1147.501432338707
 34
0.0
 50
90.0
100
AcDbRotatedDimension
1001
ACAD
1000
DSTYLE
1002
{
1070
   279
1070
     1
1002
}
  0
DIMENSION
  5
187A
330
1F
100
AcDbEntity
  8
実形
100
AcDbDimension
  2
*D26
 10
583.5618260356866
 20
1147.501432338707
 30
0.0
 11
583.9890040482496
 21
1117.451541453838
 31
0.0
 70
   160
 71
     5
 42
16.99999999999977
  3
ISO-25
100
AcDbAlignedDimension
 13
708.0360266505449
 23
1164.501432338707
 33
0.0
 14
708.7295071616888
 24
1147.501432338707
 34
0.0
 50
90.0
100
AcDbRotatedDimension
1001
ACAD
1000
DSTYLE
1002
{
1070
   279
1070
     1
1002
}
  0
LINE
  5
1968
330
1F
100
AcDbEntity
  8
実形
100
AcDbLine
 10
1835.734181742229
 20
1645.329859463453
 30
0.0
 11
1835.734181742229
 21
1661.501432338707
 31
0.0
  0
ARC
  5
1969
330
1F
100
AcDbEntity
  8
実形
100
AcDbCircle
 10
1837.734181742229
 20
1645.329859463453
 30
0.0
 40
2.0
100
AcDbArc
 50
180.0
 51
224.9999999999954
  0
LINE
  5
196B
330
1F
100
AcDbEntity
  8
実形
100
AcDbLine
 10
1840.855502085789
 20
1639.380111995147
 30
0.0
 11
1836.319968179856
 21
1643.91564590108
 31
0.0
  0
ARC
  5
196C
330
1F
100
AcDbEntity
  8
実形
100
AcDbCircle
 10
1838.734181742229
 20
1637.258791651587
 30
0.0
 40
3.0
100
AcDbArc
 50
0.0
 51
44.99999999999536
  0
LINE
  5
196D
330
1F
100
AcDbEntity
  8
0
100
AcDbLine
 10
1835.734181742229
 20
1180.096767471851
 30
0.0
 11
1835.734181742229
 21
1661.501432338707
 31
0.0
  0
ARC
  5
1989
330
1F
100
AcDbEntity
  8
実形
100
AcDbCircle
 10
1845.734181742229
 20
1181.501432338707
 30
0.0
 40
4.0
100
AcDbArc
 50
90.00000000000003
 51
180.0
  0
LINE
  5
198A
330
1F
100
AcDbEntity
  8
実形
100
AcDbLine
 10
1835.734181742229
 20
1163.67300521396
 30
0.0
 11
1835.734181742229
 21
1147.501432338707
 31
0.0
  0
ARC
  5
198B
330
1F
100
AcDbEntity
  8
実形
100
AcDbCircle
 10
1837.734181742229
 20
1163.67300521396
 30
0.0
 40
2.0
100
AcDbArc
 50
135.0000000000046
 51
180.0
  0
LINE
  5
198C
330
1F
100
AcDbEntity
  8
実形
100
AcDbLine
 10
1845.734181742229
 20
1185.501432338707
 30
0.0
 11
1988.218081559104
 21
1185.501432338707
 31
0.0
  0
LINE
  5
198D
330
1F
100
AcDbEntity
  8
実形
100
AcDbLine
 10
1840.855502085789
 20
1169.622752682267
 30
0.0
 11
1836.319968179856
 21
1165.087218776334
 31
0.0
  0
ARC
  5
198E
330
1F
100
AcDbEntity
  8
実形
100
AcDbCircle
 10
1838.734181742229
 20
1171.744073025826
 30
0.0
 40
3.0
100
AcDbArc
 50
315.0000000000046
 51
0.0
  0
LINE
  5
198F
330
1F
100
AcDbEntity
  8
0
100
AcDbLine
 10
1835.734181742229
 20
1628.906097205562
 30
0.0
 11
1835.734181742229
 21
1147.501432338707
 31
0.0
  0
DIMENSION
  5
199B
330
1F
100
AcDbEntity
  8
実形
100
AcDbDimension
  2
*D27
 10
1529.183058982573
 20
953.1185795498931
 30
0.0
 11
1141.183058982573
 21
971.8685795498931
 31
0.0
 70
    32
 71
     5
 42
775.9999999999998
  3
ISO-25
100
AcDbAlignedDimension
 13
753.1830589825732
 23
1116.010435029328
 33
0.0
 14
1529.183058982573
 24
1099.032137148834
 34
0.0
100
AcDbRotatedDimension
1001
ACAD
1000
DSTYLE
1002
{
1070
   279
1070
     1
1002
}
  0
LINE
  5
19B4
330
1F
100
AcDbEntity
  8
実形
100
AcDbLine
 10
1847.624248281801
 20
1565.501432338707
 30
0.0
 11
1992.334707322411
 21
1565.501432338707
 31
0.0
  0
LINE
  5
19B5
330
1F
100
AcDbEntity
  8
実形
100
AcDbLine
 10
1841.73418174223
 20
1637.258791651587
 30
0.0
 11
1843.625801041141
 21
1569.38998879399
 31
0.0
  0
ARC
  5
19B6
330
1F
100
AcDbEntity
  8
実形
100
AcDbCircle
 10
1847.624248281801
 20
1569.501432338707
 30
0.0
 40
4.0
100
AcDbArc
 50
181.5965177808954
 51
270.0
  0
LINE
  5
19BA
330
1F
100
AcDbEntity
  8
実形
100
AcDbLine
 10
1841.734181742229
 20
1171.744073025826
 30
0.0
 11
1841.734181742229
 21
1565.501432338706
 31
0.0
  0
DIMENSION
  5
19E0
330
1F
100
AcDbEntity
  8
実形
100
AcDbDimension
  2
*D28
 10
1491.183058982573
 20
1082.55024635859
 30
0.0
 11
1141.183058982573
 21
1101.30024635859
 31
0.0
 70
    32
 71
     5
 42
700.0
  3
ISO-25
100
AcDbAlignedDimension
 13
791.1830589825731
 23
1185.501432338706
 33
0.0
 14
1491.183058982573
 24
1185.501432338706
 34
0.0
100
AcDbRotatedDimension
1001
ACAD
1000
DSTYLE
1002
{
1070
   279
1070
     1
1002
}
  0
DIMENSION
  5
19F6
330
1F
100
AcDbEntity
  8
実形
100
AcDbDimension
  2
*D29
 10
776.1830589825731
 20
1082.55024635859
 30
0.0
 11
826.3517458472879
 21
1085.458809558441
 31
0.0
 70
   160
 71
     5
 42
15.0
  3
ISO-25
100
AcDbAlignedDimension
 13
791.1830589825731
 23
1185.501432338706
 33
0.0
 14
776.1830589825731
 24
1185.501432338706
 34
0.0
100
AcDbRotatedDimension
1001
ACAD
1000
DSTYLE
1002
{
1070
   279
1070
     1
1002
}
  0
DIMENSION
  5
1A70
330
1F
100
AcDbEntity
  8
実形
100
AcDbDimension
  2
*D30
 10
1506.183058982573
 20
1082.55024635859
 30
0.0
 11
1466.379767521273
 21
1085.93860929109
 31
0.0
 70
   160
 71
     5
 42
15.0
  3
ISO-25
100
AcDbAlignedDimension
 13
1491.183058982573
 23
1185.501432338706
 33
0.0
 14
1506.183058982573
 24
1185.501432338706
 34
0.0
100
AcDbRotatedDimension
1001
ACAD
1000
DSTYLE
1002
{
1070
   279
1070
     1
1002
}
  0
DIMENSION
  5
1AFA
330
1F
100
AcDbEntity
  8
実形
100
AcDbDimension
  2
*D31
 10
695.5206130676248
 20
1185.501432338706
 30
0.0
 11
676.7706130676247
 21
1375.501432338707
 31
0.0
 70
    32
 71
     5
 42
380.0
  3
ISO-25
100
AcDbAlignedDimension
 13
791.1830589825731
 23
1565.501432338707
 33
0.0
 14
791.1830589825731
 24
1185.501432338706
 34
0.0
 50
90.0
100
AcDbRotatedDimension
1001
ACAD
1000
DSTYLE
1002
{
1070
   279
1070
     1
1002
}
  0
LINE
  5
1B18
330
1F
100
AcDbEntity
  8
Cen
100
AcDbLine
 10
1308.028540987996
 20
1424.501433974099
 30
0.0
 11
1011.63150578039
 21
1424.501433974099
 31
0.0
  0
LINE
  5
1B21
330
1F
100
AcDbEntity
  8
Cen
100
AcDbLine
 10
1141.183058982573
 20
1278.732008204571
 30
0.0
 11
1141.183058982573
 21
1547.514993938815
 31
0.0
  0
LEADER
  5
1B2C
330
1F
100
AcDbEntity
  8
0
100
AcDbLeader
  3
ISO-25
 76
     2
 10
1510.726673489732
 20
1346.806939074267
 30
0.0
 10
1414.554826011564
 20
1346.806939074267
 30
0.0
1001
ACAD
1000
DSTYLE
1002
{
1070
   147
1040
6.25
1070
    77
1070
     0
1070
    73
1070
     1
1070
    74
1070
     1
1070
   279
1070
     1
1070
   342
1005
DA
1002
}
  0
TEXT
  5
1B2D
330
1F
100
AcDbEntity
  8
0
100
AcDbText
 10
1300.084034615409
 20
1334.306939074267
 30
0.0
 40
25.0
  1
7021R
 72
     2
 11
1404.250701282076
 21
1346.806939074267
 31
0.0
100
AcDbText
 73
     2
  0
LEADER
  5
1B37
330
1F
100
AcDbEntity
  8
0
100
AcDbLeader
  3
ISO-25
 76
     2
 10
1504.370014331539
 20
1303.104667576266
 30
0.0
 10
1408.198166853371
 20
1303.104667576266
 30
0.0
1001
ACAD
1000
DSTYLE
1002
{
1070
   147
1040
6.25
1070
    77
1070
     0
1070
    73
1070
     1
1070
    74
1070
     1
1070
   279
1070
     1
1070
   342
1005
DA
1002
}
  0
TEXT
  5
1B38
330
1F
100
AcDbEntity
  8
0
100
AcDbText
 10
1293.727375457216
 20
1290.604667576266
 30
0.0
 40
25.0
  1
7015R
 72
     2
 11
1397.894042123883
 21
1303.104667576266
 31
0.0
100
AcDbText
 73
     2
  0
LEADER
  5
1B42
330
1F
100
AcDbEntity
  8
0
100
AcDbLeader
  3
ISO-25
 76
     2
 10
1489.176001337934
 20
1260.20733944604
 30
0.0
 10
1393.004153859766
 20
1260.20733944604
 30
0.0
1001
ACAD
1000
DSTYLE
1002
{
1070
   147
1040
6.25
1070
    77
1070
     0
1070
    73
1070
     1
1070
    74
1070
     1
1070
   279
1070
     1
1070
   342
1005
DA
1002
}
  0
TEXT
  5
1B43
330
1F
100
AcDbEntity
  8
0
100
AcDbText
 10
1278.533362463611
 20
1247.70733944604
 30
0.0
 40
25.0
  1
7000R
 72
     2
 11
1382.700029130278
 21
1260.20733944604
 31
0.0
100
AcDbText
 73
     2
  0
TEXT
  5
1B4C
330
1F
100
AcDbEntity
  8
0
100
AcDbText
 10
932.4719516514324
 20
1290.506258919102
 30
0.0
 40
25.0
  1
18000R
 72
     2
 11
1053.305284984766
 21
1303.006258919102
 31
0.0
100
AcDbText
 73
     2
  0
LEADER
  5
1B4D
330
1F
100
AcDbEntity
  8
実形
100
AcDbLeader
  3
ISO-25
 76
     3
 10
868.5656485899153
 20
1189.524405693311
 30
0.0
 10
928.3489596193831
 20
1284.323694529075
 30
0.0
 10
1055.130828533703
 20
1284.323694529075
 30
0.0
1001
ACAD
1000
DSTYLE
1002
{
1070
   147
1040
6.25
1070
    77
1070
     0
1070
   279
1070
     1
1002
}
  0
TEXT
  5
1B57
330
1F
100
AcDbEntity
  8
0
100
AcDbText
 10
959.2713696217099
 20
1248.258751492911
 30
0.0
 40
25.0
  1
18015R
 72
     2
 11
1080.104702955043
 21
1260.758751492911
 31
0.0
100
AcDbText
 73
     2
  0
LEADER
  5
1B58
330
1F
100
AcDbEntity
  8
実形
100
AcDbLeader
  3
ISO-25
 76
     3
 10
911.1107770096996
 20
1172.339950087958
 30
0.0
 10
955.1483775896604
 20
1242.076187102883
 30
0.0
 10
1081.930246503981
 20
1242.076187102883
 30
0.0
1001
ACAD
1000
DSTYLE
1002
{
1070
   147
1040
6.25
1070
    77
1070
     0
1070
   279
1070
     1
1002
}
  0
TEXT
  5
1B62
330
1F
100
AcDbEntity
  8
0
100
AcDbText
 10
988.2889469206213
 20
1204.429128624924
 30
0.0
 40
25.0
  1
18021R
 72
     2
 11
1109.122280253954
 21
1216.929128624924
 31
0.0
100
AcDbText
 73
     2
  0
LEADER
  5
1B63
330
1F
100
AcDbEntity
  8
実形
100
AcDbLeader
  3
ISO-25
 76
     3
 10
962.9258188223829
 20
1165.886575819656
 30
0.0
 10
984.1659548885719
 20
1198.246564234897
 30
0.0
 10
1110.947823802892
 20
1198.246564234897
 30
0.0
1001
ACAD
1000
DSTYLE
1002
{
1070
   147
1040
6.25
1070
    77
1070
     0
1070
   279
1070
     1
1002
}
  0
LINE
  5
1B64
330
1F
100
AcDbEntity
  8
実形
100
AcDbLine
 10
963.4897267426877
 20
1165.794784218134
 30
0.0
 11
985.2801520358097
 21
1183.15857621357
 31
0.0
  0
LINE
  5
1B65
330
1F
100
AcDbEntity
  8
実形
100
AcDbLine
 10
963.8055328876198
 20
1166.110490491122
 30
0.0
 11
970.7532076000225
 21
1190.73550025583
 31
0.0
  0
TEXT
  5
1B6E
330
1F
100
AcDbEntity
  8
0
100
AcDbText
 10
886.6204552585131
 20
1458.816989417869
 30
0.0
 40
25.0
  1
20R
 72
     2
 11
949.1204552585131
 21
1471.316989417869
 31
0.0
100
AcDbText
 73
     2
  0
LEADER
  5
1B6F
330
1F
100
AcDbEntity
  8
実形
100
AcDbLeader
  3
ISO-25
 76
     2
 10
825.5688310182714
 20
1547.616724462653
 30
0.0
 10
884.8614131305676
 20
1491.635543500945
 30
0.0
1001
ACAD
1000
DSTYLE
1002
{
1070
   147
1040
6.25
1070
    77
1070
     0
1070
   279
1070
     1
1002
}
  0
TEXT
  5
1B79
330
1F
100
AcDbEntity
  8
0
100
AcDbText
 10
892.1269242566577
 20
1583.708839679131
 30
0.0
 40
25.0
  1
20R
 72
     2
 11
954.6269242566577
 21
1596.208839679131
 31
0.0
100
AcDbText
 73
     2
  0
LEADER
  5
1B7A
330
1F
100
AcDbEntity
  8
実形
100
AcDbLeader
  3
ISO-25
 76
     2
 10
789.1849030319735
 20
1628.115986694904
 30
0.0
 10
873.9606842006024
 20
1595.81590432169
 30
0.0
1001
ACAD
1000
DSTYLE
1002
{
1070
   147
1040
6.25
1070
    77
1070
     0
1070
   279
1070
     1
1002
}
  0
TEXT
  5
1B84
330
1F
100
AcDbEntity
  8
0
100
AcDbText
 10
672.0226180084131
 20
1716.522835870825
 30
0.0
 40
25.0
  1
37R
 72
     2
 11
738.6892846750797
 21
1729.022835870825
 31
0.0
100
AcDbText
 73
     2
  0
LEADER
  5
1B85
330
1F
100
AcDbEntity
  8
実形
100
AcDbLeader
  3
ISO-25
 76
     2
 10
760.7292695665947
 20
1655.999913776033
 30
0.0
 10
719.6573646313035
 20
1713.125714217959
 30
0.0
1001
ACAD
1000
DSTYLE
1002
{
1070
   147
1040
6.25
1070
    77
1070
     0
1070
   279
1070
     1
1002
}
  0
LINE
  5
1BA3
330
1F
100
AcDbEntity
  8
Cen
100
AcDbLine
 10
1931.140351962021
 20
1424.501433974099
 30
0.0
 11
2061.794764197344
 21
1424.501433974099
 31
0.0
  0
LINE
  5
1BA4
330
1F
100
AcDbEntity
  8
0
100
AcDbLine
 10
2035.73418174223
 20
1516.876433974099
 30
0.0
 11
2035.734181742229
 21
1335.876433974103
 31
0.0
  0
LINE
  5
1BA5
330
1F
100
AcDbEntity
  8
実形
100
AcDbLine
 10
2025.73418174223
 20
1516.876433974099
 30
0.0
 11
2035.73418174223
 21
1516.876433974099
 31
0.0
  0
LINE
  5
1BA6
330
1F
100
AcDbEntity
  8
実形
100
AcDbLine
 10
2025.734181742229
 20
1335.876433974103
 30
0.0
 11
2035.73418174223
 21
1335.876433974103
 31
0.0
  0
LINE
  5
1BA7
330
1F
100
AcDbEntity
  8
実形
100
AcDbLine
 10
2025.73418174223
 20
1516.876433974099
 30
0.0
 11
2010.83122203065
 21
1553.109253554265
 31
0.0
  0
LINE
  5
1BA8
330
1F
100
AcDbEntity
  8
実形
100
AcDbLine
 10
2008.043502098423
 20
1202.86463495567
 30
0.0
 11
2025.734181742229
 21
1335.876433974103
 31
0.0
  0
ARC
  5
1BA9
330
1F
100
AcDbEntity
  8
実形
100
AcDbCircle
 10
1988.218081559104
 20
1205.501432338707
 30
0.0
 40
20.0
100
AcDbArc
 50
269.9999999999999
 51
352.4240757253589
  0
ARC
  5
1BAA
330
1F
100
AcDbEntity
  8
実形
100
AcDbCircle
 10
1992.334707322411
 20
1545.501432338707
 30
0.0
 40
20.0
100
AcDbArc
 50
22.35790796187823
 51
89.99999999999994
  0
LINE
  5
1BAB
330
1F
100
AcDbEntity
  8
実形
100
AcDbLine
 10
2025.73418174223
 20
1516.876433974099
 30
0.0
 11
2025.734181742229
 21
1335.876433974103
 31
0.0
  0
LEADER
  5
1BB5
330
1F
100
AcDbEntity
  8
Cen
100
AcDbLeader
  3
ISO-25
 76
     2
 10
1847.2415162887
 20
1179.001653215909
 30
0.0
 10
1947.505973836296
 20
1147.057346452468
 30
0.0
1001
ACAD
1000
DSTYLE
1002
{
1070
   147
1040
6.25
1070
    77
1070
     0
1070
   279
1070
     1
1002
}
  0
TEXT
  5
1BB6
330
1F
100
AcDbEntity
  8
0
100
AcDbText
 10
1954.031925092186
 20
1127.485542392865
 30
0.0
 40
25.0
  1
4R
100
AcDbText
  0
LEADER
  5
1BC0
330
1F
100
AcDbEntity
  8
Cen
100
AcDbLeader
  3
ISO-25
 76
     2
 10
1840.743865574705
 20
1158.279393897775
 30
0.0
 10
1890.598471153531
 20
1113.599608977967
 30
0.0
1001
ACAD
1000
DSTYLE
1002
{
1070
   147
1040
6.25
1070
    77
1070
     0
1070
   279
1070
     1
1002
}
  0
TEXT
  5
1BC1
330
1F
100
AcDbEntity
  8
0
100
AcDbText
 10
1877.89761443855
 20
1080.854924353503
 30
0.0
 40
25.0
  1
2R
100
AcDbText
  0
TEXT
  5
1BCA
330
1F
100
AcDbEntity
  8
0
100
AcDbText
 10
1702.126094064449
 20
1212.288023269376
 30
0.0
 40
25.0
  1
2 R
100
AcDbText
  0
LEADER
  5
1BCB
330
1F
100
AcDbEntity
  8
実形
100
AcDbLeader
  3
ISO-25
 76
     2
 10
1838.663488059261
 20
1172.357918189244
 30
0.0
 10
1772.859056500942
 20
1207.236690842333
 30
0.0
1001
ACAD
1000
DSTYLE
1002
{
1070
   147
1040
6.25
1070
    77
1070
     0
1070
   279
1070
     1
1002
}
  0
ARC
  5
1CD0
330
1F
100
AcDbEntity
  8
実形
100
AcDbCircle
 10
1492.183058982573
 20
1624.501432338707
 30
0.0
 40
37.0
100
AcDbArc
 50
0.0
 51
90.0
  0
ARC
  5
1CD1
330
1F
100
AcDbEntity
  8
実形
100
AcDbCircle
 10
1492.183058982573
 20
1184.501432338707
 30
0.0
 40
37.0
100
AcDbArc
 50
270.0
 51
0.0
  0
ARC
  5
1CD3
330
1F
100
AcDbEntity
  8
実形
100
AcDbCircle
 10
790.1830589825731
 20
1184.501432338707
 30
0.0
 40
37.0
100
AcDbArc
 50
180.0
 51
270.0
  0
ARC
  5
1CD4
330
1F
100
AcDbEntity
  8
実形
100
AcDbCircle
 10
790.1830589825731
 20
1624.501432338707
 30
0.0
 40
37.0
100
AcDbArc
 50
90.0
 51
180.0
  0
ARC
  5
1CD5
330
1F
100
AcDbEntity
  8
実形
100
AcDbCircle
 10
796.1830589825731
 20
1618.501432338707
 30
0.0
 40
20.0
100
AcDbArc
 50
90.0
 51
180.0
  0
ARC
  5
1CD6
330
1F
100
AcDbEntity
  8
実形
100
AcDbCircle
 10
811.183058982573
 20
1545.501432338707
 30
0.0
 40
20.0
100
AcDbArc
 50
90.0
 51
180.0
  0
ARC
  5
1CD8
330
1F
100
AcDbEntity
  8
実形
100
AcDbCircle
 10
811.183058982573
 20
1205.501432338707
 30
0.0
 40
20.0
100
AcDbArc
 50
180.0
 51
270.0
  0
ARC
  5
1CD9
330
1F
100
AcDbEntity
  8
実形
100
AcDbCircle
 10
796.1830589825731
 20
1190.501432338706
 30
0.0
 40
20.0
100
AcDbArc
 50
180.0
 51
270.0
  0
ARC
  5
1CDA
330
1F
100
AcDbEntity
  8
実形
100
AcDbCircle
 10
1486.183058982573
 20
1190.501432338707
 30
0.0
 40
20.0
100
AcDbArc
 50
270.0
 51
0.0
  0
ARC
  5
1CDB
330
1F
100
AcDbEntity
  8
実形
100
AcDbCircle
 10
1471.183058982573
 20
1205.501432338707
 30
0.0
 40
20.0
100
AcDbArc
 50
270.0
 51
0.0
  0
ARC
  5
1CDC
330
1F
100
AcDbEntity
  8
実形
100
AcDbCircle
 10
1471.183058982573
 20
1545.501432338707
 30
0.0
 40
20.0
100
AcDbArc
 50
0.0
 51
89.99999999999998
  0
ARC
  5
1CDD
330
1F
100
AcDbEntity
  8
実形
100
AcDbCircle
 10
1486.183058982573
 20
1618.501432338706
 30
0.0
 40
20.0
100
AcDbArc
 50
0.0
 51
89.99999999999998
  0
ARC
  5
1CDE
330
1F
100
AcDbEntity
  8
実形
100
AcDbCircle
 10
1486.183058982573
 20
1190.501432338707
 30
0.0
 40
26.0
100
AcDbArc
 50
270.0
 51
0.0
  0
ARC
  5
1CDF
330
1F
100
AcDbEntity
  8
実形
100
AcDbCircle
 10
796.1830589825731
 20
1190.501432338707
 30
0.0
 40
26.0
100
AcDbArc
 50
180.0
 51
270.0
  0
ARC
  5
1CE0
330
1F
100
AcDbEntity
  8
実形
100
AcDbCircle
 10
796.183058982573
 20
1618.501432338707
 30
0.0
 40
26.0
100
AcDbArc
 50
89.99999999999998
 51
180.0
  0
ARC
  5
1CE1
330
1F
100
AcDbEntity
  8
実形
100
AcDbCircle
 10
1486.183058982573
 20
1618.501432338707
 30
0.0
 40
26.0
100
AcDbArc
 50
0.0
 51
89.99999999999998
  0
LINE
  5
1D89
330
1F
100
AcDbEntity
  8
実形
100
AcDbLine
 10
2121.553481185559
 20
658.5560849587295
 30
0.0
 11
2171.746366979263
 21
708.1794597459839
 31
0.0
  0
LINE
  5
1D8A
330
1F
100
AcDbEntity
  8
実形
100
AcDbLine
 10
2114.304433811633
 20
674.1120942765392
 30
0.0
 11
2114.304433811633
 21
731.7473567090492
 31
0.0
  0
DIMENSION
  5
1DC5
330
1F
100
AcDbEntity
  8
実形
100
AcDbDimension
  2
*D32
 10
2113.834404996318
 20
799.9833023326782
 30
0.0
 11
2145.731900555446
 21
713.3458896332297
 31
0.0
 70
   162
 71
     5
 42
0.7911036949745697
  3
ISO-25
100
AcDb2LineAngularDimension
 13
2113.834404996318
 23
649.8153645058091
 33
0.0
 14
2171.276338163949
 24
706.6055357224495
 34
0.0
 15
2113.834404996318
 25
554.5834685991894
 35
0.0
 16
2124.784604071854
 26
690.3733661792967
 36
0.0
1001
ACAD
1000
DSTYLE
1002
{
1070
   140
1040
21.0
1070
   279
1070
     1
1002
}
  0
ARC
  5
1E73
330
1F
100
AcDbEntity
  8
実形
100
AcDbCircle
 10
1733.903712603482
 20
554.8337669569841
 30
0.0
 40
247.9260824391085
100
AcDbArc
 50
52.71796731133922
 51
135.2613905640283
  0
LINE
  5
1E74
330
1F
100
AcDbEntity
  8
実形
100
AcDbLine
 10
1882.87069815493
 20
752.4645032649614
 30
0.0
 11
1864.416678302198
 21
772.7576206569538
 31
0.0
  0
LINE
  5
1E75
330
1F
100
AcDbEntity
  8
実形
100
AcDbLine
 10
1883.485835029834
 20
751.8495583857293
 30
0.0
 11
1858.265344110917
 21
759.8438206081909
 31
0.0
  0
TEXT
  5
1E9A
330
1F
100
AcDbEntity
  8
0
100
AcDbText
 10
1994.729709755759
 20
467.0527047051536
 30
0.0
 40
25.0
  1
4R
100
AcDbText
  0
TEXT
  5
1EA2
330
1F
100
AcDbEntity
  8
0
100
AcDbText
 10
1952.802578334568
 20
661.1812972850211
 30
0.0
 40
25.0
  1
2R
100
AcDbText
  0
LEADER
  5
1EA4
330
1F
100
AcDbEntity
  8
実形
100
AcDbLeader
  3
ISO-25
 76
     2
 10
1935.149047227691
 20
566.3230084868555
 30
0.0
 10
1990.316340823187
 20
502.3488083400406
 30
0.0
1001
ACAD
1000
DSTYLE
1002
{
1070
   147
1040
6.25
1070
    77
1070
     0
1070
   279
1070
     1
1002
}
  0
LEADER
  5
1EA5
330
1F
100
AcDbEntity
  8
実形
100
AcDbLeader
  3
ISO-25
 76
     2
 10
2045.483623962087
 20
606.0311238585982
 30
0.0
 10
1977.076189105475
 20
658.9752862496588
 30
0.0
1001
ACAD
1000
DSTYLE
1002
{
1070
   147
1040
6.25
1070
    77
1070
     0
1070
   279
1070
     1
1002
}
  0
TEXT
  5
1EAE
330
1F
100
AcDbEntity
  8
0
100
AcDbText
 10
2188.918549332536
 20
546.4689440107094
 30
0.0
 40
25.0
  1
2R
100
AcDbText
  0
LEADER
  5
1EAF
330
1F
100
AcDbEntity
  8
実形
100
AcDbLeader
  3
ISO-25
 76
     2
 10
2124.924513355159
 20
630.2972000715981
 30
0.0
 10
2184.505180399963
 20
577.3530376805374
 30
0.0
1001
ACAD
1000
DSTYLE
1002
{
1070
   147
1040
6.25
1070
    77
1070
     0
1070
   279
1070
     1
1002
}
  0
DIMENSION
  5
1F07
330
1F
100
AcDbEntity
  8
実形
100
AcDbDimension
  2
*D33
 10
695.5206130676248
 20
1170.501432338706
 30
0.0
 11
687.7332412459418
 21
1188.96267981526
 31
0.0
 70
   160
 71
     5
 42
15.00000000000023
  3
ISO-25
100
AcDbAlignedDimension
 13
791.1830589825731
 23
1185.501432338706
 33
0.0
 14
791.1830589825731
 24
1170.501432338706
 34
0.0
 50
90.0
100
AcDbRotatedDimension
1001
ACAD
1000
DSTYLE
1002
{
1070
   279
1070
     1
1002
}
  0
DIMENSION
  5
216C
330
1F
100
AcDbEntity
  8
実形
100
AcDbDimension
  2
*D34
 10
1841.73418174223
 20
1046.084218990136
 30
0.0
 11
1812.95346683979
 21
1056.878182334886
 31
0.0
 70
   160
 71
     5
 42
6.000000000000909
  3
ISO-25
100
AcDbAlignedDimension
 13
1835.734181742229
 23
1164.204886446559
 33
0.0
 14
1841.73418174223
 24
1164.204886446559
 34
0.0
 50
180.0
100
AcDbRotatedDimension
1001
ACAD
1000
DSTYLE
1002
{
1070
   279
1070
     1
1002
}
  0
DIMENSION
  5
216D
330
1F
100
AcDbEntity
  8
実形
100
AcDbDimension
  2
*D35
 10
2025.73418174223
 20
1046.084218990136
 30
0.0
 11
1974.628481253019
 21
1047.663991732577
 31
0.0
 70
   160
 71
     5
 42
20.0
  3
ISO-25
100
AcDbAlignedDimension
 13
2005.73418174223
 23
1163.386977529357
 33
0.0
 14
2025.73418174223
 24
1163.386977529357
 34
0.0
 50
180.0
100
AcDbRotatedDimension
1001
ACAD
1000
DSTYLE
1002
{
1070
   279
1070
     1
1002
}
  0
DIMENSION
  5
216E
330
1F
100
AcDbEntity
  8
実形
100
AcDbDimension
  2
*D36
 10
2005.73418174223
 20
1046.084218990136
 30
0.0
 11
2058.87815336022
 21
1048.233077855034
 31
0.0
 70
   160
  1
7
 71
     5
 42
30.0
  3
ISO-25
100
AcDbAlignedDimension
 13
2035.734181742229
 23
1163.786403280232
 33
0.0
 14
2005.73418174223
 24
1135.003475160269
 34
0.0
 50
180.0
100
AcDbRotatedDimension
1001
ACAD
1000
DSTYLE
1002
{
1070
   279
1070
     1
1002
}
  0
DIMENSION
  5
216F
330
1F
100
AcDbEntity
  8
実形
100
AcDbDimension
  2
*D37
 10
2025.73418174223
 20
982.1205061958458
 30
0.0
 11
1930.734181742229
 21
1000.870506195846
 31
0.0
 70
    32
 71
     5
 42
190.0
  3
ISO-25
100
AcDbAlignedDimension
 13
1835.734181742229
 23
1128.828753117698
 33
0.0
 14
2025.73418174223
 24
1128.828753117698
 34
0.0
 50
180.0
100
AcDbRotatedDimension
1001
ACAD
1000
DSTYLE
1002
{
1070
   279
1070
     1
1002
}
  0
LINE
  5
220C
330
1F
100
AcDbEntity
  8
実形
100
AcDbLine
 10
2395.753688973753
 20
172.9867671628935
 30
0.0
 11
2388.014471211125
 21
147.1973683669721
 31
0.0
  0
LEADER
  5
2216
330
1F
100
AcDbEntity
  8
Cen
100
AcDbLeader
  3
ISO-25
 40
25.0
 41
16.66666666666666
 76
     2
 10
1997.369570120956
 20
1554.170226345288
 30
0.0
 10
1958.630840009026
 20
1496.475327190395
 30
0.0
213
0.0
223
12.5
233
0.0
1001
ACAD
1000
DSTYLE
1002
{
1070
   147
1040
6.25
1070
    77
1070
     0
1070
   279
1070
     1
1002
}
  0
TEXT
  5
2217
330
1F
100
AcDbEntity
  8
0
100
AcDbText
 10
1895.968039388825
 20
1465.691649813346
 30
0.0
 40
25.0
  1
20R
100
AcDbText
  0
DIMENSION
  5
225B
330
1F
100
AcDbEntity
  8
実形
100
AcDbDimension
  2
*D38
 10
791.1830589825731
 20
1082.55024635859
 30
0.0
 11
1530.588482572273
 21
1085.291906129359
 31
0.0
 70
   160
  1
6
 71
     5
 42
721.0
  3
ISO-25
100
AcDbAlignedDimension
 13
1512.183058982573
 23
1185.723639630494
 33
0.0
 14
791.1830589825731
 24
1182.974561974819
 34
0.0
100
AcDbRotatedDimension
1001
ACAD
1000
DSTYLE
1002
{
1070
   279
1070
     1
1002
}
  0
DIMENSION
  5
229F
330
1F
100
AcDbEntity
  8
実形
100
AcDbDimension
  2
*D39
 10
1491.183058982573
 20
1082.639814283942
 30
0.0
 11
756.1387189614142
 21
1082.639814283942
 31
0.0
 70
   160
  1
6
 71
     5
 42
721.0
  3
ISO-25
100
AcDbAlignedDimension
 13
770.183058982573
 23
1185.929543994733
 33
0.0
 14
1491.183058982573
 24
1185.723639630494
 34
0.0
100
AcDbRotatedDimension
1001
ACAD
1000
DSTYLE
1002
{
1070
   279
1070
     1
1002
}
  0
DIMENSION
  5
2335
330
1F
100
AcDbEntity
  8
実形
100
AcDbDimension
  2
*D40
 10
695.5206130676249
 20
1565.501432338707
 30
0.0
 11
694.4221560023834
 21
1657.277808926894
 31
0.0
 70
   160
  1
6
 71
     5
 42
79.0
  3
ISO-25
100
AcDbAlignedDimension
 13
791.8115976569188
 23
1644.501432338707
 33
0.0
 14
788.4501656658486
 24
1565.501432338707
 34
0.0
 50
90.0
100
AcDbRotatedDimension
1001
ACAD
1000
DSTYLE
1002
{
1070
   279
1070
     1
1002
}
  0
DIMENSION
  5
23C4
330
1F
100
AcDbEntity
  8
実形
100
AcDbDimension
  2
*D41
 10
695.5206130676249
 20
1565.501432338707
 30
0.0
 11
684.6518069729154
 21
1145.635574614145
 31
0.0
 70
   160
  1
6
 71
     5
 42
401.0
  3
ISO-25
100
AcDbAlignedDimension
 13
735.5805179527179
 23
1164.501432338707
 33
0.0
 14
723.4501656658485
 24
1565.501432338707
 34
0.0
 50
90.0
100
AcDbRotatedDimension
1001
ACAD
1000
DSTYLE
1002
{
1070
    42
1040
10.0
1070
   279
1070
     1
1002
}
  0
VIEWPORT
  5
2E
102
{ACAD_XDICTIONARY
360
24FF
102
}
330
1B
100
AcDbEntity
 67
     1
  8
0
100
AcDbViewport
 10
144.7270812988281
 20
101.2295806407928
 30
0.0
 40
411.6736216682419
 41
222.1517806396485
 68
     1
 69
     1
 12
144.7270812988281
 22
101.2295806407928
 13
0.0
 23
0.0
 14
10.0
 24
10.0
 15
10.0
 25
10.0
 16
0.0
 26
0.0
 36
1.0
 17
0.0
 27
0.0
 37
0.0
 42
50.0
 43
0.0
 44
0.0
 45
222.1517806396485
 50
0.0
 51
0.0
 72
   100
 90
    32800
  1

281
     0
 71
     1
 74
     0
110
0.0
120
0.0
130
0.0
111
1.0
121
0.0
131
0.0
112
0.0
122
1.0
132
0.0
 79
     0
146
0.0
  0
VIEWPORT
  5
30
102
{ACAD_XDICTIONARY
360
2501
102
}
330
1B
100
AcDbEntity
 67
     1
  8
0
100
AcDbViewport
 10
139.2237563133239
 20
101.2295821905136
 30
0.0
 40
222.7580101013184
 41
161.9673315048218
 68
     2
 69
     2
 12
210.0
 22
148.5
 13
0.0
 23
0.0
 14
10.0
 24
10.0
 15
10.0
 25
10.0
 16
0.0
 26
0.0
 36
1.0
 17
0.0
 27
0.0
 37
0.0
 42
50.0
 43
0.0
 44
0.0
 45
309.0686705647124
 50
0.0
 51
0.0
 72
   100
 90
    32864
  1

281
     0
 71
     1
 74
     0
110
0.0
120
0.0
130
0.0
111
1.0
121
0.0
131
0.0
112
0.0
122
1.0
132
0.0
 79
     0
146
0.0
  0
ENDSEC
  0
SECTION
  2
OBJECTS
  0
DICTIONARY
  5
C
330
0
100
AcDbDictionary
281
     1
  3
ACAD_COLOR
350
C13
  3
ACAD_GROUP
350
D
  3
ACAD_LAYOUT
350
1A
  3
ACAD_MATERIAL
350
C12
  3
ACAD_MLINESTYLE
350
17
  3
ACAD_PLOTSETTINGS
350
19
  3
ACAD_PLOTSTYLENAME
350
E
  3
ACAD_TABLESTYLE
350
C14
  3
AcadDim
350
1EA3
  3
ACDBHEADERROUNDTRIPXREC
350
24F8
  3
AcDbVariableDictionary
350
96D
  0
DICTIONARY
  5
DE1
330
2
100
AcDbDictionary
280
     1
281
     1
  3
ACAD_LAYERFILTERS
360
E0B
  3
ACAD_LAYERSTATES
360
DE2
  3
ACLYDICTIONARY
360
E0A
  0
DICTIONARY
  5
C47
330
1F
100
AcDbDictionary
280
     1
281
     1
  3
ACAD_SORTENTS
360
C48
  0
DICTIONARY
  5
DE5
330
DE3
100
AcDbDictionary
280
     1
281
     1
  3
ACAD_SORTENTS
360
DE6
  0
DICTIONARY
  5
FC3
330
FBF
100
AcDbDictionary
280
     1
281
     1
  3
ACAD_SORTENTS
360
FC4
  0
DICTIONARY
  5
24FF
330
2E
100
AcDbDictionary
280
     1
281
     1
  3
ACAD_XREC_ROUNDTRIP
360
2500
  0
DICTIONARY
  5
2501
330
30
100
AcDbDictionary
280
     1
281
     1
  3
ACAD_XREC_ROUNDTRIP
360
2502
  0
DICTIONARY
  5
C13
102
{ACAD_REACTORS
330
C
102
}
330
C
100
AcDbDictionary
281
     1
  0
DICTIONARY
  5
D
102
{ACAD_REACTORS
330
C
102
}
330
C
100
AcDbDictionary
281
     1
  0
DICTIONARY
  5
1A
102
{ACAD_REACTORS
330
C
102
}
330
C
100
AcDbDictionary
281
     1
  3
Model
350
22
  3
ﾚｲｱｳﾄ1
350
1E
  3
ﾚｲｱｳﾄ2
350
26
  0
DICTIONARY
  5
C12
102
{ACAD_REACTORS
330
C
102
}
330
C
100
AcDbDictionary
281
     1
  0
DICTIONARY
  5
17
102
{ACAD_REACTORS
330
C
102
}
330
C
100
AcDbDictionary
281
     1
  3
Standard
350
18
  0
DICTIONARY
  5
19
102
{ACAD_REACTORS
330
C
102
}
330
C
100
AcDbDictionary
281
     1
  0
ACDBDICTIONARYWDFLT
  5
E
102
{ACAD_REACTORS
330
C
102
}
330
C
100
AcDbDictionary
281
     1
  3
Normal
350
F
100
AcDbDictionaryWithDefault
340
F
  0
DICTIONARY
  5
C14
102
{ACAD_REACTORS
330
C
102
}
330
C
100
AcDbDictionary
281
     1
  3
Standard
350
C15
  0
XRECORD
  5
1EA3
102
{ACAD_REACTORS
330
C
102
}
330
C
100
AcDbXrecord
280
     1
 90
   990106
  3

 60
     0
 61
     0
 62
     1
 63
     3
 64
     0
 65
     0
 66
     0
 67
     3
 68
     1
 69
     0
 70
     0
 71
     0
 72
     0
 40
5.637859010809637
170
     0
  0
DICTIONARY
  5
24F8
102
{ACAD_REACTORS
330
C
102
}
330
C
100
AcDbDictionary
281
     1
  0
DICTIONARY
  5
96D
102
{ACAD_REACTORS
330
C
102
}
330
C
100
AcDbDictionary
281
     1
  3
CTABLESTYLE
350
C23
  3
DIMASSOC
350
24F5
  3
PROJECTNAME
350
24F6
  3
SORTENTS
350
96E
  0
DICTIONARY
  5
E0B
102
{ACAD_REACTORS
330
DE1
102
}
330
DE1
100
AcDbDictionary
281
     1
  0
DICTIONARY
  5
DE2
102
{ACAD_REACTORS
330
DE1
102
}
330
DE1
100
AcDbDictionary
281
     1
  0
DICTIONARY
  5
E0A
102
{ACAD_REACTORS
330
DE1
102
}
330
DE1
100
AcDbDictionary
281
     1
1001
ACAD
1000
<All
  0
SORTENTSTABLE
  5
C48
102
{ACAD_REACTORS
330
C47
102
}
330
C47
100
AcDbSortentsTable
330
1F
331
1B64
  5
1BB5
331
19F6
  5
1B64
331
5FD
  5
601
331
1511
  5
1633
331
1519
  5
1678
331
1283
  5
1284
331
1B2D
  5
1B87
331
198F
  5
1B42
331
1713
  5
1875
331
1869
  5
198C
331
1B84
  5
1CD0
331
1BA4
  5
1CD4
331
141A
  5
162F
331
128B
  5
128C
331
1363
  5
1455
331
1630
  5
1709
331
A2D
  5
CB1
331
5F6
  5
5FA
331
1CD4
  5
13C0
331
1CDC
  5
1362
331
A0
  5
A5
331
1B4D
  5
1BA7
331
17AA
  5
1877
331
1879
  5
19BA
331
1968
  5
19F6
331
1B65
  5
1BB6
331
5FE
  5
602
331
1678
  5
1636
331
13DB
  5
1548
331
1284
  5
1286
331
17CA
  5
1677
331
1852
  5
198B
331
186A
  5
198D
331
1B85
  5
1CD1
331
1BA5
  5
1CD5
331
A8
  5
A9
331
128C
  5
128D
331
1364
  5
1513
331
1631
  5
16FA
331
5F7
  5
5FB
331
1CD5
  5
1369
331
1CDD
  5
1368
331
17AB
  5
1878
331
187A
  5
19E0
331
19E0
  5
1B63
331
1969
  5
1A0E
331
17B3
  5
196B
331
1BB5
  5
1CDC
331
5FF
  5
603
331
15CA
  5
170C
331
13DC
  5
1512
331
16F9
  5
1712
331
17CB
  5
196C
331
1989
  5
1B18
331
1B6E
  5
1BC0
331
170D
  5
17CF
331
1A70
  5
1B6E
331
1B37
  5
1B88
331
186B
  5
198E
331
1BA6
  5
1CD6
331
A9
  5
AA
331
128D
  5
128E
331
5D0
  5
5F5
331
5D8
  5
5F7
331
1632
  5
16F5
331
143C
  5
1630
331
1CD6
  5
1364
331
1CDE
  5
13ED
331
1B18
  5
1B7A
331
17AC
  5
1879
331
1B57
  5
1BA8
331
1BB6
  5
1CDD
331
5F8
  5
5FC
331
600
  5
96C
331
13DD
  5
13EE
331
1286
  5
1288
331
16FA
  5
1713
331
17CC
  5
196D
331
198A
  5
1B21
331
170E
  5
1851
331
1B6F
  5
1BC1
331
1B38
  5
1B89
331
1BA7
  5
1CD8
331
AA
  5
AB
331
5A9
  5
5B0
331
1544
  5
167A
331
128E
  5
128F
331
1366
  5
1367
331
154C
  5
1700
331
1633
  5
1701
331
1CDF
  5
15BD
331
19BA
  5
1B62
331
1B21
  5
1B84
331
196B
  5
1A70
331
1B58
  5
1BA9
331
5F9
  5
5FD
331
601
  5
97A
331
532
  5
53C
331
13DE
  5
15CA
331
56A
  5
5A0
331
16FB
  5
17A8
331
1707
  5
17CB
331
17CD
  5
198A
331
198B
  5
1B2C
331
170F
  5
1852
331
199B
  5
1B43
331
1AFA
  5
1B79
331
AB
  5
AD
331
1545
  5
16FB
331
128F
  5
A0
331
5D2
  5
5F6
331
162C
  5
16F6
331
A29
  5
A2F
331
1634
  5
1703
331
157D
  5
1707
331
1CD0
  5
143C
331
13BF
  5
1546
331
1CD8
  5
1518
331
9C
  5
9C
331
1875
  5
198F
331
1BA8
  5
1CD9
331
17AE
  5
187A
331
196C
  5
1A88
331
1BC0
  5
1CDE
331
5FA
  5
5FE
331
15BD
  5
170B
331
602
  5
A29
331
1CE0
  5
13A9
331
16FC
  5
17AA
331
1708
  5
17CC
331
198C
  5
1B2D
331
1710
  5
1869
331
1B79
  5
1BCA
331
1B42
  5
1BA4
331
19B4
  5
1B4C
331
1288
  5
1289
331
1546
  5
16FF
331
1BCA
  5
1CE0
331
162D
  5
1702
331
1368
  5
1376
331
1635
  5
16FC
331
1CD1
  5
141A
331
1CD9
  5
1547
331
1BA9
  5
1CDA
331
A5
  5
A8
331
17AF
  5
1968
331
196D
  5
1AFA
331
1BC1
  5
1CDF
331
1B62
  5
1BAA
331
13C0
  5
13D8
331
5FB
  5
5FF
331
1CE1
  5
1393
331
13D8
  5
13BF
331
603
  5
A2E
331
16F5
  5
1711
331
1517
  5
1676
331
55C
  5
562
331
1281
  5
1282
331
13E0
  5
162C
331
56C
  5
5A1
331
16FD
  5
17AC
331
1701
  5
17B1
331
1709
  5
17CD
331
198D
  5
1B37
331
1711
  5
186A
331
1B7A
  5
1BCB
331
19B5
  5
1B57
331
1B43
  5
1BA5
331
1289
  5
128B
331
AD
  5
25F
331
1BCB
  5
1CE1
331
1361
  5
1361
331
162E
  5
16FD
331
1636
  5
16FE
331
5F4
  5
5F8
331
1CDA
  5
13D9
331
1676
  5
1634
331
1877
  5
19B4
331
1BAA
  5
1B4D
331
1B63
  5
1BAB
331
13C1
  5
1463
331
5FC
  5
600
331
13D9
  5
1464
331
1282
  5
1283
331
1518
  5
1635
331
15D7
  5
170F
331
1702
  5
17CA
331
1B2C
  5
1B85
331
170A
  5
17CE
331
198E
  5
1B38
331
1712
  5
186B
331
1BA3
  5
1CD3
331
19B6
  5
1B58
331
1362
  5
13C1
331
A2C
  5
A31
331
1CD3
  5
15D7
331
15B0
  5
170A
331
5F5
  5
5F9
331
1CDB
  5
13C2
331
1677
  5
1679
331
1B4C
  5
1BA6
331
17A9
  5
1876
331
1878
  5
19B6
331
1BAB
  5
1CDB
  0
SORTENTSTABLE
  5
DE6
102
{ACAD_REACTORS
330
DE5
102
}
330
DE5
100
AcDbSortentsTable
330
DE3
  0
SORTENTSTABLE
  5
FC4
102
{ACAD_REACTORS
330
FC3
102
}
330
FC3
100
AcDbSortentsTable
330
FBF
  0
XRECORD
  5
2500
102
{ACAD_REACTORS
330
24FF
102
}
330
24FF
100
AcDbXrecord
280
     1
102
SHADEPLOT
 70
     0
  0
XRECORD
  5
2502
102
{ACAD_REACTORS
330
2501
102
}
330
2501
100
AcDbXrecord
280
     1
102
SHADEPLOT
 70
     0
  0
LAYOUT
  5
22
102
{ACAD_XDICTIONARY
360
24FB
102
}
102
{ACAD_REACTORS
330
1A
102
}
330
1A
100
AcDbPlotSettings
  1

  2
EPSON PM-800C
  4
A4
  6

 40
3.757083177566528
 41
14.7637300491333
 42
3.757080078125
 43
3.757080078125
 44
209.9733276367187
 45
296.9683227539062
 46
0.0
 47
0.0
 48
0.0
 49
0.0
140
0.0
141
0.0
142
1.0
143
10.0
 70
 11952
 72
     1
 73
     1
 74
     2
  7

 75
    20
147
0.1
148
0.0
149
0.0
100
AcDbLayout
  1
Model
 70
     1
 71
     0
 10
0.0
 20
0.0
 11
12.0
 21
9.0
 12
0.0
 22
0.0
 32
0.0
 14
0.0
 24
0.0
 34
0.0
 15
0.0
 25
0.0
 35
0.0
146
0.0
 13
0.0
 23
0.0
 33
0.0
 16
1.0
 26
0.0
 36
0.0
 17
0.0
 27
1.0
 37
0.0
 76
     0
330
1F
  0
LAYOUT
  5
1E
102
{ACAD_XDICTIONARY
360
24F9
102
}
102
{ACAD_REACTORS
330
1A
102
}
330
1A
100
AcDbPlotSettings
  1

  2
EPSON PM-800C
  4
A4
  6

 40
3.757083177566528
 41
14.7637300491333
 42
3.757080078125
 43
3.757080078125
 44
209.9733276367187
 45
296.9683227539062
 46
0.0
 47
0.0
 48
0.0
 49
0.0
140
0.0
141
0.0
142
1.0
143
1.0
 70
   688
 72
     1
 73
     1
 74
     5
  7

 75
    16
147
1.0
148
0.0
149
0.0
100
AcDbLayout
  1
ﾚｲｱｳﾄ1
 70
     1
 71
     1
 10
-3.757080078125
 20
-3.757083177566528
 11
293.2112426757813
 21
206.2162444591522
 12
0.0
 22
0.0
 32
0.0
 14
27.8447512626648
 24
20.24591643810271
 34
0.0
 15
250.6027613639831
 25
182.2132479429245
 35
0.0
146
0.0
 13
0.0
 23
0.0
 33
0.0
 16
1.0
 26
0.0
 36
0.0
 17
0.0
 27
1.0
 37
0.0
 76
     0
330
1B
331
2E
  0
LAYOUT
  5
26
102
{ACAD_XDICTIONARY
360
24FD
102
}
102
{ACAD_REACTORS
330
1A
102
}
330
1A
100
AcDbPlotSettings
  1

  2
EPSON PM-800C
  4

  6

 40
0.0
 41
0.0
 42
0.0
 43
0.0
 44
0.0
 45
0.0
 46
0.0
 47
0.0
 48
0.0
 49
0.0
140
0.0
141
0.0
142
1.0
143
1.0
 70
   688
 72
     0
 73
     0
 74
     5
  7

 75
    16
147
1.0
148
0.0
149
0.0
100
AcDbLayout
  1
ﾚｲｱｳﾄ2
 70
     1
 71
     2
 10
0.0
 20
0.0
 11
12.0
 21
9.0
 12
0.0
 22
0.0
 32
0.0
 14
0.0
 24
0.0
 34
0.0
 15
0.0
 25
0.0
 35
0.0
146
0.0
 13
0.0
 23
0.0
 33
0.0
 16
1.0
 26
0.0
 36
0.0
 17
0.0
 27
1.0
 37
0.0
 76
     0
330
23
  0
MLINESTYLE
  5
18
102
{ACAD_REACTORS
330
17
102
}
330
17
100
AcDbMlineStyle
  2
STANDARD
 70
     0
  3

 62
   256
 51
90.0
 52
90.0
 71
     2
 49
0.5
 62
   256
  6
BYLAYER
 49
-0.5
 62
   256
  6
BYLAYER
  0
ACDBPLACEHOLDER
  5
F
102
{ACAD_REACTORS
330
E
102
}
330
E
  0
TABLESTYLE
  5
C15
102
{ACAD_REACTORS
330
C14
102
}
330
C14
100
AcDbTableStyle
  3
Standard
 70
     0
 71
     0
 40
1.5
 41
1.5
280
     0
281
     0
  7
Standard
140
4.5
170
     2
 62
     0
 63
     7
283
     0
274
    -2
284
     1
 64
     0
275
    -2
285
     1
 65
     0
276
    -2
286
     1
 66
     0
277
    -2
287
     1
 67
     0
278
    -2
288
     1
 68
     0
279
    -2
289
     1
 69
     0
  7
Standard
140
6.0
170
     5
 62
     0
 63
     7
283
     0
274
    -2
284
     1
 64
     0
275
    -2
285
     1
 65
     0
276
    -2
286
     1
 66
     0
277
    -2
287
     1
 67
     0
278
    -2
288
     1
 68
     0
279
    -2
289
     1
 69
     0
  7
Standard
140
4.5
170
     5
 62
     0
 63
     7
283
     0
274
    -2
284
     1
 64
     0
275
    -2
285
     1
 65
     0
276
    -2
286
     1
 66
     0
277
    -2
287
     1
 67
     0
278
    -2
288
     1
 68
     0
279
    -2
289
     1
 69
     0
  0
DICTIONARYVAR
  5
C23
102
{ACAD_REACTORS
330
96D
102
}
330
96D
100
DictionaryVariables
280
     0
  1
STANDARD
  0
DICTIONARYVAR
  5
24F5
102
{ACAD_REACTORS
330
96D
102
}
330
96D
100
DictionaryVariables
280
     0
  1
1
  0
DICTIONARYVAR
  5
24F6
102
{ACAD_REACTORS
330
96D
102
}
330
96D
100
DictionaryVariables
280
     0
  1

  0
DICTIONARYVAR
  5
96E
102
{ACAD_REACTORS
330
96D
102
}
330
96D
100
DictionaryVariables
280
     0
  1
96
  0
DICTIONARY
  5
24FB
330
22
100
AcDbDictionary
280
     1
281
     1
  3
ACAD_XREC_ROUNDTRIP
360
24FC
  0
DICTIONARY
  5
24F9
330
1E
100
AcDbDictionary
280
     1
281
     1
  3
ACAD_XREC_ROUNDTRIP
360
24FA
  0
DICTIONARY
  5
24FD
330
26
100
AcDbDictionary
280
     1
281
     1
  3
ACAD_XREC_ROUNDTRIP
360
24FE
  0
XRECORD
  5
24FC
102
{ACAD_REACTORS
330
24FB
102
}
330
24FB
100
AcDbXrecord
280
     1
102
SHADEPLOT
 70
     0
102
SHADEPLOTRESLEVEL
 70
     2
102
SHADEPLOTCUSTOMDPI
 70
   300
  0
XRECORD
  5
24FA
102
{ACAD_REACTORS
330
24F9
102
}
330
24F9
100
AcDbXrecord
280
     1
102
SHADEPLOT
 70
     0
102
SHADEPLOTRESLEVEL
 70
     2
102
SHADEPLOTCUSTOMDPI
 70
   300
  0
XRECORD
  5
24FE
102
{ACAD_REACTORS
330
24FD
102
}
330
24FD
100
AcDbXrecord
280
     1
102
SHADEPLOT
 70
     0
102
SHADEPLOTRESLEVEL
 70
     2
102
SHADEPLOTCUSTOMDPI
 70
   300
  0
ENDSEC
  0
EOF
