  0
SECTION
  2
HEADER
  9
$ACADVER
  1
AC1015
  9
$ACADMAINTVER
 70
    20
  9
$DWGCODEPAGE
  3
ANSI_932
  9
$INSBASE
 10
0.0
 20
0.0
 30
0.0
  9
$EXTMIN
 10
174.0
 20
3.99999999999909
 30
0.0
  9
$EXTMAX
 10
2834.0
 20
2024.0
 30
0.0
  9
$LIMMIN
 10
54.0
 20
4.0
  9
$LIMMAX
 10
2834.0
 20
2024.0
  9
$ORTHOMODE
 70
     1
  9
$REGENMODE
 70
     1
  9
$FILLMODE
 70
     1
  9
$QTEXTMODE
 70
     0
  9
$MIRRTEXT
 70
     1
  9
$LTSCALE
 40
4.0
  9
$ATTMODE
 70
     1
  9
$TEXTSIZE
 40
30.0
  9
$TRACEWID
 40
1.0
  9
$TEXTSTYLE
  7
Standard
  9
$CLAYER
  8
実形
  9
$CELTYPE
  6
ByLayer
  9
$CECOLOR
 62
     3
  9
$CELTSCALE
 40
1.0
  9
$DISPSILH
 70
     0
  9
$DIMSCALE
 40
1.0
  9
$DIMASZ
 40
10.0
  9
$DIMEXO
 40
65.0
  9
$DIMDLI
 40
3.75
  9
$DIMRND
 40
0.0
  9
$DIMDLE
 40
0.0
  9
$DIMEXE
 40
0.0
  9
$DIMTP
 40
0.0
  9
$DIMTM
 40
0.0
  9
$DIMTXT
 40
30.0
  9
$DIMCEN
 40
2.5
  9
$DIMTSZ
 40
0.0
  9
$DIMTOL
 70
     0
  9
$DIMLIM
 70
     0
  9
$DIMTIH
 70
     0
  9
$DIMTOH
 70
     0
  9
$DIMSE1
 70
     0
  9
$DIMSE2
 70
     0
  9
$DIMTAD
 70
     1
  9
$DIMZIN
 70
     8
  9
$DIMBLK
  1
Dot
  9
$DIMASO
 70
     1
  9
$DIMSHO
 70
     1
  9
$DIMPOST
  1

  9
$DIMAPOST
  1

  9
$DIMALT
 70
     0
  9
$DIMALTD
 70
     3
  9
$DIMALTF
 40
0.03937007874016
  9
$DIMLFAC
 40
1.0
  9
$DIMTOFL
 70
     1
  9
$DIMTVP
 40
0.0
  9
$DIMTIX
 70
     0
  9
$DIMSOXD
 70
     0
  9
$DIMSAH
 70
     0
  9
$DIMBLK1
  1

  9
$DIMBLK2
  1

  9
$DIMSTYLE
  2
ISO-25
  9
$DIMCLRD
 70
     0
  9
$DIMCLRE
 70
     0
  9
$DIMCLRT
 70
     0
  9
$DIMTFAC
 40
1.0
  9
$DIMGAP
 40
6.599999999999998
  9
$DIMJUST
 70
     0
  9
$DIMSD1
 70
     0
  9
$DIMSD2
 70
     0
  9
$DIMTOLJ
 70
     0
  9
$DIMTZIN
 70
     8
  9
$DIMALTZ
 70
     0
  9
$DIMALTTZ
 70
     0
  9
$DIMUPT
 70
     0
  9
$DIMDEC
 70
     2
  9
$DIMTDEC
 70
     2
  9
$DIMALTU
 70
     2
  9
$DIMALTTD
 70
     3
  9
$DIMTXSTY
  7
Standard
  9
$DIMAUNIT
 70
     0
  9
$DIMADEC
 70
     0
  9
$DIMALTRND
 40
0.0
  9
$DIMAZIN
 70
     0
  9
$DIMDSEP
 70
    46
  9
$DIMATFIT
 70
     3
  9
$DIMFRAC
 70
     0
  9
$DIMLDRBLK
  1
Open30
  9
$DIMLUNIT
 70
     2
  9
$DIMLWD
 70
    18
  9
$DIMLWE
 70
    18
  9
$DIMTMOVE
 70
     2
  9
$LUNITS
 70
     2
  9
$LUPREC
 70
     2
  9
$SKETCHINC
 40
1.0
  9
$FILLETRAD
 40
3.0
  9
$AUNITS
 70
     0
  9
$AUPREC
 70
     0
  9
$MENU
  1
.
  9
$ELEVATION
 40
0.0
  9
$PELEVATION
 40
0.0
  9
$THICKNESS
 40
0.0
  9
$LIMCHECK
 70
     1
  9
$CHAMFERA
 40
10.0
  9
$CHAMFERB
 40
10.0
  9
$CHAMFERC
 40
20.0
  9
$CHAMFERD
 40
0.0
  9
$SKPOLY
 70
     0
  9
$TDCREATE
 40
2451673.575802199
  9
$TDUCREATE
 40
2451673.200802199
  9
$TDUPDATE
 40
2458803.764980394
  9
$TDUUPDATE
 40
2458803.389980393
  9
$TDINDWG
 40
5.2152253009
  9
$TDUSRTIMER
 40
5.2152246065
  9
$USRTIMER
 70
     1
  9
$ANGBASE
 50
0.0
  9
$ANGDIR
 70
     0
  9
$PDMODE
 70
     0
  9
$PDSIZE
 40
0.0
  9
$PLINEWID
 40
0.0
  9
$SPLFRAME
 70
     0
  9
$SPLINETYPE
 70
     6
  9
$SPLINESEGS
 70
     8
  9
$HANDSEED
  5
A4DB
  9
$SURFTAB1
 70
     6
  9
$SURFTAB2
 70
     6
  9
$SURFTYPE
 70
     6
  9
$SURFU
 70
     6
  9
$SURFV
 70
     6
  9
$UCSBASE
  2

  9
$UCSNAME
  2

  9
$UCSORG
 10
0.0
 20
0.0
 30
0.0
  9
$UCSXDIR
 10
1.0
 20
0.0
 30
0.0
  9
$UCSYDIR
 10
0.0
 20
1.0
 30
0.0
  9
$UCSORTHOREF
  2

  9
$UCSORTHOVIEW
 70
     0
  9
$UCSORGTOP
 10
0.0
 20
0.0
 30
0.0
  9
$UCSORGBOTTOM
 10
0.0
 20
0.0
 30
0.0
  9
$UCSORGLEFT
 10
0.0
 20
0.0
 30
0.0
  9
$UCSORGRIGHT
 10
0.0
 20
0.0
 30
0.0
  9
$UCSORGFRONT
 10
0.0
 20
0.0
 30
0.0
  9
$UCSORGBACK
 10
0.0
 20
0.0
 30
0.0
  9
$PUCSBASE
  2

  9
$PUCSNAME
  2

  9
$PUCSORG
 10
0.0
 20
0.0
 30
0.0
  9
$PUCSXDIR
 10
1.0
 20
0.0
 30
0.0
  9
$PUCSYDIR
 10
0.0
 20
1.0
 30
0.0
  9
$PUCSORTHOREF
  2

  9
$PUCSORTHOVIEW
 70
     0
  9
$PUCSORGTOP
 10
0.0
 20
0.0
 30
0.0
  9
$PUCSORGBOTTOM
 10
0.0
 20
0.0
 30
0.0
  9
$PUCSORGLEFT
 10
0.0
 20
0.0
 30
0.0
  9
$PUCSORGRIGHT
 10
0.0
 20
0.0
 30
0.0
  9
$PUCSORGFRONT
 10
0.0
 20
0.0
 30
0.0
  9
$PUCSORGBACK
 10
0.0
 20
0.0
 30
0.0
  9
$USERI1
 70
     0
  9
$USERI2
 70
     0
  9
$USERI3
 70
     0
  9
$USERI4
 70
     0
  9
$USERI5
 70
     0
  9
$USERR1
 40
0.0
  9
$USERR2
 40
0.0
  9
$USERR3
 40
0.0
  9
$USERR4
 40
0.0
  9
$USERR5
 40
0.0
  9
$WORLDVIEW
 70
     1
  9
$SHADEDGE
 70
     3
  9
$SHADEDIF
 70
    70
  9
$TILEMODE
 70
     1
  9
$MAXACTVP
 70
    64
  9
$PINSBASE
 10
0.0
 20
0.0
 30
0.0
  9
$PLIMCHECK
 70
     0
  9
$PEXTMIN
 10
27.8447512626648
 20
20.24591643810271
 30
0.0
  9
$PEXTMAX
 10
250.6027613639831
 20
182.2132479429245
 30
0.0
  9
$PLIMMIN
 10
-3.757080078125
 20
-3.757083177566528
  9
$PLIMMAX
 10
293.2112426757813
 20
206.2162444591522
  9
$UNITMODE
 70
     0
  9
$VISRETAIN
 70
     1
  9
$PLINEGEN
 70
     0
  9
$PSLTSCALE
 70
     1
  9
$TREEDEPTH
 70
  3020
  9
$CMLSTYLE
  2
Standard
  9
$CMLJUST
 70
     0
  9
$CMLSCALE
 40
20.0
  9
$PROXYGRAPHICS
 70
     1
  9
$MEASUREMENT
 70
     1
  9
$CELWEIGHT
370
    -1
  9
$ENDCAPS
280
     0
  9
$JOINSTYLE
280
     0
  9
$LWDISPLAY
290
     0
  9
$INSUNITS
 70
     4
  9
$HYPERLINKBASE
  1

  9
$STYLESHEET
  1

  9
$XEDIT
290
     1
  9
$CEPSNTYPE
380
     0
  9
$PSTYLEMODE
290
     1
  9
$FINGERPRINTGUID
  2
{C8EA1F16-24C9-11D4-9416-CE0A3B32152F}
  9
$VERSIONGUID
  2
{B1B65F96-F6B2-490D-9473-B5B60F8A3F83}
  9
$EXTNAMES
290
     1
  9
$PSVPSCALE
 40
0.0
  9
$OLESTARTUP
290
     0
  0
ENDSEC
  0
SECTION
  2
CLASSES
  0
CLASS
  1
ACDBDICTIONARYWDFLT
  2
AcDbDictionaryWithDefault
  3
ObjectDBX Classes
 90
        0
280
     0
281
     0
  0
CLASS
  1
ACDBPLACEHOLDER
  2
AcDbPlaceHolder
  3
ObjectDBX Classes
 90
        0
280
     0
281
     0
  0
CLASS
  1
LAYOUT
  2
AcDbLayout
  3
ObjectDBX Classes
 90
        0
280
     0
281
     0
  0
CLASS
  1
DICTIONARYVAR
  2
AcDbDictionaryVar
  3
ObjectDBX Classes
 90
        0
280
     0
281
     0
  0
CLASS
  1
TABLESTYLE
  2
AcDbTableStyle
  3
ObjectDBX Classes
 90
     2047
280
     0
281
     0
  0
CLASS
  1
SORTENTSTABLE
  2
AcDbSortentsTable
  3
ObjectDBX Classes
 90
        0
280
     0
281
     0
  0
ENDSEC
  0
SECTION
  2
TABLES
  0
TABLE
  2
VPORT
  5
8
330
0
100
AcDbSymbolTable
 70
     2
  0
VPORT
  5
A4CE
330
8
100
AcDbSymbolTableRecord
100
AcDbViewportTableRecord
  2
*Active
 70
     0
 10
0.0
 20
0.0
 11
1.0
 21
1.0
 12
1534.682782375122
 22
923.7021769184179
 13
0.0
 23
0.0
 14
10.0
 24
10.0
 15
10.0
 25
10.0
 16
0.0
 26
0.0
 36
1.0
 17
0.0
 27
0.0
 37
0.0
 40
2659.361647809637
 41
1.29038112522686
 42
50.0
 43
0.0
 44
0.0
 50
0.0
 51
0.0
 71
     0
 72
   100
 73
     1
 74
     3
 75
     0
 76
     0
 77
     0
 78
     0
281
     0
 65
     1
110
0.0
120
0.0
130
0.0
111
1.0
121
0.0
131
0.0
112
0.0
122
1.0
132
0.0
 79
     0
146
0.0
  0
ENDTAB
  0
TABLE
  2
LTYPE
  5
5
330
0
100
AcDbSymbolTable
 70
    46
  0
LTYPE
  5
14
330
5
100
AcDbSymbolTableRecord
100
AcDbLinetypeTableRecord
  2
ByBlock
 70
     0
  3

 72
    65
 73
     0
 40
0.0
  0
LTYPE
  5
15
330
5
100
AcDbSymbolTableRecord
100
AcDbLinetypeTableRecord
  2
ByLayer
 70
     0
  3

 72
    65
 73
     0
 40
0.0
  0
LTYPE
  5
16
330
5
100
AcDbSymbolTableRecord
100
AcDbLinetypeTableRecord
  2
Continuous
 70
     0
  3
Solid line
 72
    65
 73
     0
 40
0.0
  0
LTYPE
  5
34
330
5
100
AcDbSymbolTableRecord
100
AcDbLinetypeTableRecord
  2
ACAD_ISO02W100
 70
     0
  3
ISO dash __ __ __ __ __ __ __ __ __ __ __ __ __
 72
    65
 73
     2
 40
15.0
 49
12.0
 74
     0
 49
-3.0
 74
     0
  0
LTYPE
  5
35
330
5
100
AcDbSymbolTableRecord
100
AcDbLinetypeTableRecord
  2
ACAD_ISO03W100
 70
     0
  3
ISO dash space __    __    __    __    __    __
 72
    65
 73
     2
 40
30.0
 49
12.0
 74
     0
 49
-18.0
 74
     0
  0
LTYPE
  5
36
330
5
100
AcDbSymbolTableRecord
100
AcDbLinetypeTableRecord
  2
ACAD_ISO04W100
 70
     0
  3
ISO long-dash dot ____ . ____ . ____ . ____ . _
 72
    65
 73
     4
 40
30.0
 49
24.0
 74
     0
 49
-3.0
 74
     0
 49
0.0
 74
     0
 49
-3.0
 74
     0
  0
LTYPE
  5
37
330
5
100
AcDbSymbolTableRecord
100
AcDbLinetypeTableRecord
  2
ACAD_ISO05W100
 70
     0
  3
ISO long-dash double-dot ____ .. ____ .. ____ .
 72
    65
 73
     6
 40
34.0
 49
24.0
 74
     0
 49
-3.0
 74
     0
 49
0.5
 74
     0
 49
-3.0
 74
     0
 49
0.5
 74
     0
 49
-3.0
 74
     0
  0
LTYPE
  5
38
330
5
100
AcDbSymbolTableRecord
100
AcDbLinetypeTableRecord
  2
ACAD_ISO06W100
 70
     0
  3
ISO long-dash triple-dot ____ ... ____ ... ____
 72
    65
 73
     8
 40
37.5
 49
24.0
 74
     0
 49
-3.0
 74
     0
 49
0.5
 74
     0
 49
-3.0
 74
     0
 49
0.5
 74
     0
 49
-3.0
 74
     0
 49
0.5
 74
     0
 49
-3.0
 74
     0
  0
LTYPE
  5
39
330
5
100
AcDbSymbolTableRecord
100
AcDbLinetypeTableRecord
  2
ACAD_ISO07W100
 70
     0
  3
ISO dot . . . . . . . . . . . . . . . . . . . .
 72
    65
 73
     2
 40
3.0
 49
0.0
 74
     0
 49
-3.0
 74
     0
  0
LTYPE
  5
3A
330
5
100
AcDbSymbolTableRecord
100
AcDbLinetypeTableRecord
  2
ACAD_ISO08W100
 70
     0
  3
ISO long-dash short-dash ____ __ ____ __ ____ _
 72
    65
 73
     4
 40
36.0
 49
24.0
 74
     0
 49
-3.0
 74
     0
 49
6.0
 74
     0
 49
-3.0
 74
     0
  0
LTYPE
  5
3B
330
5
100
AcDbSymbolTableRecord
100
AcDbLinetypeTableRecord
  2
ACAD_ISO09W100
 70
     0
  3
ISO long-dash double-short-dash ____ __ __ ____
 72
    65
 73
     6
 40
45.0
 49
24.0
 74
     0
 49
-3.0
 74
     0
 49
6.0
 74
     0
 49
-3.0
 74
     0
 49
6.0
 74
     0
 49
-3.0
 74
     0
  0
LTYPE
  5
3C
330
5
100
AcDbSymbolTableRecord
100
AcDbLinetypeTableRecord
  2
ACAD_ISO10W100
 70
     0
  3
ISO dash dot __ . __ . __ . __ . __ . __ . __ .
 72
    65
 73
     4
 40
18.0
 49
12.0
 74
     0
 49
-3.0
 74
     0
 49
0.0
 74
     0
 49
-3.0
 74
     0
  0
LTYPE
  5
3D
330
5
100
AcDbSymbolTableRecord
100
AcDbLinetypeTableRecord
  2
ACAD_ISO11W100
 70
     0
  3
ISO double-dash dot __ __ . __ __ . __ __ . __ 
 72
    65
 73
     6
 40
33.0
 49
12.0
 74
     0
 49
-3.0
 74
     0
 49
12.0
 74
     0
 49
-3.0
 74
     0
 49
0.0
 74
     0
 49
-3.0
 74
     0
  0
LTYPE
  5
3E
330
5
100
AcDbSymbolTableRecord
100
AcDbLinetypeTableRecord
  2
ACAD_ISO12W100
 70
     0
  3
ISO dash double-dot __ . . __ . . __ . . __ . .
 72
    65
 73
     6
 40
21.0
 49
12.0
 74
     0
 49
-3.0
 74
     0
 49
0.0
 74
     0
 49
-3.0
 74
     0
 49
0.0
 74
     0
 49
-3.0
 74
     0
  0
LTYPE
  5
3F
330
5
100
AcDbSymbolTableRecord
100
AcDbLinetypeTableRecord
  2
ACAD_ISO13W100
 70
     0
  3
ISO double-dash double-dot __ __ . . __ __ . . 
 72
    65
 73
     8
 40
36.0
 49
12.0
 74
     0
 49
-3.0
 74
     0
 49
12.0
 74
     0
 49
-3.0
 74
     0
 49
0.0
 74
     0
 49
-3.0
 74
     0
 49
0.0
 74
     0
 49
-3.0
 74
     0
  0
LTYPE
  5
40
330
5
100
AcDbSymbolTableRecord
100
AcDbLinetypeTableRecord
  2
ACAD_ISO14W100
 70
     0
  3
ISO dash triple-dot __ . . . __ . . . __ . . . 
 72
    65
 73
     8
 40
24.0
 49
12.0
 74
     0
 49
-3.0
 74
     0
 49
0.0
 74
     0
 49
-3.0
 74
     0
 49
0.0
 74
     0
 49
-3.0
 74
     0
 49
0.0
 74
     0
 49
-3.0
 74
     0
  0
LTYPE
  5
41
330
5
100
AcDbSymbolTableRecord
100
AcDbLinetypeTableRecord
  2
ACAD_ISO15W100
 70
     0
  3
ISO double-dash triple-dot __ __ . . . __ __ . 
 72
    65
 73
    10
 40
39.0
 49
12.0
 74
     0
 49
-3.0
 74
     0
 49
12.0
 74
     0
 49
-3.0
 74
     0
 49
0.0
 74
     0
 49
-3.0
 74
     0
 49
0.0
 74
     0
 49
-3.0
 74
     0
 49
0.0
 74
     0
 49
-3.0
 74
     0
  0
LTYPE
  5
42
330
5
100
AcDbSymbolTableRecord
100
AcDbLinetypeTableRecord
  2
BATTING
 70
     0
  3
Batting SSSSSSSSSSSSSSSSSSSSSSSSSSSSSSSSSSSSSSS
 72
    65
 73
     4
 40
10.16254
 49
0.00254
 74
     0
 49
-2.54
 74
     4
 75
   134
340
33
 46
2.54
 50
0.0
 44
-2.54
 45
0.0
 49
-5.08
 74
     4
 75
   134
340
33
 46
2.54
 50
180.0
 44
2.54
 45
0.0
 49
-2.54
 74
     0
  0
LTYPE
  5
43
330
5
100
AcDbSymbolTableRecord
100
AcDbLinetypeTableRecord
  2
BORDER
 70
     0
  3
Border __ __ . __ __ . __ __ . __ __ . __ __ .
 72
    65
 73
     6
 40
44.45
 49
12.7
 74
     0
 49
-6.349999999999999
 74
     0
 49
12.7
 74
     0
 49
-6.349999999999999
 74
     0
 49
0.0
 74
     0
 49
-6.349999999999999
 74
     0
  0
LTYPE
  5
44
330
5
100
AcDbSymbolTableRecord
100
AcDbLinetypeTableRecord
  2
BORDER2
 70
     0
  3
Border (.5x) __.__.__.__.__.__.__.__.__.__.__.
 72
    65
 73
     6
 40
22.225
 49
6.349999999999999
 74
     0
 49
-3.174999999999999
 74
     0
 49
6.349999999999999
 74
     0
 49
-3.174999999999999
 74
     0
 49
0.0
 74
     0
 49
-3.174999999999999
 74
     0
  0
LTYPE
  5
45
330
5
100
AcDbSymbolTableRecord
100
AcDbLinetypeTableRecord
  2
BORDERX2
 70
     0
  3
Border (2x) ____  ____  .  ____  ____  .  ___
 72
    65
 73
     6
 40
88.9
 49
25.4
 74
     0
 49
-12.7
 74
     0
 49
25.4
 74
     0
 49
-12.7
 74
     0
 49
0.0
 74
     0
 49
-12.7
 74
     0
  0
LTYPE
  5
46
330
5
100
AcDbSymbolTableRecord
100
AcDbLinetypeTableRecord
  2
CENTER
 70
     0
  3
Center ____ _ ____ _ ____ _ ____ _ ____ _ ____
 72
    65
 73
     4
 40
50.8
 49
31.75
 74
     0
 49
-6.349999999999999
 74
     0
 49
6.349999999999999
 74
     0
 49
-6.349999999999999
 74
     0
  0
LTYPE
  5
47
330
5
100
AcDbSymbolTableRecord
100
AcDbLinetypeTableRecord
  2
CENTER2
 70
     0
  3
Center (.5x) ___ _ ___ _ ___ _ ___ _ ___ _ ___
 72
    65
 73
     4
 40
28.575
 49
19.05
 74
     0
 49
-3.174999999999999
 74
     0
 49
3.174999999999999
 74
     0
 49
-3.174999999999999
 74
     0
  0
LTYPE
  5
48
330
5
100
AcDbSymbolTableRecord
100
AcDbLinetypeTableRecord
  2
CENTERX2
 70
     0
  3
Center (2x) ________  __  ________  __  _____
 72
    65
 73
     4
 40
101.6
 49
63.5
 74
     0
 49
-12.7
 74
     0
 49
12.7
 74
     0
 49
-12.7
 74
     0
  0
LTYPE
  5
49
330
5
100
AcDbSymbolTableRecord
100
AcDbLinetypeTableRecord
  2
DASHDOT
 70
     0
  3
Dash dot __ . __ . __ . __ . __ . __ . __ . __
 72
    65
 73
     4
 40
25.4
 49
12.7
 74
     0
 49
-6.349999999999999
 74
     0
 49
0.0
 74
     0
 49
-6.349999999999999
 74
     0
  0
LTYPE
  5
4A
330
5
100
AcDbSymbolTableRecord
100
AcDbLinetypeTableRecord
  2
DASHDOT2
 70
     0
  3
Dash dot (.5x) _._._._._._._._._._._._._._._.
 72
    65
 73
     4
 40
12.7
 49
6.349999999999999
 74
     0
 49
-3.174999999999999
 74
     0
 49
0.0
 74
     0
 49
-3.174999999999999
 74
     0
  0
LTYPE
  5
4B
330
5
100
AcDbSymbolTableRecord
100
AcDbLinetypeTableRecord
  2
DASHDOTX2
 70
     0
  3
Dash dot (2x) ____  .  ____  .  ____  .  ___
 72
    65
 73
     4
 40
50.8
 49
25.4
 74
     0
 49
-12.7
 74
     0
 49
0.0
 74
     0
 49
-12.7
 74
     0
  0
LTYPE
  5
4C
330
5
100
AcDbSymbolTableRecord
100
AcDbLinetypeTableRecord
  2
DASHED
 70
     0
  3
Dashed __ __ __ __ __ __ __ __ __ __ __ __ __ _
 72
    65
 73
     2
 40
19.05
 49
12.7
 74
     0
 49
-6.349999999999999
 74
     0
  0
LTYPE
  5
4D
330
5
100
AcDbSymbolTableRecord
100
AcDbLinetypeTableRecord
  2
DASHED2
 70
     0
  3
Dashed (.5x) _ _ _ _ _ _ _ _ _ _ _ _ _ _ _ _ _
 72
    65
 73
     2
 40
9.524999999999998
 49
6.349999999999999
 74
     0
 49
-3.174999999999999
 74
     0
  0
LTYPE
  5
4E
330
5
100
AcDbSymbolTableRecord
100
AcDbLinetypeTableRecord
  2
DASHEDX2
 70
     0
  3
Dashed (2x) ____  ____  ____  ____  ____  ___
 72
    65
 73
     2
 40
38.1
 49
25.4
 74
     0
 49
-12.7
 74
     0
  0
LTYPE
  5
4F
330
5
100
AcDbSymbolTableRecord
100
AcDbLinetypeTableRecord
  2
DIVIDE
 70
     0
  3
Divide ____ . . ____ . . ____ . . ____ . . ____
 72
    65
 73
     6
 40
31.75
 49
12.7
 74
     0
 49
-6.349999999999999
 74
     0
 49
0.0
 74
     0
 49
-6.349999999999999
 74
     0
 49
0.0
 74
     0
 49
-6.349999999999999
 74
     0
  0
LTYPE
  5
50
330
5
100
AcDbSymbolTableRecord
100
AcDbLinetypeTableRecord
  2
DIVIDE2
 70
     0
  3
Divide (.5x) __..__..__..__..__..__..__..__.._
 72
    65
 73
     6
 40
15.875
 49
6.349999999999999
 74
     0
 49
-3.174999999999999
 74
     0
 49
0.0
 74
     0
 49
-3.174999999999999
 74
     0
 49
0.0
 74
     0
 49
-3.174999999999999
 74
     0
  0
LTYPE
  5
51
330
5
100
AcDbSymbolTableRecord
100
AcDbLinetypeTableRecord
  2
DIVIDEX2
 70
     0
  3
Divide (2x) ________  .  .  ________  .  .  _
 72
    65
 73
     6
 40
63.49999999999999
 49
25.4
 74
     0
 49
-12.7
 74
     0
 49
0.0
 74
     0
 49
-12.7
 74
     0
 49
0.0
 74
     0
 49
-12.7
 74
     0
  0
LTYPE
  5
52
330
5
100
AcDbSymbolTableRecord
100
AcDbLinetypeTableRecord
  2
DOT
 70
     0
  3
Dot . . . . . . . . . . . . . . . . . . . . . .
 72
    65
 73
     2
 40
6.349999999999999
 49
0.0
 74
     0
 49
-6.349999999999999
 74
     0
  0
LTYPE
  5
53
330
5
100
AcDbSymbolTableRecord
100
AcDbLinetypeTableRecord
  2
DOT2
 70
     0
  3
Dot (.5x) .....................................
 72
    65
 73
     2
 40
3.174999999999999
 49
0.0
 74
     0
 49
-3.174999999999999
 74
     0
  0
LTYPE
  5
54
330
5
100
AcDbSymbolTableRecord
100
AcDbLinetypeTableRecord
  2
DOTX2
 70
     0
  3
Dot (2x) .  .  .  .  .  .  .  .  .  .  .  .  . 
 72
    65
 73
     2
 40
12.7
 49
0.0
 74
     0
 49
-12.7
 74
     0
  0
LTYPE
  5
55
330
5
100
AcDbSymbolTableRecord
100
AcDbLinetypeTableRecord
  2
FENCELINE1
 70
     0
  3
Fenceline circle ----0-----0----0-----0----0---
 72
    65
 73
     4
 40
36.83
 49
6.349999999999999
 74
     0
 49
-2.54
 74
     4
 75
   133
340
33
 46
2.54
 50
0.0
 44
-2.54
 45
0.0
 49
-2.54
 74
     0
 49
25.4
 74
     0
  0
LTYPE
  5
56
330
5
100
AcDbSymbolTableRecord
100
AcDbLinetypeTableRecord
  2
FENCELINE2
 70
     0
  3
Fenceline square ----[]-----[]----[]-----[]----
 72
    65
 73
     4
 40
36.83
 49
6.349999999999999
 74
     0
 49
-2.54
 74
     4
 75
   132
340
33
 46
2.54
 50
0.0
 44
-2.54
 45
0.0
 49
-2.54
 74
     0
 49
25.4
 74
     0
  0
LTYPE
  5
57
330
5
100
AcDbSymbolTableRecord
100
AcDbLinetypeTableRecord
  2
GAS_LINE
 70
     0
  3
Gas line ----GAS----GAS----GAS----GAS----GAS---
 72
    65
 73
     3
 40
24.13
 49
12.7
 74
     0
 49
-5.08
 74
     2
 75
     0
340
11
 46
2.54
 50
0.0
 44
-2.54
 45
-1.27
  9
GAS
 49
-6.349999999999999
 74
     0
  0
LTYPE
  5
58
330
5
100
AcDbSymbolTableRecord
100
AcDbLinetypeTableRecord
  2
HIDDEN
 70
     0
  3
Hidden __ __ __ __ __ __ __ __ __ __ __ __ __ _
 72
    65
 73
     2
 40
9.524999999999998
 49
6.349999999999999
 74
     0
 49
-3.174999999999999
 74
     0
  0
LTYPE
  5
59
330
5
100
AcDbSymbolTableRecord
100
AcDbLinetypeTableRecord
  2
HIDDEN2
 70
     0
  3
Hidden (.5x) _ _ _ _ _ _ _ _ _ _ _ _ _ _ _ _ _
 72
    65
 73
     2
 40
4.762499999999999
 49
3.174999999999999
 74
     0
 49
-1.587499999999999
 74
     0
  0
LTYPE
  5
5A
330
5
100
AcDbSymbolTableRecord
100
AcDbLinetypeTableRecord
  2
HIDDENX2
 70
     0
  3
Hidden (2x) ____ ____ ____ ____ ____ ____ ____
 72
    65
 73
     2
 40
19.05
 49
12.7
 74
     0
 49
-6.349999999999999
 74
     0
  0
LTYPE
  5
5B
330
5
100
AcDbSymbolTableRecord
100
AcDbLinetypeTableRecord
  2
HOT_WATER_SUPPLY
 70
     0
  3
Hot water supply ---- HW ---- HW ---- HW ----
 72
    65
 73
     3
 40
22.86
 49
12.7
 74
     0
 49
-5.08
 74
     2
 75
     0
340
11
 46
2.54
 50
0.0
 44
-2.54
 45
-1.27
  9
HW
 49
-5.08
 74
     0
  0
LTYPE
  5
5C
330
5
100
AcDbSymbolTableRecord
100
AcDbLinetypeTableRecord
  2
PHANTOM
 70
     0
  3
Phantom ______  __  __  ______  __  __  ______
 72
    65
 73
     6
 40
63.5
 49
31.75
 74
     0
 49
-6.349999999999999
 74
     0
 49
6.349999999999999
 74
     0
 49
-6.349999999999999
 74
     0
 49
6.349999999999999
 74
     0
 49
-6.349999999999999
 74
     0
  0
LTYPE
  5
5D
330
5
100
AcDbSymbolTableRecord
100
AcDbLinetypeTableRecord
  2
PHANTOM2
 70
     0
  3
Phantom (.5x) ___ _ _ ___ _ _ ___ _ _ ___ _ _
 72
    65
 73
     6
 40
31.75
 49
15.875
 74
     0
 49
-3.174999999999999
 74
     0
 49
3.174999999999999
 74
     0
 49
-3.174999999999999
 74
     0
 49
3.174999999999999
 74
     0
 49
-3.174999999999999
 74
     0
  0
LTYPE
  5
5E
330
5
100
AcDbSymbolTableRecord
100
AcDbLinetypeTableRecord
  2
PHANTOMX2
 70
     0
  3
Phantom (2x) ____________    ____    ____   _
 72
    65
 73
     6
 40
127.0
 49
63.5
 74
     0
 49
-12.7
 74
     0
 49
12.7
 74
     0
 49
-12.7
 74
     0
 49
12.7
 74
     0
 49
-12.7
 74
     0
  0
LTYPE
  5
5F
330
5
100
AcDbSymbolTableRecord
100
AcDbLinetypeTableRecord
  2
TRACKS
 70
     0
  3
Tracks -|-|-|-|-|-|-|-|-|-|-|-|-|-|-|-|-|-|-|-|
 72
    65
 73
     2
 40
7.62
 49
3.81
 74
     4
 75
   130
340
33
 46
6.349999999999999
 50
0.0
 44
0.0
 45
0.0
 49
3.81
 74
     0
  0
LTYPE
  5
60
330
5
100
AcDbSymbolTableRecord
100
AcDbLinetypeTableRecord
  2
ZIGZAG
 70
     0
  3
Zig zag /\/\/\/\/\/\/\/\/\/\/\/\/\/\/\/\/\/\/\/
 72
    65
 73
     4
 40
20.32254
 49
0.00254
 74
     0
 49
-5.08
 74
     4
 75
   131
340
33
 46
5.08
 50
0.0
 44
-5.08
 45
0.0
 49
-10.16
 74
     4
 75
   131
340
33
 46
5.08
 50
180.0
 44
5.08
 45
0.0
 49
-5.08
 74
     0
  0
ENDTAB
  0
TABLE
  2
LAYER
  5
2
102
{ACAD_XDICTIONARY
360
24C4
102
}
330
0
100
AcDbSymbolTable
 70
     9
  0
LAYER
  5
10
330
2
100
AcDbSymbolTableRecord
100
AcDbLayerTableRecord
  2
0
 70
     0
 62
     7
  6
Continuous
290
     0
370
    -3
390
F
  0
LAYER
  5
C3
330
2
100
AcDbSymbolTableRecord
100
AcDbLayerTableRecord
  2
Defpoints
 70
     0
 62
     7
  6
Continuous
290
     0
370
    -3
390
F
  0
LAYER
  5
256
330
2
100
AcDbSymbolTableRecord
100
AcDbLayerTableRecord
  2
センター
 70
     0
 62
     7
  6
CENTER2
370
    18
390
F
  0
LAYER
  5
268
330
2
100
AcDbSymbolTableRecord
100
AcDbLayerTableRecord
  2
実形
 70
     0
 62
     7
  6
Continuous
370
    -3
390
F
  0
LAYER
  5
269
330
2
100
AcDbSymbolTableRecord
100
AcDbLayerTableRecord
  2
補助
 70
     0
 62
     4
  6
Continuous
370
    -3
390
F
  0
LAYER
  5
26A
330
2
100
AcDbSymbolTableRecord
100
AcDbLayerTableRecord
  2
寸法
 70
     0
 62
     7
  6
Continuous
370
    18
390
F
  0
LAYER
  5
26B
330
2
100
AcDbSymbolTableRecord
100
AcDbLayerTableRecord
  2
ハッチング
 70
     0
 62
     7
  6
Continuous
370
    18
390
F
  0
LAYER
  5
26D
330
2
100
AcDbSymbolTableRecord
100
AcDbLayerTableRecord
  2
枠
 70
     0
 62
     7
  6
Continuous
370
    -3
390
F
  0
LAYER
  5
1B3D
330
2
100
AcDbSymbolTableRecord
100
AcDbLayerTableRecord
  2
Cen
 70
     0
 62
     7
  6
CENTER2
290
     0
370
    15
390
F
  0
ENDTAB
  0
TABLE
  2
STYLE
  5
3
330
0
100
AcDbSymbolTable
 70
     4
  0
STYLE
  5
11
330
3
100
AcDbSymbolTableRecord
100
AcDbTextStyleTableRecord
  2
Standard
 70
     0
 40
0.0
 41
1.0
 50
0.0
 71
     0
 42
30.0
  3
txt.shx
  4
bigfont.shx
  0
STYLE
  5
33
330
3
100
AcDbSymbolTableRecord
100
AcDbTextStyleTableRecord
  2

 70
     1
 40
0.0
 41
1.0
 50
0.0
 71
     0
 42
2.5
  3
ltypeshp.shx
  4

  0
STYLE
  5
35E2
330
3
100
AcDbSymbolTableRecord
100
AcDbTextStyleTableRecord
  2
ms明朝
 70
     0
 40
0.0
 41
1.0
 50
0.0
 71
     0
 42
25.0
  3
MS Mincho.ttf
  4

1001
ACAD
1000
MS Mincho
1071
    32785
  0
STYLE
  5
7F78
330
3
100
AcDbSymbolTableRecord
100
AcDbTextStyleTableRecord
  2
明朝
 70
     0
 40
0.0
 41
1.0
 50
0.0
 71
     0
 42
25.0
  3
MS Mincho.ttf
  4

1001
ACAD
1000
MS Mincho
1071
    32785
  0
ENDTAB
  0
TABLE
  2
VIEW
  5
6
330
0
100
AcDbSymbolTable
 70
     0
  0
ENDTAB
  0
TABLE
  2
UCS
  5
7
330
0
100
AcDbSymbolTable
 70
     0
  0
ENDTAB
  0
TABLE
  2
APPID
  5
9
330
0
100
AcDbSymbolTable
 70
     2
  0
APPID
  5
12
330
9
100
AcDbSymbolTableRecord
100
AcDbRegAppTableRecord
  2
ACAD
 70
     0
  0
APPID
  5
24C3
330
9
100
AcDbSymbolTableRecord
100
AcDbRegAppTableRecord
  2
ACAD_PSEXT
 70
     0
  0
ENDTAB
  0
TABLE
  2
DIMSTYLE
  5
A
330
0
100
AcDbSymbolTable
 70
     1
100
AcDbDimStyleTable
 71
     1
340
27
  0
DIMSTYLE
105
27
102
{ACAD_REACTORS
330
8509
330
87CD
330
87CE
330
87CF
330
87D0
330
9040
330
9101
330
9138
330
916D
330
91DA
330
91E7
330
91F4
330
9508
330
9509
330
950A
330
9512
330
9865
330
9872
330
987F
330
9C7C
330
9C7D
330
9C7E
330
9C7F
330
9C80
330
9C81
330
9C82
330
9C83
330
9C84
330
9C85
330
9C86
330
9C87
330
9C88
330
9C89
330
9C8A
330
A309
330
A313
330
A31B
102
}
330
A
100
AcDbSymbolTableRecord
100
AcDbDimStyleTableRecord
  2
ISO-25
 70
     0
 41
35.0
 42
65.0
 43
3.75
 44
0.0
 73
     0
 74
     0
 77
     1
 78
     8
140
25.0
141
2.5
143
0.03937007874016
147
6.25
171
     3
172
     1
271
     2
272
     2
274
     3
283
     0
284
     8
340
11
341
DA
342
D0
371
    15
372
    15
  0
ENDTAB
  0
TABLE
  2
BLOCK_RECORD
  5
1
330
0
100
AcDbSymbolTable
 70
    61
  0
BLOCK_RECORD
  5
1F
102
{ACAD_XDICTIONARY
360
2396
102
}
330
1
100
AcDbSymbolTableRecord
100
AcDbBlockTableRecord
  2
*Model_Space
340
22
  0
BLOCK_RECORD
  5
1B
330
1
100
AcDbSymbolTableRecord
100
AcDbBlockTableRecord
  2
*Paper_Space
340
1E
  0
BLOCK_RECORD
  5
23
330
1
100
AcDbSymbolTableRecord
100
AcDbBlockTableRecord
  2
*Paper_Space0
340
26
  0
BLOCK_RECORD
  5
D0
330
1
100
AcDbSymbolTableRecord
100
AcDbBlockTableRecord
  2
_DotSmall
340
0
102
{BLKREFS
331
A3DA
331
A3DB
331
A3FD
331
A3FE
331
A40F
331
A410
102
}
  0
BLOCK_RECORD
  5
D4
330
1
100
AcDbSymbolTableRecord
100
AcDbBlockTableRecord
  2
_Origin2
340
0
  0
BLOCK_RECORD
  5
DA
330
1
100
AcDbSymbolTableRecord
100
AcDbBlockTableRecord
  2
_Open30
340
0
  0
BLOCK_RECORD
  5
2D6
330
1
100
AcDbSymbolTableRecord
100
AcDbBlockTableRecord
  2
A$C6CAC4411
340
0
  0
BLOCK_RECORD
  5
30D
330
1
100
AcDbSymbolTableRecord
100
AcDbBlockTableRecord
  2
_Dot
340
0
102
{BLKREFS
331
925F
331
9260
331
926B
331
926C
331
9278
331
9279
331
9284
331
9285
331
934F
331
9350
331
935B
331
935C
331
9368
331
9369
331
9374
331
9375
331
937D
331
937E
331
9815
331
9816
331
981E
331
981F
331
9828
331
9829
331
9837
331
9838
331
98EE
331
98EF
331
98F7
331
98F8
331
98FF
331
9900
331
9908
331
9909
331
9DD4
331
9DD5
331
9DDC
331
9DDD
331
9DE6
331
9DE7
331
9DEF
331
9DF0
331
9DF9
331
9DFA
331
9E28
331
9E29
331
9E32
331
9E33
331
9E3B
331
9E3C
331
A047
331
A048
331
A0C5
331
A0C6
331
A13D
331
A13E
331
A147
331
A148
331
A150
331
A151
331
A158
331
A159
331
A16B
331
A16C
331
A173
331
A174
331
A17D
331
A17E
331
A186
331
A187
331
A18E
331
A18F
331
A197
331
A198
331
A1A0
331
A1A1
331
A1AD
331
A1AE
331
A1C9
331
A1CA
331
A1D4
331
A1D5
331
A1DD
331
A1DE
331
A1E6
331
A1E7
102
}
  0
BLOCK_RECORD
  5
313C
102
{ACAD_XDICTIONARY
360
313E
102
}
330
1
100
AcDbSymbolTableRecord
100
AcDbBlockTableRecord
  2
A$C6850087C
340
0
  0
BLOCK_RECORD
  5
3846
102
{ACAD_XDICTIONARY
360
3848
102
}
330
1
100
AcDbSymbolTableRecord
100
AcDbBlockTableRecord
  2
A$C71387EE1
340
0
  0
BLOCK_RECORD
  5
6B87
102
{ACAD_XDICTIONARY
360
6B89
102
}
330
1
100
AcDbSymbolTableRecord
100
AcDbBlockTableRecord
  2
A$C47AF373A
340
0
  0
BLOCK_RECORD
  5
6C00
102
{ACAD_XDICTIONARY
360
6C02
102
}
330
1
100
AcDbSymbolTableRecord
100
AcDbBlockTableRecord
  2
A$C2B9560D8
340
0
  0
BLOCK_RECORD
  5
84D2
102
{ACAD_XDICTIONARY
360
84D4
102
}
330
1
100
AcDbSymbolTableRecord
100
AcDbBlockTableRecord
  2
A$C14192292
340
0
  0
BLOCK_RECORD
  5
850A
330
1
100
AcDbSymbolTableRecord
100
AcDbBlockTableRecord
  2
*D11
340
0
  0
BLOCK_RECORD
  5
85E5
102
{ACAD_XDICTIONARY
360
85E7
102
}
330
1
100
AcDbSymbolTableRecord
100
AcDbBlockTableRecord
  2
A$C0B4A6642
340
0
  0
BLOCK_RECORD
  5
87D4
330
1
100
AcDbSymbolTableRecord
100
AcDbBlockTableRecord
  2
*D13
340
0
  0
BLOCK_RECORD
  5
87E0
330
1
100
AcDbSymbolTableRecord
100
AcDbBlockTableRecord
  2
*D14
340
0
  0
BLOCK_RECORD
  5
87EC
330
1
100
AcDbSymbolTableRecord
100
AcDbBlockTableRecord
  2
*D15
340
0
  0
BLOCK_RECORD
  5
87F8
330
1
100
AcDbSymbolTableRecord
100
AcDbBlockTableRecord
  2
*D16
340
0
  0
BLOCK_RECORD
  5
9041
330
1
100
AcDbSymbolTableRecord
100
AcDbBlockTableRecord
  2
*D17
340
0
  0
BLOCK_RECORD
  5
9102
330
1
100
AcDbSymbolTableRecord
100
AcDbBlockTableRecord
  2
*D18
340
0
  0
BLOCK_RECORD
  5
9139
330
1
100
AcDbSymbolTableRecord
100
AcDbBlockTableRecord
  2
*D19
340
0
  0
BLOCK_RECORD
  5
916E
330
1
100
AcDbSymbolTableRecord
100
AcDbBlockTableRecord
  2
*D20
340
0
  0
BLOCK_RECORD
  5
91DB
330
1
100
AcDbSymbolTableRecord
100
AcDbBlockTableRecord
  2
*D21
340
0
  0
BLOCK_RECORD
  5
91E8
330
1
100
AcDbSymbolTableRecord
100
AcDbBlockTableRecord
  2
*D22
340
0
  0
BLOCK_RECORD
  5
91F5
330
1
100
AcDbSymbolTableRecord
100
AcDbBlockTableRecord
  2
*D23
340
0
  0
BLOCK_RECORD
  5
925A
330
1
100
AcDbSymbolTableRecord
100
AcDbBlockTableRecord
  2
*D24
340
0
  0
BLOCK_RECORD
  5
9266
330
1
100
AcDbSymbolTableRecord
100
AcDbBlockTableRecord
  2
*D25
340
0
  0
BLOCK_RECORD
  5
9272
330
1
100
AcDbSymbolTableRecord
100
AcDbBlockTableRecord
  2
*D26
340
0
  0
BLOCK_RECORD
  5
927E
330
1
100
AcDbSymbolTableRecord
100
AcDbBlockTableRecord
  2
*D27
340
0
  0
BLOCK_RECORD
  5
928A
102
{ACAD_XDICTIONARY
360
92A7
102
}
330
1
100
AcDbSymbolTableRecord
100
AcDbBlockTableRecord
  2
A$C43B90D36
340
0
  0
BLOCK_RECORD
  5
934A
330
1
100
AcDbSymbolTableRecord
100
AcDbBlockTableRecord
  2
*D29
340
0
  0
BLOCK_RECORD
  5
9356
330
1
100
AcDbSymbolTableRecord
100
AcDbBlockTableRecord
  2
*D30
340
0
  0
BLOCK_RECORD
  5
9362
330
1
100
AcDbSymbolTableRecord
100
AcDbBlockTableRecord
  2
*D31
340
0
  0
BLOCK_RECORD
  5
936E
330
1
100
AcDbSymbolTableRecord
100
AcDbBlockTableRecord
  2
*D32
340
0
  0
BLOCK_RECORD
  5
937A
330
1
100
AcDbSymbolTableRecord
100
AcDbBlockTableRecord
  2
*D33
340
0
  0
BLOCK_RECORD
  5
9386
102
{ACAD_XDICTIONARY
360
93A7
102
}
330
1
100
AcDbSymbolTableRecord
100
AcDbBlockTableRecord
  2
A$C66A46C98
340
0
  0
BLOCK_RECORD
  5
951C
330
1
100
AcDbSymbolTableRecord
100
AcDbBlockTableRecord
  2
*D35
340
0
  0
BLOCK_RECORD
  5
9528
330
1
100
AcDbSymbolTableRecord
100
AcDbBlockTableRecord
  2
*D36
340
0
  0
BLOCK_RECORD
  5
9534
330
1
100
AcDbSymbolTableRecord
100
AcDbBlockTableRecord
  2
*D37
340
0
  0
BLOCK_RECORD
  5
954C
330
1
100
AcDbSymbolTableRecord
100
AcDbBlockTableRecord
  2
*D38
340
0
  0
BLOCK_RECORD
  5
9866
330
1
100
AcDbSymbolTableRecord
100
AcDbBlockTableRecord
  2
*D39
340
0
  0
BLOCK_RECORD
  5
9873
330
1
100
AcDbSymbolTableRecord
100
AcDbBlockTableRecord
  2
*D40
340
0
  0
BLOCK_RECORD
  5
9880
330
1
100
AcDbSymbolTableRecord
100
AcDbBlockTableRecord
  2
*D41
340
0
  0
BLOCK_RECORD
  5
9C93
330
1
100
AcDbSymbolTableRecord
100
AcDbBlockTableRecord
  2
*D42
340
0
  0
BLOCK_RECORD
  5
9C9F
330
1
100
AcDbSymbolTableRecord
100
AcDbBlockTableRecord
  2
*D43
340
0
  0
BLOCK_RECORD
  5
9CAB
330
1
100
AcDbSymbolTableRecord
100
AcDbBlockTableRecord
  2
*D44
340
0
  0
BLOCK_RECORD
  5
9CB7
330
1
100
AcDbSymbolTableRecord
100
AcDbBlockTableRecord
  2
*D45
340
0
  0
BLOCK_RECORD
  5
9CC3
330
1
100
AcDbSymbolTableRecord
100
AcDbBlockTableRecord
  2
*D46
340
0
  0
BLOCK_RECORD
  5
9CCF
330
1
100
AcDbSymbolTableRecord
100
AcDbBlockTableRecord
  2
*D47
340
0
  0
BLOCK_RECORD
  5
9CDB
330
1
100
AcDbSymbolTableRecord
100
AcDbBlockTableRecord
  2
*D48
340
0
  0
BLOCK_RECORD
  5
9CE7
330
1
100
AcDbSymbolTableRecord
100
AcDbBlockTableRecord
  2
*D49
340
0
  0
BLOCK_RECORD
  5
9CF3
330
1
100
AcDbSymbolTableRecord
100
AcDbBlockTableRecord
  2
*D50
340
0
  0
BLOCK_RECORD
  5
9CFF
330
1
100
AcDbSymbolTableRecord
100
AcDbBlockTableRecord
  2
*D51
340
0
  0
BLOCK_RECORD
  5
9D0B
330
1
100
AcDbSymbolTableRecord
100
AcDbBlockTableRecord
  2
*D52
340
0
  0
BLOCK_RECORD
  5
9D17
330
1
100
AcDbSymbolTableRecord
100
AcDbBlockTableRecord
  2
*D53
340
0
  0
BLOCK_RECORD
  5
9D23
330
1
100
AcDbSymbolTableRecord
100
AcDbBlockTableRecord
  2
*D54
340
0
  0
BLOCK_RECORD
  5
9D2F
330
1
100
AcDbSymbolTableRecord
100
AcDbBlockTableRecord
  2
*D55
340
0
  0
BLOCK_RECORD
  5
9D3B
330
1
100
AcDbSymbolTableRecord
100
AcDbBlockTableRecord
  2
*D56
340
0
  0
BLOCK_RECORD
  5
9EC6
102
{ACAD_XDICTIONARY
360
9ECD
102
}
330
1
100
AcDbSymbolTableRecord
100
AcDbBlockTableRecord
  2
A$C299B203C
340
0
  0
BLOCK_RECORD
  5
A333
330
1
100
AcDbSymbolTableRecord
100
AcDbBlockTableRecord
  2
*D58
340
0
  0
BLOCK_RECORD
  5
A34B
330
1
100
AcDbSymbolTableRecord
100
AcDbBlockTableRecord
  2
*D59
340
0
  0
BLOCK_RECORD
  5
A357
330
1
100
AcDbSymbolTableRecord
100
AcDbBlockTableRecord
  2
*D60
340
0
  0
ENDTAB
  0
ENDSEC
  0
SECTION
  2
BLOCKS
  0
BLOCK
  5
20
330
1F
100
AcDbEntity
  8
0
100
AcDbBlockBegin
  2
*Model_Space
 70
     0
 10
0.0
 20
0.0
 30
0.0
  3
*Model_Space
  1

  0
ENDBLK
  5
21
330
1F
100
AcDbEntity
  8
0
100
AcDbBlockEnd
  0
BLOCK
  5
1C
330
1B
100
AcDbEntity
 67
     1
  8
0
100
AcDbBlockBegin
  2
*Paper_Space
 70
     0
 10
0.0
 20
0.0
 30
0.0
  3
*Paper_Space
  1

  0
ENDBLK
  5
1D
330
1B
100
AcDbEntity
 67
     1
  8
0
100
AcDbBlockEnd
  0
BLOCK
  5
24
330
23
100
AcDbEntity
  8
0
100
AcDbBlockBegin
  2
*Paper_Space0
 70
     0
 10
0.0
 20
0.0
 30
0.0
  3
*Paper_Space0
  1

  0
ENDBLK
  5
25
330
23
100
AcDbEntity
  8
0
100
AcDbBlockEnd
  0
BLOCK
  5
D2
330
D0
100
AcDbEntity
  8
0
100
AcDbBlockBegin
  2
_DotSmall
 70
     0
 10
0.0
 20
0.0
 30
0.0
  3
_DotSmall
  1

  0
LWPOLYLINE
  5
D1
330
D0
100
AcDbEntity
  8
0
 62
     0
100
AcDbPolyline
 90
        2
 70
     1
 43
0.5
 10
-0.0625
 20
0.0
 42
1.0
 10
0.0625
 20
0.0
 42
1.0
  0
ENDBLK
  5
D3
330
D0
100
AcDbEntity
  8
0
100
AcDbBlockEnd
  0
BLOCK
  5
D8
330
D4
100
AcDbEntity
  8
0
100
AcDbBlockBegin
  2
_Origin2
 70
     0
 10
0.0
 20
0.0
 30
0.0
  3
_Origin2
  1

  0
CIRCLE
  5
D5
330
D4
100
AcDbEntity
  8
0
 62
     0
370
    -2
100
AcDbCircle
 10
0.0
 20
0.0
 30
0.0
 40
0.5
  0
CIRCLE
  5
D6
330
D4
100
AcDbEntity
  8
0
 62
     0
370
    -2
100
AcDbCircle
 10
0.0
 20
0.0
 30
0.0
 40
0.25
  0
LINE
  5
D7
330
D4
100
AcDbEntity
  8
0
 62
     0
370
    -2
100
AcDbLine
 10
-0.5
 20
0.0
 30
0.0
 11
-1.0
 21
0.0
 31
0.0
  0
ENDBLK
  5
D9
330
D4
100
AcDbEntity
  8
0
100
AcDbBlockEnd
  0
BLOCK
  5
DE
330
DA
100
AcDbEntity
  8
0
100
AcDbBlockBegin
  2
_Open30
 70
     0
 10
0.0
 20
0.0
 30
0.0
  3
_Open30
  1

  0
LINE
  5
DB
330
DA
100
AcDbEntity
  8
0
 62
     0
370
    -2
100
AcDbLine
 10
-1.0
 20
0.26794919
 30
0.0
 11
0.0
 21
0.0
 31
0.0
  0
LINE
  5
DC
330
DA
100
AcDbEntity
  8
0
 62
     0
370
    -2
100
AcDbLine
 10
0.0
 20
0.0
 30
0.0
 11
-1.0
 21
-0.26794919
 31
0.0
  0
LINE
  5
DD
330
DA
100
AcDbEntity
  8
0
 62
     0
370
    -2
100
AcDbLine
 10
0.0
 20
0.0
 30
0.0
 11
-1.0
 21
0.0
 31
0.0
  0
ENDBLK
  5
DF
330
DA
100
AcDbEntity
  8
0
100
AcDbBlockEnd
  0
BLOCK
  5
2E7
330
2D6
100
AcDbEntity
  8
0
100
AcDbBlockBegin
  2
A$C6CAC4411
 70
     0
 10
0.0
 20
0.0
 30
0.0
  3
A$C6CAC4411
  1

  0
TEXT
  5
2D7
330
2D6
100
AcDbEntity
  8
0
100
AcDbText
 10
176.2557717918098
 20
0.0000022116982912
 30
0.0
 40
40.0
  1
中外交易株式会社
 72
     4
 11
364.2557717918098
 21
20.0000022116983
 31
0.0
100
AcDbText
  0
LINE
  5
2D8
330
2D6
100
AcDbEntity
  8
0
100
AcDbLine
 10
-0.0000028735375963
 20
52.5000022116983
 30
0.0
 11
599.9999971264624
 21
52.5000022116983
 31
0.0
  0
HATCH
  5
2D9
330
2D6
100
AcDbEntity
  8
実形
100
AcDbHatch
 10
0.0
 20
0.0
 30
0.0
210
0.0
220
0.0
230
1.0
  2
SOLID
 70
     1
 71
     1
 91
        3
 92
        1
 93
        4
 72
     2
 10
133.1661954404576
 20
20.0000022116983
 40
20.0
 50
11.64772366707622
 51
342.6561058784662
 73
     1
 72
     1
 10
152.2568494677857
 20
14.03787769028346
 11
128.1661954404576
 21
14.03787769028349
 72
     1
 10
128.1661954404576
 20
14.03787769028349
 11
128.1661954404576
 21
24.0378776902835
 72
     1
 10
128.1661954404576
 20
24.0378776902835
 11
152.7543439394721
 21
24.0378776902835
 97
        4
330
2DF
330
2DC
330
2E0
330
2DD
 92
        1
 93
        4
 72
     2
 10
64.25577179180982
 20
20.0000022116983
 40
20.0
 50
11.64772366707622
 51
342.6561058784662
 73
     1
 72
     1
 10
83.34642581913795
 20
14.03787769028346
 11
59.25577179180982
 21
14.03787769028349
 72
     1
 10
59.25577179180982
 20
14.03787769028349
 11
59.25577179180982
 21
24.0378776902835
 72
     1
 10
59.25577179180982
 20
24.0378776902835
 11
83.84392029082437
 21
24.0378776902835
 97
        4
330
2DE
330
2DB
330
2E1
330
2DA
 92
        1
 93
        5
 72
     1
 10
121.6418911694018
 20
40.0000022116983
 11
86.64189116940178
 21
40.0000022116983
 72
     1
 10
86.64189116940178
 20
40.0000022116983
 11
86.64189116940178
 21
0.0000022116983018
 72
     1
 10
86.64189116940178
 20
0.0000022116983018
 11
121.6418911694018
 21
0.0000022116983018
 72
     1
 10
121.6418911694018
 20
0.0000022116983018
 11
86.64189116940178
 21
20.0000022116983
 72
     1
 10
86.64189116940178
 20
20.0000022116983
 11
121.6418911694018
 21
40.0000022116983
 97
        5
330
2E2
330
2E3
330
2E5
330
2E6
330
2E4
 75
     0
 76
     1
 98
        1
 10
-2184.000002873538
 20
-16.4999977883017
  0
LINE
  5
2DA
102
{ACAD_REACTORS
330
2D9
102
}
330
2D6
100
AcDbEntity
  8
実形
370
     5
100
AcDbLine
 10
83.84392029082437
 20
24.0378776902835
 30
0.0
 11
59.25577179180982
 21
24.0378776902835
 31
0.0
  0
LINE
  5
2DB
102
{ACAD_REACTORS
330
2D9
102
}
330
2D6
100
AcDbEntity
  8
実形
370
     5
100
AcDbLine
 10
59.25577179180982
 20
14.03787769028349
 30
0.0
 11
83.34642581913795
 21
14.03787769028346
 31
0.0
  0
LINE
  5
2DC
102
{ACAD_REACTORS
330
2D9
102
}
330
2D6
100
AcDbEntity
  8
実形
370
     5
100
AcDbLine
 10
128.1661954404576
 20
14.03787769028349
 30
0.0
 11
152.2568494677857
 21
14.03787769028346
 31
0.0
  0
LINE
  5
2DD
102
{ACAD_REACTORS
330
2D9
102
}
330
2D6
100
AcDbEntity
  8
実形
370
     5
100
AcDbLine
 10
152.7543439394721
 20
24.0378776902835
 30
0.0
 11
128.1661954404576
 21
24.0378776902835
 31
0.0
  0
ARC
  5
2DE
102
{ACAD_REACTORS
330
2D9
102
}
330
2D6
100
AcDbEntity
  8
実形
370
     5
100
AcDbCircle
 10
64.25577179180982
 20
20.0000022116983
 30
0.0
 40
20.0
100
AcDbArc
 50
11.6477236670758
 51
342.6561058784691
  0
ARC
  5
2DF
102
{ACAD_REACTORS
330
2D9
102
}
330
2D6
100
AcDbEntity
  8
実形
370
     5
100
AcDbCircle
 10
133.1661954404576
 20
20.0000022116983
 30
0.0
 40
20.0
100
AcDbArc
 50
11.6477236670758
 51
342.6561058784691
  0
LINE
  5
2E0
102
{ACAD_REACTORS
330
2D9
102
}
330
2D6
100
AcDbEntity
  8
実形
370
     5
100
AcDbLine
 10
128.1661954404576
 20
24.0378776902835
 30
0.0
 11
128.1661954404576
 21
14.03787769028349
 31
0.0
  0
LINE
  5
2E1
102
{ACAD_REACTORS
330
2D9
102
}
330
2D6
100
AcDbEntity
  8
実形
370
     5
100
AcDbLine
 10
59.25577179180982
 20
24.0378776902835
 30
0.0
 11
59.25577179180982
 21
14.03787769028349
 31
0.0
  0
LINE
  5
2E2
102
{ACAD_REACTORS
330
2D9
102
}
330
2D6
100
AcDbEntity
  8
実形
370
     5
100
AcDbLine
 10
121.6418911694018
 20
40.0000022116983
 30
0.0
 11
86.64189116940178
 21
40.0000022116983
 31
0.0
  0
LINE
  5
2E3
102
{ACAD_REACTORS
330
2D9
102
}
330
2D6
100
AcDbEntity
  8
実形
370
     5
100
AcDbLine
 10
86.64189116940178
 20
40.0000022116983
 30
0.0
 11
86.64189116940178
 21
0.0000022116983018
 31
0.0
  0
LINE
  5
2E4
102
{ACAD_REACTORS
330
2D9
102
}
330
2D6
100
AcDbEntity
  8
実形
370
     5
100
AcDbLine
 10
86.64189116940178
 20
20.0000022116983
 30
0.0
 11
121.6418911694018
 21
40.0000022116983
 31
0.0
  0
LINE
  5
2E5
102
{ACAD_REACTORS
330
2D9
102
}
330
2D6
100
AcDbEntity
  8
実形
370
     5
100
AcDbLine
 10
86.64189116940178
 20
0.0000022116983018
 30
0.0
 11
121.6418911694018
 21
0.0000022116983018
 31
0.0
  0
LINE
  5
2E6
102
{ACAD_REACTORS
330
2D9
102
}
330
2D6
100
AcDbEntity
  8
実形
370
     5
100
AcDbLine
 10
121.6418911694018
 20
0.0000022116983018
 30
0.0
 11
86.64189116940178
 21
20.0000022116983
 31
0.0
  0
ENDBLK
  5
2E8
330
2D6
100
AcDbEntity
  8
0
100
AcDbBlockEnd
  0
BLOCK
  5
310
330
30D
100
AcDbEntity
  8
0
100
AcDbBlockBegin
  2
_Dot
 70
     0
 10
0.0
 20
0.0
 30
0.0
  3
_Dot
  1

  0
LWPOLYLINE
  5
30E
330
30D
100
AcDbEntity
  8
0
 62
     0
100
AcDbPolyline
 90
        2
 70
     1
 43
0.5
 10
-0.25
 20
0.0
 42
1.0
 10
0.25
 20
0.0
 42
1.0
  0
LINE
  5
30F
330
30D
100
AcDbEntity
  8
0
 62
     0
370
    -2
100
AcDbLine
 10
-0.5
 20
0.0
 30
0.0
 11
-1.0
 21
0.0
 31
0.0
  0
ENDBLK
  5
311
330
30D
100
AcDbEntity
  8
0
100
AcDbBlockEnd
  0
BLOCK
  5
3140
330
313C
100
AcDbEntity
  8
0
100
AcDbBlockBegin
  2
A$C6850087C
 70
     0
 10
0.0
 20
0.0
 30
0.0
  3
A$C6850087C
  1

  0
TEXT
  5
313D
330
313C
100
AcDbEntity
  8
実形
 62
     0
 48
20.0
100
AcDbText
 10
0.0
 20
0.0
 30
0.0
 40
40.0
  1
平面図
100
AcDbText
  0
ENDBLK
  5
3141
330
313C
100
AcDbEntity
  8
0
100
AcDbBlockEnd
  0
BLOCK
  5
384A
330
3846
100
AcDbEntity
  8
0
 62
     1
100
AcDbBlockBegin
  2
A$C71387EE1
 70
     0
 10
0.0
 20
0.0
 30
0.0
  3
A$C71387EE1
  1

  0
HATCH
  5
3847
330
3846
100
AcDbEntity
  8
実形
 62
     0
100
AcDbHatch
 10
0.0
 20
0.0
 30
0.0
210
0.0
220
0.0
230
1.0
  2
SOLID
 70
     1
 71
     0
 91
        1
 92
        7
 72
     1
 73
     1
 93
        2
 10
4.552685078746208
 20
-0.0000011660104065
 42
-1.0
 10
4.54872920619573
 20
9.101406589272301
 42
-1.0
 97
        0
 75
     0
 76
     1
 47
0.1166526434546944
 98
        1
 10
6.65106624868099
 20
3.151407247997667
  0
ENDBLK
  5
384B
330
3846
100
AcDbEntity
  8
0
 62
     1
100
AcDbBlockEnd
  0
BLOCK
  5
6B8B
330
6B87
100
AcDbEntity
  8
0
 62
     3
100
AcDbBlockBegin
  2
A$C47AF373A
 70
     0
 10
0.0
 20
0.0
 30
0.0
  3
A$C47AF373A
  1

  0
LINE
  5
6B88
330
6B87
100
AcDbEntity
  8
枠
 62
     0
100
AcDbLine
 10
-0.0000111344452307
 20
0.0000048001220421
 30
0.0
 11
-0.0000111344452307
 21
2020.000004800122
 31
0.0
  0
ENDBLK
  5
6B8C
330
6B87
100
AcDbEntity
  8
0
 62
     3
100
AcDbBlockEnd
  0
BLOCK
  5
6C04
330
6C00
100
AcDbEntity
  8
0
 62
     3
100
AcDbBlockBegin
  2
A$C2B9560D8
 70
     0
 10
0.0
 20
0.0
 30
0.0
  3
A$C2B9560D8
  1

  0
LINE
  5
6C01
330
6C00
100
AcDbEntity
  8
枠
 62
     0
100
AcDbLine
 10
-0.0000103150450741
 20
2020.000004800122
 30
0.0
 11
-0.0000103150450741
 21
0.0000048001220421
 31
0.0
  0
ENDBLK
  5
6C05
330
6C00
100
AcDbEntity
  8
0
 62
     3
100
AcDbBlockEnd
  0
BLOCK
  5
84D6
330
84D2
100
AcDbEntity
  8
0
 62
     3
100
AcDbBlockBegin
  2
A$C14192292
 70
     0
 10
0.0
 20
0.0
 30
0.0
  3
A$C14192292
  1

  0
TEXT
  5
84D3
330
84D2
100
AcDbEntity
  8
実形
100
AcDbText
 10
-0.0000020523254205
 20
-0.0000012915567518
 30
0.0
 40
25.0
  1
6R
 72
     2
 11
41.66666461434124
 21
-3.333334624890085
 31
0.0
100
AcDbText
 73
     1
  0
ENDBLK
  5
84D7
330
84D2
100
AcDbEntity
  8
0
 62
     3
100
AcDbBlockEnd
  0
BLOCK
  5
8514
330
850A
100
AcDbEntity
  8
0
 62
     3
100
AcDbBlockBegin
  2
*D11
 70
     1
 10
0.0
 20
0.0
 30
0.0
  3
*D11
  1

  0
LINE
  5
9DF6
330
850A
100
AcDbEntity
  8
実形
 62
     0
370
    18
100
AcDbLine
 10
832.7442641170682
 20
316.1147262471213
 30
0.0
 11
832.7442641170682
 21
289.7164880072969
 31
0.0
  0
LINE
  5
9DF7
330
850A
100
AcDbEntity
  8
実形
 62
     0
370
    18
100
AcDbLine
 10
990.7442641170682
 20
316.1147262471213
 30
0.0
 11
990.7442641170682
 21
289.7164880072969
 31
0.0
  0
LINE
  5
9DF8
330
850A
100
AcDbEntity
  8
実形
 62
     0
370
    18
100
AcDbLine
 10
842.7442641170681
 20
289.7164880072969
 30
0.0
 11
980.7442641170682
 21
289.7164880072969
 31
0.0
  0
INSERT
  5
9DF9
330
850A
100
AcDbEntity
  8
実形
 62
     0
370
    18
100
AcDbBlockReference
  2
_Dot
 10
832.7442641170682
 20
289.7164880072969
 30
0.0
 41
10.0
 42
10.0
 43
10.0
 50
180.0
  0
INSERT
  5
9DFA
330
850A
100
AcDbEntity
  8
実形
 62
     0
370
    18
100
AcDbBlockReference
  2
_Dot
 10
990.7442641170682
 20
289.7164880072969
 30
0.0
 41
10.0
 42
10.0
 43
10.0
  0
MTEXT
  5
9DFB
330
850A
100
AcDbEntity
  8
実形
 62
     0
100
AcDbMText
 10
911.7442641170683
 20
311.3164880072969
 30
0.0
 40
30.0
 41
0.0
 71
     5
 72
     1
  1
158
 73
     1
 44
1.0
1001
ACAD
1000
MTEXTBEGIN
1070
    73
1070
     1
1070
    44
1040
1.0
1070
    74
1070
     0
1000
MTEXTEND
  0
POINT
  5
9DFC
330
850A
100
AcDbEntity
  8
Defpoints
 62
     0
100
AcDbPoint
 10
832.7442641170682
 20
381.1147262471213
 30
0.0
  0
POINT
  5
9DFD
330
850A
100
AcDbEntity
  8
Defpoints
 62
     0
100
AcDbPoint
 10
990.7442641170682
 20
381.1147262471213
 30
0.0
  0
POINT
  5
9DFE
330
850A
100
AcDbEntity
  8
Defpoints
 62
     0
100
AcDbPoint
 10
990.7442641170682
 20
289.7164880072969
 30
0.0
  0
ENDBLK
  5
8515
330
850A
100
AcDbEntity
  8
0
 62
     3
100
AcDbBlockEnd
  0
BLOCK
  5
85E9
330
85E5
100
AcDbEntity
  8
0
 62
     3
100
AcDbBlockBegin
  2
A$C0B4A6642
 70
     0
 10
0.0
 20
0.0
 30
0.0
  3
A$C0B4A6642
  1

  0
TEXT
  5
85E6
330
85E5
100
AcDbEntity
  8
実形
100
AcDbText
 10
24.99999914899665
 20
0.0000001903276474
 30
0.0
 40
25.0
  1
7
 50
90.0
 72
     2
 11
28.33333248232998
 21
16.66666685699431
 31
0.0
100
AcDbText
 73
     1
  0
ENDBLK
  5
85EA
330
85E5
100
AcDbEntity
  8
0
 62
     3
100
AcDbBlockEnd
  0
BLOCK
  5
87DE
330
87D4
100
AcDbEntity
  8
0
 62
     3
100
AcDbBlockBegin
  2
*D13
 70
     1
 10
0.0
 20
0.0
 30
0.0
  3
*D13
  1

  0
LINE
  5
9905
330
87D4
100
AcDbEntity
  8
実形
 62
     0
370
    18
100
AcDbLine
 10
1796.633903369764
 20
1280.032765817214
 30
0.0
 11
1823.032141609589
 21
1280.032765817214
 31
0.0
  0
LINE
  5
9906
330
87D4
100
AcDbEntity
  8
実形
 62
     0
370
    18
100
AcDbLine
 10
1796.633903369764
 20
1438.032765817214
 30
0.0
 11
1823.032141609589
 21
1438.032765817214
 31
0.0
  0
LINE
  5
9907
330
87D4
100
AcDbEntity
  8
実形
 62
     0
370
    18
100
AcDbLine
 10
1823.032141609589
 20
1290.032765817214
 30
0.0
 11
1823.032141609589
 21
1428.032765817214
 31
0.0
  0
INSERT
  5
9908
330
87D4
100
AcDbEntity
  8
実形
 62
     0
370
    18
100
AcDbBlockReference
  2
_Dot
 10
1823.032141609589
 20
1280.032765817214
 30
0.0
 41
10.0
 42
10.0
 43
10.0
 50
270.0
  0
INSERT
  5
9909
330
87D4
100
AcDbEntity
  8
実形
 62
     0
370
    18
100
AcDbBlockReference
  2
_Dot
 10
1823.032141609589
 20
1438.032765817214
 30
0.0
 41
10.0
 42
10.0
 43
10.0
 50
90.0
  0
MTEXT
  5
990A
330
87D4
100
AcDbEntity
  8
実形
 62
     0
100
AcDbMText
 10
1801.432141609588
 20
1359.032765817214
 30
0.0
 40
30.0
 41
0.0
 71
     5
 72
     1
  1
158
 11
0.0000000000000001
 21
1.0
 31
0.0
 73
     1
 44
1.0
1001
ACAD
1000
MTEXTBEGIN
1070
    73
1070
     1
1070
    44
1040
1.0
1070
    74
1070
     0
1000
MTEXTEND
  0
POINT
  5
990B
330
87D4
100
AcDbEntity
  8
Defpoints
 62
     0
100
AcDbPoint
 10
1731.633903369764
 20
1280.032765817214
 30
0.0
  0
POINT
  5
990C
330
87D4
100
AcDbEntity
  8
Defpoints
 62
     0
100
AcDbPoint
 10
1731.633903369764
 20
1438.032765817214
 30
0.0
  0
POINT
  5
990D
330
87D4
100
AcDbEntity
  8
Defpoints
 62
     0
100
AcDbPoint
 10
1823.032141609589
 20
1438.032765817214
 30
0.0
  0
ENDBLK
  5
87DF
330
87D4
100
AcDbEntity
  8
0
 62
     3
100
AcDbBlockEnd
  0
BLOCK
  5
87EA
330
87E0
100
AcDbEntity
  8
0
 62
     3
100
AcDbBlockBegin
  2
*D14
 70
     1
 10
0.0
 20
0.0
 30
0.0
  3
*D14
  1

  0
LINE
  5
98FC
330
87E0
100
AcDbEntity
  8
実形
 62
     0
370
    18
100
AcDbLine
 10
1673.766988216205
 20
1268.532765817214
 30
0.0
 11
1644.525840931817
 21
1268.532765817214
 31
0.0
  0
LINE
  5
98FD
330
87E0
100
AcDbEntity
  8
実形
 62
     0
370
    18
100
AcDbLine
 10
1673.766988216205
 20
1449.532765817214
 30
0.0
 11
1644.525840931817
 21
1449.532765817214
 31
0.0
  0
LINE
  5
98FE
330
87E0
100
AcDbEntity
  8
実形
 62
     0
370
    18
100
AcDbLine
 10
1644.525840931817
 20
1278.532765817214
 30
0.0
 11
1644.525840931817
 21
1439.532765817214
 31
0.0
  0
INSERT
  5
98FF
330
87E0
100
AcDbEntity
  8
実形
 62
     0
370
    18
100
AcDbBlockReference
  2
_Dot
 10
1644.525840931817
 20
1268.532765817214
 30
0.0
 41
10.0
 42
10.0
 43
10.0
 50
270.0
  0
INSERT
  5
9900
330
87E0
100
AcDbEntity
  8
実形
 62
     0
370
    18
100
AcDbBlockReference
  2
_Dot
 10
1644.525840931817
 20
1449.532765817214
 30
0.0
 41
10.0
 42
10.0
 43
10.0
 50
90.0
  0
MTEXT
  5
9901
330
87E0
100
AcDbEntity
  8
実形
 62
     0
100
AcDbMText
 10
1622.925840931817
 20
1359.032765817214
 30
0.0
 40
30.0
 41
0.0
 71
     5
 72
     1
  1
181
 11
0.0000000000000001
 21
1.0
 31
0.0
 73
     1
 44
1.0
1001
ACAD
1000
MTEXTBEGIN
1070
    73
1070
     1
1070
    44
1040
1.0
1070
    74
1070
     0
1000
MTEXTEND
  0
POINT
  5
9902
330
87E0
100
AcDbEntity
  8
Defpoints
 62
     0
100
AcDbPoint
 10
1738.766988216205
 20
1268.532765817214
 30
0.0
  0
POINT
  5
9903
330
87E0
100
AcDbEntity
  8
Defpoints
 62
     0
100
AcDbPoint
 10
1738.766988216205
 20
1449.532765817214
 30
0.0
  0
POINT
  5
9904
330
87E0
100
AcDbEntity
  8
Defpoints
 62
     0
100
AcDbPoint
 10
1644.525840931817
 20
1449.532765817214
 30
0.0
  0
ENDBLK
  5
87EB
330
87E0
100
AcDbEntity
  8
0
 62
     3
100
AcDbBlockEnd
  0
BLOCK
  5
87F6
330
87EC
100
AcDbEntity
  8
0
 62
     3
100
AcDbBlockBegin
  2
*D15
 70
     1
 10
0.0
 20
0.0
 30
0.0
  3
*D15
  1

  0
LINE
  5
98F3
330
87EC
100
AcDbEntity
  8
実形
 62
     0
370
    18
100
AcDbLine
 10
1673.766988216205
 20
1258.532765817214
 30
0.0
 11
1644.525840931817
 21
1258.532765817214
 31
0.0
  0
LINE
  5
98F4
330
87EC
100
AcDbEntity
  8
実形
 62
     0
370
    18
100
AcDbLine
 10
1673.766988216205
 20
1449.532765817214
 30
0.0
 11
1644.525840931817
 21
1449.532765817214
 31
0.0
  0
LINE
  5
98F5
330
87EC
100
AcDbEntity
  8
実形
 62
     0
370
    18
100
AcDbLine
 10
1644.525840931817
 20
1268.532765817214
 30
0.0
 11
1644.525840931817
 21
1439.532765817214
 31
0.0
  0
MTEXT
  5
98F6
330
87EC
100
AcDbEntity
  8
実形
 62
     0
100
AcDbMText
 10
1622.925840931818
 20
1260.306153711147
 30
0.0
 40
30.0
 41
0.0
 71
     5
 72
     1
  1
10
 11
0.0000000000000001
 21
1.0
 31
0.0
 73
     1
 44
1.0
1001
ACAD
1000
MTEXTBEGIN
1070
    73
1070
     1
1070
    44
1040
1.0
1070
    74
1070
     0
1000
MTEXTEND
  0
INSERT
  5
98F7
330
87EC
100
AcDbEntity
  8
実形
 62
     0
370
    18
100
AcDbBlockReference
  2
_Dot
 10
1644.525840931817
 20
1258.532765817214
 30
0.0
 41
10.0
 42
10.0
 43
10.0
 50
270.0
  0
INSERT
  5
98F8
330
87EC
100
AcDbEntity
  8
実形
 62
     0
370
    18
100
AcDbBlockReference
  2
_Dot
 10
1644.525840931817
 20
1449.532765817214
 30
0.0
 41
10.0
 42
10.0
 43
10.0
 50
90.0
  0
POINT
  5
98F9
330
87EC
100
AcDbEntity
  8
Defpoints
 62
     0
100
AcDbPoint
 10
1738.766988216205
 20
1258.532765817214
 30
0.0
  0
POINT
  5
98FA
330
87EC
100
AcDbEntity
  8
Defpoints
 62
     0
100
AcDbPoint
 10
1738.766988216205
 20
1449.532765817214
 30
0.0
  0
POINT
  5
98FB
330
87EC
100
AcDbEntity
  8
Defpoints
 62
     0
100
AcDbPoint
 10
1644.525840931817
 20
1449.532765817214
 30
0.0
  0
ENDBLK
  5
87F7
330
87EC
100
AcDbEntity
  8
0
 62
     3
100
AcDbBlockEnd
  0
BLOCK
  5
8802
330
87F8
100
AcDbEntity
  8
0
 62
     3
100
AcDbBlockBegin
  2
*D16
 70
     1
 10
0.0
 20
0.0
 30
0.0
  3
*D16
  1

  0
LINE
  5
98EA
330
87F8
100
AcDbEntity
  8
実形
 62
     0
370
    18
100
AcDbLine
 10
1673.766988216205
 20
1268.532765817214
 30
0.0
 11
1644.525840931817
 21
1268.532765817214
 31
0.0
  0
LINE
  5
98EB
330
87F8
100
AcDbEntity
  8
実形
 62
     0
370
    18
100
AcDbLine
 10
1673.766988216205
 20
1459.532765817214
 30
0.0
 11
1644.525840931817
 21
1459.532765817214
 31
0.0
  0
LINE
  5
98EC
330
87F8
100
AcDbEntity
  8
実形
 62
     0
370
    18
100
AcDbLine
 10
1644.525840931817
 20
1278.532765817214
 30
0.0
 11
1644.525840931817
 21
1449.532765817214
 31
0.0
  0
MTEXT
  5
98ED
330
87F8
100
AcDbEntity
  8
実形
 62
     0
100
AcDbMText
 10
1620.026791453226
 20
1438.741877007812
 30
0.0
 40
30.0
 41
0.0
 71
     5
 72
     1
  1
10
 11
0.0000000000000001
 21
1.0
 31
0.0
 73
     1
 44
1.0
1001
ACAD
1000
MTEXTBEGIN
1070
    73
1070
     1
1070
    44
1040
1.0
1070
    74
1070
     0
1000
MTEXTEND
  0
INSERT
  5
98EE
330
87F8
100
AcDbEntity
  8
実形
 62
     0
370
    18
100
AcDbBlockReference
  2
_Dot
 10
1644.525840931817
 20
1268.532765817214
 30
0.0
 41
10.0
 42
10.0
 43
10.0
 50
270.0
  0
INSERT
  5
98EF
330
87F8
100
AcDbEntity
  8
実形
 62
     0
370
    18
100
AcDbBlockReference
  2
_Dot
 10
1644.525840931817
 20
1459.532765817214
 30
0.0
 41
10.0
 42
10.0
 43
10.0
 50
90.0
  0
POINT
  5
98F0
330
87F8
100
AcDbEntity
  8
Defpoints
 62
     0
100
AcDbPoint
 10
1738.766988216205
 20
1268.532765817214
 30
0.0
  0
POINT
  5
98F1
330
87F8
100
AcDbEntity
  8
Defpoints
 62
     0
100
AcDbPoint
 10
1738.766988216205
 20
1459.532765817214
 30
0.0
  0
POINT
  5
98F2
330
87F8
100
AcDbEntity
  8
Defpoints
 62
     0
100
AcDbPoint
 10
1644.525840931817
 20
1459.532765817214
 30
0.0
  0
ENDBLK
  5
8803
330
87F8
100
AcDbEntity
  8
0
 62
     3
100
AcDbBlockEnd
  0
BLOCK
  5
904B
330
9041
100
AcDbEntity
  8
0
 62
     3
100
AcDbBlockBegin
  2
*D17
 70
     1
 10
0.0
 20
0.0
 30
0.0
  3
*D17
  1

  0
LINE
  5
A1C5
330
9041
100
AcDbEntity
  8
実形
 62
     0
370
    18
100
AcDbLine
 10
1355.353241046854
 20
563.98164140068
 30
0.0
 11
1381.956784028029
 21
563.98164140068
 31
0.0
  0
LINE
  5
A1C6
330
9041
100
AcDbEntity
  8
実形
 62
     0
370
    18
100
AcDbLine
 10
1355.353241046854
 20
513.9816414006788
 30
0.0
 11
1381.956784028029
 21
513.9816414006788
 31
0.0
  0
LINE
  5
A1C7
330
9041
100
AcDbEntity
  8
実形
 62
     0
370
    18
100
AcDbLine
 10
1381.956784028029
 20
553.98164140068
 30
0.0
 11
1381.956784028029
 21
523.9816414006789
 31
0.0
  0
MTEXT
  5
A1C8
330
9041
100
AcDbEntity
  8
実形
 62
     0
100
AcDbMText
 10
1357.360571194502
 20
537.8571274340556
 30
0.0
 40
25.0
 41
0.0
 71
     5
 72
     1
  1
50
 11
0.0000000000000001
 21
1.0
 31
0.0
 73
     1
 44
1.0
1001
ACAD
1000
MTEXTBEGIN
1070
    73
1070
     1
1070
    44
1040
1.0
1070
    74
1070
     0
1000
MTEXTEND
  0
INSERT
  5
A1C9
330
9041
100
AcDbEntity
  8
実形
 62
     0
370
    18
100
AcDbBlockReference
  2
_Dot
 10
1381.956784028029
 20
563.98164140068
 30
0.0
 41
10.0
 42
10.0
 43
10.0
 50
90.0
  0
INSERT
  5
A1CA
330
9041
100
AcDbEntity
  8
実形
 62
     0
370
    18
100
AcDbBlockReference
  2
_Dot
 10
1381.956784028029
 20
513.9816414006788
 30
0.0
 41
10.0
 42
10.0
 43
10.0
 50
270.0
  0
POINT
  5
A1CB
330
9041
100
AcDbEntity
  8
Defpoints
 62
     0
100
AcDbPoint
 10
1290.353241046854
 20
563.98164140068
 30
0.0
  0
POINT
  5
A1CC
330
9041
100
AcDbEntity
  8
Defpoints
 62
     0
100
AcDbPoint
 10
1290.353241046854
 20
513.9816414006788
 30
0.0
  0
POINT
  5
A1CD
330
9041
100
AcDbEntity
  8
Defpoints
 62
     0
100
AcDbPoint
 10
1381.956784028029
 20
513.9816414006788
 30
0.0
  0
ENDBLK
  5
904C
330
9041
100
AcDbEntity
  8
0
 62
     3
100
AcDbBlockEnd
  0
BLOCK
  5
910E
330
9102
100
AcDbEntity
  8
0
 62
     3
100
AcDbBlockBegin
  2
*D18
 70
     1
 10
0.0
 20
0.0
 30
0.0
  3
*D18
  1

  0
LINE
  5
A1CE
330
9102
100
AcDbEntity
  8
実形
 62
     0
370
    18
100
AcDbLine
 10
1355.353241046854
 20
513.9816414006788
 30
0.0
 11
1381.956784028029
 21
513.9816414006788
 31
0.0
  0
LINE
  5
A1CF
330
9102
100
AcDbEntity
  8
実形
 62
     0
370
    18
100
AcDbLine
 10
1355.353241046854
 20
488.981641400679
 30
0.0
 11
1381.956784028029
 21
488.981641400679
 31
0.0
  0
LINE
  5
A1D0
330
9102
100
AcDbEntity
  8
実形
 62
     0
370
    18
100
AcDbLine
 10
1381.956784028029
 20
523.9816414006789
 30
0.0
 11
1381.956784028029
 21
533.9816414006788
 31
0.0
  0
LINE
  5
A1D1
330
9102
100
AcDbEntity
  8
実形
 62
     0
370
    18
100
AcDbLine
 10
1381.956784028029
 20
478.9816414006789
 30
0.0
 11
1381.956784028029
 21
468.981641400679
 31
0.0
  0
MTEXT
  5
A1D2
330
9102
100
AcDbEntity
  8
実形
 62
     0
100
AcDbMText
 10
1408.003583340511
 20
503.7202430201559
 30
0.0
 40
25.0
 41
0.0
 71
     5
 72
     1
  1
25
 11
0.0000000000000001
 21
1.0
 31
0.0
 73
     1
 44
1.0
1001
ACAD
1000
MTEXTBEGIN
1070
    73
1070
     1
1070
    44
1040
1.0
1070
    74
1070
     0
1000
MTEXTEND
  0
LINE
  5
A1D3
330
9102
100
AcDbEntity
  8
実形
 62
     0
370
    18
100
AcDbLine
 10
1381.956784028029
 20
513.9816414006788
 30
0.0
 11
1381.956784028029
 21
488.981641400679
 31
0.0
  0
INSERT
  5
A1D4
330
9102
100
AcDbEntity
  8
実形
 62
     0
370
    18
100
AcDbBlockReference
  2
_Dot
 10
1381.956784028029
 20
513.9816414006788
 30
0.0
 41
10.0
 42
10.0
 43
10.0
 50
270.0
  0
INSERT
  5
A1D5
330
9102
100
AcDbEntity
  8
実形
 62
     0
370
    18
100
AcDbBlockReference
  2
_Dot
 10
1381.956784028029
 20
488.981641400679
 30
0.0
 41
10.0
 42
10.0
 43
10.0
 50
90.0
  0
POINT
  5
A1D6
330
9102
100
AcDbEntity
  8
Defpoints
 62
     0
100
AcDbPoint
 10
1290.353241046854
 20
513.9816414006788
 30
0.0
  0
POINT
  5
A1D7
330
9102
100
AcDbEntity
  8
Defpoints
 62
     0
100
AcDbPoint
 10
1290.353241046854
 20
488.981641400679
 30
0.0
  0
POINT
  5
A1D8
330
9102
100
AcDbEntity
  8
Defpoints
 62
     0
100
AcDbPoint
 10
1381.956784028029
 20
488.981641400679
 30
0.0
  0
ENDBLK
  5
910F
330
9102
100
AcDbEntity
  8
0
 62
     3
100
AcDbBlockEnd
  0
BLOCK
  5
9143
330
9139
100
AcDbEntity
  8
0
 62
     3
100
AcDbBlockBegin
  2
*D19
 70
     1
 10
0.0
 20
0.0
 30
0.0
  3
*D19
  1

  0
LINE
  5
A1D9
330
9139
100
AcDbEntity
  8
実形
 62
     0
370
    18
100
AcDbLine
 10
1355.353241046854
 20
473.9816414006789
 30
0.0
 11
1381.956784028028
 21
473.9816414006789
 31
0.0
  0
LINE
  5
A1DA
330
9139
100
AcDbEntity
  8
実形
 62
     0
370
    18
100
AcDbLine
 10
1355.353241046854
 20
513.9816414006788
 30
0.0
 11
1381.956784028029
 21
513.9816414006788
 31
0.0
  0
LINE
  5
A1DB
330
9139
100
AcDbEntity
  8
実形
 62
     0
370
    18
100
AcDbLine
 10
1381.956784028028
 20
483.9816414006788
 30
0.0
 11
1381.956784028028
 21
503.9816414006789
 31
0.0
  0
MTEXT
  5
A1DC
330
9139
100
AcDbEntity
  8
実形
 62
     0
100
AcDbMText
 10
1375.374232530543
 20
443.0080318834898
 30
0.0
 40
25.0
 41
0.0
 71
     5
 72
     1
  1
15
 11
0.0000000000000001
 21
1.0
 31
0.0
 73
     1
 44
1.0
1001
ACAD
1000
MTEXTBEGIN
1070
    73
1070
     1
1070
    44
1040
1.0
1070
    74
1070
     0
1000
MTEXTEND
  0
INSERT
  5
A1DD
330
9139
100
AcDbEntity
  8
実形
 62
     0
370
    18
100
AcDbBlockReference
  2
_Dot
 10
1381.956784028028
 20
473.9816414006789
 30
0.0
 41
10.0
 42
10.0
 43
10.0
 50
270.0
  0
INSERT
  5
A1DE
330
9139
100
AcDbEntity
  8
実形
 62
     0
370
    18
100
AcDbBlockReference
  2
_Dot
 10
1381.956784028029
 20
513.9816414006788
 30
0.0
 41
10.0
 42
10.0
 43
10.0
 50
90.0
  0
POINT
  5
A1DF
330
9139
100
AcDbEntity
  8
Defpoints
 62
     0
100
AcDbPoint
 10
1290.353241046854
 20
473.9816414006789
 30
0.0
  0
POINT
  5
A1E0
330
9139
100
AcDbEntity
  8
Defpoints
 62
     0
100
AcDbPoint
 10
1290.353241046854
 20
513.9816414006788
 30
0.0
  0
POINT
  5
A1E1
330
9139
100
AcDbEntity
  8
Defpoints
 62
     0
100
AcDbPoint
 10
1381.956784028029
 20
513.9816414006788
 30
0.0
  0
ENDBLK
  5
9144
330
9139
100
AcDbEntity
  8
0
 62
     3
100
AcDbBlockEnd
  0
BLOCK
  5
9178
330
916E
100
AcDbEntity
  8
0
 62
     3
100
AcDbBlockBegin
  2
*D20
 70
     1
 10
0.0
 20
0.0
 30
0.0
  3
*D20
  1

  0
LINE
  5
A1E2
330
916E
100
AcDbEntity
  8
実形
 62
     0
370
    18
100
AcDbLine
 10
1433.254006069744
 20
513.9816414006788
 30
0.0
 11
1465.576351889016
 21
513.9816414006788
 31
0.0
  0
LINE
  5
A1E3
330
916E
100
AcDbEntity
  8
実形
 62
     0
370
    18
100
AcDbLine
 10
1377.414698906052
 20
473.9816414006789
 30
0.0
 11
1465.576351889016
 21
473.9816414006788
 31
0.0
  0
LINE
  5
A1E4
330
916E
100
AcDbEntity
  8
実形
 62
     0
370
    18
100
AcDbLine
 10
1465.576351889016
 20
503.9816414006788
 30
0.0
 11
1465.576351889016
 21
483.9816414006788
 31
0.0
  0
MTEXT
  5
A1E5
330
916E
100
AcDbEntity
  8
実形
 62
     0
100
AcDbMText
 10
1493.739102381372
 20
494.5163988079166
 30
0.0
 40
25.0
 41
0.0
 71
     5
 72
     1
  1
40
 11
0.0000000000000001
 21
1.0
 31
0.0
 73
     1
 44
1.0
1001
ACAD
1000
MTEXTBEGIN
1070
    73
1070
     1
1070
    44
1040
1.0
1070
    74
1070
     0
1000
MTEXTEND
  0
INSERT
  5
A1E6
330
916E
100
AcDbEntity
  8
実形
 62
     0
370
    18
100
AcDbBlockReference
  2
_Dot
 10
1465.576351889016
 20
513.9816414006788
 30
0.0
 41
10.0
 42
10.0
 43
10.0
 50
90.0
  0
INSERT
  5
A1E7
330
916E
100
AcDbEntity
  8
実形
 62
     0
370
    18
100
AcDbBlockReference
  2
_Dot
 10
1465.576351889016
 20
473.9816414006788
 30
0.0
 41
10.0
 42
10.0
 43
10.0
 50
270.0
  0
POINT
  5
A1E8
330
916E
100
AcDbEntity
  8
Defpoints
 62
     0
100
AcDbPoint
 10
1368.254006069745
 20
513.9816414006788
 30
0.0
  0
POINT
  5
A1E9
330
916E
100
AcDbEntity
  8
Defpoints
 62
     0
100
AcDbPoint
 10
1312.414698906052
 20
473.9816414006789
 30
0.0
  0
POINT
  5
A1EA
330
916E
100
AcDbEntity
  8
Defpoints
 62
     0
100
AcDbPoint
 10
1465.576351889016
 20
473.9816414006788
 30
0.0
  0
ENDBLK
  5
9179
330
916E
100
AcDbEntity
  8
0
 62
     3
100
AcDbBlockEnd
  0
BLOCK
  5
91E5
330
91DB
100
AcDbEntity
  8
0
 62
     3
100
AcDbBlockBegin
  2
*D21
 70
     1
 10
0.0
 20
0.0
 30
0.0
  3
*D21
  1

  0
LINE
  5
9E25
330
91DB
100
AcDbEntity
  8
実形
 62
     0
370
    18
100
AcDbLine
 10
581.7442641170686
 20
628.9816414006801
 30
0.0
 11
581.7442641170686
 21
665.1027642972703
 31
0.0
  0
LINE
  5
9E26
330
91DB
100
AcDbEntity
  8
実形
 62
     0
370
    18
100
AcDbLine
 10
1241.744264117069
 20
628.9816414006801
 30
0.0
 11
1241.744264117069
 21
665.1027642972703
 31
0.0
  0
LINE
  5
9E27
330
91DB
100
AcDbEntity
  8
実形
 62
     0
370
    18
100
AcDbLine
 10
591.7442641170687
 20
665.1027642972703
 30
0.0
 11
1231.744264117069
 21
665.1027642972703
 31
0.0
  0
INSERT
  5
9E28
330
91DB
100
AcDbEntity
  8
実形
 62
     0
370
    18
100
AcDbBlockReference
  2
_Dot
 10
581.7442641170686
 20
665.1027642972703
 30
0.0
 41
10.0
 42
10.0
 43
10.0
 50
180.0
  0
INSERT
  5
9E29
330
91DB
100
AcDbEntity
  8
実形
 62
     0
370
    18
100
AcDbBlockReference
  2
_Dot
 10
1241.744264117069
 20
665.1027642972703
 30
0.0
 41
10.0
 42
10.0
 43
10.0
  0
MTEXT
  5
9E2A
330
91DB
100
AcDbEntity
  8
実形
 62
     0
100
AcDbMText
 10
911.7442641170686
 20
686.7027642972703
 30
0.0
 40
30.0
 41
0.0
 71
     5
 72
     1
  1
660
 73
     1
 44
1.0
1001
ACAD
1000
MTEXTBEGIN
1070
    73
1070
     1
1070
    44
1040
1.0
1070
    74
1070
     0
1000
MTEXTEND
  0
POINT
  5
9E2B
330
91DB
100
AcDbEntity
  8
Defpoints
 62
     0
100
AcDbPoint
 10
581.7442641170686
 20
563.9816414006801
 30
0.0
  0
POINT
  5
9E2C
330
91DB
100
AcDbEntity
  8
Defpoints
 62
     0
100
AcDbPoint
 10
1241.744264117069
 20
563.9816414006801
 30
0.0
  0
POINT
  5
9E2D
330
91DB
100
AcDbEntity
  8
Defpoints
 62
     0
100
AcDbPoint
 10
1241.744264117069
 20
665.1027642972703
 30
0.0
  0
ENDBLK
  5
91E6
330
91DB
100
AcDbEntity
  8
0
 62
     3
100
AcDbBlockEnd
  0
BLOCK
  5
91F2
330
91E8
100
AcDbEntity
  8
0
 62
     3
100
AcDbBlockBegin
  2
*D22
 70
     1
 10
0.0
 20
0.0
 30
0.0
  3
*D22
  1

  0
LINE
  5
9E2E
330
91E8
100
AcDbEntity
  8
実形
 62
     0
370
    18
100
AcDbLine
 10
1241.744264117069
 20
628.9816414006801
 30
0.0
 11
1241.744264117069
 21
665.1027642972703
 31
0.0
  0
LINE
  5
9E2F
330
91E8
100
AcDbEntity
  8
実形
 62
     0
370
    18
100
AcDbLine
 10
1291.744264117069
 20
628.9816414006788
 30
0.0
 11
1291.744264117069
 21
665.1027642972703
 31
0.0
  0
LINE
  5
9E30
330
91E8
100
AcDbEntity
  8
実形
 62
     0
370
    18
100
AcDbLine
 10
1251.744264117069
 20
665.1027642972703
 30
0.0
 11
1281.744264117069
 21
665.1027642972703
 31
0.0
  0
MTEXT
  5
9E31
330
91E8
100
AcDbEntity
  8
実形
 62
     0
100
AcDbMText
 10
1266.744264117068
 20
690.0027642972703
 30
0.0
 40
30.0
 41
0.0
 71
     5
 72
     1
  1
50
 73
     1
 44
1.0
1001
ACAD
1000
MTEXTBEGIN
1070
    73
1070
     1
1070
    44
1040
1.0
1070
    74
1070
     0
1000
MTEXTEND
  0
INSERT
  5
9E32
330
91E8
100
AcDbEntity
  8
実形
 62
     0
370
    18
100
AcDbBlockReference
  2
_Dot
 10
1241.744264117069
 20
665.1027642972703
 30
0.0
 41
10.0
 42
10.0
 43
10.0
 50
180.0
  0
INSERT
  5
9E33
330
91E8
100
AcDbEntity
  8
実形
 62
     0
370
    18
100
AcDbBlockReference
  2
_Dot
 10
1291.744264117069
 20
665.1027642972703
 30
0.0
 41
10.0
 42
10.0
 43
10.0
  0
POINT
  5
9E34
330
91E8
100
AcDbEntity
  8
Defpoints
 62
     0
100
AcDbPoint
 10
1241.744264117069
 20
563.9816414006801
 30
0.0
  0
POINT
  5
9E35
330
91E8
100
AcDbEntity
  8
Defpoints
 62
     0
100
AcDbPoint
 10
1291.744264117069
 20
563.9816414006788
 30
0.0
  0
POINT
  5
9E36
330
91E8
100
AcDbEntity
  8
Defpoints
 62
     0
100
AcDbPoint
 10
1291.744264117069
 20
665.1027642972703
 30
0.0
  0
ENDBLK
  5
91F3
330
91E8
100
AcDbEntity
  8
0
 62
     3
100
AcDbBlockEnd
  0
BLOCK
  5
91FF
330
91F5
100
AcDbEntity
  8
0
 62
     3
100
AcDbBlockBegin
  2
*D23
 70
     1
 10
0.0
 20
0.0
 30
0.0
  3
*D23
  1

  0
LINE
  5
9E37
330
91F5
100
AcDbEntity
  8
実形
 62
     0
370
    18
100
AcDbLine
 10
531.7442641170686
 20
628.98164140068
 30
0.0
 11
531.7442641170686
 21
665.1027642972703
 31
0.0
  0
LINE
  5
9E38
330
91F5
100
AcDbEntity
  8
実形
 62
     0
370
    18
100
AcDbLine
 10
581.7442641170686
 20
628.98164140068
 30
0.0
 11
581.7442641170686
 21
665.1027642972703
 31
0.0
  0
LINE
  5
9E39
330
91F5
100
AcDbEntity
  8
実形
 62
     0
370
    18
100
AcDbLine
 10
541.7442641170687
 20
665.1027642972703
 30
0.0
 11
571.7442641170687
 21
665.1027642972703
 31
0.0
  0
MTEXT
  5
9E3A
330
91F5
100
AcDbEntity
  8
実形
 62
     0
100
AcDbMText
 10
556.7442641170686
 20
690.0027642972703
 30
0.0
 40
30.0
 41
0.0
 71
     5
 72
     1
  1
50
 73
     1
 44
1.0
1001
ACAD
1000
MTEXTBEGIN
1070
    73
1070
     1
1070
    44
1040
1.0
1070
    74
1070
     0
1000
MTEXTEND
  0
INSERT
  5
9E3B
330
91F5
100
AcDbEntity
  8
実形
 62
     0
370
    18
100
AcDbBlockReference
  2
_Dot
 10
531.7442641170686
 20
665.1027642972703
 30
0.0
 41
10.0
 42
10.0
 43
10.0
 50
180.0
  0
INSERT
  5
9E3C
330
91F5
100
AcDbEntity
  8
実形
 62
     0
370
    18
100
AcDbBlockReference
  2
_Dot
 10
581.7442641170686
 20
665.1027642972703
 30
0.0
 41
10.0
 42
10.0
 43
10.0
  0
POINT
  5
9E3D
330
91F5
100
AcDbEntity
  8
Defpoints
 62
     0
100
AcDbPoint
 10
531.7442641170686
 20
563.98164140068
 30
0.0
  0
POINT
  5
9E3E
330
91F5
100
AcDbEntity
  8
Defpoints
 62
     0
100
AcDbPoint
 10
581.7442641170686
 20
563.98164140068
 30
0.0
  0
POINT
  5
9E3F
330
91F5
100
AcDbEntity
  8
Defpoints
 62
     0
100
AcDbPoint
 10
581.7442641170686
 20
665.1027642972703
 30
0.0
  0
ENDBLK
  5
9200
330
91F5
100
AcDbEntity
  8
0
 62
     3
100
AcDbBlockEnd
  0
BLOCK
  5
925B
330
925A
100
AcDbEntity
  8
0
 62
     3
100
AcDbBlockBegin
  2
*D24
 70
     1
 10
0.0
 20
0.0
 30
0.0
  3
*D24
  1

  0
LINE
  5
925C
330
925A
100
AcDbEntity
  8
実形
 62
     0
370
    18
100
AcDbLine
 10
1792.945612095411
 20
511.9667340344748
 30
0.0
 11
1792.945612095411
 21
565.5559126006401
 31
0.0
  0
LINE
  5
925D
330
925A
100
AcDbEntity
  8
実形
 62
     0
370
    18
100
AcDbLine
 10
2292.945612095411
 20
511.9667340344749
 30
0.0
 11
2292.945612095411
 21
565.5559126006401
 31
0.0
  0
LINE
  5
925E
330
925A
100
AcDbEntity
  8
実形
 62
     0
370
    18
100
AcDbLine
 10
1802.945612095411
 20
565.5559126006401
 30
0.0
 11
2282.945612095411
 21
565.5559126006401
 31
0.0
  0
INSERT
  5
925F
330
925A
100
AcDbEntity
  8
実形
 62
     0
370
    18
100
AcDbBlockReference
  2
_Dot
 10
1792.945612095411
 20
565.5559126006401
 30
0.0
 41
10.0
 42
10.0
 43
10.0
 50
180.0
  0
INSERT
  5
9260
330
925A
100
AcDbEntity
  8
実形
 62
     0
370
    18
100
AcDbBlockReference
  2
_Dot
 10
2292.945612095411
 20
565.5559126006401
 30
0.0
 41
10.0
 42
10.0
 43
10.0
  0
MTEXT
  5
9261
330
925A
100
AcDbEntity
  8
実形
 62
     0
100
AcDbMText
 10
2042.945612095411
 20
587.1559126006401
 30
0.0
 40
30.0
 41
0.0
 71
     5
 72
     1
  1
50
 73
     1
 44
1.0
1001
ACAD
1000
MTEXTBEGIN
1070
    73
1070
     1
1070
    44
1040
1.0
1070
    74
1070
     0
1000
MTEXTEND
  0
POINT
  5
9262
330
925A
100
AcDbEntity
  8
Defpoints
 62
     0
100
AcDbPoint
 10
1792.945612095411
 20
446.9667340344749
 30
0.0
  0
POINT
  5
9263
330
925A
100
AcDbEntity
  8
Defpoints
 62
     0
100
AcDbPoint
 10
2292.945612095411
 20
446.9667340344749
 30
0.0
  0
POINT
  5
9264
330
925A
100
AcDbEntity
  8
Defpoints
 62
     0
100
AcDbPoint
 10
2292.945612095411
 20
565.5559126006401
 30
0.0
  0
ENDBLK
  5
9265
330
925A
100
AcDbEntity
  8
0
 62
     3
100
AcDbBlockEnd
  0
BLOCK
  5
9267
330
9266
100
AcDbEntity
  8
0
 62
     3
100
AcDbBlockBegin
  2
*D25
 70
     1
 10
0.0
 20
0.0
 30
0.0
  3
*D25
  1

  0
LINE
  5
9268
330
9266
100
AcDbEntity
  8
実形
 62
     0
370
    18
100
AcDbLine
 10
2292.945612095411
 20
511.9667340344748
 30
0.0
 11
2292.945612095411
 21
565.5559126006401
 31
0.0
  0
LINE
  5
9269
330
9266
100
AcDbEntity
  8
実形
 62
     0
370
    18
100
AcDbLine
 10
2692.945612095411
 20
511.9667340344748
 30
0.0
 11
2692.945612095411
 21
565.5559126006401
 31
0.0
  0
LINE
  5
926A
330
9266
100
AcDbEntity
  8
実形
 62
     0
370
    18
100
AcDbLine
 10
2302.945612095411
 20
565.5559126006401
 30
0.0
 11
2682.945612095411
 21
565.5559126006401
 31
0.0
  0
INSERT
  5
926B
330
9266
100
AcDbEntity
  8
実形
 62
     0
370
    18
100
AcDbBlockReference
  2
_Dot
 10
2292.945612095411
 20
565.5559126006401
 30
0.0
 41
10.0
 42
10.0
 43
10.0
 50
180.0
  0
INSERT
  5
926C
330
9266
100
AcDbEntity
  8
実形
 62
     0
370
    18
100
AcDbBlockReference
  2
_Dot
 10
2692.945612095411
 20
565.5559126006401
 30
0.0
 41
10.0
 42
10.0
 43
10.0
  0
MTEXT
  5
926D
330
9266
100
AcDbEntity
  8
実形
 62
     0
100
AcDbMText
 10
2492.945612095411
 20
587.1559126006401
 30
0.0
 40
30.0
 41
0.0
 71
     5
 72
     1
  1
40
 73
     1
 44
1.0
1001
ACAD
1000
MTEXTBEGIN
1070
    73
1070
     1
1070
    44
1040
1.0
1070
    74
1070
     0
1000
MTEXTEND
  0
POINT
  5
926E
330
9266
100
AcDbEntity
  8
Defpoints
 62
     0
100
AcDbPoint
 10
2292.945612095411
 20
446.9667340344749
 30
0.0
  0
POINT
  5
926F
330
9266
100
AcDbEntity
  8
Defpoints
 62
     0
100
AcDbPoint
 10
2692.945612095411
 20
446.9667340344748
 30
0.0
  0
POINT
  5
9270
330
9266
100
AcDbEntity
  8
Defpoints
 62
     0
100
AcDbPoint
 10
2692.945612095411
 20
565.5559126006401
 30
0.0
  0
ENDBLK
  5
9271
330
9266
100
AcDbEntity
  8
0
 62
     3
100
AcDbBlockEnd
  0
BLOCK
  5
9273
330
9272
100
AcDbEntity
  8
0
 62
     3
100
AcDbBlockBegin
  2
*D26
 70
     1
 10
0.0
 20
0.0
 30
0.0
  3
*D26
  1

  0
LINE
  5
9274
330
9272
100
AcDbEntity
  8
実形
 62
     0
370
    18
100
AcDbLine
 10
1727.945612095411
 20
446.9667340344749
 30
0.0
 11
1702.26012093093
 21
446.9667340344749
 31
0.0
  0
LINE
  5
9275
330
9272
100
AcDbEntity
  8
実形
 62
     0
370
    18
100
AcDbLine
 10
1727.945612095411
 20
511.9667340344748
 30
0.0
 11
1702.26012093093
 21
511.9667340344748
 31
0.0
  0
LINE
  5
9276
330
9272
100
AcDbEntity
  8
実形
 62
     0
370
    18
100
AcDbLine
 10
1702.26012093093
 20
456.9667340344748
 30
0.0
 11
1702.26012093093
 21
501.9667340344748
 31
0.0
  0
MTEXT
  5
9277
330
9272
100
AcDbEntity
  8
実形
 62
     0
100
AcDbMText
 10
1677.36012093093
 20
495.6785070047772
 30
0.0
 40
30.0
 41
0.0
 71
     5
 72
     1
  1
6.5
 11
0.0000000000000001
 21
1.0
 31
0.0
 73
     1
 44
1.0
1001
ACAD
1000
MTEXTBEGIN
1070
    73
1070
     1
1070
    44
1040
1.0
1070
    74
1070
     0
1000
MTEXTEND
  0
INSERT
  5
9278
330
9272
100
AcDbEntity
  8
実形
 62
     0
370
    18
100
AcDbBlockReference
  2
_Dot
 10
1702.26012093093
 20
446.9667340344749
 30
0.0
 41
10.0
 42
10.0
 43
10.0
 50
270.0
  0
INSERT
  5
9279
330
9272
100
AcDbEntity
  8
実形
 62
     0
370
    18
100
AcDbBlockReference
  2
_Dot
 10
1702.26012093093
 20
511.9667340344748
 30
0.0
 41
10.0
 42
10.0
 43
10.0
 50
90.0
  0
POINT
  5
927A
330
9272
100
AcDbEntity
  8
Defpoints
 62
     0
100
AcDbPoint
 10
1792.945612095411
 20
446.9667340344749
 30
0.0
  0
POINT
  5
927B
330
9272
100
AcDbEntity
  8
Defpoints
 62
     0
100
AcDbPoint
 10
1792.945612095411
 20
511.9667340344748
 30
0.0
  0
POINT
  5
927C
330
9272
100
AcDbEntity
  8
Defpoints
 62
     0
100
AcDbPoint
 10
1702.26012093093
 20
511.9667340344748
 30
0.0
  0
ENDBLK
  5
927D
330
9272
100
AcDbEntity
  8
0
 62
     3
100
AcDbBlockEnd
  0
BLOCK
  5
927F
330
927E
100
AcDbEntity
  8
0
 62
     3
100
AcDbBlockBegin
  2
*D27
 70
     1
 10
0.0
 20
0.0
 30
0.0
  3
*D27
  1

  0
LINE
  5
9280
330
927E
100
AcDbEntity
  8
実形
 62
     0
370
    18
100
AcDbLine
 10
1727.945612095411
 20
426.9667340344748
 30
0.0
 11
1702.26012093093
 21
426.9667340344748
 31
0.0
  0
LINE
  5
9281
330
927E
100
AcDbEntity
  8
実形
 62
     0
370
    18
100
AcDbLine
 10
1727.945612095411
 20
511.9667340344748
 30
0.0
 11
1702.26012093093
 21
511.9667340344748
 31
0.0
  0
LINE
  5
9282
330
927E
100
AcDbEntity
  8
実形
 62
     0
370
    18
100
AcDbLine
 10
1702.26012093093
 20
436.9667340344748
 30
0.0
 11
1702.26012093093
 21
501.9667340344748
 31
0.0
  0
MTEXT
  5
9283
330
927E
100
AcDbEntity
  8
実形
 62
     0
100
AcDbMText
 10
1680.66012093093
 20
426.9559533154788
 30
0.0
 40
30.0
 41
0.0
 71
     5
 72
     1
  1
2
 11
0.0000000000000001
 21
1.0
 31
0.0
 73
     1
 44
1.0
1001
ACAD
1000
MTEXTBEGIN
1070
    73
1070
     1
1070
    44
1040
1.0
1070
    74
1070
     0
1000
MTEXTEND
  0
INSERT
  5
9284
330
927E
100
AcDbEntity
  8
実形
 62
     0
370
    18
100
AcDbBlockReference
  2
_Dot
 10
1702.26012093093
 20
426.9667340344748
 30
0.0
 41
10.0
 42
10.0
 43
10.0
 50
270.0
  0
INSERT
  5
9285
330
927E
100
AcDbEntity
  8
実形
 62
     0
370
    18
100
AcDbBlockReference
  2
_Dot
 10
1702.26012093093
 20
511.9667340344748
 30
0.0
 41
10.0
 42
10.0
 43
10.0
 50
90.0
  0
POINT
  5
9286
330
927E
100
AcDbEntity
  8
Defpoints
 62
     0
100
AcDbPoint
 10
1792.945612095411
 20
426.9667340344748
 30
0.0
  0
POINT
  5
9287
330
927E
100
AcDbEntity
  8
Defpoints
 62
     0
100
AcDbPoint
 10
1792.945612095411
 20
511.9667340344748
 30
0.0
  0
POINT
  5
9288
330
927E
100
AcDbEntity
  8
Defpoints
 62
     0
100
AcDbPoint
 10
1702.26012093093
 20
511.9667340344748
 30
0.0
  0
ENDBLK
  5
9289
330
927E
100
AcDbEntity
  8
0
 62
     3
100
AcDbBlockEnd
  0
BLOCK
  5
92A9
330
928A
100
AcDbEntity
  8
0
 62
     3
100
AcDbBlockBegin
  2
A$C43B90D36
 70
     0
 10
0.0
 20
0.0
 30
0.0
  3
A$C43B90D36
  1

  0
LINE
  5
928B
330
928A
100
AcDbEntity
  8
実形
100
AcDbLine
 10
130.5854940439876
 20
0.0000010125204426
 30
0.0
 11
130.5854940439876
 21
241.0690445015552
 31
0.0
  0
LINE
  5
928C
330
928A
100
AcDbEntity
  8
実形
 62
     3
100
AcDbLine
 10
630.5854940439876
 20
0.0000010125204426
 30
0.0
 11
630.5854940439876
 21
272.2930349092275
 31
0.0
  0
LINE
  5
928D
330
928A
100
AcDbEntity
  8
実形
 62
     3
100
AcDbLine
 10
1030.585494043988
 20
0.0000010125204426
 30
0.0
 11
1030.585494043988
 21
272.2930349092275
 31
0.0
  0
LINE
  5
928E
330
928A
100
AcDbEntity
  8
実形
 62
     3
100
AcDbLine
 10
1040.585494043988
 20
0.0000010125204426
 30
0.0
 11
1040.585494043988
 21
272.2930349092275
 31
0.0
  0
LINE
  5
928F
330
928A
100
AcDbEntity
  8
実形
100
AcDbLine
 10
140.5854940439876
 20
0.0000010125204426
 30
0.0
 11
140.5854940439874
 21
241.0690445015551
 31
0.0
  0
LINE
  5
9290
330
928A
100
AcDbEntity
  8
実形
 62
     1
100
AcDbLine
 10
130.5854940439876
 20
262.2930349092275
 30
0.0
 11
1157.462794662744
 21
262.2930349092276
 31
0.0
  0
LINE
  5
9291
330
928A
100
AcDbEntity
  8
実形
 62
     3
100
AcDbLine
 10
630.5854940439876
 20
272.2930349092275
 30
0.0
 11
1157.462794662744
 21
272.2930349092276
 31
0.0
  0
LINE
  5
9292
330
928A
100
AcDbEntity
  8
実形
 62
     3
100
AcDbLine
 10
630.5854940439876
 20
252.2930349092275
 30
0.0
 11
1157.462794662744
 21
252.2930349092276
 31
0.0
  0
LINE
  5
9293
330
928A
100
AcDbEntity
  8
実形
100
AcDbLine
 10
609.781144175693
 20
253.1252089039593
 30
0.0
 11
161.7845351944538
 21
271.0450732632089
 31
0.0
  0
ARC
  5
9294
330
928A
100
AcDbEntity
  8
実形
100
AcDbCircle
 10
160.5854940439876
 20
241.0690445015552
 30
0.0
 40
30.0
100
AcDbArc
 50
87.70938995736051
 51
180.0
  0
LINE
  5
9295
330
928A
100
AcDbEntity
  8
実形
100
AcDbLine
 10
609.3814637922045
 20
243.1331993167413
 30
0.0
 11
161.3848548109649
 21
261.0530636759909
 31
0.0
  0
ARC
  5
9296
330
928A
100
AcDbEntity
  8
実形
100
AcDbCircle
 10
160.5854940439874
 20
241.0690445015551
 30
0.0
 40
20.0
100
AcDbArc
 50
87.70938995736051
 51
180.0
  0
LINE
  5
9297
330
928A
100
AcDbEntity
  8
実形
100
AcDbLine
 10
630.5043989045052
 20
271.3661132234419
 30
0.0
 11
633.8208175820613
 21
309.2729521657607
 31
0.0
  0
LINE
  5
9298
330
928A
100
AcDbEntity
  8
実形
100
AcDbLine
 10
640.4663458854233
 20
270.4945557959653
 30
0.0
 11
684.1253123987343
 21
769.5188265276235
 31
0.0
  0
ARC
  5
9299
330
928A
100
AcDbEntity
  8
実形
100
AcDbCircle
 10
610.5805049426708
 20
273.109228078395
 30
0.0
 40
30.0
100
AcDbArc
 50
267.7093899573605
 51
355.0000000000006
  0
ARC
  5
929A
330
928A
100
AcDbEntity
  8
実形
100
AcDbCircle
 10
610.5805049426703
 20
273.1092280783951
 30
0.0
 40
20.0
100
AcDbArc
 50
267.7093899573605
 51
355.0000000000006
  0
LINE
  5
929B
330
928A
100
AcDbEntity
  8
実形
 62
     3
100
AcDbLine
 10
630.5854940439876
 20
272.2930349092276
 30
0.0
 11
130.5854940439876
 21
272.2930349092275
 31
0.0
  0
LINE
  5
929C
330
928A
100
AcDbEntity
  8
実形
 62
     3
100
AcDbLine
 10
630.5854940439876
 20
337.2930349092276
 30
0.0
 11
130.5854940439876
 21
337.2930349092275
 31
0.0
  0
LINE
  5
929D
330
928A
100
AcDbEntity
  8
実形
 62
     3
100
AcDbLine
 10
630.585494043989
 20
252.2930349092275
 30
0.0
 11
130.5854940439874
 21
252.2930349092275
 31
0.0
  0
DIMENSION
  5
929E
330
928A
100
AcDbEntity
  8
実形
100
AcDbDimension
  2
*D24
 10
630.5854940439876
 20
390.8822134753927
 30
0.0
 11
380.5854940439876
 21
412.4822134753928
 31
0.0
 12
-1662.360118051423
 22
-174.6736991252473
 32
0.0
  1
50
 71
     5
 42
500.0
  3
ISO-25
100
AcDbAlignedDimension
 13
130.5854940439876
 23
272.2930349092275
 33
0.0
 14
630.5854940439876
 24
272.2930349092276
 34
0.0
100
AcDbRotatedDimension
1001
ACAD
1000
DSTYLE
1002
{
1070
    41
1040
10.0
1070
   140
1040
30.0
1070
   147
1040
6.599999999999998
1070
   279
1070
     2
1070
   342
1005
30D
1070
   371
1070
    18
1070
   372
1070
    18
1002
}
  0
DIMENSION
  5
929F
330
928A
100
AcDbEntity
  8
実形
100
AcDbDimension
  2
*D25
 10
1030.585494043988
 20
390.8822134753927
 30
0.0
 11
830.5854940439877
 21
412.4822134753928
 31
0.0
 12
-1662.360118051423
 22
-174.6736991252473
 32
0.0
  1
40
 71
     5
 42
400.0
  3
ISO-25
100
AcDbAlignedDimension
 13
630.5854940439876
 23
272.2930349092275
 33
0.0
 14
1030.585494043988
 24
272.2930349092274
 34
0.0
100
AcDbRotatedDimension
1001
ACAD
1000
DSTYLE
1002
{
1070
    41
1040
10.0
1070
   140
1040
30.0
1070
   147
1040
6.599999999999998
1070
   279
1070
     2
1070
   342
1005
30D
1070
   371
1070
    18
1070
   372
1070
    18
1002
}
  0
DIMENSION
  5
92A0
330
928A
100
AcDbEntity
  8
実形
 62
     3
100
AcDbDimension
  2
*D26
 10
39.90000287950716
 20
337.2930349092275
 30
0.0
 11
15.00000287950706
 21
321.0048078795298
 31
0.0
 12
-1662.360118051423
 22
-174.6736991252473
 32
0.0
 70
   128
  1
6.5
 71
     5
 42
65.0
  3
ISO-25
100
AcDbAlignedDimension
 13
130.5854940439876
 23
272.2930349092275
 33
0.0
 14
130.5854940439876
 24
337.2930349092275
 34
0.0
 50
90.0
100
AcDbRotatedDimension
1001
ACAD
1000
DSTYLE
1002
{
1070
    41
1040
10.0
1070
   140
1040
30.0
1070
   147
1040
6.599999999999998
1070
   279
1070
     2
1070
   342
1005
30D
1070
   371
1070
    18
1070
   372
1070
    18
1002
}
  0
DIMENSION
  5
92A1
330
928A
100
AcDbEntity
  8
実形
 62
     3
100
AcDbDimension
  2
*D27
 10
39.90000287950716
 20
337.2930349092275
 30
0.0
 11
18.30000287950724
 21
252.2822541902315
 31
0.0
 12
-1662.360118051423
 22
-174.6736991252473
 32
0.0
 70
   128
  1
2
 71
     5
 42
85.00000000000005
  3
ISO-25
100
AcDbAlignedDimension
 13
130.5854940439876
 23
252.2930349092275
 33
0.0
 14
130.5854940439876
 24
337.2930349092275
 34
0.0
 50
90.0
100
AcDbRotatedDimension
1001
ACAD
1000
DSTYLE
1002
{
1070
    41
1040
10.0
1070
   140
1040
30.0
1070
   147
1040
6.599999999999998
1070
   279
1070
     2
1070
   342
1005
30D
1070
   371
1070
    18
1070
   372
1070
    18
1002
}
  0
LINE
  5
92A2
330
928A
100
AcDbEntity
  8
実形
 62
     3
100
AcDbLine
 10
630.5854940439876
 20
337.2930349092276
 30
0.0
 11
1171.639881948576
 21
337.2930349092276
 31
0.0
  0
LINE
  5
92A3
330
928A
100
AcDbEntity
  8
実形
100
AcDbLine
 10
1040.585494043988
 20
272.2930349092276
 30
0.0
 11
668.7906415428074
 21
336.2243603924678
 31
0.0
  0
LINE
  5
92A4
330
928A
100
AcDbEntity
  8
実形
100
AcDbLine
 10
1038.89083303799
 20
262.4376747395153
 30
0.0
 11
667.0959805368097
 21
326.3690002227555
 31
0.0
  0
ARC
  5
92A5
330
928A
100
AcDbEntity
  8
実形
100
AcDbCircle
 10
663.7066585248139
 20
306.658279883331
 30
0.0
 40
30.0
100
AcDbArc
 50
80.24322152243078
 51
175.0000000000005
  0
ARC
  5
92A6
330
928A
100
AcDbEntity
  8
実形
100
AcDbCircle
 10
663.7066585248139
 20
306.658279883331
 30
0.0
 40
20.0
100
AcDbArc
 50
80.24322152243078
 51
175.0000000000005
  0
ENDBLK
  5
92AA
330
928A
100
AcDbEntity
  8
0
 62
     3
100
AcDbBlockEnd
  0
BLOCK
  5
934B
330
934A
100
AcDbEntity
  8
0
 62
     3
100
AcDbBlockBegin
  2
*D29
 70
     1
 10
0.0
 20
0.0
 30
0.0
  3
*D29
  1

  0
LINE
  5
934C
330
934A
100
AcDbEntity
  8
実形
 62
     0
370
    18
100
AcDbLine
 10
580.6931646620888
 20
666.9398796067253
 30
0.0
 11
580.6931646620888
 21
720.5290581728904
 31
0.0
  0
LINE
  5
934D
330
934A
100
AcDbEntity
  8
実形
 62
     0
370
    18
100
AcDbLine
 10
1080.693164662088
 20
666.9398796067253
 30
0.0
 11
1080.693164662088
 21
720.5290581728904
 31
0.0
  0
LINE
  5
934E
330
934A
100
AcDbEntity
  8
実形
 62
     0
370
    18
100
AcDbLine
 10
590.6931646620887
 20
720.5290581728904
 30
0.0
 11
1070.693164662088
 21
720.5290581728904
 31
0.0
  0
INSERT
  5
934F
330
934A
100
AcDbEntity
  8
実形
 62
     0
370
    18
100
AcDbBlockReference
  2
_Dot
 10
580.6931646620888
 20
720.5290581728904
 30
0.0
 41
10.0
 42
10.0
 43
10.0
 50
180.0
  0
INSERT
  5
9350
330
934A
100
AcDbEntity
  8
実形
 62
     0
370
    18
100
AcDbBlockReference
  2
_Dot
 10
1080.693164662088
 20
720.5290581728904
 30
0.0
 41
10.0
 42
10.0
 43
10.0
  0
MTEXT
  5
9351
330
934A
100
AcDbEntity
  8
実形
 62
     0
100
AcDbMText
 10
830.6931646620887
 20
742.1290581728904
 30
0.0
 40
30.0
 41
0.0
 71
     5
 72
     1
  1
50
 73
     1
 44
1.0
1001
ACAD
1000
MTEXTBEGIN
1070
    73
1070
     1
1070
    44
1040
1.0
1070
    74
1070
     0
1000
MTEXTEND
  0
POINT
  5
9352
330
934A
100
AcDbEntity
  8
Defpoints
 62
     0
100
AcDbPoint
 10
580.6931646620888
 20
601.9398796067252
 30
0.0
  0
POINT
  5
9353
330
934A
100
AcDbEntity
  8
Defpoints
 62
     0
100
AcDbPoint
 10
1080.693164662088
 20
601.9398796067252
 30
0.0
  0
POINT
  5
9354
330
934A
100
AcDbEntity
  8
Defpoints
 62
     0
100
AcDbPoint
 10
1080.693164662088
 20
720.5290581728904
 30
0.0
  0
ENDBLK
  5
9355
330
934A
100
AcDbEntity
  8
0
 62
     3
100
AcDbBlockEnd
  0
BLOCK
  5
9357
330
9356
100
AcDbEntity
  8
0
 62
     3
100
AcDbBlockBegin
  2
*D30
 70
     1
 10
0.0
 20
0.0
 30
0.0
  3
*D30
  1

  0
LINE
  5
9358
330
9356
100
AcDbEntity
  8
実形
 62
     0
370
    18
100
AcDbLine
 10
1080.693164662088
 20
666.9398796067253
 30
0.0
 11
1080.693164662088
 21
720.5290581728904
 31
0.0
  0
LINE
  5
9359
330
9356
100
AcDbEntity
  8
実形
 62
     0
370
    18
100
AcDbLine
 10
1480.693164662089
 20
666.9398796067253
 30
0.0
 11
1480.693164662089
 21
720.5290581728904
 31
0.0
  0
LINE
  5
935A
330
9356
100
AcDbEntity
  8
実形
 62
     0
370
    18
100
AcDbLine
 10
1090.693164662089
 20
720.5290581728904
 30
0.0
 11
1470.693164662089
 21
720.5290581728904
 31
0.0
  0
INSERT
  5
935B
330
9356
100
AcDbEntity
  8
実形
 62
     0
370
    18
100
AcDbBlockReference
  2
_Dot
 10
1080.693164662088
 20
720.5290581728904
 30
0.0
 41
10.0
 42
10.0
 43
10.0
 50
180.0
  0
INSERT
  5
935C
330
9356
100
AcDbEntity
  8
実形
 62
     0
370
    18
100
AcDbBlockReference
  2
_Dot
 10
1480.693164662089
 20
720.5290581728904
 30
0.0
 41
10.0
 42
10.0
 43
10.0
  0
MTEXT
  5
935D
330
9356
100
AcDbEntity
  8
実形
 62
     0
100
AcDbMText
 10
1280.693164662088
 20
742.1290581728904
 30
0.0
 40
30.0
 41
0.0
 71
     5
 72
     1
  1
40
 73
     1
 44
1.0
1001
ACAD
1000
MTEXTBEGIN
1070
    73
1070
     1
1070
    44
1040
1.0
1070
    74
1070
     0
1000
MTEXTEND
  0
POINT
  5
935E
330
9356
100
AcDbEntity
  8
Defpoints
 62
     0
100
AcDbPoint
 10
1080.693164662088
 20
601.9398796067252
 30
0.0
  0
POINT
  5
935F
330
9356
100
AcDbEntity
  8
Defpoints
 62
     0
100
AcDbPoint
 10
1480.693164662089
 20
601.9398796067252
 30
0.0
  0
POINT
  5
9360
330
9356
100
AcDbEntity
  8
Defpoints
 62
     0
100
AcDbPoint
 10
1480.693164662089
 20
720.5290581728904
 30
0.0
  0
ENDBLK
  5
9361
330
9356
100
AcDbEntity
  8
0
 62
     3
100
AcDbBlockEnd
  0
BLOCK
  5
9363
330
9362
100
AcDbEntity
  8
0
 62
     3
100
AcDbBlockBegin
  2
*D31
 70
     1
 10
0.0
 20
0.0
 30
0.0
  3
*D31
  1

  0
LINE
  5
9364
330
9362
100
AcDbEntity
  8
実形
 62
     0
370
    18
100
AcDbLine
 10
515.6931646620887
 20
568.2249285728921
 30
0.0
 11
490.0076734976082
 21
568.2249285728921
 31
0.0
  0
LINE
  5
9365
330
9362
100
AcDbEntity
  8
実形
 62
     0
370
    18
100
AcDbLine
 10
515.6931646620887
 20
633.2249285728921
 30
0.0
 11
490.0076734976082
 21
633.2249285728921
 31
0.0
  0
LINE
  5
9366
330
9362
100
AcDbEntity
  8
実形
 62
     0
370
    18
100
AcDbLine
 10
490.0076734976082
 20
578.2249285728921
 30
0.0
 11
490.0076734976082
 21
623.2249285728921
 31
0.0
  0
MTEXT
  5
9367
330
9362
100
AcDbEntity
  8
実形
 62
     0
100
AcDbMText
 10
465.1076734976081
 20
616.9367015431944
 30
0.0
 40
30.0
 41
0.0
 71
     5
 72
     1
  1
6.5
 11
0.0000000000000001
 21
1.0
 31
0.0
 73
     1
 44
1.0
1001
ACAD
1000
MTEXTBEGIN
1070
    73
1070
     1
1070
    44
1040
1.0
1070
    74
1070
     0
1000
MTEXTEND
  0
INSERT
  5
9368
330
9362
100
AcDbEntity
  8
実形
 62
     0
370
    18
100
AcDbBlockReference
  2
_Dot
 10
490.0076734976082
 20
568.2249285728921
 30
0.0
 41
10.0
 42
10.0
 43
10.0
 50
270.0
  0
INSERT
  5
9369
330
9362
100
AcDbEntity
  8
実形
 62
     0
370
    18
100
AcDbBlockReference
  2
_Dot
 10
490.0076734976082
 20
633.2249285728921
 30
0.0
 41
10.0
 42
10.0
 43
10.0
 50
90.0
  0
POINT
  5
936A
330
9362
100
AcDbEntity
  8
Defpoints
 62
     0
100
AcDbPoint
 10
580.6931646620888
 20
568.2249285728921
 30
0.0
  0
POINT
  5
936B
330
9362
100
AcDbEntity
  8
Defpoints
 62
     0
100
AcDbPoint
 10
580.6931646620888
 20
633.2249285728921
 30
0.0
  0
POINT
  5
936C
330
9362
100
AcDbEntity
  8
Defpoints
 62
     0
100
AcDbPoint
 10
490.0076734976082
 20
633.2249285728921
 30
0.0
  0
ENDBLK
  5
936D
330
9362
100
AcDbEntity
  8
0
 62
     3
100
AcDbBlockEnd
  0
BLOCK
  5
936F
330
936E
100
AcDbEntity
  8
0
 62
     3
100
AcDbBlockBegin
  2
*D32
 70
     1
 10
0.0
 20
0.0
 30
0.0
  3
*D32
  1

  0
LINE
  5
9370
330
936E
100
AcDbEntity
  8
実形
 62
     0
370
    18
100
AcDbLine
 10
515.6931646620887
 20
558.2249285728921
 30
0.0
 11
490.0076734976082
 21
558.2249285728921
 31
0.0
  0
LINE
  5
9371
330
936E
100
AcDbEntity
  8
実形
 62
     0
370
    18
100
AcDbLine
 10
515.6931646620887
 20
633.2249285728921
 30
0.0
 11
490.0076734976082
 21
633.2249285728921
 31
0.0
  0
LINE
  5
9372
330
936E
100
AcDbEntity
  8
実形
 62
     0
370
    18
100
AcDbLine
 10
490.0076734976082
 20
568.2249285728921
 30
0.0
 11
490.0076734976082
 21
623.2249285728921
 31
0.0
  0
MTEXT
  5
9373
330
936E
100
AcDbEntity
  8
実形
 62
     0
100
AcDbMText
 10
464.0840921171293
 20
548.1088004782214
 30
0.0
 40
30.0
 41
0.0
 71
     5
 72
     1
  1
1
 11
0.0000000000000001
 21
1.0
 31
0.0
 73
     1
 44
1.0
1001
ACAD
1000
MTEXTBEGIN
1070
    73
1070
     1
1070
    44
1040
1.0
1070
    74
1070
     0
1000
MTEXTEND
  0
INSERT
  5
9374
330
936E
100
AcDbEntity
  8
実形
 62
     0
370
    18
100
AcDbBlockReference
  2
_Dot
 10
490.0076734976082
 20
558.2249285728921
 30
0.0
 41
10.0
 42
10.0
 43
10.0
 50
270.0
  0
INSERT
  5
9375
330
936E
100
AcDbEntity
  8
実形
 62
     0
370
    18
100
AcDbBlockReference
  2
_Dot
 10
490.0076734976082
 20
633.2249285728921
 30
0.0
 41
10.0
 42
10.0
 43
10.0
 50
90.0
  0
POINT
  5
9376
330
936E
100
AcDbEntity
  8
Defpoints
 62
     0
100
AcDbPoint
 10
580.6931646620888
 20
558.2249285728921
 30
0.0
  0
POINT
  5
9377
330
936E
100
AcDbEntity
  8
Defpoints
 62
     0
100
AcDbPoint
 10
580.6931646620888
 20
633.2249285728921
 30
0.0
  0
POINT
  5
9378
330
936E
100
AcDbEntity
  8
Defpoints
 62
     0
100
AcDbPoint
 10
490.0076734976082
 20
633.2249285728921
 30
0.0
  0
ENDBLK
  5
9379
330
936E
100
AcDbEntity
  8
0
 62
     3
100
AcDbBlockEnd
  0
BLOCK
  5
937B
330
937A
100
AcDbEntity
  8
0
 62
     3
100
AcDbBlockBegin
  2
*D33
 70
     1
 10
0.0
 20
0.0
 30
0.0
  3
*D33
  1

  0
ARC
  5
937C
330
937A
100
AcDbEntity
  8
実形
 62
     0
370
    18
100
AcDbCircle
 10
1079.784273227332
 20
557.836251936084
 30
0.0
 40
90.31599869093151
100
AcDbArc
 50
91.34716861234586
 51
172.533646397383
  0
INSERT
  5
937D
330
937A
100
AcDbEntity
  8
実形
 62
     0
370
    18
100
AcDbBlockReference
  2
_Dot
 10
1087.655831175236
 20
647.808570984851
 30
0.0
 41
10.0
 42
10.0
 43
10.0
 50
358.1735843061729
  0
INSERT
  5
937E
330
937A
100
AcDbEntity
  8
実形
 62
     0
370
    18
100
AcDbBlockReference
  2
_Dot
 10
989.485504302161
 20
559.6003239694583
 30
0.0
 41
10.0
 42
10.0
 43
10.0
 50
265.7072307035559
  0
MTEXT
  5
937F
330
937A
100
AcDbEntity
  8
実形
 62
     0
100
AcDbMText
 10
1004.984397328946
 20
641.0838905126511
 30
0.0
 40
30.0
 41
0.0
 71
     5
 72
     1
  1
95° 
 11
0.7438403762670676
 21
0.6683573106017973
 31
0.0
 73
     1
 44
1.0
1001
ACAD
1000
MTEXTBEGIN
1070
    73
1070
     1
1070
    44
1040
1.0
1070
    74
1070
     0
1000
MTEXTEND
  0
POINT
  5
9380
330
937A
100
AcDbEntity
  8
Defpoints
 62
     0
100
AcDbPoint
 10
1039.776893424031
 20
638.8077850870302
 30
0.0
  0
POINT
  5
9381
330
937A
100
AcDbEntity
  8
Defpoints
 62
     0
100
AcDbPoint
 10
1081.486175913373
 20
577.2890886517399
 30
0.0
  0
POINT
  5
9382
330
937A
100
AcDbEntity
  8
Defpoints
 62
     0
100
AcDbPoint
 10
1061.098608573523
 20
558.2012941047998
 30
0.0
  0
POINT
  5
9383
330
937A
100
AcDbEntity
  8
Defpoints
 62
     0
100
AcDbPoint
 10
611.8922058125549
 20
566.9769669268735
 30
0.0
  0
POINT
  5
9384
330
937A
100
AcDbEntity
  8
Defpoints
 62
     0
100
AcDbPoint
 10
1099.013035742816
 20
777.6220132054389
 30
0.0
  0
ENDBLK
  5
9385
330
937A
100
AcDbEntity
  8
0
 62
     3
100
AcDbBlockEnd
  0
BLOCK
  5
93A9
330
9386
100
AcDbEntity
  8
0
 62
     3
100
AcDbBlockBegin
  2
A$C66A46C98
 70
     0
 10
0.0
 20
0.0
 30
0.0
  3
A$C66A46C98
  1

  0
LINE
  5
9387
330
9386
100
AcDbEntity
  8
実形
100
AcDbLine
 10
131.6090764440396
 20
0.0000006451518857
 30
0.0
 11
131.6090764440396
 21
208.7760102374796
 31
0.0
  0
LINE
  5
9388
330
9386
100
AcDbEntity
  8
実形
100
AcDbLine
 10
141.6090764440395
 20
0.0000006451518857
 30
0.0
 11
141.6090764440393
 21
208.7760102374796
 31
0.0
  0
LINE
  5
9389
330
9386
100
AcDbEntity
  8
実形
100
AcDbLine
 10
1057.825634007712
 20
230.0000006451519
 30
0.0
 11
1158.486377062796
 21
230.0000006451519
 31
0.0
  0
ARC
  5
938A
330
9386
100
AcDbEntity
  8
実形
100
AcDbCircle
 10
1057.825634007712
 20
430.0000006451519
 30
0.0
 40
200.0
100
AcDbArc
 50
260.2432215224273
 51
270.0
  0
LINE
  5
938B
330
9386
100
AcDbEntity
  8
実形
100
AcDbLine
 10
1058.679137037378
 20
240.0000006451517
 30
0.0
 11
1158.486377062796
 21
240.0000006451519
 31
0.0
  0
ARC
  5
938C
330
9386
100
AcDbEntity
  8
実形
100
AcDbCircle
 10
1058.679137037378
 20
440.0000006451517
 30
0.0
 40
200.0
100
AcDbArc
 50
260.2432215224273
 51
270.0
  0
LINE
  5
938D
330
9386
100
AcDbEntity
  8
実形
100
AcDbLine
 10
612.0145203554743
 20
229.9763661770594
 30
0.0
 11
162.8081175945058
 21
238.7520389991332
 31
0.0
  0
ARC
  5
938E
330
9386
100
AcDbEntity
  8
実形
100
AcDbCircle
 10
161.6090764440396
 20
208.7760102374796
 30
0.0
 40
30.0
100
AcDbArc
 50
87.70938995736056
 51
180.0
  0
LINE
  5
938F
330
9386
100
AcDbEntity
  8
実形
100
AcDbLine
 10
611.9478626760249
 20
220.8119634623988
 30
0.0
 11
162.4084372110169
 21
228.7600294119152
 31
0.0
  0
ARC
  5
9390
330
9386
100
AcDbEntity
  8
実形
100
AcDbCircle
 10
161.6090764440393
 20
208.7760102374796
 30
0.0
 40
20.0
100
AcDbArc
 50
87.70938995736056
 51
180.0
  0
LINE
  5
9391
330
9386
100
AcDbEntity
  8
実形
100
AcDbLine
 10
632.3290587344542
 20
248.2294358816503
 30
0.0
 11
634.8443999821133
 21
276.979917901685
 31
0.0
  0
ARC
  5
9392
330
9386
100
AcDbEntity
  8
実形
100
AcDbCircle
 10
612.4051647726194
 20
249.9725507366036
 30
0.0
 40
20.0
100
AcDbArc
 50
268.88081500973
 51
355.0000000000003
  0
LINE
  5
9393
330
9386
100
AcDbEntity
  8
実形
100
AcDbLine
 10
632.4020876953238
 20
249.0641607239997
 30
0.0
 11
640.7725737665344
 21
344.7392543174742
 31
0.0
  0
ARC
  5
9394
330
9386
100
AcDbEntity
  8
実形
100
AcDbCircle
 10
612.478193733489
 20
250.8072755789529
 30
0.0
 40
30.0
100
AcDbArc
 50
268.9870895281333
 51
355.0000000000003
  0
DIMENSION
  5
9395
330
9386
100
AcDbEntity
  8
実形
100
AcDbDimension
  2
*D29
 10
631.6090764440396
 20
392.3041302451502
 30
0.0
 11
381.6090764440396
 21
413.9041302451501
 31
0.0
 12
-449.0840882180491
 22
-328.2249279277403
 32
0.0
  1
50
 71
     5
 42
500.0
  3
ISO-25
100
AcDbAlignedDimension
 13
131.6090764440396
 23
273.714951678985
 33
0.0
 14
631.6090764440396
 24
273.714951678985
 34
0.0
100
AcDbRotatedDimension
1001
ACAD
1000
DSTYLE
1002
{
1070
    41
1040
10.0
1070
   140
1040
30.0
1070
   147
1040
6.599999999999998
1070
   279
1070
     2
1070
   342
1005
30D
1070
   371
1070
    18
1070
   372
1070
    18
1002
}
  0
DIMENSION
  5
9396
330
9386
100
AcDbEntity
  8
実形
100
AcDbDimension
  2
*D30
 10
1031.609076444039
 20
392.3041302451502
 30
0.0
 11
831.6090764440396
 21
413.9041302451501
 31
0.0
 12
-449.0840882180491
 22
-328.2249279277403
 32
0.0
  1
40
 71
     5
 42
400.0
  3
ISO-25
100
AcDbAlignedDimension
 13
631.6090764440396
 23
273.714951678985
 33
0.0
 14
1031.609076444039
 24
273.714951678985
 34
0.0
100
AcDbRotatedDimension
1001
ACAD
1000
DSTYLE
1002
{
1070
    41
1040
10.0
1070
   140
1040
30.0
1070
   147
1040
6.599999999999998
1070
   279
1070
     2
1070
   342
1005
30D
1070
   371
1070
    18
1070
   372
1070
    18
1002
}
  0
DIMENSION
  5
9397
330
9386
100
AcDbEntity
  8
実形
100
AcDbDimension
  2
*D31
 10
40.92358527955911
 20
305.0000006451519
 30
0.0
 11
16.02358527955903
 21
288.7117736154542
 31
0.0
 12
-449.0840882180491
 22
-328.2249279277403
 32
0.0
 70
   128
  1
6.5
 71
     5
 42
65.0
  3
ISO-25
100
AcDbAlignedDimension
 13
131.6090764440396
 23
240.0000006451519
 33
0.0
 14
131.6090764440396
 24
305.0000006451519
 34
0.0
 50
90.0
100
AcDbRotatedDimension
1001
ACAD
1000
DSTYLE
1002
{
1070
    41
1040
10.0
1070
   140
1040
30.0
1070
   147
1040
6.599999999999998
1070
   279
1070
     2
1070
   342
1005
30D
1070
   371
1070
    18
1070
   372
1070
    18
1002
}
  0
DIMENSION
  5
9398
330
9386
100
AcDbEntity
  8
実形
100
AcDbDimension
  2
*D32
 10
40.92358527955911
 20
305.0000006451519
 30
0.0
 11
15.00000389908018
 21
219.8838725504811
 31
0.0
 12
-449.0840882180491
 22
-328.2249279277403
 32
0.0
 70
   128
  1
1
 71
     5
 42
75.0
  3
ISO-25
100
AcDbAlignedDimension
 13
131.6090764440396
 23
230.0000006451519
 33
0.0
 14
131.6090764440396
 24
305.0000006451519
 34
0.0
 50
90.0
100
AcDbRotatedDimension
1001
ACAD
1000
DSTYLE
1002
{
1070
    41
1040
10.0
1070
   140
1040
30.0
1070
   147
1040
6.599999999999998
1070
   279
1070
     2
1070
   342
1005
30D
1070
   371
1070
    18
1070
   372
1070
    18
1002
}
  0
LINE
  5
9399
330
9386
100
AcDbEntity
  8
実形
100
AcDbLine
 10
1024.785916917424
 20
242.8927972509066
 30
0.0
 11
669.8142239428594
 21
303.9313261283921
 31
0.0
  0
LINE
  5
939A
330
9386
100
AcDbEntity
  8
実形
100
AcDbLine
 10
1023.932413887757
 20
232.8927972509068
 30
0.0
 11
668.1195629368617
 21
294.0759659586797
 31
0.0
  0
ARC
  5
939B
330
9386
100
AcDbEntity
  8
実形
100
AcDbCircle
 10
664.7302409248659
 20
274.3652456192553
 30
0.0
 40
30.0
100
AcDbArc
 50
80.24322152243106
 51
175.0000000000002
  0
ARC
  5
939C
330
9386
100
AcDbEntity
  8
実形
100
AcDbCircle
 10
664.7302409248659
 20
274.3652456192553
 30
0.0
 40
20.0
100
AcDbArc
 50
80.24322152243106
 51
175.0000000000002
  0
LINE
  5
939D
330
9386
100
AcDbEntity
  8
実形
100
AcDbLine
 10
1057.825634007712
 20
230.0000006451519
 30
0.0
 11
1057.334718818092
 21
230.0000006451519
 31
0.0
  0
LINE
  5
939E
330
9386
100
AcDbEntity
  8
実形
100
AcDbLine
 10
141.6090764440395
 20
0.0000006451518857
 30
0.0
 11
131.6090764440396
 21
0.000000645151772
 31
0.0
  0
DIMENSION
  5
939F
330
9386
100
AcDbEntity
  8
実形
100
AcDbDimension
  2
*D33
 10
649.9289475247665
 20
449.3970852776985
 30
0.0
 11
555.9003091108977
 21
312.8589625849108
 31
0.0
 12
-449.0840882180491
 22
-328.2249279277403
 32
0.0
 70
     2
  1
95° 
 71
     5
 42
1.63852932637548
  3
ISO-25
100
AcDb2LineAngularDimension
 13
612.0145203554743
 23
229.9763661770594
 33
0.0
 14
162.8081175945058
 24
238.7520389991332
 34
0.0
 15
632.4020876953238
 25
249.0641607239997
 35
0.0
 16
590.692805205982
 26
310.5828571592899
 36
0.0
1001
ACAD
1000
DSTYLE
1002
{
1070
    41
1040
10.0
1070
   140
1040
30.0
1070
   147
1040
6.599999999999998
1070
   279
1070
     2
1070
   342
1005
30D
1070
   371
1070
    18
1070
   372
1070
    18
1002
}
  0
LINE
  5
93A0
330
9386
100
AcDbEntity
  8
実形
100
AcDbLine
 10
642.3640346762413
 20
248.1926032965232
 30
0.0
 11
644.806346963031
 21
276.1083604742085
 31
0.0
  0
LEADER
  5
93A1
330
9386
100
AcDbEntity
  8
実形
100
AcDbLeader
  3
ISO-25
 76
     2
 10
626.5511529133257
 20
235.6005136904714
 30
0.0
 10
672.6049673481504
 20
197.5715671735797
 30
0.0
1001
ACAD
1000
DSTYLE
1002
{
1070
    77
1070
     0
1070
    41
1040
10.0
1070
   140
1040
30.0
1070
   147
1040
6.599999999999998
1070
   279
1070
     2
1070
   342
1005
30D
1070
   371
1070
    18
1070
   372
1070
    18
1002
}
  0
LEADER
  5
93A2
330
9386
100
AcDbEntity
  8
実形
100
AcDbLeader
  3
ISO-25
 76
     2
 10
650.9569798008199
 20
299.782151547146
 30
0.0
 10
713.0860590306221
 20
249.507678155911
 30
0.0
1001
ACAD
1000
DSTYLE
1002
{
1070
    77
1070
     0
1070
    41
1040
10.0
1070
   140
1040
30.0
1070
   147
1040
6.599999999999998
1070
   279
1070
     2
1070
   342
1005
30D
1070
   371
1070
    18
1070
   372
1070
    18
1002
}
  0
TEXT
  5
93A3
330
9386
100
AcDbEntity
  8
実形
100
AcDbText
 10
676.7992672773212
 20
168.2715558535638
 30
0.0
 40
25.0
  1
2R
 72
     2
 11
718.4659339439879
 21
164.9382225202305
 31
0.0
100
AcDbText
 73
     1
  0
TEXT
  5
93A4
330
9386
100
AcDbEntity
  8
実形
100
AcDbText
 10
720.9229195680379
 20
234.4280573862981
 30
0.0
 40
25.0
  1
3R
 72
     2
 11
762.5895862347045
 21
231.0947240529647
 31
0.0
100
AcDbText
 73
     1
  0
LINE
  5
93A5
330
9386
100
AcDbEntity
  8
実形
100
AcDbLine
 10
66.6090764440396
 20
305.0000006451519
 30
0.0
 11
741.3319261328015
 21
305.0000006451519
 31
0.0
  0
LINE
  5
93A6
330
9386
100
AcDbEntity
  8
実形
100
AcDbLine
 10
66.6090764440396
 20
240.0000006451519
 30
0.0
 11
469.1676542341192
 21
240.0000006451519
 31
0.0
  0
ENDBLK
  5
93AA
330
9386
100
AcDbEntity
  8
0
 62
     3
100
AcDbBlockEnd
  0
BLOCK
  5
9526
330
951C
100
AcDbEntity
  8
0
 62
     3
100
AcDbBlockBegin
  2
*D35
 70
     1
 10
0.0
 20
0.0
 30
0.0
  3
*D35
  1

  0
LINE
  5
9812
330
951C
100
AcDbEntity
  8
実形
 62
     0
370
    18
100
AcDbLine
 10
1779.95837554088
 20
618.3438182587415
 30
0.0
 11
1779.95837554088
 21
671.9329968249066
 31
0.0
  0
LINE
  5
9813
330
951C
100
AcDbEntity
  8
実形
 62
     0
370
    18
100
AcDbLine
 10
2279.95837554088
 20
618.3438182587415
 30
0.0
 11
2279.95837554088
 21
671.9329968249066
 31
0.0
  0
LINE
  5
9814
330
951C
100
AcDbEntity
  8
実形
 62
     0
370
    18
100
AcDbLine
 10
1789.95837554088
 20
671.9329968249066
 30
0.0
 11
2269.95837554088
 21
671.9329968249066
 31
0.0
  0
INSERT
  5
9815
330
951C
100
AcDbEntity
  8
実形
 62
     0
370
    18
100
AcDbBlockReference
  2
_Dot
 10
1779.95837554088
 20
671.9329968249066
 30
0.0
 41
10.0
 42
10.0
 43
10.0
 50
180.0
  0
INSERT
  5
9816
330
951C
100
AcDbEntity
  8
実形
 62
     0
370
    18
100
AcDbBlockReference
  2
_Dot
 10
2279.95837554088
 20
671.9329968249066
 30
0.0
 41
10.0
 42
10.0
 43
10.0
  0
MTEXT
  5
9817
330
951C
100
AcDbEntity
  8
実形
 62
     0
100
AcDbMText
 10
2029.95837554088
 20
693.5329968249067
 30
0.0
 40
30.0
 41
0.0
 71
     5
 72
     1
  1
50
 73
     1
 44
1.0
1001
ACAD
1000
MTEXTBEGIN
1070
    73
1070
     1
1070
    44
1040
1.0
1070
    74
1070
     0
1000
MTEXTEND
  0
POINT
  5
9818
330
951C
100
AcDbEntity
  8
Defpoints
 62
     0
100
AcDbPoint
 10
1779.95837554088
 20
553.3438182587415
 30
0.0
  0
POINT
  5
9819
330
951C
100
AcDbEntity
  8
Defpoints
 62
     0
100
AcDbPoint
 10
2279.95837554088
 20
553.3438182587415
 30
0.0
  0
POINT
  5
981A
330
951C
100
AcDbEntity
  8
Defpoints
 62
     0
100
AcDbPoint
 10
2279.95837554088
 20
671.9329968249066
 30
0.0
  0
ENDBLK
  5
9527
330
951C
100
AcDbEntity
  8
0
 62
     3
100
AcDbBlockEnd
  0
BLOCK
  5
9532
330
9528
100
AcDbEntity
  8
0
 62
     3
100
AcDbBlockBegin
  2
*D36
 70
     1
 10
0.0
 20
0.0
 30
0.0
  3
*D36
  1

  0
LINE
  5
981B
330
9528
100
AcDbEntity
  8
実形
 62
     0
370
    18
100
AcDbLine
 10
2279.95837554088
 20
618.3438182587415
 30
0.0
 11
2279.95837554088
 21
671.9329968249066
 31
0.0
  0
LINE
  5
981C
330
9528
100
AcDbEntity
  8
実形
 62
     0
370
    18
100
AcDbLine
 10
2679.958375540881
 20
618.3438182587415
 30
0.0
 11
2679.958375540881
 21
671.9329968249066
 31
0.0
  0
LINE
  5
981D
330
9528
100
AcDbEntity
  8
実形
 62
     0
370
    18
100
AcDbLine
 10
2289.95837554088
 20
671.9329968249066
 30
0.0
 11
2669.95837554088
 21
671.9329968249066
 31
0.0
  0
INSERT
  5
981E
330
9528
100
AcDbEntity
  8
実形
 62
     0
370
    18
100
AcDbBlockReference
  2
_Dot
 10
2279.95837554088
 20
671.9329968249066
 30
0.0
 41
10.0
 42
10.0
 43
10.0
 50
180.0
  0
INSERT
  5
981F
330
9528
100
AcDbEntity
  8
実形
 62
     0
370
    18
100
AcDbBlockReference
  2
_Dot
 10
2679.958375540881
 20
671.9329968249066
 30
0.0
 41
10.0
 42
10.0
 43
10.0
  0
MTEXT
  5
9820
330
9528
100
AcDbEntity
  8
実形
 62
     0
100
AcDbMText
 10
2479.95837554088
 20
693.5329968249067
 30
0.0
 40
30.0
 41
0.0
 71
     5
 72
     1
  1
40
 73
     1
 44
1.0
1001
ACAD
1000
MTEXTBEGIN
1070
    73
1070
     1
1070
    44
1040
1.0
1070
    74
1070
     0
1000
MTEXTEND
  0
POINT
  5
9821
330
9528
100
AcDbEntity
  8
Defpoints
 62
     0
100
AcDbPoint
 10
2279.95837554088
 20
553.3438182587415
 30
0.0
  0
POINT
  5
9822
330
9528
100
AcDbEntity
  8
Defpoints
 62
     0
100
AcDbPoint
 10
2679.958375540881
 20
553.3438182587415
 30
0.0
  0
POINT
  5
9823
330
9528
100
AcDbEntity
  8
Defpoints
 62
     0
100
AcDbPoint
 10
2679.958375540881
 20
671.9329968249066
 30
0.0
  0
ENDBLK
  5
9533
330
9528
100
AcDbEntity
  8
0
 62
     3
100
AcDbBlockEnd
  0
BLOCK
  5
953E
330
9534
100
AcDbEntity
  8
0
 62
     3
100
AcDbBlockBegin
  2
*D37
 70
     1
 10
0.0
 20
0.0
 30
0.0
  3
*D37
  1

  0
LINE
  5
9824
330
9534
100
AcDbEntity
  8
実形
 62
     0
370
    18
100
AcDbLine
 10
1714.95837554088
 20
519.6288672249083
 30
0.0
 11
1689.272884376399
 21
519.6288672249083
 31
0.0
  0
LINE
  5
9825
330
9534
100
AcDbEntity
  8
実形
 62
     0
370
    18
100
AcDbLine
 10
1714.95837554088
 20
584.6288672249084
 30
0.0
 11
1689.272884376399
 21
584.6288672249084
 31
0.0
  0
LINE
  5
9826
330
9534
100
AcDbEntity
  8
実形
 62
     0
370
    18
100
AcDbLine
 10
1689.272884376399
 20
529.6288672249083
 30
0.0
 11
1689.272884376399
 21
574.6288672249083
 31
0.0
  0
MTEXT
  5
9827
330
9534
100
AcDbEntity
  8
実形
 62
     0
100
AcDbMText
 10
1664.3728843764
 20
568.3406401952106
 30
0.0
 40
30.0
 41
0.0
 71
     5
 72
     1
  1
6.5
 11
0.0000000000000001
 21
1.0
 31
0.0
 73
     1
 44
1.0
1001
ACAD
1000
MTEXTBEGIN
1070
    73
1070
     1
1070
    44
1040
1.0
1070
    74
1070
     0
1000
MTEXTEND
  0
INSERT
  5
9828
330
9534
100
AcDbEntity
  8
実形
 62
     0
370
    18
100
AcDbBlockReference
  2
_Dot
 10
1689.272884376399
 20
519.6288672249083
 30
0.0
 41
10.0
 42
10.0
 43
10.0
 50
270.0
  0
INSERT
  5
9829
330
9534
100
AcDbEntity
  8
実形
 62
     0
370
    18
100
AcDbBlockReference
  2
_Dot
 10
1689.272884376399
 20
584.6288672249084
 30
0.0
 41
10.0
 42
10.0
 43
10.0
 50
90.0
  0
POINT
  5
982A
330
9534
100
AcDbEntity
  8
Defpoints
 62
     0
100
AcDbPoint
 10
1779.95837554088
 20
519.6288672249083
 30
0.0
  0
POINT
  5
982B
330
9534
100
AcDbEntity
  8
Defpoints
 62
     0
100
AcDbPoint
 10
1779.95837554088
 20
584.6288672249084
 30
0.0
  0
POINT
  5
982C
330
9534
100
AcDbEntity
  8
Defpoints
 62
     0
100
AcDbPoint
 10
1689.272884376399
 20
584.6288672249084
 30
0.0
  0
ENDBLK
  5
953F
330
9534
100
AcDbEntity
  8
0
 62
     3
100
AcDbBlockEnd
  0
BLOCK
  5
9556
330
954C
100
AcDbEntity
  8
0
 62
     3
100
AcDbBlockBegin
  2
*D38
 70
     1
 10
0.0
 20
0.0
 30
0.0
  3
*D38
  1

  0
ARC
  5
9836
330
954C
100
AcDbEntity
  8
実形
 62
     0
370
    18
100
AcDbCircle
 10
2279.049484106123
 20
509.2401905881001
 30
0.0
 40
90.31599869093101
100
AcDbArc
 50
91.34716861234585
 51
172.5336463973829
  0
INSERT
  5
9837
330
954C
100
AcDbEntity
  8
実形
 62
     0
370
    18
100
AcDbBlockReference
  2
_Dot
 10
2286.921042054028
 20
599.2125096368667
 30
0.0
 41
10.0
 42
10.0
 43
10.0
 50
358.1735843061729
  0
INSERT
  5
9838
330
954C
100
AcDbEntity
  8
実形
 62
     0
370
    18
100
AcDbBlockReference
  2
_Dot
 10
2188.750715180953
 20
511.0042626214745
 30
0.0
 41
10.0
 42
10.0
 43
10.0
 50
265.7072307035559
  0
MTEXT
  5
9839
330
954C
100
AcDbEntity
  8
実形
 62
     0
100
AcDbMText
 10
2204.249608207738
 20
592.487829164667
 30
0.0
 40
30.0
 41
0.0
 71
     5
 72
     1
  1
95° 
 11
0.7438403762670676
 21
0.6683573106017973
 31
0.0
 73
     1
 44
1.0
1001
ACAD
1000
MTEXTBEGIN
1070
    73
1070
     1
1070
    44
1040
1.0
1070
    74
1070
     0
1000
MTEXTEND
  0
POINT
  5
983A
330
954C
100
AcDbEntity
  8
Defpoints
 62
     0
100
AcDbPoint
 10
2239.042104302823
 20
590.2117237390462
 30
0.0
  0
POINT
  5
983B
330
954C
100
AcDbEntity
  8
Defpoints
 62
     0
100
AcDbPoint
 10
2280.751386792164
 20
528.6930273037564
 30
0.0
  0
POINT
  5
983C
330
954C
100
AcDbEntity
  8
Defpoints
 62
     0
100
AcDbPoint
 10
2260.363819452315
 20
509.6052327568158
 30
0.0
  0
POINT
  5
983D
330
954C
100
AcDbEntity
  8
Defpoints
 62
     0
100
AcDbPoint
 10
1811.157416691347
 20
518.3809055788898
 30
0.0
  0
POINT
  5
983E
330
954C
100
AcDbEntity
  8
Defpoints
 62
     0
100
AcDbPoint
 10
2298.278246621607
 20
729.0259518574552
 30
0.0
  0
ENDBLK
  5
9557
330
954C
100
AcDbEntity
  8
0
 62
     3
100
AcDbBlockEnd
  0
BLOCK
  5
9870
330
9866
100
AcDbEntity
  8
0
 62
     3
100
AcDbBlockBegin
  2
*D39
 70
     1
 10
0.0
 20
0.0
 30
0.0
  3
*D39
  1

  0
LINE
  5
9DD0
330
9866
100
AcDbEntity
  8
実形
 62
     0
370
    18
100
AcDbLine
 10
531.7442641170686
 20
1650.594295921864
 30
0.0
 11
531.7442641170686
 21
1708.796007396875
 31
0.0
  0
LINE
  5
9DD1
330
9866
100
AcDbEntity
  8
実形
 62
     0
370
    18
100
AcDbLine
 10
581.7442641170686
 20
1650.594295921863
 30
0.0
 11
581.7442641170686
 21
1708.796007396875
 31
0.0
  0
LINE
  5
9DD2
330
9866
100
AcDbEntity
  8
実形
 62
     0
370
    18
100
AcDbLine
 10
541.7442641170687
 20
1708.796007396875
 30
0.0
 11
571.7442641170686
 21
1708.796007396875
 31
0.0
  0
MTEXT
  5
9DD3
330
9866
100
AcDbEntity
  8
実形
 62
     0
100
AcDbMText
 10
556.7442641170686
 20
1733.696007396875
 30
0.0
 40
30.0
 41
0.0
 71
     5
 72
     1
  1
50
 73
     1
 44
1.0
1001
ACAD
1000
MTEXTBEGIN
1070
    73
1070
     1
1070
    44
1040
1.0
1070
    74
1070
     0
1000
MTEXTEND
  0
INSERT
  5
9DD4
330
9866
100
AcDbEntity
  8
実形
 62
     0
370
    18
100
AcDbBlockReference
  2
_Dot
 10
531.7442641170686
 20
1708.796007396875
 30
0.0
 41
10.0
 42
10.0
 43
10.0
 50
180.0
  0
INSERT
  5
9DD5
330
9866
100
AcDbEntity
  8
実形
 62
     0
370
    18
100
AcDbBlockReference
  2
_Dot
 10
581.7442641170686
 20
1708.796007396875
 30
0.0
 41
10.0
 42
10.0
 43
10.0
  0
POINT
  5
9DD6
330
9866
100
AcDbEntity
  8
Defpoints
 62
     0
100
AcDbPoint
 10
531.7442641170686
 20
1585.594295921864
 30
0.0
  0
POINT
  5
9DD7
330
9866
100
AcDbEntity
  8
Defpoints
 62
     0
100
AcDbPoint
 10
581.7442641170686
 20
1585.594295921863
 30
0.0
  0
POINT
  5
9DD8
330
9866
100
AcDbEntity
  8
Defpoints
 62
     0
100
AcDbPoint
 10
581.7442641170686
 20
1708.796007396875
 30
0.0
  0
ENDBLK
  5
9871
330
9866
100
AcDbEntity
  8
0
 62
     3
100
AcDbBlockEnd
  0
BLOCK
  5
987D
330
9873
100
AcDbEntity
  8
0
 62
     3
100
AcDbBlockBegin
  2
*D40
 70
     1
 10
0.0
 20
0.0
 30
0.0
  3
*D40
  1

  0
LINE
  5
9DD9
330
9873
100
AcDbEntity
  8
実形
 62
     0
370
    18
100
AcDbLine
 10
581.7442641170686
 20
1650.594295921863
 30
0.0
 11
581.7442641170686
 21
1708.796007396875
 31
0.0
  0
LINE
  5
9DDA
330
9873
100
AcDbEntity
  8
実形
 62
     0
370
    18
100
AcDbLine
 10
1241.744264117069
 20
1650.594295921863
 30
0.0
 11
1241.744264117069
 21
1708.796007396875
 31
0.0
  0
LINE
  5
9DDB
330
9873
100
AcDbEntity
  8
実形
 62
     0
370
    18
100
AcDbLine
 10
591.7442641170686
 20
1708.796007396875
 30
0.0
 11
1231.744264117069
 21
1708.796007396875
 31
0.0
  0
INSERT
  5
9DDC
330
9873
100
AcDbEntity
  8
実形
 62
     0
370
    18
100
AcDbBlockReference
  2
_Dot
 10
581.7442641170686
 20
1708.796007396875
 30
0.0
 41
10.0
 42
10.0
 43
10.0
 50
180.0
  0
INSERT
  5
9DDD
330
9873
100
AcDbEntity
  8
実形
 62
     0
370
    18
100
AcDbBlockReference
  2
_Dot
 10
1241.744264117069
 20
1708.796007396875
 30
0.0
 41
10.0
 42
10.0
 43
10.0
  0
MTEXT
  5
9DDE
330
9873
100
AcDbEntity
  8
実形
 62
     0
100
AcDbMText
 10
911.7442641170686
 20
1730.396007396875
 30
0.0
 40
30.0
 41
0.0
 71
     5
 72
     1
  1
660
 73
     1
 44
1.0
1001
ACAD
1000
MTEXTBEGIN
1070
    73
1070
     1
1070
    44
1040
1.0
1070
    74
1070
     0
1000
MTEXTEND
  0
POINT
  5
9DDF
330
9873
100
AcDbEntity
  8
Defpoints
 62
     0
100
AcDbPoint
 10
581.7442641170686
 20
1585.594295921863
 30
0.0
  0
POINT
  5
9DE0
330
9873
100
AcDbEntity
  8
Defpoints
 62
     0
100
AcDbPoint
 10
1241.744264117069
 20
1585.594295921863
 30
0.0
  0
POINT
  5
9DE1
330
9873
100
AcDbEntity
  8
Defpoints
 62
     0
100
AcDbPoint
 10
1241.744264117069
 20
1708.796007396875
 30
0.0
  0
ENDBLK
  5
987E
330
9873
100
AcDbEntity
  8
0
 62
     3
100
AcDbBlockEnd
  0
BLOCK
  5
988A
330
9880
100
AcDbEntity
  8
0
 62
     3
100
AcDbBlockBegin
  2
*D41
 70
     1
 10
0.0
 20
0.0
 30
0.0
  3
*D41
  1

  0
LINE
  5
9DE2
330
9880
100
AcDbEntity
  8
実形
 62
     0
370
    18
100
AcDbLine
 10
1241.744264117069
 20
1650.594295921864
 30
0.0
 11
1241.744264117069
 21
1708.796007396875
 31
0.0
  0
LINE
  5
9DE3
330
9880
100
AcDbEntity
  8
実形
 62
     0
370
    18
100
AcDbLine
 10
1291.744264117069
 20
1650.594295921864
 30
0.0
 11
1291.744264117069
 21
1708.796007396875
 31
0.0
  0
LINE
  5
9DE4
330
9880
100
AcDbEntity
  8
実形
 62
     0
370
    18
100
AcDbLine
 10
1251.744264117069
 20
1708.796007396875
 30
0.0
 11
1281.744264117069
 21
1708.796007396875
 31
0.0
  0
MTEXT
  5
9DE5
330
9880
100
AcDbEntity
  8
実形
 62
     0
100
AcDbMText
 10
1266.744264117068
 20
1733.696007396875
 30
0.0
 40
30.0
 41
0.0
 71
     5
 72
     1
  1
50
 73
     1
 44
1.0
1001
ACAD
1000
MTEXTBEGIN
1070
    73
1070
     1
1070
    44
1040
1.0
1070
    74
1070
     0
1000
MTEXTEND
  0
INSERT
  5
9DE6
330
9880
100
AcDbEntity
  8
実形
 62
     0
370
    18
100
AcDbBlockReference
  2
_Dot
 10
1241.744264117069
 20
1708.796007396875
 30
0.0
 41
10.0
 42
10.0
 43
10.0
 50
180.0
  0
INSERT
  5
9DE7
330
9880
100
AcDbEntity
  8
実形
 62
     0
370
    18
100
AcDbBlockReference
  2
_Dot
 10
1291.744264117069
 20
1708.796007396875
 30
0.0
 41
10.0
 42
10.0
 43
10.0
  0
POINT
  5
9DE8
330
9880
100
AcDbEntity
  8
Defpoints
 62
     0
100
AcDbPoint
 10
1241.744264117069
 20
1585.594295921864
 30
0.0
  0
POINT
  5
9DE9
330
9880
100
AcDbEntity
  8
Defpoints
 62
     0
100
AcDbPoint
 10
1291.744264117069
 20
1585.594295921864
 30
0.0
  0
POINT
  5
9DEA
330
9880
100
AcDbEntity
  8
Defpoints
 62
     0
100
AcDbPoint
 10
1291.744264117069
 20
1708.796007396875
 30
0.0
  0
ENDBLK
  5
988B
330
9880
100
AcDbEntity
  8
0
 62
     3
100
AcDbBlockEnd
  0
BLOCK
  5
9C9D
330
9C93
100
AcDbEntity
  8
0
 62
     3
100
AcDbBlockBegin
  2
*D42
 70
     1
 10
0.0
 20
0.0
 30
0.0
  3
*D42
  1

  0
LINE
  5
A194
330
9C93
100
AcDbEntity
  8
実形
 62
     0
370
    18
100
AcDbLine
 10
426.7442641170685
 20
1509.032765817214
 30
0.0
 11
380.0331793068555
 21
1509.032765817214
 31
0.0
  0
LINE
  5
A195
330
9C93
100
AcDbEntity
  8
実形
 62
     0
370
    18
100
AcDbLine
 10
426.7442641170682
 20
1099.032765817213
 30
0.0
 11
380.0331793068553
 21
1099.032765817213
 31
0.0
  0
LINE
  5
A196
330
9C93
100
AcDbEntity
  8
実形
 62
     0
370
    18
100
AcDbLine
 10
380.0331793068555
 20
1499.032765817213
 30
0.0
 11
380.0331793068553
 21
1109.032765817213
 31
0.0
  0
INSERT
  5
A197
330
9C93
100
AcDbEntity
  8
実形
 62
     0
370
    18
100
AcDbBlockReference
  2
_Dot
 10
380.0331793068555
 20
1509.032765817214
 30
0.0
 41
10.0
 42
10.0
 43
10.0
 50
90.0
  0
INSERT
  5
A198
330
9C93
100
AcDbEntity
  8
実形
 62
     0
370
    18
100
AcDbBlockReference
  2
_Dot
 10
380.0331793068553
 20
1099.032765817213
 30
0.0
 41
10.0
 42
10.0
 43
10.0
 50
270.0
  0
MTEXT
  5
A199
330
9C93
100
AcDbEntity
  8
実形
 62
     0
100
AcDbMText
 10
358.4331793068551
 20
1304.032765817213
 30
0.0
 40
30.0
 41
0.0
 71
     5
 72
     1
  1
410
 11
0.0000000000000001
 21
1.0
 31
0.0
 73
     1
 44
1.0
1001
ACAD
1000
MTEXTBEGIN
1070
    73
1070
     1
1070
    44
1040
1.0
1070
    74
1070
     0
1000
MTEXTEND
  0
POINT
  5
A19A
330
9C93
100
AcDbEntity
  8
Defpoints
 62
     0
100
AcDbPoint
 10
491.7442641170684
 20
1509.032765817214
 30
0.0
  0
POINT
  5
A19B
330
9C93
100
AcDbEntity
  8
Defpoints
 62
     0
100
AcDbPoint
 10
491.7442641170683
 20
1099.032765817213
 30
0.0
  0
POINT
  5
A19C
330
9C93
100
AcDbEntity
  8
Defpoints
 62
     0
100
AcDbPoint
 10
380.0331793068553
 20
1099.032765817213
 30
0.0
  0
ENDBLK
  5
9C9E
330
9C93
100
AcDbEntity
  8
0
 62
     3
100
AcDbBlockEnd
  0
BLOCK
  5
9CA9
330
9C9F
100
AcDbEntity
  8
0
 62
     3
100
AcDbBlockBegin
  2
*D43
 70
     1
 10
0.0
 20
0.0
 30
0.0
  3
*D43
  1

  0
LINE
  5
A167
330
9C9F
100
AcDbEntity
  8
実形
 62
     0
370
    18
100
AcDbLine
 10
426.7442641170682
 20
1059.032765817213
 30
0.0
 11
380.0331793068553
 21
1059.032765817213
 31
0.0
  0
LINE
  5
A168
330
9C9F
100
AcDbEntity
  8
実形
 62
     0
370
    18
100
AcDbLine
 10
426.7442641170687
 20
1589.032765817214
 30
0.0
 11
380.0331793068555
 21
1589.032765817214
 31
0.0
  0
LINE
  5
A169
330
9C9F
100
AcDbEntity
  8
実形
 62
     0
370
    18
100
AcDbLine
 10
380.0331793068553
 20
1069.032765817213
 30
0.0
 11
380.0331793068555
 21
1579.032765817214
 31
0.0
  0
MTEXT
  5
A16A
330
9C9F
100
AcDbEntity
  8
実形
 62
     0
100
AcDbMText
 10
358.4331793068552
 20
1100.508128606378
 30
0.0
 40
30.0
 41
0.0
 71
     5
 72
     1
  1
40
 11
0.0000000000000001
 21
1.0
 31
0.0
 73
     1
 44
1.0
1001
ACAD
1000
MTEXTBEGIN
1070
    73
1070
     1
1070
    44
1040
1.0
1070
    74
1070
     0
1000
MTEXTEND
  0
INSERT
  5
A16B
330
9C9F
100
AcDbEntity
  8
実形
 62
     0
370
    18
100
AcDbBlockReference
  2
_Dot
 10
380.0331793068553
 20
1059.032765817213
 30
0.0
 41
10.0
 42
10.0
 43
10.0
 50
270.0
  0
INSERT
  5
A16C
330
9C9F
100
AcDbEntity
  8
実形
 62
     0
370
    18
100
AcDbBlockReference
  2
_Dot
 10
380.0331793068555
 20
1589.032765817214
 30
0.0
 41
10.0
 42
10.0
 43
10.0
 50
90.0
  0
POINT
  5
A16D
330
9C9F
100
AcDbEntity
  8
Defpoints
 62
     0
100
AcDbPoint
 10
491.7442641170683
 20
1059.032765817213
 30
0.0
  0
POINT
  5
A16E
330
9C9F
100
AcDbEntity
  8
Defpoints
 62
     0
100
AcDbPoint
 10
491.7442641170687
 20
1589.032765817214
 30
0.0
  0
POINT
  5
A16F
330
9C9F
100
AcDbEntity
  8
Defpoints
 62
     0
100
AcDbPoint
 10
380.0331793068555
 20
1589.032765817214
 30
0.0
  0
ENDBLK
  5
9CAA
330
9C9F
100
AcDbEntity
  8
0
 62
     3
100
AcDbBlockEnd
  0
BLOCK
  5
9CB5
330
9CAB
100
AcDbEntity
  8
0
 62
     3
100
AcDbBlockBegin
  2
*D44
 70
     1
 10
0.0
 20
0.0
 30
0.0
  3
*D44
  1

  0
LINE
  5
A19D
330
9CAB
100
AcDbEntity
  8
実形
 62
     0
370
    18
100
AcDbLine
 10
426.7442641170685
 20
1589.032765817214
 30
0.0
 11
380.0331793068555
 21
1589.032765817214
 31
0.0
  0
LINE
  5
A19E
330
9CAB
100
AcDbEntity
  8
実形
 62
     0
370
    18
100
AcDbLine
 10
411.7442641170685
 20
1509.032765817214
 30
0.0
 11
380.0331793068555
 21
1509.032765817214
 31
0.0
  0
LINE
  5
A19F
330
9CAB
100
AcDbEntity
  8
実形
 62
     0
370
    18
100
AcDbLine
 10
380.0331793068555
 20
1579.032765817214
 30
0.0
 11
380.0331793068555
 21
1519.032765817214
 31
0.0
  0
INSERT
  5
A1A0
330
9CAB
100
AcDbEntity
  8
実形
 62
     0
370
    18
100
AcDbBlockReference
  2
_Dot
 10
380.0331793068555
 20
1589.032765817214
 30
0.0
 41
10.0
 42
10.0
 43
10.0
 50
90.0
  0
INSERT
  5
A1A1
330
9CAB
100
AcDbEntity
  8
実形
 62
     0
370
    18
100
AcDbBlockReference
  2
_Dot
 10
380.0331793068555
 20
1509.032765817214
 30
0.0
 41
10.0
 42
10.0
 43
10.0
 50
270.0
  0
MTEXT
  5
A1A2
330
9CAB
100
AcDbEntity
  8
実形
 62
     0
100
AcDbMText
 10
358.4331793068552
 20
1549.032765817213
 30
0.0
 40
30.0
 41
0.0
 71
     5
 72
     1
  1
80
 11
0.0000000000000001
 21
1.0
 31
0.0
 73
     1
 44
1.0
1001
ACAD
1000
MTEXTBEGIN
1070
    73
1070
     1
1070
    44
1040
1.0
1070
    74
1070
     0
1000
MTEXTEND
  0
POINT
  5
A1A3
330
9CAB
100
AcDbEntity
  8
Defpoints
 62
     0
100
AcDbPoint
 10
491.7442641170684
 20
1589.032765817214
 30
0.0
  0
POINT
  5
A1A4
330
9CAB
100
AcDbEntity
  8
Defpoints
 62
     0
100
AcDbPoint
 10
476.7442641170685
 20
1509.032765817214
 30
0.0
  0
POINT
  5
A1A5
330
9CAB
100
AcDbEntity
  8
Defpoints
 62
     0
100
AcDbPoint
 10
380.0331793068555
 20
1509.032765817214
 30
0.0
  0
ENDBLK
  5
9CB6
330
9CAB
100
AcDbEntity
  8
0
 62
     3
100
AcDbBlockEnd
  0
BLOCK
  5
9CC1
330
9CB7
100
AcDbEntity
  8
0
 62
     3
100
AcDbBlockBegin
  2
*D45
 70
     1
 10
0.0
 20
0.0
 30
0.0
  3
*D45
  1

  0
LINE
  5
A18B
330
9CB7
100
AcDbEntity
  8
実形
 62
     0
370
    18
100
AcDbLine
 10
379.9470597707632
 20
1059.032765817213
 30
0.0
 11
306.5121010633928
 21
1059.032765817213
 31
0.0
  0
LINE
  5
A18C
330
9CB7
100
AcDbEntity
  8
実形
 62
     0
370
    18
100
AcDbLine
 10
388.1650278750758
 20
1589.032765817214
 30
0.0
 11
306.512101063393
 21
1589.032765817214
 31
0.0
  0
LINE
  5
A18D
330
9CB7
100
AcDbEntity
  8
実形
 62
     0
370
    18
100
AcDbLine
 10
306.5121010633928
 20
1069.032765817213
 30
0.0
 11
306.512101063393
 21
1579.032765817214
 31
0.0
  0
INSERT
  5
A18E
330
9CB7
100
AcDbEntity
  8
実形
 62
     0
370
    18
100
AcDbBlockReference
  2
_Dot
 10
306.5121010633928
 20
1059.032765817213
 30
0.0
 41
10.0
 42
10.0
 43
10.0
 50
270.0
  0
INSERT
  5
A18F
330
9CB7
100
AcDbEntity
  8
実形
 62
     0
370
    18
100
AcDbBlockReference
  2
_Dot
 10
306.512101063393
 20
1589.032765817214
 30
0.0
 41
10.0
 42
10.0
 43
10.0
 50
90.0
  0
MTEXT
  5
A190
330
9CB7
100
AcDbEntity
  8
実形
 62
     0
100
AcDbMText
 10
284.9121010633926
 20
1324.032765817213
 30
0.0
 40
30.0
 41
0.0
 71
     5
 72
     1
  1
530
 11
0.0000000000000001
 21
1.0
 31
0.0
 73
     1
 44
1.0
1001
ACAD
1000
MTEXTBEGIN
1070
    73
1070
     1
1070
    44
1040
1.0
1070
    74
1070
     0
1000
MTEXTEND
  0
POINT
  5
A191
330
9CB7
100
AcDbEntity
  8
Defpoints
 62
     0
100
AcDbPoint
 10
444.9470597707631
 20
1059.032765817213
 30
0.0
  0
POINT
  5
A192
330
9CB7
100
AcDbEntity
  8
Defpoints
 62
     0
100
AcDbPoint
 10
453.1650278750758
 20
1589.032765817214
 30
0.0
  0
POINT
  5
A193
330
9CB7
100
AcDbEntity
  8
Defpoints
 62
     0
100
AcDbPoint
 10
306.512101063393
 20
1589.032765817214
 30
0.0
  0
ENDBLK
  5
9CC2
330
9CB7
100
AcDbEntity
  8
0
 62
     3
100
AcDbBlockEnd
  0
BLOCK
  5
9CCD
330
9CC3
100
AcDbEntity
  8
0
 62
     3
100
AcDbBlockBegin
  2
*D46
 70
     1
 10
0.0
 20
0.0
 30
0.0
  3
*D46
  1

  0
LINE
  5
A182
330
9CC3
100
AcDbEntity
  8
実形
 62
     0
370
    18
100
AcDbLine
 10
424.8898862818432
 20
1604.032765817214
 30
0.0
 11
306.512101063393
 21
1604.032765817214
 31
0.0
  0
LINE
  5
A183
330
9CC3
100
AcDbEntity
  8
実形
 62
     0
370
    18
100
AcDbLine
 10
361.7442641170683
 20
1059.032765817213
 30
0.0
 11
306.5121010633928
 21
1059.032765817213
 31
0.0
  0
LINE
  5
A184
330
9CC3
100
AcDbEntity
  8
実形
 62
     0
370
    18
100
AcDbLine
 10
306.512101063393
 20
1594.032765817214
 30
0.0
 11
306.5121010633928
 21
1069.032765817213
 31
0.0
  0
MTEXT
  5
A185
330
9CC3
100
AcDbEntity
  8
実形
 62
     0
100
AcDbMText
 10
284.9121010633927
 20
1573.591080226503
 30
0.0
 40
30.0
 41
0.0
 71
     5
 72
     1
  1
15
 11
0.0000000000000001
 21
1.0
 31
0.0
 73
     1
 44
1.0
1001
ACAD
1000
MTEXTBEGIN
1070
    73
1070
     1
1070
    44
1040
1.0
1070
    74
1070
     0
1000
MTEXTEND
  0
INSERT
  5
A186
330
9CC3
100
AcDbEntity
  8
実形
 62
     0
370
    18
100
AcDbBlockReference
  2
_Dot
 10
306.512101063393
 20
1604.032765817214
 30
0.0
 41
10.0
 42
10.0
 43
10.0
 50
90.0
  0
INSERT
  5
A187
330
9CC3
100
AcDbEntity
  8
実形
 62
     0
370
    18
100
AcDbBlockReference
  2
_Dot
 10
306.5121010633928
 20
1059.032765817213
 30
0.0
 41
10.0
 42
10.0
 43
10.0
 50
270.0
  0
POINT
  5
A188
330
9CC3
100
AcDbEntity
  8
Defpoints
 62
     0
100
AcDbPoint
 10
489.8898862818432
 20
1604.032765817214
 30
0.0
  0
POINT
  5
A189
330
9CC3
100
AcDbEntity
  8
Defpoints
 62
     0
100
AcDbPoint
 10
426.7442641170682
 20
1059.032765817213
 30
0.0
  0
POINT
  5
A18A
330
9CC3
100
AcDbEntity
  8
Defpoints
 62
     0
100
AcDbPoint
 10
306.5121010633928
 20
1059.032765817213
 30
0.0
  0
ENDBLK
  5
9CCE
330
9CC3
100
AcDbEntity
  8
0
 62
     3
100
AcDbBlockEnd
  0
BLOCK
  5
9CD9
330
9CCF
100
AcDbEntity
  8
0
 62
     3
100
AcDbBlockBegin
  2
*D47
 70
     1
 10
0.0
 20
0.0
 30
0.0
  3
*D47
  1

  0
LINE
  5
A179
330
9CCF
100
AcDbEntity
  8
実形
 62
     0
370
    18
100
AcDbLine
 10
427.7280259708013
 20
1044.032765817213
 30
0.0
 11
306.5121010633928
 21
1044.032765817213
 31
0.0
  0
LINE
  5
A17A
330
9CCF
100
AcDbEntity
  8
実形
 62
     0
370
    18
100
AcDbLine
 10
361.7442641170685
 20
1589.032765817214
 30
0.0
 11
306.512101063393
 21
1589.032765817214
 31
0.0
  0
LINE
  5
A17B
330
9CCF
100
AcDbEntity
  8
実形
 62
     0
370
    18
100
AcDbLine
 10
306.5121010633928
 20
1054.032765817213
 30
0.0
 11
306.512101063393
 21
1579.032765817214
 31
0.0
  0
MTEXT
  5
A17C
330
9CCF
100
AcDbEntity
  8
実形
 62
     0
100
AcDbMText
 10
284.9121010633927
 20
1068.116559889651
 30
0.0
 40
30.0
 41
0.0
 71
     5
 72
     1
  1
15
 11
0.0000000000000001
 21
1.0
 31
0.0
 73
     1
 44
1.0
1001
ACAD
1000
MTEXTBEGIN
1070
    73
1070
     1
1070
    44
1040
1.0
1070
    74
1070
     0
1000
MTEXTEND
  0
INSERT
  5
A17D
330
9CCF
100
AcDbEntity
  8
実形
 62
     0
370
    18
100
AcDbBlockReference
  2
_Dot
 10
306.5121010633928
 20
1044.032765817213
 30
0.0
 41
10.0
 42
10.0
 43
10.0
 50
270.0
  0
INSERT
  5
A17E
330
9CCF
100
AcDbEntity
  8
実形
 62
     0
370
    18
100
AcDbBlockReference
  2
_Dot
 10
306.512101063393
 20
1589.032765817214
 30
0.0
 41
10.0
 42
10.0
 43
10.0
 50
90.0
  0
POINT
  5
A17F
330
9CCF
100
AcDbEntity
  8
Defpoints
 62
     0
100
AcDbPoint
 10
492.7280259708013
 20
1044.032765817213
 30
0.0
  0
POINT
  5
A180
330
9CCF
100
AcDbEntity
  8
Defpoints
 62
     0
100
AcDbPoint
 10
426.7442641170685
 20
1589.032765817214
 30
0.0
  0
POINT
  5
A181
330
9CCF
100
AcDbEntity
  8
Defpoints
 62
     0
100
AcDbPoint
 10
306.512101063393
 20
1589.032765817214
 30
0.0
  0
ENDBLK
  5
9CDA
330
9CCF
100
AcDbEntity
  8
0
 62
     3
100
AcDbBlockEnd
  0
BLOCK
  5
9CE5
330
9CDB
100
AcDbEntity
  8
0
 62
     3
100
AcDbBlockBegin
  2
*D48
 70
     1
 10
0.0
 20
0.0
 30
0.0
  3
*D48
  1

  0
LINE
  5
A170
330
9CDB
100
AcDbEntity
  8
実形
 62
     0
370
    18
100
AcDbLine
 10
411.7442641170689
 20
1604.032765817214
 30
0.0
 11
238.2818442309391
 21
1604.032765817214
 31
0.0
  0
LINE
  5
A171
330
9CDB
100
AcDbEntity
  8
実形
 62
     0
370
    18
100
AcDbLine
 10
411.7442641170685
 20
1044.032765817213
 30
0.0
 11
238.281844230939
 21
1044.032765817213
 31
0.0
  0
LINE
  5
A172
330
9CDB
100
AcDbEntity
  8
実形
 62
     0
370
    18
100
AcDbLine
 10
238.2818442309391
 20
1594.032765817213
 30
0.0
 11
238.281844230939
 21
1054.032765817213
 31
0.0
  0
INSERT
  5
A173
330
9CDB
100
AcDbEntity
  8
実形
 62
     0
370
    18
100
AcDbBlockReference
  2
_Dot
 10
238.2818442309391
 20
1604.032765817214
 30
0.0
 41
10.0
 42
10.0
 43
10.0
 50
90.0
  0
INSERT
  5
A174
330
9CDB
100
AcDbEntity
  8
実形
 62
     0
370
    18
100
AcDbBlockReference
  2
_Dot
 10
238.281844230939
 20
1044.032765817213
 30
0.0
 41
10.0
 42
10.0
 43
10.0
 50
270.0
  0
MTEXT
  5
A175
330
9CDB
100
AcDbEntity
  8
実形
 62
     0
100
AcDbMText
 10
216.6818442309388
 20
1324.032765817213
 30
0.0
 40
30.0
 41
0.0
 71
     5
 72
     1
  1
560
 11
0.0000000000000001
 21
1.0
 31
0.0
 73
     1
 44
1.0
1001
ACAD
1000
MTEXTBEGIN
1070
    73
1070
     1
1070
    44
1040
1.0
1070
    74
1070
     0
1000
MTEXTEND
  0
POINT
  5
A176
330
9CDB
100
AcDbEntity
  8
Defpoints
 62
     0
100
AcDbPoint
 10
476.7442641170689
 20
1604.032765817214
 30
0.0
  0
POINT
  5
A177
330
9CDB
100
AcDbEntity
  8
Defpoints
 62
     0
100
AcDbPoint
 10
476.7442641170685
 20
1044.032765817213
 30
0.0
  0
POINT
  5
A178
330
9CDB
100
AcDbEntity
  8
Defpoints
 62
     0
100
AcDbPoint
 10
238.281844230939
 20
1044.032765817213
 30
0.0
  0
ENDBLK
  5
9CE6
330
9CDB
100
AcDbEntity
  8
0
 62
     3
100
AcDbBlockEnd
  0
BLOCK
  5
9CF1
330
9CE7
100
AcDbEntity
  8
0
 62
     3
100
AcDbBlockBegin
  2
*D49
 70
     1
 10
0.0
 20
0.0
 30
0.0
  3
*D49
  1

  0
LINE
  5
A044
330
9CE7
100
AcDbEntity
  8
実形
 62
     0
370
    18
100
AcDbLine
 10
531.744264117068
 20
994.3578210546901
 30
0.0
 11
531.744264117068
 21
938.9489680781608
 31
0.0
  0
LINE
  5
A045
330
9CE7
100
AcDbEntity
  8
実形
 62
     0
370
    18
100
AcDbLine
 10
1291.744264117068
 20
994.3578210546904
 30
0.0
 11
1291.744264117068
 21
938.9489680781608
 31
0.0
  0
LINE
  5
A046
330
9CE7
100
AcDbEntity
  8
実形
 62
     0
370
    18
100
AcDbLine
 10
541.744264117068
 20
938.9489680781608
 30
0.0
 11
1281.744264117068
 21
938.9489680781608
 31
0.0
  0
INSERT
  5
A047
330
9CE7
100
AcDbEntity
  8
実形
 62
     0
370
    18
100
AcDbBlockReference
  2
_Dot
 10
531.744264117068
 20
938.9489680781608
 30
0.0
 41
10.0
 42
10.0
 43
10.0
 50
180.0
  0
INSERT
  5
A048
330
9CE7
100
AcDbEntity
  8
実形
 62
     0
370
    18
100
AcDbBlockReference
  2
_Dot
 10
1291.744264117068
 20
938.9489680781608
 30
0.0
 41
10.0
 42
10.0
 43
10.0
  0
MTEXT
  5
A049
330
9CE7
100
AcDbEntity
  8
実形
 62
     0
100
AcDbMText
 10
911.7442641170683
 20
960.5489680781607
 30
0.0
 40
30.0
 41
0.0
 71
     5
 72
     1
  1
760
 73
     1
 44
1.0
1001
ACAD
1000
MTEXTBEGIN
1070
    73
1070
     1
1070
    44
1040
1.0
1070
    74
1070
     0
1000
MTEXTEND
  0
POINT
  5
A04A
330
9CE7
100
AcDbEntity
  8
Defpoints
 62
     0
100
AcDbPoint
 10
531.744264117068
 20
1059.35782105469
 30
0.0
  0
POINT
  5
A04B
330
9CE7
100
AcDbEntity
  8
Defpoints
 62
     0
100
AcDbPoint
 10
1291.744264117068
 20
1059.35782105469
 30
0.0
  0
POINT
  5
A04C
330
9CE7
100
AcDbEntity
  8
Defpoints
 62
     0
100
AcDbPoint
 10
1291.744264117068
 20
938.9489680781608
 30
0.0
  0
ENDBLK
  5
9CF2
330
9CE7
100
AcDbEntity
  8
0
 62
     3
100
AcDbBlockEnd
  0
BLOCK
  5
9CFD
330
9CF3
100
AcDbEntity
  8
0
 62
     3
100
AcDbBlockBegin
  2
*D50
 70
     1
 10
0.0
 20
0.0
 30
0.0
  3
*D50
  1

  0
LINE
  5
A1A9
330
9CF3
100
AcDbEntity
  8
実形
 62
     0
370
    18
100
AcDbLine
 10
491.7442641170683
 20
994.357821054691
 30
0.0
 11
491.7442641170683
 21
938.9489680781608
 31
0.0
  0
LINE
  5
A1AA
330
9CF3
100
AcDbEntity
  8
実形
 62
     0
370
    18
100
AcDbLine
 10
1291.744264117068
 20
994.3578210546904
 30
0.0
 11
1291.744264117068
 21
938.9489680781608
 31
0.0
  0
LINE
  5
A1AB
330
9CF3
100
AcDbEntity
  8
実形
 62
     0
370
    18
100
AcDbLine
 10
501.7442641170682
 20
938.9489680781608
 30
0.0
 11
1281.744264117068
 21
938.9489680781608
 31
0.0
  0
MTEXT
  5
A1AC
330
9CF3
100
AcDbEntity
  8
実形
 62
     0
100
AcDbMText
 10
568.9261819752291
 20
960.5489680781607
 30
0.0
 40
30.0
 41
0.0
 71
     5
 72
     1
  1
40
 73
     1
 44
1.0
1001
ACAD
1000
MTEXTBEGIN
1070
    73
1070
     1
1070
    44
1040
1.0
1070
    74
1070
     0
1000
MTEXTEND
  0
INSERT
  5
A1AD
330
9CF3
100
AcDbEntity
  8
実形
 62
     0
370
    18
100
AcDbBlockReference
  2
_Dot
 10
491.7442641170683
 20
938.9489680781608
 30
0.0
 41
10.0
 42
10.0
 43
10.0
 50
180.0
  0
INSERT
  5
A1AE
330
9CF3
100
AcDbEntity
  8
実形
 62
     0
370
    18
100
AcDbBlockReference
  2
_Dot
 10
1291.744264117068
 20
938.9489680781608
 30
0.0
 41
10.0
 42
10.0
 43
10.0
  0
POINT
  5
A1AF
330
9CF3
100
AcDbEntity
  8
Defpoints
 62
     0
100
AcDbPoint
 10
491.7442641170683
 20
1059.357821054691
 30
0.0
  0
POINT
  5
A1B0
330
9CF3
100
AcDbEntity
  8
Defpoints
 62
     0
100
AcDbPoint
 10
1291.744264117068
 20
1059.35782105469
 30
0.0
  0
POINT
  5
A1B1
330
9CF3
100
AcDbEntity
  8
Defpoints
 62
     0
100
AcDbPoint
 10
1291.744264117068
 20
938.9489680781608
 30
0.0
  0
ENDBLK
  5
9CFE
330
9CF3
100
AcDbEntity
  8
0
 62
     3
100
AcDbBlockEnd
  0
BLOCK
  5
9D09
330
9CFF
100
AcDbEntity
  8
0
 62
     3
100
AcDbBlockBegin
  2
*D51
 70
     1
 10
0.0
 20
0.0
 30
0.0
  3
*D51
  1

  0
LINE
  5
A0C1
330
9CFF
100
AcDbEntity
  8
実形
 62
     0
370
    18
100
AcDbLine
 10
531.744264117068
 20
994.3578210546901
 30
0.0
 11
531.744264117068
 21
938.9489680781608
 31
0.0
  0
LINE
  5
A0C2
330
9CFF
100
AcDbEntity
  8
実形
 62
     0
370
    18
100
AcDbLine
 10
1331.744264117068
 20
994.3578210546897
 30
0.0
 11
1331.744264117068
 21
938.9489680781608
 31
0.0
  0
LINE
  5
A0C3
330
9CFF
100
AcDbEntity
  8
実形
 62
     0
370
    18
100
AcDbLine
 10
541.744264117068
 20
938.9489680781608
 30
0.0
 11
1321.744264117068
 21
938.9489680781608
 31
0.0
  0
MTEXT
  5
A0C4
330
9CFF
100
AcDbEntity
  8
実形
 62
     0
100
AcDbMText
 10
1260.60436724848
 20
960.5489680781607
 30
0.0
 40
30.0
 41
0.0
 71
     5
 72
     1
  1
40
 73
     1
 44
1.0
1001
ACAD
1000
MTEXTBEGIN
1070
    73
1070
     1
1070
    44
1040
1.0
1070
    74
1070
     0
1000
MTEXTEND
  0
INSERT
  5
A0C5
330
9CFF
100
AcDbEntity
  8
実形
 62
     0
370
    18
100
AcDbBlockReference
  2
_Dot
 10
531.744264117068
 20
938.9489680781608
 30
0.0
 41
10.0
 42
10.0
 43
10.0
 50
180.0
  0
INSERT
  5
A0C6
330
9CFF
100
AcDbEntity
  8
実形
 62
     0
370
    18
100
AcDbBlockReference
  2
_Dot
 10
1331.744264117068
 20
938.9489680781608
 30
0.0
 41
10.0
 42
10.0
 43
10.0
  0
POINT
  5
A0C7
330
9CFF
100
AcDbEntity
  8
Defpoints
 62
     0
100
AcDbPoint
 10
531.744264117068
 20
1059.35782105469
 30
0.0
  0
POINT
  5
A0C8
330
9CFF
100
AcDbEntity
  8
Defpoints
 62
     0
100
AcDbPoint
 10
1331.744264117068
 20
1059.35782105469
 30
0.0
  0
POINT
  5
A0C9
330
9CFF
100
AcDbEntity
  8
Defpoints
 62
     0
100
AcDbPoint
 10
1331.744264117068
 20
938.9489680781608
 30
0.0
  0
ENDBLK
  5
9D0A
330
9CFF
100
AcDbEntity
  8
0
 62
     3
100
AcDbBlockEnd
  0
BLOCK
  5
9D15
330
9D0B
100
AcDbEntity
  8
0
 62
     3
100
AcDbBlockBegin
  2
*D52
 70
     1
 10
0.0
 20
0.0
 30
0.0
  3
*D52
  1

  0
LINE
  5
A155
330
9D0B
100
AcDbEntity
  8
実形
 62
     0
370
    18
100
AcDbLine
 10
491.7442641170683
 20
964.35782105469
 30
0.0
 11
491.7442641170683
 21
872.5699674957432
 31
0.0
  0
LINE
  5
A156
330
9D0B
100
AcDbEntity
  8
実形
 62
     0
370
    18
100
AcDbLine
 10
1331.744264117068
 20
964.3578210546902
 30
0.0
 11
1331.744264117068
 21
872.5699674957432
 31
0.0
  0
LINE
  5
A157
330
9D0B
100
AcDbEntity
  8
実形
 62
     0
370
    18
100
AcDbLine
 10
501.7442641170682
 20
872.5699674957432
 30
0.0
 11
1321.744264117068
 21
872.5699674957432
 31
0.0
  0
INSERT
  5
A158
330
9D0B
100
AcDbEntity
  8
実形
 62
     0
370
    18
100
AcDbBlockReference
  2
_Dot
 10
491.7442641170683
 20
872.5699674957432
 30
0.0
 41
10.0
 42
10.0
 43
10.0
 50
180.0
  0
INSERT
  5
A159
330
9D0B
100
AcDbEntity
  8
実形
 62
     0
370
    18
100
AcDbBlockReference
  2
_Dot
 10
1331.744264117068
 20
872.5699674957432
 30
0.0
 41
10.0
 42
10.0
 43
10.0
  0
MTEXT
  5
A15A
330
9D0B
100
AcDbEntity
  8
実形
 62
     0
100
AcDbMText
 10
911.7442641170683
 20
894.1699674957432
 30
0.0
 40
30.0
 41
0.0
 71
     5
 72
     1
  1
840
 73
     1
 44
1.0
1001
ACAD
1000
MTEXTBEGIN
1070
    73
1070
     1
1070
    44
1040
1.0
1070
    74
1070
     0
1000
MTEXTEND
  0
POINT
  5
A15B
330
9D0B
100
AcDbEntity
  8
Defpoints
 62
     0
100
AcDbPoint
 10
491.7442641170683
 20
1029.35782105469
 30
0.0
  0
POINT
  5
A15C
330
9D0B
100
AcDbEntity
  8
Defpoints
 62
     0
100
AcDbPoint
 10
1331.744264117068
 20
1029.35782105469
 30
0.0
  0
POINT
  5
A15D
330
9D0B
100
AcDbEntity
  8
Defpoints
 62
     0
100
AcDbPoint
 10
1331.744264117068
 20
872.5699674957432
 30
0.0
  0
ENDBLK
  5
9D16
330
9D0B
100
AcDbEntity
  8
0
 62
     3
100
AcDbBlockEnd
  0
BLOCK
  5
9D21
330
9D17
100
AcDbEntity
  8
0
 62
     3
100
AcDbBlockBegin
  2
*D53
 70
     1
 10
0.0
 20
0.0
 30
0.0
  3
*D53
  1

  0
LINE
  5
A14C
330
9D17
100
AcDbEntity
  8
実形
 62
     0
370
    18
100
AcDbLine
 10
476.7442641170685
 20
994.3578210546904
 30
0.0
 11
476.7442641170685
 21
872.5699674957432
 31
0.0
  0
LINE
  5
A14D
330
9D17
100
AcDbEntity
  8
実形
 62
     0
370
    18
100
AcDbLine
 10
1331.744264117068
 20
994.3578210546904
 30
0.0
 11
1331.744264117068
 21
872.5699674957432
 31
0.0
  0
LINE
  5
A14E
330
9D17
100
AcDbEntity
  8
実形
 62
     0
370
    18
100
AcDbLine
 10
486.7442641170685
 20
872.5699674957432
 30
0.0
 11
1321.744264117068
 21
872.5699674957432
 31
0.0
  0
MTEXT
  5
A14F
330
9D17
100
AcDbEntity
  8
実形
 62
     0
100
AcDbMText
 10
448.1946245967056
 20
894.1699674957432
 30
0.0
 40
30.0
 41
0.0
 71
     5
 72
     1
  1
15
 73
     1
 44
1.0
1001
ACAD
1000
MTEXTBEGIN
1070
    73
1070
     1
1070
    44
1040
1.0
1070
    74
1070
     0
1000
MTEXTEND
  0
INSERT
  5
A150
330
9D17
100
AcDbEntity
  8
実形
 62
     0
370
    18
100
AcDbBlockReference
  2
_Dot
 10
476.7442641170685
 20
872.5699674957432
 30
0.0
 41
10.0
 42
10.0
 43
10.0
 50
180.0
  0
INSERT
  5
A151
330
9D17
100
AcDbEntity
  8
実形
 62
     0
370
    18
100
AcDbBlockReference
  2
_Dot
 10
1331.744264117068
 20
872.5699674957432
 30
0.0
 41
10.0
 42
10.0
 43
10.0
  0
POINT
  5
A152
330
9D17
100
AcDbEntity
  8
Defpoints
 62
     0
100
AcDbPoint
 10
476.7442641170685
 20
1059.35782105469
 30
0.0
  0
POINT
  5
A153
330
9D17
100
AcDbEntity
  8
Defpoints
 62
     0
100
AcDbPoint
 10
1331.744264117068
 20
1059.35782105469
 30
0.0
  0
POINT
  5
A154
330
9D17
100
AcDbEntity
  8
Defpoints
 62
     0
100
AcDbPoint
 10
1331.744264117068
 20
872.5699674957432
 30
0.0
  0
ENDBLK
  5
9D22
330
9D17
100
AcDbEntity
  8
0
 62
     3
100
AcDbBlockEnd
  0
BLOCK
  5
9D2D
330
9D23
100
AcDbEntity
  8
0
 62
     3
100
AcDbBlockBegin
  2
*D54
 70
     1
 10
0.0
 20
0.0
 30
0.0
  3
*D54
  1

  0
LINE
  5
A143
330
9D23
100
AcDbEntity
  8
実形
 62
     0
370
    18
100
AcDbLine
 10
491.7442641170683
 20
929.3578210546909
 30
0.0
 11
491.7442641170683
 21
872.5699674957432
 31
0.0
  0
LINE
  5
A144
330
9D23
100
AcDbEntity
  8
実形
 62
     0
370
    18
100
AcDbLine
 10
1346.744264117068
 20
994.3578210546904
 30
0.0
 11
1346.744264117068
 21
872.5699674957432
 31
0.0
  0
LINE
  5
A145
330
9D23
100
AcDbEntity
  8
実形
 62
     0
370
    18
100
AcDbLine
 10
501.7442641170682
 20
872.5699674957432
 30
0.0
 11
1336.744264117068
 21
872.5699674957432
 31
0.0
  0
MTEXT
  5
A146
330
9D23
100
AcDbEntity
  8
実形
 62
     0
100
AcDbMText
 10
1378.632964381236
 20
894.1699674957432
 30
0.0
 40
30.0
 41
0.0
 71
     5
 72
     1
  1
15
 73
     1
 44
1.0
1001
ACAD
1000
MTEXTBEGIN
1070
    73
1070
     1
1070
    44
1040
1.0
1070
    74
1070
     0
1000
MTEXTEND
  0
INSERT
  5
A147
330
9D23
100
AcDbEntity
  8
実形
 62
     0
370
    18
100
AcDbBlockReference
  2
_Dot
 10
491.7442641170683
 20
872.5699674957432
 30
0.0
 41
10.0
 42
10.0
 43
10.0
 50
180.0
  0
INSERT
  5
A148
330
9D23
100
AcDbEntity
  8
実形
 62
     0
370
    18
100
AcDbBlockReference
  2
_Dot
 10
1346.744264117068
 20
872.5699674957432
 30
0.0
 41
10.0
 42
10.0
 43
10.0
  0
POINT
  5
A149
330
9D23
100
AcDbEntity
  8
Defpoints
 62
     0
100
AcDbPoint
 10
491.7442641170683
 20
994.357821054691
 30
0.0
  0
POINT
  5
A14A
330
9D23
100
AcDbEntity
  8
Defpoints
 62
     0
100
AcDbPoint
 10
1346.744264117068
 20
1059.35782105469
 30
0.0
  0
POINT
  5
A14B
330
9D23
100
AcDbEntity
  8
Defpoints
 62
     0
100
AcDbPoint
 10
1346.744264117068
 20
872.5699674957432
 30
0.0
  0
ENDBLK
  5
9D2E
330
9D23
100
AcDbEntity
  8
0
 62
     3
100
AcDbBlockEnd
  0
BLOCK
  5
9D39
330
9D2F
100
AcDbEntity
  8
0
 62
     3
100
AcDbBlockBegin
  2
*D55
 70
     1
 10
0.0
 20
0.0
 30
0.0
  3
*D55
  1

  0
LINE
  5
A13A
330
9D2F
100
AcDbEntity
  8
実形
 62
     0
370
    18
100
AcDbLine
 10
476.7442641170685
 20
949.35782105469
 30
0.0
 11
476.7442641170685
 21
809.6478536806117
 31
0.0
  0
LINE
  5
A13B
330
9D2F
100
AcDbEntity
  8
実形
 62
     0
370
    18
100
AcDbLine
 10
1346.744264117068
 20
949.3578210546901
 30
0.0
 11
1346.744264117068
 21
809.6478536806117
 31
0.0
  0
LINE
  5
A13C
330
9D2F
100
AcDbEntity
  8
実形
 62
     0
370
    18
100
AcDbLine
 10
486.7442641170685
 20
809.6478536806117
 30
0.0
 11
1336.744264117068
 21
809.6478536806117
 31
0.0
  0
INSERT
  5
A13D
330
9D2F
100
AcDbEntity
  8
実形
 62
     0
370
    18
100
AcDbBlockReference
  2
_Dot
 10
476.7442641170685
 20
809.6478536806117
 30
0.0
 41
10.0
 42
10.0
 43
10.0
 50
180.0
  0
INSERT
  5
A13E
330
9D2F
100
AcDbEntity
  8
実形
 62
     0
370
    18
100
AcDbBlockReference
  2
_Dot
 10
1346.744264117068
 20
809.6478536806117
 30
0.0
 41
10.0
 42
10.0
 43
10.0
  0
MTEXT
  5
A13F
330
9D2F
100
AcDbEntity
  8
実形
 62
     0
100
AcDbMText
 10
911.7442641170685
 20
831.2478536806116
 30
0.0
 40
30.0
 41
0.0
 71
     5
 72
     1
  1
870
 73
     1
 44
1.0
1001
ACAD
1000
MTEXTBEGIN
1070
    73
1070
     1
1070
    44
1040
1.0
1070
    74
1070
     0
1000
MTEXTEND
  0
POINT
  5
A140
330
9D2F
100
AcDbEntity
  8
Defpoints
 62
     0
100
AcDbPoint
 10
476.7442641170685
 20
1014.35782105469
 30
0.0
  0
POINT
  5
A141
330
9D2F
100
AcDbEntity
  8
Defpoints
 62
     0
100
AcDbPoint
 10
1346.744264117068
 20
1014.35782105469
 30
0.0
  0
POINT
  5
A142
330
9D2F
100
AcDbEntity
  8
Defpoints
 62
     0
100
AcDbPoint
 10
1346.744264117068
 20
809.6478536806117
 30
0.0
  0
ENDBLK
  5
9D3A
330
9D2F
100
AcDbEntity
  8
0
 62
     3
100
AcDbBlockEnd
  0
BLOCK
  5
9D45
330
9D3B
100
AcDbEntity
  8
0
 62
     3
100
AcDbBlockBegin
  2
*D56
 70
     1
 10
0.0
 20
0.0
 30
0.0
  3
*D56
  1

  0
LINE
  5
9DEB
330
9D3B
100
AcDbEntity
  8
実形
 62
     0
370
    18
100
AcDbLine
 10
759.6394275161863
 20
1359.032765817214
 30
0.0
 11
717.0005027474408
 21
1359.032765817214
 31
0.0
  0
LINE
  5
9DEC
330
9D3B
100
AcDbEntity
  8
実形
 62
     0
370
    18
100
AcDbLine
 10
759.6394275161864
 20
1589.032765817214
 30
0.0
 11
717.0005027474408
 21
1589.032765817214
 31
0.0
  0
LINE
  5
9DED
330
9D3B
100
AcDbEntity
  8
実形
 62
     0
370
    18
100
AcDbLine
 10
717.0005027474408
 20
1369.032765817214
 30
0.0
 11
717.0005027474408
 21
1579.032765817214
 31
0.0
  0
MTEXT
  5
9DEE
330
9D3B
100
AcDbEntity
  8
実形
 62
     0
100
AcDbMText
 10
695.4005027474404
 20
1447.432043032923
 30
0.0
 40
30.0
 41
0.0
 71
     5
 72
     1
  1
230
 11
0.0000000000000001
 21
1.0
 31
0.0
 73
     1
 44
1.0
1001
ACAD
1000
MTEXTBEGIN
1070
    73
1070
     1
1070
    44
1040
1.0
1070
    74
1070
     0
1000
MTEXTEND
  0
INSERT
  5
9DEF
330
9D3B
100
AcDbEntity
  8
実形
 62
     0
370
    18
100
AcDbBlockReference
  2
_Dot
 10
717.0005027474408
 20
1359.032765817214
 30
0.0
 41
10.0
 42
10.0
 43
10.0
 50
270.0
  0
INSERT
  5
9DF0
330
9D3B
100
AcDbEntity
  8
実形
 62
     0
370
    18
100
AcDbBlockReference
  2
_Dot
 10
717.0005027474408
 20
1589.032765817214
 30
0.0
 41
10.0
 42
10.0
 43
10.0
 50
90.0
  0
POINT
  5
9DF1
330
9D3B
100
AcDbEntity
  8
Defpoints
 62
     0
100
AcDbPoint
 10
824.6394275161863
 20
1359.032765817214
 30
0.0
  0
POINT
  5
9DF2
330
9D3B
100
AcDbEntity
  8
Defpoints
 62
     0
100
AcDbPoint
 10
824.6394275161865
 20
1589.032765817214
 30
0.0
  0
POINT
  5
9DF3
330
9D3B
100
AcDbEntity
  8
Defpoints
 62
     0
100
AcDbPoint
 10
717.0005027474408
 20
1589.032765817214
 30
0.0
  0
ENDBLK
  5
9D46
330
9D3B
100
AcDbEntity
  8
0
 62
     3
100
AcDbBlockEnd
  0
BLOCK
  5
9ECF
330
9EC6
100
AcDbEntity
  8
0
 62
     3
100
AcDbBlockBegin
  2
A$C299B203C
 70
     0
 10
0.0
 20
0.0
 30
0.0
  3
A$C299B203C
  1

  0
LINE
  5
9EC7
330
9EC6
100
AcDbEntity
  8
実形
100
AcDbLine
 10
-20.00000000000046
 20
505.0
 30
0.0
 11
-20.00000000000046
 21
490.0
 31
0.0
  0
LINE
  5
9EC8
330
9EC6
100
AcDbEntity
  8
実形
100
AcDbLine
 10
-20.00000000000046
 20
490.0
 30
0.0
 11
-0.0000000000004547
 21
490.0
 31
0.0
  0
LINE
  5
9EC9
330
9EC6
100
AcDbEntity
  8
実形
100
AcDbLine
 10
-0.0000000000004547
 20
490.0
 30
0.0
 11
-0.0000000000004547
 21
410.0
 31
0.0
  0
LINE
  5
9ECA
330
9EC6
100
AcDbEntity
  8
実形
100
AcDbLine
 10
-0.0000000000004547
 20
0.0
 30
0.0
 11
-0.0000000000004547
 21
-30.0
 31
0.0
  0
LINE
  5
9ECB
330
9EC6
100
AcDbEntity
  8
実形
100
AcDbLine
 10
-0.0000000000004547
 20
-30.0
 30
0.0
 11
-20.00000000000046
 21
-30.0
 31
0.0
  0
LINE
  5
9ECC
330
9EC6
100
AcDbEntity
  8
実形
100
AcDbLine
 10
-20.00000000000046
 20
490.0
 30
0.0
 11
-20.00000000000046
 21
-30.0
 31
0.0
  0
ENDBLK
  5
9ED0
330
9EC6
100
AcDbEntity
  8
0
 62
     3
100
AcDbBlockEnd
  0
BLOCK
  5
A33D
330
A333
100
AcDbEntity
  8
0
 62
     3
100
AcDbBlockBegin
  2
*D58
 70
     1
 10
0.0
 20
0.0
 30
0.0
  3
*D58
  1

  0
LINE
  5
A40C
330
A333
100
AcDbEntity
  8
寸法
 62
     0
370
    15
100
AcDbLine
 10
2293.507244093326
 20
1171.498988482586
 30
0.0
 11
2323.663091062177
 21
1171.498988482586
 31
0.0
  0
LINE
  5
A40D
330
A333
100
AcDbEntity
  8
寸法
 62
     0
370
    15
100
AcDbLine
 10
2293.507244093326
 20
1021.501296008164
 30
0.0
 11
2323.663091062176
 21
1021.501296008164
 31
0.0
  0
LINE
  5
A40E
330
A333
100
AcDbEntity
  8
寸法
 62
     0
370
    15
100
AcDbLine
 10
2323.663091062177
 20
1171.498988482586
 30
0.0
 11
2323.663091062176
 21
1021.501296008164
 31
0.0
  0
INSERT
  5
A40F
330
A333
100
AcDbEntity
  8
寸法
 62
     0
370
    15
100
AcDbBlockReference
  2
_DotSmall
 10
2323.663091062177
 20
1171.498988482586
 30
0.0
 41
40.0
 42
40.0
 43
40.0
 50
90.0
  0
INSERT
  5
A410
330
A333
100
AcDbEntity
  8
寸法
 62
     0
370
    15
100
AcDbBlockReference
  2
_DotSmall
 10
2323.663091062176
 20
1021.501296008164
 30
0.0
 41
40.0
 42
40.0
 43
40.0
 50
270.0
  0
MTEXT
  5
A411
330
A333
100
AcDbEntity
  8
寸法
 62
     0
100
AcDbMText
 10
2304.913091062176
 20
1107.920396120715
 30
0.0
 40
25.0
 41
0.0
 71
     5
 72
     1
  1
15
 11
0.0000000000000001
 21
1.0
 31
0.0
 73
     1
 44
1.0
1001
ACAD
1000
MTEXTBEGIN
1070
    73
1070
     1
1070
    44
1040
1.0
1070
    74
1070
     0
1000
MTEXTEND
  0
POINT
  5
A412
330
A333
100
AcDbEntity
  8
Defpoints
 62
     0
100
AcDbPoint
 10
2273.507244093326
 20
1171.498988482586
 30
0.0
  0
POINT
  5
A413
330
A333
100
AcDbEntity
  8
Defpoints
 62
     0
100
AcDbPoint
 10
2273.507244093326
 20
1021.501296008164
 30
0.0
  0
POINT
  5
A414
330
A333
100
AcDbEntity
  8
Defpoints
 62
     0
100
AcDbPoint
 10
2323.663091062176
 20
1021.501296008164
 30
0.0
  0
ENDBLK
  5
A33E
330
A333
100
AcDbEntity
  8
0
 62
     3
100
AcDbBlockEnd
  0
BLOCK
  5
A355
330
A34B
100
AcDbEntity
  8
0
 62
     3
100
AcDbBlockBegin
  2
*D59
 70
     1
 10
0.0
 20
0.0
 30
0.0
  3
*D59
  1

  0
LINE
  5
A3FA
330
A34B
100
AcDbEntity
  8
寸法
 62
     0
370
    15
100
AcDbLine
 10
2273.507244093326
 20
1041.501296008164
 30
0.0
 11
2273.507244093326
 21
1064.755387089964
 31
0.0
  0
LINE
  5
A3FB
330
A34B
100
AcDbEntity
  8
寸法
 62
     0
370
    15
100
AcDbLine
 10
2653.304167392556
 20
1041.501296008164
 30
0.0
 11
2653.304167392556
 21
1064.755387089964
 31
0.0
  0
LINE
  5
A3FC
330
A34B
100
AcDbEntity
  8
寸法
 62
     0
370
    15
100
AcDbLine
 10
2273.507244093326
 20
1064.755387089964
 30
0.0
 11
2653.304167392556
 21
1064.755387089964
 31
0.0
  0
INSERT
  5
A3FD
330
A34B
100
AcDbEntity
  8
寸法
 62
     0
370
    15
100
AcDbBlockReference
  2
_DotSmall
 10
2273.507244093326
 20
1064.755387089964
 30
0.0
 41
40.0
 42
40.0
 43
40.0
 50
180.0
  0
INSERT
  5
A3FE
330
A34B
100
AcDbEntity
  8
寸法
 62
     0
370
    15
100
AcDbBlockReference
  2
_DotSmall
 10
2653.304167392556
 20
1064.755387089964
 30
0.0
 41
40.0
 42
40.0
 43
40.0
  0
MTEXT
  5
A3FF
330
A34B
100
AcDbEntity
  8
寸法
 62
     0
100
AcDbMText
 10
2488.399349895659
 20
1083.505387089964
 30
0.0
 40
25.0
 41
0.0
 71
     5
 72
     1
  1
40
 73
     1
 44
1.0
1001
ACAD
1000
MTEXTBEGIN
1070
    73
1070
     1
1070
    44
1040
1.0
1070
    74
1070
     0
1000
MTEXTEND
  0
POINT
  5
A400
330
A34B
100
AcDbEntity
  8
Defpoints
 62
     0
100
AcDbPoint
 10
2273.507244093326
 20
1021.501296008164
 30
0.0
  0
POINT
  5
A401
330
A34B
100
AcDbEntity
  8
Defpoints
 62
     0
100
AcDbPoint
 10
2653.304167392556
 20
1021.501296008164
 30
0.0
  0
POINT
  5
A402
330
A34B
100
AcDbEntity
  8
Defpoints
 62
     0
100
AcDbPoint
 10
2653.304167392556
 20
1064.755387089964
 30
0.0
  0
ENDBLK
  5
A356
330
A34B
100
AcDbEntity
  8
0
 62
     3
100
AcDbBlockEnd
  0
BLOCK
  5
A361
330
A357
100
AcDbEntity
  8
0
 62
     3
100
AcDbBlockBegin
  2
*D60
 70
     1
 10
0.0
 20
0.0
 30
0.0
  3
*D60
  1

  0
LINE
  5
A3D7
330
A357
100
AcDbEntity
  8
寸法
 62
     0
370
    15
100
AcDbLine
 10
2123.692942837305
 20
1209.012193412978
 30
0.0
 11
2123.692942837305
 21
1290.291847622432
 31
0.0
  0
LINE
  5
A3D8
330
A357
100
AcDbEntity
  8
寸法
 62
     0
370
    15
100
AcDbLine
 10
2273.507244093326
 20
1216.498988482586
 30
0.0
 11
2273.507244093326
 21
1290.291847622432
 31
0.0
  0
LINE
  5
A3D9
330
A357
100
AcDbEntity
  8
寸法
 62
     0
370
    15
100
AcDbLine
 10
2123.692942837305
 20
1290.291847622432
 30
0.0
 11
2273.507244093326
 21
1290.291847622432
 31
0.0
  0
INSERT
  5
A3DA
330
A357
100
AcDbEntity
  8
寸法
 62
     0
370
    15
100
AcDbBlockReference
  2
_DotSmall
 10
2123.692942837305
 20
1290.291847622432
 30
0.0
 41
40.0
 42
40.0
 43
40.0
 50
180.0
  0
INSERT
  5
A3DB
330
A357
100
AcDbEntity
  8
寸法
 62
     0
370
    15
100
AcDbBlockReference
  2
_DotSmall
 10
2273.507244093326
 20
1290.291847622432
 30
0.0
 41
40.0
 42
40.0
 43
40.0
  0
MTEXT
  5
A3DC
330
A357
100
AcDbEntity
  8
寸法
 62
     0
100
AcDbMText
 10
2198.600093465316
 20
1309.041847622432
 30
0.0
 40
25.0
 41
0.0
 71
     5
 72
     1
  1
15
 73
     1
 44
1.0
1001
ACAD
1000
MTEXTBEGIN
1070
    73
1070
     1
1070
    44
1040
1.0
1070
    74
1070
     0
1000
MTEXTEND
  0
POINT
  5
A3DD
330
A357
100
AcDbEntity
  8
Defpoints
 62
     0
100
AcDbPoint
 10
2123.692942837305
 20
1164.012193412978
 30
0.0
  0
POINT
  5
A3DE
330
A357
100
AcDbEntity
  8
Defpoints
 62
     0
100
AcDbPoint
 10
2273.507244093326
 20
1171.498988482586
 30
0.0
  0
POINT
  5
A3DF
330
A357
100
AcDbEntity
  8
Defpoints
 62
     0
100
AcDbPoint
 10
2273.507244093326
 20
1290.291847622432
 30
0.0
  0
ENDBLK
  5
A362
330
A357
100
AcDbEntity
  8
0
 62
     3
100
AcDbBlockEnd
  0
ENDSEC
  0
SECTION
  2
ENTITIES
  0
LINE
  5
9C
330
1F
100
AcDbEntity
  8
枠
 62
     0
100
AcDbLine
 10
174.0
 20
3.99999999999909
 30
0.0
 11
2834.0
 21
3.99999999999909
 31
0.0
  0
LINE
  5
A0
330
1F
100
AcDbEntity
  8
枠
 62
     0
100
AcDbLine
 10
2834.0
 20
2023.999999999999
 30
0.0
 11
174.0
 21
2023.999999999999
 31
0.0
  0
LINE
  5
272
330
1F
100
AcDbEntity
  8
枠
 62
     0
100
AcDbLine
 10
2234.0
 20
133.9999999999991
 30
0.0
 11
2234.0
 21
198.9999999999991
 31
0.0
  0
LINE
  5
1B73
330
1F
100
AcDbEntity
  8
枠
 62
     0
100
AcDbLine
 10
1944.0
 20
2023.999999999999
 30
0.0
 11
2834.0
 21
2023.999999999999
 31
0.0
  0
LINE
  5
1B84
330
1F
100
AcDbEntity
  8
実形
 62
     0
100
AcDbLine
 10
2114.0
 20
68.99999999999909
 30
0.0
 11
2834.0
 21
68.99999999999909
 31
0.0
  0
LINE
  5
1B85
330
1F
100
AcDbEntity
  8
実形
 62
     0
100
AcDbLine
 10
2114.0
 20
198.9999999999991
 30
0.0
 11
2834.0
 21
198.9999999999991
 31
0.0
  0
LINE
  5
1B86
330
1F
100
AcDbEntity
  8
実形
 62
     0
100
AcDbLine
 10
2114.0
 20
133.9999999999991
 30
0.0
 11
2834.0
 21
133.9999999999991
 31
0.0
  0
LINE
  5
1B87
330
1F
100
AcDbEntity
  8
実形
 62
     0
100
AcDbLine
 10
2114.0
 20
3.99999999999909
 30
0.0
 11
2114.0
 21
198.9999999999991
 31
0.0
  0
TEXT
  5
1B88
330
1F
100
AcDbEntity
  8
枠
 62
     0
100
AcDbText
 10
2340.916476167013
 20
18.49999999999909
 30
0.0
 40
35.0
  1
中外交易株式会社
  7
ms明朝
 72
     4
 11
2545.716476167013
 21
36.49999999999909
 31
0.0
100
AcDbText
  0
LINE
  5
1B8A
330
1F
100
AcDbEntity
  8
実形
 62
     0
100
AcDbLine
 10
2234.0
 20
68.99999999999909
 30
0.0
 11
2834.0
 21
68.99999999999909
 31
0.0
  0
LINE
  5
1B8B
102
{ACAD_REACTORS
330
1B98
102
}
330
1F
100
AcDbEntity
  8
枠
 62
     0
370
     5
100
AcDbLine
 10
2257.843923164362
 20
40.53787547858428
 30
0.0
 11
2233.255774665348
 21
40.53787547858428
 31
0.0
  0
LINE
  5
1B8C
102
{ACAD_REACTORS
330
1B98
102
}
330
1F
100
AcDbEntity
  8
枠
 62
     0
370
     5
100
AcDbLine
 10
2233.255774665348
 20
40.53787547858428
 30
0.0
 11
2233.255774665348
 21
30.53787547858429
 31
0.0
  0
LINE
  5
1B8D
102
{ACAD_REACTORS
330
1B98
102
}
330
1F
100
AcDbEntity
  8
枠
 62
     0
370
     5
100
AcDbLine
 10
2233.255774665348
 20
30.53787547858429
 30
0.0
 11
2257.346428692676
 21
30.53787547858429
 31
0.0
  0
LINE
  5
1B8E
102
{ACAD_REACTORS
330
1B98
102
}
330
1F
100
AcDbEntity
  8
枠
 62
     0
370
     5
100
AcDbLine
 10
2260.641894042939
 20
56.49999999999909
 30
0.0
 11
2260.641894042939
 21
16.49999999999909
 31
0.0
  0
LINE
  5
1B8F
102
{ACAD_REACTORS
330
1B98
102
}
330
1F
100
AcDbEntity
  8
枠
 62
     0
370
     5
100
AcDbLine
 10
2260.641894042939
 20
16.49999999999909
 30
0.0
 11
2295.641894042939
 21
16.49999999999909
 31
0.0
  0
LINE
  5
1B90
102
{ACAD_REACTORS
330
1B98
102
}
330
1F
100
AcDbEntity
  8
枠
 62
     0
370
     5
100
AcDbLine
 10
2295.641894042939
 20
16.49999999999909
 30
0.0
 11
2260.641894042939
 21
36.49999999999909
 31
0.0
  0
LINE
  5
1B91
102
{ACAD_REACTORS
330
1B98
102
}
330
1F
100
AcDbEntity
  8
枠
 62
     0
370
     5
100
AcDbLine
 10
2260.641894042939
 20
36.49999999999909
 30
0.0
 11
2295.641894042939
 21
56.49999999999909
 31
0.0
  0
LINE
  5
1B92
102
{ACAD_REACTORS
330
1B98
102
}
330
1F
100
AcDbEntity
  8
枠
 62
     0
370
     5
100
AcDbLine
 10
2295.641894042939
 20
56.49999999999909
 30
0.0
 11
2260.641894042939
 21
56.49999999999909
 31
0.0
  0
LINE
  5
1B93
102
{ACAD_REACTORS
330
1B98
102
}
330
1F
100
AcDbEntity
  8
枠
 62
     0
370
     5
100
AcDbLine
 10
2326.75434681301
 20
40.53787547858428
 30
0.0
 11
2302.166198313996
 21
40.53787547858428
 31
0.0
  0
LINE
  5
1B94
102
{ACAD_REACTORS
330
1B98
102
}
330
1F
100
AcDbEntity
  8
枠
 62
     0
370
     5
100
AcDbLine
 10
2302.166198313996
 20
40.53787547858428
 30
0.0
 11
2302.166198313996
 21
30.53787547858429
 31
0.0
  0
LINE
  5
1B95
102
{ACAD_REACTORS
330
1B98
102
}
330
1F
100
AcDbEntity
  8
枠
 62
     0
370
     5
100
AcDbLine
 10
2302.166198313996
 20
30.53787547858429
 30
0.0
 11
2326.256852341323
 21
30.53787547858429
 31
0.0
  0
ARC
  5
1B96
102
{ACAD_REACTORS
330
1B98
102
}
330
1F
100
AcDbEntity
  8
枠
 62
     0
370
     5
100
AcDbCircle
 10
2238.255774665347
 20
36.49999999999909
 30
0.0
 40
20.0
100
AcDbArc
 50
11.64772366708617
 51
342.6561058784773
  0
ARC
  5
1B97
102
{ACAD_REACTORS
330
1B98
102
}
330
1F
100
AcDbEntity
  8
枠
 62
     0
370
     5
100
AcDbCircle
 10
2307.166198313995
 20
36.49999999999909
 30
0.0
 40
20.0
100
AcDbArc
 50
11.64772366708617
 51
342.6561058784773
  0
HATCH
  5
1B98
330
1F
100
AcDbEntity
  8
枠
 62
     0
100
AcDbHatch
 10
0.0
 20
0.0
 30
0.0
210
0.0
220
0.0
230
1.0
  2
SOLID
 70
     1
 71
     1
 91
        3
 92
        1
 93
        4
 72
     2
 10
2307.166198313995
 20
36.49999999999909
 40
20.0
 50
11.64772366708617
 51
342.6561058784773
 73
     1
 72
     1
 10
2326.256852341323
 20
30.53787547858429
 11
2302.166198313996
 21
30.53787547858429
 72
     1
 10
2302.166198313996
 20
30.53787547858429
 11
2302.166198313996
 21
40.53787547858428
 72
     1
 10
2302.166198313996
 20
40.53787547858428
 11
2326.75434681301
 21
40.53787547858428
 97
        4
330
1B97
330
1B95
330
1B94
330
1B93
 92
        1
 93
        4
 72
     2
 10
2238.255774665347
 20
36.49999999999909
 40
20.0
 50
11.64772366708617
 51
342.6561058784773
 73
     1
 72
     1
 10
2257.346428692676
 20
30.53787547858429
 11
2233.255774665348
 21
30.53787547858429
 72
     1
 10
2233.255774665348
 20
30.53787547858429
 11
2233.255774665348
 21
40.53787547858428
 72
     1
 10
2233.255774665348
 20
40.53787547858428
 11
2257.843923164362
 21
40.53787547858428
 97
        4
330
1B96
330
1B8D
330
1B8C
330
1B8B
 92
        1
 93
        5
 72
     1
 10
2295.641894042939
 20
56.49999999999909
 11
2260.641894042939
 21
56.49999999999909
 72
     1
 10
2260.641894042939
 20
56.49999999999909
 11
2260.641894042939
 21
16.49999999999909
 72
     1
 10
2260.641894042939
 20
16.49999999999909
 11
2295.641894042939
 21
16.49999999999909
 72
     1
 10
2295.641894042939
 20
16.49999999999909
 11
2260.641894042939
 21
36.49999999999909
 72
     1
 10
2260.641894042939
 20
36.49999999999909
 11
2295.641894042939
 21
56.49999999999909
 97
        5
330
1B92
330
1B8E
330
1B8F
330
1B90
330
1B91
 75
     0
 76
     1
 98
        1
 10
-10.0
 20
-0.0000000000009095
  0
LINE
  5
1B99
330
1F
100
AcDbEntity
  8
実形
 62
     0
100
AcDbLine
 10
2234.0
 20
68.99999999999909
 30
0.0
 11
2234.0
 21
198.9999999999991
 31
0.0
  0
TEXT
  5
5E5F
330
1F
100
AcDbEntity
  8
枠
 62
     0
100
AcDbText
 10
2136.666666666667
 20
83.99999999999909
 30
0.0
 40
35.0
  1
尺度
 72
     4
 11
2174.0
 21
101.4999999999991
 31
0.0
100
AcDbText
  0
TEXT
  5
5E68
330
1F
100
AcDbEntity
  8
枠
 62
     0
100
AcDbText
 10
2136.666666666667
 20
148.9999999999991
 30
0.0
 40
35.0
  1
品番
 72
     4
 11
2174.0
 21
166.4999999999991
 31
0.0
100
AcDbText
  0
TEXT
  5
68BC
330
1F
100
AcDbEntity
  8
実形
100
AcDbText
 10
2443.255253185007
 20
84.68238670760312
 30
0.0
 40
35.0
  1
1：10
  7
ms明朝
 72
     4
 11
2507.255253185007
 21
101.7823867076031
 31
0.0
100
AcDbText
  0
TEXT
  5
68D6
330
1F
100
AcDbEntity
  8
実形
100
AcDbText
 10
2256.199308654109
 20
150.6851609986098
 30
0.0
 40
31.0
  1
A1ｍ ｍ840-530 DEK-XV1L
  7
ms明朝
 72
     4
 11
2516.953594368394
 21
165.830875284324
 31
0.0
100
AcDbText
  0
LINE
  5
6D9B
330
1F
100
AcDbEntity
  8
実形
 62
     0
100
AcDbLine
 10
2834.0
 20
4.0
 30
0.0
 11
2834.0
 21
2024.0
 31
0.0
  0
LINE
  5
6E31
330
1F
100
AcDbEntity
  8
実形
 62
     0
100
AcDbLine
 10
174.0
 20
2024.0
 30
0.0
 11
174.0
 21
4.0
 31
0.0
  0
LINE
  5
7F8A
330
1F
100
AcDbEntity
  8
補助
 62
     0
100
AcDbLine
 10
2834.0
 20
1959.0
 30
0.0
 11
2069.387286519283
 21
1959.000000000001
 31
0.0
  0
LINE
  5
7F8B
330
1F
100
AcDbEntity
  8
補助
 62
     0
100
AcDbLine
 10
2834.0
 20
1894.0
 30
0.0
 11
2069.387286519283
 21
1894.0
 31
0.0
  0
LINE
  5
7F8C
330
1F
100
AcDbEntity
  8
補助
 62
     0
100
AcDbLine
 10
2252.547653420926
 20
1894.0
 30
0.0
 11
2252.547653420926
 21
2024.0
 31
0.0
  0
LINE
  5
7F8D
330
1F
100
AcDbEntity
  8
実形
 62
     0
100
AcDbLine
 10
2069.387286519283
 20
1894.0
 30
0.0
 11
2069.387286519283
 21
2024.0
 31
0.0
  0
TEXT
  5
7F8E
330
1F
100
AcDbEntity
  8
補助
 62
     0
100
AcDbText
 10
2100.295698850121
 20
1976.328571428572
 30
0.0
 40
30.0
  1
部品名
  7
明朝
 72
     4
 11
2166.124270278692
 21
1991.5
 31
0.0
100
AcDbText
  0
TEXT
  5
7F8F
330
1F
100
AcDbEntity
  8
補助
 62
     0
100
AcDbText
 10
2677.614285714286
 20
1976.071428571429
 30
0.0
 40
30.0
  1
厚さ
  7
明朝
 72
     4
 11
2721.5
 21
1991.5
 31
0.0
100
AcDbText
  0
LINE
  5
7F90
330
1F
100
AcDbEntity
  8
補助
 62
     0
100
AcDbLine
 10
2609.0
 20
1894.0
 30
0.0
 11
2609.0
 21
2024.0
 31
0.0
  0
TEXT
  5
7F91
330
1F
100
AcDbEntity
  8
補助
 62
     0
100
AcDbText
 10
2388.490869919937
 20
1975.947979478155
 30
0.0
 40
30.0
  1
材質
  7
明朝
 72
     4
 11
2432.376584205651
 21
1991.119408049583
 31
0.0
100
AcDbText
  0
TEXT
  5
7F92
330
1F
100
AcDbEntity
  8
実形
 62
     0
100
AcDbText
 10
2098.227810657788
 20
1910.557142857143
 30
0.0
 40
30.0
  1
ボウル
  7
明朝
 72
     4
 11
2164.056382086359
 21
1926.5
 31
0.0
100
AcDbText
  0
TEXT
  5
7F93
330
1F
100
AcDbEntity
  8
実形
100
AcDbText
 10
2644.700000000001
 20
1911.842857142857
 30
0.0
 40
30.0
  1
1.0ｍｍ
  7
明朝
 72
     4
 11
2721.500000000001
 21
1926.5
 31
0.0
100
AcDbText
  0
TEXT
  5
7F94
330
1F
100
AcDbEntity
  8
実形
 62
     0
100
AcDbText
 10
2311.016869107866
 20
1910.728571428572
 30
0.0
 40
30.0
  1
SUS304（#9）
  7
明朝
 72
     4
 11
2442.674011965009
 21
1926.5
 31
0.0
100
AcDbText
  0
LINE
  5
7FFD
330
1F
100
AcDbEntity
  8
実形
100
AcDbLine
 10
1700.988125398214
 20
1099.032765817213
 30
0.0
 11
1641.473994275539
 21
1099.032765817213
 31
0.0
  0
LINE
  5
7FFE
330
1F
100
AcDbEntity
  8
実形
100
AcDbLine
 10
1548.766988216205
 20
1511.186658377635
 30
0.0
 11
1548.766988216205
 21
1099.032765817213
 31
0.0
  0
LINE
  5
800C
330
1F
100
AcDbEntity
  8
実形
100
AcDbLine
 10
1738.766988216205
 20
1449.532765817214
 30
0.0
 11
1738.766988216205
 21
1268.532765817214
 31
0.0
  0
LINE
  5
8017
330
1F
100
AcDbEntity
  8
実形
  6
ACAD_ISO08W100
 48
0.5
100
AcDbLine
 10
1669.211595797082
 20
1359.032765817214
 30
0.0
 11
1779.197929678113
 21
1359.032765817214
 31
0.0
  0
LINE
  5
8115
330
1F
100
AcDbEntity
  8
実形
100
AcDbLine
 10
1291.744264117069
 20
1114.032765817213
 30
0.0
 11
1291.744264117069
 21
1494.032765817214
 31
0.0
  0
LINE
  5
8116
330
1F
100
AcDbEntity
  8
実形
100
AcDbLine
 10
531.744264117068
 20
1114.032765817213
 30
0.0
 11
531.7442641170685
 21
1494.032765817214
 31
0.0
  0
LINE
  5
8117
330
1F
100
AcDbEntity
  8
実形
100
AcDbLine
 10
1276.744264117068
 20
1099.032765817214
 30
0.0
 11
546.744264117068
 21
1099.032765817213
 31
0.0
  0
LINE
  5
8118
330
1F
100
AcDbEntity
  8
実形
100
AcDbLine
 10
1276.744264117068
 20
1509.032765817214
 30
0.0
 11
546.7442641170684
 21
1509.032765817214
 31
0.0
  0
LINE
  5
8125
330
1F
100
AcDbEntity
  8
実形
  6
ACAD_ISO08W100
 48
0.5
100
AcDbLine
 10
911.7442641170683
 20
1229.347121766945
 30
0.0
 11
911.7442641170683
 21
1488.718409867483
 31
0.0
  0
CIRCLE
  5
8127
330
1F
100
AcDbEntity
  8
実形
100
AcDbCircle
 10
911.7442641170683
 20
1359.032765817214
 30
0.0
 40
79.0
  0
CIRCLE
  5
812A
330
1F
100
AcDbEntity
  8
実形
100
AcDbCircle
 10
911.7442641170683
 20
1359.032765817214
 30
0.0
 40
90.5
  0
CIRCLE
  5
812B
330
1F
100
AcDbEntity
  8
実形
100
AcDbCircle
 10
911.7442641170683
 20
1359.032765817214
 30
0.0
 40
100.0
  0
LINE
  5
8150
330
1F
100
AcDbEntity
  8
実形
  6
ACAD_ISO08W100
 48
0.5
100
AcDbLine
 10
782.0586200667994
 20
1359.032765817214
 30
0.0
 11
1068.470932997924
 21
1359.032765817214
 31
0.0
  0
LINE
  5
84F5
330
1F
100
AcDbEntity
  8
実形
100
AcDbLine
 10
531.7442641170686
 20
559.98164140068
 30
0.0
 11
531.7442641170686
 21
412.6016521246047
 31
0.0
  0
LINE
  5
84F6
330
1F
100
AcDbEntity
  8
実形
100
AcDbLine
 10
821.2442641170682
 20
373.98164140068
 30
0.0
 11
1012.244264117068
 21
373.98164140068
 31
0.0
  0
LINE
  5
84F7
330
1F
100
AcDbEntity
  8
実形
100
AcDbLine
 10
1291.744264117068
 20
412.6016521246047
 30
0.0
 11
1291.744264117069
 21
559.98164140068
 31
0.0
  0
LINE
  5
8500
330
1F
100
AcDbEntity
  8
実形
100
AcDbLine
 10
821.244264117068
 20
363.98164140068
 30
0.0
 11
1002.244264117068
 21
363.98164140068
 31
0.0
  0
LINE
  5
8505
330
1F
100
AcDbEntity
  8
実形
100
AcDbLine
 10
1002.244264117068
 20
373.98164140068
 30
0.0
 11
1002.244264117068
 21
363.98164140068
 31
0.0
  0
LINE
  5
8506
330
1F
100
AcDbEntity
  8
実形
100
AcDbLine
 10
821.2442641170682
 20
373.98164140068
 30
0.0
 11
821.244264117068
 21
363.98164140068
 31
0.0
  0
DIMENSION
  5
8509
330
1F
100
AcDbEntity
  8
実形
100
AcDbDimension
  2
*D11
 10
990.7442641170682
 20
289.7164880072969
 30
0.0
 11
911.7442641170683
 21
311.3164880072969
 31
0.0
 70
    32
 71
     5
 42
158.0
  3
ISO-25
100
AcDbAlignedDimension
 13
832.7442641170682
 23
381.1147262471213
 33
0.0
 14
990.7442641170682
 24
381.1147262471213
 34
0.0
100
AcDbRotatedDimension
1001
ACAD
1000
DSTYLE
1002
{
1070
    41
1040
10.0
1070
   140
1040
30.0
1070
   147
1040
6.599999999999998
1070
   279
1070
     2
1070
   342
1005
30D
1070
   371
1070
    18
1070
   372
1070
    18
1002
}
  0
LINE
  5
863A
330
1F
100
AcDbEntity
  8
実形
100
AcDbLine
 10
821.2442641170682
 20
373.98164140068
 30
0.0
 11
550.316787001971
 21
392.6526594411164
 31
0.0
  0
LINE
  5
863B
330
1F
100
AcDbEntity
  8
実形
100
AcDbLine
 10
1012.244264117068
 20
373.98164140068
 30
0.0
 11
1273.171741232166
 21
392.6526594411164
 31
0.0
  0
TEXT
  5
8647
330
1F
100
AcDbEntity
  8
実形
100
AcDbText
 10
596.1431401268419
 20
402.6965299232069
 30
0.0
 40
25.0
  1
20R
 72
     2
 11
658.6431401268419
 21
399.3631965898736
 31
0.0
100
AcDbText
 73
     1
  0
TEXT
  5
8648
330
1F
100
AcDbEntity
  8
実形
100
AcDbText
 10
1168.103667087996
 20
398.6926761408795
 30
0.0
 40
25.0
  1
20R
 72
     2
 11
1230.603667087996
 21
395.3593428075462
 31
0.0
100
AcDbText
 73
     1
  0
ARC
  5
864B
330
1F
100
AcDbEntity
  8
実形
100
AcDbCircle
 10
551.7442641170687
 20
412.6016521246047
 30
0.0
 40
20.0
100
AcDbArc
 50
180.0
 51
265.9070992409755
  0
ARC
  5
864C
330
1F
100
AcDbEntity
  8
実形
100
AcDbCircle
 10
1271.744264117068
 20
412.6016521246047
 30
0.0
 40
20.0
100
AcDbArc
 50
274.0929007590245
 51
0.0
  0
LINE
  5
8656
330
1F
100
AcDbEntity
  8
実形
  6
ACAD_ISO08W100
 48
0.5
100
AcDbLine
 10
911.7442641170683
 20
340.3511119615842
 30
0.0
 11
911.7442641170685
 21
457.5955369902222
 31
0.0
  0
ARC
  5
86E8
330
1F
100
AcDbEntity
  8
実形
100
AcDbCircle
 10
1276.744264117068
 20
1114.032765817213
 30
0.0
 40
15.0
100
AcDbArc
 50
270.0
 51
0.0
  0
ARC
  5
86EB
330
1F
100
AcDbEntity
  8
実形
100
AcDbCircle
 10
1276.744264117068
 20
1494.032765817214
 30
0.0
 40
15.0
100
AcDbArc
 50
0.0
 51
90.0
  0
ARC
  5
86ED
330
1F
100
AcDbEntity
  8
実形
100
AcDbCircle
 10
546.744264117068
 20
1114.032765817213
 30
0.0
 40
15.0
100
AcDbArc
 50
179.9999999999999
 51
270.0
  0
ARC
  5
86EF
330
1F
100
AcDbEntity
  8
実形
100
AcDbCircle
 10
546.7442641170684
 20
1494.032765817214
 30
0.0
 40
15.0
100
AcDbArc
 50
90.00000000000003
 51
179.9999999999999
  0
LINE
  5
87C9
330
1F
100
AcDbEntity
  8
実形
100
AcDbLine
 10
1738.766988216205
 20
1268.532765817214
 30
0.0
 11
1738.766988216205
 21
1449.532765817214
 31
0.0
  0
LINE
  5
87CA
330
1F
100
AcDbEntity
  8
実形
100
AcDbLine
 10
1748.766988216205
 20
1268.532765817214
 30
0.0
 11
1748.766988216205
 21
1449.532765817214
 31
0.0
  0
LINE
  5
87CB
330
1F
100
AcDbEntity
  8
実形
100
AcDbLine
 10
1738.766988216205
 20
1268.532765817214
 30
0.0
 11
1748.766988216205
 21
1268.532765817214
 31
0.0
  0
DIMENSION
  5
87CD
330
1F
100
AcDbEntity
  8
実形
100
AcDbDimension
  2
*D13
 10
1823.032141609589
 20
1438.032765817214
 30
0.0
 11
1801.432141609588
 21
1359.032765817214
 31
0.0
 70
    32
 71
     5
 42
158.0
  3
ISO-25
100
AcDbAlignedDimension
 13
1731.633903369764
 23
1280.032765817214
 33
0.0
 14
1731.633903369764
 24
1438.032765817214
 34
0.0
 50
90.0
100
AcDbRotatedDimension
1001
ACAD
1000
DSTYLE
1002
{
1070
    41
1040
10.0
1070
   140
1040
30.0
1070
   147
1040
6.599999999999998
1070
   279
1070
     2
1070
   342
1005
30D
1070
   371
1070
    18
1070
   372
1070
    18
1002
}
  0
DIMENSION
  5
87CE
330
1F
100
AcDbEntity
  8
実形
100
AcDbDimension
  2
*D14
 10
1644.525840931817
 20
1449.532765817214
 30
0.0
 11
1622.925840931817
 21
1359.032765817214
 31
0.0
 70
    32
 71
     5
 42
181.0
  3
ISO-25
100
AcDbAlignedDimension
 13
1738.766988216205
 23
1268.532765817214
 33
0.0
 14
1738.766988216205
 24
1449.532765817214
 34
0.0
 50
90.0
100
AcDbRotatedDimension
1001
ACAD
1000
DSTYLE
1002
{
1070
    41
1040
10.0
1070
   140
1040
30.0
1070
   147
1040
6.599999999999998
1070
   279
1070
     2
1070
   342
1005
30D
1070
   371
1070
    18
1070
   372
1070
    18
1002
}
  0
DIMENSION
  5
87CF
330
1F
100
AcDbEntity
  8
実形
100
AcDbDimension
  2
*D15
 10
1644.525840931817
 20
1449.532765817214
 30
0.0
 11
1622.925840931818
 21
1260.306153711147
 31
0.0
 70
   160
  1
10
 71
     5
 42
191.0
  3
ISO-25
100
AcDbAlignedDimension
 13
1738.766988216205
 23
1258.532765817214
 33
0.0
 14
1738.766988216205
 24
1449.532765817214
 34
0.0
 50
90.0
100
AcDbRotatedDimension
1001
ACAD
1000
DSTYLE
1002
{
1070
    41
1040
10.0
1070
   140
1040
30.0
1070
   147
1040
6.599999999999998
1070
   279
1070
     2
1070
   342
1005
30D
1070
   371
1070
    18
1070
   372
1070
    18
1002
}
  0
DIMENSION
  5
87D0
330
1F
100
AcDbEntity
  8
実形
100
AcDbDimension
  2
*D16
 10
1644.525840931817
 20
1459.532765817214
 30
0.0
 11
1620.026791453226
 21
1438.741877007812
 31
0.0
 70
   160
  1
10
 71
     5
 42
191.0
  3
ISO-25
100
AcDbAlignedDimension
 13
1738.766988216205
 23
1268.532765817214
 33
0.0
 14
1738.766988216205
 24
1459.532765817214
 34
0.0
 50
90.0
100
AcDbRotatedDimension
1001
ACAD
1000
DSTYLE
1002
{
1070
    41
1040
10.0
1070
   140
1040
30.0
1070
   147
1040
6.599999999999998
1070
   279
1070
     2
1070
   342
1005
30D
1070
   371
1070
    18
1070
   372
1070
    18
1002
}
  0
LINE
  5
88DF
330
1F
100
AcDbEntity
  8
実形
100
AcDbLine
 10
1738.766988216205
 20
1449.532765817214
 30
0.0
 11
1748.766988216205
 21
1449.532765817214
 31
0.0
  0
LINE
  5
8907
330
1F
100
AcDbEntity
  8
実形
100
AcDbLine
 10
1738.766988216205
 20
1268.532765817214
 30
0.0
 11
1720.850336449495
 21
1116.689142094348
 31
0.0
  0
ARC
  5
8908
330
1F
100
AcDbEntity
  8
実形
100
AcDbCircle
 10
1700.988125398214
 20
1119.032765817213
 30
0.0
 40
20.0
100
AcDbArc
 50
270.0
 51
353.2705514252482
  0
TEXT
  5
8937
330
1F
100
AcDbEntity
  8
実形
100
AcDbText
 10
1616.232465996192
 20
1169.607694651291
 30
0.0
 40
25.0
  1
20R
 72
     2
 11
1678.732465996192
 21
1166.274361317958
 31
0.0
100
AcDbText
 73
     1
  0
LEADER
  5
8938
330
1F
100
AcDbEntity
  8
実形
100
AcDbLeader
  3
ISO-25
 76
     2
 10
1705.273818723523
 20
1107.936137825544
 30
0.0
 10
1651.099949388463
 20
1163.733549330676
 30
0.0
1001
ACAD
1000
DSTYLE
1002
{
1070
    77
1070
     0
1070
    41
1040
10.0
1070
   140
1040
30.0
1070
   147
1040
6.599999999999998
1070
   279
1070
     2
1070
   342
1005
30D
1070
   371
1070
    18
1070
   372
1070
    18
1002
}
  0
TEXT
  5
894A
330
1F
100
AcDbEntity
  8
実形
100
AcDbText
 10
1633.763393695466
 20
1468.568459172616
 30
0.0
 40
25.0
  1
20R
 72
     2
 11
1696.263393695466
 21
1465.235125839283
 31
0.0
100
AcDbText
 73
     1
  0
LEADER
  5
8953
330
1F
100
AcDbEntity
  8
実形
100
AcDbLeader
  3
ISO-25
 76
     2
 10
1720.409982479525
 20
1500.678799776009
 30
0.0
 10
1699.54994449564
 20
1484.999159527635
 30
0.0
1001
ACAD
1000
DSTYLE
1002
{
1070
    77
1070
     0
1070
    41
1040
10.0
1070
   140
1040
30.0
1070
   147
1040
6.599999999999998
1070
   279
1070
     2
1070
   342
1005
30D
1070
   371
1070
    18
1070
   372
1070
    18
1002
}
  0
LINE
  5
8C64
330
1F
100
AcDbEntity
  8
実形
100
AcDbLine
 10
1738.766988216205
 20
1449.532765817214
 30
0.0
 11
1731.571214453459
 21
1492.347619705559
 31
0.0
  0
ARC
  5
8C65
330
1F
100
AcDbEntity
  8
実形
100
AcDbCircle
 10
1711.847833817804
 20
1489.032765817213
 30
0.0
 40
20.0
100
AcDbArc
 50
9.540381804842692
 51
90.0
  0
LINE
  5
8E3E
330
1F
100
AcDbEntity
  8
実形
100
AcDbLine
 10
527.7442641170686
 20
563.98164140068
 30
0.0
 11
497.744264117068
 21
563.98164140068
 31
0.0
  0
LINE
  5
8E41
330
1F
100
AcDbEntity
  8
実形
100
AcDbLine
 10
531.7442641170686
 20
563.98164140068
 30
0.0
 11
1295.744264117069
 21
563.98164140068
 31
0.0
  0
TEXT
  5
8F27
330
1F
100
AcDbEntity
  8
実形
100
AcDbText
 10
1183.702119843186
 20
1142.85597272707
 30
0.0
 40
25.0
  1
15R
 72
     2
 11
1242.03545317652
 21
1139.522639393737
 31
0.0
100
AcDbText
 73
     1
  0
LEADER
  5
8F28
330
1F
100
AcDbEntity
  8
実形
100
AcDbLeader
  3
ISO-25
 76
     2
 10
544.9222532796211
 20
1107.612795494007
 30
0.0
 10
600.6955342384226
 20
1144.170528718703
 30
0.0
1001
ACAD
1000
DSTYLE
1002
{
1070
    77
1070
     0
1070
    41
1040
10.0
1070
   140
1040
30.0
1070
   147
1040
6.599999999999998
1070
   279
1070
     2
1070
   342
1005
30D
1070
   371
1070
    18
1070
   372
1070
    18
1002
}
  0
LINE
  5
903C
330
1F
100
AcDbEntity
  8
実形
100
AcDbLine
 10
911.7442641170683
 20
513.9816414006795
 30
0.0
 11
1231.744264117069
 21
513.9816414006791
 31
0.0
  0
DIMENSION
  5
9040
330
1F
100
AcDbEntity
  8
実形
100
AcDbDimension
  2
*D17
 10
1381.956784028029
 20
513.9816414006788
 30
0.0
 11
1357.360571194502
 21
537.8571274340556
 31
0.0
 70
   160
 71
     5
 42
50.00000000000113
  3
ISO-25
100
AcDbAlignedDimension
 13
1290.353241046854
 23
563.98164140068
 33
0.0
 14
1290.353241046854
 24
513.9816414006788
 34
0.0
 50
90.0
100
AcDbRotatedDimension
1001
ACAD
1000
DSTYLE
1002
{
1070
    41
1040
10.0
1070
   140
1040
25.0
1070
   147
1040
6.599999999999998
1070
   279
1070
     2
1070
   342
1005
30D
1070
   371
1070
    18
1070
   372
1070
    18
1002
}
  0
DIMENSION
  5
9101
330
1F
100
AcDbEntity
  8
実形
100
AcDbDimension
  2
*D18
 10
1381.956784028029
 20
488.981641400679
 30
0.0
 11
1408.003583340511
 21
503.7202430201559
 31
0.0
 70
   160
 71
     5
 42
24.99999999999995
  3
ISO-25
100
AcDbAlignedDimension
 13
1290.353241046854
 23
513.9816414006788
 33
0.0
 14
1290.353241046854
 24
488.981641400679
 34
0.0
 50
90.0
100
AcDbRotatedDimension
1001
ACAD
1000
DSTYLE
1002
{
1070
    41
1040
10.0
1070
   140
1040
25.0
1070
   147
1040
6.599999999999998
1070
   279
1070
     2
1070
   342
1005
30D
1070
   371
1070
    18
1070
   372
1070
    18
1002
}
  0
DIMENSION
  5
9138
330
1F
100
AcDbEntity
  8
実形
100
AcDbDimension
  2
*D19
 10
1381.956784028029
 20
513.9816414006788
 30
0.0
 11
1375.374232530543
 21
443.0080318834898
 31
0.0
 70
   160
  1
15
 71
     5
 42
40.00000000000006
  3
ISO-25
100
AcDbAlignedDimension
 13
1290.353241046854
 23
473.9816414006789
 33
0.0
 14
1290.353241046854
 24
513.9816414006788
 34
0.0
 50
90.0
100
AcDbRotatedDimension
1001
ACAD
1000
DSTYLE
1002
{
1070
    41
1040
10.0
1070
   140
1040
25.0
1070
   147
1040
6.599999999999998
1070
   279
1070
     2
1070
   342
1005
30D
1070
   371
1070
    18
1070
   372
1070
    18
1002
}
  0
DIMENSION
  5
916D
330
1F
100
AcDbEntity
  8
実形
100
AcDbDimension
  2
*D20
 10
1465.576351889016
 20
473.9816414006788
 30
0.0
 11
1493.739102381372
 21
494.5163988079166
 31
0.0
 70
   160
 71
     5
 42
40.00000000000006
  3
ISO-25
100
AcDbAlignedDimension
 13
1368.254006069745
 23
513.9816414006788
 33
0.0
 14
1312.414698906052
 24
473.9816414006789
 34
0.0
 50
90.0
100
AcDbRotatedDimension
1001
ACAD
1000
DSTYLE
1002
{
1070
    41
1040
10.0
1070
   140
1040
25.0
1070
   147
1040
6.599999999999998
1070
   279
1070
     2
1070
   342
1005
30D
1070
   371
1070
    18
1070
   372
1070
    18
1002
}
  0
LINE
  5
91D2
330
1F
100
AcDbEntity
  8
実形
100
AcDbLine
 10
911.7442641170685
 20
457.5955369902222
 30
0.0
 11
911.7442641170685
 21
630.433063590879
 31
0.0
  0
LINE
  5
91D8
330
1F
100
AcDbEntity
  8
実形
100
AcDbLine
 10
911.7442641170686
 20
473.9816414006795
 30
0.0
 11
1231.744264117069
 21
488.9816414006791
 31
0.0
  0
DIMENSION
  5
91DA
330
1F
100
AcDbEntity
  8
実形
100
AcDbDimension
  2
*D21
 10
1241.744264117069
 20
665.1027642972703
 30
0.0
 11
911.7442641170686
 21
686.7027642972703
 31
0.0
 70
    32
 71
     5
 42
660.0
  3
ISO-25
100
AcDbAlignedDimension
 13
581.7442641170686
 23
563.9816414006801
 33
0.0
 14
1241.744264117069
 24
563.9816414006801
 34
0.0
100
AcDbRotatedDimension
1001
ACAD
1000
DSTYLE
1002
{
1070
    41
1040
10.0
1070
   140
1040
30.0
1070
   147
1040
6.599999999999998
1070
   279
1070
     2
1070
   342
1005
30D
1070
   371
1070
    18
1070
   372
1070
    18
1002
}
  0
DIMENSION
  5
91E7
330
1F
100
AcDbEntity
  8
実形
100
AcDbDimension
  2
*D22
 10
1291.744264117069
 20
665.1027642972703
 30
0.0
 11
1266.744264117068
 21
690.0027642972703
 31
0.0
 70
    32
 71
     5
 42
50.0
  3
ISO-25
100
AcDbAlignedDimension
 13
1241.744264117069
 23
563.9816414006801
 33
0.0
 14
1291.744264117069
 24
563.9816414006788
 34
0.0
100
AcDbRotatedDimension
1001
ACAD
1000
DSTYLE
1002
{
1070
    41
1040
10.0
1070
   140
1040
30.0
1070
   147
1040
6.599999999999998
1070
   279
1070
     2
1070
   342
1005
30D
1070
   371
1070
    18
1070
   372
1070
    18
1002
}
  0
DIMENSION
  5
91F4
330
1F
100
AcDbEntity
  8
実形
100
AcDbDimension
  2
*D23
 10
581.7442641170686
 20
665.1027642972703
 30
0.0
 11
556.7442641170686
 21
690.0027642972703
 31
0.0
 70
    32
 71
     5
 42
50.0
  3
ISO-25
100
AcDbAlignedDimension
 13
531.7442641170686
 23
563.98164140068
 33
0.0
 14
581.7442641170686
 24
563.98164140068
 34
0.0
100
AcDbRotatedDimension
1001
ACAD
1000
DSTYLE
1002
{
1070
    41
1040
10.0
1070
   140
1040
30.0
1070
   147
1040
6.599999999999998
1070
   279
1070
     2
1070
   342
1005
30D
1070
   371
1070
    18
1070
   372
1070
    18
1002
}
  0
LINE
  5
9203
330
1F
100
AcDbEntity
  8
実形
  6
ACAD_ISO09W100
 48
0.3
100
AcDbLine
 10
911.7442641170683
 20
507.4816414006796
 30
0.0
 11
1218.744264117069
 21
507.481641400679
 31
0.0
  0
LINE
  5
920A
330
1F
100
AcDbEntity
  8
実形
100
AcDbLine
 10
1231.744264117068
 20
488.9816414006791
 30
0.0
 11
1241.744264117069
 21
507.4816414006786
 31
0.0
  0
LINE
  5
920B
330
1F
100
AcDbEntity
  8
実形
100
AcDbLine
 10
1241.744264117069
 20
507.4816414006786
 30
0.0
 11
1231.744264117069
 21
513.9816414006791
 31
0.0
  0
LINE
  5
9223
330
1F
100
AcDbEntity
  8
実形
100
AcDbLine
 10
911.7442641170685
 20
513.9816414006795
 30
0.0
 11
591.7442641170675
 21
513.9816414006793
 31
0.0
  0
LINE
  5
9224
330
1F
100
AcDbEntity
  8
実形
  6
ACAD_ISO09W100
 48
0.3
100
AcDbLine
 10
911.7442641170685
 20
507.4816414006796
 30
0.0
 11
604.7442641170675
 21
507.4816414006793
 31
0.0
  0
LINE
  5
9225
330
1F
100
AcDbEntity
  8
実形
100
AcDbLine
 10
911.7442641170681
 20
473.9816414006795
 30
0.0
 11
591.744264117068
 21
488.9816414006793
 31
0.0
  0
LINE
  5
9226
330
1F
100
AcDbEntity
  8
実形
100
AcDbLine
 10
591.7442641170684
 20
488.9816414006793
 30
0.0
 11
581.7442641170678
 21
507.481641400679
 31
0.0
  0
LINE
  5
9227
330
1F
100
AcDbEntity
  8
実形
100
AcDbLine
 10
581.7442641170678
 20
507.481641400679
 30
0.0
 11
591.744264117068
 21
513.9816414006793
 31
0.0
  0
LINE
  5
92E2
330
1F
100
AcDbEntity
  8
実形
 62
     3
100
AcDbLine
 10
497.744264117068
 20
993.1034768023591
 30
0.0
 11
497.744264117068
 21
994.3578210546901
 31
0.0
  0
LINE
  5
94FC
330
1F
100
AcDbEntity
  8
実形
100
AcDbLine
 10
2706.174933104553
 20
509.6288672249084
 30
0.0
 11
2770.354393127256
 21
509.6288672249084
 31
0.0
  0
ARC
  5
94FD
330
1F
100
AcDbEntity
  8
実形
100
AcDbCircle
 10
2706.174933104553
 20
709.6288672249084
 30
0.0
 40
200.0
100
AcDbArc
 50
260.2432215224308
 51
270.0
  0
LINE
  5
94FE
330
1F
100
AcDbEntity
  8
実形
100
AcDbLine
 10
2707.02843613422
 20
519.6288672249081
 30
0.0
 11
2769.927286873584
 21
519.6288672249083
 31
0.0
  0
ARC
  5
94FF
330
1F
100
AcDbEntity
  8
実形
100
AcDbCircle
 10
2707.02843613422
 20
719.6288672249082
 30
0.0
 40
200.0
100
AcDbArc
 50
260.2432215224308
 51
270.0
  0
LINE
  5
9500
330
1F
100
AcDbEntity
  8
実形
100
AcDbLine
 10
2260.363819452315
 20
509.6052327568158
 30
0.0
 11
1811.157416691347
 21
518.3809055788897
 31
0.0
  0
ARC
  5
9501
330
1F
100
AcDbEntity
  8
実形
100
AcDbCircle
 10
1809.95837554088
 20
488.4048768172361
 30
0.0
 40
30.0
100
AcDbArc
 50
87.70938995736051
 51
180.0
  0
LINE
  5
9502
330
1F
100
AcDbEntity
  8
実形
100
AcDbLine
 10
2260.297161772865
 20
500.4408300421553
 30
0.0
 11
1810.757736307857
 21
508.3888959916716
 31
0.0
  0
ARC
  5
9503
330
1F
100
AcDbEntity
  8
実形
100
AcDbCircle
 10
1809.95837554088
 20
488.4048768172361
 30
0.0
 40
20.0
100
AcDbArc
 50
87.70938995736051
 51
180.0
  0
LINE
  5
9504
330
1F
100
AcDbEntity
  8
実形
100
AcDbLine
 10
2280.678357831295
 20
527.8583024614067
 30
0.0
 11
2283.193699078954
 21
556.6087844814415
 31
0.0
  0
ARC
  5
9505
330
1F
100
AcDbEntity
  8
実形
100
AcDbCircle
 10
2260.75446386946
 20
529.6014173163601
 30
0.0
 40
20.0
100
AcDbArc
 50
268.8808150097333
 51
355.0000000000006
  0
LINE
  5
9506
330
1F
100
AcDbEntity
  8
実形
100
AcDbLine
 10
2280.751386792164
 20
528.6930273037562
 30
0.0
 11
2289.121872863375
 21
624.3681208972307
 31
0.0
  0
ARC
  5
9507
330
1F
100
AcDbEntity
  8
実形
100
AcDbCircle
 10
2260.82749283033
 20
530.4361421587093
 30
0.0
 40
30.0
100
AcDbArc
 50
268.98708952813
 51
355.0000000000006
  0
DIMENSION
  5
9508
330
1F
100
AcDbEntity
  8
実形
100
AcDbDimension
  2
*D35
 10
2279.95837554088
 20
671.9329968249066
 30
0.0
 11
2029.95837554088
 21
693.5329968249067
 31
0.0
 70
    32
  1
50
 71
     5
 42
500.0
  3
ISO-25
100
AcDbAlignedDimension
 13
1779.95837554088
 23
553.3438182587415
 33
0.0
 14
2279.95837554088
 24
553.3438182587415
 34
0.0
100
AcDbRotatedDimension
1001
ACAD
1000
DSTYLE
1002
{
1070
    41
1040
10.0
1070
   140
1040
30.0
1070
   147
1040
6.599999999999998
1070
   279
1070
     2
1070
   342
1005
30D
1070
   371
1070
    18
1070
   372
1070
    18
1002
}
  0
DIMENSION
  5
9509
330
1F
100
AcDbEntity
  8
実形
100
AcDbDimension
  2
*D36
 10
2679.958375540881
 20
671.9329968249066
 30
0.0
 11
2479.95837554088
 21
693.5329968249067
 31
0.0
 70
    32
  1
40
 71
     5
 42
400.0
  3
ISO-25
100
AcDbAlignedDimension
 13
2279.95837554088
 23
553.3438182587415
 33
0.0
 14
2679.958375540881
 24
553.3438182587415
 34
0.0
100
AcDbRotatedDimension
1001
ACAD
1000
DSTYLE
1002
{
1070
    41
1040
10.0
1070
   140
1040
30.0
1070
   147
1040
6.599999999999998
1070
   279
1070
     2
1070
   342
1005
30D
1070
   371
1070
    18
1070
   372
1070
    18
1002
}
  0
DIMENSION
  5
950A
330
1F
100
AcDbEntity
  8
実形
100
AcDbDimension
  2
*D37
 10
1689.272884376399
 20
584.6288672249084
 30
0.0
 11
1664.3728843764
 21
568.3406401952106
 31
0.0
 70
   160
  1
6.5
 71
     5
 42
65.0
  3
ISO-25
100
AcDbAlignedDimension
 13
1779.95837554088
 23
519.6288672249083
 33
0.0
 14
1779.95837554088
 24
584.6288672249084
 34
0.0
 50
90.0
100
AcDbRotatedDimension
1001
ACAD
1000
DSTYLE
1002
{
1070
    41
1040
10.0
1070
   140
1040
30.0
1070
   147
1040
6.599999999999998
1070
   279
1070
     2
1070
   342
1005
30D
1070
   371
1070
    18
1070
   372
1070
    18
1002
}
  0
LINE
  5
950C
330
1F
100
AcDbEntity
  8
実形
100
AcDbLine
 10
2673.135216014264
 20
522.5216638306631
 30
0.0
 11
2318.1635230397
 21
583.5601927081486
 31
0.0
  0
LINE
  5
950D
330
1F
100
AcDbEntity
  8
実形
100
AcDbLine
 10
2672.281712984597
 20
512.5216638306633
 30
0.0
 11
2316.468862033703
 21
573.7048325384362
 31
0.0
  0
ARC
  5
950E
330
1F
100
AcDbEntity
  8
実形
100
AcDbCircle
 10
2313.079540021707
 20
553.9941121990118
 30
0.0
 40
30.0
100
AcDbArc
 50
80.24322152243078
 51
175.0000000000005
  0
ARC
  5
950F
330
1F
100
AcDbEntity
  8
実形
100
AcDbCircle
 10
2313.079540021707
 20
553.9941121990118
 30
0.0
 40
20.0
100
AcDbArc
 50
80.24322152243078
 51
175.0000000000005
  0
LINE
  5
9510
330
1F
100
AcDbEntity
  8
実形
100
AcDbLine
 10
2706.174933104553
 20
509.6288672249084
 30
0.0
 11
2705.684017914933
 21
509.6288672249084
 31
0.0
  0
DIMENSION
  5
9512
330
1F
100
AcDbEntity
  8
実形
100
AcDbDimension
  2
*D38
 10
2298.278246621607
 20
729.0259518574551
 30
0.0
 11
2204.249608207738
 21
592.487829164667
 31
0.0
 70
    34
  1
95° 
 71
     5
 42
1.638529326375481
  3
ISO-25
100
AcDb2LineAngularDimension
 13
2260.363819452315
 23
509.6052327568158
 33
0.0
 14
1811.157416691347
 24
518.3809055788897
 34
0.0
 15
2280.751386792164
 25
528.6930273037562
 35
0.0
 16
2239.042104302823
 26
590.2117237390462
 36
0.0
1001
ACAD
1000
DSTYLE
1002
{
1070
    41
1040
10.0
1070
   140
1040
30.0
1070
   147
1040
6.599999999999998
1070
   279
1070
     2
1070
   342
1005
30D
1070
   371
1070
    18
1070
   372
1070
    18
1002
}
  0
LINE
  5
9513
330
1F
100
AcDbEntity
  8
実形
100
AcDbLine
 10
2290.713333773082
 20
527.8214698762797
 30
0.0
 11
2293.155646059872
 21
555.7372270539649
 31
0.0
  0
LEADER
  5
9514
330
1F
100
AcDbEntity
  8
実形
100
AcDbLeader
  3
ISO-25
 76
     2
 10
2274.900452010166
 20
515.2293802702279
 30
0.0
 10
2320.954266444991
 20
477.2004337533362
 30
0.0
1001
ACAD
1000
DSTYLE
1002
{
1070
    77
1070
     0
1070
    41
1040
10.0
1070
   140
1040
30.0
1070
   147
1040
6.599999999999998
1070
   279
1070
     2
1070
   342
1005
30D
1070
   371
1070
    18
1070
   372
1070
    18
1002
}
  0
LEADER
  5
9515
330
1F
100
AcDbEntity
  8
実形
100
AcDbLeader
  3
ISO-25
 76
     2
 10
2299.306278897661
 20
579.4110181269025
 30
0.0
 10
2361.435358127463
 20
529.1365447356675
 30
0.0
1001
ACAD
1000
DSTYLE
1002
{
1070
    77
1070
     0
1070
    41
1040
10.0
1070
   140
1040
30.0
1070
   147
1040
6.599999999999998
1070
   279
1070
     2
1070
   342
1005
30D
1070
   371
1070
    18
1070
   372
1070
    18
1002
}
  0
TEXT
  5
9516
330
1F
100
AcDbEntity
  8
実形
100
AcDbText
 10
2325.148566374162
 20
447.9004224333203
 30
0.0
 40
25.0
  1
2R
 72
     2
 11
2366.815233040828
 21
444.567089099987
 31
0.0
100
AcDbText
 73
     1
  0
TEXT
  5
9517
330
1F
100
AcDbEntity
  8
実形
100
AcDbText
 10
2369.272218664878
 20
514.0569239660545
 30
0.0
 40
25.0
  1
3R
 72
     2
 11
2410.938885331545
 21
510.7235906327211
 31
0.0
100
AcDbText
 73
     1
  0
LINE
  5
9518
330
1F
100
AcDbEntity
  8
実形
100
AcDbLine
 10
1714.95837554088
 20
584.6288672249084
 30
0.0
 11
2389.681225229642
 21
584.6288672249084
 31
0.0
  0
LINE
  5
9519
330
1F
100
AcDbEntity
  8
実形
100
AcDbLine
 10
1714.95837554088
 20
519.6288672249083
 30
0.0
 11
2117.51695333096
 21
519.6288672249083
 31
0.0
  0
SPLINE
  5
9634
330
1F
100
AcDbEntity
  8
実形
100
AcDbSpline
210
0.0
220
0.0
230
1.0
 70
     8
 71
     3
 72
    13
 73
     9
 74
     0
 42
0.0000000001
 43
0.0000000001
 40
0.0
 40
0.0
 40
0.0
 40
0.0
 40
35.35533905932754
 40
70.71067811865491
 40
106.0660171779823
 40
141.4213562373097
 40
176.776695296637
 40
209.3865262264552
 40
209.3865262264552
 40
209.3865262264552
 40
209.3865262264552
 10
2747.694186463931
 20
589.2331387237793
 30
0.0
 10
2762.127939239652
 20
580.8998053904459
 30
0.0
 10
2790.995444791096
 20
564.2331387237791
 30
0.0
 10
2724.48915315527
 20
539.2331387237791
 30
0.0
 10
2797.213061371406
 20
514.2331387237791
 30
0.0
 10
2722.823720142687
 20
489.2331387237791
 30
0.0
 10
2795.720120381762
 20
464.8802611958386
 30
0.0
 10
2751.423514204842
 20
448.8607170012316
 30
0.0
 10
2748.122732718272
 20
441.1745061399578
 30
0.0
  0
SPLINE
  5
9635
330
1F
100
AcDbEntity
  8
実形
100
AcDbSpline
210
0.0
220
0.0
230
1.0
 70
     8
 71
     3
 72
    13
 73
     9
 74
     0
 42
0.0000000001
 43
0.0000000001
 40
0.0
 40
0.0
 40
0.0
 40
0.0
 40
35.35533905932754
 40
70.71067811865491
 40
106.0660171779823
 40
141.4213562373097
 40
176.776695296637
 40
209.3865262264552
 40
209.3865262264552
 40
209.3865262264552
 40
209.3865262264552
 10
2772.69418646393
 20
589.2331387237793
 30
0.0
 10
2787.127939239651
 20
580.8998053904459
 30
0.0
 10
2815.995444791095
 20
564.2331387237791
 30
0.0
 10
2749.48915315527
 20
539.2331387237791
 30
0.0
 10
2822.213061371406
 20
514.2331387237791
 30
0.0
 10
2747.823720142687
 20
489.2331387237791
 30
0.0
 10
2820.720120381762
 20
464.8802611958386
 30
0.0
 10
2776.423514204842
 20
448.8607170012316
 30
0.0
 10
2773.122732718271
 20
441.1745061399578
 30
0.0
  0
LINE
  5
9674
330
1F
100
AcDbEntity
  8
実形
100
AcDbLine
 10
1641.473994275539
 20
1099.032765817213
 30
0.0
 11
1651.454718278081
 21
1099.032765817213
 31
0.0
  0
ARC
  5
9675
330
1F
100
AcDbEntity
  8
実形
100
AcDbCircle
 10
1641.473994275539
 20
1119.032765817213
 30
0.0
 40
20.0
100
AcDbArc
 50
260.2432215224316
 51
270.0
  0
LINE
  5
9676
330
1F
100
AcDbEntity
  8
実形
100
AcDbLine
 10
1596.807532607349
 20
1098.030402370404
 30
0.0
 11
1552.845117099634
 21
1098.889249823585
 31
0.0
  0
LINE
  5
967A
330
1F
100
AcDbEntity
  8
実形
100
AcDbLine
 10
1598.838986445247
 20
1099.855709340863
 30
0.0
 11
1599.090520570013
 21
1102.730757542867
 31
0.0
  0
ARC
  5
967B
330
1F
100
AcDbEntity
  8
実形
100
AcDbCircle
 10
1596.846597049064
 20
1100.030020826359
 30
0.0
 40
2.0
100
AcDbArc
 50
268.8808150097333
 51
355.0000000000006
  0
LINE
  5
967D
330
1F
100
AcDbEntity
  8
実形
100
AcDbLine
 10
1638.084672263544
 20
1099.322045477789
 30
0.0
 11
1602.587502966088
 21
1105.425898365537
 31
0.0
  0
ARC
  5
967F
330
1F
100
AcDbEntity
  8
実形
100
AcDbCircle
 10
1602.079104664288
 20
1102.469290314624
 30
0.0
 40
3.0
100
AcDbArc
 50
80.24322152243161
 51
175.0000000000005
  0
LINE
  5
9681
330
1F
100
AcDbEntity
  8
実形
100
AcDbLine
 10
1641.388643972573
 20
1098.032765817213
 30
0.0
 11
1641.339552453611
 21
1098.032765817213
 31
0.0
  0
LINE
  5
9684
330
1F
100
AcDbEntity
  8
実形
100
AcDbLine
 10
1548.766988216205
 20
1094.890012911676
 30
0.0
 11
1548.766988216206
 21
1134.668800011008
 31
0.0
  0
LINE
  5
96E0
330
1F
100
AcDbEntity
  8
実形
100
AcDbLine
 10
1224.354264117068
 20
1502.532765817214
 30
0.0
 11
1241.744264117069
 21
1509.032765817214
 31
0.0
  0
LINE
  5
96E2
330
1F
100
AcDbEntity
  8
実形
100
AcDbLine
 10
581.7442641170686
 20
1509.032765817214
 30
0.0
 11
599.1342641170685
 21
1502.532765817213
 31
0.0
  0
LINE
  5
96E3
330
1F
100
AcDbEntity
  8
実形
100
AcDbLine
 10
1241.744264117069
 20
1099.032765817214
 30
0.0
 11
1224.354264117069
 21
1105.532765817214
 31
0.0
  0
LINE
  5
96E5
330
1F
100
AcDbEntity
  8
実形
100
AcDbLine
 10
1224.354264117069
 20
1105.532765817214
 30
0.0
 11
599.1342641170679
 21
1105.532765817213
 31
0.0
  0
LINE
  5
96E6
330
1F
100
AcDbEntity
  8
実形
100
AcDbLine
 10
1224.354264117068
 20
1502.532765817214
 30
0.0
 11
599.1342641170684
 21
1502.532765817213
 31
0.0
  0
LINE
  5
96E7
330
1F
100
AcDbEntity
  8
実形
100
AcDbLine
 10
581.7442641170678
 20
1099.032765817213
 30
0.0
 11
599.1342641170679
 21
1105.532765817213
 31
0.0
  0
LINE
  5
96F2
330
1F
100
AcDbEntity
  8
実形
100
AcDbLine
 10
1548.766988216205
 20
1094.890012911676
 30
0.0
 11
1548.766988216205
 21
1067.032765817214
 31
0.0
  0
LINE
  5
96F9
330
1F
100
AcDbEntity
  8
実形
100
AcDbLine
 10
1700.988125398214
 20
1509.032765817214
 30
0.0
 11
1641.473994275539
 21
1509.032765817214
 31
0.0
  0
ARC
  5
96FA
330
1F
100
AcDbEntity
  8
実形
100
AcDbCircle
 10
1641.473994275539
 20
1489.032765817213
 30
0.0
 40
20.0
100
AcDbArc
 50
90.00000000000003
 51
99.75677847756841
  0
LINE
  5
96FB
330
1F
100
AcDbEntity
  8
実形
100
AcDbLine
 10
1596.807532607349
 20
1510.035129264023
 30
0.0
 11
1552.845117099634
 21
1509.176281810842
 31
0.0
  0
LINE
  5
96FC
330
1F
100
AcDbEntity
  8
実形
100
AcDbLine
 10
1598.838986445247
 20
1508.209822293563
 30
0.0
 11
1599.090520570013
 21
1505.33477409156
 31
0.0
  0
ARC
  5
96FD
330
1F
100
AcDbEntity
  8
実形
100
AcDbCircle
 10
1596.846597049064
 20
1508.035510808068
 30
0.0
 40
2.0
100
AcDbArc
 50
4.999999999999448
 51
91.11918499026668
  0
LINE
  5
96FE
330
1F
100
AcDbEntity
  8
実形
100
AcDbLine
 10
1638.084672263544
 20
1508.743486156638
 30
0.0
 11
1602.587502966088
 21
1502.63963326889
 31
0.0
  0
ARC
  5
96FF
330
1F
100
AcDbEntity
  8
実形
100
AcDbCircle
 10
1602.079104664288
 20
1505.596241319803
 30
0.0
 40
3.0
100
AcDbArc
 50
184.9999999999994
 51
279.7567784775684
  0
LINE
  5
9701
330
1F
100
AcDbEntity
  8
実形
100
AcDbLine
 10
1548.766988216205
 20
1511.186658377635
 30
0.0
 11
1548.766988216205
 21
1533.186658377635
 31
0.0
  0
LINE
  5
9704
330
1F
100
AcDbEntity
  8
実形
100
AcDbLine
 10
1700.988125398214
 20
1509.032765817214
 30
0.0
 11
1711.847833817804
 21
1509.032765817214
 31
0.0
  0
LINE
  5
9706
330
1F
100
AcDbEntity
  8
実形
100
AcDbLine
 10
911.7442641170683
 20
1488.718409867483
 30
0.0
 11
911.7442641170683
 21
1644.742172608254
 31
0.0
  0
LINE
  5
9708
330
1F
100
AcDbEntity
  8
実形
100
AcDbLine
 10
911.7442641170683
 20
1229.347121766945
 30
0.0
 11
911.7442641170686
 21
1094.177424254583
 31
0.0
  0
TEXT
  5
9713
330
1F
100
AcDbEntity
  8
実形
100
AcDbText
 10
896.6701433864761
 20
994.7925216129611
 30
0.0
 40
35.0
  1
B
 72
     2
 11
920.0034767198093
 21
990.1258549462946
 31
0.0
100
AcDbText
 73
     1
  0
TEXT
  5
971F
330
1F
100
AcDbEntity
  8
実形
100
AcDbText
 10
897.0412510108486
 20
1659.721237821643
 30
0.0
 40
35.0
  1
B
 72
     2
 11
920.374584344182
 21
1655.054571154976
 31
0.0
100
AcDbText
 73
     1
  0
TEXT
  5
9728
330
1F
100
AcDbEntity
  8
実形
100
AcDbText
 10
1787.149484969206
 20
1491.073250221858
 30
0.0
 40
35.0
  1
断面 B-B
 72
     2
 11
1985.482818302539
 21
1486.406583555191
 31
0.0
100
AcDbText
 73
     1
  0
CIRCLE
  5
9729
330
1F
100
AcDbEntity
  8
実形
100
AcDbCircle
 10
1587.620168964089
 20
1111.600360205977
 30
0.0
 40
55.36211098152489
  0
ARC
  5
9736
330
1F
100
AcDbEntity
  8
実形
100
AcDbCircle
 10
1465.209378115431
 20
535.1661992778467
 30
0.0
 40
565.1246284760389
100
AcDbArc
 50
29.26533430681025
 51
73.06485541088554
  0
LINE
  5
9737
330
1F
100
AcDbEntity
  8
実形
100
AcDbLine
 10
1957.151577649884
 20
811.2080469675184
 30
0.0
 11
1916.399010036293
 21
849.7704500404342
 31
0.0
  0
LINE
  5
9738
330
1F
100
AcDbEntity
  8
実形
100
AcDbLine
 10
1956.485082141868
 20
810.5418174461519
 30
0.0
 11
1936.490083923663
 21
865.1725437328932
 31
0.0
  0
LINE
  5
9739
330
1F
100
AcDbEntity
  8
実形
100
AcDbLine
 10
1548.766988216205
 20
1513.175518722751
 30
0.0
 11
1548.766988216205
 21
1533.186658377635
 31
0.0
  0
DIMENSION
  5
9865
330
1F
100
AcDbEntity
  8
実形
100
AcDbDimension
  2
*D39
 10
581.7442641170686
 20
1708.796007396875
 30
0.0
 11
556.7442641170686
 21
1733.696007396875
 31
0.0
 70
    32
 71
     5
 42
49.99999999999989
  3
ISO-25
100
AcDbAlignedDimension
 13
531.7442641170686
 23
1585.594295921864
 33
0.0
 14
581.7442641170686
 24
1585.594295921863
 34
0.0
100
AcDbRotatedDimension
1001
ACAD
1000
DSTYLE
1002
{
1070
    41
1040
10.0
1070
   140
1040
30.0
1070
   147
1040
6.599999999999998
1070
   279
1070
     2
1070
   342
1005
30D
1070
   371
1070
    18
1070
   372
1070
    18
1002
}
  0
DIMENSION
  5
9872
330
1F
100
AcDbEntity
  8
実形
100
AcDbDimension
  2
*D40
 10
1241.744264117069
 20
1708.796007396875
 30
0.0
 11
911.7442641170686
 21
1730.396007396875
 31
0.0
 70
    32
 71
     5
 42
660.0000000000001
  3
ISO-25
100
AcDbAlignedDimension
 13
581.7442641170686
 23
1585.594295921863
 33
0.0
 14
1241.744264117069
 24
1585.594295921863
 34
0.0
100
AcDbRotatedDimension
1001
ACAD
1000
DSTYLE
1002
{
1070
    41
1040
10.0
1070
   140
1040
30.0
1070
   147
1040
6.599999999999998
1070
   279
1070
     2
1070
   342
1005
30D
1070
   371
1070
    18
1070
   372
1070
    18
1002
}
  0
DIMENSION
  5
987F
330
1F
100
AcDbEntity
  8
実形
100
AcDbDimension
  2
*D41
 10
1291.744264117069
 20
1708.796007396875
 30
0.0
 11
1266.744264117068
 21
1733.696007396875
 31
0.0
 70
    32
 71
     5
 42
50.0
  3
ISO-25
100
AcDbAlignedDimension
 13
1241.744264117069
 23
1585.594295921864
 33
0.0
 14
1291.744264117069
 24
1585.594295921864
 34
0.0
100
AcDbRotatedDimension
1001
ACAD
1000
DSTYLE
1002
{
1070
    41
1040
10.0
1070
   140
1040
30.0
1070
   147
1040
6.599999999999998
1070
   279
1070
     2
1070
   342
1005
30D
1070
   371
1070
    18
1070
   372
1070
    18
1002
}
  0
LINE
  5
98CC
330
1F
100
AcDbEntity
  8
実形
100
AcDbLine
 10
1766.122213809642
 20
1482.434002054486
 30
0.0
 11
2009.256107164418
 21
1482.434002054486
 31
0.0
  0
LINE
  5
990F
330
1F
100
AcDbEntity
  8
実形
100
AcDbLine
 10
1397.713994097017
 20
473.9816414006789
 30
0.0
 11
1157.668450317131
 21
473.9816414006789
 31
0.0
  0
LINE
  5
9911
330
1F
100
AcDbEntity
  8
実形
100
AcDbLine
 10
1355.353241046854
 20
488.981641400679
 30
0.0
 11
1249.38687435945
 21
488.981641400679
 31
0.0
  0
LINE
  5
9913
330
1F
100
AcDbEntity
  8
実形
100
AcDbLine
 10
1355.353241046854
 20
513.9816414006788
 30
0.0
 11
1254.51769851226
 21
513.9816414006788
 31
0.0
  0
TEXT
  5
9968
330
1F
100
AcDbEntity
  8
実形
100
AcDbText
 10
919.8250806498002
 20
995.0482662877917
 30
0.0
 40
35.0
  1
´
 72
     2
 11
938.4917473164669
 21
990.3815996211251
 31
0.0
100
AcDbText
 73
     1
  0
TEXT
  5
9972
330
1F
100
AcDbEntity
  8
実形
100
AcDbText
 10
1979.824213837646
 20
1497.772923179326
 30
0.0
 40
35.0
  1
´
 72
     2
 11
1998.490880504313
 21
1493.106256512659
 31
0.0
100
AcDbText
 73
     1
  0
LEADER
  5
9A62
330
1F
100
AcDbEntity
  8
実形
100
AcDbLeader
  3
ISO-25
 76
     2
 10
545.6584147350986
 20
402.6965299232069
 30
0.0
 10
586.6460185383385
 20
410.1912012580578
 30
0.0
211
1.0
221
-0.0000000000000016
231
0.0
1001
ACAD
1000
DSTYLE
1002
{
1070
    77
1070
     0
1070
    41
1040
10.0
1070
   140
1040
30.0
1070
   147
1040
6.599999999999998
1070
   279
1070
     2
1070
   342
1005
30D
1070
   371
1070
    18
1070
   372
1070
    18
1002
}
  0
LEADER
  5
9A64
330
1F
100
AcDbEntity
  8
実形
100
AcDbLeader
  3
ISO-25
 76
     2
 10
1277.830113499038
 20
402.6965299232064
 30
0.0
 10
1236.842509695798
 20
410.1912012580573
 30
0.0
211
-1.0
221
0.0
231
0.0
1001
ACAD
1000
DSTYLE
1002
{
1070
    77
1070
     0
1070
    41
1040
10.0
1070
   140
1040
30.0
1070
   147
1040
6.599999999999998
1070
   279
1070
     2
1070
   342
1005
30D
1070
   371
1070
    18
1070
   372
1070
    18
1002
}
  0
LINE
  5
9AA6
330
1F
100
AcDbEntity
  8
実形
100
AcDbLine
 10
1295.744264117069
 20
563.98164140068
 30
0.0
 11
1325.744264117069
 21
563.98164140068
 31
0.0
  0
ARC
  5
9ACE
330
1F
100
AcDbEntity
  8
実形
100
AcDbCircle
 10
1295.744264117069
 20
559.98164140068
 30
0.0
 40
4.0
100
AcDbArc
 50
90.0
 51
179.9999999999999
  0
ARC
  5
9ACF
330
1F
100
AcDbEntity
  8
実形
100
AcDbCircle
 10
527.7442641170686
 20
559.98164140068
 30
0.0
 40
4.0
100
AcDbArc
 50
0.0
 51
90.0
  0
ARC
  5
9ADF
330
1F
100
AcDbEntity
  8
実形
100
AcDbCircle
 10
1552.766988216206
 20
1094.890012911676
 30
0.0
 40
4.0
100
AcDbArc
 50
88.88081500972859
 51
180.0
  0
ARC
  5
9AE1
330
1F
100
AcDbEntity
  8
実形
100
AcDbCircle
 10
1552.766988216205
 20
1513.175518722751
 30
0.0
 40
4.0
100
AcDbArc
 50
180.0
 51
271.1191849902714
  0
LEADER
  5
9AFA
330
1F
100
AcDbEntity
  8
実形
100
AcDbLeader
  3
ISO-25
 76
     2
 10
1792.127152013334
 20
510.9045897261967
 30
0.0
 10
1838.180966448159
 20
472.875643209305
 30
0.0
1001
ACAD
1000
DSTYLE
1002
{
1070
    77
1070
     0
1070
    41
1040
10.0
1070
   140
1040
30.0
1070
   147
1040
6.599999999999998
1070
   279
1070
     2
1070
   342
1005
30D
1070
   371
1070
    18
1070
   372
1070
    18
1002
}
  0
TEXT
  5
9AFB
330
1F
100
AcDbEntity
  8
実形
100
AcDbText
 10
1842.375266377329
 20
443.5756318892891
 30
0.0
 40
25.0
  1
4R
 72
     2
 11
1884.041933043996
 21
440.2422985559558
 31
0.0
100
AcDbText
 73
     1
  0
TEXT
  5
9B47
330
1F
100
AcDbEntity
  8
実形
100
AcDbText
 10
234.9784467214322
 20
55.07438486928731
 30
0.0
 40
30.0
  1
※実寸には製造上の誤差が多少生ずる場合があります。シンクの穴あけ加工は現物合わせにてお願いします。
 72
     4
 11
1104.978446721432
 21
70.07438486928731
 31
0.0
100
AcDbText
  0
TEXT
  5
9B48
330
1F
100
AcDbEntity
  8
実形
100
AcDbText
 10
236.1105391001329
 20
99.1457632114907
 30
0.0
 40
30.0
  1
※ボウル上部（ツバの基点部）のアールは、全周 ４Rです。
 72
     4
 11
715.1105391001329
 21
114.1457632114907
 31
0.0
100
AcDbText
  0
LINE
  5
9C71
330
1F
100
AcDbEntity
  8
実形
100
AcDbLine
 10
1331.744264117069
 20
1074.032765817213
 30
0.0
 11
1331.744264117069
 21
1574.032765817213
 31
0.0
  0
ARC
  5
9C72
330
1F
100
AcDbEntity
  8
実形
100
AcDbCircle
 10
1316.744264117069
 20
1574.032765817213
 30
0.0
 40
15.0
100
AcDbArc
 50
0.0
 51
90.0
  0
LINE
  5
9C73
330
1F
100
AcDbEntity
  8
実形
100
AcDbLine
 10
1346.744264117068
 20
1044.032765817213
 30
0.0
 11
1346.744264117068
 21
1604.032765817213
 31
0.0
  0
LINE
  5
9C74
330
1F
100
AcDbEntity
  8
実形
100
AcDbLine
 10
491.7442641170684
 20
1074.032765817213
 30
0.0
 11
491.7442641170684
 21
1574.032765817214
 31
0.0
  0
ARC
  5
9C75
330
1F
100
AcDbEntity
  8
実形
100
AcDbCircle
 10
506.7442641170685
 20
1074.032765817213
 30
0.0
 40
15.0
100
AcDbArc
 50
180.0
 51
270.0
  0
LINE
  5
9C76
330
1F
100
AcDbEntity
  8
実形
100
AcDbLine
 10
476.7442641170685
 20
1044.032765817213
 30
0.0
 11
476.7442641170685
 21
1604.032765817214
 31
0.0
  0
LINE
  5
9C77
330
1F
100
AcDbEntity
  8
実形
100
AcDbLine
 10
1316.744264117069
 20
1059.032765817213
 30
0.0
 11
506.7442641170685
 21
1059.032765817213
 31
0.0
  0
LINE
  5
9C78
330
1F
100
AcDbEntity
  8
実形
100
AcDbLine
 10
1346.744264117068
 20
1044.032765817213
 30
0.0
 11
476.7442641170685
 21
1044.032765817213
 31
0.0
  0
LINE
  5
9C79
330
1F
100
AcDbEntity
  8
実形
100
AcDbLine
 10
1316.744264117069
 20
1589.032765817213
 30
0.0
 11
506.7442641170685
 21
1589.032765817214
 31
0.0
  0
ARC
  5
9C7A
330
1F
100
AcDbEntity
  8
実形
100
AcDbCircle
 10
506.7442641170685
 20
1574.032765817214
 30
0.0
 40
15.0
100
AcDbArc
 50
90.0
 51
180.0
  0
LINE
  5
9C7B
330
1F
100
AcDbEntity
  8
実形
100
AcDbLine
 10
1346.744264117068
 20
1604.032765817213
 30
0.0
 11
476.7442641170685
 21
1604.032765817214
 31
0.0
  0
DIMENSION
  5
9C7C
330
1F
100
AcDbEntity
  8
実形
100
AcDbDimension
  2
*D42
 10
380.0331793068553
 20
1099.032765817213
 30
0.0
 11
358.4331793068551
 21
1304.032765817213
 31
0.0
 70
    32
 71
     5
 42
410.0000000000002
  3
ISO-25
100
AcDbAlignedDimension
 13
491.7442641170684
 23
1509.032765817214
 33
0.0
 14
491.7442641170683
 24
1099.032765817213
 34
0.0
 50
90.0
100
AcDbRotatedDimension
1001
ACAD
1000
DSTYLE
1002
{
1070
    41
1040
10.0
1070
   140
1040
30.0
1070
   147
1040
6.599999999999998
1070
   279
1070
     2
1070
   342
1005
30D
1070
   371
1070
    18
1070
   372
1070
    18
1002
}
  0
DIMENSION
  5
9C7D
330
1F
100
AcDbEntity
  8
実形
100
AcDbDimension
  2
*D43
 10
380.0331793068555
 20
1589.032765817214
 30
0.0
 11
358.4331793068552
 21
1100.508128606378
 31
0.0
 70
   160
  1
40
 71
     5
 42
530.0000000000004
  3
ISO-25
100
AcDbAlignedDimension
 13
491.7442641170683
 23
1059.032765817213
 33
0.0
 14
491.7442641170687
 24
1589.032765817214
 34
0.0
 50
90.0
100
AcDbRotatedDimension
1001
ACAD
1000
DSTYLE
1002
{
1070
    41
1040
10.0
1070
   140
1040
30.0
1070
   147
1040
6.599999999999998
1070
   279
1070
     2
1070
   342
1005
30D
1070
   371
1070
    18
1070
   372
1070
    18
1002
}
  0
DIMENSION
  5
9C7E
330
1F
100
AcDbEntity
  8
実形
100
AcDbDimension
  2
*D44
 10
380.0331793068555
 20
1509.032765817214
 30
0.0
 11
358.4331793068552
 21
1549.032765817213
 31
0.0
 70
    32
  1
80
 71
     5
 42
80.00000000000023
  3
ISO-25
100
AcDbAlignedDimension
 13
491.7442641170684
 23
1589.032765817214
 33
0.0
 14
476.7442641170685
 24
1509.032765817214
 34
0.0
 50
90.0
100
AcDbRotatedDimension
1001
ACAD
1000
DSTYLE
1002
{
1070
    41
1040
10.0
1070
   140
1040
30.0
1070
   147
1040
6.599999999999998
1070
   279
1070
     2
1070
   342
1005
30D
1070
   371
1070
    18
1070
   372
1070
    18
1002
}
  0
DIMENSION
  5
9C7F
330
1F
100
AcDbEntity
  8
実形
100
AcDbDimension
  2
*D45
 10
306.512101063393
 20
1589.032765817214
 30
0.0
 11
284.9121010633926
 21
1324.032765817213
 31
0.0
 70
    32
 71
     5
 42
530.0000000000004
  3
ISO-25
100
AcDbAlignedDimension
 13
444.9470597707631
 23
1059.032765817213
 33
0.0
 14
453.1650278750758
 24
1589.032765817214
 34
0.0
 50
90.0
100
AcDbRotatedDimension
1001
ACAD
1000
DSTYLE
1002
{
1070
    41
1040
10.0
1070
   140
1040
30.0
1070
   147
1040
6.599999999999998
1070
   279
1070
     2
1070
   342
1005
30D
1070
   371
1070
    18
1070
   372
1070
    18
1002
}
  0
DIMENSION
  5
9C80
330
1F
100
AcDbEntity
  8
実形
100
AcDbDimension
  2
*D46
 10
306.5121010633928
 20
1059.032765817213
 30
0.0
 11
284.9121010633927
 21
1573.591080226503
 31
0.0
 70
   160
  1
15
 71
     5
 42
545.0000000000004
  3
ISO-25
100
AcDbAlignedDimension
 13
489.8898862818432
 23
1604.032765817214
 33
0.0
 14
426.7442641170682
 24
1059.032765817213
 34
0.0
 50
90.0
100
AcDbRotatedDimension
1001
ACAD
1000
DSTYLE
1002
{
1070
    41
1040
10.0
1070
   140
1040
30.0
1070
   147
1040
6.599999999999998
1070
   279
1070
     2
1070
   342
1005
30D
1070
   371
1070
    18
1070
   372
1070
    18
1002
}
  0
DIMENSION
  5
9C81
330
1F
100
AcDbEntity
  8
実形
100
AcDbDimension
  2
*D47
 10
306.512101063393
 20
1589.032765817214
 30
0.0
 11
284.9121010633927
 21
1068.116559889651
 31
0.0
 70
   160
  1
15
 71
     5
 42
545.0000000000004
  3
ISO-25
100
AcDbAlignedDimension
 13
492.7280259708013
 23
1044.032765817213
 33
0.0
 14
426.7442641170685
 24
1589.032765817214
 34
0.0
 50
90.0
100
AcDbRotatedDimension
1001
ACAD
1000
DSTYLE
1002
{
1070
    41
1040
10.0
1070
   140
1040
30.0
1070
   147
1040
6.599999999999998
1070
   279
1070
     2
1070
   342
1005
30D
1070
   371
1070
    18
1070
   372
1070
    18
1002
}
  0
DIMENSION
  5
9C82
330
1F
100
AcDbEntity
  8
実形
100
AcDbDimension
  2
*D48
 10
238.281844230939
 20
1044.032765817213
 30
0.0
 11
216.6818442309388
 21
1324.032765817213
 31
0.0
 70
    32
 71
     5
 42
560.0000000000002
  3
ISO-25
100
AcDbAlignedDimension
 13
476.7442641170689
 23
1604.032765817214
 33
0.0
 14
476.7442641170685
 24
1044.032765817213
 34
0.0
 50
90.0
100
AcDbRotatedDimension
1001
ACAD
1000
DSTYLE
1002
{
1070
    41
1040
10.0
1070
   140
1040
30.0
1070
   147
1040
6.599999999999998
1070
   279
1070
     2
1070
   342
1005
30D
1070
   371
1070
    18
1070
   372
1070
    18
1002
}
  0
DIMENSION
  5
9C83
330
1F
100
AcDbEntity
  8
実形
100
AcDbDimension
  2
*D49
 10
1291.744264117068
 20
938.9489680781608
 30
0.0
 11
911.7442641170683
 21
960.5489680781607
 31
0.0
 70
    32
 71
     5
 42
760.0000000000004
  3
ISO-25
100
AcDbAlignedDimension
 13
531.744264117068
 23
1059.35782105469
 33
0.0
 14
1291.744264117068
 24
1059.35782105469
 34
0.0
100
AcDbRotatedDimension
1001
ACAD
1000
DSTYLE
1002
{
1070
    41
1040
10.0
1070
   140
1040
30.0
1070
   147
1040
6.599999999999998
1070
   279
1070
     2
1070
   342
1005
30D
1070
   371
1070
    18
1070
   372
1070
    18
1002
}
  0
DIMENSION
  5
9C84
330
1F
100
AcDbEntity
  8
実形
100
AcDbDimension
  2
*D50
 10
1291.744264117068
 20
938.9489680781608
 30
0.0
 11
568.9261819752291
 21
960.5489680781607
 31
0.0
 70
   160
  1
40
 71
     5
 42
800.0000000000001
  3
ISO-25
100
AcDbAlignedDimension
 13
491.7442641170683
 23
1059.357821054691
 33
0.0
 14
1291.744264117068
 24
1059.35782105469
 34
0.0
100
AcDbRotatedDimension
1001
ACAD
1000
DSTYLE
1002
{
1070
    41
1040
10.0
1070
   140
1040
30.0
1070
   147
1040
6.599999999999998
1070
   279
1070
     2
1070
   342
1005
30D
1070
   371
1070
    18
1070
   372
1070
    18
1002
}
  0
DIMENSION
  5
9C85
330
1F
100
AcDbEntity
  8
実形
100
AcDbDimension
  2
*D51
 10
1331.744264117068
 20
938.9489680781608
 30
0.0
 11
1260.60436724848
 21
960.5489680781607
 31
0.0
 70
   160
  1
40
 71
     5
 42
800.0000000000005
  3
ISO-25
100
AcDbAlignedDimension
 13
531.744264117068
 23
1059.35782105469
 33
0.0
 14
1331.744264117068
 24
1059.35782105469
 34
0.0
100
AcDbRotatedDimension
1001
ACAD
1000
DSTYLE
1002
{
1070
    41
1040
10.0
1070
   140
1040
30.0
1070
   147
1040
6.599999999999998
1070
   279
1070
     2
1070
   342
1005
30D
1070
   371
1070
    18
1070
   372
1070
    18
1002
}
  0
DIMENSION
  5
9C86
330
1F
100
AcDbEntity
  8
実形
100
AcDbDimension
  2
*D52
 10
1331.744264117068
 20
872.5699674957432
 30
0.0
 11
911.7442641170683
 21
894.1699674957432
 31
0.0
 70
    32
 71
     5
 42
840.0000000000002
  3
ISO-25
100
AcDbAlignedDimension
 13
491.7442641170683
 23
1029.35782105469
 33
0.0
 14
1331.744264117068
 24
1029.35782105469
 34
0.0
100
AcDbRotatedDimension
1001
ACAD
1000
DSTYLE
1002
{
1070
    41
1040
10.0
1070
   140
1040
30.0
1070
   147
1040
6.599999999999998
1070
   279
1070
     2
1070
   342
1005
30D
1070
   371
1070
    18
1070
   372
1070
    18
1002
}
  0
DIMENSION
  5
9C87
330
1F
100
AcDbEntity
  8
実形
100
AcDbDimension
  2
*D53
 10
1331.744264117068
 20
872.5699674957432
 30
0.0
 11
448.1946245967056
 21
894.1699674957432
 31
0.0
 70
   160
  1
15
 71
     5
 42
855.0
  3
ISO-25
100
AcDbAlignedDimension
 13
476.7442641170685
 23
1059.35782105469
 33
0.0
 14
1331.744264117068
 24
1059.35782105469
 34
0.0
100
AcDbRotatedDimension
1001
ACAD
1000
DSTYLE
1002
{
1070
    41
1040
10.0
1070
   140
1040
30.0
1070
   147
1040
6.599999999999998
1070
   279
1070
     2
1070
   342
1005
30D
1070
   371
1070
    18
1070
   372
1070
    18
1002
}
  0
DIMENSION
  5
9C88
330
1F
100
AcDbEntity
  8
実形
100
AcDbDimension
  2
*D54
 10
1346.744264117068
 20
872.5699674957432
 30
0.0
 11
1378.632964381236
 21
894.1699674957432
 31
0.0
 70
   160
  1
15
 71
     5
 42
855.0000000000002
  3
ISO-25
100
AcDbAlignedDimension
 13
491.7442641170683
 23
994.357821054691
 33
0.0
 14
1346.744264117068
 24
1059.35782105469
 34
0.0
100
AcDbRotatedDimension
1001
ACAD
1000
DSTYLE
1002
{
1070
    41
1040
10.0
1070
   140
1040
30.0
1070
   147
1040
6.599999999999998
1070
   279
1070
     2
1070
   342
1005
30D
1070
   371
1070
    18
1070
   372
1070
    18
1002
}
  0
DIMENSION
  5
9C89
330
1F
100
AcDbEntity
  8
実形
100
AcDbDimension
  2
*D55
 10
1346.744264117068
 20
809.6478536806117
 30
0.0
 11
911.7442641170685
 21
831.2478536806116
 31
0.0
 70
    32
 71
     5
 42
870.0
  3
ISO-25
100
AcDbAlignedDimension
 13
476.7442641170685
 23
1014.35782105469
 33
0.0
 14
1346.744264117068
 24
1014.35782105469
 34
0.0
100
AcDbRotatedDimension
1001
ACAD
1000
DSTYLE
1002
{
1070
    41
1040
10.0
1070
   140
1040
30.0
1070
   147
1040
6.599999999999998
1070
   279
1070
     2
1070
   342
1005
30D
1070
   371
1070
    18
1070
   372
1070
    18
1002
}
  0
DIMENSION
  5
9C8A
330
1F
100
AcDbEntity
  8
実形
100
AcDbDimension
  2
*D56
 10
717.0005027474408
 20
1589.032765817214
 30
0.0
 11
695.4005027474404
 21
1447.432043032923
 31
0.0
 70
   160
 71
     5
 42
230.0
  3
ISO-25
100
AcDbAlignedDimension
 13
824.6394275161863
 23
1359.032765817214
 33
0.0
 14
824.6394275161865
 24
1589.032765817214
 34
0.0
 50
90.0
100
AcDbRotatedDimension
1001
ACAD
1000
DSTYLE
1002
{
1070
    41
1040
10.0
1070
   140
1040
30.0
1070
   147
1040
6.599999999999998
1070
   279
1070
     2
1070
   342
1005
30D
1070
   371
1070
    18
1070
   372
1070
    18
1002
}
  0
TEXT
  5
9C8B
330
1F
100
AcDbEntity
  8
実形
100
AcDbText
 10
607.6064451744756
 20
1145.925896882834
 30
0.0
 40
25.0
  1
15R
 72
     2
 11
665.939778507809
 21
1142.592563549501
 31
0.0
100
AcDbText
 73
     1
  0
LEADER
  5
9C8C
330
1F
100
AcDbEntity
  8
実形
100
AcDbLeader
  3
ISO-25
 76
     2
 10
1319.813432303746
 20
1071.209382771524
 30
0.0
 10
1238.674623554501
 20
1140.03764353966
 30
0.0
1001
ACAD
1000
DSTYLE
1002
{
1070
    77
1070
     0
1070
    41
1040
10.0
1070
   140
1040
30.0
1070
   147
1040
6.599999999999998
1070
   279
1070
     2
1070
   342
1005
30D
1070
   371
1070
    18
1070
   372
1070
    18
1002
}
  0
TEXT
  5
9C8D
330
1F
100
AcDbEntity
  8
実形
100
AcDbText
 10
1186.464685873664
 20
1459.9757501273
 30
0.0
 40
25.0
  1
15R
 72
     2
 11
1244.798019206997
 21
1456.642416793966
 31
0.0
100
AcDbText
 73
     1
  0
LEADER
  5
9C8E
330
1F
100
AcDbEntity
  8
実形
100
AcDbLeader
  3
ISO-25
 76
     2
 10
1323.0175402132
 20
1580.058580175312
 30
0.0
 10
1253.486739313814
 20
1483.11359561787
 30
0.0
1001
ACAD
1000
DSTYLE
1002
{
1070
    77
1070
     0
1070
    41
1040
10.0
1070
   140
1040
30.0
1070
   147
1040
6.599999999999998
1070
   279
1070
     2
1070
   342
1005
30D
1070
   371
1070
    18
1070
   372
1070
    18
1002
}
  0
TEXT
  5
9C8F
330
1F
100
AcDbEntity
  8
実形
100
AcDbText
 10
973.471651506871
 20
973.9500237160397
 30
0.0
 40
20.0
  1
+3
 72
     2
 11
1006.804984840204
 21
971.283357049373
 31
0.0
100
AcDbText
 73
     1
  0
TEXT
  5
9C90
330
1F
100
AcDbEntity
  8
実形
100
AcDbText
 10
972.787125979458
 20
947.5240762855216
 30
0.0
 40
20.0
  1
-2
 72
     2
 11
1006.120459312791
 21
944.8574096188549
 31
0.0
100
AcDbText
 73
     1
  0
LEADER
  5
9DCF
330
1F
100
AcDbEntity
  8
実形
100
AcDbLeader
  3
ISO-25
 76
     2
 10
911.8972369598068
 20
1089.522458844685
 30
0.0
 10
911.8972369598068
 20
1033.449610314301
 30
0.0
1001
ACAD
1000
DSTYLE
1002
{
1070
    77
1070
     0
1070
    41
1040
10.0
1070
   140
1040
30.0
1070
   147
1040
6.599999999999998
1070
   279
1070
     2
1070
   342
1005
30D
1070
   371
1070
    18
1070
   372
1070
    18
1002
}
  0
ARC
  5
9DF5
330
1F
100
AcDbEntity
  8
実形
100
AcDbCircle
 10
1316.744264117069
 20
1074.032765817213
 30
0.0
 40
15.0
100
AcDbArc
 50
270.0
 51
0.0
  0
LINE
  5
9E6D
330
1F
100
AcDbEntity
  8
実形
100
AcDbLine
 10
491.7442641170687
 20
578.9816414006799
 30
0.0
 11
491.7442641170687
 21
563.98164140068
 31
0.0
  0
LINE
  5
9E6E
330
1F
100
AcDbEntity
  8
実形
100
AcDbLine
 10
491.7442641170687
 20
563.98164140068
 30
0.0
 11
531.7442641170686
 21
563.98164140068
 31
0.0
  0
LINE
  5
9E6F
330
1F
100
AcDbEntity
  8
実形
100
AcDbLine
 10
1291.744264117069
 20
563.98164140068
 30
0.0
 11
1331.744264117069
 21
563.98164140068
 31
0.0
  0
LINE
  5
9E70
330
1F
100
AcDbEntity
  8
実形
100
AcDbLine
 10
1331.744264117069
 20
563.98164140068
 30
0.0
 11
1331.744264117069
 21
578.9816414006801
 31
0.0
  0
LINE
  5
9E73
330
1F
100
AcDbEntity
  8
実形
100
AcDbLine
 10
372.4206766349898
 20
583.98164140068
 30
0.0
 11
372.4206766349898
 21
563.98164140068
 31
0.0
  0
LINE
  5
9E74
330
1F
100
AcDbEntity
  8
実形
100
AcDbLine
 10
372.4206766349898
 20
393.98164140068
 30
0.0
 11
372.4206766349898
 21
363.98164140068
 31
0.0
  0
LINE
  5
9E75
330
1F
100
AcDbEntity
  8
実形
100
AcDbLine
 10
418.6330371505073
 20
363.98164140068
 30
0.0
 11
372.4206766349898
 21
363.98164140068
 31
0.0
  0
LINE
  5
9E76
330
1F
100
AcDbEntity
  8
実形
100
AcDbLine
 10
418.6330371505075
 20
373.98164140068
 30
0.0
 11
309.339784443574
 21
373.98164140068
 31
0.0
  0
LINE
  5
9E77
330
1F
100
AcDbEntity
  8
実形
100
AcDbLine
 10
418.6330371505075
 20
393.98164140068
 30
0.0
 11
372.4206766349898
 21
393.98164140068
 31
0.0
  0
TEXT
  5
9E78
330
1F
100
AcDbEntity
  8
実形
100
AcDbText
 10
300.7487367050844
 20
441.2846136829394
 30
0.0
 40
25.0
  1
205
 50
90.0
 72
     2
 11
304.0820700384177
 21
503.7846136829394
 31
0.0
100
AcDbText
 73
     1
  0
LINE
  5
9E79
330
1F
100
AcDbEntity
  8
実形
100
AcDbLine
 10
309.339784443574
 20
583.98164140068
 30
0.0
 11
309.339784443574
 21
373.98164140068
 31
0.0
  0
LINE
  5
9E7A
330
1F
100
AcDbEntity
  8
実形
100
AcDbLine
 10
418.6330371505073
 20
563.98164140068
 30
0.0
 11
372.42067663499
 21
563.98164140068
 31
0.0
  0
TEXT
  5
9E7C
330
1F
100
AcDbEntity
  8
実形
100
AcDbText
 10
359.7767777805393
 20
351.3634715942001
 30
0.0
 40
25.0
  1
8
 50
90.0
 72
     2
 11
363.1101111138726
 21
368.0301382608668
 31
0.0
100
AcDbText
 73
     1
  0
HATCH
  5
9E7D
330
1F
100
AcDbEntity
  8
実形
100
AcDbHatch
 10
0.0
 20
0.0
 30
0.0
210
0.0
220
0.0
230
1.0
  2
SOLID
 70
     1
 71
     1
 91
        1
 92
        7
 72
     1
 73
     1
 93
        2
 10
367.7848589795503
 20
363.4884062021119
 42
1.0
 10
377.7848589795504
 20
363.4884062021119
 42
1.0
 97
        1
330
9E7E
 75
     0
 76
     1
 47
0.2779191024150841
 98
        1
 10
374.200294349218
 20
363.9379036631635
  0
CIRCLE
  5
9E7E
102
{ACAD_REACTORS
330
9E7D
102
}
330
1F
100
AcDbEntity
  8
実形
100
AcDbCircle
 10
372.7848589795503
 20
363.4884062021119
 30
0.0
 40
5.0
  0
HATCH
  5
9E7F
330
1F
100
AcDbEntity
  8
実形
100
AcDbHatch
 10
0.0
 20
0.0
 30
0.0
210
0.0
220
0.0
230
1.0
  2
SOLID
 70
     1
 71
     1
 91
        1
 92
        7
 72
     1
 73
     1
 93
        2
 10
367.3010798365467
 20
373.7644510287146
 42
1.0
 10
377.3010798365467
 20
373.7644510287146
 42
1.0
 97
        1
330
9E80
 75
     0
 76
     1
 47
0.2779191024150841
 98
        1
 10
373.7165152062143
 20
374.2139484897661
  0
CIRCLE
  5
9E80
102
{ACAD_REACTORS
330
9E7F
102
}
330
1F
100
AcDbEntity
  8
実形
100
AcDbCircle
 10
372.3010798365467
 20
373.7644510287146
 30
0.0
 40
5.0
  0
HATCH
  5
9E81
330
1F
100
AcDbEntity
  8
実形
100
AcDbHatch
 10
0.0
 20
0.0
 30
0.0
210
0.0
220
0.0
230
1.0
  2
SOLID
 70
     1
 71
     1
 91
        1
 92
        7
 72
     1
 73
     1
 93
        2
 10
367.5021136613486
 20
394.6785071712693
 42
1.0
 10
377.5021136613486
 20
394.6785071712693
 42
1.0
 97
        1
330
9E82
 75
     0
 76
     1
 47
0.2779191024150841
 98
        1
 10
373.9175490310163
 20
395.1280046323209
  0
CIRCLE
  5
9E82
102
{ACAD_REACTORS
330
9E81
102
}
330
1F
100
AcDbEntity
  8
実形
100
AcDbCircle
 10
372.5021136613486
 20
394.6785071712693
 30
0.0
 40
5.0
  0
TEXT
  5
9E83
330
1F
100
AcDbEntity
  8
実形
100
AcDbText
 10
359.6164270538147
 20
388.0348923804395
 30
0.0
 40
25.0
  1
20
 50
90.0
 72
     2
 11
362.949760387148
 21
425.5348923804395
 31
0.0
100
AcDbText
 73
     1
  0
TEXT
  5
9E84
330
1F
100
AcDbEntity
  8
実形
100
AcDbText
 10
362.7817580136079
 20
589.9263831326094
 30
0.0
 40
25.0
  1
15
 50
90.0
 72
     2
 11
366.1150913469412
 21
623.2597164659428
 31
0.0
100
AcDbText
 73
     1
  0
HATCH
  5
9E85
330
1F
100
AcDbEntity
  8
実形
100
AcDbHatch
 10
0.0
 20
0.0
 30
0.0
210
0.0
220
0.0
230
1.0
  2
SOLID
 70
     1
 71
     0
 91
        1
 92
        7
 72
     1
 73
     1
 93
        2
 10
303.6469411014532
 20
374.4552477837915
 42
1.0
 10
313.6469411014532
 20
374.4552477837915
 42
1.0
 97
        0
 75
     0
 76
     1
 47
0.2779191024150841
 98
        1
 10
310.0623764711209
 20
374.9047452448431
  0
HATCH
  5
9E86
330
1F
100
AcDbEntity
  8
実形
100
AcDbHatch
 10
0.0
 20
0.0
 30
0.0
210
0.0
220
0.0
230
1.0
  2
SOLID
 70
     1
 71
     0
 91
        1
 92
        7
 72
     1
 73
     1
 93
        2
 10
304.3188629722426
 20
579.5506177857569
 42
1.0
 10
314.3188629722426
 20
579.5506177857569
 42
1.0
 97
        0
 75
     0
 76
     1
 47
0.2779191024150841
 98
        1
 10
310.7342983419103
 20
580.0001152468085
  0
HATCH
  5
9E87
330
1F
100
AcDbEntity
  8
実形
100
AcDbHatch
 10
0.0
 20
0.0
 30
0.0
210
0.0
220
0.0
230
1.0
  2
SOLID
 70
     1
 71
     0
 91
        1
 92
        7
 72
     1
 73
     1
 93
        2
 10
367.627872687488
 20
563.8391242957241
 42
1.0
 10
377.627872687488
 20
563.8391242957241
 42
1.0
 97
        0
 75
     0
 76
     1
 47
0.2779191024150841
 98
        1
 10
374.0433080571556
 20
564.2886217567756
  0
HATCH
  5
9E88
330
1F
100
AcDbEntity
  8
実形
100
AcDbHatch
 10
0.0
 20
0.0
 30
0.0
210
0.0
220
0.0
230
1.0
  2
SOLID
 70
     1
 71
     0
 91
        1
 92
        7
 72
     1
 73
     1
 93
        2
 10
366.8407986135189
 20
579.3420084868903
 42
1.0
 10
376.8407986135189
 20
579.3420084868903
 42
1.0
 97
        0
 75
     0
 76
     1
 47
0.2779191024150841
 98
        1
 10
373.2562339831866
 20
579.7915059479419
  0
LINE
  5
9E89
330
1F
100
AcDbEntity
  8
実形
100
AcDbLine
 10
372.42067663499
 20
563.98164140068
 30
0.0
 11
372.5021136613486
 21
394.6785071712693
 31
0.0
  0
TEXT
  5
9E8A
330
1F
100
AcDbEntity
  8
実形
100
AcDbText
 10
363.2542751542723
 20
460.6230739971919
 30
0.0
 40
25.0
  1
170
 50
90.0
 72
     2
 11
366.5876084876056
 21
514.7897406638585
 31
0.0
100
AcDbText
 73
     1
  0
LINE
  5
9E8B
330
1F
100
AcDbEntity
  8
実形
100
AcDbLine
 10
310.9444781167304
 20
363.4884062021119
 30
0.0
 11
253.4266255155426
 21
363.4884062021119
 31
0.0
  0
LINE
  5
9E8C
330
1F
100
AcDbEntity
  8
実形
100
AcDbLine
 10
253.4266255155426
 20
583.98164140068
 30
0.0
 11
253.4266255155426
 21
363.4884062021119
 31
0.0
  0
HATCH
  5
9E8E
330
1F
100
AcDbEntity
  8
実形
100
AcDbHatch
 10
0.0
 20
0.0
 30
0.0
210
0.0
220
0.0
230
1.0
  2
SOLID
 70
     1
 71
     0
 91
        1
 92
        7
 72
     1
 73
     1
 93
        2
 10
248.1386299085098
 20
364.2296869389775
 42
1.0
 10
258.1386299085098
 20
364.2296869389775
 42
1.0
 97
        0
 75
     0
 76
     1
 47
0.2779191024150841
 98
        1
 10
254.5540652781774
 20
364.679184400029
  0
HATCH
  5
9E8F
330
1F
100
AcDbEntity
  8
実形
100
AcDbHatch
 10
0.0
 20
0.0
 30
0.0
210
0.0
220
0.0
230
1.0
  2
SOLID
 70
     1
 71
     0
 91
        1
 92
        7
 72
     1
 73
     1
 93
        2
 10
248.5936962578126
 20
579.279882454678
 42
1.0
 10
258.5936962578125
 20
579.279882454678
 42
1.0
 97
        0
 75
     0
 76
     1
 47
0.2779191024150841
 98
        1
 10
255.0091316274802
 20
579.7293799157296
  0
TEXT
  5
9E90
330
1F
100
AcDbEntity
  8
実形
100
AcDbText
 10
241.5542889205134
 20
443.6113734859199
 30
0.0
 40
25.0
  1
213
 50
90.0
 72
     2
 11
244.8876222538467
 21
501.9447068192532
 31
0.0
100
AcDbText
 73
     1
  0
SPLINE
  5
9EC4
330
1F
100
AcDbEntity
  8
実形
100
AcDbSpline
210
0.0
220
0.0
230
1.0
 70
     8
 71
     3
 72
    13
 73
     9
 74
     0
 42
0.0000000001
 43
0.0000000001
 40
0.0
 40
0.0
 40
0.0
 40
0.0
 40
35.35533905932754
 40
70.71067811865491
 40
106.0660171779823
 40
141.4213562373097
 40
176.776695296637
 40
209.3865262264552
 40
209.3865262264552
 40
209.3865262264552
 40
209.3865262264552
 10
1858.957555486308
 20
397.6536447380404
 30
0.0
 10
1850.624222152974
 20
383.2198919623188
 30
0.0
 10
1833.957555486308
 20
354.3523864108752
 30
0.0
 10
1808.957555486308
 20
420.8586780467007
 30
0.0
 10
1783.957555486308
 20
348.1347698305644
 30
0.0
 10
1758.957555486308
 20
422.5241110592837
 30
0.0
 10
1734.604677958367
 20
349.6277108202085
 30
0.0
 10
1718.58513376376
 20
393.9243169971287
 30
0.0
 10
1710.898922902486
 20
397.2250984836992
 30
0.0
  0
SPLINE
  5
9EC5
330
1F
100
AcDbEntity
  8
実形
100
AcDbSpline
210
0.0
220
0.0
230
1.0
 70
     8
 71
     3
 72
    13
 73
     9
 74
     0
 42
0.0000000001
 43
0.0000000001
 40
0.0
 40
0.0
 40
0.0
 40
0.0
 40
35.35533905932754
 40
70.71067811865491
 40
106.0660171779823
 40
141.4213562373097
 40
176.776695296637
 40
209.3865262264552
 40
209.3865262264552
 40
209.3865262264552
 40
209.3865262264552
 10
1858.957555486308
 20
372.6536447380409
 30
0.0
 10
1850.624222152974
 20
358.2198919623193
 30
0.0
 10
1833.957555486308
 20
329.3523864108756
 30
0.0
 10
1808.957555486308
 20
395.8586780467013
 30
0.0
 10
1783.957555486308
 20
323.1347698305649
 30
0.0
 10
1758.957555486308
 20
397.5241110592842
 30
0.0
 10
1734.604677958367
 20
324.6277108202089
 30
0.0
 10
1718.58513376376
 20
368.9243169971291
 30
0.0
 10
1710.898922902486
 20
372.2250984837001
 30
0.0
  0
LINE
  5
9ED4
330
1F
100
AcDbEntity
  8
実形
100
AcDbLine
 10
1533.766988216205
 20
1589.032765817213
 30
0.0
 11
1548.766988216205
 21
1589.032765817214
 31
0.0
  0
LINE
  5
9ED5
330
1F
100
AcDbEntity
  8
実形
100
AcDbLine
 10
1548.766988216205
 20
1589.032765817214
 30
0.0
 11
1548.766988216205
 21
1509.032765817214
 31
0.0
  0
LINE
  5
9ED6
330
1F
100
AcDbEntity
  8
実形
100
AcDbLine
 10
1548.766988216205
 20
1099.032765817214
 30
0.0
 11
1548.766988216205
 21
1059.032765817214
 31
0.0
  0
LINE
  5
9ED7
330
1F
100
AcDbEntity
  8
実形
100
AcDbLine
 10
1548.766988216205
 20
1059.032765817214
 30
0.0
 11
1533.766988216205
 21
1059.032765817214
 31
0.0
  0
LINE
  5
9EDA
330
1F
100
AcDbEntity
  8
実形
100
AcDbLine
 10
1789.95837554088
 20
376.0317794237095
 30
0.0
 11
1789.95837554088
 21
488.4048768172361
 31
0.0
  0
LINE
  5
9EDB
330
1F
100
AcDbEntity
  8
実形
100
AcDbLine
 10
1779.95837554088
 20
374.4669552892799
 30
0.0
 11
1779.95837554088
 21
488.4048768172361
 31
0.0
  0
LINE
  5
9F27
330
1F
100
AcDbEntity
  8
実形
100
AcDbLine
 10
1528.766988216205
 20
951.88682238566
 30
0.0
 11
1548.766988216205
 21
951.88682238566
 31
0.0
  0
LINE
  5
9F28
330
1F
100
AcDbEntity
  8
実形
100
AcDbLine
 10
1718.766988216205
 20
951.88682238566
 30
0.0
 11
1748.766988216205
 21
951.88682238566
 31
0.0
  0
LINE
  5
9F29
330
1F
100
AcDbEntity
  8
実形
100
AcDbLine
 10
1748.766988216205
 20
998.0991829011776
 30
0.0
 11
1748.766988216205
 21
951.88682238566
 31
0.0
  0
LINE
  5
9F2A
330
1F
100
AcDbEntity
  8
実形
100
AcDbLine
 10
1738.766988216205
 20
998.0991829011776
 30
0.0
 11
1738.766988216205
 21
888.8059301942442
 31
0.0
  0
LINE
  5
9F2B
330
1F
100
AcDbEntity
  8
実形
100
AcDbLine
 10
1718.766988216205
 20
998.0991829011776
 30
0.0
 11
1718.766988216205
 21
951.88682238566
 31
0.0
  0
LINE
  5
9F2C
330
1F
100
AcDbEntity
  8
実形
100
AcDbLine
 10
1528.766988216205
 20
888.8059301942442
 30
0.0
 11
1738.766988216205
 21
888.8059301942442
 31
0.0
  0
LINE
  5
9F2D
330
1F
100
AcDbEntity
  8
実形
100
AcDbLine
 10
1548.766988216205
 20
998.0991829011776
 30
0.0
 11
1548.766988216205
 21
951.88682238566
 31
0.0
  0
HATCH
  5
9F2F
330
1F
100
AcDbEntity
  8
実形
100
AcDbHatch
 10
0.0
 20
0.0
 30
0.0
210
0.0
220
0.0
230
1.0
  2
SOLID
 70
     1
 71
     1
 91
        1
 92
        7
 72
     1
 73
     1
 93
        2
 10
1744.260223414773
 20
952.2510047302205
 42
1.0
 10
1754.260223414773
 20
952.2510047302205
 42
1.0
 97
        1
330
9F30
 75
     0
 76
     1
 47
0.2779191024150841
 98
        1
 10
1748.810725953721
 20
953.6664400998882
  0
CIRCLE
  5
9F30
102
{ACAD_REACTORS
330
9F2F
102
}
330
1F
100
AcDbEntity
  8
実形
100
AcDbCircle
 10
1749.260223414773
 20
952.2510047302205
 30
0.0
 40
5.0
  0
HATCH
  5
9F31
330
1F
100
AcDbEntity
  8
実形
100
AcDbHatch
 10
0.0
 20
0.0
 30
0.0
210
0.0
220
0.0
230
1.0
  2
SOLID
 70
     1
 71
     1
 91
        1
 92
        7
 72
     1
 73
     1
 93
        2
 10
1733.98417858817
 20
951.7672255872168
 42
1.0
 10
1743.984178588171
 20
951.7672255872168
 42
1.0
 97
        1
330
9F32
 75
     0
 76
     1
 47
0.2779191024150841
 98
        1
 10
1738.534681127119
 20
953.1826609568845
  0
CIRCLE
  5
9F32
102
{ACAD_REACTORS
330
9F31
102
}
330
1F
100
AcDbEntity
  8
実形
100
AcDbCircle
 10
1738.984178588171
 20
951.7672255872168
 30
0.0
 40
5.0
  0
HATCH
  5
9F33
330
1F
100
AcDbEntity
  8
実形
100
AcDbHatch
 10
0.0
 20
0.0
 30
0.0
210
0.0
220
0.0
230
1.0
  2
SOLID
 70
     1
 71
     1
 91
        1
 92
        7
 72
     1
 73
     1
 93
        2
 10
1713.070122445616
 20
951.9682594120189
 42
1.0
 10
1723.070122445616
 20
951.9682594120189
 42
1.0
 97
        1
330
9F34
 75
     0
 76
     1
 47
0.2779191024150841
 98
        1
 10
1717.620624984564
 20
953.3836947816864
  0
CIRCLE
  5
9F34
102
{ACAD_REACTORS
330
9F33
102
}
330
1F
100
AcDbEntity
  8
実形
100
AcDbCircle
 10
1718.070122445616
 20
951.9682594120189
 30
0.0
 40
5.0
  0
HATCH
  5
9F35
330
1F
100
AcDbEntity
  8
実形
100
AcDbHatch
 10
0.0
 20
0.0
 30
0.0
210
0.0
220
0.0
230
1.0
  2
SOLID
 70
     1
 71
     0
 91
        1
 92
        7
 72
     1
 73
     1
 93
        2
 10
1738.293381833093
 20
883.1130868521233
 42
1.0
 10
1738.293381833093
 20
893.1130868521234
 42
1.0
 97
        0
 75
     0
 76
     1
 47
0.2779191024150841
 98
        1
 10
1737.843884372042
 20
889.5285222217911
  0
HATCH
  5
9F36
330
1F
100
AcDbEntity
  8
実形
100
AcDbHatch
 10
0.0
 20
0.0
 30
0.0
210
0.0
220
0.0
230
1.0
  2
SOLID
 70
     1
 71
     0
 91
        1
 92
        7
 72
     1
 73
     1
 93
        2
 10
1533.198011831128
 20
883.7850087229128
 42
1.0
 10
1533.198011831128
 20
893.7850087229127
 42
1.0
 97
        0
 75
     0
 76
     1
 47
0.2779191024150841
 98
        1
 10
1532.748514370076
 20
890.2004440925805
  0
HATCH
  5
9F37
330
1F
100
AcDbEntity
  8
実形
100
AcDbHatch
 10
0.0
 20
0.0
 30
0.0
210
0.0
220
0.0
230
1.0
  2
SOLID
 70
     1
 71
     0
 91
        1
 92
        7
 72
     1
 73
     1
 93
        2
 10
1548.909505321161
 20
947.0940184381582
 42
1.0
 10
1548.909505321161
 20
957.0940184381582
 42
1.0
 97
        0
 75
     0
 76
     1
 47
0.2779191024150841
 98
        1
 10
1548.460007860109
 20
953.5094538078258
  0
HATCH
  5
9F38
330
1F
100
AcDbEntity
  8
実形
100
AcDbHatch
 10
0.0
 20
0.0
 30
0.0
210
0.0
220
0.0
230
1.0
  2
SOLID
 70
     1
 71
     0
 91
        1
 92
        7
 72
     1
 73
     1
 93
        2
 10
1533.406621129994
 20
946.3069443641892
 42
1.0
 10
1533.406621129994
 20
956.3069443641891
 42
1.0
 97
        0
 75
     0
 76
     1
 47
0.2779191024150841
 98
        1
 10
1532.957123668943
 20
952.7223797338567
  0
LINE
  5
9F39
330
1F
100
AcDbEntity
  8
実形
100
AcDbLine
 10
1548.766988216205
 20
951.88682238566
 30
0.0
 11
1718.070122445616
 21
951.9682594120189
 31
0.0
  0
LINE
  5
9F3A
330
1F
100
AcDbEntity
  8
実形
100
AcDbLine
 10
1749.260223414773
 20
890.4106238674005
 30
0.0
 11
1749.260223414773
 21
832.8927712662128
 31
0.0
  0
LINE
  5
9F3B
330
1F
100
AcDbEntity
  8
実形
100
AcDbLine
 10
1528.766988216205
 20
832.8927712662128
 30
0.0
 11
1749.260223414773
 21
832.8927712662128
 31
0.0
  0
HATCH
  5
9F3D
330
1F
100
AcDbEntity
  8
実形
100
AcDbHatch
 10
0.0
 20
0.0
 30
0.0
210
0.0
220
0.0
230
1.0
  2
SOLID
 70
     1
 71
     0
 91
        1
 92
        7
 72
     1
 73
     1
 93
        2
 10
1748.518942677907
 20
827.6047756591799
 42
1.0
 10
1748.518942677907
 20
837.6047756591798
 42
1.0
 97
        0
 75
     0
 76
     1
 47
0.2779191024150841
 98
        1
 10
1748.069445216856
 20
834.0202110288476
  0
HATCH
  5
9F3E
330
1F
100
AcDbEntity
  8
実形
100
AcDbHatch
 10
0.0
 20
0.0
 30
0.0
210
0.0
220
0.0
230
1.0
  2
SOLID
 70
     1
 71
     0
 91
        1
 92
        7
 72
     1
 73
     1
 93
        2
 10
1533.468747162207
 20
828.0598420084826
 42
1.0
 10
1533.468747162207
 20
838.0598420084828
 42
1.0
 97
        0
 75
     0
 76
     1
 47
0.2779191024150841
 98
        1
 10
1533.019249701155
 20
834.4752773781504
  0
TEXT
  5
9F3F
330
1F
100
AcDbEntity
  8
実形
100
AcDbText
 10
1584.551413249556
 20
962.0677738697226
 30
0.0
 40
25.0
  1
170
 72
     2
 11
1638.718079916223
 21
958.7344405363891
 31
0.0
100
AcDbText
 73
     1
  0
TEXT
  5
9F40
330
1F
100
AcDbEntity
  8
実形
100
AcDbText
 10
1487.878013565323
 20
960.504996562777
 30
0.0
 40
25.0
  1
15
 72
     2
 11
1521.211346898656
 21
957.1716632294437
 31
0.0
100
AcDbText
 73
     1
  0
TEXT
  5
9F41
330
1F
100
AcDbEntity
  8
実形
100
AcDbText
 10
1675.229310950534
 20
962.0677738697226
 30
0.0
 40
25.0
  1
20
 72
     2
 11
1712.729310950534
 21
958.7344405363891
 31
0.0
100
AcDbText
 73
     1
  0
TEXT
  5
9F42
330
1F
100
AcDbEntity
  8
実形
100
AcDbText
 10
1756.526730980104
 20
962.0677738697226
 30
0.0
 40
25.0
  1
8
 72
     2
 11
1773.193397646771
 21
958.7344405363891
 31
0.0
100
AcDbText
 73
     1
  0
TEXT
  5
9F43
330
1F
100
AcDbEntity
  8
実形
100
AcDbText
 10
1598.105852295739
 20
894.0870788419509
 30
0.0
 40
25.0
  1
205
 72
     2
 11
1660.605852295739
 21
890.7537455086176
 31
0.0
100
AcDbText
 73
     1
  0
TEXT
  5
9F44
330
1F
100
AcDbEntity
  8
実形
100
AcDbText
 10
1603.835927480752
 20
839.3899683611037
 30
0.0
 40
25.0
  1
213
 72
     2
 11
1662.169260814085
 21
836.0566350277704
 31
0.0
100
AcDbText
 73
     1
  0
LINE
  5
9F45
330
1F
100
AcDbEntity
  8
実形
100
AcDbLine
 10
1528.766988216206
 20
1685.909328496996
 30
0.0
 11
1548.766988216207
 21
1685.909328496996
 31
0.0
  0
LINE
  5
9F46
330
1F
100
AcDbEntity
  8
実形
100
AcDbLine
 10
1718.766988216207
 20
1685.909328496995
 30
0.0
 11
1748.766988216207
 21
1685.909328496995
 31
0.0
  0
LINE
  5
9F47
330
1F
100
AcDbEntity
  8
実形
100
AcDbLine
 10
1748.766988216207
 20
1639.696967981478
 30
0.0
 11
1748.766988216207
 21
1685.909328496995
 31
0.0
  0
LINE
  5
9F48
330
1F
100
AcDbEntity
  8
実形
100
AcDbLine
 10
1738.766988216207
 20
1639.696967981478
 30
0.0
 11
1738.766988216207
 21
1748.990220688411
 31
0.0
  0
LINE
  5
9F49
330
1F
100
AcDbEntity
  8
実形
100
AcDbLine
 10
1728.766988216204
 20
1639.696967981477
 30
0.0
 11
1728.766988216204
 21
1685.909328496995
 31
0.0
  0
LINE
  5
9F4A
330
1F
100
AcDbEntity
  8
実形
100
AcDbLine
 10
1528.766988216207
 20
1748.990220688412
 30
0.0
 11
1738.766988216207
 21
1748.990220688411
 31
0.0
  0
LINE
  5
9F4B
330
1F
100
AcDbEntity
  8
実形
100
AcDbLine
 10
1548.766988216207
 20
1639.696967981478
 30
0.0
 11
1548.766988216207
 21
1685.909328496996
 31
0.0
  0
HATCH
  5
9F4D
330
1F
100
AcDbEntity
  8
実形
100
AcDbHatch
 10
0.0
 20
0.0
 30
0.0
210
0.0
220
0.0
230
1.0
  2
SOLID
 70
     1
 71
     1
 91
        1
 92
        7
 72
     1
 73
     1
 93
        2
 10
1754.260223414775
 20
1685.545146152434
 42
1.0
 10
1744.260223414775
 20
1685.545146152434
 42
1.0
 97
        1
330
9F4E
 75
     0
 76
     1
 47
0.2779191024150841
 98
        1
 10
1748.810725953723
 20
1684.129710782767
  0
CIRCLE
  5
9F4E
102
{ACAD_REACTORS
330
9F4D
102
}
330
1F
100
AcDbEntity
  8
実形
100
AcDbCircle
 10
1749.260223414775
 20
1685.545146152434
 30
0.0
 40
5.0
  0
HATCH
  5
9F4F
330
1F
100
AcDbEntity
  8
実形
100
AcDbHatch
 10
0.0
 20
0.0
 30
0.0
210
0.0
220
0.0
230
1.0
  2
SOLID
 70
     1
 71
     1
 91
        1
 92
        7
 72
     1
 73
     1
 93
        2
 10
1743.984178588172
 20
1686.028925295438
 42
1.0
 10
1733.984178588172
 20
1686.028925295438
 42
1.0
 97
        1
330
9F50
 75
     0
 76
     1
 47
0.2779191024150841
 98
        1
 10
1738.534681127121
 20
1684.61348992577
  0
CIRCLE
  5
9F50
102
{ACAD_REACTORS
330
9F4F
102
}
330
1F
100
AcDbEntity
  8
実形
100
AcDbCircle
 10
1738.984178588172
 20
1686.028925295438
 30
0.0
 40
5.0
  0
HATCH
  5
9F51
330
1F
100
AcDbEntity
  8
実形
100
AcDbHatch
 10
0.0
 20
0.0
 30
0.0
210
0.0
220
0.0
230
1.0
  2
SOLID
 70
     1
 71
     0
 91
        1
 92
        7
 72
     1
 73
     1
 93
        2
 10
1733.070122445615
 20
1685.827891470636
 42
1.0
 10
1723.070122445615
 20
1685.827891470636
 42
1.0
 97
        0
 75
     0
 76
     1
 47
0.2779191024150841
 98
        1
 10
1727.620624984564
 20
1684.412456100968
  0
HATCH
  5
9F52
330
1F
100
AcDbEntity
  8
実形
100
AcDbHatch
 10
0.0
 20
0.0
 30
0.0
210
0.0
220
0.0
230
1.0
  2
SOLID
 70
     1
 71
     0
 91
        1
 92
        7
 72
     1
 73
     1
 93
        2
 10
1738.293381833095
 20
1754.683064030532
 42
-1.0
 10
1738.293381833095
 20
1744.683064030532
 42
-1.0
 97
        0
 75
     0
 76
     1
 47
0.2779191024150841
 98
        1
 10
1737.843884372044
 20
1748.267628660864
  0
HATCH
  5
9F53
330
1F
100
AcDbEntity
  8
実形
100
AcDbHatch
 10
0.0
 20
0.0
 30
0.0
210
0.0
220
0.0
230
1.0
  2
SOLID
 70
     1
 71
     0
 91
        1
 92
        7
 72
     1
 73
     1
 93
        2
 10
1533.19801183113
 20
1754.011142159743
 42
-1.0
 10
1533.19801183113
 20
1744.011142159743
 42
-1.0
 97
        0
 75
     0
 76
     1
 47
0.2779191024150841
 98
        1
 10
1532.748514370078
 20
1747.595706790075
  0
HATCH
  5
9F54
330
1F
100
AcDbEntity
  8
実形
100
AcDbHatch
 10
0.0
 20
0.0
 30
0.0
210
0.0
220
0.0
230
1.0
  2
SOLID
 70
     1
 71
     0
 91
        1
 92
        7
 72
     1
 73
     1
 93
        2
 10
1548.909505321163
 20
1690.702132444498
 42
-1.0
 10
1548.909505321162
 20
1680.702132444498
 42
-1.0
 97
        0
 75
     0
 76
     1
 47
0.2779191024150841
 98
        1
 10
1548.460007860111
 20
1684.28669707483
  0
HATCH
  5
9F55
330
1F
100
AcDbEntity
  8
実形
100
AcDbHatch
 10
0.0
 20
0.0
 30
0.0
210
0.0
220
0.0
230
1.0
  2
SOLID
 70
     1
 71
     0
 91
        1
 92
        7
 72
     1
 73
     1
 93
        2
 10
1533.406621129997
 20
1691.489206518467
 42
-1.0
 10
1533.406621129996
 20
1681.489206518467
 42
-1.0
 97
        0
 75
     0
 76
     1
 47
0.2779191024150841
 98
        1
 10
1532.957123668945
 20
1685.073771148799
  0
LINE
  5
9F56
330
1F
100
AcDbEntity
  8
実形
100
AcDbLine
 10
1548.766988216207
 20
1685.909328496996
 30
0.0
 11
1718.070122445618
 21
1685.827891470636
 31
0.0
  0
LINE
  5
9F57
330
1F
100
AcDbEntity
  8
実形
100
AcDbLine
 10
1749.260223414775
 20
1747.385527015255
 30
0.0
 11
1749.260223414775
 21
1804.903379616442
 31
0.0
  0
LINE
  5
9F58
330
1F
100
AcDbEntity
  8
実形
100
AcDbLine
 10
1528.766988216207
 20
1804.903379616443
 30
0.0
 11
1749.260223414775
 21
1804.903379616442
 31
0.0
  0
HATCH
  5
9F5A
330
1F
100
AcDbEntity
  8
実形
100
AcDbHatch
 10
0.0
 20
0.0
 30
0.0
210
0.0
220
0.0
230
1.0
  2
SOLID
 70
     1
 71
     0
 91
        1
 92
        7
 72
     1
 73
     1
 93
        2
 10
1748.518942677909
 20
1810.191375223475
 42
-1.0
 10
1748.518942677909
 20
1800.191375223475
 42
-1.0
 97
        0
 75
     0
 76
     1
 47
0.2779191024150841
 98
        1
 10
1748.069445216858
 20
1803.775939853807
  0
HATCH
  5
9F5B
330
1F
100
AcDbEntity
  8
実形
100
AcDbHatch
 10
0.0
 20
0.0
 30
0.0
210
0.0
220
0.0
230
1.0
  2
SOLID
 70
     1
 71
     0
 91
        1
 92
        7
 72
     1
 73
     1
 93
        2
 10
1533.468747162209
 20
1809.736308874173
 42
-1.0
 10
1533.468747162209
 20
1799.736308874173
 42
-1.0
 97
        0
 75
     0
 76
     1
 47
0.2779191024150841
 98
        1
 10
1533.019249701158
 20
1803.320873504506
  0
TEXT
  5
9F5C
330
1F
100
AcDbEntity
  8
実形
100
AcDbText
 10
1541.053939282919
 20
1695.609455331229
 30
0.0
 40
25.0
  1
15
 72
     2
 11
1574.387272616252
 21
1692.276121997895
 31
0.0
100
AcDbText
 73
     1
  0
TEXT
  5
9F5D
330
1F
100
AcDbEntity
  8
実形
100
AcDbText
 10
1607.921032900585
 20
1818.082777900799
 30
0.0
 40
25.0
  1
213
 72
     2
 11
1666.254366233919
 21
1814.749444567465
 31
0.0
100
AcDbText
 73
     1
  0
TEXT
  5
9F5E
330
1F
100
AcDbEntity
  8
実形
100
AcDbText
 10
1605.214504315708
 20
1762.619944393761
 30
0.0
 40
25.0
  1
205
 72
     2
 11
1667.714504315708
 21
1759.286611060428
 31
0.0
100
AcDbText
 73
     1
  0
TEXT
  5
9F5F
330
1F
100
AcDbEntity
  8
実形
100
AcDbText
 10
1748.456381873453
 20
1696.347411916745
 30
0.0
 40
25.0
  1
8
 72
     2
 11
1765.12304854012
 21
1693.014078583412
 31
0.0
100
AcDbText
 73
     1
  0
TEXT
  5
9F60
330
1F
100
AcDbEntity
  8
実形
100
AcDbText
 10
1715.953260348882
 20
1695.332101780271
 30
0.0
 40
25.0
  1
7
 72
     2
 11
1732.619927015549
 21
1691.998768446938
 31
0.0
100
AcDbText
 73
     1
  0
TEXT
  5
9F61
330
1F
100
AcDbEntity
  8
実形
100
AcDbText
 10
1615.292960786599
 20
1694.316796657599
 30
0.0
 40
25.0
  1
183
 72
     2
 11
1673.626294119933
 21
1690.983463324266
 31
0.0
100
AcDbText
 73
     1
  0
LINE
  5
9F6E
330
1F
100
AcDbEntity
  8
補助
 62
     0
100
AcDbLine
 10
2834.0
 20
1829.0
 30
0.0
 11
2069.387286519283
 21
1829.0
 31
0.0
  0
LINE
  5
9F6F
330
1F
100
AcDbEntity
  8
補助
 62
     0
100
AcDbLine
 10
2252.547653420926
 20
1829.0
 30
0.0
 11
2252.547653420926
 21
2024.0
 31
0.0
  0
LINE
  5
9F70
330
1F
100
AcDbEntity
  8
補助
 62
     0
100
AcDbLine
 10
2609.0
 20
1829.0
 30
0.0
 11
2609.0
 21
2024.0
 31
0.0
  0
TEXT
  5
9F71
330
1F
100
AcDbEntity
  8
実形
 62
     0
100
AcDbText
 10
2120.170667800645
 20
1846.328571428571
 30
0.0
 40
30.0
  1
段部
  7
明朝
 72
     4
 11
2164.056382086359
 21
1861.5
 31
0.0
100
AcDbText
  0
TEXT
  5
9F72
330
1F
100
AcDbEntity
  8
実形
100
AcDbText
 10
2644.700000000001
 20
1846.842857142857
 30
0.0
 40
30.0
  1
1.0ｍｍ
  7
明朝
 72
     4
 11
2721.500000000001
 21
1861.5
 31
0.0
100
AcDbText
  0
TEXT
  5
9F73
330
1F
100
AcDbEntity
  8
実形
 62
     0
100
AcDbText
 10
2311.016869107866
 20
1845.728571428572
 30
0.0
 40
30.0
  1
SUS304（HL）
  7
明朝
 72
     4
 11
2442.674011965009
 21
1861.5
 31
0.0
100
AcDbText
  0
LINE
  5
9F74
330
1F
100
AcDbEntity
  8
実形
 62
     0
100
AcDbLine
 10
2069.387286519283
 20
1894.0
 30
0.0
 11
2069.387286519283
 21
1829.0
 31
0.0
  0
TEXT
  5
A227
330
1F
100
AcDbEntity
  8
実形
100
AcDbText
 10
1872.863481066787
 20
744.0655196157896
 30
0.0
 40
35.0
  1
リブ 部 詳細図(1/1)
 72
     2
 11
2283.530147733453
 21
739.398852949123
 31
0.0
100
AcDbText
 73
     1
  0
LINE
  5
A228
330
1F
100
AcDbEntity
  8
実形
100
AcDbLine
 10
1832.858470665234
 20
734.8012975067904
 30
0.0
 11
2310.73401833051
 21
734.8012975067904
 31
0.0
  0
LINE
  5
A25B
330
1F
100
AcDbEntity
  8
実形
100
AcDbLine
 10
2366.297216862946
 20
170.3191875847278
 30
0.0
 11
2356.186956348844
 21
150.3050482362541
 31
0.0
  0
LINE
  5
A303
330
1F
100
AcDbEntity
  8
実形
100
AcDbLine
 10
2273.507244093325
 20
1162.159142317625
 30
0.0
 11
2273.507244093325
 21
1021.501296008163
 31
0.0
  0
LINE
  5
A304
330
1F
100
AcDbEntity
  8
実形
100
AcDbLine
 10
2264.167397928364
 20
1159.159142317625
 30
0.0
 11
2264.167397928364
 21
1021.501296008163
 31
0.0
  0
DIMENSION
  5
A309
330
1F
100
AcDbEntity
  8
寸法
100
AcDbDimension
  2
*D58
 10
2323.663091062176
 20
1021.501296008164
 30
0.0
 11
2323.663091062176
 21
1107.920396120715
 31
0.0
 70
   160
  1
15
 71
     5
 42
149.9976924744223
  3
ISO-25
100
AcDbAlignedDimension
 13
2273.507244093326
 23
1171.498988482586
 33
0.0
 14
2273.507244093326
 24
1021.501296008164
 34
0.0
 50
90.0
100
AcDbRotatedDimension
1001
ACAD
1000
DSTYLE
1002
{
1070
    41
1040
40.0
1070
    42
1040
20.0
1002
}
  0
ARC
  5
A30D
330
1F
100
AcDbEntity
  8
実形
100
AcDbCircle
 10
2643.964321227594
 20
1012.161449843202
 30
0.0
 40
9.3398461649615
100
AcDbArc
 50
0.0
 51
90.0
  0
LINE
  5
A30E
330
1F
100
AcDbEntity
  8
実形
100
AcDbLine
 10
2653.304167392556
 20
1012.161449843202
 30
0.0
 11
2653.304167392556
 21
770.6127885050517
 31
0.0
  0
LINE
  5
A30F
330
1F
100
AcDbEntity
  8
実形
100
AcDbLine
 10
2643.964321227594
 20
1012.161449843202
 30
0.0
 11
2643.964321227594
 21
770.6127885050517
 31
0.0
  0
ARC
  5
A310
330
1F
100
AcDbEntity
  8
実形
100
AcDbCircle
 10
2273.507244093325
 20
1021.501296008163
 30
0.0
 40
9.3398461649615
100
AcDbArc
 50
180.0
 51
270.0
  0
LINE
  5
A311
330
1F
100
AcDbEntity
  8
実形
100
AcDbLine
 10
2273.507244093325
 20
1021.501296008163
 30
0.0
 11
2643.964321227594
 21
1021.501296008163
 31
0.0
  0
LINE
  5
A312
330
1F
100
AcDbEntity
  8
実形
100
AcDbLine
 10
2273.507244093325
 20
1012.161449843202
 30
0.0
 11
2643.964321227594
 21
1012.161449843202
 31
0.0
  0
DIMENSION
  5
A313
330
1F
100
AcDbEntity
  8
寸法
100
AcDbDimension
  2
*D59
 10
2653.304167392556
 20
1064.755387089964
 30
0.0
 11
2488.399349895659
 21
1064.755387089964
 31
0.0
 70
   160
  1
40
 71
     5
 42
379.7969232992291
  3
ISO-25
100
AcDbAlignedDimension
 13
2273.507244093326
 23
1021.501296008164
 33
0.0
 14
2653.304167392556
 24
1021.501296008164
 34
0.0
100
AcDbRotatedDimension
1001
ACAD
1000
DSTYLE
1002
{
1070
    41
1040
40.0
1070
    42
1040
20.0
1002
}
  0
LINE
  5
A317
330
1F
100
AcDbEntity
  8
実形
100
AcDbLine
 10
2123.507244093325
 20
1171.498988482586
 30
0.0
 11
2264.167397928364
 21
1171.498988482586
 31
0.0
  0
LINE
  5
A318
330
1F
100
AcDbEntity
  8
実形
100
AcDbLine
 10
2123.507244093325
 20
1162.158988482586
 30
0.0
 11
2261.167397928364
 21
1162.159142317624
 31
0.0
  0
DIMENSION
  5
A31B
330
1F
100
AcDbEntity
  8
寸法
100
AcDbDimension
  2
*D60
 10
2273.507244093326
 20
1290.291847622432
 30
0.0
 11
2198.600093465316
 21
1309.041847622432
 31
0.0
 70
    32
  1
15
 71
     5
 42
149.8143012560213
  3
ISO-25
100
AcDbAlignedDimension
 13
2123.692942837305
 23
1164.012193412978
 33
0.0
 14
2273.507244093326
 24
1171.498988482586
 34
0.0
100
AcDbRotatedDimension
1001
ACAD
1000
DSTYLE
1002
{
1070
    41
1040
40.0
1070
    42
1040
45.0
1002
}
  0
ARC
  5
A320
330
1F
100
AcDbEntity
  8
実形
100
AcDbCircle
 10
2264.167397928364
 20
1162.159142317625
 30
0.0
 40
9.3398461649615
100
AcDbArc
 50
0.0
 51
90.0
  0
TEXT
  5
A326
330
1F
100
AcDbEntity
  8
実形
100
AcDbText
 10
2457.304947139773
 20
1027.854806660695
 30
0.0
 40
25.0
  1
(80)
 72
     2
 11
2528.138280473107
 21
1024.521473327362
 31
0.0
100
AcDbText
 73
     1
  0
ARC
  5
A3C0
330
1F
100
AcDbEntity
  8
実形
100
AcDbCircle
 10
2261.167397928364
 20
1159.159142317625
 30
0.0
 40
3.0
100
AcDbArc
 50
0.0000000000001527
 51
89.99999999999991
  0
LINE
  5
A3D6
330
1F
100
AcDbEntity
  8
実形
100
AcDbLine
 10
2123.507244093325
 20
1162.158988482586
 30
0.0
 11
2123.507244093325
 21
1171.498988482586
 31
0.0
  0
LINE
  5
A3E2
330
1F
100
AcDbEntity
  8
実形
100
AcDbLine
 10
491.7442641170687
 20
578.98164140068
 30
0.0
 11
1331.744264117069
 21
578.98164140068
 31
0.0
  0
LINE
  5
A3E3
330
1F
100
AcDbEntity
  8
実形
100
AcDbLine
 10
476.7442641170687
 20
578.98164140068
 30
0.0
 11
491.7442641170687
 21
578.98164140068
 31
0.0
  0
LINE
  5
A3E4
330
1F
100
AcDbEntity
  8
実形
100
AcDbLine
 10
1331.744264117069
 20
578.98164140068
 30
0.0
 11
1346.744264117069
 21
578.98164140068
 31
0.0
  0
LINE
  5
A3E5
330
1F
100
AcDbEntity
  8
実形
100
AcDbLine
 10
418.6330371505075
 20
578.98164140068
 30
0.0
 11
309.339784443574
 21
578.98164140068
 31
0.0
  0
LINE
  5
A3E6
330
1F
100
AcDbEntity
  8
実形
100
AcDbLine
 10
309.339784443574
 20
578.98164140068
 30
0.0
 11
253.4266255155426
 21
578.98164140068
 31
0.0
  0
LINE
  5
A415
330
1F
100
AcDbEntity
  8
実形
100
AcDbLine
 10
1533.766988216205
 20
1589.032765817214
 30
0.0
 11
1533.766988216205
 21
1059.032765817214
 31
0.0
  0
LINE
  5
A416
330
1F
100
AcDbEntity
  8
実形
100
AcDbLine
 10
1533.766988216205
 20
1059.032765817214
 30
0.0
 11
1533.766988216205
 21
1044.032765817214
 31
0.0
  0
LINE
  5
A417
330
1F
100
AcDbEntity
  8
実形
100
AcDbLine
 10
1533.766988216205
 20
1604.032765817214
 30
0.0
 11
1533.766988216205
 21
1589.032765817214
 31
0.0
  0
LINE
  5
A419
330
1F
100
AcDbEntity
  8
実形
100
AcDbLine
 10
1533.766988216207
 20
1639.696967981478
 30
0.0
 11
1533.766988216207
 21
1748.990220688412
 31
0.0
  0
LINE
  5
A41A
330
1F
100
AcDbEntity
  8
実形
100
AcDbLine
 10
1533.766988216207
 20
1748.990220688412
 30
0.0
 11
1533.766988216207
 21
1804.903379616443
 31
0.0
  0
LINE
  5
A41B
330
1F
100
AcDbEntity
  8
実形
100
AcDbLine
 10
1533.766988216205
 20
998.0991829011776
 30
0.0
 11
1533.766988216205
 21
888.8059301942442
 31
0.0
  0
LINE
  5
A41C
330
1F
100
AcDbEntity
  8
実形
100
AcDbLine
 10
1533.766988216205
 20
888.8059301942442
 30
0.0
 11
1533.766988216205
 21
832.8927712662128
 31
0.0
  0
LINE
  5
A429
330
1F
100
AcDbEntity
  8
実形
100
AcDbLine
 10
2134.711695985364
 20
1362.863006923082
 30
0.0
 11
2489.390449638746
 21
1362.863006923081
 31
0.0
  0
LINE
  5
A42A
330
1F
100
AcDbEntity
  8
実形
100
AcDbLine
 10
2134.711695985364
 20
1367.863006923081
 30
0.0
 11
2489.390449638746
 21
1367.863006923081
 31
0.0
  0
TEXT
  5
A42B
330
1F
100
AcDbEntity
  8
実形
100
AcDbText
 10
2144.173253019981
 20
1375.130324973411
 30
0.0
 40
30.0
  1
段・デッキ部 詳細図
 11
2144.173253019981
 21
1371.130324973411
 31
0.0
100
AcDbText
 73
     1
  0
VIEWPORT
  5
2E
102
{ACAD_XDICTIONARY
360
A4D7
102
}
330
1B
100
AcDbEntity
 67
     1
  8
0
100
AcDbViewport
 10
144.7270812988281
 20
101.2295806407928
 30
0.0
 40
411.6736216682419
 41
222.1517806396485
 68
     1
 69
     1
 12
144.7270812988281
 22
101.2295806407928
 13
0.0
 23
0.0
 14
10.0
 24
10.0
 15
10.0
 25
10.0
 16
0.0
 26
0.0
 36
1.0
 17
0.0
 27
0.0
 37
0.0
 42
50.0
 43
0.0
 44
0.0
 45
222.1517806396485
 50
0.0
 51
0.0
 72
   100
 90
    32800
  1

281
     0
 71
     1
 74
     0
110
0.0
120
0.0
130
0.0
111
1.0
121
0.0
131
0.0
112
0.0
122
1.0
132
0.0
 79
     0
146
0.0
  0
VIEWPORT
  5
30
102
{ACAD_XDICTIONARY
360
A4D9
102
}
330
1B
100
AcDbEntity
 67
     1
  8
0
100
AcDbViewport
 10
139.2237563133239
 20
101.2295821905136
 30
0.0
 40
222.7580101013184
 41
161.9673315048218
 68
     2
 69
     2
 12
210.0
 22
148.5
 13
0.0
 23
0.0
 14
10.0
 24
10.0
 15
10.0
 25
10.0
 16
0.0
 26
0.0
 36
1.0
 17
0.0
 27
0.0
 37
0.0
 42
50.0
 43
0.0
 44
0.0
 45
309.0686705647124
 50
0.0
 51
0.0
 72
   100
 90
    32864
  1

281
     0
 71
     1
 74
     0
110
0.0
120
0.0
130
0.0
111
1.0
121
0.0
131
0.0
112
0.0
122
1.0
132
0.0
 79
     0
146
0.0
  0
ENDSEC
  0
SECTION
  2
OBJECTS
  0
DICTIONARY
  5
C
330
0
100
AcDbDictionary
281
     1
  3
ACAD_COLOR
350
22AD
  3
ACAD_GROUP
350
D
  3
ACAD_LAYOUT
350
1A
  3
ACAD_MATERIAL
350
22AC
  3
ACAD_MLINESTYLE
350
17
  3
ACAD_PLOTSETTINGS
350
19
  3
ACAD_PLOTSTYLENAME
350
E
  3
ACAD_TABLESTYLE
350
22AE
  3
AcadDim
350
124
  3
ACDBHEADERROUNDTRIPXREC
350
A4D0
  3
AcDbVariableDictionary
350
1589
  3
DWGPROPS
350
A4CF
  0
DICTIONARY
  5
24C4
330
2
100
AcDbDictionary
280
     1
281
     1
  3
ACAD_LAYERFILTERS
360
6C37
  3
ACAD_LAYERSTATES
360
24C5
  3
ACLYDICTIONARY
360
6C36
  0
DICTIONARY
  5
2396
330
1F
100
AcDbDictionary
280
     1
281
     1
  3
ACAD_SORTENTS
360
2397
  0
DICTIONARY
  5
313E
330
313C
100
AcDbDictionary
280
     1
281
     1
  3
ACAD_SORTENTS
360
313F
  0
DICTIONARY
  5
3848
330
3846
100
AcDbDictionary
280
     1
281
     1
  3
ACAD_SORTENTS
360
3849
  0
DICTIONARY
  5
6B89
330
6B87
100
AcDbDictionary
280
     1
281
     1
  3
ACAD_SORTENTS
360
6B8A
  0
DICTIONARY
  5
6C02
330
6C00
100
AcDbDictionary
280
     1
281
     1
  3
ACAD_SORTENTS
360
6C03
  0
DICTIONARY
  5
84D4
330
84D2
100
AcDbDictionary
280
     1
281
     1
  3
ACAD_SORTENTS
360
84D5
  0
DICTIONARY
  5
85E7
330
85E5
100
AcDbDictionary
280
     1
281
     1
  3
ACAD_SORTENTS
360
85E8
  0
DICTIONARY
  5
92A7
330
928A
100
AcDbDictionary
280
     1
281
     1
  3
ACAD_SORTENTS
360
92A8
  0
DICTIONARY
  5
93A7
330
9386
100
AcDbDictionary
280
     1
281
     1
  3
ACAD_SORTENTS
360
93A8
  0
DICTIONARY
  5
9ECD
330
9EC6
100
AcDbDictionary
280
     1
281
     1
  3
ACAD_SORTENTS
360
9ECE
  0
DICTIONARY
  5
A4D7
330
2E
100
AcDbDictionary
280
     1
281
     1
  3
ACAD_XREC_ROUNDTRIP
360
A4D8
  0
DICTIONARY
  5
A4D9
330
30
100
AcDbDictionary
280
     1
281
     1
  3
ACAD_XREC_ROUNDTRIP
360
A4DA
  0
DICTIONARY
  5
22AD
102
{ACAD_REACTORS
330
C
102
}
330
C
100
AcDbDictionary
281
     1
  0
DICTIONARY
  5
D
102
{ACAD_REACTORS
330
C
102
}
330
C
100
AcDbDictionary
281
     1
  0
DICTIONARY
  5
1A
102
{ACAD_REACTORS
330
C
102
}
330
C
100
AcDbDictionary
281
     1
  3
Model
350
22
  3
ﾚｲｱｳﾄ1
350
1E
  3
ﾚｲｱｳﾄ2
350
26
  0
DICTIONARY
  5
22AC
102
{ACAD_REACTORS
330
C
102
}
330
C
100
AcDbDictionary
281
     1
  0
DICTIONARY
  5
17
102
{ACAD_REACTORS
330
C
102
}
330
C
100
AcDbDictionary
281
     1
  3
Standard
350
18
  0
DICTIONARY
  5
19
102
{ACAD_REACTORS
330
C
102
}
330
C
100
AcDbDictionary
281
     1
  0
ACDBDICTIONARYWDFLT
  5
E
102
{ACAD_REACTORS
330
C
102
}
330
C
100
AcDbDictionary
281
     1
  3
Normal
350
F
100
AcDbDictionaryWithDefault
340
F
  0
DICTIONARY
  5
22AE
102
{ACAD_REACTORS
330
C
102
}
330
C
100
AcDbDictionary
281
     1
  3
Standard
350
22AF
  0
XRECORD
  5
124
102
{ACAD_REACTORS
330
C
102
}
330
C
100
AcDbXrecord
280
     1
 90
   990106
  3

 60
     0
 61
     0
 62
     1
 63
     3
 64
     0
 65
     0
 66
     0
 67
     3
 68
     1
 69
     0
 70
     0
 71
     0
 72
     0
 40
30.0
170
     0
  0
DICTIONARY
  5
A4D0
102
{ACAD_REACTORS
330
C
102
}
330
C
100
AcDbDictionary
281
     1
  0
DICTIONARY
  5
1589
102
{ACAD_REACTORS
330
C
102
}
330
C
100
AcDbDictionary
281
     1
  3
CTABLESTYLE
350
22B5
  3
DIMASSOC
350
A4CC
  3
PROJECTNAME
350
A4CD
  3
SORTENTS
350
158A
  0
XRECORD
  5
A4CF
102
{ACAD_REACTORS
330
C
102
}
330
C
100
AcDbXrecord
280
     1
  1
DWGPROPS COOKIE
  2

  3

  4

  6

  7

  8

  9

300
=
301
=
302
=
303
=
304
=
305
=
306
=
307
=
308
=
309
=
 40
5.215224837962963
 41
2451673.575802199
 42
2458803.764980394
  1

 90
        0
  0
DICTIONARY
  5
6C37
102
{ACAD_REACTORS
330
24C4
102
}
330
24C4
100
AcDbDictionary
281
     1
  0
DICTIONARY
  5
24C5
102
{ACAD_REACTORS
330
24C4
102
}
330
24C4
100
AcDbDictionary
281
     1
  0
DICTIONARY
  5
6C36
102
{ACAD_REACTORS
330
24C4
102
}
330
24C4
100
AcDbDictionary
281
     1
1001
ACAD
1000
<All
  0
SORTENTSTABLE
  5
2397
102
{ACAD_REACTORS
330
2396
102
}
330
2396
100
AcDbSortentsTable
330
1F
331
9E6F
  5
9E72
331
9F4D
  5
9F58
331
9ED6
  5
9F29
331
8F28
  5
930B
331
1B98
  5
3800
331
863B
  5
8ACD
331
7FFD
  5
7FFF
331
272
  5
1B84
331
5E5F
  5
6C24
331
864B
  5
8937
331
A310
  5
A3D6
331
A416
  5
9F2E
331
A318
  5
A417
331
9972
  5
9A99
331
9C71
  5
9C73
331
9A62
  5
9ACF
331
9500
  5
9514
331
96E6
  5
86B0
331
9508
  5
95EB
331
9C79
  5
9C7C
331
96FE
  5
9706
331
9C83
  5
9C86
331
9E77
  5
9E7C
331
9C8B
  5
9C8E
331
9F55
  5
9F60
331
9E7F
  5
9E85
331
9F5D
  5
A227
331
9040
  5
930C
331
9E87
  5
9E8D
331
86EB
  5
84F0
331
9226
  5
9505
331
9E8F
  5
9ED6
331
9F36
  5
9F3F
331
87CB
  5
8B08
331
8115
  5
8119
331
91E7
  5
94FD
331
A320
  5
A41A
331
7F8E
  5
7F8F
331
1B91
  5
1B9D
331
8125
  5
86B5
331
9510
  5
9600
331
9706
  5
9716
331
9518
  5
961B
331
9AFA
  5
9B47
331
9913
  5
9A62
331
98CC
  5
9932
331
967F
  5
96E3
331
9F3E
  5
9F48
331
9F46
  5
9F50
331
8E41
  5
923A
331
9138
  5
9329
331
9F4E
  5
9F59
331
9ED7
  5
9F2A
331
1B99
  5
3A9C
331
7FFE
  5
8000
331
A309
  5
A31D
331
A3C0
  5
A31B
331
84F5
  5
8909
331
864C
  5
8989
331
A311
  5
A3E2
331
8505
  5
898B
331
A417
  5
9EE4
331
A0
  5
1B7B
331
9C72
  5
9C75
331
9736
  5
9865
331
96E7
  5
96FB
331
9501
  5
9515
331
9865
  5
990F
331
9509
  5
95ED
331
9C7A
  5
9C7D
331
96FF
  5
9708
331
9E70
  5
9E73
331
9C84
  5
9C87
331
9E78
  5
9E7D
331
9C8C
  5
9C8F
331
9F56
  5
9F61
331
9F5E
  5
A228
331
9E80
  5
9E86
331
9F27
  5
9F2F
331
894A
  5
8C10
331
9E88
  5
9E8E
331
9F2F
  5
9F38
331
9227
  5
9507
331
9F6E
  5
A307
331
9F37
  5
9F40
331
9101
  5
9328
331
91D8
  5
94FB
331
5E68
  5
6D9A
331
8116
  5
84F3
331
1B8A
  5
1B95
331
7F8F
  5
7F90
331
1B92
  5
1BA1
331
9519
  5
961C
331
9AFB
  5
9B48
331
971F
  5
9736
331
9E90
  5
9ED7
331
9F3F
  5
9F49
331
9F47
  5
9F51
331
9F4F
  5
9F5A
331
A312
  5
A3E3
331
8017
  5
8118
331
84F6
  5
8938
331
8506
  5
898A
331
96E0
  5
96F2
331
9C73
  5
9C76
331
9A64
  5
9ADB
331
9502
  5
9516
331
9737
  5
9872
331
950A
  5
95EE
331
9C7B
  5
9C7E
331
9C85
  5
9C88
331
9E79
  5
9E7E
331
9C8D
  5
9C90
331
9F57
  5
9F6E
331
9F5F
  5
A25B
331
9E81
  5
9E87
331
9F28
  5
9F30
331
9E89
  5
9E8F
331
9F30
  5
9F39
331
86ED
  5
8648
331
8953
  5
8C12
331
9F6F
  5
A30D
331
87CD
  5
8C04
331
1B73
  5
1B87
331
8117
  5
8649
331
1B8B
  5
1B96
331
7F90
  5
7F91
331
1B93
  5
1BA2
331
8127
  5
86B7
331
A25B
  5
A318
331
9512
  5
9601
331
9708
  5
9729
331
9F38
  5
9F41
331
9F40
  5
9F4A
331
9F48
  5
9F52
331
A303
  5
A319
331
A313
  5
A3E4
331
84F7
  5
8953
331
A31B
  5
A419
331
A419
  5
9F57
331
9728
  5
9737
331
9681
  5
96E7
331
9C74
  5
9C77
331
9503
  5
9517
331
9738
  5
987F
331
9C7C
  5
9C7F
331
96F9
  5
96FD
331
9C86
  5
9C89
331
9F50
  5
9F5B
331
9E7A
  5
9E7F
331
9C8E
  5
9C91
331
9F58
  5
9F6F
331
9F60
  5
A303
331
9E82
  5
9E88
331
9F29
  5
9F31
331
8656
  5
8AEC
331
9E8A
  5
9E90
331
9F31
  5
9F3A
331
91D2
  5
9347
331
91DA
  5
94FC
331
87CE
  5
8C05
331
8C64
  5
9235
331
6E31
  5
1B74
331
1B84
  5
1B8F
331
8118
  5
86AF
331
1B8C
  5
1B97
331
A3E2
  5
9E77
331
7F91
  5
7F92
331
1B94
  5
1BA6
331
9513
  5
960C
331
9701
  5
9713
331
987F
  5
9913
331
967A
  5
9697
331
9F70
  5
A311
331
9F39
  5
9F42
331
9F41
  5
9F4B
331
9F49
  5
9F53
331
903C
  5
923C
331
8150
  5
87CC
331
A304
  5
A31A
331
8647
  5
8ACE
331
8500
  5
894A
331
A41A
  5
9F71
331
9729
  5
9738
331
94FC
  5
9510
331
96E2
  5
96F9
331
9C75
  5
9C78
331
9504
  5
9518
331
96F2
  5
96FC
331
9739
  5
98CC
331
9AA6
  5
9AFA
331
950C
  5
95EF
331
96FA
  5
96FE
331
9C7D
  5
9C80
331
9ACE
  5
9AFB
331
9E73
  5
9E78
331
9C87
  5
9C8A
331
9EDA
  5
950F
331
9F51
  5
9F5C
331
9C8F
  5
9C92
331
920A
  5
94FF
331
9F61
  5
A306
331
9E83
  5
9E89
331
9F2A
  5
9F32
331
86EF
  5
86B4
331
9E8B
  5
9EC4
331
9F32
  5
9F3B
331
87CF
  5
8C06
331
8C65
  5
8F7F
331
1B85
  5
1B90
331
7F8A
  5
7F8A
331
1B8D
  5
1B98
331
A3E3
  5
9E6F
331
7F92
  5
7F93
331
1B95
  5
1BA7
331
9514
  5
960D
331
990F
  5
9972
331
967B
  5
9699
331
9F71
  5
A312
331
9F3A
  5
9F43
331
9F42
  5
9F4C
331
9F4A
  5
9F54
331
9203
  5
92BB
331
A30D
  5
A321
331
8648
  5
8ACF
331
6D9B
  5
1B7F
331
A41B
  5
9F37
331
9C
  5
9C
331
94FD
  5
9511
331
96E3
  5
96FA
331
9C76
  5
9C79
331
9505
  5
9519
331
9C7E
  5
9C81
331
950D
  5
95F0
331
96FB
  5
96FF
331
9ACF
  5
9239
331
9C80
  5
9C83
331
9E74
  5
9E79
331
9C88
  5
9C8B
331
9DF5
  5
9C74
331
9EDB
  5
950D
331
9F52
  5
9F5D
331
9E7C
  5
9E82
331
9C90
  5
9DCF
331
9F5A
  5
9F72
331
920B
  5
9501
331
86E8
  5
84F2
331
9E84
  5
9E8A
331
9F2B
  5
9F33
331
9223
  5
9502
331
9E8C
  5
9EC5
331
9F33
  5
9F3C
331
88DF
  5
8C09
331
87D0
  5
8C08
331
8E3E
  5
9237
331
8907
  5
8C0A
331
8509
  5
898C
331
1B86
  5
1B92
331
68BC
  5
6E31
331
7F8B
  5
7F8B
331
1B8E
  5
1B99
331
A3E4
  5
9E75
331
812A
  5
87CA
331
7F93
  5
7F94
331
1B96
  5
1BA8
331
9515
  5
960E
331
9ADF
  5
9695
331
9634
  5
9684
331
9713
  5
9734
331
9674
  5
9686
331
9968
  5
9A98
331
9B47
  5
9C71
331
9F72
  5
A313
331
9F3B
  5
9F44
331
9EC4
  5
9ED8
331
9F43
  5
9F4D
331
9E6D
  5
9E70
331
9F4B
  5
9F55
331
91F4
  5
94FE
331
8937
  5
8C0D
331
9ED4
  5
9F27
331
92E2
  5
950B
331
916D
  5
9346
331
A30E
  5
A3BF
331
A41C
  5
9F46
331
9684
  5
96E8
331
94FE
  5
9512
331
9C77
  5
9C7A
331
9506
  5
951A
331
9872
  5
9911
331
950E
  5
95FE
331
96FC
  5
9700
331
9C7F
  5
9C82
331
9C81
  5
9C84
331
9E75
  5
9E7A
331
9C89
  5
9C8C
331
9F53
  5
9F5E
331
9E7D
  5
9E83
331
9F5B
  5
9F73
331
9E85
  5
9E8B
331
9F2C
  5
9F34
331
9224
  5
9503
331
87C9
  5
8AF5
331
9DCF
  5
9E6D
331
9F34
  5
9F3D
331
A326
  5
A41B
331
1B87
  5
1B93
331
A227
  5
A316
331
1B8F
  5
1B9B
331
7F8C
  5
7F8D
331
A3E5
  5
9E81
331
812B
  5
87CB
331
1B97
  5
37FF
331
7F94
  5
7FDC
331
9516
  5
960F
331
9704
  5
9715
331
9635
  5
9685
331
9675
  5
9691
331
9911
  5
997A
331
967D
  5
969B
331
9F73
  5
A314
331
8908
  5
8C0B
331
9EC5
  5
9EDA
331
9F44
  5
9F4E
331
9E6E
  5
9E71
331
8F27
  5
92E4
331
8938
  5
8C0E
331
9ED5
  5
9F28
331
863A
  5
8ACC
331
800C
  5
8006
331
A30F
  5
A3C1
331
A415
  5
9F2C
331
A317
  5
A416
331
9B48
  5
9C72
331
94FF
  5
9513
331
96E5
  5
864C
331
9C78
  5
9C7B
331
9507
  5
951B
331
950F
  5
95FF
331
96FD
  5
9701
331
9C82
  5
9C85
331
9E76
  5
9E7B
331
9C8A
  5
9C8D
331
9F54
  5
9F5F
331
9E7E
  5
9E84
331
9F5C
  5
9F74
331
9E86
  5
9E8C
331
9F2D
  5
9F35
331
9225
  5
9504
331
87CA
  5
8B07
331
9E8E
  5
9ED5
331
9F35
  5
9F3E
331
A3D6
  5
A41C
331
1B88
  5
1B94
331
A228
  5
A317
331
1B90
  5
1B9C
331
68D6
  5
7027
331
7F8D
  5
7F8E
331
A3E6
  5
9ED3
331
9517
  5
961A
331
9AE1
  5
98CD
331
9676
  5
9694
331
9F74
  5
A315
331
9F3D
  5
9F47
331
9F45
  5
9F4F
  0
SORTENTSTABLE
  5
313F
102
{ACAD_REACTORS
330
313E
102
}
330
313E
100
AcDbSortentsTable
330
313C
  0
SORTENTSTABLE
  5
3849
102
{ACAD_REACTORS
330
3848
102
}
330
3848
100
AcDbSortentsTable
330
3846
  0
SORTENTSTABLE
  5
6B8A
102
{ACAD_REACTORS
330
6B89
102
}
330
6B89
100
AcDbSortentsTable
330
6B87
  0
SORTENTSTABLE
  5
6C03
102
{ACAD_REACTORS
330
6C02
102
}
330
6C02
100
AcDbSortentsTable
330
6C00
  0
SORTENTSTABLE
  5
84D5
102
{ACAD_REACTORS
330
84D4
102
}
330
84D4
100
AcDbSortentsTable
330
84D2
  0
SORTENTSTABLE
  5
85E8
102
{ACAD_REACTORS
330
85E7
102
}
330
85E7
100
AcDbSortentsTable
330
85E5
  0
SORTENTSTABLE
  5
92A8
102
{ACAD_REACTORS
330
92A7
102
}
330
92A7
100
AcDbSortentsTable
330
928A
  0
SORTENTSTABLE
  5
93A8
102
{ACAD_REACTORS
330
93A7
102
}
330
93A7
100
AcDbSortentsTable
330
9386
  0
SORTENTSTABLE
  5
9ECE
102
{ACAD_REACTORS
330
9ECD
102
}
330
9ECD
100
AcDbSortentsTable
330
9EC6
  0
XRECORD
  5
A4D8
102
{ACAD_REACTORS
330
A4D7
102
}
330
A4D7
100
AcDbXrecord
280
     1
102
SHADEPLOT
 70
     0
  0
XRECORD
  5
A4DA
102
{ACAD_REACTORS
330
A4D9
102
}
330
A4D9
100
AcDbXrecord
280
     1
102
SHADEPLOT
 70
     0
  0
LAYOUT
  5
22
102
{ACAD_XDICTIONARY
360
A4D3
102
}
102
{ACAD_REACTORS
330
1A
102
}
330
1A
100
AcDbPlotSettings
  1

  2
EPSON PM-800C
  4
A4
  6

 40
3.757083177566528
 41
14.7637300491333
 42
3.757080078125
 43
3.757080078125
 44
209.9733276367187
 45
296.9683227539062
 46
0.0
 47
0.0
 48
0.0
 49
0.0
140
0.0
141
0.0
142
1.0
143
10.0
 70
 11952
 72
     1
 73
     1
 74
     2
  7

 75
    20
147
0.1
148
0.0
149
0.0
100
AcDbLayout
  1
Model
 70
     1
 71
     0
 10
0.0
 20
0.0
 11
12.0
 21
9.0
 12
0.0
 22
0.0
 32
0.0
 14
0.0
 24
0.0
 34
0.0
 15
0.0
 25
0.0
 35
0.0
146
0.0
 13
0.0
 23
0.0
 33
0.0
 16
1.0
 26
0.0
 36
0.0
 17
0.0
 27
1.0
 37
0.0
 76
     0
330
1F
  0
LAYOUT
  5
1E
102
{ACAD_XDICTIONARY
360
A4D1
102
}
102
{ACAD_REACTORS
330
1A
102
}
330
1A
100
AcDbPlotSettings
  1

  2
EPSON PM-800C
  4
A4
  6

 40
3.757083177566528
 41
14.7637300491333
 42
3.757080078125
 43
3.757080078125
 44
209.9733276367187
 45
296.9683227539062
 46
0.0
 47
0.0
 48
0.0
 49
0.0
140
0.0
141
0.0
142
1.0
143
1.0
 70
   688
 72
     1
 73
     1
 74
     5
  7

 75
    16
147
1.0
148
0.0
149
0.0
100
AcDbLayout
  1
ﾚｲｱｳﾄ1
 70
     1
 71
     1
 10
-3.757080078125
 20
-3.757083177566528
 11
293.2112426757813
 21
206.2162444591522
 12
0.0
 22
0.0
 32
0.0
 14
27.8447512626648
 24
20.24591643810271
 34
0.0
 15
250.6027613639831
 25
182.2132479429245
 35
0.0
146
0.0
 13
0.0
 23
0.0
 33
0.0
 16
1.0
 26
0.0
 36
0.0
 17
0.0
 27
1.0
 37
0.0
 76
     0
330
1B
331
2E
  0
LAYOUT
  5
26
102
{ACAD_XDICTIONARY
360
A4D5
102
}
102
{ACAD_REACTORS
330
1A
102
}
330
1A
100
AcDbPlotSettings
  1

  2
EPSON PM-800C
  4

  6

 40
0.0
 41
0.0
 42
0.0
 43
0.0
 44
0.0
 45
0.0
 46
0.0
 47
0.0
 48
0.0
 49
0.0
140
0.0
141
0.0
142
1.0
143
1.0
 70
   688
 72
     0
 73
     0
 74
     5
  7

 75
    16
147
1.0
148
0.0
149
0.0
100
AcDbLayout
  1
ﾚｲｱｳﾄ2
 70
     1
 71
     2
 10
0.0
 20
0.0
 11
12.0
 21
9.0
 12
0.0
 22
0.0
 32
0.0
 14
0.0
 24
0.0
 34
0.0
 15
0.0
 25
0.0
 35
0.0
146
0.0
 13
0.0
 23
0.0
 33
0.0
 16
1.0
 26
0.0
 36
0.0
 17
0.0
 27
1.0
 37
0.0
 76
     0
330
23
  0
MLINESTYLE
  5
18
102
{ACAD_REACTORS
330
17
102
}
330
17
100
AcDbMlineStyle
  2
STANDARD
 70
     0
  3

 62
   256
 51
90.0
 52
90.0
 71
     2
 49
0.5
 62
   256
  6
BYLAYER
 49
-0.5
 62
   256
  6
BYLAYER
  0
ACDBPLACEHOLDER
  5
F
102
{ACAD_REACTORS
330
E
102
}
330
E
  0
TABLESTYLE
  5
22AF
102
{ACAD_REACTORS
330
22AE
102
}
330
22AE
100
AcDbTableStyle
  3
Standard
 70
     0
 71
     0
 40
1.5
 41
1.5
280
     0
281
     0
  7
Standard
140
4.5
170
     2
 62
     0
 63
     7
283
     0
274
    -2
284
     1
 64
     0
275
    -2
285
     1
 65
     0
276
    -2
286
     1
 66
     0
277
    -2
287
     1
 67
     0
278
    -2
288
     1
 68
     0
279
    -2
289
     1
 69
     0
  7
Standard
140
6.0
170
     5
 62
     0
 63
     7
283
     0
274
    -2
284
     1
 64
     0
275
    -2
285
     1
 65
     0
276
    -2
286
     1
 66
     0
277
    -2
287
     1
 67
     0
278
    -2
288
     1
 68
     0
279
    -2
289
     1
 69
     0
  7
Standard
140
4.5
170
     5
 62
     0
 63
     7
283
     0
274
    -2
284
     1
 64
     0
275
    -2
285
     1
 65
     0
276
    -2
286
     1
 66
     0
277
    -2
287
     1
 67
     0
278
    -2
288
     1
 68
     0
279
    -2
289
     1
 69
     0
  0
DICTIONARYVAR
  5
22B5
102
{ACAD_REACTORS
330
1589
102
}
330
1589
100
DictionaryVariables
280
     0
  1
STANDARD
  0
DICTIONARYVAR
  5
A4CC
102
{ACAD_REACTORS
330
1589
102
}
330
1589
100
DictionaryVariables
280
     0
  1
1
  0
DICTIONARYVAR
  5
A4CD
102
{ACAD_REACTORS
330
1589
102
}
330
1589
100
DictionaryVariables
280
     0
  1

  0
DICTIONARYVAR
  5
158A
102
{ACAD_REACTORS
330
1589
102
}
330
1589
100
DictionaryVariables
280
     0
  1
96
  0
DICTIONARY
  5
A4D3
330
22
100
AcDbDictionary
280
     1
281
     1
  3
ACAD_XREC_ROUNDTRIP
360
A4D4
  0
DICTIONARY
  5
A4D1
330
1E
100
AcDbDictionary
280
     1
281
     1
  3
ACAD_XREC_ROUNDTRIP
360
A4D2
  0
DICTIONARY
  5
A4D5
330
26
100
AcDbDictionary
280
     1
281
     1
  3
ACAD_XREC_ROUNDTRIP
360
A4D6
  0
XRECORD
  5
A4D4
102
{ACAD_REACTORS
330
A4D3
102
}
330
A4D3
100
AcDbXrecord
280
     1
102
SHADEPLOT
 70
     0
102
SHADEPLOTRESLEVEL
 70
     2
102
SHADEPLOTCUSTOMDPI
 70
   300
  0
XRECORD
  5
A4D2
102
{ACAD_REACTORS
330
A4D1
102
}
330
A4D1
100
AcDbXrecord
280
     1
102
SHADEPLOT
 70
     0
102
SHADEPLOTRESLEVEL
 70
     2
102
SHADEPLOTCUSTOMDPI
 70
   300
  0
XRECORD
  5
A4D6
102
{ACAD_REACTORS
330
A4D5
102
}
330
A4D5
100
AcDbXrecord
280
     1
102
SHADEPLOT
 70
     0
102
SHADEPLOTRESLEVEL
 70
     2
102
SHADEPLOTCUSTOMDPI
 70
   300
  0
ENDSEC
  0
EOF
