  0
SECTION
  2
HEADER
  9
$ACADVER
  1
AC1015
  9
$ACADMAINTVER
 70
    20
  9
$DWGCODEPAGE
  3
ANSI_932
  9
$INSBASE
 10
0.0
 20
0.0
 30
0.0
  9
$EXTMIN
 10
114.0
 20
4.0
 30
0.0
  9
$EXTMAX
 10
2784.0
 20
2024.0
 30
0.0
  9
$LIMMIN
 10
0.0
 20
0.0
  9
$LIMMAX
 10
29700.0
 20
21000.0
  9
$ORTHOMODE
 70
     0
  9
$REGENMODE
 70
     1
  9
$FILLMODE
 70
     1
  9
$QTEXTMODE
 70
     0
  9
$MIRRTEXT
 70
     1
  9
$LTSCALE
 40
4.0
  9
$ATTMODE
 70
     1
  9
$TEXTSIZE
 40
25.0
  9
$TRACEWID
 40
1.0
  9
$TEXTSTYLE
  7
Standard
  9
$CLAYER
  8
実形
  9
$CELTYPE
  6
ByLayer
  9
$CECOLOR
 62
   256
  9
$CELTSCALE
 40
1.0
  9
$DISPSILH
 70
     0
  9
$DIMSCALE
 40
1.0
  9
$DIMASZ
 40
35.0
  9
$DIMEXO
 40
65.0
  9
$DIMDLI
 40
3.75
  9
$DIMRND
 40
0.0
  9
$DIMDLE
 40
0.0
  9
$DIMEXE
 40
0.0
  9
$DIMTP
 40
0.0
  9
$DIMTM
 40
0.0
  9
$DIMTXT
 40
25.0
  9
$DIMCEN
 40
2.5
  9
$DIMTSZ
 40
0.0
  9
$DIMTOL
 70
     0
  9
$DIMLIM
 70
     0
  9
$DIMTIH
 70
     0
  9
$DIMTOH
 70
     0
  9
$DIMSE1
 70
     0
  9
$DIMSE2
 70
     0
  9
$DIMTAD
 70
     1
  9
$DIMZIN
 70
     8
  9
$DIMBLK
  1
DotSmall
  9
$DIMASO
 70
     1
  9
$DIMSHO
 70
     1
  9
$DIMPOST
  1

  9
$DIMAPOST
  1

  9
$DIMALT
 70
     0
  9
$DIMALTD
 70
     3
  9
$DIMALTF
 40
0.03937007874016
  9
$DIMLFAC
 40
1.0
  9
$DIMTOFL
 70
     1
  9
$DIMTVP
 40
0.0
  9
$DIMTIX
 70
     0
  9
$DIMSOXD
 70
     0
  9
$DIMSAH
 70
     0
  9
$DIMBLK1
  1

  9
$DIMBLK2
  1

  9
$DIMSTYLE
  2
ISO-25
  9
$DIMCLRD
 70
     0
  9
$DIMCLRE
 70
     0
  9
$DIMCLRT
 70
     0
  9
$DIMTFAC
 40
1.0
  9
$DIMGAP
 40
6.25
  9
$DIMJUST
 70
     0
  9
$DIMSD1
 70
     0
  9
$DIMSD2
 70
     0
  9
$DIMTOLJ
 70
     0
  9
$DIMTZIN
 70
     8
  9
$DIMALTZ
 70
     0
  9
$DIMALTTZ
 70
     0
  9
$DIMUPT
 70
     0
  9
$DIMDEC
 70
     2
  9
$DIMTDEC
 70
     2
  9
$DIMALTU
 70
     2
  9
$DIMALTTD
 70
     3
  9
$DIMTXSTY
  7
Standard
  9
$DIMAUNIT
 70
     0
  9
$DIMADEC
 70
     0
  9
$DIMALTRND
 40
0.0
  9
$DIMAZIN
 70
     0
  9
$DIMDSEP
 70
    46
  9
$DIMATFIT
 70
     3
  9
$DIMFRAC
 70
     0
  9
$DIMLDRBLK
  1
Open30
  9
$DIMLUNIT
 70
     2
  9
$DIMLWD
 70
    18
  9
$DIMLWE
 70
    18
  9
$DIMTMOVE
 70
     0
  9
$LUNITS
 70
     2
  9
$LUPREC
 70
     2
  9
$SKETCHINC
 40
1.0
  9
$FILLETRAD
 40
75.0
  9
$AUNITS
 70
     0
  9
$AUPREC
 70
     0
  9
$MENU
  1
.
  9
$ELEVATION
 40
0.0
  9
$PELEVATION
 40
0.0
  9
$THICKNESS
 40
0.0
  9
$LIMCHECK
 70
     1
  9
$CHAMFERA
 40
10.0
  9
$CHAMFERB
 40
10.0
  9
$CHAMFERC
 40
20.0
  9
$CHAMFERD
 40
0.0
  9
$SKPOLY
 70
     0
  9
$TDCREATE
 40
2451673.575802199
  9
$TDUCREATE
 40
2451673.200802199
  9
$TDUPDATE
 40
2458807.767704456
  9
$TDUUPDATE
 40
2458807.392704456
  9
$TDINDWG
 40
0.8340695602
  9
$TDUSRTIMER
 40
0.8340688657
  9
$USRTIMER
 70
     1
  9
$ANGBASE
 50
0.0
  9
$ANGDIR
 70
     0
  9
$PDMODE
 70
     3
  9
$PDSIZE
 40
0.0
  9
$PLINEWID
 40
0.0
  9
$SPLFRAME
 70
     0
  9
$SPLINETYPE
 70
     6
  9
$SPLINESEGS
 70
     8
  9
$HANDSEED
  5
1DFB
  9
$SURFTAB1
 70
     6
  9
$SURFTAB2
 70
     6
  9
$SURFTYPE
 70
     6
  9
$SURFU
 70
     6
  9
$SURFV
 70
     6
  9
$UCSBASE
  2

  9
$UCSNAME
  2

  9
$UCSORG
 10
0.0
 20
0.0
 30
0.0
  9
$UCSXDIR
 10
1.0
 20
0.0
 30
0.0
  9
$UCSYDIR
 10
0.0
 20
1.0
 30
0.0
  9
$UCSORTHOREF
  2

  9
$UCSORTHOVIEW
 70
     0
  9
$UCSORGTOP
 10
0.0
 20
0.0
 30
0.0
  9
$UCSORGBOTTOM
 10
0.0
 20
0.0
 30
0.0
  9
$UCSORGLEFT
 10
0.0
 20
0.0
 30
0.0
  9
$UCSORGRIGHT
 10
0.0
 20
0.0
 30
0.0
  9
$UCSORGFRONT
 10
0.0
 20
0.0
 30
0.0
  9
$UCSORGBACK
 10
0.0
 20
0.0
 30
0.0
  9
$PUCSBASE
  2

  9
$PUCSNAME
  2

  9
$PUCSORG
 10
0.0
 20
0.0
 30
0.0
  9
$PUCSXDIR
 10
1.0
 20
0.0
 30
0.0
  9
$PUCSYDIR
 10
0.0
 20
1.0
 30
0.0
  9
$PUCSORTHOREF
  2

  9
$PUCSORTHOVIEW
 70
     0
  9
$PUCSORGTOP
 10
0.0
 20
0.0
 30
0.0
  9
$PUCSORGBOTTOM
 10
0.0
 20
0.0
 30
0.0
  9
$PUCSORGLEFT
 10
0.0
 20
0.0
 30
0.0
  9
$PUCSORGRIGHT
 10
0.0
 20
0.0
 30
0.0
  9
$PUCSORGFRONT
 10
0.0
 20
0.0
 30
0.0
  9
$PUCSORGBACK
 10
0.0
 20
0.0
 30
0.0
  9
$USERI1
 70
     0
  9
$USERI2
 70
     0
  9
$USERI3
 70
     0
  9
$USERI4
 70
     0
  9
$USERI5
 70
     0
  9
$USERR1
 40
0.0
  9
$USERR2
 40
0.0
  9
$USERR3
 40
0.0
  9
$USERR4
 40
0.0
  9
$USERR5
 40
0.0
  9
$WORLDVIEW
 70
     1
  9
$SHADEDGE
 70
     3
  9
$SHADEDIF
 70
    70
  9
$TILEMODE
 70
     1
  9
$MAXACTVP
 70
    64
  9
$PINSBASE
 10
0.0
 20
0.0
 30
0.0
  9
$PLIMCHECK
 70
     0
  9
$PEXTMIN
 10
27.8447512626648
 20
20.24591643810271
 30
0.0
  9
$PEXTMAX
 10
250.6027613639831
 20
182.2132479429245
 30
0.0
  9
$PLIMMIN
 10
-3.757080078125
 20
-3.757083177566528
  9
$PLIMMAX
 10
293.2112426757813
 20
206.2162444591522
  9
$UNITMODE
 70
     0
  9
$VISRETAIN
 70
     1
  9
$PLINEGEN
 70
     0
  9
$PSLTSCALE
 70
     1
  9
$TREEDEPTH
 70
  3020
  9
$CMLSTYLE
  2
Standard
  9
$CMLJUST
 70
     0
  9
$CMLSCALE
 40
20.0
  9
$PROXYGRAPHICS
 70
     1
  9
$MEASUREMENT
 70
     1
  9
$CELWEIGHT
370
    -1
  9
$ENDCAPS
280
     0
  9
$JOINSTYLE
280
     0
  9
$LWDISPLAY
290
     0
  9
$INSUNITS
 70
     4
  9
$HYPERLINKBASE
  1

  9
$STYLESHEET
  1

  9
$XEDIT
290
     1
  9
$CEPSNTYPE
380
     0
  9
$PSTYLEMODE
290
     1
  9
$FINGERPRINTGUID
  2
{C8EA1F16-24C9-11D4-9416-CE0A3B32152F}
  9
$VERSIONGUID
  2
{F4DDBE72-291F-459A-BBFF-448E433211E6}
  9
$EXTNAMES
290
     1
  9
$PSVPSCALE
 40
0.0
  9
$OLESTARTUP
290
     0
  0
ENDSEC
  0
SECTION
  2
CLASSES
  0
CLASS
  1
ACDBDICTIONARYWDFLT
  2
AcDbDictionaryWithDefault
  3
ObjectDBX Classes
 90
        0
280
     0
281
     0
  0
CLASS
  1
ACDBPLACEHOLDER
  2
AcDbPlaceHolder
  3
ObjectDBX Classes
 90
        0
280
     0
281
     0
  0
CLASS
  1
LAYOUT
  2
AcDbLayout
  3
ObjectDBX Classes
 90
        0
280
     0
281
     0
  0
CLASS
  1
TABLESTYLE
  2
AcDbTableStyle
  3
ObjectDBX Classes
 90
     2047
280
     0
281
     0
  0
CLASS
  1
SORTENTSTABLE
  2
AcDbSortentsTable
  3
ObjectDBX Classes
 90
        0
280
     0
281
     0
  0
CLASS
  1
DICTIONARYVAR
  2
AcDbDictionaryVar
  3
ObjectDBX Classes
 90
        0
280
     0
281
     0
  0
ENDSEC
  0
SECTION
  2
TABLES
  0
TABLE
  2
VPORT
  5
8
330
0
100
AcDbSymbolTable
 70
     2
  0
VPORT
  5
1DEF
330
8
100
AcDbSymbolTableRecord
100
AcDbViewportTableRecord
  2
*Active
 70
     0
 10
0.0
 20
0.0
 11
1.0
 21
1.0
 12
1524.899311020875
 22
913.3459499415785
 13
0.0
 23
0.0
 14
10.0
 24
10.0
 15
10.0
 25
10.0
 16
0.0
 26
0.0
 36
1.0
 17
0.0
 27
0.0
 37
0.0
 40
2412.67003516966
 41
1.29038112522686
 42
50.0
 43
0.0
 44
0.0
 50
0.0
 51
0.0
 71
     0
 72
   100
 73
     1
 74
     3
 75
     0
 76
     0
 77
     0
 78
     0
281
     0
 65
     1
110
0.0
120
0.0
130
0.0
111
1.0
121
0.0
131
0.0
112
0.0
122
1.0
132
0.0
 79
     0
146
0.0
  0
ENDTAB
  0
TABLE
  2
LTYPE
  5
5
330
0
100
AcDbSymbolTable
 70
    46
  0
LTYPE
  5
14
330
5
100
AcDbSymbolTableRecord
100
AcDbLinetypeTableRecord
  2
ByBlock
 70
     0
  3

 72
    65
 73
     0
 40
0.0
  0
LTYPE
  5
15
330
5
100
AcDbSymbolTableRecord
100
AcDbLinetypeTableRecord
  2
ByLayer
 70
     0
  3

 72
    65
 73
     0
 40
0.0
  0
LTYPE
  5
16
330
5
100
AcDbSymbolTableRecord
100
AcDbLinetypeTableRecord
  2
Continuous
 70
     0
  3
Solid line
 72
    65
 73
     0
 40
0.0
  0
LTYPE
  5
34
330
5
100
AcDbSymbolTableRecord
100
AcDbLinetypeTableRecord
  2
ACAD_ISO02W100
 70
     0
  3
ISO dash __ __ __ __ __ __ __ __ __ __ __ __ __
 72
    65
 73
     2
 40
15.0
 49
12.0
 74
     0
 49
-3.0
 74
     0
  0
LTYPE
  5
35
330
5
100
AcDbSymbolTableRecord
100
AcDbLinetypeTableRecord
  2
ACAD_ISO03W100
 70
     0
  3
ISO dash space __    __    __    __    __    __
 72
    65
 73
     2
 40
30.0
 49
12.0
 74
     0
 49
-18.0
 74
     0
  0
LTYPE
  5
36
330
5
100
AcDbSymbolTableRecord
100
AcDbLinetypeTableRecord
  2
ACAD_ISO04W100
 70
     0
  3
ISO long-dash dot ____ . ____ . ____ . ____ . _
 72
    65
 73
     4
 40
30.0
 49
24.0
 74
     0
 49
-3.0
 74
     0
 49
0.0
 74
     0
 49
-3.0
 74
     0
  0
LTYPE
  5
37
330
5
100
AcDbSymbolTableRecord
100
AcDbLinetypeTableRecord
  2
ACAD_ISO05W100
 70
     0
  3
ISO long-dash double-dot ____ .. ____ .. ____ .
 72
    65
 73
     6
 40
34.0
 49
24.0
 74
     0
 49
-3.0
 74
     0
 49
0.5
 74
     0
 49
-3.0
 74
     0
 49
0.5
 74
     0
 49
-3.0
 74
     0
  0
LTYPE
  5
38
330
5
100
AcDbSymbolTableRecord
100
AcDbLinetypeTableRecord
  2
ACAD_ISO06W100
 70
     0
  3
ISO long-dash triple-dot ____ ... ____ ... ____
 72
    65
 73
     8
 40
37.5
 49
24.0
 74
     0
 49
-3.0
 74
     0
 49
0.5
 74
     0
 49
-3.0
 74
     0
 49
0.5
 74
     0
 49
-3.0
 74
     0
 49
0.5
 74
     0
 49
-3.0
 74
     0
  0
LTYPE
  5
39
330
5
100
AcDbSymbolTableRecord
100
AcDbLinetypeTableRecord
  2
ACAD_ISO07W100
 70
     0
  3
ISO dot . . . . . . . . . . . . . . . . . . . .
 72
    65
 73
     2
 40
3.0
 49
0.0
 74
     0
 49
-3.0
 74
     0
  0
LTYPE
  5
3A
330
5
100
AcDbSymbolTableRecord
100
AcDbLinetypeTableRecord
  2
ACAD_ISO08W100
 70
     0
  3
ISO long-dash short-dash ____ __ ____ __ ____ _
 72
    65
 73
     4
 40
36.0
 49
24.0
 74
     0
 49
-3.0
 74
     0
 49
6.0
 74
     0
 49
-3.0
 74
     0
  0
LTYPE
  5
3B
330
5
100
AcDbSymbolTableRecord
100
AcDbLinetypeTableRecord
  2
ACAD_ISO09W100
 70
     0
  3
ISO long-dash double-short-dash ____ __ __ ____
 72
    65
 73
     6
 40
45.0
 49
24.0
 74
     0
 49
-3.0
 74
     0
 49
6.0
 74
     0
 49
-3.0
 74
     0
 49
6.0
 74
     0
 49
-3.0
 74
     0
  0
LTYPE
  5
3C
330
5
100
AcDbSymbolTableRecord
100
AcDbLinetypeTableRecord
  2
ACAD_ISO10W100
 70
     0
  3
ISO dash dot __ . __ . __ . __ . __ . __ . __ .
 72
    65
 73
     4
 40
18.0
 49
12.0
 74
     0
 49
-3.0
 74
     0
 49
0.0
 74
     0
 49
-3.0
 74
     0
  0
LTYPE
  5
3D
330
5
100
AcDbSymbolTableRecord
100
AcDbLinetypeTableRecord
  2
ACAD_ISO11W100
 70
     0
  3
ISO double-dash dot __ __ . __ __ . __ __ . __ 
 72
    65
 73
     6
 40
33.0
 49
12.0
 74
     0
 49
-3.0
 74
     0
 49
12.0
 74
     0
 49
-3.0
 74
     0
 49
0.0
 74
     0
 49
-3.0
 74
     0
  0
LTYPE
  5
3E
330
5
100
AcDbSymbolTableRecord
100
AcDbLinetypeTableRecord
  2
ACAD_ISO12W100
 70
     0
  3
ISO dash double-dot __ . . __ . . __ . . __ . .
 72
    65
 73
     6
 40
21.0
 49
12.0
 74
     0
 49
-3.0
 74
     0
 49
0.0
 74
     0
 49
-3.0
 74
     0
 49
0.0
 74
     0
 49
-3.0
 74
     0
  0
LTYPE
  5
3F
330
5
100
AcDbSymbolTableRecord
100
AcDbLinetypeTableRecord
  2
ACAD_ISO13W100
 70
     0
  3
ISO double-dash double-dot __ __ . . __ __ . . 
 72
    65
 73
     8
 40
36.0
 49
12.0
 74
     0
 49
-3.0
 74
     0
 49
12.0
 74
     0
 49
-3.0
 74
     0
 49
0.0
 74
     0
 49
-3.0
 74
     0
 49
0.0
 74
     0
 49
-3.0
 74
     0
  0
LTYPE
  5
40
330
5
100
AcDbSymbolTableRecord
100
AcDbLinetypeTableRecord
  2
ACAD_ISO14W100
 70
     0
  3
ISO dash triple-dot __ . . . __ . . . __ . . . 
 72
    65
 73
     8
 40
24.0
 49
12.0
 74
     0
 49
-3.0
 74
     0
 49
0.0
 74
     0
 49
-3.0
 74
     0
 49
0.0
 74
     0
 49
-3.0
 74
     0
 49
0.0
 74
     0
 49
-3.0
 74
     0
  0
LTYPE
  5
41
330
5
100
AcDbSymbolTableRecord
100
AcDbLinetypeTableRecord
  2
ACAD_ISO15W100
 70
     0
  3
ISO double-dash triple-dot __ __ . . . __ __ . 
 72
    65
 73
    10
 40
39.0
 49
12.0
 74
     0
 49
-3.0
 74
     0
 49
12.0
 74
     0
 49
-3.0
 74
     0
 49
0.0
 74
     0
 49
-3.0
 74
     0
 49
0.0
 74
     0
 49
-3.0
 74
     0
 49
0.0
 74
     0
 49
-3.0
 74
     0
  0
LTYPE
  5
42
330
5
100
AcDbSymbolTableRecord
100
AcDbLinetypeTableRecord
  2
BATTING
 70
     0
  3
Batting SSSSSSSSSSSSSSSSSSSSSSSSSSSSSSSSSSSSSSS
 72
    65
 73
     4
 40
10.16254
 49
0.00254
 74
     0
 49
-2.54
 74
     4
 75
   134
340
33
 46
2.54
 50
0.0
 44
-2.54
 45
0.0
 49
-5.08
 74
     4
 75
   134
340
33
 46
2.54
 50
180.0
 44
2.54
 45
0.0
 49
-2.54
 74
     0
  0
LTYPE
  5
43
330
5
100
AcDbSymbolTableRecord
100
AcDbLinetypeTableRecord
  2
BORDER
 70
     0
  3
Border __ __ . __ __ . __ __ . __ __ . __ __ .
 72
    65
 73
     6
 40
44.45
 49
12.7
 74
     0
 49
-6.349999999999999
 74
     0
 49
12.7
 74
     0
 49
-6.349999999999999
 74
     0
 49
0.0
 74
     0
 49
-6.349999999999999
 74
     0
  0
LTYPE
  5
44
330
5
100
AcDbSymbolTableRecord
100
AcDbLinetypeTableRecord
  2
BORDER2
 70
     0
  3
Border (.5x) __.__.__.__.__.__.__.__.__.__.__.
 72
    65
 73
     6
 40
22.225
 49
6.349999999999999
 74
     0
 49
-3.174999999999999
 74
     0
 49
6.349999999999999
 74
     0
 49
-3.174999999999999
 74
     0
 49
0.0
 74
     0
 49
-3.174999999999999
 74
     0
  0
LTYPE
  5
45
330
5
100
AcDbSymbolTableRecord
100
AcDbLinetypeTableRecord
  2
BORDERX2
 70
     0
  3
Border (2x) ____  ____  .  ____  ____  .  ___
 72
    65
 73
     6
 40
88.9
 49
25.4
 74
     0
 49
-12.7
 74
     0
 49
25.4
 74
     0
 49
-12.7
 74
     0
 49
0.0
 74
     0
 49
-12.7
 74
     0
  0
LTYPE
  5
46
330
5
100
AcDbSymbolTableRecord
100
AcDbLinetypeTableRecord
  2
CENTER
 70
     0
  3
Center ____ _ ____ _ ____ _ ____ _ ____ _ ____
 72
    65
 73
     4
 40
50.8
 49
31.75
 74
     0
 49
-6.349999999999999
 74
     0
 49
6.349999999999999
 74
     0
 49
-6.349999999999999
 74
     0
  0
LTYPE
  5
47
330
5
100
AcDbSymbolTableRecord
100
AcDbLinetypeTableRecord
  2
CENTER2
 70
     0
  3
Center (.5x) ___ _ ___ _ ___ _ ___ _ ___ _ ___
 72
    65
 73
     4
 40
28.575
 49
19.05
 74
     0
 49
-3.174999999999999
 74
     0
 49
3.174999999999999
 74
     0
 49
-3.174999999999999
 74
     0
  0
LTYPE
  5
48
330
5
100
AcDbSymbolTableRecord
100
AcDbLinetypeTableRecord
  2
CENTERX2
 70
     0
  3
Center (2x) ________  __  ________  __  _____
 72
    65
 73
     4
 40
101.6
 49
63.5
 74
     0
 49
-12.7
 74
     0
 49
12.7
 74
     0
 49
-12.7
 74
     0
  0
LTYPE
  5
49
330
5
100
AcDbSymbolTableRecord
100
AcDbLinetypeTableRecord
  2
DASHDOT
 70
     0
  3
Dash dot __ . __ . __ . __ . __ . __ . __ . __
 72
    65
 73
     4
 40
25.4
 49
12.7
 74
     0
 49
-6.349999999999999
 74
     0
 49
0.0
 74
     0
 49
-6.349999999999999
 74
     0
  0
LTYPE
  5
4A
330
5
100
AcDbSymbolTableRecord
100
AcDbLinetypeTableRecord
  2
DASHDOT2
 70
     0
  3
Dash dot (.5x) _._._._._._._._._._._._._._._.
 72
    65
 73
     4
 40
12.7
 49
6.349999999999999
 74
     0
 49
-3.174999999999999
 74
     0
 49
0.0
 74
     0
 49
-3.174999999999999
 74
     0
  0
LTYPE
  5
4B
330
5
100
AcDbSymbolTableRecord
100
AcDbLinetypeTableRecord
  2
DASHDOTX2
 70
     0
  3
Dash dot (2x) ____  .  ____  .  ____  .  ___
 72
    65
 73
     4
 40
50.8
 49
25.4
 74
     0
 49
-12.7
 74
     0
 49
0.0
 74
     0
 49
-12.7
 74
     0
  0
LTYPE
  5
4C
330
5
100
AcDbSymbolTableRecord
100
AcDbLinetypeTableRecord
  2
DASHED
 70
     0
  3
Dashed __ __ __ __ __ __ __ __ __ __ __ __ __ _
 72
    65
 73
     2
 40
19.05
 49
12.7
 74
     0
 49
-6.349999999999999
 74
     0
  0
LTYPE
  5
4D
330
5
100
AcDbSymbolTableRecord
100
AcDbLinetypeTableRecord
  2
DASHED2
 70
     0
  3
Dashed (.5x) _ _ _ _ _ _ _ _ _ _ _ _ _ _ _ _ _
 72
    65
 73
     2
 40
9.524999999999998
 49
6.349999999999999
 74
     0
 49
-3.174999999999999
 74
     0
  0
LTYPE
  5
4E
330
5
100
AcDbSymbolTableRecord
100
AcDbLinetypeTableRecord
  2
DASHEDX2
 70
     0
  3
Dashed (2x) ____  ____  ____  ____  ____  ___
 72
    65
 73
     2
 40
38.1
 49
25.4
 74
     0
 49
-12.7
 74
     0
  0
LTYPE
  5
4F
330
5
100
AcDbSymbolTableRecord
100
AcDbLinetypeTableRecord
  2
DIVIDE
 70
     0
  3
Divide ____ . . ____ . . ____ . . ____ . . ____
 72
    65
 73
     6
 40
31.75
 49
12.7
 74
     0
 49
-6.349999999999999
 74
     0
 49
0.0
 74
     0
 49
-6.349999999999999
 74
     0
 49
0.0
 74
     0
 49
-6.349999999999999
 74
     0
  0
LTYPE
  5
50
330
5
100
AcDbSymbolTableRecord
100
AcDbLinetypeTableRecord
  2
DIVIDE2
 70
     0
  3
Divide (.5x) __..__..__..__..__..__..__..__.._
 72
    65
 73
     6
 40
15.875
 49
6.349999999999999
 74
     0
 49
-3.174999999999999
 74
     0
 49
0.0
 74
     0
 49
-3.174999999999999
 74
     0
 49
0.0
 74
     0
 49
-3.174999999999999
 74
     0
  0
LTYPE
  5
51
330
5
100
AcDbSymbolTableRecord
100
AcDbLinetypeTableRecord
  2
DIVIDEX2
 70
     0
  3
Divide (2x) ________  .  .  ________  .  .  _
 72
    65
 73
     6
 40
63.49999999999999
 49
25.4
 74
     0
 49
-12.7
 74
     0
 49
0.0
 74
     0
 49
-12.7
 74
     0
 49
0.0
 74
     0
 49
-12.7
 74
     0
  0
LTYPE
  5
52
330
5
100
AcDbSymbolTableRecord
100
AcDbLinetypeTableRecord
  2
DOT
 70
     0
  3
Dot . . . . . . . . . . . . . . . . . . . . . .
 72
    65
 73
     2
 40
6.349999999999999
 49
0.0
 74
     0
 49
-6.349999999999999
 74
     0
  0
LTYPE
  5
53
330
5
100
AcDbSymbolTableRecord
100
AcDbLinetypeTableRecord
  2
DOT2
 70
     0
  3
Dot (.5x) .....................................
 72
    65
 73
     2
 40
3.174999999999999
 49
0.0
 74
     0
 49
-3.174999999999999
 74
     0
  0
LTYPE
  5
54
330
5
100
AcDbSymbolTableRecord
100
AcDbLinetypeTableRecord
  2
DOTX2
 70
     0
  3
Dot (2x) .  .  .  .  .  .  .  .  .  .  .  .  . 
 72
    65
 73
     2
 40
12.7
 49
0.0
 74
     0
 49
-12.7
 74
     0
  0
LTYPE
  5
55
330
5
100
AcDbSymbolTableRecord
100
AcDbLinetypeTableRecord
  2
FENCELINE1
 70
     0
  3
Fenceline circle ----0-----0----0-----0----0---
 72
    65
 73
     4
 40
36.83
 49
6.349999999999999
 74
     0
 49
-2.54
 74
     4
 75
   133
340
33
 46
2.54
 50
0.0
 44
-2.54
 45
0.0
 49
-2.54
 74
     0
 49
25.4
 74
     0
  0
LTYPE
  5
56
330
5
100
AcDbSymbolTableRecord
100
AcDbLinetypeTableRecord
  2
FENCELINE2
 70
     0
  3
Fenceline square ----[]-----[]----[]-----[]----
 72
    65
 73
     4
 40
36.83
 49
6.349999999999999
 74
     0
 49
-2.54
 74
     4
 75
   132
340
33
 46
2.54
 50
0.0
 44
-2.54
 45
0.0
 49
-2.54
 74
     0
 49
25.4
 74
     0
  0
LTYPE
  5
57
330
5
100
AcDbSymbolTableRecord
100
AcDbLinetypeTableRecord
  2
GAS_LINE
 70
     0
  3
Gas line ----GAS----GAS----GAS----GAS----GAS---
 72
    65
 73
     3
 40
24.13
 49
12.7
 74
     0
 49
-5.08
 74
     2
 75
     0
340
11
 46
2.54
 50
0.0
 44
-2.54
 45
-1.27
  9
GAS
 49
-6.349999999999999
 74
     0
  0
LTYPE
  5
58
330
5
100
AcDbSymbolTableRecord
100
AcDbLinetypeTableRecord
  2
HIDDEN
 70
     0
  3
Hidden __ __ __ __ __ __ __ __ __ __ __ __ __ _
 72
    65
 73
     2
 40
9.524999999999998
 49
6.349999999999999
 74
     0
 49
-3.174999999999999
 74
     0
  0
LTYPE
  5
59
330
5
100
AcDbSymbolTableRecord
100
AcDbLinetypeTableRecord
  2
HIDDEN2
 70
     0
  3
Hidden (.5x) _ _ _ _ _ _ _ _ _ _ _ _ _ _ _ _ _
 72
    65
 73
     2
 40
4.762499999999999
 49
3.174999999999999
 74
     0
 49
-1.587499999999999
 74
     0
  0
LTYPE
  5
5A
330
5
100
AcDbSymbolTableRecord
100
AcDbLinetypeTableRecord
  2
HIDDENX2
 70
     0
  3
Hidden (2x) ____ ____ ____ ____ ____ ____ ____
 72
    65
 73
     2
 40
19.05
 49
12.7
 74
     0
 49
-6.349999999999999
 74
     0
  0
LTYPE
  5
5B
330
5
100
AcDbSymbolTableRecord
100
AcDbLinetypeTableRecord
  2
HOT_WATER_SUPPLY
 70
     0
  3
Hot water supply ---- HW ---- HW ---- HW ----
 72
    65
 73
     3
 40
22.86
 49
12.7
 74
     0
 49
-5.08
 74
     2
 75
     0
340
11
 46
2.54
 50
0.0
 44
-2.54
 45
-1.27
  9
HW
 49
-5.08
 74
     0
  0
LTYPE
  5
5C
330
5
100
AcDbSymbolTableRecord
100
AcDbLinetypeTableRecord
  2
PHANTOM
 70
     0
  3
Phantom ______  __  __  ______  __  __  ______
 72
    65
 73
     6
 40
63.5
 49
31.75
 74
     0
 49
-6.349999999999999
 74
     0
 49
6.349999999999999
 74
     0
 49
-6.349999999999999
 74
     0
 49
6.349999999999999
 74
     0
 49
-6.349999999999999
 74
     0
  0
LTYPE
  5
5D
330
5
100
AcDbSymbolTableRecord
100
AcDbLinetypeTableRecord
  2
PHANTOM2
 70
     0
  3
Phantom (.5x) ___ _ _ ___ _ _ ___ _ _ ___ _ _
 72
    65
 73
     6
 40
31.75
 49
15.875
 74
     0
 49
-3.174999999999999
 74
     0
 49
3.174999999999999
 74
     0
 49
-3.174999999999999
 74
     0
 49
3.174999999999999
 74
     0
 49
-3.174999999999999
 74
     0
  0
LTYPE
  5
5E
330
5
100
AcDbSymbolTableRecord
100
AcDbLinetypeTableRecord
  2
PHANTOMX2
 70
     0
  3
Phantom (2x) ____________    ____    ____   _
 72
    65
 73
     6
 40
127.0
 49
63.5
 74
     0
 49
-12.7
 74
     0
 49
12.7
 74
     0
 49
-12.7
 74
     0
 49
12.7
 74
     0
 49
-12.7
 74
     0
  0
LTYPE
  5
5F
330
5
100
AcDbSymbolTableRecord
100
AcDbLinetypeTableRecord
  2
TRACKS
 70
     0
  3
Tracks -|-|-|-|-|-|-|-|-|-|-|-|-|-|-|-|-|-|-|-|
 72
    65
 73
     2
 40
7.62
 49
3.81
 74
     4
 75
   130
340
33
 46
6.349999999999999
 50
0.0
 44
0.0
 45
0.0
 49
3.81
 74
     0
  0
LTYPE
  5
60
330
5
100
AcDbSymbolTableRecord
100
AcDbLinetypeTableRecord
  2
ZIGZAG
 70
     0
  3
Zig zag /\/\/\/\/\/\/\/\/\/\/\/\/\/\/\/\/\/\/\/
 72
    65
 73
     4
 40
20.32254
 49
0.00254
 74
     0
 49
-5.08
 74
     4
 75
   131
340
33
 46
5.08
 50
0.0
 44
-5.08
 45
0.0
 49
-10.16
 74
     4
 75
   131
340
33
 46
5.08
 50
180.0
 44
5.08
 45
0.0
 49
-5.08
 74
     0
  0
ENDTAB
  0
TABLE
  2
LAYER
  5
2
102
{ACAD_XDICTIONARY
360
1C22
102
}
330
0
100
AcDbSymbolTable
 70
     8
  0
LAYER
  5
10
330
2
100
AcDbSymbolTableRecord
100
AcDbLayerTableRecord
  2
0
 70
     0
 62
     7
  6
Continuous
370
    -3
390
F
  0
LAYER
  5
C3
330
2
100
AcDbSymbolTableRecord
100
AcDbLayerTableRecord
  2
Defpoints
 70
     0
 62
     7
  6
Continuous
290
     0
370
    -3
390
F
  0
LAYER
  5
256
330
2
100
AcDbSymbolTableRecord
100
AcDbLayerTableRecord
  2
センター
 70
     0
 62
     7
  6
CENTER2
370
    18
390
F
  0
LAYER
  5
268
330
2
100
AcDbSymbolTableRecord
100
AcDbLayerTableRecord
  2
実形
 70
     0
 62
     7
  6
Continuous
370
    -3
390
F
  0
LAYER
  5
269
330
2
100
AcDbSymbolTableRecord
100
AcDbLayerTableRecord
  2
補助
 70
     0
 62
     7
  6
Continuous
370
    -3
390
F
  0
LAYER
  5
26A
330
2
100
AcDbSymbolTableRecord
100
AcDbLayerTableRecord
  2
寸法
 70
     0
 62
     7
  6
Continuous
370
    18
390
F
  0
LAYER
  5
26B
330
2
100
AcDbSymbolTableRecord
100
AcDbLayerTableRecord
  2
ハッチング
 70
     0
 62
     7
  6
Continuous
370
    18
390
F
  0
LAYER
  5
26D
330
2
100
AcDbSymbolTableRecord
100
AcDbLayerTableRecord
  2
文字
 70
     0
 62
     7
  6
Continuous
370
    -3
390
F
  0
ENDTAB
  0
TABLE
  2
STYLE
  5
3
330
0
100
AcDbSymbolTable
 70
     3
  0
STYLE
  5
11
330
3
100
AcDbSymbolTableRecord
100
AcDbTextStyleTableRecord
  2
Standard
 70
     0
 40
0.0
 41
1.0
 50
0.0
 71
     0
 42
25.0
  3
txt.shx
  4
bigfont.shx
  0
STYLE
  5
33
330
3
100
AcDbSymbolTableRecord
100
AcDbTextStyleTableRecord
  2

 70
     1
 40
0.0
 41
1.0
 50
0.0
 71
     0
 42
2.5
  3
ltypeshp.shx
  4

  0
STYLE
  5
1DAA
330
3
100
AcDbSymbolTableRecord
100
AcDbTextStyleTableRecord
  2
明朝
 70
     0
 40
0.0
 41
1.0
 50
0.0
 71
     0
 42
25.0
  3
MS Mincho.ttf
  4

1001
ACAD
1000
MS Mincho
1071
    32785
  0
ENDTAB
  0
TABLE
  2
VIEW
  5
6
330
0
100
AcDbSymbolTable
 70
     0
  0
ENDTAB
  0
TABLE
  2
UCS
  5
7
330
0
100
AcDbSymbolTable
 70
     0
  0
ENDTAB
  0
TABLE
  2
APPID
  5
9
330
0
100
AcDbSymbolTable
 70
     2
  0
APPID
  5
12
330
9
100
AcDbSymbolTableRecord
100
AcDbRegAppTableRecord
  2
ACAD
 70
     0
  0
APPID
  5
1DAB
330
9
100
AcDbSymbolTableRecord
100
AcDbRegAppTableRecord
  2
ACAD_PSEXT
 70
     0
  0
ENDTAB
  0
TABLE
  2
DIMSTYLE
  5
A
330
0
100
AcDbSymbolTable
 70
     1
100
AcDbDimStyleTable
 71
     1
340
27
  0
DIMSTYLE
105
27
102
{ACAD_REACTORS
330
368
330
44B
330
458
330
4A3
330
569
330
57F
330
35B
330
3CE
330
43D
330
3E9
330
3DC
330
3F6
330
4F8
330
505
330
16A5
330
16B3
330
16B4
330
16BC
330
16C7
330
16D1
330
1884
330
1885
330
1ACA
330
1ACB
102
}
330
A
100
AcDbSymbolTableRecord
100
AcDbDimStyleTableRecord
  2
ISO-25
 70
     0
 41
35.0
 42
65.0
 43
3.75
 44
0.0
 73
     0
 74
     0
 77
     1
 78
     8
140
25.0
141
2.5
143
0.03937007874016
147
6.25
171
     3
172
     1
271
     2
272
     2
274
     3
283
     0
284
     8
340
11
341
DA
342
D0
371
    15
372
    15
  0
ENDTAB
  0
TABLE
  2
BLOCK_RECORD
  5
1
330
0
100
AcDbSymbolTable
 70
    28
  0
BLOCK_RECORD
  5
1F
102
{ACAD_XDICTIONARY
360
1DCA
102
}
330
1
100
AcDbSymbolTableRecord
100
AcDbBlockTableRecord
  2
*Model_Space
340
22
  0
BLOCK_RECORD
  5
1B
330
1
100
AcDbSymbolTableRecord
100
AcDbBlockTableRecord
  2
*Paper_Space
340
1E
  0
BLOCK_RECORD
  5
23
330
1
100
AcDbSymbolTableRecord
100
AcDbBlockTableRecord
  2
*Paper_Space0
340
26
  0
BLOCK_RECORD
  5
D0
330
1
100
AcDbSymbolTableRecord
100
AcDbBlockTableRecord
  2
_DotSmall
340
0
102
{BLKREFS
331
1CB5
331
1CB6
331
1CBE
331
1CBF
331
1CC7
331
1CC8
331
1CCF
331
1CD0
331
1CD9
331
1CDA
331
1CE1
331
1CE2
331
1CEB
331
1CEC
331
1CF3
331
1CF4
331
1CFC
331
1CFD
331
1D04
331
1D05
331
1D0D
331
1D0E
331
1D16
331
1D17
331
1D1F
331
1D20
331
1D28
331
1D29
331
1D32
331
1D33
331
1D3A
331
1D3B
331
1D43
331
1D44
331
1D4C
331
1D4D
331
1D55
331
1D56
331
1D5E
331
1D5F
331
1D67
331
1D68
331
1D6F
331
1D70
331
1D78
331
1D79
331
1D80
331
1D81
102
}
  0
BLOCK_RECORD
  5
D4
330
1
100
AcDbSymbolTableRecord
100
AcDbBlockTableRecord
  2
_Origin2
340
0
  0
BLOCK_RECORD
  5
DA
330
1
100
AcDbSymbolTableRecord
100
AcDbBlockTableRecord
  2
_Open30
340
0
  0
BLOCK_RECORD
  5
35C
330
1
100
AcDbSymbolTableRecord
100
AcDbBlockTableRecord
  2
*D4
340
0
  0
BLOCK_RECORD
  5
369
330
1
100
AcDbSymbolTableRecord
100
AcDbBlockTableRecord
  2
*D5
340
0
  0
BLOCK_RECORD
  5
3CF
330
1
100
AcDbSymbolTableRecord
100
AcDbBlockTableRecord
  2
*D6
340
0
  0
BLOCK_RECORD
  5
3DD
330
1
100
AcDbSymbolTableRecord
100
AcDbBlockTableRecord
  2
*D7
340
0
  0
BLOCK_RECORD
  5
3EA
330
1
100
AcDbSymbolTableRecord
100
AcDbBlockTableRecord
  2
*D8
340
0
  0
BLOCK_RECORD
  5
3F7
330
1
100
AcDbSymbolTableRecord
100
AcDbBlockTableRecord
  2
*D9
340
0
  0
BLOCK_RECORD
  5
43E
330
1
100
AcDbSymbolTableRecord
100
AcDbBlockTableRecord
  2
*D10
340
0
  0
BLOCK_RECORD
  5
44C
330
1
100
AcDbSymbolTableRecord
100
AcDbBlockTableRecord
  2
*D11
340
0
  0
BLOCK_RECORD
  5
459
330
1
100
AcDbSymbolTableRecord
100
AcDbBlockTableRecord
  2
*D12
340
0
  0
BLOCK_RECORD
  5
4A4
330
1
100
AcDbSymbolTableRecord
100
AcDbBlockTableRecord
  2
*D13
340
0
  0
BLOCK_RECORD
  5
4F9
330
1
100
AcDbSymbolTableRecord
100
AcDbBlockTableRecord
  2
*D14
340
0
  0
BLOCK_RECORD
  5
506
330
1
100
AcDbSymbolTableRecord
100
AcDbBlockTableRecord
  2
*D15
340
0
  0
BLOCK_RECORD
  5
56A
330
1
100
AcDbSymbolTableRecord
100
AcDbBlockTableRecord
  2
*D16
340
0
  0
BLOCK_RECORD
  5
580
330
1
100
AcDbSymbolTableRecord
100
AcDbBlockTableRecord
  2
*D17
340
0
  0
BLOCK_RECORD
  5
16D5
330
1
100
AcDbSymbolTableRecord
100
AcDbBlockTableRecord
  2
*D18
340
0
  0
BLOCK_RECORD
  5
16E1
330
1
100
AcDbSymbolTableRecord
100
AcDbBlockTableRecord
  2
*D19
340
0
  0
BLOCK_RECORD
  5
16ED
330
1
100
AcDbSymbolTableRecord
100
AcDbBlockTableRecord
  2
*D20
340
0
  0
BLOCK_RECORD
  5
16F9
330
1
100
AcDbSymbolTableRecord
100
AcDbBlockTableRecord
  2
*D21
340
0
  0
BLOCK_RECORD
  5
1705
330
1
100
AcDbSymbolTableRecord
100
AcDbBlockTableRecord
  2
*D22
340
0
  0
BLOCK_RECORD
  5
1711
330
1
100
AcDbSymbolTableRecord
100
AcDbBlockTableRecord
  2
*D23
340
0
  0
BLOCK_RECORD
  5
188C
330
1
100
AcDbSymbolTableRecord
100
AcDbBlockTableRecord
  2
*D24
340
0
  0
BLOCK_RECORD
  5
1897
330
1
100
AcDbSymbolTableRecord
100
AcDbBlockTableRecord
  2
*D25
340
0
  0
BLOCK_RECORD
  5
1AD2
330
1
100
AcDbSymbolTableRecord
100
AcDbBlockTableRecord
  2
*D26
340
0
  0
BLOCK_RECORD
  5
1ADD
330
1
100
AcDbSymbolTableRecord
100
AcDbBlockTableRecord
  2
*D27
340
0
  0
ENDTAB
  0
ENDSEC
  0
SECTION
  2
BLOCKS
  0
BLOCK
  5
20
330
1F
100
AcDbEntity
  8
0
100
AcDbBlockBegin
  2
*Model_Space
 70
     0
 10
0.0
 20
0.0
 30
0.0
  3
*Model_Space
  1

  0
ENDBLK
  5
21
330
1F
100
AcDbEntity
  8
0
100
AcDbBlockEnd
  0
BLOCK
  5
1C
330
1B
100
AcDbEntity
 67
     1
  8
0
100
AcDbBlockBegin
  2
*Paper_Space
 70
     0
 10
0.0
 20
0.0
 30
0.0
  3
*Paper_Space
  1

  0
ENDBLK
  5
1D
330
1B
100
AcDbEntity
 67
     1
  8
0
100
AcDbBlockEnd
  0
BLOCK
  5
24
330
23
100
AcDbEntity
  8
0
100
AcDbBlockBegin
  2
*Paper_Space0
 70
     0
 10
0.0
 20
0.0
 30
0.0
  3
*Paper_Space0
  1

  0
ENDBLK
  5
25
330
23
100
AcDbEntity
  8
0
100
AcDbBlockEnd
  0
BLOCK
  5
D2
330
D0
100
AcDbEntity
  8
0
100
AcDbBlockBegin
  2
_DotSmall
 70
     0
 10
0.0
 20
0.0
 30
0.0
  3
_DotSmall
  1

  0
LWPOLYLINE
  5
D1
330
D0
100
AcDbEntity
  8
0
 62
     0
100
AcDbPolyline
 90
        2
 70
     1
 43
0.5
 10
-0.0625
 20
0.0
 42
1.0
 10
0.0625
 20
0.0
 42
1.0
  0
ENDBLK
  5
D3
330
D0
100
AcDbEntity
  8
0
100
AcDbBlockEnd
  0
BLOCK
  5
D8
330
D4
100
AcDbEntity
  8
0
100
AcDbBlockBegin
  2
_Origin2
 70
     0
 10
0.0
 20
0.0
 30
0.0
  3
_Origin2
  1

  0
CIRCLE
  5
D5
330
D4
100
AcDbEntity
  8
0
 62
     0
370
    -2
100
AcDbCircle
 10
0.0
 20
0.0
 30
0.0
 40
0.5
  0
CIRCLE
  5
D6
330
D4
100
AcDbEntity
  8
0
 62
     0
370
    -2
100
AcDbCircle
 10
0.0
 20
0.0
 30
0.0
 40
0.25
  0
LINE
  5
D7
330
D4
100
AcDbEntity
  8
0
 62
     0
370
    -2
100
AcDbLine
 10
-0.5
 20
0.0
 30
0.0
 11
-1.0
 21
0.0
 31
0.0
  0
ENDBLK
  5
D9
330
D4
100
AcDbEntity
  8
0
100
AcDbBlockEnd
  0
BLOCK
  5
DE
330
DA
100
AcDbEntity
  8
0
100
AcDbBlockBegin
  2
_Open30
 70
     0
 10
0.0
 20
0.0
 30
0.0
  3
_Open30
  1

  0
LINE
  5
DB
330
DA
100
AcDbEntity
  8
0
 62
     0
370
    -2
100
AcDbLine
 10
-1.0
 20
0.26794919
 30
0.0
 11
0.0
 21
0.0
 31
0.0
  0
LINE
  5
DC
330
DA
100
AcDbEntity
  8
0
 62
     0
370
    -2
100
AcDbLine
 10
0.0
 20
0.0
 30
0.0
 11
-1.0
 21
-0.26794919
 31
0.0
  0
LINE
  5
DD
330
DA
100
AcDbEntity
  8
0
 62
     0
370
    -2
100
AcDbLine
 10
0.0
 20
0.0
 30
0.0
 11
-1.0
 21
0.0
 31
0.0
  0
ENDBLK
  5
DF
330
DA
100
AcDbEntity
  8
0
100
AcDbBlockEnd
  0
BLOCK
  5
366
330
35C
100
AcDbEntity
  8
0
100
AcDbBlockBegin
  2
*D4
 70
     1
 10
0.0
 20
0.0
 30
0.0
  3
*D4
  1

  0
LINE
  5
1CB2
330
35C
100
AcDbEntity
  8
実形
 62
     0
370
    15
100
AcDbLine
 10
971.4575016666076
 20
1568.359507154115
 30
0.0
 11
971.4575016666076
 21
1747.162625317523
 31
0.0
  0
LINE
  5
1CB3
330
35C
100
AcDbEntity
  8
実形
 62
     0
370
    15
100
AcDbLine
 10
821.4575016666076
 20
1658.826706059002
 30
0.0
 11
821.4575016666076
 21
1747.162625317523
 31
0.0
  0
LINE
  5
1CB4
330
35C
100
AcDbEntity
  8
実形
 62
     0
370
    18
100
AcDbLine
 10
971.4575016666076
 20
1747.162625317523
 30
0.0
 11
821.4575016666076
 21
1747.162625317523
 31
0.0
  0
INSERT
  5
1CB5
330
35C
100
AcDbEntity
  8
実形
 62
     0
370
    18
100
AcDbBlockReference
  2
_DotSmall
 10
971.4575016666076
 20
1747.162625317523
 30
0.0
 41
25.0
 42
25.0
 43
25.0
  0
INSERT
  5
1CB6
330
35C
100
AcDbEntity
  8
実形
 62
     0
370
    18
100
AcDbBlockReference
  2
_DotSmall
 10
821.4575016666076
 20
1747.162625317523
 30
0.0
 41
25.0
 42
25.0
 43
25.0
 50
180.0
  0
MTEXT
  5
1CB7
330
35C
100
AcDbEntity
  8
実形
 62
     0
100
AcDbMText
 10
896.4575016666076
 20
1765.912625317523
 30
0.0
 40
25.0
 41
0.0
 71
     5
 72
     1
  1
150
 73
     1
 44
1.0
1001
ACAD
1000
MTEXTBEGIN
1070
    73
1070
     1
1070
    44
1040
1.0
1070
    74
1070
     0
1000
MTEXTEND
  0
POINT
  5
1CB8
330
35C
100
AcDbEntity
  8
Defpoints
 62
     0
100
AcDbPoint
 10
971.4575016666076
 20
1503.359507154115
 30
0.0
  0
POINT
  5
1CB9
330
35C
100
AcDbEntity
  8
Defpoints
 62
     0
100
AcDbPoint
 10
821.4575016666076
 20
1593.826706059003
 30
0.0
  0
POINT
  5
1CBA
330
35C
100
AcDbEntity
  8
Defpoints
 62
     0
100
AcDbPoint
 10
821.4575016666076
 20
1747.162625317523
 30
0.0
  0
ENDBLK
  5
367
330
35C
100
AcDbEntity
  8
0
100
AcDbBlockEnd
  0
BLOCK
  5
373
330
369
100
AcDbEntity
  8
0
100
AcDbBlockBegin
  2
*D5
 70
     1
 10
0.0
 20
0.0
 30
0.0
  3
*D5
  1

  0
LINE
  5
1CBB
330
369
100
AcDbEntity
  8
実形
 62
     0
370
    15
100
AcDbLine
 10
1036.457501666607
 20
1503.359507154115
 30
0.0
 11
1234.060514285589
 21
1503.359507154115
 31
0.0
  0
LINE
  5
1CBC
330
369
100
AcDbEntity
  8
実形
 62
     0
370
    15
100
AcDbLine
 10
1131.457501666607
 20
1653.359507154115
 30
0.0
 11
1234.060514285589
 21
1653.359507154115
 31
0.0
  0
LINE
  5
1CBD
330
369
100
AcDbEntity
  8
実形
 62
     0
370
    18
100
AcDbLine
 10
1234.060514285589
 20
1503.359507154115
 30
0.0
 11
1234.060514285589
 21
1653.359507154115
 31
0.0
  0
INSERT
  5
1CBE
330
369
100
AcDbEntity
  8
実形
 62
     0
370
    18
100
AcDbBlockReference
  2
_DotSmall
 10
1234.060514285589
 20
1503.359507154115
 30
0.0
 41
25.0
 42
25.0
 43
25.0
 50
270.0
  0
INSERT
  5
1CBF
330
369
100
AcDbEntity
  8
実形
 62
     0
370
    18
100
AcDbBlockReference
  2
_DotSmall
 10
1234.060514285589
 20
1653.359507154115
 30
0.0
 41
25.0
 42
25.0
 43
25.0
 50
90.0
  0
MTEXT
  5
1CC0
330
369
100
AcDbEntity
  8
実形
 62
     0
100
AcDbMText
 10
1215.310514285589
 20
1578.359507154115
 30
0.0
 40
25.0
 41
0.0
 71
     5
 72
     1
  1
150
 11
0.0000000000000001
 21
1.0
 31
0.0
 73
     1
 44
1.0
1001
ACAD
1000
MTEXTBEGIN
1070
    73
1070
     1
1070
    44
1040
1.0
1070
    74
1070
     0
1000
MTEXTEND
  0
POINT
  5
1CC1
330
369
100
AcDbEntity
  8
Defpoints
 62
     0
100
AcDbPoint
 10
971.4575016666076
 20
1503.359507154115
 30
0.0
  0
POINT
  5
1CC2
330
369
100
AcDbEntity
  8
Defpoints
 62
     0
100
AcDbPoint
 10
1066.457501666607
 20
1653.359507154115
 30
0.0
  0
POINT
  5
1CC3
330
369
100
AcDbEntity
  8
Defpoints
 62
     0
100
AcDbPoint
 10
1234.060514285589
 20
1653.359507154115
 30
0.0
  0
ENDBLK
  5
374
330
369
100
AcDbEntity
  8
0
100
AcDbBlockEnd
  0
BLOCK
  5
3DA
330
3CF
100
AcDbEntity
  8
0
100
AcDbBlockBegin
  2
*D6
 70
     1
 10
0.0
 20
0.0
 30
0.0
  3
*D6
  1

  0
LINE
  5
1CC4
330
3CF
100
AcDbEntity
  8
実形
 62
     0
370
    15
100
AcDbLine
 10
741.4575016666076
 20
1668.359507154115
 30
0.0
 11
663.2821869427344
 21
1668.359507154115
 31
0.0
  0
LINE
  5
1CC5
330
3CF
100
AcDbEntity
  8
実形
 62
     0
370
    15
100
AcDbLine
 10
741.4575016666076
 20
1653.359507154115
 30
0.0
 11
663.2821869427344
 21
1653.359507154115
 31
0.0
  0
LINE
  5
1CC6
330
3CF
100
AcDbEntity
  8
実形
 62
     0
370
    18
100
AcDbLine
 10
663.2821869427344
 20
1668.359507154115
 30
0.0
 11
663.2821869427344
 21
1653.359507154115
 31
0.0
  0
INSERT
  5
1CC7
330
3CF
100
AcDbEntity
  8
実形
 62
     0
370
    18
100
AcDbBlockReference
  2
_DotSmall
 10
663.2821869427344
 20
1668.359507154115
 30
0.0
 41
25.0
 42
25.0
 43
25.0
 50
90.0
  0
INSERT
  5
1CC8
330
3CF
100
AcDbEntity
  8
実形
 62
     0
370
    18
100
AcDbBlockReference
  2
_DotSmall
 10
663.2821869427344
 20
1653.359507154115
 30
0.0
 41
25.0
 42
25.0
 43
25.0
 50
270.0
  0
POINT
  5
1CC9
330
3CF
100
AcDbEntity
  8
Defpoints
 62
     0
100
AcDbPoint
 10
806.4575016666076
 20
1668.359507154115
 30
0.0
  0
POINT
  5
1CCA
330
3CF
100
AcDbEntity
  8
Defpoints
 62
     0
100
AcDbPoint
 10
806.4575016666076
 20
1653.359507154115
 30
0.0
  0
POINT
  5
1CCB
330
3CF
100
AcDbEntity
  8
Defpoints
 62
     0
100
AcDbPoint
 10
663.2821869427344
 20
1653.359507154115
 30
0.0
  0
ENDBLK
  5
3DB
330
3CF
100
AcDbEntity
  8
0
100
AcDbBlockEnd
  0
BLOCK
  5
3E7
330
3DD
100
AcDbEntity
  8
0
100
AcDbBlockBegin
  2
*D7
 70
     1
 10
0.0
 20
0.0
 30
0.0
  3
*D7
  1

  0
LINE
  5
1CCC
330
3DD
100
AcDbEntity
  8
実形
 62
     0
370
    15
100
AcDbLine
 10
741.4575016666076
 20
1653.359507154115
 30
0.0
 11
663.2821869427344
 21
1653.359507154115
 31
0.0
  0
LINE
  5
1CCD
330
3DD
100
AcDbEntity
  8
実形
 62
     0
370
    15
100
AcDbLine
 10
741.4575016666076
 20
1353.359507154115
 30
0.0
 11
663.2821869427344
 21
1353.359507154115
 31
0.0
  0
LINE
  5
1CCE
330
3DD
100
AcDbEntity
  8
実形
 62
     0
370
    18
100
AcDbLine
 10
663.2821869427344
 20
1653.359507154115
 30
0.0
 11
663.2821869427344
 21
1353.359507154115
 31
0.0
  0
INSERT
  5
1CCF
330
3DD
100
AcDbEntity
  8
実形
 62
     0
370
    18
100
AcDbBlockReference
  2
_DotSmall
 10
663.2821869427344
 20
1653.359507154115
 30
0.0
 41
25.0
 42
25.0
 43
25.0
 50
90.0
  0
INSERT
  5
1CD0
330
3DD
100
AcDbEntity
  8
実形
 62
     0
370
    18
100
AcDbBlockReference
  2
_DotSmall
 10
663.2821869427344
 20
1353.359507154115
 30
0.0
 41
25.0
 42
25.0
 43
25.0
 50
270.0
  0
MTEXT
  5
1CD1
330
3DD
100
AcDbEntity
  8
実形
 62
     0
100
AcDbMText
 10
644.5321869427341
 20
1503.359507154115
 30
0.0
 40
25.0
 41
0.0
 71
     5
 72
     1
  1
300
 11
0.0000000000000001
 21
1.0
 31
0.0
 73
     1
 44
1.0
1001
ACAD
1000
MTEXTBEGIN
1070
    73
1070
     1
1070
    44
1040
1.0
1070
    74
1070
     0
1000
MTEXTEND
  0
POINT
  5
1CD2
330
3DD
100
AcDbEntity
  8
Defpoints
 62
     0
100
AcDbPoint
 10
806.4575016666076
 20
1653.359507154115
 30
0.0
  0
POINT
  5
1CD3
330
3DD
100
AcDbEntity
  8
Defpoints
 62
     0
100
AcDbPoint
 10
806.4575016666076
 20
1353.359507154115
 30
0.0
  0
POINT
  5
1CD4
330
3DD
100
AcDbEntity
  8
Defpoints
 62
     0
100
AcDbPoint
 10
663.2821869427344
 20
1353.359507154115
 30
0.0
  0
ENDBLK
  5
3E8
330
3DD
100
AcDbEntity
  8
0
100
AcDbBlockEnd
  0
BLOCK
  5
3F4
330
3EA
100
AcDbEntity
  8
0
100
AcDbBlockBegin
  2
*D8
 70
     1
 10
0.0
 20
0.0
 30
0.0
  3
*D8
  1

  0
LINE
  5
1CD5
330
3EA
100
AcDbEntity
  8
実形
 62
     0
370
    15
100
AcDbLine
 10
741.4575016666076
 20
1353.359507154115
 30
0.0
 11
663.2821869427344
 21
1353.359507154115
 31
0.0
  0
LINE
  5
1CD6
330
3EA
100
AcDbEntity
  8
実形
 62
     0
370
    15
100
AcDbLine
 10
741.4575016666076
 20
1338.359507154115
 30
0.0
 11
663.2821869427344
 21
1338.359507154115
 31
0.0
  0
LINE
  5
1CD7
330
3EA
100
AcDbEntity
  8
実形
 62
     0
370
    18
100
AcDbLine
 10
663.2821869427344
 20
1353.359507154115
 30
0.0
 11
663.2821869427344
 21
1338.359507154115
 31
0.0
  0
MTEXT
  5
1CD8
330
3EA
100
AcDbEntity
  8
実形
 62
     0
370
    18
100
AcDbMText
 10
648.9660812381489
 20
1295.675266445888
 30
0.0
 40
25.0
 41
0.0
 71
     5
 72
     1
  1
15
 11
0.0000000000000001
 21
1.0
 31
0.0
 73
     1
 44
1.0
1001
ACAD
1000
MTEXTBEGIN
1070
    73
1070
     1
1070
    44
1040
1.0
1070
    74
1070
     0
1000
MTEXTEND
  0
INSERT
  5
1CD9
330
3EA
100
AcDbEntity
  8
実形
 62
     0
370
    18
100
AcDbBlockReference
  2
_DotSmall
 10
663.2821869427344
 20
1353.359507154115
 30
0.0
 41
25.0
 42
25.0
 43
25.0
 50
90.0
  0
INSERT
  5
1CDA
330
3EA
100
AcDbEntity
  8
実形
 62
     0
370
    18
100
AcDbBlockReference
  2
_DotSmall
 10
663.2821869427344
 20
1338.359507154115
 30
0.0
 41
25.0
 42
25.0
 43
25.0
 50
270.0
  0
POINT
  5
1CDB
330
3EA
100
AcDbEntity
  8
Defpoints
 62
     0
100
AcDbPoint
 10
806.4575016666076
 20
1353.359507154115
 30
0.0
  0
POINT
  5
1CDC
330
3EA
100
AcDbEntity
  8
Defpoints
 62
     0
100
AcDbPoint
 10
806.4575016666076
 20
1338.359507154115
 30
0.0
  0
POINT
  5
1CDD
330
3EA
100
AcDbEntity
  8
Defpoints
 62
     0
100
AcDbPoint
 10
663.2821869427344
 20
1338.359507154115
 30
0.0
  0
ENDBLK
  5
3F5
330
3EA
100
AcDbEntity
  8
0
100
AcDbBlockEnd
  0
BLOCK
  5
401
330
3F7
100
AcDbEntity
  8
0
100
AcDbBlockBegin
  2
*D9
 70
     1
 10
0.0
 20
0.0
 30
0.0
  3
*D9
  1

  0
LINE
  5
1CDE
330
3F7
100
AcDbEntity
  8
実形
 62
     0
370
    15
100
AcDbLine
 10
741.4575016666076
 20
1668.359507154115
 30
0.0
 11
594.44228861805
 21
1668.359507154115
 31
0.0
  0
LINE
  5
1CDF
330
3F7
100
AcDbEntity
  8
実形
 62
     0
370
    15
100
AcDbLine
 10
741.4575016666076
 20
1338.359507154115
 30
0.0
 11
594.44228861805
 21
1338.359507154115
 31
0.0
  0
LINE
  5
1CE0
330
3F7
100
AcDbEntity
  8
実形
 62
     0
370
    18
100
AcDbLine
 10
594.44228861805
 20
1668.359507154115
 30
0.0
 11
594.44228861805
 21
1338.359507154115
 31
0.0
  0
INSERT
  5
1CE1
330
3F7
100
AcDbEntity
  8
実形
 62
     0
370
    18
100
AcDbBlockReference
  2
_DotSmall
 10
594.44228861805
 20
1668.359507154115
 30
0.0
 41
25.0
 42
25.0
 43
25.0
 50
90.0
  0
INSERT
  5
1CE2
330
3F7
100
AcDbEntity
  8
実形
 62
     0
370
    18
100
AcDbBlockReference
  2
_DotSmall
 10
594.44228861805
 20
1338.359507154115
 30
0.0
 41
25.0
 42
25.0
 43
25.0
 50
270.0
  0
MTEXT
  5
1CE3
330
3F7
100
AcDbEntity
  8
実形
 62
     0
100
AcDbMText
 10
575.6922886180498
 20
1503.359507154115
 30
0.0
 40
25.0
 41
0.0
 71
     5
 72
     1
  1
330
 11
0.0000000000000001
 21
1.0
 31
0.0
 73
     1
 44
1.0
1001
ACAD
1000
MTEXTBEGIN
1070
    73
1070
     1
1070
    44
1040
1.0
1070
    74
1070
     0
1000
MTEXTEND
  0
POINT
  5
1CE4
330
3F7
100
AcDbEntity
  8
Defpoints
 62
     0
100
AcDbPoint
 10
806.4575016666076
 20
1668.359507154115
 30
0.0
  0
POINT
  5
1CE5
330
3F7
100
AcDbEntity
  8
Defpoints
 62
     0
100
AcDbPoint
 10
806.4575016666076
 20
1338.359507154115
 30
0.0
  0
POINT
  5
1CE6
330
3F7
100
AcDbEntity
  8
Defpoints
 62
     0
100
AcDbPoint
 10
594.44228861805
 20
1338.359507154115
 30
0.0
  0
ENDBLK
  5
402
330
3F7
100
AcDbEntity
  8
0
100
AcDbBlockEnd
  0
BLOCK
  5
449
330
43E
100
AcDbEntity
  8
0
100
AcDbBlockBegin
  2
*D10
 70
     1
 10
0.0
 20
0.0
 30
0.0
  3
*D10
  1

  0
LINE
  5
1CE7
330
43E
100
AcDbEntity
  8
実形
 62
     0
370
    15
100
AcDbLine
 10
806.4575016666076
 20
1273.359507154115
 30
0.0
 11
806.4575016666076
 21
1190.42738938406
 31
0.0
  0
LINE
  5
1CE8
330
43E
100
AcDbEntity
  8
実形
 62
     0
370
    15
100
AcDbLine
 10
821.4575016666076
 20
1273.359507154115
 30
0.0
 11
821.4575016666076
 21
1190.42738938406
 31
0.0
  0
LINE
  5
1CE9
330
43E
100
AcDbEntity
  8
実形
 62
     0
370
    18
100
AcDbLine
 10
806.4575016666076
 20
1190.42738938406
 30
0.0
 11
821.4575016666076
 21
1190.42738938406
 31
0.0
  0
LINE
  5
1CEA
330
43E
100
AcDbEntity
  8
実形
 62
     0
370
    18
100
AcDbLine
 10
821.4575016666076
 20
1190.42738938406
 30
0.0
 11
887.2075016666077
 21
1190.42738938406
 31
0.0
  0
INSERT
  5
1CEB
330
43E
100
AcDbEntity
  8
実形
 62
     0
370
    18
100
AcDbBlockReference
  2
_DotSmall
 10
806.4575016666076
 20
1190.42738938406
 30
0.0
 41
25.0
 42
25.0
 43
25.0
 50
180.0
  0
INSERT
  5
1CEC
330
43E
100
AcDbEntity
  8
実形
 62
     0
370
    18
100
AcDbBlockReference
  2
_DotSmall
 10
821.4575016666076
 20
1190.42738938406
 30
0.0
 41
25.0
 42
25.0
 43
25.0
  0
POINT
  5
1CED
330
43E
100
AcDbEntity
  8
Defpoints
 62
     0
100
AcDbPoint
 10
806.4575016666076
 20
1338.359507154115
 30
0.0
  0
POINT
  5
1CEE
330
43E
100
AcDbEntity
  8
Defpoints
 62
     0
100
AcDbPoint
 10
821.4575016666076
 20
1338.359507154115
 30
0.0
  0
POINT
  5
1CEF
330
43E
100
AcDbEntity
  8
Defpoints
 62
     0
100
AcDbPoint
 10
821.4575016666076
 20
1190.42738938406
 30
0.0
  0
ENDBLK
  5
44A
330
43E
100
AcDbEntity
  8
0
100
AcDbBlockEnd
  0
BLOCK
  5
456
330
44C
100
AcDbEntity
  8
0
100
AcDbBlockBegin
  2
*D11
 70
     1
 10
0.0
 20
0.0
 30
0.0
  3
*D11
  1

  0
LINE
  5
1CF0
330
44C
100
AcDbEntity
  8
実形
 62
     0
370
    15
100
AcDbLine
 10
821.4575016666076
 20
1273.359507154115
 30
0.0
 11
821.4575016666076
 21
1190.42738938406
 31
0.0
  0
LINE
  5
1CF1
330
44C
100
AcDbEntity
  8
実形
 62
     0
370
    15
100
AcDbLine
 10
1121.457501666607
 20
1273.359507154115
 30
0.0
 11
1121.457501666607
 21
1190.42738938406
 31
0.0
  0
LINE
  5
1CF2
330
44C
100
AcDbEntity
  8
実形
 62
     0
370
    18
100
AcDbLine
 10
821.4575016666076
 20
1190.42738938406
 30
0.0
 11
1121.457501666607
 21
1190.42738938406
 31
0.0
  0
INSERT
  5
1CF3
330
44C
100
AcDbEntity
  8
実形
 62
     0
370
    18
100
AcDbBlockReference
  2
_DotSmall
 10
821.4575016666076
 20
1190.42738938406
 30
0.0
 41
25.0
 42
25.0
 43
25.0
 50
180.0
  0
INSERT
  5
1CF4
330
44C
100
AcDbEntity
  8
実形
 62
     0
370
    18
100
AcDbBlockReference
  2
_DotSmall
 10
1121.457501666607
 20
1190.42738938406
 30
0.0
 41
25.0
 42
25.0
 43
25.0
  0
MTEXT
  5
1CF5
330
44C
100
AcDbEntity
  8
実形
 62
     0
100
AcDbMText
 10
971.4575016666076
 20
1209.17738938406
 30
0.0
 40
25.0
 41
0.0
 71
     5
 72
     1
  1
300
 73
     1
 44
1.0
1001
ACAD
1000
MTEXTBEGIN
1070
    73
1070
     1
1070
    44
1040
1.0
1070
    74
1070
     0
1000
MTEXTEND
  0
POINT
  5
1CF6
330
44C
100
AcDbEntity
  8
Defpoints
 62
     0
100
AcDbPoint
 10
821.4575016666076
 20
1338.359507154115
 30
0.0
  0
POINT
  5
1CF7
330
44C
100
AcDbEntity
  8
Defpoints
 62
     0
100
AcDbPoint
 10
1121.457501666607
 20
1338.359507154115
 30
0.0
  0
POINT
  5
1CF8
330
44C
100
AcDbEntity
  8
Defpoints
 62
     0
100
AcDbPoint
 10
1121.457501666607
 20
1190.42738938406
 30
0.0
  0
ENDBLK
  5
457
330
44C
100
AcDbEntity
  8
0
100
AcDbBlockEnd
  0
BLOCK
  5
465
330
459
100
AcDbEntity
  8
0
100
AcDbBlockBegin
  2
*D12
 70
     1
 10
0.0
 20
0.0
 30
0.0
  3
*D12
  1

  0
LINE
  5
1CF9
330
459
100
AcDbEntity
  8
実形
 62
     0
370
    15
100
AcDbLine
 10
1121.457501666607
 20
1273.359507154115
 30
0.0
 11
1121.457501666607
 21
1190.42738938406
 31
0.0
  0
LINE
  5
1CFA
330
459
100
AcDbEntity
  8
実形
 62
     0
370
    15
100
AcDbLine
 10
1136.457501666607
 20
1273.359507154115
 30
0.0
 11
1136.457501666607
 21
1190.42738938406
 31
0.0
  0
LINE
  5
1CFB
330
459
100
AcDbEntity
  8
実形
 62
     0
370
    18
100
AcDbLine
 10
1121.457501666607
 20
1190.42738938406
 30
0.0
 11
1136.457501666607
 21
1190.42738938406
 31
0.0
  0
INSERT
  5
1CFC
330
459
100
AcDbEntity
  8
実形
 62
     0
370
    18
100
AcDbBlockReference
  2
_DotSmall
 10
1121.457501666607
 20
1190.42738938406
 30
0.0
 41
25.0
 42
25.0
 43
25.0
 50
180.0
  0
INSERT
  5
1CFD
330
459
100
AcDbEntity
  8
実形
 62
     0
370
    18
100
AcDbBlockReference
  2
_DotSmall
 10
1136.457501666607
 20
1190.42738938406
 30
0.0
 41
25.0
 42
25.0
 43
25.0
  0
POINT
  5
1CFE
330
459
100
AcDbEntity
  8
Defpoints
 62
     0
100
AcDbPoint
 10
1121.457501666607
 20
1338.359507154115
 30
0.0
  0
POINT
  5
1CFF
330
459
100
AcDbEntity
  8
Defpoints
 62
     0
100
AcDbPoint
 10
1136.457501666607
 20
1338.359507154115
 30
0.0
  0
POINT
  5
1D00
330
459
100
AcDbEntity
  8
Defpoints
 62
     0
100
AcDbPoint
 10
1136.457501666607
 20
1190.42738938406
 30
0.0
  0
ENDBLK
  5
466
330
459
100
AcDbEntity
  8
0
100
AcDbBlockEnd
  0
BLOCK
  5
4AE
330
4A4
100
AcDbEntity
  8
0
100
AcDbBlockBegin
  2
*D13
 70
     1
 10
0.0
 20
0.0
 30
0.0
  3
*D13
  1

  0
LINE
  5
1D01
330
4A4
100
AcDbEntity
  8
実形
 62
     0
370
    15
100
AcDbLine
 10
806.4575016666076
 20
1273.359507154115
 30
0.0
 11
806.4575016666076
 21
1112.635479228191
 31
0.0
  0
LINE
  5
1D02
330
4A4
100
AcDbEntity
  8
実形
 62
     0
370
    15
100
AcDbLine
 10
1136.457501666607
 20
1273.359507154115
 30
0.0
 11
1136.457501666607
 21
1112.635479228191
 31
0.0
  0
LINE
  5
1D03
330
4A4
100
AcDbEntity
  8
実形
 62
     0
370
    18
100
AcDbLine
 10
806.4575016666076
 20
1112.635479228191
 30
0.0
 11
1136.457501666607
 21
1112.635479228191
 31
0.0
  0
INSERT
  5
1D04
330
4A4
100
AcDbEntity
  8
実形
 62
     0
370
    18
100
AcDbBlockReference
  2
_DotSmall
 10
806.4575016666076
 20
1112.635479228191
 30
0.0
 41
25.0
 42
25.0
 43
25.0
 50
180.0
  0
INSERT
  5
1D05
330
4A4
100
AcDbEntity
  8
実形
 62
     0
370
    18
100
AcDbBlockReference
  2
_DotSmall
 10
1136.457501666607
 20
1112.635479228191
 30
0.0
 41
25.0
 42
25.0
 43
25.0
  0
MTEXT
  5
1D06
330
4A4
100
AcDbEntity
  8
実形
 62
     0
100
AcDbMText
 10
971.4575016666076
 20
1131.385479228191
 30
0.0
 40
25.0
 41
0.0
 71
     5
 72
     1
  1
330
 73
     1
 44
1.0
1001
ACAD
1000
MTEXTBEGIN
1070
    73
1070
     1
1070
    44
1040
1.0
1070
    74
1070
     0
1000
MTEXTEND
  0
POINT
  5
1D07
330
4A4
100
AcDbEntity
  8
Defpoints
 62
     0
100
AcDbPoint
 10
806.4575016666076
 20
1338.359507154115
 30
0.0
  0
POINT
  5
1D08
330
4A4
100
AcDbEntity
  8
Defpoints
 62
     0
100
AcDbPoint
 10
1136.457501666607
 20
1338.359507154115
 30
0.0
  0
POINT
  5
1D09
330
4A4
100
AcDbEntity
  8
Defpoints
 62
     0
100
AcDbPoint
 10
1136.457501666607
 20
1112.635479228191
 30
0.0
  0
ENDBLK
  5
4AF
330
4A4
100
AcDbEntity
  8
0
100
AcDbBlockEnd
  0
BLOCK
  5
503
330
4F9
100
AcDbEntity
  8
0
100
AcDbBlockBegin
  2
*D14
 70
     1
 10
0.0
 20
0.0
 30
0.0
  3
*D14
  1

  0
LINE
  5
1D0A
330
4F9
100
AcDbEntity
  8
実形
 62
     0
370
    15
100
AcDbLine
 10
927.4575016666076
 20
673.3595071541149
 30
0.0
 11
927.4575016666076
 21
621.932099853042
 31
0.0
  0
LINE
  5
1D0B
330
4F9
100
AcDbEntity
  8
実形
 62
     0
370
    15
100
AcDbLine
 10
1015.457501666607
 20
673.3595071541149
 30
0.0
 11
1015.457501666607
 21
621.932099853042
 31
0.0
  0
LINE
  5
1D0C
330
4F9
100
AcDbEntity
  8
実形
 62
     0
370
    18
100
AcDbLine
 10
927.4575016666076
 20
621.932099853042
 30
0.0
 11
1015.457501666607
 21
621.932099853042
 31
0.0
  0
INSERT
  5
1D0D
330
4F9
100
AcDbEntity
  8
実形
 62
     0
370
    18
100
AcDbBlockReference
  2
_DotSmall
 10
927.4575016666076
 20
621.932099853042
 30
0.0
 41
25.0
 42
25.0
 43
25.0
 50
180.0
  0
INSERT
  5
1D0E
330
4F9
100
AcDbEntity
  8
実形
 62
     0
370
    18
100
AcDbBlockReference
  2
_DotSmall
 10
1015.457501666607
 20
621.932099853042
 30
0.0
 41
25.0
 42
25.0
 43
25.0
  0
MTEXT
  5
1D0F
330
4F9
100
AcDbEntity
  8
実形
 62
     0
100
AcDbMText
 10
971.4575016666076
 20
640.682099853042
 30
0.0
 40
25.0
 41
0.0
 71
     5
 72
     1
  1
88
 73
     1
 44
1.0
1001
ACAD
1000
MTEXTBEGIN
1070
    73
1070
     1
1070
    44
1040
1.0
1070
    74
1070
     0
1000
MTEXTEND
  0
POINT
  5
1D10
330
4F9
100
AcDbEntity
  8
Defpoints
 62
     0
100
AcDbPoint
 10
927.4575016666076
 20
738.3595071541149
 30
0.0
  0
POINT
  5
1D11
330
4F9
100
AcDbEntity
  8
Defpoints
 62
     0
100
AcDbPoint
 10
1015.457501666607
 20
738.3595071541149
 30
0.0
  0
POINT
  5
1D12
330
4F9
100
AcDbEntity
  8
Defpoints
 62
     0
100
AcDbPoint
 10
1015.457501666607
 20
621.932099853042
 30
0.0
  0
ENDBLK
  5
504
330
4F9
100
AcDbEntity
  8
0
100
AcDbBlockEnd
  0
BLOCK
  5
510
330
506
100
AcDbEntity
  8
0
100
AcDbBlockBegin
  2
*D15
 70
     1
 10
0.0
 20
0.0
 30
0.0
  3
*D15
  1

  0
LINE
  5
1D13
330
506
100
AcDbEntity
  8
実形
 62
     0
370
    15
100
AcDbLine
 10
913.4575016666076
 20
673.3595071541149
 30
0.0
 11
913.4575016666076
 21
561.972701284113
 31
0.0
  0
LINE
  5
1D14
330
506
100
AcDbEntity
  8
実形
 62
     0
370
    15
100
AcDbLine
 10
1029.457501666607
 20
673.3595071541149
 30
0.0
 11
1029.457501666607
 21
561.972701284113
 31
0.0
  0
LINE
  5
1D15
330
506
100
AcDbEntity
  8
実形
 62
     0
370
    18
100
AcDbLine
 10
913.4575016666076
 20
561.972701284113
 30
0.0
 11
1029.457501666607
 21
561.972701284113
 31
0.0
  0
INSERT
  5
1D16
330
506
100
AcDbEntity
  8
実形
 62
     0
370
    18
100
AcDbBlockReference
  2
_DotSmall
 10
913.4575016666076
 20
561.972701284113
 30
0.0
 41
25.0
 42
25.0
 43
25.0
 50
180.0
  0
INSERT
  5
1D17
330
506
100
AcDbEntity
  8
実形
 62
     0
370
    18
100
AcDbBlockReference
  2
_DotSmall
 10
1029.457501666607
 20
561.972701284113
 30
0.0
 41
25.0
 42
25.0
 43
25.0
  0
MTEXT
  5
1D18
330
506
100
AcDbEntity
  8
実形
 62
     0
100
AcDbMText
 10
971.4575016666076
 20
580.722701284113
 30
0.0
 40
25.0
 41
0.0
 71
     5
 72
     1
  1
116
 73
     1
 44
1.0
1001
ACAD
1000
MTEXTBEGIN
1070
    73
1070
     1
1070
    44
1040
1.0
1070
    74
1070
     0
1000
MTEXTEND
  0
POINT
  5
1D19
330
506
100
AcDbEntity
  8
Defpoints
 62
     0
100
AcDbPoint
 10
913.4575016666076
 20
738.3595071541149
 30
0.0
  0
POINT
  5
1D1A
330
506
100
AcDbEntity
  8
Defpoints
 62
     0
100
AcDbPoint
 10
1029.457501666607
 20
738.3595071541149
 30
0.0
  0
POINT
  5
1D1B
330
506
100
AcDbEntity
  8
Defpoints
 62
     0
100
AcDbPoint
 10
1029.457501666607
 20
561.972701284113
 30
0.0
  0
ENDBLK
  5
511
330
506
100
AcDbEntity
  8
0
100
AcDbBlockEnd
  0
BLOCK
  5
574
330
56A
100
AcDbEntity
  8
0
100
AcDbBlockBegin
  2
*D16
 70
     1
 10
0.0
 20
0.0
 30
0.0
  3
*D16
  1

  0
LINE
  5
1D1C
330
56A
100
AcDbEntity
  8
実形
 62
     0
370
    15
100
AcDbLine
 10
1811.457501666607
 20
1547.359507154115
 30
0.0
 11
1856.763645758528
 21
1547.359507154115
 31
0.0
  0
LINE
  5
1D1D
330
56A
100
AcDbEntity
  8
実形
 62
     0
370
    15
100
AcDbLine
 10
1811.457501666607
 20
1459.359507154115
 30
0.0
 11
1856.763645758528
 21
1459.359507154115
 31
0.0
  0
LINE
  5
1D1E
330
56A
100
AcDbEntity
  8
実形
 62
     0
370
    18
100
AcDbLine
 10
1856.763645758528
 20
1547.359507154115
 30
0.0
 11
1856.763645758528
 21
1459.359507154115
 31
0.0
  0
INSERT
  5
1D1F
330
56A
100
AcDbEntity
  8
実形
 62
     0
370
    18
100
AcDbBlockReference
  2
_DotSmall
 10
1856.763645758528
 20
1547.359507154115
 30
0.0
 41
25.0
 42
25.0
 43
25.0
 50
90.0
  0
INSERT
  5
1D20
330
56A
100
AcDbEntity
  8
実形
 62
     0
370
    18
100
AcDbBlockReference
  2
_DotSmall
 10
1856.763645758528
 20
1459.359507154115
 30
0.0
 41
25.0
 42
25.0
 43
25.0
 50
270.0
  0
MTEXT
  5
1D21
330
56A
100
AcDbEntity
  8
実形
 62
     0
100
AcDbMText
 10
1838.013645758527
 20
1503.359507154115
 30
0.0
 40
25.0
 41
0.0
 71
     5
 72
     1
  1
88
 11
0.0000000000000001
 21
1.0
 31
0.0
 73
     1
 44
1.0
1001
ACAD
1000
MTEXTBEGIN
1070
    73
1070
     1
1070
    44
1040
1.0
1070
    74
1070
     0
1000
MTEXTEND
  0
POINT
  5
1D22
330
56A
100
AcDbEntity
  8
Defpoints
 62
     0
100
AcDbPoint
 10
1746.457501666608
 20
1547.359507154115
 30
0.0
  0
POINT
  5
1D23
330
56A
100
AcDbEntity
  8
Defpoints
 62
     0
100
AcDbPoint
 10
1746.457501666608
 20
1459.359507154115
 30
0.0
  0
POINT
  5
1D24
330
56A
100
AcDbEntity
  8
Defpoints
 62
     0
100
AcDbPoint
 10
1856.763645758528
 20
1459.359507154115
 30
0.0
  0
ENDBLK
  5
575
330
56A
100
AcDbEntity
  8
0
100
AcDbBlockEnd
  0
BLOCK
  5
58A
330
580
100
AcDbEntity
  8
0
100
AcDbBlockBegin
  2
*D17
 70
     1
 10
0.0
 20
0.0
 30
0.0
  3
*D17
  1

  0
LINE
  5
1D25
330
580
100
AcDbEntity
  8
実形
 62
     0
370
    15
100
AcDbLine
 10
1811.457501666607
 20
1561.359507154115
 30
0.0
 11
1921.685233723369
 21
1561.359507154115
 31
0.0
  0
LINE
  5
1D26
330
580
100
AcDbEntity
  8
実形
 62
     0
370
    15
100
AcDbLine
 10
1811.457501666607
 20
1445.359507154115
 30
0.0
 11
1921.685233723369
 21
1445.359507154115
 31
0.0
  0
LINE
  5
1D27
330
580
100
AcDbEntity
  8
実形
 62
     0
370
    18
100
AcDbLine
 10
1921.685233723369
 20
1561.359507154115
 30
0.0
 11
1921.685233723369
 21
1445.359507154115
 31
0.0
  0
INSERT
  5
1D28
330
580
100
AcDbEntity
  8
実形
 62
     0
370
    18
100
AcDbBlockReference
  2
_DotSmall
 10
1921.685233723369
 20
1561.359507154115
 30
0.0
 41
25.0
 42
25.0
 43
25.0
 50
90.0
  0
INSERT
  5
1D29
330
580
100
AcDbEntity
  8
実形
 62
     0
370
    18
100
AcDbBlockReference
  2
_DotSmall
 10
1921.685233723369
 20
1445.359507154115
 30
0.0
 41
25.0
 42
25.0
 43
25.0
 50
270.0
  0
MTEXT
  5
1D2A
330
580
100
AcDbEntity
  8
実形
 62
     0
100
AcDbMText
 10
1902.935233723369
 20
1503.359507154115
 30
0.0
 40
25.0
 41
0.0
 71
     5
 72
     1
  1
116
 11
0.0000000000000001
 21
1.0
 31
0.0
 73
     1
 44
1.0
1001
ACAD
1000
MTEXTBEGIN
1070
    73
1070
     1
1070
    44
1040
1.0
1070
    74
1070
     0
1000
MTEXTEND
  0
POINT
  5
1D2B
330
580
100
AcDbEntity
  8
Defpoints
 62
     0
100
AcDbPoint
 10
1746.457501666608
 20
1561.359507154115
 30
0.0
  0
POINT
  5
1D2C
330
580
100
AcDbEntity
  8
Defpoints
 62
     0
100
AcDbPoint
 10
1746.457501666608
 20
1445.359507154115
 30
0.0
  0
POINT
  5
1D2D
330
580
100
AcDbEntity
  8
Defpoints
 62
     0
100
AcDbPoint
 10
1921.685233723369
 20
1445.359507154115
 30
0.0
  0
ENDBLK
  5
58B
330
580
100
AcDbEntity
  8
0
100
AcDbBlockEnd
  0
BLOCK
  5
16DF
330
16D5
100
AcDbEntity
  8
0
100
AcDbBlockBegin
  2
*D18
 70
     1
 10
0.0
 20
0.0
 30
0.0
  3
*D18
  1

  0
LINE
  5
1D2E
330
16D5
100
AcDbEntity
  8
実形
 62
     0
370
    15
100
AcDbLine
 10
1586.457501666608
 20
1530.859507154115
 30
0.0
 11
1586.457501666608
 21
1596.326785290435
 31
0.0
  0
LINE
  5
1D2F
330
16D5
100
AcDbEntity
  8
実形
 62
     0
370
    15
100
AcDbLine
 10
1636.457501666608
 20
1568.359507154115
 30
0.0
 11
1636.457501666608
 21
1596.326785290435
 31
0.0
  0
LINE
  5
1D30
330
16D5
100
AcDbEntity
  8
実形
 62
     0
370
    18
100
AcDbLine
 10
1586.457501666608
 20
1596.326785290435
 30
0.0
 11
1636.457501666608
 21
1596.326785290435
 31
0.0
  0
MTEXT
  5
1D31
330
16D5
100
AcDbEntity
  8
実形
 62
     0
100
AcDbMText
 10
1613.453888651422
 20
1619.965856668878
 30
0.0
 40
25.0
 41
0.0
 71
     5
 72
     1
  1
50
 73
     1
 44
1.0
1001
ACAD
1000
MTEXTBEGIN
1070
    73
1070
     1
1070
    44
1040
1.0
1070
    74
1070
     0
1000
MTEXTEND
  0
INSERT
  5
1D32
330
16D5
100
AcDbEntity
  8
実形
 62
     0
370
    18
100
AcDbBlockReference
  2
_DotSmall
 10
1586.457501666608
 20
1596.326785290435
 30
0.0
 41
25.0
 42
25.0
 43
25.0
 50
180.0
  0
INSERT
  5
1D33
330
16D5
100
AcDbEntity
  8
実形
 62
     0
370
    18
100
AcDbBlockReference
  2
_DotSmall
 10
1636.457501666608
 20
1596.326785290435
 30
0.0
 41
25.0
 42
25.0
 43
25.0
  0
POINT
  5
1D34
330
16D5
100
AcDbEntity
  8
Defpoints
 62
     0
100
AcDbPoint
 10
1586.457501666608
 20
1465.859507154115
 30
0.0
  0
POINT
  5
1D35
330
16D5
100
AcDbEntity
  8
Defpoints
 62
     0
100
AcDbPoint
 10
1636.457501666608
 20
1503.359507154115
 30
0.0
  0
POINT
  5
1D36
330
16D5
100
AcDbEntity
  8
Defpoints
 62
     0
100
AcDbPoint
 10
1636.457501666608
 20
1596.326785290435
 30
0.0
  0
ENDBLK
  5
16E0
330
16D5
100
AcDbEntity
  8
0
100
AcDbBlockEnd
  0
BLOCK
  5
16EB
330
16E1
100
AcDbEntity
  8
0
100
AcDbBlockBegin
  2
*D19
 70
     1
 10
0.0
 20
0.0
 30
0.0
  3
*D19
  1

  0
LINE
  5
1D37
330
16E1
100
AcDbEntity
  8
実形
 62
     0
370
    18
100
AcDbLine
 10
1591.98889375633
 20
680.4618646032978
 30
0.0
 11
1591.98889375633
 21
812.5878279662785
 31
0.0
  0
LINE
  5
1D38
330
16E1
100
AcDbEntity
  8
実形
 62
     0
370
    18
100
AcDbLine
 10
1966.98889375633
 20
680.4618646032978
 30
0.0
 11
1966.98889375633
 21
812.5878279662785
 31
0.0
  0
LINE
  5
1D39
330
16E1
100
AcDbEntity
  8
実形
 62
     0
370
    18
100
AcDbLine
 10
1591.98889375633
 20
812.5878279662785
 30
0.0
 11
1966.98889375633
 21
812.5878279662785
 31
0.0
  0
INSERT
  5
1D3A
330
16E1
100
AcDbEntity
  8
実形
 62
     0
370
    18
100
AcDbBlockReference
  2
_DotSmall
 10
1591.98889375633
 20
812.5878279662785
 30
0.0
 41
25.0
 42
25.0
 43
25.0
 50
180.0
  0
INSERT
  5
1D3B
330
16E1
100
AcDbEntity
  8
実形
 62
     0
370
    18
100
AcDbBlockReference
  2
_DotSmall
 10
1966.98889375633
 20
812.5878279662785
 30
0.0
 41
25.0
 42
25.0
 43
25.0
  0
MTEXT
  5
1D3C
330
16E1
100
AcDbEntity
  8
実形
 62
     0
100
AcDbMText
 10
1779.48889375633
 20
831.3378279662785
 30
0.0
 40
25.0
 41
0.0
 71
     5
 72
     1
  1
75
 73
     1
 44
1.0
1001
ACAD
1000
MTEXTBEGIN
1070
    73
1070
     1
1070
    44
1040
1.0
1070
    74
1070
     0
1000
MTEXTEND
  0
POINT
  5
1D3D
330
16E1
100
AcDbEntity
  8
Defpoints
 62
     0
100
AcDbPoint
 10
1591.98889375633
 20
615.4618646032978
 30
0.0
  0
POINT
  5
1D3E
330
16E1
100
AcDbEntity
  8
Defpoints
 62
     0
100
AcDbPoint
 10
1966.98889375633
 20
615.4618646032978
 30
0.0
  0
POINT
  5
1D3F
330
16E1
100
AcDbEntity
  8
Defpoints
 62
     0
100
AcDbPoint
 10
1966.98889375633
 20
812.5878279662785
 30
0.0
  0
ENDBLK
  5
16EC
330
16E1
100
AcDbEntity
  8
0
100
AcDbBlockEnd
  0
BLOCK
  5
16F7
330
16ED
100
AcDbEntity
  8
0
100
AcDbBlockBegin
  2
*D20
 70
     1
 10
0.0
 20
0.0
 30
0.0
  3
*D20
  1

  0
LINE
  5
1D40
330
16ED
100
AcDbEntity
  8
実形
 62
     0
370
    18
100
AcDbLine
 10
1939.48889375633
 20
680.4618646032978
 30
0.0
 11
1939.48889375633
 21
765.3806013418881
 31
0.0
  0
LINE
  5
1D41
330
16ED
100
AcDbEntity
  8
実形
 62
     0
370
    18
100
AcDbLine
 10
1619.488893756329
 20
680.4618646032978
 30
0.0
 11
1619.488893756329
 21
765.3806013418881
 31
0.0
  0
LINE
  5
1D42
330
16ED
100
AcDbEntity
  8
実形
 62
     0
370
    18
100
AcDbLine
 10
1939.48889375633
 20
765.3806013418881
 30
0.0
 11
1619.488893756329
 21
765.3806013418881
 31
0.0
  0
INSERT
  5
1D43
330
16ED
100
AcDbEntity
  8
実形
 62
     0
370
    18
100
AcDbBlockReference
  2
_DotSmall
 10
1939.48889375633
 20
765.3806013418881
 30
0.0
 41
25.0
 42
25.0
 43
25.0
  0
INSERT
  5
1D44
330
16ED
100
AcDbEntity
  8
実形
 62
     0
370
    18
100
AcDbBlockReference
  2
_DotSmall
 10
1619.488893756329
 20
765.3806013418881
 30
0.0
 41
25.0
 42
25.0
 43
25.0
 50
180.0
  0
MTEXT
  5
1D45
330
16ED
100
AcDbEntity
  8
実形
 62
     0
100
AcDbMText
 10
1779.48889375633
 20
784.1306013418881
 30
0.0
 40
25.0
 41
0.0
 71
     5
 72
     1
  1
64
 73
     1
 44
1.0
1001
ACAD
1000
MTEXTBEGIN
1070
    73
1070
     1
1070
    44
1040
1.0
1070
    74
1070
     0
1000
MTEXTEND
  0
POINT
  5
1D46
330
16ED
100
AcDbEntity
  8
Defpoints
 62
     0
100
AcDbPoint
 10
1939.48889375633
 20
615.4618646032978
 30
0.0
  0
POINT
  5
1D47
330
16ED
100
AcDbEntity
  8
Defpoints
 62
     0
100
AcDbPoint
 10
1619.488893756329
 20
615.4618646032978
 30
0.0
  0
POINT
  5
1D48
330
16ED
100
AcDbEntity
  8
Defpoints
 62
     0
100
AcDbPoint
 10
1619.488893756329
 20
765.3806013418881
 30
0.0
  0
ENDBLK
  5
16F8
330
16ED
100
AcDbEntity
  8
0
100
AcDbBlockEnd
  0
BLOCK
  5
1703
330
16F9
100
AcDbEntity
  8
0
100
AcDbBlockBegin
  2
*D21
 70
     1
 10
0.0
 20
0.0
 30
0.0
  3
*D21
  1

  0
LINE
  5
1D49
330
16F9
100
AcDbEntity
  8
実形
 62
     0
370
    18
100
AcDbLine
 10
1654.48889375633
 20
680.4618646032978
 30
0.0
 11
1654.48889375633
 21
714.345761876607
 31
0.0
  0
LINE
  5
1D4A
330
16F9
100
AcDbEntity
  8
実形
 62
     0
370
    18
100
AcDbLine
 10
1904.48889375633
 20
680.4618646032978
 30
0.0
 11
1904.48889375633
 21
714.345761876607
 31
0.0
  0
LINE
  5
1D4B
330
16F9
100
AcDbEntity
  8
実形
 62
     0
370
    18
100
AcDbLine
 10
1654.48889375633
 20
714.345761876607
 30
0.0
 11
1904.48889375633
 21
714.345761876607
 31
0.0
  0
INSERT
  5
1D4C
330
16F9
100
AcDbEntity
  8
実形
 62
     0
370
    18
100
AcDbBlockReference
  2
_DotSmall
 10
1654.48889375633
 20
714.345761876607
 30
0.0
 41
25.0
 42
25.0
 43
25.0
 50
180.0
  0
INSERT
  5
1D4D
330
16F9
100
AcDbEntity
  8
実形
 62
     0
370
    18
100
AcDbBlockReference
  2
_DotSmall
 10
1904.48889375633
 20
714.345761876607
 30
0.0
 41
25.0
 42
25.0
 43
25.0
  0
MTEXT
  5
1D4E
330
16F9
100
AcDbEntity
  8
実形
 62
     0
100
AcDbMText
 10
1779.48889375633
 20
733.095761876607
 30
0.0
 40
25.0
 41
0.0
 71
     5
 72
     1
  1
50
 73
     1
 44
1.0
1001
ACAD
1000
MTEXTBEGIN
1070
    73
1070
     1
1070
    44
1040
1.0
1070
    74
1070
     0
1000
MTEXTEND
  0
POINT
  5
1D4F
330
16F9
100
AcDbEntity
  8
Defpoints
 62
     0
100
AcDbPoint
 10
1654.48889375633
 20
615.4618646032978
 30
0.0
  0
POINT
  5
1D50
330
16F9
100
AcDbEntity
  8
Defpoints
 62
     0
100
AcDbPoint
 10
1904.48889375633
 20
615.4618646032978
 30
0.0
  0
POINT
  5
1D51
330
16F9
100
AcDbEntity
  8
Defpoints
 62
     0
100
AcDbPoint
 10
1904.48889375633
 20
714.345761876607
 30
0.0
  0
ENDBLK
  5
1704
330
16F9
100
AcDbEntity
  8
0
100
AcDbBlockEnd
  0
BLOCK
  5
170F
330
1705
100
AcDbEntity
  8
0
100
AcDbBlockBegin
  2
*D22
 70
     1
 10
0.0
 20
0.0
 30
0.0
  3
*D22
  1

  0
LINE
  5
1D52
330
1705
100
AcDbEntity
  8
実形
 62
     0
370
    18
100
AcDbLine
 10
2031.98889375633
 20
640.9618646032978
 30
0.0
 11
2114.409571816032
 21
640.9618646032978
 31
0.0
  0
LINE
  5
1D53
330
1705
100
AcDbEntity
  8
実形
 62
     0
370
    18
100
AcDbLine
 10
2031.98889375633
 20
489.9618646032978
 30
0.0
 11
2114.409571816032
 21
489.9618646032978
 31
0.0
  0
LINE
  5
1D54
330
1705
100
AcDbEntity
  8
実形
 62
     0
370
    18
100
AcDbLine
 10
2114.409571816032
 20
640.9618646032978
 30
0.0
 11
2114.409571816032
 21
489.9618646032978
 31
0.0
  0
INSERT
  5
1D55
330
1705
100
AcDbEntity
  8
実形
 62
     0
370
    18
100
AcDbBlockReference
  2
_DotSmall
 10
2114.409571816032
 20
640.9618646032978
 30
0.0
 41
25.0
 42
25.0
 43
25.0
 50
90.0
  0
INSERT
  5
1D56
330
1705
100
AcDbEntity
  8
実形
 62
     0
370
    18
100
AcDbBlockReference
  2
_DotSmall
 10
2114.409571816032
 20
489.9618646032978
 30
0.0
 41
25.0
 42
25.0
 43
25.0
 50
270.0
  0
MTEXT
  5
1D57
330
1705
100
AcDbEntity
  8
実形
 62
     0
100
AcDbMText
 10
2095.659571816033
 20
565.4618646032981
 30
0.0
 40
25.0
 41
0.0
 71
     5
 72
     1
  1
31
 11
0.0000000000000001
 21
1.0
 31
0.0
 73
     1
 44
1.0
1001
ACAD
1000
MTEXTBEGIN
1070
    73
1070
     1
1070
    44
1040
1.0
1070
    74
1070
     0
1000
MTEXTEND
  0
POINT
  5
1D58
330
1705
100
AcDbEntity
  8
Defpoints
 62
     0
100
AcDbPoint
 10
1966.98889375633
 20
640.9618646032978
 30
0.0
  0
POINT
  5
1D59
330
1705
100
AcDbEntity
  8
Defpoints
 62
     0
100
AcDbPoint
 10
1966.98889375633
 20
489.9618646032978
 30
0.0
  0
POINT
  5
1D5A
330
1705
100
AcDbEntity
  8
Defpoints
 62
     0
100
AcDbPoint
 10
2114.409571816032
 20
489.9618646032978
 30
0.0
  0
ENDBLK
  5
1710
330
1705
100
AcDbEntity
  8
0
100
AcDbBlockEnd
  0
BLOCK
  5
171B
330
1711
100
AcDbEntity
  8
0
100
AcDbBlockBegin
  2
*D23
 70
     1
 10
0.0
 20
0.0
 30
0.0
  3
*D23
  1

  0
LINE
  5
1D5B
330
1711
100
AcDbEntity
  8
実形
 62
     0
370
    18
100
AcDbLine
 10
2031.98889375633
 20
615.4618646032978
 30
0.0
 11
2068.441906526922
 21
615.4618646032978
 31
0.0
  0
LINE
  5
1D5C
330
1711
100
AcDbEntity
  8
実形
 62
     0
370
    18
100
AcDbLine
 10
2031.98889375633
 20
515.4618646032978
 30
0.0
 11
2068.441906526922
 21
515.4618646032978
 31
0.0
  0
LINE
  5
1D5D
330
1711
100
AcDbEntity
  8
実形
 62
     0
370
    18
100
AcDbLine
 10
2068.441906526922
 20
615.4618646032978
 30
0.0
 11
2068.441906526922
 21
515.4618646032978
 31
0.0
  0
INSERT
  5
1D5E
330
1711
100
AcDbEntity
  8
実形
 62
     0
370
    18
100
AcDbBlockReference
  2
_DotSmall
 10
2068.441906526922
 20
615.4618646032978
 30
0.0
 41
25.0
 42
25.0
 43
25.0
 50
90.0
  0
INSERT
  5
1D5F
330
1711
100
AcDbEntity
  8
実形
 62
     0
370
    18
100
AcDbBlockReference
  2
_DotSmall
 10
2068.441906526922
 20
515.4618646032978
 30
0.0
 41
25.0
 42
25.0
 43
25.0
 50
270.0
  0
MTEXT
  5
1D60
330
1711
100
AcDbEntity
  8
実形
 62
     0
100
AcDbMText
 10
2049.691906526922
 20
565.4618646032981
 30
0.0
 40
25.0
 41
0.0
 71
     5
 72
     1
  1
20
 11
0.0000000000000001
 21
1.0
 31
0.0
 73
     1
 44
1.0
1001
ACAD
1000
MTEXTBEGIN
1070
    73
1070
     1
1070
    44
1040
1.0
1070
    74
1070
     0
1000
MTEXTEND
  0
POINT
  5
1D61
330
1711
100
AcDbEntity
  8
Defpoints
 62
     0
100
AcDbPoint
 10
1966.98889375633
 20
615.4618646032978
 30
0.0
  0
POINT
  5
1D62
330
1711
100
AcDbEntity
  8
Defpoints
 62
     0
100
AcDbPoint
 10
1966.98889375633
 20
515.4618646032978
 30
0.0
  0
POINT
  5
1D63
330
1711
100
AcDbEntity
  8
Defpoints
 62
     0
100
AcDbPoint
 10
2068.441906526922
 20
515.4618646032978
 30
0.0
  0
ENDBLK
  5
171C
330
1711
100
AcDbEntity
  8
0
100
AcDbBlockEnd
  0
BLOCK
  5
1895
330
188C
100
AcDbEntity
  8
0
100
AcDbBlockBegin
  2
*D24
 70
     1
 10
0.0
 20
0.0
 30
0.0
  3
*D24
  1

  0
LINE
  5
1D64
330
188C
100
AcDbEntity
  8
実形
 62
     0
370
    15
100
AcDbLine
 10
788.957501666608
 20
763.3595071541149
 30
0.0
 11
735.0657511789009
 21
763.359507154115
 31
0.0
  0
LINE
  5
1D65
330
188C
100
AcDbEntity
  8
実形
 62
     0
370
    15
100
AcDbLine
 10
788.957501666608
 20
748.3595071541149
 30
0.0
 11
735.0657511789009
 21
748.359507154115
 31
0.0
  0
LINE
  5
1D66
330
188C
100
AcDbEntity
  8
実形
 62
     0
370
    15
100
AcDbLine
 10
735.0657511789009
 20
763.359507154115
 30
0.0
 11
735.0657511789009
 21
748.359507154115
 31
0.0
  0
INSERT
  5
1D67
330
188C
100
AcDbEntity
  8
実形
 62
     0
370
    15
100
AcDbBlockReference
  2
_DotSmall
 10
735.0657511789009
 20
763.359507154115
 30
0.0
 41
25.0
 42
25.0
 43
25.0
 50
90.0
  0
INSERT
  5
1D68
330
188C
100
AcDbEntity
  8
実形
 62
     0
370
    15
100
AcDbBlockReference
  2
_DotSmall
 10
735.0657511789009
 20
748.359507154115
 30
0.0
 41
25.0
 42
25.0
 43
25.0
 50
270.0
  0
POINT
  5
1D69
330
188C
100
AcDbEntity
  8
Defpoints
 62
     0
100
AcDbPoint
 10
853.9575016666081
 20
763.3595071541149
 30
0.0
  0
POINT
  5
1D6A
330
188C
100
AcDbEntity
  8
Defpoints
 62
     0
100
AcDbPoint
 10
853.9575016666081
 20
748.3595071541149
 30
0.0
  0
POINT
  5
1D6B
330
188C
100
AcDbEntity
  8
Defpoints
 62
     0
100
AcDbPoint
 10
735.0657511789009
 20
748.359507154115
 30
0.0
  0
ENDBLK
  5
1896
330
188C
100
AcDbEntity
  8
0
100
AcDbBlockEnd
  0
BLOCK
  5
18A1
330
1897
100
AcDbEntity
  8
0
100
AcDbBlockBegin
  2
*D25
 70
     1
 10
0.0
 20
0.0
 30
0.0
  3
*D25
  1

  0
LINE
  5
1D6C
330
1897
100
AcDbEntity
  8
実形
 62
     0
370
    15
100
AcDbLine
 10
786.8181370106685
 20
898.3595071541149
 30
0.0
 11
666.3014374336581
 21
898.3595071541151
 31
0.0
  0
LINE
  5
1D6D
330
1897
100
AcDbEntity
  8
実形
 62
     0
370
    15
100
AcDbLine
 10
788.957501666608
 20
748.3595071541149
 30
0.0
 11
666.301437433658
 21
748.359507154115
 31
0.0
  0
LINE
  5
1D6E
330
1897
100
AcDbEntity
  8
実形
 62
     0
370
    15
100
AcDbLine
 10
666.3014374336581
 20
898.3595071541151
 30
0.0
 11
666.301437433658
 21
748.359507154115
 31
0.0
  0
INSERT
  5
1D6F
330
1897
100
AcDbEntity
  8
実形
 62
     0
370
    15
100
AcDbBlockReference
  2
_DotSmall
 10
666.3014374336581
 20
898.3595071541151
 30
0.0
 41
25.0
 42
25.0
 43
25.0
 50
90.0
  0
INSERT
  5
1D70
330
1897
100
AcDbEntity
  8
実形
 62
     0
370
    15
100
AcDbBlockReference
  2
_DotSmall
 10
666.301437433658
 20
748.359507154115
 30
0.0
 41
25.0
 42
25.0
 43
25.0
 50
270.0
  0
MTEXT
  5
1D71
330
1897
100
AcDbEntity
  8
実形
 62
     0
100
AcDbMText
 10
647.5514374336579
 20
823.3595071541151
 30
0.0
 40
25.0
 41
0.0
 71
     5
 72
     1
  1
150
 11
0.0000000000000001
 21
1.0
 31
0.0
 73
     1
 44
1.0
1001
ACAD
1000
MTEXTBEGIN
1070
    73
1070
     1
1070
    44
1040
1.0
1070
    74
1070
     0
1000
MTEXTEND
  0
POINT
  5
1D72
330
1897
100
AcDbEntity
  8
Defpoints
 62
     0
100
AcDbPoint
 10
851.8181370106685
 20
898.3595071541149
 30
0.0
  0
POINT
  5
1D73
330
1897
100
AcDbEntity
  8
Defpoints
 62
     0
100
AcDbPoint
 10
853.9575016666081
 20
748.3595071541149
 30
0.0
  0
POINT
  5
1D74
330
1897
100
AcDbEntity
  8
Defpoints
 62
     0
100
AcDbPoint
 10
666.301437433658
 20
748.359507154115
 30
0.0
  0
ENDBLK
  5
18A2
330
1897
100
AcDbEntity
  8
0
100
AcDbBlockEnd
  0
BLOCK
  5
1ADB
330
1AD2
100
AcDbEntity
  8
0
100
AcDbBlockBegin
  2
*D26
 70
     1
 10
0.0
 20
0.0
 30
0.0
  3
*D26
  1

  0
LINE
  5
1D75
330
1AD2
100
AcDbEntity
  8
寸法
 62
     0
370
    15
100
AcDbLine
 10
1736.457501666607
 20
1298.493516178804
 30
0.0
 11
1736.457501666607
 21
1242.586782141369
 31
0.0
  0
LINE
  5
1D76
330
1AD2
100
AcDbEntity
  8
寸法
 62
     0
370
    15
100
AcDbLine
 10
1721.457501666608
 20
1298.493516178804
 30
0.0
 11
1721.457501666608
 21
1242.586782141369
 31
0.0
  0
LINE
  5
1D77
330
1AD2
100
AcDbEntity
  8
寸法
 62
     0
370
    18
100
AcDbLine
 10
1736.457501666607
 20
1242.586782141369
 30
0.0
 11
1721.457501666608
 21
1242.586782141369
 31
0.0
  0
INSERT
  5
1D78
330
1AD2
100
AcDbEntity
  8
寸法
 62
     0
370
    18
100
AcDbBlockReference
  2
_DotSmall
 10
1736.457501666607
 20
1242.586782141369
 30
0.0
 41
25.0
 42
25.0
 43
25.0
  0
INSERT
  5
1D79
330
1AD2
100
AcDbEntity
  8
寸法
 62
     0
370
    18
100
AcDbBlockReference
  2
_DotSmall
 10
1721.457501666608
 20
1242.586782141369
 30
0.0
 41
25.0
 42
25.0
 43
25.0
 50
180.0
  0
POINT
  5
1D7A
330
1AD2
100
AcDbEntity
  8
Defpoints
 62
     0
100
AcDbPoint
 10
1736.457501666607
 20
1363.493516178804
 30
0.0
  0
POINT
  5
1D7B
330
1AD2
100
AcDbEntity
  8
Defpoints
 62
     0
100
AcDbPoint
 10
1721.457501666608
 20
1363.493516178804
 30
0.0
  0
POINT
  5
1D7C
330
1AD2
100
AcDbEntity
  8
Defpoints
 62
     0
100
AcDbPoint
 10
1721.457501666608
 20
1242.586782141369
 30
0.0
  0
ENDBLK
  5
1ADC
330
1AD2
100
AcDbEntity
  8
0
100
AcDbBlockEnd
  0
BLOCK
  5
1AE7
330
1ADD
100
AcDbEntity
  8
0
100
AcDbBlockBegin
  2
*D27
 70
     1
 10
0.0
 20
0.0
 30
0.0
  3
*D27
  1

  0
LINE
  5
1D7D
330
1ADD
100
AcDbEntity
  8
寸法
 62
     0
370
    15
100
AcDbLine
 10
1736.457501666607
 20
1275.199554958367
 30
0.0
 11
1736.457501666607
 21
1179.215095242327
 31
0.0
  0
LINE
  5
1D7E
330
1ADD
100
AcDbEntity
  8
寸法
 62
     0
370
    15
100
AcDbLine
 10
1586.457501666608
 20
1297.366711402464
 30
0.0
 11
1586.457501666608
 21
1179.215095242327
 31
0.0
  0
LINE
  5
1D7F
330
1ADD
100
AcDbEntity
  8
寸法
 62
     0
370
    18
100
AcDbLine
 10
1736.457501666607
 20
1179.215095242327
 30
0.0
 11
1586.457501666608
 21
1179.215095242327
 31
0.0
  0
INSERT
  5
1D80
330
1ADD
100
AcDbEntity
  8
寸法
 62
     0
370
    18
100
AcDbBlockReference
  2
_DotSmall
 10
1736.457501666607
 20
1179.215095242327
 30
0.0
 41
25.0
 42
25.0
 43
25.0
  0
INSERT
  5
1D81
330
1ADD
100
AcDbEntity
  8
寸法
 62
     0
370
    18
100
AcDbBlockReference
  2
_DotSmall
 10
1586.457501666608
 20
1179.215095242327
 30
0.0
 41
25.0
 42
25.0
 43
25.0
 50
180.0
  0
MTEXT
  5
1D82
330
1ADD
100
AcDbEntity
  8
寸法
 62
     0
100
AcDbMText
 10
1661.457501666608
 20
1197.965095242327
 30
0.0
 40
25.0
 41
0.0
 71
     5
 72
     1
  1
150
 73
     1
 44
1.0
1001
ACAD
1000
MTEXTBEGIN
1070
    73
1070
     1
1070
    44
1040
1.0
1070
    74
1070
     0
1000
MTEXTEND
  0
POINT
  5
1D83
330
1ADD
100
AcDbEntity
  8
Defpoints
 62
     0
100
AcDbPoint
 10
1736.457501666607
 20
1340.199554958367
 30
0.0
  0
POINT
  5
1D84
330
1ADD
100
AcDbEntity
  8
Defpoints
 62
     0
100
AcDbPoint
 10
1586.457501666608
 20
1362.366711402464
 30
0.0
  0
POINT
  5
1D85
330
1ADD
100
AcDbEntity
  8
Defpoints
 62
     0
100
AcDbPoint
 10
1586.457501666608
 20
1179.215095242327
 30
0.0
  0
ENDBLK
  5
1AE8
330
1ADD
100
AcDbEntity
  8
0
100
AcDbBlockEnd
  0
ENDSEC
  0
SECTION
  2
ENTITIES
  0
LINE
  5
9C
330
1F
100
AcDbEntity
  8
補助
100
AcDbLine
 10
114.0
 20
4.0
 30
0.0
 11
2784.0
 21
4.0
 31
0.0
  0
LINE
  5
A0
330
1F
100
AcDbEntity
  8
補助
100
AcDbLine
 10
2784.0
 20
2024.0
 30
0.0
 11
114.0
 21
2024.0
 31
0.0
  0
LINE
  5
A5
330
1F
100
AcDbEntity
  8
補助
100
AcDbLine
 10
2784.0
 20
4.0
 30
0.0
 11
2784.0
 21
2024.0
 31
0.0
  0
TEXT
  5
2C9
330
1F
100
AcDbEntity
  8
0
100
AcDbText
 10
2274.214210627247
 20
149.4821326359474
 30
0.0
 40
35.0
  1
CI 300-300(OF)
 72
     4
 11
2477.214210627247
 21
166.9821326359474
 31
0.0
100
AcDbText
  0
LINE
  5
2E6
330
1F
100
AcDbEntity
  8
実形
100
AcDbLine
 10
806.4575016666076
 20
898.3595071541149
 30
0.0
 11
1136.457501666607
 21
898.3595071541149
 31
0.0
  0
CIRCLE
  5
2EB
330
1F
100
AcDbEntity
  8
実形
100
AcDbCircle
 10
971.4575016666076
 20
1503.359507154115
 30
0.0
 40
44.0
  0
CIRCLE
  5
2EE
330
1F
100
AcDbEntity
  8
実形
100
AcDbCircle
 10
971.4575016666076
 20
1503.359507154115
 30
0.0
 40
58.0
  0
LINE
  5
2FE
330
1F
100
AcDbEntity
  8
実形
100
AcDbLine
 10
1586.457501666608
 20
1668.359507154115
 30
0.0
 11
1586.457501666608
 21
1338.359507154115
 31
0.0
  0
LINE
  5
33A
330
1F
100
AcDbEntity
  8
実形
  6
ACAD_ISO08W100
 48
0.5
370
    15
100
AcDbLine
 10
886.2428008102192
 20
1503.359507154115
 30
0.0
 11
1056.672202522996
 21
1503.359507154115
 31
0.0
  0
LINE
  5
33B
330
1F
100
AcDbEntity
  8
実形
  6
ACAD_ISO08W100
 48
0.5
370
    15
100
AcDbLine
 10
971.4575016666076
 20
1588.574208010503
 30
0.0
 11
971.4575016666076
 21
1418.144806297726
 31
0.0
  0
LINE
  5
33C
330
1F
100
AcDbEntity
  8
実形
  6
ACAD_ISO08W100
 48
0.5
370
    15
100
AcDbLine
 10
971.4575016666076
 20
826.5761310295284
 30
0.0
 11
971.4575016666076
 21
670.1603107222281
 31
0.0
  0
LINE
  5
33D
330
1F
100
AcDbEntity
  8
実形
 48
0.5
370
    15
100
AcDbLine
 10
1659.921712987651
 20
1503.359507154115
 30
0.0
 11
1768.832665244712
 21
1503.359507154115
 31
0.0
  0
DIMENSION
  5
35B
330
1F
100
AcDbEntity
  8
実形
100
AcDbDimension
  2
*D4
 10
821.4575016666076
 20
1747.162625317523
 30
0.0
 11
896.4575016666076
 21
1765.912625317523
 31
0.0
 70
    32
 71
     5
 42
150.0
  3
ISO-25
100
AcDbAlignedDimension
 13
971.4575016666076
 23
1503.359507154115
 33
0.0
 14
821.4575016666076
 24
1593.826706059003
 34
0.0
100
AcDbRotatedDimension
1001
ACAD
1000
DSTYLE
1002
{
1070
    41
1040
25.0
1070
   371
1070
    18
1002
}
  0
DIMENSION
  5
368
330
1F
100
AcDbEntity
  8
実形
100
AcDbDimension
  2
*D5
 10
1234.060514285589
 20
1653.359507154115
 30
0.0
 11
1215.310514285589
 21
1578.359507154115
 31
0.0
 70
    32
 71
     5
 42
150.0
  3
ISO-25
100
AcDbAlignedDimension
 13
971.4575016666076
 23
1503.359507154115
 33
0.0
 14
1066.457501666607
 24
1653.359507154115
 34
0.0
 50
90.0
100
AcDbRotatedDimension
1001
ACAD
1000
DSTYLE
1002
{
1070
    41
1040
25.0
1070
   371
1070
    18
1002
}
  0
TEXT
  5
398
330
1F
100
AcDbEntity
  8
実形
370
    18
100
AcDbText
 10
987.0308067300493
 20
1412.937374236005
 30
0.0
 40
25.0
  1
60R
100
AcDbText
  0
TEXT
  5
3AF
330
1F
100
AcDbEntity
  8
実形
100
AcDbText
 10
990.9776112436638
 20
809.5887056147567
 30
0.0
 40
25.0
  1
30R
100
AcDbText
  0
TEXT
  5
3B1
330
1F
100
AcDbEntity
  8
実形
370
    18
100
AcDbText
 10
1604.876890401601
 20
1392.300277717835
 30
0.0
 40
25.0
  1
30R
100
AcDbText
  0
DIMENSION
  5
3CE
330
1F
100
AcDbEntity
  8
実形
100
AcDbDimension
  2
*D6
 10
663.2821869427344
 20
1653.359507154115
 30
0.0
 11
663.2821869427341
 21
1660.859507154115
 31
0.0
 70
    32
  1
 
 71
     5
 42
15.0
  3
ISO-25
100
AcDbAlignedDimension
 13
806.4575016666076
 23
1668.359507154115
 33
0.0
 14
806.4575016666076
 24
1653.359507154115
 34
0.0
 50
90.0
100
AcDbRotatedDimension
1001
ACAD
1000
DSTYLE
1002
{
1070
    41
1040
25.0
1070
   371
1070
    18
1002
}
  0
DIMENSION
  5
3DC
330
1F
100
AcDbEntity
  8
実形
100
AcDbDimension
  2
*D7
 10
663.2821869427344
 20
1353.359507154115
 30
0.0
 11
644.5321869427341
 21
1503.359507154115
 31
0.0
 70
    32
 71
     5
 42
300.0
  3
ISO-25
100
AcDbAlignedDimension
 13
806.4575016666076
 23
1653.359507154115
 33
0.0
 14
806.4575016666076
 24
1353.359507154115
 34
0.0
 50
90.0
100
AcDbRotatedDimension
1001
ACAD
1000
DSTYLE
1002
{
1070
    41
1040
25.0
1070
   371
1070
    18
1070
   279
1070
     1
1002
}
  0
DIMENSION
  5
3E9
330
1F
100
AcDbEntity
  8
実形
370
    18
100
AcDbDimension
  2
*D8
 10
663.2821869427344
 20
1338.359507154115
 30
0.0
 11
667.7160812381489
 21
1295.675266445888
 31
0.0
 70
   160
 71
     5
 42
15.0
  3
ISO-25
100
AcDbAlignedDimension
 13
806.4575016666076
 23
1353.359507154115
 33
0.0
 14
806.4575016666076
 24
1338.359507154115
 34
0.0
 50
90.0
100
AcDbRotatedDimension
1001
ACAD
1000
DSTYLE
1002
{
1070
    41
1040
25.0
1070
   371
1070
    18
1070
   279
1070
     1
1002
}
  0
DIMENSION
  5
3F6
330
1F
100
AcDbEntity
  8
実形
100
AcDbDimension
  2
*D9
 10
594.44228861805
 20
1338.359507154115
 30
0.0
 11
575.6922886180498
 21
1503.359507154115
 31
0.0
 70
    32
 71
     5
 42
330.0
  3
ISO-25
100
AcDbAlignedDimension
 13
806.4575016666076
 23
1668.359507154115
 33
0.0
 14
806.4575016666076
 24
1338.359507154115
 34
0.0
 50
90.0
100
AcDbRotatedDimension
1001
ACAD
1000
DSTYLE
1002
{
1070
    41
1040
25.0
1070
   371
1070
    18
1002
}
  0
TEXT
  5
43C
330
1F
100
AcDbEntity
  8
実形
370
    18
100
AcDbText
 10
667.7160812381489
 20
1693.61068009344
 30
0.0
 40
25.0
  1
15
 50
90.0
100
AcDbText
  0
DIMENSION
  5
43D
330
1F
100
AcDbEntity
  8
実形
100
AcDbDimension
  2
*D10
 10
821.4575016666076
 20
1190.42738938406
 30
0.0
 11
880.9575016666077
 21
1190.42738938406
 31
0.0
 70
   160
  1
 
 71
     5
 42
15.0
  3
ISO-25
100
AcDbAlignedDimension
 13
806.4575016666076
 23
1338.359507154115
 33
0.0
 14
821.4575016666076
 24
1338.359507154115
 34
0.0
100
AcDbRotatedDimension
1001
ACAD
1000
DSTYLE
1002
{
1070
    41
1040
25.0
1070
   371
1070
    18
1002
}
  0
DIMENSION
  5
44B
330
1F
100
AcDbEntity
  8
実形
100
AcDbDimension
  2
*D11
 10
1121.457501666607
 20
1190.42738938406
 30
0.0
 11
971.4575016666076
 21
1209.17738938406
 31
0.0
 70
    32
 71
     5
 42
300.0
  3
ISO-25
100
AcDbAlignedDimension
 13
821.4575016666076
 23
1338.359507154115
 33
0.0
 14
1121.457501666607
 24
1338.359507154115
 34
0.0
100
AcDbRotatedDimension
1001
ACAD
1000
DSTYLE
1002
{
1070
    41
1040
25.0
1070
   371
1070
    18
1070
   279
1070
     1
1002
}
  0
DIMENSION
  5
458
330
1F
100
AcDbEntity
  8
実形
100
AcDbDimension
  2
*D12
 10
1136.457501666607
 20
1190.42738938406
 30
0.0
 11
1128.957501666607
 21
1190.42738938406
 31
0.0
 70
    32
  1
 
 71
     5
 42
15.0
  3
ISO-25
100
AcDbAlignedDimension
 13
1121.457501666607
 23
1338.359507154115
 33
0.0
 14
1136.457501666607
 24
1338.359507154115
 34
0.0
100
AcDbRotatedDimension
1001
ACAD
1000
DSTYLE
1002
{
1070
    41
1040
25.0
1070
   371
1070
    18
1070
   279
1070
     1
1002
}
  0
TEXT
  5
494
330
1F
100
AcDbEntity
  8
実形
100
AcDbText
 10
747.8592852203919
 20
1192.715387018456
 30
0.0
 40
25.0
  1
15
100
AcDbText
  0
TEXT
  5
495
330
1F
100
AcDbEntity
  8
実形
370
    18
100
AcDbText
 10
1159.720961713201
 20
1192.715387018456
 30
0.0
 40
25.0
  1
15
100
AcDbText
  0
DIMENSION
  5
4A3
330
1F
100
AcDbEntity
  8
実形
100
AcDbDimension
  2
*D13
 10
1136.457501666607
 20
1112.635479228191
 30
0.0
 11
971.4575016666076
 21
1131.385479228191
 31
0.0
 70
    32
  1
330
 71
     5
 42
330.0
  3
ISO-25
100
AcDbAlignedDimension
 13
806.4575016666076
 23
1338.359507154115
 33
0.0
 14
1136.457501666607
 24
1338.359507154115
 34
0.0
100
AcDbRotatedDimension
1001
ACAD
1000
DSTYLE
1002
{
1070
    41
1040
25.0
1070
   371
1070
    18
1002
}
  0
DIMENSION
  5
4F8
330
1F
100
AcDbEntity
  8
実形
100
AcDbDimension
  2
*D14
 10
1015.457501666607
 20
621.932099853042
 30
0.0
 11
971.4575016666076
 21
640.682099853042
 31
0.0
 70
    32
 71
     5
 42
88.0
  3
ISO-25
100
AcDbAlignedDimension
 13
927.4575016666076
 23
738.3595071541149
 33
0.0
 14
1015.457501666607
 24
738.3595071541149
 34
0.0
100
AcDbRotatedDimension
1001
ACAD
1000
DSTYLE
1002
{
1070
    41
1040
25.0
1070
   371
1070
    18
1002
}
  0
DIMENSION
  5
505
330
1F
100
AcDbEntity
  8
実形
100
AcDbDimension
  2
*D15
 10
1029.457501666607
 20
561.972701284113
 30
0.0
 11
971.4575016666076
 21
580.722701284113
 31
0.0
 70
    32
 71
     5
 42
116.0
  3
ISO-25
100
AcDbAlignedDimension
 13
913.4575016666076
 23
738.3595071541149
 33
0.0
 14
1029.457501666607
 24
738.3595071541149
 34
0.0
100
AcDbRotatedDimension
1001
ACAD
1000
DSTYLE
1002
{
1070
    41
1040
25.0
1070
   371
1070
    18
1002
}
  0
DIMENSION
  5
569
330
1F
100
AcDbEntity
  8
実形
100
AcDbDimension
  2
*D16
 10
1856.763645758528
 20
1459.359507154115
 30
0.0
 11
1838.013645758527
 21
1503.359507154115
 31
0.0
 70
    32
 71
     5
 42
88.0
  3
ISO-25
100
AcDbAlignedDimension
 13
1746.457501666608
 23
1547.359507154115
 33
0.0
 14
1746.457501666608
 24
1459.359507154115
 34
0.0
 50
90.0
100
AcDbRotatedDimension
1001
ACAD
1000
DSTYLE
1002
{
1070
    41
1040
25.0
1070
   371
1070
    18
1002
}
  0
DIMENSION
  5
57F
330
1F
100
AcDbEntity
  8
実形
100
AcDbDimension
  2
*D17
 10
1921.685233723369
 20
1445.359507154115
 30
0.0
 11
1902.935233723369
 21
1503.359507154115
 31
0.0
 70
    32
 71
     5
 42
116.0
  3
ISO-25
100
AcDbAlignedDimension
 13
1746.457501666608
 23
1561.359507154115
 33
0.0
 14
1746.457501666608
 24
1445.359507154115
 34
0.0
 50
90.0
100
AcDbRotatedDimension
1001
ACAD
1000
DSTYLE
1002
{
1070
    41
1040
25.0
1070
   371
1070
    18
1002
}
  0
LEADER
  5
7D1
330
1F
100
AcDbEntity
  8
実形
100
AcDbLeader
  3
ISO-25
 40
25.0
 41
16.66666666666666
 76
     2
 10
1101.488137624875
 20
1379.41800558606
 30
0.0
 10
1065.966897002342
 20
1414.909102080306
 30
0.0
213
0.0
223
-12.5
233
0.0
1001
ACAD
1000
DSTYLE
1002
{
1070
    41
1040
25.0
1070
   147
1040
6.25
1070
    77
1070
     0
1070
    73
1070
     1
1070
    74
1070
     1
1070
   279
1070
     1
1070
   342
1005
DA
1002
}
  0
LEADER
  5
7D2
330
1F
100
AcDbEntity
  8
実形
100
AcDbLeader
  3
ISO-25
 40
25.0
 41
16.66666666666666
 76
     2
 10
1112.303180124956
 20
776.9726146108641
 30
0.0
 10
1067.94029925915
 20
811.560428755879
 30
0.0
213
0.0
223
-12.5
233
0.0
1001
ACAD
1000
DSTYLE
1002
{
1070
    41
1040
25.0
1070
   147
1040
6.25
1070
    77
1070
     0
1070
    73
1070
     1
1070
    74
1070
     1
1070
   279
1070
     1
1070
   342
1005
DA
1002
}
  0
LEADER
  5
7D3
330
1F
100
AcDbEntity
  8
実形
100
AcDbLeader
  3
ISO-25
 40
25.0
 41
16.66666666666666
 76
     2
 10
1712.131076525231
 20
1368.211480383066
 30
0.0
 10
1670.900998321634
 20
1401.585883528653
 30
0.0
213
0.0
223
-12.5
233
0.0
1001
ACAD
1000
DSTYLE
1002
{
1070
    41
1040
25.0
1070
   147
1040
6.25
1070
    77
1070
     0
1070
    73
1070
     1
1070
    74
1070
     1
1070
   279
1070
     1
1070
   342
1005
DA
1002
}
  0
TEXT
  5
8C9
330
1F
100
AcDbEntity
  8
0
100
AcDbText
 10
249.2632881086038
 20
83.52862940911927
 30
0.0
 40
30.0
  1
※実寸には製造上の誤差が多少生ずる場合があります。シンクの穴あけ加工は現物合わせにてお願いします。
100
AcDbText
  0
LINE
  5
F27
330
1F
100
AcDbEntity
  8
実形
100
AcDbLine
 10
806.4575016666076
 20
898.3595071541149
 30
0.0
 11
1136.457501666607
 21
898.3595071541149
 31
0.0
  0
LINE
  5
1238
330
1F
100
AcDbEntity
  8
実形
100
AcDbLine
 10
1136.457501666607
 20
898.3595071541149
 30
0.0
 11
806.4575016666076
 21
898.3595071541149
 31
0.0
  0
LINE
  5
123B
330
1F
100
AcDbEntity
  8
実形
100
AcDbLine
 10
913.4575016666076
 20
748.3595071541149
 30
0.0
 11
913.4575016666076
 21
738.3595071541149
 31
0.0
  0
LINE
  5
123C
330
1F
100
AcDbEntity
  8
実形
100
AcDbLine
 10
913.4575016666076
 20
738.3595071541149
 30
0.0
 11
1029.457501666607
 21
738.3595071541149
 31
0.0
  0
LINE
  5
123D
330
1F
100
AcDbEntity
  8
実形
100
AcDbLine
 10
1029.457501666607
 20
738.3595071541149
 30
0.0
 11
1029.457501666607
 21
748.3595071541149
 31
0.0
  0
LINE
  5
123E
330
1F
100
AcDbEntity
  8
実形
100
AcDbLine
 10
1029.457501666607
 20
748.3595071541149
 30
0.0
 11
913.4575016666076
 21
748.3595071541149
 31
0.0
  0
LINE
  5
12A9
330
1F
100
AcDbEntity
  8
実形
100
AcDbLine
 10
1586.457501666608
 20
1668.359507154115
 30
0.0
 11
1586.457501666608
 21
1338.359507154115
 31
0.0
  0
LINE
  5
12AC
330
1F
100
AcDbEntity
  8
実形
100
AcDbLine
 10
1736.457501666607
 20
1445.359507154115
 30
0.0
 11
1746.457501666608
 21
1445.359507154115
 31
0.0
  0
LINE
  5
12AD
330
1F
100
AcDbEntity
  8
実形
100
AcDbLine
 10
1746.457501666608
 20
1445.359507154115
 30
0.0
 11
1746.457501666608
 21
1561.359507154115
 31
0.0
  0
LINE
  5
12AE
330
1F
100
AcDbEntity
  8
実形
100
AcDbLine
 10
1746.457501666608
 20
1561.359507154115
 30
0.0
 11
1736.457501666607
 21
1561.359507154115
 31
0.0
  0
LINE
  5
12AF
330
1F
100
AcDbEntity
  8
実形
100
AcDbLine
 10
1736.457501666607
 20
1561.359507154115
 30
0.0
 11
1736.457501666607
 21
1445.359507154115
 31
0.0
  0
LINE
  5
15ED
330
1F
100
AcDbEntity
  8
実形
100
AcDbLine
 10
821.4575016666074
 20
1593.359507154115
 30
0.0
 11
821.4575016666078
 21
1413.359507154115
 31
0.0
  0
LINE
  5
15EE
330
1F
100
AcDbEntity
  8
実形
100
AcDbLine
 10
881.4575016666079
 20
1353.359507154115
 30
0.0
 11
1061.457501666608
 21
1353.359507154115
 31
0.0
  0
LINE
  5
15EF
330
1F
100
AcDbEntity
  8
実形
100
AcDbLine
 10
1121.457501666608
 20
1413.359507154115
 30
0.0
 11
1121.457501666607
 21
1593.359507154115
 31
0.0
  0
LINE
  5
15F0
330
1F
100
AcDbEntity
  8
実形
100
AcDbLine
 10
1061.457501666607
 20
1653.359507154115
 30
0.0
 11
881.4575016666074
 21
1653.359507154115
 31
0.0
  0
LINE
  5
15F5
330
1F
100
AcDbEntity
  8
実形
100
AcDbLine
 10
1121.457501666607
 20
898.3595071541149
 30
0.0
 11
1121.457501666607
 21
788.8643350968135
 31
0.0
  0
LINE
  5
15F6
330
1F
100
AcDbEntity
  8
実形
100
AcDbLine
 10
1096.285060943961
 20
759.2553048623793
 30
0.0
 11
1029.457501666607
 21
748.3595071541149
 31
0.0
  0
LINE
  5
15F7
330
1F
100
AcDbEntity
  8
実形
100
AcDbLine
 10
913.4575016666076
 20
748.3595071541149
 30
0.0
 11
846.6299423892541
 21
759.2553048623795
 31
0.0
  0
LINE
  5
15F8
330
1F
100
AcDbEntity
  8
実形
100
AcDbLine
 10
821.4575016666076
 20
788.8643350968136
 30
0.0
 11
821.4575016666076
 21
898.3595071541149
 31
0.0
  0
LINE
  5
15F9
330
1F
100
AcDbEntity
  8
実形
100
AcDbLine
 10
1586.457501666608
 20
1353.359507154115
 30
0.0
 11
1695.952673723908
 21
1353.359507154115
 31
0.0
  0
LINE
  5
15FA
330
1F
100
AcDbEntity
  8
実形
100
AcDbLine
 10
1725.561703958343
 20
1378.531947876761
 30
0.0
 11
1736.457501666607
 21
1445.359507154115
 31
0.0
  0
LINE
  5
15FB
330
1F
100
AcDbEntity
  8
実形
100
AcDbLine
 10
1586.457501666608
 20
1653.359507154115
 30
0.0
 11
1695.952673723909
 21
1653.359507154115
 31
0.0
  0
LINE
  5
15FC
330
1F
100
AcDbEntity
  8
実形
100
AcDbLine
 10
1725.561703958343
 20
1628.187066431468
 30
0.0
 11
1736.457501666607
 21
1561.359507154115
 31
0.0
  0
LINE
  5
1607
330
1F
100
AcDbEntity
  8
実形
100
AcDbLine
 10
1136.457501666608
 20
1413.359507154115
 30
0.0
 11
1136.457501666607
 21
1593.359507154115
 31
0.0
  0
LINE
  5
160A
330
1F
100
AcDbEntity
  8
実形
100
AcDbLine
 10
881.4575016666076
 20
1338.359507154115
 30
0.0
 11
1061.457501666608
 21
1338.359507154115
 31
0.0
  0
LINE
  5
160C
330
1F
100
AcDbEntity
  8
実形
100
AcDbLine
 10
806.4575016666076
 20
1593.359507154115
 30
0.0
 11
806.4575016666076
 21
1413.359507154115
 31
0.0
  0
LINE
  5
160F
330
1F
100
AcDbEntity
  8
実形
100
AcDbLine
 10
1061.457501666607
 20
1668.359507154115
 30
0.0
 11
881.4575016666076
 21
1668.359507154115
 31
0.0
  0
LINE
  5
16A4
330
1F
100
AcDbEntity
  8
実形
  6
ACAD_ISO08W100
 48
0.5
370
    15
100
AcDbLine
 10
1636.457501666608
 20
1580.534630525975
 30
0.0
 11
1636.457501666607
 21
1426.184383782254
 31
0.0
  0
DIMENSION
  5
16A5
330
1F
100
AcDbEntity
  8
実形
100
AcDbDimension
  2
*D18
 10
1636.457501666608
 20
1596.326785290435
 30
0.0
 11
1613.453888651422
 21
1619.965856668878
 31
0.0
 70
   160
 71
     5
 42
50.0
  3
ISO-25
100
AcDbAlignedDimension
 13
1586.457501666608
 23
1465.859507154115
 33
0.0
 14
1636.457501666608
 24
1503.359507154115
 34
0.0
100
AcDbRotatedDimension
1001
ACAD
1000
DSTYLE
1002
{
1070
    41
1040
25.0
1070
   279
1070
     2
1070
   371
1070
    18
1002
}
  0
LINE
  5
16A6
330
1F
100
AcDbEntity
  8
実形
  6
ACAD_ISO08W100
 48
0.5
370
    15
100
AcDbLine
 10
1559.282378294747
 20
1503.359507154115
 30
0.0
 11
1713.632625038468
 21
1503.359507154115
 31
0.0
  0
LINE
  5
16A7
330
1F
100
AcDbEntity
  8
実形
100
AcDbLine
 10
1636.457501666607
 20
1540.859507154115
 30
0.0
 11
1636.457501666608
 21
1540.859507154115
 31
0.0
  0
ARC
  5
16A8
330
1F
100
AcDbEntity
  8
実形
100
AcDbCircle
 10
1636.457501666607
 20
1525.859507154115
 30
0.0
 40
15.0
100
AcDbArc
 50
0.0
 51
90.0
  0
ARC
  5
16A9
330
1F
100
AcDbEntity
  8
実形
100
AcDbCircle
 10
1636.457501666608
 20
1525.859507154115
 30
0.0
 40
15.0
100
AcDbArc
 50
90.0
 51
180.0
  0
LINE
  5
16AA
330
1F
100
AcDbEntity
  8
実形
100
AcDbLine
 10
1636.457501666606
 20
1465.859507154114
 30
0.0
 11
1636.457501666608
 21
1465.859507154114
 31
0.0
  0
ARC
  5
16AB
330
1F
100
AcDbEntity
  8
実形
100
AcDbCircle
 10
1636.457501666607
 20
1480.859507154115
 30
0.0
 40
15.0
100
AcDbArc
 50
270.0
 51
0.0
  0
ARC
  5
16AC
330
1F
100
AcDbEntity
  8
実形
100
AcDbCircle
 10
1636.457501666607
 20
1480.859507154115
 30
0.0
 40
15.0
100
AcDbArc
 50
180.0
 51
270.0
  0
LINE
  5
16AD
330
1F
100
AcDbEntity
  8
実形
100
AcDbLine
 10
1621.457501666608
 20
1525.859507154115
 30
0.0
 11
1621.457501666607
 21
1480.859507154115
 31
0.0
  0
LINE
  5
16AE
330
1F
100
AcDbEntity
  8
実形
100
AcDbLine
 10
1651.457501666607
 20
1480.859507154115
 30
0.0
 11
1651.457501666607
 21
1525.859507154115
 31
0.0
  0
LINE
  5
16B0
330
1F
100
AcDbEntity
  8
実形
  6
HIDDEN2
100
AcDbLine
 10
821.4575016666076
 20
1540.859507154115
 30
0.0
 11
813.4574055925508
 21
1540.859507154115
 31
0.0
  0
LINE
  5
16B1
330
1F
100
AcDbEntity
  8
実形
  6
HIDDEN2
100
AcDbLine
 10
813.4574055925508
 20
1465.859507154115
 30
0.0
 11
821.4575016666076
 21
1465.859507154116
 31
0.0
  0
LINE
  5
16B2
330
1F
100
AcDbEntity
  8
実形
  6
HIDDEN2
100
AcDbLine
 10
813.4574055925508
 20
1540.859507154115
 30
0.0
 11
813.4574055925508
 21
1465.859507154115
 31
0.0
  0
DIMENSION
  5
16B3
330
1F
100
AcDbEntity
  8
実形
100
AcDbDimension
  2
*D19
 10
1966.98889375633
 20
812.5878279662785
 30
0.0
 11
1779.48889375633
 21
831.3378279662785
 31
0.0
 70
    32
  1
75
 71
     5
 42
375.0000000000004
  3
ISO-25
100
AcDbAlignedDimension
 13
1591.98889375633
 23
615.4618646032978
 33
0.0
 14
1966.98889375633
 24
615.4618646032978
 34
0.0
100
AcDbRotatedDimension
1001
ACAD
1000
DSTYLE
1002
{
1070
    41
1040
25.0
1070
   371
1070
    18
1070
   372
1070
    18
1002
}
  0
DIMENSION
  5
16B4
330
1F
100
AcDbEntity
  8
実形
100
AcDbDimension
  2
*D20
 10
1619.488893756329
 20
765.3806013418881
 30
0.0
 11
1779.48889375633
 21
784.1306013418881
 31
0.0
 70
    32
  1
64
 71
     5
 42
320.0000000000005
  3
ISO-25
100
AcDbAlignedDimension
 13
1939.48889375633
 23
615.4618646032978
 33
0.0
 14
1619.488893756329
 24
615.4618646032978
 34
0.0
100
AcDbRotatedDimension
1001
ACAD
1000
DSTYLE
1002
{
1070
    41
1040
25.0
1070
   371
1070
    18
1070
   372
1070
    18
1002
}
  0
LINE
  5
16B5
330
1F
100
AcDbEntity
  8
実形
100
AcDbLine
 10
1854.48889375633
 20
615.4618646032977
 30
0.0
 11
1704.48889375633
 21
615.4618646032977
 31
0.0
  0
LINE
  5
16B6
330
1F
100
AcDbEntity
  8
実形
100
AcDbLine
 10
1704.48889375633
 20
515.4618646032977
 30
0.0
 11
1854.48889375633
 21
515.4618646032977
 31
0.0
  0
LINE
  5
16B7
330
1F
100
AcDbEntity
  8
実形
100
AcDbLine
 10
1667.488893756329
 20
494.9618646032977
 30
0.0
 11
1891.48889375633
 21
494.9618646032977
 31
0.0
  0
LINE
  5
16B8
330
1F
100
AcDbEntity
  8
実形
100
AcDbLine
 10
1891.48889375633
 20
635.9618646032978
 30
0.0
 11
1667.488893756329
 21
635.9618646032978
 31
0.0
  0
LINE
  5
16B9
330
1F
100
AcDbEntity
  8
実形
100
AcDbLine
 10
1891.48889375633
 20
640.9618646032978
 30
0.0
 11
1667.488893756329
 21
640.9618646032978
 31
0.0
  0
LINE
  5
16BA
330
1F
100
AcDbEntity
  8
実形
100
AcDbLine
 10
1667.488893756329
 20
489.9618646032977
 30
0.0
 11
1891.48889375633
 21
489.9618646032977
 31
0.0
  0
LINE
  5
16BB
330
1F
100
AcDbEntity
  8
実形
  6
ACAD_ISO08W100
 48
0.5
100
AcDbLine
 10
1568.63242499495
 20
565.4618646032978
 30
0.0
 11
1990.34536251771
 21
565.4618646032978
 31
0.0
  0
DIMENSION
  5
16BC
330
1F
100
AcDbEntity
  8
実形
100
AcDbDimension
  2
*D21
 10
1904.48889375633
 20
714.345761876607
 30
0.0
 11
1779.48889375633
 21
733.095761876607
 31
0.0
 70
    32
  1
50
 71
     5
 42
250.0000000000004
  3
ISO-25
100
AcDbAlignedDimension
 13
1654.48889375633
 23
615.4618646032978
 33
0.0
 14
1904.48889375633
 24
615.4618646032978
 34
0.0
100
AcDbRotatedDimension
1001
ACAD
1000
DSTYLE
1002
{
1070
    41
1040
25.0
1070
   371
1070
    18
1070
   372
1070
    18
1002
}
  0
LINE
  5
16BD
330
1F
100
AcDbEntity
  8
実形
  6
ACAD_ISO08W100
 48
0.5
100
AcDbLine
 10
1779.48889375633
 20
672.2063789822364
 30
0.0
 11
1779.48889375633
 21
458.7173502243593
 31
0.0
  0
CIRCLE
  5
16BE
330
1F
100
AcDbEntity
  8
実形
100
AcDbCircle
 10
1619.488893756329
 20
565.4618646032978
 30
0.0
 40
8.966055913162964
  0
ARC
  5
16BF
330
1F
100
AcDbEntity
  8
実形
100
AcDbCircle
 10
1667.488893756329
 20
565.4618646032978
 30
0.0
 40
70.5
100
AcDbArc
 50
90.0
 51
180.0
  0
ARC
  5
16C0
330
1F
100
AcDbEntity
  8
実形
100
AcDbCircle
 10
1667.488893756329
 20
565.4618646032978
 30
0.0
 40
70.5
100
AcDbArc
 50
180.0
 51
270.0
  0
ARC
  5
16C1
330
1F
100
AcDbEntity
  8
実形
100
AcDbCircle
 10
1667.488893756329
 20
565.4618646032978
 30
0.0
 40
75.5
100
AcDbArc
 50
90.0
 51
180.0
  0
ARC
  5
16C2
330
1F
100
AcDbEntity
  8
実形
100
AcDbCircle
 10
1667.488893756329
 20
565.4618646032978
 30
0.0
 40
75.5
100
AcDbArc
 50
180.0
 51
270.0
  0
LINE
  5
16C3
330
1F
100
AcDbEntity
  8
実形
100
AcDbLine
 10
1654.48889375633
 20
565.4618646032977
 30
0.0
 11
1654.48889375633
 21
565.4618646032978
 31
0.0
  0
LINE
  5
16C4
330
1F
100
AcDbEntity
  8
実形
100
AcDbLine
 10
1591.98889375633
 20
565.4618646032976
 30
0.0
 11
1591.98889375633
 21
565.4618646032978
 31
0.0
  0
ARC
  5
16C5
330
1F
100
AcDbEntity
  8
実形
100
AcDbCircle
 10
1704.48889375633
 20
565.4618646032977
 30
0.0
 40
50.0
100
AcDbArc
 50
90.0
 51
180.0
  0
ARC
  5
16C6
330
1F
100
AcDbEntity
  8
実形
100
AcDbCircle
 10
1704.48889375633
 20
565.4618646032978
 30
0.0
 40
50.0
100
AcDbArc
 50
180.0
 51
270.0
  0
DIMENSION
  5
16C7
330
1F
100
AcDbEntity
  8
実形
100
AcDbDimension
  2
*D22
 10
2114.409571816032
 20
489.9618646032978
 30
0.0
 11
2095.659571816033
 21
565.4618646032981
 31
0.0
 70
    32
  1
31
 71
     5
 42
151.0
  3
ISO-25
100
AcDbAlignedDimension
 13
1966.98889375633
 23
640.9618646032978
 33
0.0
 14
1966.98889375633
 24
489.9618646032978
 34
0.0
 50
90.0
100
AcDbRotatedDimension
1001
ACAD
1000
DSTYLE
1002
{
1070
    41
1040
25.0
1070
   371
1070
    18
1070
   372
1070
    18
1002
}
  0
CIRCLE
  5
16C8
330
1F
100
AcDbEntity
  8
実形
100
AcDbCircle
 10
1939.48889375633
 20
565.4618646032978
 30
0.0
 40
8.966055913162964
  0
ARC
  5
16C9
330
1F
100
AcDbEntity
  8
実形
100
AcDbCircle
 10
1854.48889375633
 20
565.4618646032978
 30
0.0
 40
50.0
100
AcDbArc
 50
270.0
 51
0.0
  0
ARC
  5
16CA
330
1F
100
AcDbEntity
  8
実形
100
AcDbCircle
 10
1854.48889375633
 20
565.4618646032977
 30
0.0
 40
50.0
100
AcDbArc
 50
0.0
 51
90.0
  0
ARC
  5
16CB
330
1F
100
AcDbEntity
  8
実形
100
AcDbCircle
 10
1891.48889375633
 20
565.4618646032978
 30
0.0
 40
70.5
100
AcDbArc
 50
270.0
 51
0.0
  0
ARC
  5
16CC
330
1F
100
AcDbEntity
  8
実形
100
AcDbCircle
 10
1891.48889375633
 20
565.4618646032978
 30
0.0
 40
70.5
100
AcDbArc
 50
0.0
 51
90.0
  0
ARC
  5
16CD
330
1F
100
AcDbEntity
  8
実形
100
AcDbCircle
 10
1891.48889375633
 20
565.4618646032978
 30
0.0
 40
75.5
100
AcDbArc
 50
270.0
 51
0.0
  0
ARC
  5
16CE
330
1F
100
AcDbEntity
  8
実形
100
AcDbCircle
 10
1891.48889375633
 20
565.4618646032978
 30
0.0
 40
75.5
100
AcDbArc
 50
0.0
 51
90.0
  0
LINE
  5
16CF
330
1F
100
AcDbEntity
  8
実形
100
AcDbLine
 10
1904.48889375633
 20
565.4618646032978
 30
0.0
 11
1904.48889375633
 21
565.4618646032977
 31
0.0
  0
LINE
  5
16D0
330
1F
100
AcDbEntity
  8
実形
100
AcDbLine
 10
1966.98889375633
 20
565.4618646032978
 30
0.0
 11
1966.98889375633
 21
565.4618646032978
 31
0.0
  0
DIMENSION
  5
16D1
330
1F
100
AcDbEntity
  8
実形
100
AcDbDimension
  2
*D23
 10
2068.441906526922
 20
515.4618646032978
 30
0.0
 11
2049.691906526922
 21
565.4618646032981
 31
0.0
 70
    32
  1
20
 71
     5
 42
100.0
  3
ISO-25
100
AcDbAlignedDimension
 13
1966.98889375633
 23
615.4618646032978
 33
0.0
 14
1966.98889375633
 24
515.4618646032978
 34
0.0
 50
90.0
100
AcDbRotatedDimension
1001
ACAD
1000
DSTYLE
1002
{
1070
    41
1040
25.0
1070
   371
1070
    18
1070
   372
1070
    18
1002
}
  0
LINE
  5
16D2
330
1F
100
AcDbEntity
  8
実形
100
AcDbLine
 10
1607.248985123951
 20
905.3068581189227
 30
0.0
 11
1957.68995209718
 21
905.3068581189227
 31
0.0
  0
LINE
  5
16D3
330
1F
100
AcDbEntity
  8
実形
100
AcDbLine
 10
1607.248985123951
 20
912.3068581189228
 30
0.0
 11
1957.68995209718
 21
912.3068581189228
 31
0.0
  0
TEXT
  5
16D4
330
1F
100
AcDbEntity
  8
実形
100
AcDbText
 10
1622.3217126457
 20
923.6024764482889
 30
0.0
 40
30.0
  1
オーバーフロー詳細
100
AcDbText
  0
ARC
  5
17A2
330
1F
100
AcDbEntity
  8
実形
100
AcDbCircle
 10
851.4575016666077
 20
788.8643350968136
 30
0.0
 40
30.0
100
AcDbArc
 50
180.0
 51
260.7397784688282
  0
ARC
  5
17A3
330
1F
100
AcDbEntity
  8
実形
100
AcDbCircle
 10
1091.457501666607
 20
788.8643350968135
 30
0.0
 40
30.0
100
AcDbArc
 50
279.2602215311716
 51
0.0
  0
ARC
  5
17A4
330
1F
100
AcDbEntity
  8
実形
100
AcDbCircle
 10
1695.952673723908
 20
1383.359507154115
 30
0.0
 40
30.0
100
AcDbArc
 50
270.0
 51
350.7397784688283
  0
ARC
  5
17A5
330
1F
100
AcDbEntity
  8
実形
100
AcDbCircle
 10
1695.952673723909
 20
1623.359507154115
 30
0.0
 40
30.0
100
AcDbArc
 50
9.260221531171733
 51
90.0
  0
ARC
  5
17A6
330
1F
100
AcDbEntity
  8
実形
100
AcDbCircle
 10
881.4575016666079
 20
1413.359507154115
 30
0.0
 40
60.0
100
AcDbArc
 50
180.0
 51
270.0
  0
ARC
  5
17A7
330
1F
100
AcDbEntity
  8
実形
100
AcDbCircle
 10
881.4575016666074
 20
1593.359507154115
 30
0.0
 40
60.0
100
AcDbArc
 50
90.0
 51
180.0
  0
ARC
  5
17A8
330
1F
100
AcDbEntity
  8
実形
100
AcDbCircle
 10
1061.457501666607
 20
1593.359507154115
 30
0.0
 40
60.0
100
AcDbArc
 50
0.0000000000000509
 51
90.0
  0
ARC
  5
17A9
330
1F
100
AcDbEntity
  8
実形
100
AcDbCircle
 10
1061.457501666608
 20
1413.359507154115
 30
0.0
 40
60.0
100
AcDbArc
 50
270.0
 51
0.0000000000000636
  0
ARC
  5
17AA
330
1F
100
AcDbEntity
  8
実形
100
AcDbCircle
 10
1061.457501666607
 20
1593.359507154115
 30
0.0
 40
75.0
100
AcDbArc
 50
0.0000000000000509
 51
90.0
  0
ARC
  5
17AB
330
1F
100
AcDbEntity
  8
実形
100
AcDbCircle
 10
1061.457501666608
 20
1413.359507154115
 30
0.0
 40
75.0
100
AcDbArc
 50
270.0
 51
0.0000000000000636
  0
ARC
  5
17AC
330
1F
100
AcDbEntity
  8
実形
100
AcDbCircle
 10
881.4575016666076
 20
1413.359507154115
 30
0.0
 40
75.0
100
AcDbArc
 50
180.0
 51
270.0
  0
ARC
  5
17AD
330
1F
100
AcDbEntity
  8
実形
100
AcDbCircle
 10
881.4575016666076
 20
1593.359507154115
 30
0.0
 40
75.0
100
AcDbArc
 50
90.0
 51
180.0
  0
DIMENSION
  5
1884
330
1F
100
AcDbEntity
  8
実形
100
AcDbDimension
  2
*D24
 10
735.0657511789009
 20
748.359507154115
 30
0.0
 11
735.0657511789007
 21
755.8595071541151
 31
0.0
 70
    32
  1
 
 71
     5
 42
15.0
  3
ISO-25
100
AcDbAlignedDimension
 13
853.9575016666081
 23
763.3595071541149
 33
0.0
 14
853.9575016666081
 24
748.3595071541149
 34
0.0
 50
90.0
100
AcDbRotatedDimension
1001
ACAD
1000
DSTYLE
1002
{
1070
    41
1040
25.0
1070
   371
1070
    15
1002
}
  0
DIMENSION
  5
1885
330
1F
100
AcDbEntity
  8
実形
100
AcDbDimension
  2
*D25
 10
666.301437433658
 20
748.359507154115
 30
0.0
 11
647.5514374336579
 21
823.3595071541151
 31
0.0
 70
    32
 71
     5
 42
150.0
  3
ISO-25
100
AcDbAlignedDimension
 13
851.8181370106685
 23
898.3595071541149
 33
0.0
 14
853.9575016666081
 24
748.3595071541149
 34
0.0
 50
90.0
100
AcDbRotatedDimension
1001
ACAD
1000
DSTYLE
1002
{
1070
    41
1040
25.0
1070
   371
1070
    15
1002
}
  0
TEXT
  5
1886
330
1F
100
AcDbEntity
  8
実形
370
    18
100
AcDbText
 10
709.1173485329509
 20
762.6302193787114
 30
0.0
 40
25.0
  1
15
 50
90.0
100
AcDbText
  0
LINE
  5
1887
330
1F
100
AcDbEntity
  8
実形
100
AcDbLine
 10
735.0657511789009
 20
748.3595071541149
 30
0.0
 11
788.957501666608
 21
748.3595071541149
 31
0.0
  0
LINE
  5
1888
330
1F
100
AcDbEntity
  8
実形
100
AcDbLine
 10
735.0657511789009
 20
738.3595071541149
 30
0.0
 11
788.957501666608
 21
738.359507154115
 31
0.0
  0
LINE
  5
1889
330
1F
100
AcDbEntity
  8
実形
100
AcDbLine
 10
735.0657511789009
 20
738.3595071541149
 30
0.0
 11
735.0657511789009
 21
748.3595071541149
 31
0.0
  0
TEXT
  5
188A
330
1F
100
AcDbEntity
  8
実形
 62
     0
370
    18
100
AcDbText
 10
733.6358424265272
 20
736.8420682294891
 30
0.0
 40
3.0
  1
●
100
AcDbText
  0
TEXT
  5
188B
330
1F
100
AcDbEntity
  8
実形
 62
     0
370
    18
100
AcDbText
 10
709.7311306702413
 20
723.6558683135763
 30
0.0
 40
25.0
  1
7
 50
90.0
100
AcDbText
  0
DIMENSION
  5
1ACA
330
1F
100
AcDbEntity
  8
寸法
100
AcDbDimension
  2
*D26
 10
1721.457501666608
 20
1242.586782141369
 30
0.0
 11
1728.957501666608
 21
1242.586782141369
 31
0.0
 70
    32
  1
 
 71
     5
 42
15.0
  3
ISO-25
100
AcDbAlignedDimension
 13
1736.457501666607
 23
1363.493516178804
 33
0.0
 14
1721.457501666608
 24
1363.493516178804
 34
0.0
100
AcDbRotatedDimension
1001
ACAD
1000
DSTYLE
1002
{
1070
    41
1040
25.0
1070
   371
1070
    18
1002
}
  0
DIMENSION
  5
1ACB
330
1F
100
AcDbEntity
  8
寸法
100
AcDbDimension
  2
*D27
 10
1586.457501666608
 20
1179.215095242327
 30
0.0
 11
1661.457501666608
 21
1197.965095242327
 31
0.0
 70
    32
 71
     5
 42
150.0
  3
ISO-25
100
AcDbAlignedDimension
 13
1736.457501666607
 23
1340.199554958367
 33
0.0
 14
1586.457501666608
 24
1362.366711402464
 34
0.0
100
AcDbRotatedDimension
1001
ACAD
1000
DSTYLE
1002
{
1070
    41
1040
25.0
1070
   371
1070
    18
1002
}
  0
TEXT
  5
1ACC
330
1F
100
AcDbEntity
  8
寸法
370
    18
100
AcDbText
 10
1677.637603780291
 20
1254.821954924187
 30
0.0
 40
25.0
  1
15
100
AcDbText
  0
TEXT
  5
1ACD
330
1F
100
AcDbEntity
  8
寸法
370
    18
100
AcDbText
 10
1756.328239905981
 20
1253.571674322149
 30
0.0
 40
25.0
  1
7
100
AcDbText
  0
LINE
  5
1ACE
330
1F
100
AcDbEntity
  8
実形
100
AcDbLine
 10
1736.457501666607
 20
1242.586782141369
 30
0.0
 11
1736.457501666607
 21
1298.493516178804
 31
0.0
  0
LINE
  5
1ACF
330
1F
100
AcDbEntity
  8
実形
100
AcDbLine
 10
1736.457501666607
 20
1242.586782141369
 30
0.0
 11
1746.457501666608
 21
1242.586782141369
 31
0.0
  0
LINE
  5
1AD0
330
1F
100
AcDbEntity
  8
実形
100
AcDbLine
 10
1746.457501666608
 20
1298.493516178804
 30
0.0
 11
1746.457501666608
 21
1242.586782141369
 31
0.0
  0
TEXT
  5
1AD1
330
1F
100
AcDbEntity
  8
寸法
 62
     0
370
    18
100
AcDbText
 10
1745.106276042835
 20
1241.048314270894
 30
0.0
 40
3.0
  1
●
100
AcDbText
  0
TEXT
  5
1C7A
330
1F
100
AcDbEntity
  8
実形
100
AcDbText
 10
2086.666666666667
 20
84.0
 30
0.0
 40
35.0
  1
尺度
 72
     4
 11
2124.0
 21
101.5
 31
0.0
100
AcDbText
  0
TEXT
  5
1C7B
330
1F
100
AcDbEntity
  8
実形
100
AcDbText
 10
2086.666666666667
 20
149.0
 30
0.0
 40
35.0
  1
品番
 72
     4
 11
2124.0
 21
166.5
 31
0.0
100
AcDbText
  0
LINE
  5
1C7C
330
1F
100
AcDbEntity
  8
実形
100
AcDbLine
 10
2064.0
 20
69.0
 30
0.0
 11
2784.0
 21
69.0
 31
0.0
  0
LINE
  5
1C7D
330
1F
100
AcDbEntity
  8
実形
100
AcDbLine
 10
2064.0
 20
199.0
 30
0.0
 11
2784.0
 21
199.0
 31
0.0
  0
LINE
  5
1C7E
330
1F
100
AcDbEntity
  8
実形
100
AcDbLine
 10
2064.0
 20
134.0
 30
0.0
 11
2784.0
 21
134.0
 31
0.0
  0
LINE
  5
1C7F
330
1F
100
AcDbEntity
  8
実形
100
AcDbLine
 10
2064.0
 20
4.0
 30
0.0
 11
2064.0
 21
199.0
 31
0.0
  0
TEXT
  5
1C81
330
1F
100
AcDbEntity
  8
実形
100
AcDbText
 10
2300.255774665348
 20
16.49999999999999
 30
0.0
 40
40.0
  1
中外交易株式会社
 72
     4
 11
2488.255774665347
 21
36.5
 31
0.0
100
AcDbText
  0
LINE
  5
1C82
330
1F
100
AcDbEntity
  8
実形
100
AcDbLine
 10
2184.0
 20
69.0
 30
0.0
 11
2784.0
 21
69.0
 31
0.0
  0
HATCH
  5
1C83
330
1F
100
AcDbEntity
  8
実形
100
AcDbHatch
 10
0.0
 20
0.0
 30
0.0
210
0.0
220
0.0
230
1.0
  2
SOLID
 70
     1
 71
     1
 91
        3
 92
        1
 93
        4
 72
     2
 10
2257.166198313996
 20
36.5
 40
20.0
 50
11.64772366707341
 51
342.6561058784909
 73
     1
 72
     1
 10
2276.256852341323
 20
30.53787547858514
 11
2252.166198313995
 21
30.53787547858519
 72
     1
 10
2252.166198313995
 20
30.53787547858519
 11
2252.166198313995
 21
40.53787547858519
 72
     1
 10
2252.166198313995
 20
40.53787547858519
 11
2276.75434681301
 21
40.53787547858519
 97
        4
330
1C90
330
1C8E
330
1C8D
330
1C8C
 92
        1
 93
        4
 72
     2
 10
2188.255774665348
 20
36.5
 40
20.0
 50
11.64772366707341
 51
342.6561058784909
 73
     1
 72
     1
 10
2207.346428692676
 20
30.53787547858514
 11
2183.255774665347
 21
30.53787547858519
 72
     1
 10
2183.255774665347
 20
30.53787547858519
 11
2183.255774665347
 21
40.53787547858519
 72
     1
 10
2183.255774665347
 20
40.53787547858519
 11
2207.843923164362
 21
40.53787547858519
 97
        4
330
1C8F
330
1C86
330
1C85
330
1C84
 92
        1
 93
        5
 72
     1
 10
2245.64189404294
 20
56.5
 11
2210.641894042939
 21
56.5
 72
     1
 10
2210.641894042939
 20
56.5
 11
2210.641894042939
 21
16.5
 72
     1
 10
2210.641894042939
 20
16.5
 11
2245.64189404294
 21
16.5
 72
     1
 10
2245.64189404294
 20
16.5
 11
2210.641894042939
 21
36.5
 72
     1
 10
2210.641894042939
 20
36.5
 11
2245.64189404294
 21
56.5
 97
        5
330
1C8B
330
1C87
330
1C88
330
1C89
330
1C8A
 75
     0
 76
     1
 98
        1
 10
-60.0
 20
0.0
  0
LINE
  5
1C84
102
{ACAD_REACTORS
330
1C83
102
}
330
1F
100
AcDbEntity
  8
実形
370
     5
100
AcDbLine
 10
2207.843923164362
 20
40.53787547858519
 30
0.0
 11
2183.255774665347
 21
40.53787547858519
 31
0.0
  0
LINE
  5
1C85
102
{ACAD_REACTORS
330
1C83
102
}
330
1F
100
AcDbEntity
  8
実形
370
     5
100
AcDbLine
 10
2183.255774665347
 20
40.53787547858519
 30
0.0
 11
2183.255774665347
 21
30.53787547858519
 31
0.0
  0
LINE
  5
1C86
102
{ACAD_REACTORS
330
1C83
102
}
330
1F
100
AcDbEntity
  8
実形
370
     5
100
AcDbLine
 10
2183.255774665347
 20
30.53787547858519
 30
0.0
 11
2207.346428692676
 21
30.53787547858514
 31
0.0
  0
LINE
  5
1C87
102
{ACAD_REACTORS
330
1C83
102
}
330
1F
100
AcDbEntity
  8
実形
370
     5
100
AcDbLine
 10
2210.641894042939
 20
56.5
 30
0.0
 11
2210.641894042939
 21
16.5
 31
0.0
  0
LINE
  5
1C88
102
{ACAD_REACTORS
330
1C83
102
}
330
1F
100
AcDbEntity
  8
実形
370
     5
100
AcDbLine
 10
2210.641894042939
 20
16.5
 30
0.0
 11
2245.64189404294
 21
16.5
 31
0.0
  0
LINE
  5
1C89
102
{ACAD_REACTORS
330
1C83
102
}
330
1F
100
AcDbEntity
  8
実形
370
     5
100
AcDbLine
 10
2245.64189404294
 20
16.5
 30
0.0
 11
2210.641894042939
 21
36.5
 31
0.0
  0
LINE
  5
1C8A
102
{ACAD_REACTORS
330
1C83
102
}
330
1F
100
AcDbEntity
  8
実形
370
     5
100
AcDbLine
 10
2210.641894042939
 20
36.5
 30
0.0
 11
2245.64189404294
 21
56.5
 31
0.0
  0
LINE
  5
1C8B
102
{ACAD_REACTORS
330
1C83
102
}
330
1F
100
AcDbEntity
  8
実形
370
     5
100
AcDbLine
 10
2245.64189404294
 20
56.5
 30
0.0
 11
2210.641894042939
 21
56.5
 31
0.0
  0
LINE
  5
1C8C
102
{ACAD_REACTORS
330
1C83
102
}
330
1F
100
AcDbEntity
  8
実形
370
     5
100
AcDbLine
 10
2276.75434681301
 20
40.53787547858519
 30
0.0
 11
2252.166198313995
 21
40.53787547858519
 31
0.0
  0
LINE
  5
1C8D
102
{ACAD_REACTORS
330
1C83
102
}
330
1F
100
AcDbEntity
  8
実形
370
     5
100
AcDbLine
 10
2252.166198313995
 20
40.53787547858519
 30
0.0
 11
2252.166198313995
 21
30.53787547858519
 31
0.0
  0
LINE
  5
1C8E
102
{ACAD_REACTORS
330
1C83
102
}
330
1F
100
AcDbEntity
  8
実形
370
     5
100
AcDbLine
 10
2252.166198313995
 20
30.53787547858519
 30
0.0
 11
2276.256852341323
 21
30.53787547858514
 31
0.0
  0
ARC
  5
1C8F
102
{ACAD_REACTORS
330
1C83
102
}
330
1F
100
AcDbEntity
  8
実形
370
     5
100
AcDbCircle
 10
2188.255774665348
 20
36.5
 30
0.0
 40
20.0
100
AcDbArc
 50
11.64772366707296
 51
342.6561058784924
  0
ARC
  5
1C90
102
{ACAD_REACTORS
330
1C83
102
}
330
1F
100
AcDbEntity
  8
実形
370
     5
100
AcDbCircle
 10
2257.166198313996
 20
36.5
 30
0.0
 40
20.0
100
AcDbArc
 50
11.64772366707296
 51
342.6561058784924
  0
LINE
  5
1C91
330
1F
100
AcDbEntity
  8
実形
100
AcDbLine
 10
2184.0
 20
69.0
 30
0.0
 11
2184.0
 21
199.0
 31
0.0
  0
TEXT
  5
1C92
330
1F
100
AcDbEntity
  8
実形
100
AcDbText
 10
2430.916666666667
 20
84.0
 30
0.0
 40
35.0
  1
1：10
 72
     4
 11
2484.0
 21
101.5
 31
0.0
100
AcDbText
  0
LINE
  5
1C93
330
1F
100
AcDbEntity
  8
実形
100
AcDbLine
 10
2784.0
 20
69.0
 30
0.0
 11
2784.0
 21
134.0
 31
0.0
  0
LINE
  5
1C94
330
1F
100
AcDbEntity
  8
実形
100
AcDbLine
 10
2784.0
 20
4.0
 30
0.0
 11
2784.0
 21
69.0
 31
0.0
  0
LINE
  5
1C95
330
1F
100
AcDbEntity
  8
実形
100
AcDbLine
 10
2784.0
 20
134.0
 30
0.0
 11
2784.0
 21
199.0
 31
0.0
  0
LINE
  5
1DBE
330
1F
100
AcDbEntity
  8
補助
100
AcDbLine
 10
2784.0
 20
1959.0
 30
0.0
 11
2019.387286519283
 21
1959.000000000001
 31
0.0
  0
LINE
  5
1DBF
330
1F
100
AcDbEntity
  8
補助
100
AcDbLine
 10
2784.0
 20
1894.0
 30
0.0
 11
2019.387286519283
 21
1894.0
 31
0.0
  0
LINE
  5
1DC0
330
1F
100
AcDbEntity
  8
補助
100
AcDbLine
 10
2202.547653420927
 20
1894.0
 30
0.0
 11
2202.547653420927
 21
2024.0
 31
0.0
  0
LINE
  5
1DC1
330
1F
100
AcDbEntity
  8
補助
100
AcDbLine
 10
2019.387286519283
 20
1894.0
 30
0.0
 11
2019.387286519283
 21
2024.0
 31
0.0
  0
TEXT
  5
1DC2
330
1F
100
AcDbEntity
  8
補助
100
AcDbText
 10
2050.295698850121
 20
1976.328571428572
 30
0.0
 40
30.0
  1
部品名
  7
明朝
 72
     4
 11
2116.124270278692
 21
1991.5
 31
0.0
100
AcDbText
  0
TEXT
  5
1DC3
330
1F
100
AcDbEntity
  8
補助
100
AcDbText
 10
2627.614285714286
 20
1976.071428571429
 30
0.0
 40
30.0
  1
厚さ
  7
明朝
 72
     4
 11
2671.5
 21
1991.5
 31
0.0
100
AcDbText
  0
LINE
  5
1DC4
330
1F
100
AcDbEntity
  8
補助
100
AcDbLine
 10
2559.0
 20
1894.0
 30
0.0
 11
2559.0
 21
2024.0
 31
0.0
  0
TEXT
  5
1DC5
330
1F
100
AcDbEntity
  8
補助
100
AcDbText
 10
2338.490869919937
 20
1975.947979478155
 30
0.0
 40
30.0
  1
材質
  7
明朝
 72
     4
 11
2382.376584205651
 21
1991.119408049583
 31
0.0
100
AcDbText
  0
TEXT
  5
1DC6
330
1F
100
AcDbEntity
  8
実形
100
AcDbText
 10
2048.227810657788
 20
1910.557142857143
 30
0.0
 40
30.0
  1
ボウル
  7
明朝
 72
     4
 11
2114.056382086359
 21
1926.5
 31
0.0
100
AcDbText
  0
TEXT
  5
1DC7
330
1F
100
AcDbEntity
  8
実形
100
AcDbText
 10
2594.700000000001
 20
1911.842857142857
 30
0.0
 40
30.0
  1
0.7ｍｍ
  7
明朝
 72
     4
 11
2671.500000000001
 21
1926.5
 31
0.0
100
AcDbText
  0
TEXT
  5
1DC8
330
1F
100
AcDbEntity
  8
実形
100
AcDbText
 10
2261.016869107866
 20
1910.728571428572
 30
0.0
 40
30.0
  1
SUS304（BA）
  7
明朝
 72
     4
 11
2392.674011965008
 21
1926.5
 31
0.0
100
AcDbText
  0
LINE
  5
1DC9
330
1F
100
AcDbEntity
  8
補助
100
AcDbLine
 10
114.0
 20
2024.0
 30
0.0
 11
114.0
 21
4.0
 31
0.0
  0
VIEWPORT
  5
2E
102
{ACAD_XDICTIONARY
360
1DF7
102
}
330
1B
100
AcDbEntity
 67
     1
  8
0
100
AcDbViewport
 10
144.7270812988281
 20
101.2295806407928
 30
0.0
 40
411.6736216682419
 41
222.1517806396485
 68
     1
 69
     1
 12
144.7270812988281
 22
101.2295806407928
 13
0.0
 23
0.0
 14
10.0
 24
10.0
 15
10.0
 25
10.0
 16
0.0
 26
0.0
 36
1.0
 17
0.0
 27
0.0
 37
0.0
 42
50.0
 43
0.0
 44
0.0
 45
222.1517806396485
 50
0.0
 51
0.0
 72
   100
 90
    32800
  1

281
     0
 71
     1
 74
     0
110
0.0
120
0.0
130
0.0
111
1.0
121
0.0
131
0.0
112
0.0
122
1.0
132
0.0
 79
     0
146
0.0
  0
VIEWPORT
  5
30
102
{ACAD_XDICTIONARY
360
1DF9
102
}
330
1B
100
AcDbEntity
 67
     1
  8
0
100
AcDbViewport
 10
139.2237563133239
 20
101.2295821905136
 30
0.0
 40
222.7580101013184
 41
161.9673315048218
 68
     2
 69
     2
 12
210.0
 22
148.5
 13
0.0
 23
0.0
 14
10.0
 24
10.0
 15
10.0
 25
10.0
 16
0.0
 26
0.0
 36
1.0
 17
0.0
 27
0.0
 37
0.0
 42
50.0
 43
0.0
 44
0.0
 45
309.0686705647124
 50
0.0
 51
0.0
 72
   100
 90
    32864
  1

281
     0
 71
     1
 74
     0
110
0.0
120
0.0
130
0.0
111
1.0
121
0.0
131
0.0
112
0.0
122
1.0
132
0.0
 79
     0
146
0.0
  0
ENDSEC
  0
SECTION
  2
OBJECTS
  0
DICTIONARY
  5
C
330
0
100
AcDbDictionary
281
     1
  3
ACAD_COLOR
350
17BF
  3
ACAD_GROUP
350
D
  3
ACAD_LAYOUT
350
1A
  3
ACAD_MATERIAL
350
17BE
  3
ACAD_MLINESTYLE
350
17
  3
ACAD_PLOTSETTINGS
350
19
  3
ACAD_PLOTSTYLENAME
350
E
  3
ACAD_TABLESTYLE
350
17C0
  3
AcadDim
350
124
  3
ACDBHEADERROUNDTRIPXREC
350
1DF0
  3
AcDbVariableDictionary
350
19A3
  0
DICTIONARY
  5
1C22
330
2
100
AcDbDictionary
280
     1
281
     1
  3
ACAD_LAYERFILTERS
360
1D99
  3
ACAD_LAYERSTATES
360
1C23
  3
ACLYDICTIONARY
360
1D98
  0
DICTIONARY
  5
1DCA
330
1F
100
AcDbDictionary
280
     1
281
     1
  3
ACAD_SORTENTS
360
1DCB
  0
DICTIONARY
  5
1DF7
330
2E
100
AcDbDictionary
280
     1
281
     1
  3
ACAD_XREC_ROUNDTRIP
360
1DF8
  0
DICTIONARY
  5
1DF9
330
30
100
AcDbDictionary
280
     1
281
     1
  3
ACAD_XREC_ROUNDTRIP
360
1DFA
  0
DICTIONARY
  5
17BF
102
{ACAD_REACTORS
330
C
102
}
330
C
100
AcDbDictionary
281
     1
  0
DICTIONARY
  5
D
102
{ACAD_REACTORS
330
C
102
}
330
C
100
AcDbDictionary
281
     1
  0
DICTIONARY
  5
1A
102
{ACAD_REACTORS
330
C
102
}
330
C
100
AcDbDictionary
281
     1
  3
Model
350
22
  3
ﾚｲｱｳﾄ1
350
1E
  3
ﾚｲｱｳﾄ2
350
26
  0
DICTIONARY
  5
17BE
102
{ACAD_REACTORS
330
C
102
}
330
C
100
AcDbDictionary
281
     1
  0
DICTIONARY
  5
17
102
{ACAD_REACTORS
330
C
102
}
330
C
100
AcDbDictionary
281
     1
  3
Standard
350
18
  0
DICTIONARY
  5
19
102
{ACAD_REACTORS
330
C
102
}
330
C
100
AcDbDictionary
281
     1
  0
ACDBDICTIONARYWDFLT
  5
E
102
{ACAD_REACTORS
330
C
102
}
330
C
100
AcDbDictionary
281
     1
  3
Normal
350
F
100
AcDbDictionaryWithDefault
340
F
  0
DICTIONARY
  5
17C0
102
{ACAD_REACTORS
330
C
102
}
330
C
100
AcDbDictionary
281
     1
  3
Standard
350
17C1
  0
XRECORD
  5
124
102
{ACAD_REACTORS
330
C
102
}
330
C
100
AcDbXrecord
280
     1
 90
   990106
  3

 60
     0
 61
     0
 62
     1
 63
     3
 64
     0
 65
     0
 66
     0
 67
     3
 68
     1
 69
     0
 70
     0
 71
     0
 72
     0
 40
30.0
170
     0
  0
DICTIONARY
  5
1DF0
102
{ACAD_REACTORS
330
C
102
}
330
C
100
AcDbDictionary
281
     1
  0
DICTIONARY
  5
19A3
102
{ACAD_REACTORS
330
C
102
}
330
C
100
AcDbDictionary
281
     1
  3
CTABLESTYLE
350
19A4
  3
DIMASSOC
350
1DED
  3
PROJECTNAME
350
1DEE
  0
DICTIONARY
  5
1D99
102
{ACAD_REACTORS
330
1C22
102
}
330
1C22
100
AcDbDictionary
281
     1
  0
DICTIONARY
  5
1C23
102
{ACAD_REACTORS
330
1C22
102
}
330
1C22
100
AcDbDictionary
281
     1
  0
DICTIONARY
  5
1D98
102
{ACAD_REACTORS
330
1C22
102
}
330
1C22
100
AcDbDictionary
281
     1
1001
ACAD
1000
<All
  0
SORTENTSTABLE
  5
1DCB
102
{ACAD_REACTORS
330
1DCA
102
}
330
1DCA
100
AcDbSortentsTable
330
1F
331
160A
  5
160C
331
123B
  5
123C
331
16AA
  5
16AB
331
495
  5
4A3
331
16B2
  5
16B3
331
3F6
  5
43C
331
17A8
  5
17A9
331
1C7E
  5
1C7F
331
1C86
  5
1C87
331
16BA
  5
16BB
331
3AF
  5
3B1
331
16C2
  5
16C3
331
1C8E
  5
1C8F
331
16CA
  5
16CB
331
15FB
  5
15FC
331
1ACF
  5
1AD0
331
16D2
  5
16D3
331
505
  5
569
331
1DC2
  5
1DC3
331
1888
  5
1889
331
368
  5
398
331
2C9
  5
2E6
331
123C
  5
123D
331
12AC
  5
12AD
331
16AB
  5
16AC
331
16B3
  5
16B4
331
1C7F
  5
1C81
331
17A9
  5
17AA
331
1C87
  5
1C88
331
398
  5
3AF
331
16BB
  5
16BC
331
16C3
  5
16C4
331
15FC
  5
1607
331
16CB
  5
16CC
331
1AD0
  5
1AD1
331
1C8F
  5
1C90
331
16D3
  5
16D4
331
1DC3
  5
1DC4
331
1889
  5
188A
331
160C
  5
160F
331
16A4
  5
16A5
331
123D
  5
123E
331
16AC
  5
16AD
331
12AD
  5
12AE
331
16B4
  5
16B5
331
17A2
  5
17A3
331
17AA
  5
17AB
331
15ED
  5
15EE
331
16BC
  5
16BD
331
16C4
  5
16C5
331
3B1
  5
3CE
331
33A
  5
33B
331
15F5
  5
15F6
331
1C88
  5
1C89
331
1C90
  5
1C91
331
16CC
  5
16CD
331
1AD1
  5
1C7A
331
16D4
  5
17A2
331
1DC4
  5
1DC5
331
188A
  5
188B
331
458
  5
494
331
16A5
  5
16A6
331
123E
  5
12A9
331
3E9
  5
3F6
331
9C
  5
9C
331
12AE
  5
12AF
331
16AD
  5
16AE
331
57F
  5
7D1
331
16B5
  5
16B6
331
17A3
  5
17A4
331
1C81
  5
1C82
331
17AB
  5
17AC
331
2EB
  5
2EE
331
16BD
  5
16BE
331
15EE
  5
15EF
331
16C5
  5
16C6
331
4F8
  5
505
331
33B
  5
33C
331
15F6
  5
15F7
331
1ACA
  5
1ACB
331
1C89
  5
1C8A
331
16CD
  5
16CE
331
35B
  5
368
331
1C91
  5
1C92
331
1DC5
  5
1DC6
331
188B
  5
1ACA
331
F27
  5
1238
331
16A6
  5
16A7
331
16AE
  5
16B0
331
12AF
  5
15ED
331
A5
  5
2C9
331
16B6
  5
16B7
331
17A4
  5
17A5
331
1C7A
  5
1C7B
331
17AC
  5
17AD
331
1C82
  5
1C83
331
15EF
  5
15F0
331
16BE
  5
16BF
331
1C8A
  5
1C8B
331
16C6
  5
16C7
331
33C
  5
33D
331
15F7
  5
15F8
331
1ACB
  5
1ACC
331
16CE
  5
16CF
331
1C92
  5
1C93
331
1DBE
  5
1DBF
331
1607
  5
160A
331
1884
  5
1885
331
1DC6
  5
1DC7
331
160F
  5
16A4
331
1238
  5
123B
331
569
  5
57F
331
16A7
  5
16A8
331
16B7
  5
16B8
331
17A5
  5
17A6
331
1C7B
  5
1C7C
331
1C83
  5
1C84
331
17AD
  5
1884
331
16BF
  5
16C0
331
15F0
  5
15F5
331
16C7
  5
16C8
331
15F8
  5
15F9
331
33D
  5
35B
331
44B
  5
458
331
7D1
  5
7D2
331
1ACC
  5
1ACD
331
1C8B
  5
1C8C
331
8C9
  5
F27
331
16CF
  5
16D0
331
1C93
  5
1C94
331
1885
  5
1886
331
1DBF
  5
1DC0
331
1DC7
  5
1DC8
331
3DC
  5
3E9
331
16A8
  5
16A9
331
12A9
  5
12AC
331
16B0
  5
16B1
331
2E6
  5
2EB
331
17A6
  5
17A7
331
1C7C
  5
1C7D
331
1C84
  5
1C85
331
4A3
  5
4F8
331
2EE
  5
2FE
331
16B8
  5
16B9
331
43C
  5
43D
331
2FE
  5
33A
331
16C0
  5
16C1
331
1C8C
  5
1C8D
331
16C8
  5
16C9
331
7D2
  5
7D3
331
15F9
  5
15FA
331
1ACD
  5
1ACE
331
16D0
  5
16D1
331
1C94
  5
1C95
331
1DC0
  5
1DC1
331
1886
  5
1887
331
1DC8
  5
1DC9
331
16A9
  5
16AA
331
494
  5
495
331
A0
  5
A5
331
16B1
  5
16B2
331
1C7D
  5
1C7E
331
17A7
  5
17A8
331
1C85
  5
1C86
331
16B9
  5
16BA
331
16C1
  5
16C2
331
43D
  5
44B
331
15FA
  5
15FB
331
7D3
  5
8C9
331
16C9
  5
16CA
331
1ACE
  5
1ACF
331
1C8D
  5
1C8E
331
3CE
  5
3DC
331
16D1
  5
16D2
331
1C95
  5
1D9F
331
1887
  5
1888
331
1DC1
  5
1DC2
331
1DC9
  5
A0
  0
XRECORD
  5
1DF8
102
{ACAD_REACTORS
330
1DF7
102
}
330
1DF7
100
AcDbXrecord
280
     1
102
SHADEPLOT
 70
     0
  0
XRECORD
  5
1DFA
102
{ACAD_REACTORS
330
1DF9
102
}
330
1DF9
100
AcDbXrecord
280
     1
102
SHADEPLOT
 70
     0
  0
LAYOUT
  5
22
102
{ACAD_XDICTIONARY
360
1DF3
102
}
102
{ACAD_REACTORS
330
1A
102
}
330
1A
100
AcDbPlotSettings
  1

  2
EPSON PM-800C
  4
A4
  6

 40
3.757083177566528
 41
14.7637300491333
 42
3.757080078125
 43
3.757080078125
 44
209.9733276367187
 45
296.9683227539062
 46
0.0
 47
0.0
 48
0.0
 49
0.0
140
0.0
141
0.0
142
1.0
143
10.0
 70
 11952
 72
     1
 73
     1
 74
     2
  7

 75
    20
147
0.1
148
0.0
149
0.0
100
AcDbLayout
  1
Model
 70
     1
 71
     0
 10
0.0
 20
0.0
 11
12.0
 21
9.0
 12
0.0
 22
0.0
 32
0.0
 14
0.0
 24
0.0
 34
0.0
 15
0.0
 25
0.0
 35
0.0
146
0.0
 13
0.0
 23
0.0
 33
0.0
 16
1.0
 26
0.0
 36
0.0
 17
0.0
 27
1.0
 37
0.0
 76
     0
330
1F
  0
LAYOUT
  5
1E
102
{ACAD_XDICTIONARY
360
1DF1
102
}
102
{ACAD_REACTORS
330
1A
102
}
330
1A
100
AcDbPlotSettings
  1

  2
EPSON PM-800C
  4
A4
  6

 40
3.757083177566528
 41
14.7637300491333
 42
3.757080078125
 43
3.757080078125
 44
209.9733276367187
 45
296.9683227539062
 46
0.0
 47
0.0
 48
0.0
 49
0.0
140
0.0
141
0.0
142
1.0
143
1.0
 70
   688
 72
     1
 73
     1
 74
     5
  7

 75
    16
147
1.0
148
0.0
149
0.0
100
AcDbLayout
  1
ﾚｲｱｳﾄ1
 70
     1
 71
     1
 10
-3.757080078125
 20
-3.757083177566528
 11
293.2112426757813
 21
206.2162444591522
 12
0.0
 22
0.0
 32
0.0
 14
27.8447512626648
 24
20.24591643810271
 34
0.0
 15
250.6027613639831
 25
182.2132479429245
 35
0.0
146
0.0
 13
0.0
 23
0.0
 33
0.0
 16
1.0
 26
0.0
 36
0.0
 17
0.0
 27
1.0
 37
0.0
 76
     0
330
1B
331
2E
  0
LAYOUT
  5
26
102
{ACAD_XDICTIONARY
360
1DF5
102
}
102
{ACAD_REACTORS
330
1A
102
}
330
1A
100
AcDbPlotSettings
  1

  2
EPSON PM-800C
  4

  6

 40
0.0
 41
0.0
 42
0.0
 43
0.0
 44
0.0
 45
0.0
 46
0.0
 47
0.0
 48
0.0
 49
0.0
140
0.0
141
0.0
142
1.0
143
1.0
 70
   688
 72
     0
 73
     0
 74
     5
  7

 75
    16
147
1.0
148
0.0
149
0.0
100
AcDbLayout
  1
ﾚｲｱｳﾄ2
 70
     1
 71
     2
 10
0.0
 20
0.0
 11
12.0
 21
9.0
 12
0.0
 22
0.0
 32
0.0
 14
0.0
 24
0.0
 34
0.0
 15
0.0
 25
0.0
 35
0.0
146
0.0
 13
0.0
 23
0.0
 33
0.0
 16
1.0
 26
0.0
 36
0.0
 17
0.0
 27
1.0
 37
0.0
 76
     0
330
23
  0
MLINESTYLE
  5
18
102
{ACAD_REACTORS
330
17
102
}
330
17
100
AcDbMlineStyle
  2
STANDARD
 70
     0
  3

 62
   256
 51
90.0
 52
90.0
 71
     2
 49
0.5
 62
   256
  6
BYLAYER
 49
-0.5
 62
   256
  6
BYLAYER
  0
ACDBPLACEHOLDER
  5
F
102
{ACAD_REACTORS
330
E
102
}
330
E
  0
TABLESTYLE
  5
17C1
102
{ACAD_REACTORS
330
17C0
102
}
330
17C0
100
AcDbTableStyle
  3
Standard
 70
     0
 71
     0
 40
1.5
 41
1.5
280
     0
281
     0
  7
Standard
140
4.5
170
     2
 62
     0
 63
     7
283
     0
274
    -2
284
     1
 64
     0
275
    -2
285
     1
 65
     0
276
    -2
286
     1
 66
     0
277
    -2
287
     1
 67
     0
278
    -2
288
     1
 68
     0
279
    -2
289
     1
 69
     0
  7
Standard
140
6.0
170
     5
 62
     0
 63
     7
283
     0
274
    -2
284
     1
 64
     0
275
    -2
285
     1
 65
     0
276
    -2
286
     1
 66
     0
277
    -2
287
     1
 67
     0
278
    -2
288
     1
 68
     0
279
    -2
289
     1
 69
     0
  7
Standard
140
4.5
170
     5
 62
     0
 63
     7
283
     0
274
    -2
284
     1
 64
     0
275
    -2
285
     1
 65
     0
276
    -2
286
     1
 66
     0
277
    -2
287
     1
 67
     0
278
    -2
288
     1
 68
     0
279
    -2
289
     1
 69
     0
  0
DICTIONARYVAR
  5
19A4
102
{ACAD_REACTORS
330
19A3
102
}
330
19A3
100
DictionaryVariables
280
     0
  1
STANDARD
  0
DICTIONARYVAR
  5
1DED
102
{ACAD_REACTORS
330
19A3
102
}
330
19A3
100
DictionaryVariables
280
     0
  1
1
  0
DICTIONARYVAR
  5
1DEE
102
{ACAD_REACTORS
330
19A3
102
}
330
19A3
100
DictionaryVariables
280
     0
  1

  0
DICTIONARY
  5
1DF3
330
22
100
AcDbDictionary
280
     1
281
     1
  3
ACAD_XREC_ROUNDTRIP
360
1DF4
  0
DICTIONARY
  5
1DF1
330
1E
100
AcDbDictionary
280
     1
281
     1
  3
ACAD_XREC_ROUNDTRIP
360
1DF2
  0
DICTIONARY
  5
1DF5
330
26
100
AcDbDictionary
280
     1
281
     1
  3
ACAD_XREC_ROUNDTRIP
360
1DF6
  0
XRECORD
  5
1DF4
102
{ACAD_REACTORS
330
1DF3
102
}
330
1DF3
100
AcDbXrecord
280
     1
102
SHADEPLOT
 70
     0
102
SHADEPLOTRESLEVEL
 70
     2
102
SHADEPLOTCUSTOMDPI
 70
   300
  0
XRECORD
  5
1DF2
102
{ACAD_REACTORS
330
1DF1
102
}
330
1DF1
100
AcDbXrecord
280
     1
102
SHADEPLOT
 70
     0
102
SHADEPLOTRESLEVEL
 70
     2
102
SHADEPLOTCUSTOMDPI
 70
   300
  0
XRECORD
  5
1DF6
102
{ACAD_REACTORS
330
1DF5
102
}
330
1DF5
100
AcDbXrecord
280
     1
102
SHADEPLOT
 70
     0
102
SHADEPLOTRESLEVEL
 70
     2
102
SHADEPLOTCUSTOMDPI
 70
   300
  0
ENDSEC
  0
EOF
