  0
SECTION
  2
HEADER
  9
$ACADVER
  1
AC1015
  9
$ACADMAINTVER
 70
    20
  9
$DWGCODEPAGE
  3
ANSI_932
  9
$INSBASE
 10
0.0
 20
0.0
 30
0.0
  9
$EXTMIN
 10
109.0
 20
4.0
 30
0.0
  9
$EXTMAX
 10
2784.0
 20
2024.000000000002
 30
0.0
  9
$LIMMIN
 10
0.0
 20
0.0
  9
$LIMMAX
 10
29700.0
 20
21000.0
  9
$ORTHOMODE
 70
     0
  9
$REGENMODE
 70
     1
  9
$FILLMODE
 70
     1
  9
$QTEXTMODE
 70
     0
  9
$MIRRTEXT
 70
     1
  9
$LTSCALE
 40
4.0
  9
$ATTMODE
 70
     1
  9
$TEXTSIZE
 40
25.0
  9
$TRACEWID
 40
1.0
  9
$TEXTSTYLE
  7
Standard
  9
$CLAYER
  8
実形
  9
$CELTYPE
  6
ByLayer
  9
$CECOLOR
 62
     3
  9
$CELTSCALE
 40
1.0
  9
$DISPSILH
 70
     0
  9
$DIMSCALE
 40
1.0
  9
$DIMASZ
 40
35.0
  9
$DIMEXO
 40
65.0
  9
$DIMDLI
 40
3.75
  9
$DIMRND
 40
0.0
  9
$DIMDLE
 40
0.0
  9
$DIMEXE
 40
0.0
  9
$DIMTP
 40
0.0
  9
$DIMTM
 40
0.0
  9
$DIMTXT
 40
25.0
  9
$DIMCEN
 40
2.5
  9
$DIMTSZ
 40
0.0
  9
$DIMTOL
 70
     0
  9
$DIMLIM
 70
     0
  9
$DIMTIH
 70
     0
  9
$DIMTOH
 70
     0
  9
$DIMSE1
 70
     0
  9
$DIMSE2
 70
     0
  9
$DIMTAD
 70
     1
  9
$DIMZIN
 70
     8
  9
$DIMBLK
  1
DotSmall
  9
$DIMASO
 70
     1
  9
$DIMSHO
 70
     1
  9
$DIMPOST
  1

  9
$DIMAPOST
  1

  9
$DIMALT
 70
     0
  9
$DIMALTD
 70
     3
  9
$DIMALTF
 40
0.03937007874016
  9
$DIMLFAC
 40
1.0
  9
$DIMTOFL
 70
     1
  9
$DIMTVP
 40
0.0
  9
$DIMTIX
 70
     0
  9
$DIMSOXD
 70
     0
  9
$DIMSAH
 70
     0
  9
$DIMBLK1
  1

  9
$DIMBLK2
  1

  9
$DIMSTYLE
  2
ISO-25
  9
$DIMCLRD
 70
     0
  9
$DIMCLRE
 70
     0
  9
$DIMCLRT
 70
     0
  9
$DIMTFAC
 40
1.0
  9
$DIMGAP
 40
6.25
  9
$DIMJUST
 70
     0
  9
$DIMSD1
 70
     0
  9
$DIMSD2
 70
     0
  9
$DIMTOLJ
 70
     0
  9
$DIMTZIN
 70
     8
  9
$DIMALTZ
 70
     0
  9
$DIMALTTZ
 70
     0
  9
$DIMUPT
 70
     0
  9
$DIMDEC
 70
     2
  9
$DIMTDEC
 70
     2
  9
$DIMALTU
 70
     2
  9
$DIMALTTD
 70
     3
  9
$DIMTXSTY
  7
Standard
  9
$DIMAUNIT
 70
     0
  9
$DIMADEC
 70
     0
  9
$DIMALTRND
 40
0.0
  9
$DIMAZIN
 70
     0
  9
$DIMDSEP
 70
    46
  9
$DIMATFIT
 70
     0
  9
$DIMFRAC
 70
     0
  9
$DIMLDRBLK
  1
Open30
  9
$DIMLUNIT
 70
     2
  9
$DIMLWD
 70
    18
  9
$DIMLWE
 70
    18
  9
$DIMTMOVE
 70
     2
  9
$LUNITS
 70
     2
  9
$LUPREC
 70
     2
  9
$SKETCHINC
 40
1.0
  9
$FILLETRAD
 40
20.0
  9
$AUNITS
 70
     0
  9
$AUPREC
 70
     0
  9
$MENU
  1
.
  9
$ELEVATION
 40
0.0
  9
$PELEVATION
 40
0.0
  9
$THICKNESS
 40
0.0
  9
$LIMCHECK
 70
     1
  9
$CHAMFERA
 40
10.0
  9
$CHAMFERB
 40
10.0
  9
$CHAMFERC
 40
20.0
  9
$CHAMFERD
 40
0.0
  9
$SKPOLY
 70
     0
  9
$TDCREATE
 40
2451673.575802199
  9
$TDUCREATE
 40
2451673.200802199
  9
$TDUPDATE
 40
2458809.719379896
  9
$TDUUPDATE
 40
2458809.344379896
  9
$TDINDWG
 40
1.8395494560
  9
$TDUSRTIMER
 40
1.8395487616
  9
$USRTIMER
 70
     1
  9
$ANGBASE
 50
0.0
  9
$ANGDIR
 70
     0
  9
$PDMODE
 70
     3
  9
$PDSIZE
 40
0.0
  9
$PLINEWID
 40
0.0
  9
$SPLFRAME
 70
     0
  9
$SPLINETYPE
 70
     6
  9
$SPLINESEGS
 70
     8
  9
$HANDSEED
  5
6C77
  9
$SURFTAB1
 70
     6
  9
$SURFTAB2
 70
     6
  9
$SURFTYPE
 70
     6
  9
$SURFU
 70
     6
  9
$SURFV
 70
     6
  9
$UCSBASE
  2

  9
$UCSNAME
  2

  9
$UCSORG
 10
0.0
 20
0.0
 30
0.0
  9
$UCSXDIR
 10
1.0
 20
0.0
 30
0.0
  9
$UCSYDIR
 10
0.0
 20
1.0
 30
0.0
  9
$UCSORTHOREF
  2

  9
$UCSORTHOVIEW
 70
     0
  9
$UCSORGTOP
 10
0.0
 20
0.0
 30
0.0
  9
$UCSORGBOTTOM
 10
0.0
 20
0.0
 30
0.0
  9
$UCSORGLEFT
 10
0.0
 20
0.0
 30
0.0
  9
$UCSORGRIGHT
 10
0.0
 20
0.0
 30
0.0
  9
$UCSORGFRONT
 10
0.0
 20
0.0
 30
0.0
  9
$UCSORGBACK
 10
0.0
 20
0.0
 30
0.0
  9
$PUCSBASE
  2

  9
$PUCSNAME
  2

  9
$PUCSORG
 10
0.0
 20
0.0
 30
0.0
  9
$PUCSXDIR
 10
1.0
 20
0.0
 30
0.0
  9
$PUCSYDIR
 10
0.0
 20
1.0
 30
0.0
  9
$PUCSORTHOREF
  2

  9
$PUCSORTHOVIEW
 70
     0
  9
$PUCSORGTOP
 10
0.0
 20
0.0
 30
0.0
  9
$PUCSORGBOTTOM
 10
0.0
 20
0.0
 30
0.0
  9
$PUCSORGLEFT
 10
0.0
 20
0.0
 30
0.0
  9
$PUCSORGRIGHT
 10
0.0
 20
0.0
 30
0.0
  9
$PUCSORGFRONT
 10
0.0
 20
0.0
 30
0.0
  9
$PUCSORGBACK
 10
0.0
 20
0.0
 30
0.0
  9
$USERI1
 70
     0
  9
$USERI2
 70
     0
  9
$USERI3
 70
     0
  9
$USERI4
 70
     0
  9
$USERI5
 70
     0
  9
$USERR1
 40
0.0
  9
$USERR2
 40
0.0
  9
$USERR3
 40
0.0
  9
$USERR4
 40
0.0
  9
$USERR5
 40
0.0
  9
$WORLDVIEW
 70
     1
  9
$SHADEDGE
 70
     3
  9
$SHADEDIF
 70
    70
  9
$TILEMODE
 70
     1
  9
$MAXACTVP
 70
    64
  9
$PINSBASE
 10
0.0
 20
0.0
 30
0.0
  9
$PLIMCHECK
 70
     0
  9
$PEXTMIN
 10
27.8447512626648
 20
20.24591643810271
 30
0.0
  9
$PEXTMAX
 10
250.6027613639831
 20
182.2132479429245
 30
0.0
  9
$PLIMMIN
 10
-3.757080078125
 20
-3.757083177566528
  9
$PLIMMAX
 10
293.2112426757813
 20
206.2162444591522
  9
$UNITMODE
 70
     0
  9
$VISRETAIN
 70
     1
  9
$PLINEGEN
 70
     0
  9
$PSLTSCALE
 70
     1
  9
$TREEDEPTH
 70
  3020
  9
$CMLSTYLE
  2
Standard
  9
$CMLJUST
 70
     0
  9
$CMLSCALE
 40
20.0
  9
$PROXYGRAPHICS
 70
     1
  9
$MEASUREMENT
 70
     1
  9
$CELWEIGHT
370
    -1
  9
$ENDCAPS
280
     0
  9
$JOINSTYLE
280
     0
  9
$LWDISPLAY
290
     0
  9
$INSUNITS
 70
     4
  9
$HYPERLINKBASE
  1

  9
$STYLESHEET
  1

  9
$XEDIT
290
     1
  9
$CEPSNTYPE
380
     0
  9
$PSTYLEMODE
290
     1
  9
$FINGERPRINTGUID
  2
{C8EA1F16-24C9-11D4-9416-CE0A3B32152F}
  9
$VERSIONGUID
  2
{87223D35-7485-4D16-9EDC-22A8852EE65A}
  9
$EXTNAMES
290
     1
  9
$PSVPSCALE
 40
0.0
  9
$OLESTARTUP
290
     0
  0
ENDSEC
  0
SECTION
  2
CLASSES
  0
CLASS
  1
ACDBDICTIONARYWDFLT
  2
AcDbDictionaryWithDefault
  3
ObjectDBX Classes
 90
        0
280
     0
281
     0
  0
CLASS
  1
ACDBPLACEHOLDER
  2
AcDbPlaceHolder
  3
ObjectDBX Classes
 90
        0
280
     0
281
     0
  0
CLASS
  1
LAYOUT
  2
AcDbLayout
  3
ObjectDBX Classes
 90
        0
280
     0
281
     0
  0
CLASS
  1
DICTIONARYVAR
  2
AcDbDictionaryVar
  3
ObjectDBX Classes
 90
        0
280
     0
281
     0
  0
CLASS
  1
TABLESTYLE
  2
AcDbTableStyle
  3
ObjectDBX Classes
 90
     2047
280
     0
281
     0
  0
CLASS
  1
SORTENTSTABLE
  2
AcDbSortentsTable
  3
ObjectDBX Classes
 90
        0
280
     0
281
     0
  0
ENDSEC
  0
SECTION
  2
TABLES
  0
TABLE
  2
VPORT
  5
8
330
0
100
AcDbSymbolTable
 70
     2
  0
VPORT
  5
6C6B
330
8
100
AcDbSymbolTableRecord
100
AcDbViewportTableRecord
  2
*Active
 70
     0
 10
0.0
 20
0.0
 11
1.0
 21
1.0
 12
1332.590087596707
 22
1002.040494217773
 13
0.0
 23
0.0
 14
10.0
 24
10.0
 15
10.0
 25
10.0
 16
0.0
 26
0.0
 36
1.0
 17
0.0
 27
0.0
 37
0.0
 40
2325.359471795326
 41
1.29038112522686
 42
50.0
 43
0.0
 44
0.0
 50
0.0
 51
0.0
 71
     0
 72
   100
 73
     1
 74
     3
 75
     0
 76
     0
 77
     0
 78
     0
281
     0
 65
     1
110
0.0
120
0.0
130
0.0
111
1.0
121
0.0
131
0.0
112
0.0
122
1.0
132
0.0
 79
     0
146
0.0
  0
ENDTAB
  0
TABLE
  2
LTYPE
  5
5
330
0
100
AcDbSymbolTable
 70
    46
  0
LTYPE
  5
14
330
5
100
AcDbSymbolTableRecord
100
AcDbLinetypeTableRecord
  2
ByBlock
 70
     0
  3

 72
    65
 73
     0
 40
0.0
  0
LTYPE
  5
15
330
5
100
AcDbSymbolTableRecord
100
AcDbLinetypeTableRecord
  2
ByLayer
 70
     0
  3

 72
    65
 73
     0
 40
0.0
  0
LTYPE
  5
16
330
5
100
AcDbSymbolTableRecord
100
AcDbLinetypeTableRecord
  2
Continuous
 70
     0
  3
Solid line
 72
    65
 73
     0
 40
0.0
  0
LTYPE
  5
34
330
5
100
AcDbSymbolTableRecord
100
AcDbLinetypeTableRecord
  2
ACAD_ISO02W100
 70
     0
  3
ISO dash __ __ __ __ __ __ __ __ __ __ __ __ __
 72
    65
 73
     2
 40
15.0
 49
12.0
 74
     0
 49
-3.0
 74
     0
  0
LTYPE
  5
35
330
5
100
AcDbSymbolTableRecord
100
AcDbLinetypeTableRecord
  2
ACAD_ISO03W100
 70
     0
  3
ISO dash space __    __    __    __    __    __
 72
    65
 73
     2
 40
30.0
 49
12.0
 74
     0
 49
-18.0
 74
     0
  0
LTYPE
  5
36
330
5
100
AcDbSymbolTableRecord
100
AcDbLinetypeTableRecord
  2
ACAD_ISO04W100
 70
     0
  3
ISO long-dash dot ____ . ____ . ____ . ____ . _
 72
    65
 73
     4
 40
30.0
 49
24.0
 74
     0
 49
-3.0
 74
     0
 49
0.0
 74
     0
 49
-3.0
 74
     0
  0
LTYPE
  5
37
330
5
100
AcDbSymbolTableRecord
100
AcDbLinetypeTableRecord
  2
ACAD_ISO05W100
 70
     0
  3
ISO long-dash double-dot ____ .. ____ .. ____ .
 72
    65
 73
     6
 40
34.0
 49
24.0
 74
     0
 49
-3.0
 74
     0
 49
0.5
 74
     0
 49
-3.0
 74
     0
 49
0.5
 74
     0
 49
-3.0
 74
     0
  0
LTYPE
  5
38
330
5
100
AcDbSymbolTableRecord
100
AcDbLinetypeTableRecord
  2
ACAD_ISO06W100
 70
     0
  3
ISO long-dash triple-dot ____ ... ____ ... ____
 72
    65
 73
     8
 40
37.5
 49
24.0
 74
     0
 49
-3.0
 74
     0
 49
0.5
 74
     0
 49
-3.0
 74
     0
 49
0.5
 74
     0
 49
-3.0
 74
     0
 49
0.5
 74
     0
 49
-3.0
 74
     0
  0
LTYPE
  5
39
330
5
100
AcDbSymbolTableRecord
100
AcDbLinetypeTableRecord
  2
ACAD_ISO07W100
 70
     0
  3
ISO dot . . . . . . . . . . . . . . . . . . . .
 72
    65
 73
     2
 40
3.0
 49
0.0
 74
     0
 49
-3.0
 74
     0
  0
LTYPE
  5
3A
330
5
100
AcDbSymbolTableRecord
100
AcDbLinetypeTableRecord
  2
ACAD_ISO08W100
 70
     0
  3
ISO long-dash short-dash ____ __ ____ __ ____ _
 72
    65
 73
     4
 40
36.0
 49
24.0
 74
     0
 49
-3.0
 74
     0
 49
6.0
 74
     0
 49
-3.0
 74
     0
  0
LTYPE
  5
3B
330
5
100
AcDbSymbolTableRecord
100
AcDbLinetypeTableRecord
  2
ACAD_ISO09W100
 70
     0
  3
ISO long-dash double-short-dash ____ __ __ ____
 72
    65
 73
     6
 40
45.0
 49
24.0
 74
     0
 49
-3.0
 74
     0
 49
6.0
 74
     0
 49
-3.0
 74
     0
 49
6.0
 74
     0
 49
-3.0
 74
     0
  0
LTYPE
  5
3C
330
5
100
AcDbSymbolTableRecord
100
AcDbLinetypeTableRecord
  2
ACAD_ISO10W100
 70
     0
  3
ISO dash dot __ . __ . __ . __ . __ . __ . __ .
 72
    65
 73
     4
 40
18.0
 49
12.0
 74
     0
 49
-3.0
 74
     0
 49
0.0
 74
     0
 49
-3.0
 74
     0
  0
LTYPE
  5
3D
330
5
100
AcDbSymbolTableRecord
100
AcDbLinetypeTableRecord
  2
ACAD_ISO11W100
 70
     0
  3
ISO double-dash dot __ __ . __ __ . __ __ . __ 
 72
    65
 73
     6
 40
33.0
 49
12.0
 74
     0
 49
-3.0
 74
     0
 49
12.0
 74
     0
 49
-3.0
 74
     0
 49
0.0
 74
     0
 49
-3.0
 74
     0
  0
LTYPE
  5
3E
330
5
100
AcDbSymbolTableRecord
100
AcDbLinetypeTableRecord
  2
ACAD_ISO12W100
 70
     0
  3
ISO dash double-dot __ . . __ . . __ . . __ . .
 72
    65
 73
     6
 40
21.0
 49
12.0
 74
     0
 49
-3.0
 74
     0
 49
0.0
 74
     0
 49
-3.0
 74
     0
 49
0.0
 74
     0
 49
-3.0
 74
     0
  0
LTYPE
  5
3F
330
5
100
AcDbSymbolTableRecord
100
AcDbLinetypeTableRecord
  2
ACAD_ISO13W100
 70
     0
  3
ISO double-dash double-dot __ __ . . __ __ . . 
 72
    65
 73
     8
 40
36.0
 49
12.0
 74
     0
 49
-3.0
 74
     0
 49
12.0
 74
     0
 49
-3.0
 74
     0
 49
0.0
 74
     0
 49
-3.0
 74
     0
 49
0.0
 74
     0
 49
-3.0
 74
     0
  0
LTYPE
  5
40
330
5
100
AcDbSymbolTableRecord
100
AcDbLinetypeTableRecord
  2
ACAD_ISO14W100
 70
     0
  3
ISO dash triple-dot __ . . . __ . . . __ . . . 
 72
    65
 73
     8
 40
24.0
 49
12.0
 74
     0
 49
-3.0
 74
     0
 49
0.0
 74
     0
 49
-3.0
 74
     0
 49
0.0
 74
     0
 49
-3.0
 74
     0
 49
0.0
 74
     0
 49
-3.0
 74
     0
  0
LTYPE
  5
41
330
5
100
AcDbSymbolTableRecord
100
AcDbLinetypeTableRecord
  2
ACAD_ISO15W100
 70
     0
  3
ISO double-dash triple-dot __ __ . . . __ __ . 
 72
    65
 73
    10
 40
39.0
 49
12.0
 74
     0
 49
-3.0
 74
     0
 49
12.0
 74
     0
 49
-3.0
 74
     0
 49
0.0
 74
     0
 49
-3.0
 74
     0
 49
0.0
 74
     0
 49
-3.0
 74
     0
 49
0.0
 74
     0
 49
-3.0
 74
     0
  0
LTYPE
  5
42
330
5
100
AcDbSymbolTableRecord
100
AcDbLinetypeTableRecord
  2
BATTING
 70
     0
  3
Batting SSSSSSSSSSSSSSSSSSSSSSSSSSSSSSSSSSSSSSS
 72
    65
 73
     4
 40
10.16254
 49
0.00254
 74
     0
 49
-2.54
 74
     4
 75
   134
340
33
 46
2.54
 50
0.0
 44
-2.54
 45
0.0
 49
-5.08
 74
     4
 75
   134
340
33
 46
2.54
 50
180.0
 44
2.54
 45
0.0
 49
-2.54
 74
     0
  0
LTYPE
  5
43
330
5
100
AcDbSymbolTableRecord
100
AcDbLinetypeTableRecord
  2
BORDER
 70
     0
  3
Border __ __ . __ __ . __ __ . __ __ . __ __ .
 72
    65
 73
     6
 40
44.45
 49
12.7
 74
     0
 49
-6.349999999999999
 74
     0
 49
12.7
 74
     0
 49
-6.349999999999999
 74
     0
 49
0.0
 74
     0
 49
-6.349999999999999
 74
     0
  0
LTYPE
  5
44
330
5
100
AcDbSymbolTableRecord
100
AcDbLinetypeTableRecord
  2
BORDER2
 70
     0
  3
Border (.5x) __.__.__.__.__.__.__.__.__.__.__.
 72
    65
 73
     6
 40
22.225
 49
6.349999999999999
 74
     0
 49
-3.174999999999999
 74
     0
 49
6.349999999999999
 74
     0
 49
-3.174999999999999
 74
     0
 49
0.0
 74
     0
 49
-3.174999999999999
 74
     0
  0
LTYPE
  5
45
330
5
100
AcDbSymbolTableRecord
100
AcDbLinetypeTableRecord
  2
BORDERX2
 70
     0
  3
Border (2x) ____  ____  .  ____  ____  .  ___
 72
    65
 73
     6
 40
88.9
 49
25.4
 74
     0
 49
-12.7
 74
     0
 49
25.4
 74
     0
 49
-12.7
 74
     0
 49
0.0
 74
     0
 49
-12.7
 74
     0
  0
LTYPE
  5
46
330
5
100
AcDbSymbolTableRecord
100
AcDbLinetypeTableRecord
  2
CENTER
 70
     0
  3
Center ____ _ ____ _ ____ _ ____ _ ____ _ ____
 72
    65
 73
     4
 40
50.8
 49
31.75
 74
     0
 49
-6.349999999999999
 74
     0
 49
6.349999999999999
 74
     0
 49
-6.349999999999999
 74
     0
  0
LTYPE
  5
47
330
5
100
AcDbSymbolTableRecord
100
AcDbLinetypeTableRecord
  2
CENTER2
 70
     0
  3
Center (.5x) ___ _ ___ _ ___ _ ___ _ ___ _ ___
 72
    65
 73
     4
 40
28.575
 49
19.05
 74
     0
 49
-3.174999999999999
 74
     0
 49
3.174999999999999
 74
     0
 49
-3.174999999999999
 74
     0
  0
LTYPE
  5
48
330
5
100
AcDbSymbolTableRecord
100
AcDbLinetypeTableRecord
  2
CENTERX2
 70
     0
  3
Center (2x) ________  __  ________  __  _____
 72
    65
 73
     4
 40
101.6
 49
63.5
 74
     0
 49
-12.7
 74
     0
 49
12.7
 74
     0
 49
-12.7
 74
     0
  0
LTYPE
  5
49
330
5
100
AcDbSymbolTableRecord
100
AcDbLinetypeTableRecord
  2
DASHDOT
 70
     0
  3
Dash dot __ . __ . __ . __ . __ . __ . __ . __
 72
    65
 73
     4
 40
25.4
 49
12.7
 74
     0
 49
-6.349999999999999
 74
     0
 49
0.0
 74
     0
 49
-6.349999999999999
 74
     0
  0
LTYPE
  5
4A
330
5
100
AcDbSymbolTableRecord
100
AcDbLinetypeTableRecord
  2
DASHDOT2
 70
     0
  3
Dash dot (.5x) _._._._._._._._._._._._._._._.
 72
    65
 73
     4
 40
12.7
 49
6.349999999999999
 74
     0
 49
-3.174999999999999
 74
     0
 49
0.0
 74
     0
 49
-3.174999999999999
 74
     0
  0
LTYPE
  5
4B
330
5
100
AcDbSymbolTableRecord
100
AcDbLinetypeTableRecord
  2
DASHDOTX2
 70
     0
  3
Dash dot (2x) ____  .  ____  .  ____  .  ___
 72
    65
 73
     4
 40
50.8
 49
25.4
 74
     0
 49
-12.7
 74
     0
 49
0.0
 74
     0
 49
-12.7
 74
     0
  0
LTYPE
  5
4C
330
5
100
AcDbSymbolTableRecord
100
AcDbLinetypeTableRecord
  2
DASHED
 70
     0
  3
Dashed __ __ __ __ __ __ __ __ __ __ __ __ __ _
 72
    65
 73
     2
 40
19.05
 49
12.7
 74
     0
 49
-6.349999999999999
 74
     0
  0
LTYPE
  5
4D
330
5
100
AcDbSymbolTableRecord
100
AcDbLinetypeTableRecord
  2
DASHED2
 70
     0
  3
Dashed (.5x) _ _ _ _ _ _ _ _ _ _ _ _ _ _ _ _ _
 72
    65
 73
     2
 40
9.524999999999998
 49
6.349999999999999
 74
     0
 49
-3.174999999999999
 74
     0
  0
LTYPE
  5
4E
330
5
100
AcDbSymbolTableRecord
100
AcDbLinetypeTableRecord
  2
DASHEDX2
 70
     0
  3
Dashed (2x) ____  ____  ____  ____  ____  ___
 72
    65
 73
     2
 40
38.1
 49
25.4
 74
     0
 49
-12.7
 74
     0
  0
LTYPE
  5
4F
330
5
100
AcDbSymbolTableRecord
100
AcDbLinetypeTableRecord
  2
DIVIDE
 70
     0
  3
Divide ____ . . ____ . . ____ . . ____ . . ____
 72
    65
 73
     6
 40
31.75
 49
12.7
 74
     0
 49
-6.349999999999999
 74
     0
 49
0.0
 74
     0
 49
-6.349999999999999
 74
     0
 49
0.0
 74
     0
 49
-6.349999999999999
 74
     0
  0
LTYPE
  5
50
330
5
100
AcDbSymbolTableRecord
100
AcDbLinetypeTableRecord
  2
DIVIDE2
 70
     0
  3
Divide (.5x) __..__..__..__..__..__..__..__.._
 72
    65
 73
     6
 40
15.875
 49
6.349999999999999
 74
     0
 49
-3.174999999999999
 74
     0
 49
0.0
 74
     0
 49
-3.174999999999999
 74
     0
 49
0.0
 74
     0
 49
-3.174999999999999
 74
     0
  0
LTYPE
  5
51
330
5
100
AcDbSymbolTableRecord
100
AcDbLinetypeTableRecord
  2
DIVIDEX2
 70
     0
  3
Divide (2x) ________  .  .  ________  .  .  _
 72
    65
 73
     6
 40
63.49999999999999
 49
25.4
 74
     0
 49
-12.7
 74
     0
 49
0.0
 74
     0
 49
-12.7
 74
     0
 49
0.0
 74
     0
 49
-12.7
 74
     0
  0
LTYPE
  5
52
330
5
100
AcDbSymbolTableRecord
100
AcDbLinetypeTableRecord
  2
DOT
 70
     0
  3
Dot . . . . . . . . . . . . . . . . . . . . . .
 72
    65
 73
     2
 40
6.349999999999999
 49
0.0
 74
     0
 49
-6.349999999999999
 74
     0
  0
LTYPE
  5
53
330
5
100
AcDbSymbolTableRecord
100
AcDbLinetypeTableRecord
  2
DOT2
 70
     0
  3
Dot (.5x) .....................................
 72
    65
 73
     2
 40
3.174999999999999
 49
0.0
 74
     0
 49
-3.174999999999999
 74
     0
  0
LTYPE
  5
54
330
5
100
AcDbSymbolTableRecord
100
AcDbLinetypeTableRecord
  2
DOTX2
 70
     0
  3
Dot (2x) .  .  .  .  .  .  .  .  .  .  .  .  . 
 72
    65
 73
     2
 40
12.7
 49
0.0
 74
     0
 49
-12.7
 74
     0
  0
LTYPE
  5
55
330
5
100
AcDbSymbolTableRecord
100
AcDbLinetypeTableRecord
  2
FENCELINE1
 70
     0
  3
Fenceline circle ----0-----0----0-----0----0---
 72
    65
 73
     4
 40
36.83
 49
6.349999999999999
 74
     0
 49
-2.54
 74
     4
 75
   133
340
33
 46
2.54
 50
0.0
 44
-2.54
 45
0.0
 49
-2.54
 74
     0
 49
25.4
 74
     0
  0
LTYPE
  5
56
330
5
100
AcDbSymbolTableRecord
100
AcDbLinetypeTableRecord
  2
FENCELINE2
 70
     0
  3
Fenceline square ----[]-----[]----[]-----[]----
 72
    65
 73
     4
 40
36.83
 49
6.349999999999999
 74
     0
 49
-2.54
 74
     4
 75
   132
340
33
 46
2.54
 50
0.0
 44
-2.54
 45
0.0
 49
-2.54
 74
     0
 49
25.4
 74
     0
  0
LTYPE
  5
57
330
5
100
AcDbSymbolTableRecord
100
AcDbLinetypeTableRecord
  2
GAS_LINE
 70
     0
  3
Gas line ----GAS----GAS----GAS----GAS----GAS---
 72
    65
 73
     3
 40
24.13
 49
12.7
 74
     0
 49
-5.08
 74
     2
 75
     0
340
11
 46
2.54
 50
0.0
 44
-2.54
 45
-1.27
  9
GAS
 49
-6.349999999999999
 74
     0
  0
LTYPE
  5
58
330
5
100
AcDbSymbolTableRecord
100
AcDbLinetypeTableRecord
  2
HIDDEN
 70
     0
  3
Hidden __ __ __ __ __ __ __ __ __ __ __ __ __ _
 72
    65
 73
     2
 40
9.524999999999998
 49
6.349999999999999
 74
     0
 49
-3.174999999999999
 74
     0
  0
LTYPE
  5
59
330
5
100
AcDbSymbolTableRecord
100
AcDbLinetypeTableRecord
  2
HIDDEN2
 70
     0
  3
Hidden (.5x) _ _ _ _ _ _ _ _ _ _ _ _ _ _ _ _ _
 72
    65
 73
     2
 40
4.762499999999999
 49
3.174999999999999
 74
     0
 49
-1.587499999999999
 74
     0
  0
LTYPE
  5
5A
330
5
100
AcDbSymbolTableRecord
100
AcDbLinetypeTableRecord
  2
HIDDENX2
 70
     0
  3
Hidden (2x) ____ ____ ____ ____ ____ ____ ____
 72
    65
 73
     2
 40
19.05
 49
12.7
 74
     0
 49
-6.349999999999999
 74
     0
  0
LTYPE
  5
5B
330
5
100
AcDbSymbolTableRecord
100
AcDbLinetypeTableRecord
  2
HOT_WATER_SUPPLY
 70
     0
  3
Hot water supply ---- HW ---- HW ---- HW ----
 72
    65
 73
     3
 40
22.86
 49
12.7
 74
     0
 49
-5.08
 74
     2
 75
     0
340
11
 46
2.54
 50
0.0
 44
-2.54
 45
-1.27
  9
HW
 49
-5.08
 74
     0
  0
LTYPE
  5
5C
330
5
100
AcDbSymbolTableRecord
100
AcDbLinetypeTableRecord
  2
PHANTOM
 70
     0
  3
Phantom ______  __  __  ______  __  __  ______
 72
    65
 73
     6
 40
63.5
 49
31.75
 74
     0
 49
-6.349999999999999
 74
     0
 49
6.349999999999999
 74
     0
 49
-6.349999999999999
 74
     0
 49
6.349999999999999
 74
     0
 49
-6.349999999999999
 74
     0
  0
LTYPE
  5
5D
330
5
100
AcDbSymbolTableRecord
100
AcDbLinetypeTableRecord
  2
PHANTOM2
 70
     0
  3
Phantom (.5x) ___ _ _ ___ _ _ ___ _ _ ___ _ _
 72
    65
 73
     6
 40
31.75
 49
15.875
 74
     0
 49
-3.174999999999999
 74
     0
 49
3.174999999999999
 74
     0
 49
-3.174999999999999
 74
     0
 49
3.174999999999999
 74
     0
 49
-3.174999999999999
 74
     0
  0
LTYPE
  5
5E
330
5
100
AcDbSymbolTableRecord
100
AcDbLinetypeTableRecord
  2
PHANTOMX2
 70
     0
  3
Phantom (2x) ____________    ____    ____   _
 72
    65
 73
     6
 40
127.0
 49
63.5
 74
     0
 49
-12.7
 74
     0
 49
12.7
 74
     0
 49
-12.7
 74
     0
 49
12.7
 74
     0
 49
-12.7
 74
     0
  0
LTYPE
  5
5F
330
5
100
AcDbSymbolTableRecord
100
AcDbLinetypeTableRecord
  2
TRACKS
 70
     0
  3
Tracks -|-|-|-|-|-|-|-|-|-|-|-|-|-|-|-|-|-|-|-|
 72
    65
 73
     2
 40
7.62
 49
3.81
 74
     4
 75
   130
340
33
 46
6.349999999999999
 50
0.0
 44
0.0
 45
0.0
 49
3.81
 74
     0
  0
LTYPE
  5
60
330
5
100
AcDbSymbolTableRecord
100
AcDbLinetypeTableRecord
  2
ZIGZAG
 70
     0
  3
Zig zag /\/\/\/\/\/\/\/\/\/\/\/\/\/\/\/\/\/\/\/
 72
    65
 73
     4
 40
20.32254
 49
0.00254
 74
     0
 49
-5.08
 74
     4
 75
   131
340
33
 46
5.08
 50
0.0
 44
-5.08
 45
0.0
 49
-10.16
 74
     4
 75
   131
340
33
 46
5.08
 50
180.0
 44
5.08
 45
0.0
 49
-5.08
 74
     0
  0
ENDTAB
  0
TABLE
  2
LAYER
  5
2
102
{ACAD_XDICTIONARY
360
2635
102
}
330
0
100
AcDbSymbolTable
 70
     9
  0
LAYER
  5
10
330
2
100
AcDbSymbolTableRecord
100
AcDbLayerTableRecord
  2
0
 70
     0
 62
     7
  6
Continuous
370
    -3
390
F
  0
LAYER
  5
C3
330
2
100
AcDbSymbolTableRecord
100
AcDbLayerTableRecord
  2
Defpoints
 70
     0
 62
     7
  6
Continuous
290
     0
370
    -3
390
F
  0
LAYER
  5
256
330
2
100
AcDbSymbolTableRecord
100
AcDbLayerTableRecord
  2
センター
 70
     0
 62
     7
  6
CENTER2
370
    18
390
F
  0
LAYER
  5
268
330
2
100
AcDbSymbolTableRecord
100
AcDbLayerTableRecord
  2
実形
 70
     0
 62
     7
  6
Continuous
370
    -3
390
F
  0
LAYER
  5
269
330
2
100
AcDbSymbolTableRecord
100
AcDbLayerTableRecord
  2
補助
 70
     0
 62
     7
  6
Continuous
370
    -3
390
F
  0
LAYER
  5
26A
330
2
100
AcDbSymbolTableRecord
100
AcDbLayerTableRecord
  2
寸法
 70
     0
 62
     7
  6
Continuous
370
    18
390
F
  0
LAYER
  5
26B
330
2
100
AcDbSymbolTableRecord
100
AcDbLayerTableRecord
  2
ハッチング
 70
     0
 62
     7
  6
Continuous
370
    18
390
F
  0
LAYER
  5
26D
330
2
100
AcDbSymbolTableRecord
100
AcDbLayerTableRecord
  2
文字
 70
     0
 62
     7
  6
Continuous
370
    -3
390
F
  0
LAYER
  5
6B6A
330
2
100
AcDbSymbolTableRecord
100
AcDbLayerTableRecord
  2
枠
 70
     0
 62
     7
  6
Continuous
370
    -3
390
F
  0
ENDTAB
  0
TABLE
  2
STYLE
  5
3
330
0
100
AcDbSymbolTable
 70
     4
  0
STYLE
  5
11
330
3
100
AcDbSymbolTableRecord
100
AcDbTextStyleTableRecord
  2
Standard
 70
     0
 40
0.0
 41
1.0
 50
0.0
 71
     0
 42
25.0
  3
txt.shx
  4
bigfont.shx
  0
STYLE
  5
33
330
3
100
AcDbSymbolTableRecord
100
AcDbTextStyleTableRecord
  2

 70
     1
 40
0.0
 41
1.0
 50
0.0
 71
     0
 42
2.5
  3
ltypeshp.shx
  4

  0
STYLE
  5
272B
330
3
100
AcDbSymbolTableRecord
100
AcDbTextStyleTableRecord
  2
MS明朝
 70
     0
 40
0.0
 41
1.0
 50
0.0
 71
     0
 42
25.0
  3
MS PMincho.ttf
  4

1001
ACAD
1000
MS PMincho
1071
    32786
  0
STYLE
  5
6BC3
330
3
100
AcDbSymbolTableRecord
100
AcDbTextStyleTableRecord
  2
明朝
 70
     0
 40
0.0
 41
1.0
 50
0.0
 71
     0
 42
25.0
  3
MS Mincho.ttf
  4

1001
ACAD
1000
MS Mincho
1071
    32785
  0
ENDTAB
  0
TABLE
  2
VIEW
  5
6
330
0
100
AcDbSymbolTable
 70
     0
  0
ENDTAB
  0
TABLE
  2
UCS
  5
7
330
0
100
AcDbSymbolTable
 70
     0
  0
ENDTAB
  0
TABLE
  2
APPID
  5
9
330
0
100
AcDbSymbolTable
 70
     1
  0
APPID
  5
12
330
9
100
AcDbSymbolTableRecord
100
AcDbRegAppTableRecord
  2
ACAD
 70
     0
  0
ENDTAB
  0
TABLE
  2
DIMSTYLE
  5
A
330
0
100
AcDbSymbolTable
 70
     1
100
AcDbDimStyleTable
 71
     1
340
27
  0
DIMSTYLE
105
27
102
{ACAD_REACTORS
330
1677
330
1678
330
1679
330
167B
330
169D
330
16CA
330
3819
330
381A
330
168D
330
5E69
330
5ECF
330
5F12
330
5F91
330
5FFF
330
6237
330
6238
330
6342
330
6343
330
6347
330
6433
330
6435
330
6468
330
6469
330
646D
330
66A8
330
66A9
330
66AD
330
674E
330
674F
330
6753
330
69A0
330
69A1
102
}
330
A
100
AcDbSymbolTableRecord
100
AcDbDimStyleTableRecord
  2
ISO-25
 70
     0
 41
35.0
 42
65.0
 43
3.75
 44
0.0
 73
     0
 74
     0
 77
     1
 78
     8
140
25.0
141
2.5
143
0.03937007874016
147
6.25
171
     3
172
     1
271
     2
272
     2
274
     3
283
     0
284
     8
340
11
341
DA
342
D0
371
    15
372
    15
  0
ENDTAB
  0
TABLE
  2
BLOCK_RECORD
  5
1
330
0
100
AcDbSymbolTable
 70
    39
  0
BLOCK_RECORD
  5
1F
102
{ACAD_XDICTIONARY
360
264B
102
}
330
1
100
AcDbSymbolTableRecord
100
AcDbBlockTableRecord
  2
*Model_Space
340
22
  0
BLOCK_RECORD
  5
1B
330
1
100
AcDbSymbolTableRecord
100
AcDbBlockTableRecord
  2
*Paper_Space
340
1E
  0
BLOCK_RECORD
  5
23
330
1
100
AcDbSymbolTableRecord
100
AcDbBlockTableRecord
  2
*Paper_Space0
340
26
  0
BLOCK_RECORD
  5
D0
330
1
100
AcDbSymbolTableRecord
100
AcDbBlockTableRecord
  2
_DotSmall
340
0
102
{BLKREFS
331
69FC
331
69FD
331
6A06
331
6A07
331
6A17
331
6A18
331
6A20
331
6A21
331
6A29
331
6A2A
331
6A32
331
6A33
331
6A4E
331
6A4F
331
6A56
331
6A57
331
6A60
331
6A67
331
6A68
331
6A70
331
6A71
331
6A79
331
6A7A
331
6A82
331
6A83
331
6A8B
331
6A8C
331
6A95
331
6A96
331
6A9D
331
6A9E
331
6AB8
331
6AB9
331
6AC2
331
6AC3
331
6ACA
331
6ACB
331
6AD3
331
6AD4
331
6ADD
331
6ADE
331
6AE5
331
6AE6
331
6AEE
331
6AEF
331
6AF8
331
6AF9
331
6B00
331
6B01
331
6B2F
331
6B30
331
6C38
331
6C39
331
6C4C
331
6C4D
102
}
  0
BLOCK_RECORD
  5
D4
330
1
100
AcDbSymbolTableRecord
100
AcDbBlockTableRecord
  2
_Origin2
340
0
  0
BLOCK_RECORD
  5
DA
330
1
100
AcDbSymbolTableRecord
100
AcDbBlockTableRecord
  2
_Open30
340
0
  0
BLOCK_RECORD
  5
16E5
330
1
100
AcDbSymbolTableRecord
100
AcDbBlockTableRecord
  2
*D4
340
0
  0
BLOCK_RECORD
  5
16F1
330
1
100
AcDbSymbolTableRecord
100
AcDbBlockTableRecord
  2
*D5
340
0
  0
BLOCK_RECORD
  5
16FD
330
1
100
AcDbSymbolTableRecord
100
AcDbBlockTableRecord
  2
*D6
340
0
  0
BLOCK_RECORD
  5
1709
330
1
100
AcDbSymbolTableRecord
100
AcDbBlockTableRecord
  2
*D7
340
0
  0
BLOCK_RECORD
  5
1739
330
1
100
AcDbSymbolTableRecord
100
AcDbBlockTableRecord
  2
*D8
340
0
  0
BLOCK_RECORD
  5
1769
330
1
100
AcDbSymbolTableRecord
100
AcDbBlockTableRecord
  2
*D9
340
0
  0
BLOCK_RECORD
  5
17EF
330
1
100
AcDbSymbolTableRecord
100
AcDbBlockTableRecord
  2
*D10
340
0
  0
BLOCK_RECORD
  5
2ED7
330
1
100
AcDbSymbolTableRecord
100
AcDbBlockTableRecord
  2
_Dot
340
0
102
{BLKREFS
331
6B09
331
6B0A
331
6B12
331
6B13
331
6C0E
331
6C0F
331
6C22
331
6C23
102
}
  0
BLOCK_RECORD
  5
381B
330
1
100
AcDbSymbolTableRecord
100
AcDbBlockTableRecord
  2
*D12
340
0
  0
BLOCK_RECORD
  5
3827
330
1
100
AcDbSymbolTableRecord
100
AcDbBlockTableRecord
  2
*D13
340
0
  0
BLOCK_RECORD
  5
388E
102
{ACAD_XDICTIONARY
360
3890
102
}
330
1
100
AcDbSymbolTableRecord
100
AcDbBlockTableRecord
  2
A$C4E395AB2
340
0
  0
BLOCK_RECORD
  5
49DC
102
{ACAD_XDICTIONARY
360
49DF
102
}
330
1
100
AcDbSymbolTableRecord
100
AcDbBlockTableRecord
  2
A$C23847E86
340
0
  0
BLOCK_RECORD
  5
5E6A
330
1
100
AcDbSymbolTableRecord
100
AcDbBlockTableRecord
  2
*D16
340
0
  0
BLOCK_RECORD
  5
5ED0
330
1
100
AcDbSymbolTableRecord
100
AcDbBlockTableRecord
  2
*D17
340
0
  0
BLOCK_RECORD
  5
5F13
330
1
100
AcDbSymbolTableRecord
100
AcDbBlockTableRecord
  2
*D18
340
0
  0
BLOCK_RECORD
  5
5F92
330
1
100
AcDbSymbolTableRecord
100
AcDbBlockTableRecord
  2
*D19
340
0
  0
BLOCK_RECORD
  5
6000
330
1
100
AcDbSymbolTableRecord
100
AcDbBlockTableRecord
  2
*D20
340
0
  0
BLOCK_RECORD
  5
6239
330
1
100
AcDbSymbolTableRecord
100
AcDbBlockTableRecord
  2
*D21
340
0
  0
BLOCK_RECORD
  5
6245
330
1
100
AcDbSymbolTableRecord
100
AcDbBlockTableRecord
  2
*D22
340
0
  0
BLOCK_RECORD
  5
6356
330
1
100
AcDbSymbolTableRecord
100
AcDbBlockTableRecord
  2
*D23
340
0
  0
BLOCK_RECORD
  5
6362
330
1
100
AcDbSymbolTableRecord
100
AcDbBlockTableRecord
  2
*D24
340
0
  0
BLOCK_RECORD
  5
636E
330
1
100
AcDbSymbolTableRecord
100
AcDbBlockTableRecord
  2
*D25
340
0
  0
BLOCK_RECORD
  5
6436
330
1
100
AcDbSymbolTableRecord
100
AcDbBlockTableRecord
  2
*D26
340
0
  0
BLOCK_RECORD
  5
6442
330
1
100
AcDbSymbolTableRecord
100
AcDbBlockTableRecord
  2
*D27
340
0
  0
BLOCK_RECORD
  5
6471
330
1
100
AcDbSymbolTableRecord
100
AcDbBlockTableRecord
  2
*D28
340
0
  0
BLOCK_RECORD
  5
647D
330
1
100
AcDbSymbolTableRecord
100
AcDbBlockTableRecord
  2
*D29
340
0
  0
BLOCK_RECORD
  5
6489
330
1
100
AcDbSymbolTableRecord
100
AcDbBlockTableRecord
  2
*D30
340
0
  0
BLOCK_RECORD
  5
66B0
330
1
100
AcDbSymbolTableRecord
100
AcDbBlockTableRecord
  2
*D31
340
0
  0
BLOCK_RECORD
  5
66BC
330
1
100
AcDbSymbolTableRecord
100
AcDbBlockTableRecord
  2
*D32
340
0
  0
BLOCK_RECORD
  5
66C8
330
1
100
AcDbSymbolTableRecord
100
AcDbBlockTableRecord
  2
*D33
340
0
  0
BLOCK_RECORD
  5
6756
330
1
100
AcDbSymbolTableRecord
100
AcDbBlockTableRecord
  2
*D34
340
0
  0
BLOCK_RECORD
  5
6762
330
1
100
AcDbSymbolTableRecord
100
AcDbBlockTableRecord
  2
*D35
340
0
  0
BLOCK_RECORD
  5
676E
330
1
100
AcDbSymbolTableRecord
100
AcDbBlockTableRecord
  2
*D36
340
0
  0
BLOCK_RECORD
  5
69A2
330
1
100
AcDbSymbolTableRecord
100
AcDbBlockTableRecord
  2
*D37
340
0
  0
BLOCK_RECORD
  5
69AE
330
1
100
AcDbSymbolTableRecord
100
AcDbBlockTableRecord
  2
*D38
340
0
  0
ENDTAB
  0
ENDSEC
  0
SECTION
  2
BLOCKS
  0
BLOCK
  5
20
330
1F
100
AcDbEntity
  8
0
100
AcDbBlockBegin
  2
*Model_Space
 70
     0
 10
0.0
 20
0.0
 30
0.0
  3
*Model_Space
  1

  0
ENDBLK
  5
21
330
1F
100
AcDbEntity
  8
0
100
AcDbBlockEnd
  0
BLOCK
  5
1C
330
1B
100
AcDbEntity
 67
     1
  8
0
100
AcDbBlockBegin
  2
*Paper_Space
 70
     0
 10
0.0
 20
0.0
 30
0.0
  3
*Paper_Space
  1

  0
ENDBLK
  5
1D
330
1B
100
AcDbEntity
 67
     1
  8
0
100
AcDbBlockEnd
  0
BLOCK
  5
24
330
23
100
AcDbEntity
  8
0
100
AcDbBlockBegin
  2
*Paper_Space0
 70
     0
 10
0.0
 20
0.0
 30
0.0
  3
*Paper_Space0
  1

  0
ENDBLK
  5
25
330
23
100
AcDbEntity
  8
0
100
AcDbBlockEnd
  0
BLOCK
  5
D2
330
D0
100
AcDbEntity
  8
0
100
AcDbBlockBegin
  2
_DotSmall
 70
     0
 10
0.0
 20
0.0
 30
0.0
  3
_DotSmall
  1

  0
LWPOLYLINE
  5
D1
330
D0
100
AcDbEntity
  8
0
 62
     0
100
AcDbPolyline
 90
        2
 70
     1
 43
0.5
 10
-0.0625
 20
0.0
 42
1.0
 10
0.0625
 20
0.0
 42
1.0
  0
ENDBLK
  5
D3
330
D0
100
AcDbEntity
  8
0
100
AcDbBlockEnd
  0
BLOCK
  5
D8
330
D4
100
AcDbEntity
  8
0
100
AcDbBlockBegin
  2
_Origin2
 70
     0
 10
0.0
 20
0.0
 30
0.0
  3
_Origin2
  1

  0
CIRCLE
  5
D5
330
D4
100
AcDbEntity
  8
0
 62
     0
370
    -2
100
AcDbCircle
 10
0.0
 20
0.0
 30
0.0
 40
0.5
  0
CIRCLE
  5
D6
330
D4
100
AcDbEntity
  8
0
 62
     0
370
    -2
100
AcDbCircle
 10
0.0
 20
0.0
 30
0.0
 40
0.25
  0
LINE
  5
D7
330
D4
100
AcDbEntity
  8
0
 62
     0
370
    -2
100
AcDbLine
 10
-0.5
 20
0.0
 30
0.0
 11
-1.0
 21
0.0
 31
0.0
  0
ENDBLK
  5
D9
330
D4
100
AcDbEntity
  8
0
100
AcDbBlockEnd
  0
BLOCK
  5
DE
330
DA
100
AcDbEntity
  8
0
100
AcDbBlockBegin
  2
_Open30
 70
     0
 10
0.0
 20
0.0
 30
0.0
  3
_Open30
  1

  0
LINE
  5
DB
330
DA
100
AcDbEntity
  8
0
 62
     0
370
    -2
100
AcDbLine
 10
-1.0
 20
0.26794919
 30
0.0
 11
0.0
 21
0.0
 31
0.0
  0
LINE
  5
DC
330
DA
100
AcDbEntity
  8
0
 62
     0
370
    -2
100
AcDbLine
 10
0.0
 20
0.0
 30
0.0
 11
-1.0
 21
-0.26794919
 31
0.0
  0
LINE
  5
DD
330
DA
100
AcDbEntity
  8
0
 62
     0
370
    -2
100
AcDbLine
 10
0.0
 20
0.0
 30
0.0
 11
-1.0
 21
0.0
 31
0.0
  0
ENDBLK
  5
DF
330
DA
100
AcDbEntity
  8
0
100
AcDbBlockEnd
  0
BLOCK
  5
16EF
330
16E5
100
AcDbEntity
  8
0
100
AcDbBlockBegin
  2
*D4
 70
     1
 10
0.0
 20
0.0
 30
0.0
  3
*D4
  1

  0
LINE
  5
69F9
330
16E5
100
AcDbEntity
  8
寸法
 62
     0
370
    15
100
AcDbLine
 10
1660.327439947139
 20
1107.517091367211
 30
0.0
 11
1660.327439947139
 21
1059.147751339128
 31
0.0
  0
LINE
  5
69FA
330
16E5
100
AcDbEntity
  8
寸法
 62
     0
370
    15
100
AcDbLine
 10
1040.327439947139
 20
1107.517091367211
 30
0.0
 11
1040.327439947139
 21
1059.147751339128
 31
0.0
  0
LINE
  5
69FB
330
16E5
100
AcDbEntity
  8
寸法
 62
     0
370
    15
100
AcDbLine
 10
1660.327439947139
 20
1059.147751339128
 30
0.0
 11
1040.327439947139
 21
1059.147751339128
 31
0.0
  0
INSERT
  5
69FC
330
16E5
100
AcDbEntity
  8
寸法
 62
     0
370
    15
100
AcDbBlockReference
  2
_DotSmall
 10
1660.327439947139
 20
1059.147751339128
 30
0.0
 41
35.0
 42
35.0
 43
35.0
  0
INSERT
  5
69FD
330
16E5
100
AcDbEntity
  8
寸法
 62
     0
370
    15
100
AcDbBlockReference
  2
_DotSmall
 10
1040.327439947139
 20
1059.147751339128
 30
0.0
 41
35.0
 42
35.0
 43
35.0
 50
180.0
  0
MTEXT
  5
69FE
330
16E5
100
AcDbEntity
  8
寸法
 62
     0
100
AcDbMText
 10
1350.327439947139
 20
1077.897751339129
 30
0.0
 40
25.0
 41
0.0
 71
     5
 72
     1
  1
620
 73
     1
 44
1.0
1001
ACAD
1000
MTEXTBEGIN
1070
    73
1070
     1
1070
    44
1040
1.0
1070
    74
1070
     0
1000
MTEXTEND
  0
POINT
  5
69FF
330
16E5
100
AcDbEntity
  8
Defpoints
 62
     0
100
AcDbPoint
 10
1660.327439947139
 20
1172.517091367211
 30
0.0
  0
POINT
  5
6A00
330
16E5
100
AcDbEntity
  8
Defpoints
 62
     0
100
AcDbPoint
 10
1040.327439947139
 20
1172.517091367211
 30
0.0
  0
POINT
  5
6A01
330
16E5
100
AcDbEntity
  8
Defpoints
 62
     0
100
AcDbPoint
 10
1040.327439947139
 20
1059.147751339128
 30
0.0
  0
ENDBLK
  5
16F0
330
16E5
100
AcDbEntity
  8
0
100
AcDbBlockEnd
  0
BLOCK
  5
16FB
330
16F1
100
AcDbEntity
  8
0
100
AcDbBlockBegin
  2
*D5
 70
     1
 10
0.0
 20
0.0
 30
0.0
  3
*D5
  1

  0
LINE
  5
6A02
330
16F1
100
AcDbEntity
  8
寸法
 62
     0
370
    15
100
AcDbLine
 10
1680.327439947139
 20
1107.517091367211
 30
0.0
 11
1680.327439947139
 21
1059.147751339128
 31
0.0
  0
LINE
  5
6A03
330
16F1
100
AcDbEntity
  8
寸法
 62
     0
370
    15
100
AcDbLine
 10
1660.327439947139
 20
1107.517091367211
 30
0.0
 11
1660.327439947139
 21
1059.147751339128
 31
0.0
  0
LINE
  5
6A04
330
16F1
100
AcDbEntity
  8
寸法
 62
     0
370
    15
100
AcDbLine
 10
1680.327439947139
 20
1059.147751339128
 30
0.0
 11
1660.327439947139
 21
1059.147751339128
 31
0.0
  0
MTEXT
  5
6A05
330
16F1
100
AcDbEntity
  8
寸法
 62
     0
100
AcDbMText
 10
1628.078484448147
 20
1077.897751339129
 30
0.0
 40
25.0
 41
0.0
 71
     5
 72
     1
  1
20
 73
     1
 44
1.0
1001
ACAD
1000
MTEXTBEGIN
1070
    73
1070
     1
1070
    44
1040
1.0
1070
    74
1070
     0
1000
MTEXTEND
  0
INSERT
  5
6A06
330
16F1
100
AcDbEntity
  8
寸法
 62
     0
370
    15
100
AcDbBlockReference
  2
_DotSmall
 10
1680.327439947139
 20
1059.147751339128
 30
0.0
 41
35.0
 42
35.0
 43
35.0
  0
INSERT
  5
6A07
330
16F1
100
AcDbEntity
  8
寸法
 62
     0
370
    15
100
AcDbBlockReference
  2
_DotSmall
 10
1660.327439947139
 20
1059.147751339128
 30
0.0
 41
35.0
 42
35.0
 43
35.0
 50
180.0
  0
POINT
  5
6A08
330
16F1
100
AcDbEntity
  8
Defpoints
 62
     0
100
AcDbPoint
 10
1680.327439947139
 20
1172.517091367211
 30
0.0
  0
POINT
  5
6A09
330
16F1
100
AcDbEntity
  8
Defpoints
 62
     0
100
AcDbPoint
 10
1660.327439947139
 20
1172.517091367211
 30
0.0
  0
POINT
  5
6A0A
330
16F1
100
AcDbEntity
  8
Defpoints
 62
     0
100
AcDbPoint
 10
1660.327439947139
 20
1059.147751339128
 30
0.0
  0
ENDBLK
  5
16FC
330
16F1
100
AcDbEntity
  8
0
100
AcDbBlockEnd
  0
BLOCK
  5
1707
330
16FD
100
AcDbEntity
  8
0
100
AcDbBlockBegin
  2
*D6
 70
     1
 10
0.0
 20
0.0
 30
0.0
  3
*D6
  1

  0
LINE
  5
6B2C
330
16FD
100
AcDbEntity
  8
寸法
 62
     0
370
    15
100
AcDbLine
 10
1410.856991489458
 20
1432.517091367211
 30
0.0
 11
1368.870710342712
 21
1432.517091367211
 31
0.0
  0
LINE
  5
6B2D
330
16FD
100
AcDbEntity
  8
寸法
 62
     0
370
    15
100
AcDbLine
 10
1575.327439947139
 20
1652.517091367211
 30
0.0
 11
1368.870710342712
 21
1652.517091367212
 31
0.0
  0
LINE
  5
6B2E
330
16FD
100
AcDbEntity
  8
寸法
 62
     0
370
    15
100
AcDbLine
 10
1368.870710342712
 20
1432.517091367211
 30
0.0
 11
1368.870710342712
 21
1652.517091367212
 31
0.0
  0
INSERT
  5
6B2F
330
16FD
100
AcDbEntity
  8
寸法
 62
     0
370
    15
100
AcDbBlockReference
  2
_DotSmall
 10
1368.870710342712
 20
1432.517091367211
 30
0.0
 41
35.0
 42
35.0
 43
35.0
 50
270.0
  0
INSERT
  5
6B30
330
16FD
100
AcDbEntity
  8
寸法
 62
     0
370
    15
100
AcDbBlockReference
  2
_DotSmall
 10
1368.870710342712
 20
1652.517091367212
 30
0.0
 41
35.0
 42
35.0
 43
35.0
 50
90.0
  0
MTEXT
  5
6B31
330
16FD
100
AcDbEntity
  8
寸法
 62
     0
100
AcDbMText
 10
1350.120710342712
 20
1542.517091367211
 30
0.0
 40
25.0
 41
0.0
 71
     5
 72
     1
  1
220
 11
0.0000000000000001
 21
1.0
 31
0.0
 73
     1
 44
1.0
1001
ACAD
1000
MTEXTBEGIN
1070
    73
1070
     1
1070
    44
1040
1.0
1070
    74
1070
     0
1000
MTEXTEND
  0
POINT
  5
6B32
330
16FD
100
AcDbEntity
  8
Defpoints
 62
     0
100
AcDbPoint
 10
1475.856991489458
 20
1432.517091367211
 30
0.0
  0
POINT
  5
6B33
330
16FD
100
AcDbEntity
  8
Defpoints
 62
     0
100
AcDbPoint
 10
1640.327439947139
 20
1652.517091367211
 30
0.0
  0
POINT
  5
6B34
330
16FD
100
AcDbEntity
  8
Defpoints
 62
     0
100
AcDbPoint
 10
1368.870710342712
 20
1652.517091367212
 30
0.0
  0
ENDBLK
  5
1708
330
16FD
100
AcDbEntity
  8
0
100
AcDbBlockEnd
  0
BLOCK
  5
1713
330
1709
100
AcDbEntity
  8
0
100
AcDbBlockBegin
  2
*D7
 70
     1
 10
0.0
 20
0.0
 30
0.0
  3
*D7
  1

  0
LINE
  5
6A14
330
1709
100
AcDbEntity
  8
寸法
 62
     0
370
    15
100
AcDbLine
 10
1660.327439947139
 20
1252.517091367211
 30
0.0
 11
1660.327439947139
 21
1309.196731626641
 31
0.0
  0
LINE
  5
6A15
330
1709
100
AcDbEntity
  8
寸法
 62
     0
370
    15
100
AcDbLine
 10
1510.327439947139
 20
1367.517091367211
 30
0.0
 11
1510.327439947139
 21
1309.196731626641
 31
0.0
  0
LINE
  5
6A16
330
1709
100
AcDbEntity
  8
寸法
 62
     0
370
    15
100
AcDbLine
 10
1660.327439947139
 20
1309.196731626641
 30
0.0
 11
1510.327439947139
 21
1309.196731626641
 31
0.0
  0
INSERT
  5
6A17
330
1709
100
AcDbEntity
  8
寸法
 62
     0
370
    15
100
AcDbBlockReference
  2
_DotSmall
 10
1660.327439947139
 20
1309.196731626641
 30
0.0
 41
35.0
 42
35.0
 43
35.0
  0
INSERT
  5
6A18
330
1709
100
AcDbEntity
  8
寸法
 62
     0
370
    15
100
AcDbBlockReference
  2
_DotSmall
 10
1510.327439947139
 20
1309.196731626641
 30
0.0
 41
35.0
 42
35.0
 43
35.0
 50
180.0
  0
MTEXT
  5
6A19
330
1709
100
AcDbEntity
  8
寸法
 62
     0
100
AcDbMText
 10
1585.327439947139
 20
1327.946731626641
 30
0.0
 40
25.0
 41
0.0
 71
     5
 72
     1
  1
150
 73
     1
 44
1.0
1001
ACAD
1000
MTEXTBEGIN
1070
    73
1070
     1
1070
    44
1040
1.0
1070
    74
1070
     0
1000
MTEXTEND
  0
POINT
  5
6A1A
330
1709
100
AcDbEntity
  8
Defpoints
 62
     0
100
AcDbPoint
 10
1660.327439947139
 20
1317.51709136721
 30
0.0
  0
POINT
  5
6A1B
330
1709
100
AcDbEntity
  8
Defpoints
 62
     0
100
AcDbPoint
 10
1510.327439947139
 20
1432.51709136721
 30
0.0
  0
POINT
  5
6A1C
330
1709
100
AcDbEntity
  8
Defpoints
 62
     0
100
AcDbPoint
 10
1510.327439947139
 20
1309.196731626641
 30
0.0
  0
ENDBLK
  5
1714
330
1709
100
AcDbEntity
  8
0
100
AcDbBlockEnd
  0
BLOCK
  5
1743
330
1739
100
AcDbEntity
  8
0
100
AcDbBlockBegin
  2
*D8
 70
     1
 10
0.0
 20
0.0
 30
0.0
  3
*D8
  1

  0
LINE
  5
6A1D
330
1739
100
AcDbEntity
  8
寸法
 62
     0
370
    15
100
AcDbLine
 10
1790.327439947139
 20
1368.074461011946
 30
0.0
 11
1790.327439947139
 21
1310.860844241467
 31
0.0
  0
LINE
  5
6A1E
330
1739
100
AcDbEntity
  8
寸法
 62
     0
370
    15
100
AcDbLine
 10
1680.327439947139
 20
1348.074461011946
 30
0.0
 11
1680.327439947139
 21
1310.860844241467
 31
0.0
  0
LINE
  5
6A1F
330
1739
100
AcDbEntity
  8
寸法
 62
     0
370
    15
100
AcDbLine
 10
1790.327439947139
 20
1310.860844241467
 30
0.0
 11
1680.327439947139
 21
1310.860844241467
 31
0.0
  0
INSERT
  5
6A20
330
1739
100
AcDbEntity
  8
寸法
 62
     0
370
    15
100
AcDbBlockReference
  2
_DotSmall
 10
1790.327439947139
 20
1310.860844241467
 30
0.0
 41
35.0
 42
35.0
 43
35.0
  0
INSERT
  5
6A21
330
1739
100
AcDbEntity
  8
寸法
 62
     0
370
    15
100
AcDbBlockReference
  2
_DotSmall
 10
1680.327439947139
 20
1310.860844241467
 30
0.0
 41
35.0
 42
35.0
 43
35.0
 50
180.0
  0
MTEXT
  5
6A22
330
1739
100
AcDbEntity
  8
寸法
 62
     0
100
AcDbMText
 10
1735.327439947139
 20
1329.610844241467
 30
0.0
 40
25.0
 41
0.0
 71
     5
 72
     1
  1
110
 73
     1
 44
1.0
1001
ACAD
1000
MTEXTBEGIN
1070
    73
1070
     1
1070
    44
1040
1.0
1070
    74
1070
     0
1000
MTEXTEND
  0
POINT
  5
6A23
330
1739
100
AcDbEntity
  8
Defpoints
 62
     0
100
AcDbPoint
 10
1790.327439947139
 20
1433.074461011946
 30
0.0
  0
POINT
  5
6A24
330
1739
100
AcDbEntity
  8
Defpoints
 62
     0
100
AcDbPoint
 10
1680.327439947139
 20
1283.074461011947
 30
0.0
  0
POINT
  5
6A25
330
1739
100
AcDbEntity
  8
Defpoints
 62
     0
100
AcDbPoint
 10
1680.327439947139
 20
1310.860844241467
 30
0.0
  0
ENDBLK
  5
1744
330
1739
100
AcDbEntity
  8
0
100
AcDbBlockEnd
  0
BLOCK
  5
1773
330
1769
100
AcDbEntity
  8
0
100
AcDbBlockBegin
  2
*D9
 70
     1
 10
0.0
 20
0.0
 30
0.0
  3
*D9
  1

  0
LINE
  5
6A26
330
1769
100
AcDbEntity
  8
寸法
 62
     0
370
    15
100
AcDbLine
 10
1940.327439947139
 20
1107.517091367211
 30
0.0
 11
1940.327439947139
 21
1059.147751339128
 31
0.0
  0
LINE
  5
6A27
330
1769
100
AcDbEntity
  8
寸法
 62
     0
370
    15
100
AcDbLine
 10
1680.327439947139
 20
1107.517091367211
 30
0.0
 11
1680.327439947139
 21
1059.147751339128
 31
0.0
  0
LINE
  5
6A28
330
1769
100
AcDbEntity
  8
寸法
 62
     0
370
    15
100
AcDbLine
 10
1940.327439947139
 20
1059.147751339128
 30
0.0
 11
1680.327439947139
 21
1059.147751339128
 31
0.0
  0
INSERT
  5
6A29
330
1769
100
AcDbEntity
  8
寸法
 62
     0
370
    15
100
AcDbBlockReference
  2
_DotSmall
 10
1940.327439947139
 20
1059.147751339128
 30
0.0
 41
35.0
 42
35.0
 43
35.0
  0
INSERT
  5
6A2A
330
1769
100
AcDbEntity
  8
寸法
 62
     0
370
    15
100
AcDbBlockReference
  2
_DotSmall
 10
1680.327439947139
 20
1059.147751339128
 30
0.0
 41
35.0
 42
35.0
 43
35.0
 50
180.0
  0
MTEXT
  5
6A2B
330
1769
100
AcDbEntity
  8
寸法
 62
     0
100
AcDbMText
 10
1810.327439947139
 20
1077.897751339129
 30
0.0
 40
25.0
 41
0.0
 71
     5
 72
     1
  1
260
 73
     1
 44
1.0
1001
ACAD
1000
MTEXTBEGIN
1070
    73
1070
     1
1070
    44
1040
1.0
1070
    74
1070
     0
1000
MTEXTEND
  0
POINT
  5
6A2C
330
1769
100
AcDbEntity
  8
Defpoints
 62
     0
100
AcDbPoint
 10
1940.327439947139
 20
1172.517091367211
 30
0.0
  0
POINT
  5
6A2D
330
1769
100
AcDbEntity
  8
Defpoints
 62
     0
100
AcDbPoint
 10
1680.327439947139
 20
1172.517091367211
 30
0.0
  0
POINT
  5
6A2E
330
1769
100
AcDbEntity
  8
Defpoints
 62
     0
100
AcDbPoint
 10
1680.327439947139
 20
1059.147751339128
 30
0.0
  0
ENDBLK
  5
1774
330
1769
100
AcDbEntity
  8
0
100
AcDbBlockEnd
  0
BLOCK
  5
17F9
330
17EF
100
AcDbEntity
  8
0
100
AcDbBlockBegin
  2
*D10
 70
     1
 10
0.0
 20
0.0
 30
0.0
  3
*D10
  1

  0
LINE
  5
6A2F
330
17EF
100
AcDbEntity
  8
寸法
 62
     0
370
    15
100
AcDbLine
 10
976.2246300549866
 20
1652.517091367211
 30
0.0
 11
919.9799341825773
 21
1652.517091367211
 31
0.0
  0
LINE
  5
6A30
330
17EF
100
AcDbEntity
  8
寸法
 62
     0
370
    15
100
AcDbLine
 10
976.2246300549868
 20
1212.517091367211
 30
0.0
 11
919.9799341825771
 21
1212.517091367211
 31
0.0
  0
LINE
  5
6A31
330
17EF
100
AcDbEntity
  8
寸法
 62
     0
370
    15
100
AcDbLine
 10
919.9799341825773
 20
1652.517091367211
 30
0.0
 11
919.9799341825771
 21
1212.517091367211
 31
0.0
  0
INSERT
  5
6A32
330
17EF
100
AcDbEntity
  8
寸法
 62
     0
370
    15
100
AcDbBlockReference
  2
_DotSmall
 10
919.9799341825773
 20
1652.517091367211
 30
0.0
 41
35.0
 42
35.0
 43
35.0
 50
90.0
  0
INSERT
  5
6A33
330
17EF
100
AcDbEntity
  8
寸法
 62
     0
370
    15
100
AcDbBlockReference
  2
_DotSmall
 10
919.9799341825771
 20
1212.517091367211
 30
0.0
 41
35.0
 42
35.0
 43
35.0
 50
270.0
  0
MTEXT
  5
6A34
330
17EF
100
AcDbEntity
  8
寸法
 62
     0
100
AcDbMText
 10
901.2299341825769
 20
1432.517091367211
 30
0.0
 40
25.0
 41
0.0
 71
     5
 72
     1
  1
440
 11
0.0000000000000001
 21
1.0
 31
0.0
 73
     1
 44
1.0
1001
ACAD
1000
MTEXTBEGIN
1070
    73
1070
     1
1070
    44
1040
1.0
1070
    74
1070
     0
1000
MTEXTEND
  0
POINT
  5
6A35
330
17EF
100
AcDbEntity
  8
Defpoints
 62
     0
100
AcDbPoint
 10
1041.224630054987
 20
1652.517091367211
 30
0.0
  0
POINT
  5
6A36
330
17EF
100
AcDbEntity
  8
Defpoints
 62
     0
100
AcDbPoint
 10
1041.224630054987
 20
1212.517091367211
 30
0.0
  0
POINT
  5
6A37
330
17EF
100
AcDbEntity
  8
Defpoints
 62
     0
100
AcDbPoint
 10
919.9799341825771
 20
1212.517091367211
 30
0.0
  0
ENDBLK
  5
17FA
330
17EF
100
AcDbEntity
  8
0
100
AcDbBlockEnd
  0
BLOCK
  5
2ED8
330
2ED7
100
AcDbEntity
  8
0
100
AcDbBlockBegin
  2
_Dot
 70
     0
 10
0.0
 20
0.0
 30
0.0
  3
_Dot
  1

  0
LWPOLYLINE
  5
2ED9
330
2ED7
100
AcDbEntity
  8
0
 62
     0
100
AcDbPolyline
 90
        2
 70
     1
 43
0.5
 10
-0.25
 20
0.0
 42
1.0
 10
0.25
 20
0.0
 42
1.0
  0
LINE
  5
2EDA
330
2ED7
100
AcDbEntity
  8
0
 62
     0
370
    -2
100
AcDbLine
 10
-0.5
 20
0.0
 30
0.0
 11
-1.0
 21
0.0
 31
0.0
  0
ENDBLK
  5
2EDB
330
2ED7
100
AcDbEntity
  8
0
100
AcDbBlockEnd
  0
BLOCK
  5
3825
330
381B
100
AcDbEntity
  8
0
 62
     3
100
AcDbBlockBegin
  2
*D12
 70
     1
 10
0.0
 20
0.0
 30
0.0
  3
*D12
  1

  0
LINE
  5
6C0B
330
381B
100
AcDbEntity
  8
実形
 62
     0
370
    18
100
AcDbLine
 10
2287.060716463973
 20
1479.517091367211
 30
0.0
 11
2330.060716463973
 21
1479.517091367211
 31
0.0
  0
LINE
  5
6C0C
330
381B
100
AcDbEntity
  8
実形
 62
     0
370
    18
100
AcDbLine
 10
2287.060716463974
 20
1385.517091367211
 30
0.0
 11
2330.060716463973
 21
1385.517091367211
 31
0.0
  0
LINE
  5
6C0D
330
381B
100
AcDbEntity
  8
実形
 62
     0
370
    18
100
AcDbLine
 10
2330.060716463973
 20
1469.517091367211
 30
0.0
 11
2330.060716463973
 21
1395.517091367211
 31
0.0
  0
INSERT
  5
6C0E
330
381B
100
AcDbEntity
  8
実形
 62
     0
370
    18
100
AcDbBlockReference
  2
_Dot
 10
2330.060716463973
 20
1479.517091367211
 30
0.0
 41
10.0
 42
10.0
 43
10.0
 50
90.0
  0
INSERT
  5
6C0F
330
381B
100
AcDbEntity
  8
実形
 62
     0
370
    18
100
AcDbBlockReference
  2
_Dot
 10
2330.060716463973
 20
1385.517091367211
 30
0.0
 41
10.0
 42
10.0
 43
10.0
 50
270.0
  0
MTEXT
  5
6C10
330
381B
100
AcDbEntity
  8
実形
 62
     0
100
AcDbMText
 10
2308.460716463973
 20
1432.517091367211
 30
0.0
 40
30.0
 41
0.0
 71
     5
 72
     1
  1
94
 11
0.0000000000000001
 21
1.0
 31
0.0
 73
     1
 44
1.0
1001
ACAD
1000
MTEXTBEGIN
1070
    73
1070
     1
1070
    44
1040
1.0
1070
    74
1070
     0
1000
MTEXTEND
  0
POINT
  5
6C11
330
381B
100
AcDbEntity
  8
Defpoints
 62
     0
100
AcDbPoint
 10
2222.060716463973
 20
1479.517091367211
 30
0.0
  0
POINT
  5
6C12
330
381B
100
AcDbEntity
  8
Defpoints
 62
     0
100
AcDbPoint
 10
2222.060716463974
 20
1385.517091367211
 30
0.0
  0
POINT
  5
6C13
330
381B
100
AcDbEntity
  8
Defpoints
 62
     0
100
AcDbPoint
 10
2330.060716463973
 20
1385.517091367211
 30
0.0
  0
ENDBLK
  5
3826
330
381B
100
AcDbEntity
  8
0
 62
     3
100
AcDbBlockEnd
  0
BLOCK
  5
3831
330
3827
100
AcDbEntity
  8
0
 62
     3
100
AcDbBlockBegin
  2
*D13
 70
     1
 10
0.0
 20
0.0
 30
0.0
  3
*D13
  1

  0
LINE
  5
6C1F
330
3827
100
AcDbEntity
  8
実形
 62
     0
370
    18
100
AcDbLine
 10
2286.524415820495
 20
1490.017091367211
 30
0.0
 11
2380.767787382154
 21
1490.017091367211
 31
0.0
  0
LINE
  5
6C20
330
3827
100
AcDbEntity
  8
実形
 62
     0
370
    18
100
AcDbLine
 10
2288.063000510301
 20
1375.017091367211
 30
0.0
 11
2380.767787382154
 21
1375.017091367211
 31
0.0
  0
LINE
  5
6C21
330
3827
100
AcDbEntity
  8
実形
 62
     0
370
    18
100
AcDbLine
 10
2380.767787382154
 20
1480.017091367211
 30
0.0
 11
2380.767787382154
 21
1385.017091367211
 31
0.0
  0
INSERT
  5
6C22
330
3827
100
AcDbEntity
  8
実形
 62
     0
370
    18
100
AcDbBlockReference
  2
_Dot
 10
2380.767787382154
 20
1490.017091367211
 30
0.0
 41
10.0
 42
10.0
 43
10.0
 50
90.0
  0
INSERT
  5
6C23
330
3827
100
AcDbEntity
  8
実形
 62
     0
370
    18
100
AcDbBlockReference
  2
_Dot
 10
2380.767787382154
 20
1375.017091367211
 30
0.0
 41
10.0
 42
10.0
 43
10.0
 50
270.0
  0
MTEXT
  5
6C24
330
3827
100
AcDbEntity
  8
実形
 62
     0
100
AcDbMText
 10
2359.167787382153
 20
1432.517091367211
 30
0.0
 40
30.0
 41
0.0
 71
     5
 72
     1
  1
115
 11
0.0000000000000001
 21
1.0
 31
0.0
 73
     1
 44
1.0
1001
ACAD
1000
MTEXTBEGIN
1070
    73
1070
     1
1070
    44
1040
1.0
1070
    74
1070
     0
1000
MTEXTEND
  0
POINT
  5
6C25
330
3827
100
AcDbEntity
  8
Defpoints
 62
     0
100
AcDbPoint
 10
2221.524415820495
 20
1490.017091367211
 30
0.0
  0
POINT
  5
6C26
330
3827
100
AcDbEntity
  8
Defpoints
 62
     0
100
AcDbPoint
 10
2223.063000510301
 20
1375.017091367211
 30
0.0
  0
POINT
  5
6C27
330
3827
100
AcDbEntity
  8
Defpoints
 62
     0
100
AcDbPoint
 10
2380.767787382154
 20
1375.017091367211
 30
0.0
  0
ENDBLK
  5
3832
330
3827
100
AcDbEntity
  8
0
 62
     3
100
AcDbBlockEnd
  0
BLOCK
  5
3892
330
388E
100
AcDbEntity
  8
0
 62
     3
100
AcDbBlockBegin
  2
A$C4E395AB2
 70
     0
 10
0.0
 20
0.0
 30
0.0
  3
A$C4E395AB2
  1

  0
TEXT
  5
388F
330
388E
100
AcDbEntity
  8
寸法
 62
     0
100
AcDbText
 10
0.0000147323662536
 20
0.0000153190912897
 30
0.0
 40
60.0
  1
36φ
 11
0.0000147323662532
 21
-7.99998468090871
 31
0.0
100
AcDbText
 73
     1
  0
ENDBLK
  5
3893
330
388E
100
AcDbEntity
  8
0
 62
     3
100
AcDbBlockEnd
  0
BLOCK
  5
49E1
330
49DC
100
AcDbEntity
  8
0
 62
     3
100
AcDbBlockBegin
  2
A$C23847E86
 70
     0
 10
0.0
 20
0.0
 30
0.0
  3
A$C23847E86
  1

  0
TEXT
  5
49DD
330
49DC
100
AcDbEntity
  8
寸法
100
AcDbText
 10
0.0000017526954252
 20
434.5506622631992
 30
0.0
 40
25.0
  1
20R
100
AcDbText
  0
TEXT
  5
49DE
330
49DC
100
AcDbEntity
  8
寸法
100
AcDbText
 10
478.2382265039713
 20
-0.0000001195608093
 30
0.0
 40
25.0
  1
30R
100
AcDbText
  0
ENDBLK
  5
49E2
330
49DC
100
AcDbEntity
  8
0
 62
     3
100
AcDbBlockEnd
  0
BLOCK
  5
5E74
330
5E6A
100
AcDbEntity
  8
0
 62
     3
100
AcDbBlockBegin
  2
*D16
 70
     1
 10
0.0
 20
0.0
 30
0.0
  3
*D16
  1

  0
LINE
  5
6A4A
330
5E6A
100
AcDbEntity
  8
実形
 62
     0
370
    18
100
AcDbLine
 10
977.8419942372401
 20
1197.517091367211
 30
0.0
 11
919.9799341825771
 21
1197.517091367211
 31
0.0
  0
LINE
  5
6A4B
330
5E6A
100
AcDbEntity
  8
実形
 62
     0
370
    18
100
AcDbLine
 10
979.3463084944104
 20
1652.517091367211
 30
0.0
 11
919.9799341825773
 21
1652.517091367211
 31
0.0
  0
LINE
  5
6A4C
330
5E6A
100
AcDbEntity
  8
実形
 62
     0
370
    18
100
AcDbLine
 10
919.9799341825771
 20
1197.517091367211
 30
0.0
 11
919.9799341825773
 21
1652.517091367211
 31
0.0
  0
MTEXT
  5
6A4D
330
5E6A
100
AcDbEntity
  8
実形
 62
     0
100
AcDbMText
 10
893.6365346771781
 20
1219.292156454092
 30
0.0
 40
25.0
 41
0.0
 71
     5
 72
     1
  1
15
 11
0.0000000000000001
 21
1.0
 31
0.0
 73
     1
 44
1.0
1001
ACAD
1000
MTEXTBEGIN
1070
    73
1070
     1
1070
    44
1040
1.0
1070
    74
1070
     0
1000
MTEXTEND
  0
INSERT
  5
6A4E
330
5E6A
100
AcDbEntity
  8
実形
 62
     0
370
    18
100
AcDbBlockReference
  2
_DotSmall
 10
919.9799341825771
 20
1197.517091367211
 30
0.0
 41
35.0
 42
35.0
 43
35.0
 50
270.0
  0
INSERT
  5
6A4F
330
5E6A
100
AcDbEntity
  8
実形
 62
     0
370
    18
100
AcDbBlockReference
  2
_DotSmall
 10
919.9799341825773
 20
1652.517091367211
 30
0.0
 41
35.0
 42
35.0
 43
35.0
 50
90.0
  0
POINT
  5
6A50
330
5E6A
100
AcDbEntity
  8
Defpoints
 62
     0
100
AcDbPoint
 10
1042.84199423724
 20
1197.517091367211
 30
0.0
  0
POINT
  5
6A51
330
5E6A
100
AcDbEntity
  8
Defpoints
 62
     0
100
AcDbPoint
 10
1044.34630849441
 20
1652.517091367211
 30
0.0
  0
POINT
  5
6A52
330
5E6A
100
AcDbEntity
  8
Defpoints
 62
     0
100
AcDbPoint
 10
919.9799341825773
 20
1652.517091367211
 30
0.0
  0
ENDBLK
  5
5E75
330
5E6A
100
AcDbEntity
  8
0
 62
     3
100
AcDbBlockEnd
  0
BLOCK
  5
5EDA
330
5ED0
100
AcDbEntity
  8
0
 62
     3
100
AcDbBlockBegin
  2
*D17
 70
     1
 10
0.0
 20
0.0
 30
0.0
  3
*D17
  1

  0
LINE
  5
6A53
330
5ED0
100
AcDbEntity
  8
実形
 62
     0
370
    18
100
AcDbLine
 10
1855.327439947139
 20
1652.517091367211
 30
0.0
 11
1882.94389971863
 21
1652.517091367211
 31
0.0
  0
LINE
  5
6A54
330
5ED0
100
AcDbEntity
  8
実形
 62
     0
370
    18
100
AcDbLine
 10
1855.327439947139
 20
1432.51709136721
 30
0.0
 11
1882.94389971863
 21
1432.51709136721
 31
0.0
  0
LINE
  5
6A55
330
5ED0
100
AcDbEntity
  8
実形
 62
     0
370
    18
100
AcDbLine
 10
1882.94389971863
 20
1652.517091367211
 30
0.0
 11
1882.94389971863
 21
1432.51709136721
 31
0.0
  0
INSERT
  5
6A56
330
5ED0
100
AcDbEntity
  8
実形
 62
     0
370
    18
100
AcDbBlockReference
  2
_DotSmall
 10
1882.94389971863
 20
1652.517091367211
 30
0.0
 41
35.0
 42
35.0
 43
35.0
 50
90.0
  0
INSERT
  5
6A57
330
5ED0
100
AcDbEntity
  8
実形
 62
     0
370
    18
100
AcDbBlockReference
  2
_DotSmall
 10
1882.94389971863
 20
1432.51709136721
 30
0.0
 41
35.0
 42
35.0
 43
35.0
 50
270.0
  0
MTEXT
  5
6A58
330
5ED0
100
AcDbEntity
  8
実形
 62
     0
100
AcDbMText
 10
1864.19389971863
 20
1542.517091367211
 30
0.0
 40
25.0
 41
0.0
 71
     5
 72
     1
  1
220
 11
0.0000000000000001
 21
1.0
 31
0.0
 73
     1
 44
1.0
1001
ACAD
1000
MTEXTBEGIN
1070
    73
1070
     1
1070
    44
1040
1.0
1070
    74
1070
     0
1000
MTEXTEND
  0
POINT
  5
6A59
330
5ED0
100
AcDbEntity
  8
Defpoints
 62
     0
100
AcDbPoint
 10
1790.327439947139
 20
1652.517091367211
 30
0.0
  0
POINT
  5
6A5A
330
5ED0
100
AcDbEntity
  8
Defpoints
 62
     0
100
AcDbPoint
 10
1790.327439947139
 20
1432.51709136721
 30
0.0
  0
POINT
  5
6A5B
330
5ED0
100
AcDbEntity
  8
Defpoints
 62
     0
100
AcDbPoint
 10
1882.94389971863
 20
1432.51709136721
 30
0.0
  0
ENDBLK
  5
5EDB
330
5ED0
100
AcDbEntity
  8
0
 62
     3
100
AcDbBlockEnd
  0
BLOCK
  5
5F1D
330
5F13
100
AcDbEntity
  8
0
 62
     3
100
AcDbBlockBegin
  2
*D18
 70
     1
 10
0.0
 20
0.0
 30
0.0
  3
*D18
  1

  0
LINE
  5
6A5C
330
5F13
100
AcDbEntity
  8
実形
 62
     0
370
    18
100
AcDbLine
 10
1025.327439947139
 20
1107.069398553752
 30
0.0
 11
1025.327439947139
 21
1059.147751339128
 31
0.0
  0
LINE
  5
6A5D
330
5F13
100
AcDbEntity
  8
実形
 62
     0
370
    18
100
AcDbLine
 10
1695.327439947139
 20
1059.147751339128
 30
0.0
 11
1660.327439947139
 21
1059.147751339128
 31
0.0
  0
LINE
  5
6A5E
330
5F13
100
AcDbEntity
  8
実形
 62
     0
370
    18
100
AcDbLine
 10
1660.327439947139
 20
1059.147751339128
 30
0.0
 11
1695.327439947139
 21
1059.147751339128
 31
0.0
  0
MTEXT
  5
6A5F
330
5F13
100
AcDbEntity
  8
実形
 62
     0
100
AcDbMText
 10
993.4521227761816
 20
1075.056139710103
 30
0.0
 40
25.0
 41
0.0
 71
     5
 72
     1
  1
15
 73
     1
 44
1.0
1001
ACAD
1000
MTEXTBEGIN
1070
    73
1070
     1
1070
    44
1040
1.0
1070
    74
1070
     0
1000
MTEXTEND
  0
INSERT
  5
6A60
330
5F13
100
AcDbEntity
  8
実形
 62
     0
370
    18
100
AcDbBlockReference
  2
_DotSmall
 10
1660.327439947139
 20
1059.147751339128
 30
0.0
 41
35.0
 42
35.0
 43
35.0
 50
180.0
  0
POINT
  5
6A61
330
5F13
100
AcDbEntity
  8
Defpoints
 62
     0
100
AcDbPoint
 10
1025.327439947139
 20
1172.069398553753
 30
0.0
  0
POINT
  5
6A62
330
5F13
100
AcDbEntity
  8
Defpoints
 62
     0
100
AcDbPoint
 10
1660.327439947139
 20
1133.374667841454
 30
0.0
  0
POINT
  5
6A63
330
5F13
100
AcDbEntity
  8
Defpoints
 62
     0
100
AcDbPoint
 10
1660.327439947139
 20
1059.147751339128
 30
0.0
  0
ENDBLK
  5
5F1E
330
5F13
100
AcDbEntity
  8
0
 62
     3
100
AcDbBlockEnd
  0
BLOCK
  5
5F9C
330
5F92
100
AcDbEntity
  8
0
 62
     3
100
AcDbBlockBegin
  2
*D19
 70
     1
 10
0.0
 20
0.0
 30
0.0
  3
*D19
  1

  0
LINE
  5
6A64
330
5F92
100
AcDbEntity
  8
実形
 62
     0
370
    18
100
AcDbLine
 10
1025.327439947139
 20
1055.071063737368
 30
0.0
 11
1025.327439947139
 21
999.7719342123337
 31
0.0
  0
LINE
  5
6A65
330
5F92
100
AcDbEntity
  8
実形
 62
     0
370
    18
100
AcDbLine
 10
1955.327439947139
 20
1055.071063737368
 30
0.0
 11
1955.327439947139
 21
999.7719342123337
 31
0.0
  0
LINE
  5
6A66
330
5F92
100
AcDbEntity
  8
実形
 62
     0
370
    18
100
AcDbLine
 10
1025.327439947139
 20
999.7719342123337
 30
0.0
 11
1955.327439947139
 21
999.7719342123337
 31
0.0
  0
INSERT
  5
6A67
330
5F92
100
AcDbEntity
  8
実形
 62
     0
370
    18
100
AcDbBlockReference
  2
_DotSmall
 10
1025.327439947139
 20
999.7719342123337
 30
0.0
 41
35.0
 42
35.0
 43
35.0
 50
180.0
  0
INSERT
  5
6A68
330
5F92
100
AcDbEntity
  8
実形
 62
     0
370
    18
100
AcDbBlockReference
  2
_DotSmall
 10
1955.327439947139
 20
999.7719342123337
 30
0.0
 41
35.0
 42
35.0
 43
35.0
  0
MTEXT
  5
6A69
330
5F92
100
AcDbEntity
  8
実形
 62
     0
100
AcDbMText
 10
1490.327439947139
 20
1018.521934212333
 30
0.0
 40
25.0
 41
0.0
 71
     5
 72
     1
  1
930
 73
     1
 44
1.0
1001
ACAD
1000
MTEXTBEGIN
1070
    73
1070
     1
1070
    44
1040
1.0
1070
    74
1070
     0
1000
MTEXTEND
  0
POINT
  5
6A6A
330
5F92
100
AcDbEntity
  8
Defpoints
 62
     0
100
AcDbPoint
 10
1025.327439947139
 20
1120.071063737367
 30
0.0
  0
POINT
  5
6A6B
330
5F92
100
AcDbEntity
  8
Defpoints
 62
     0
100
AcDbPoint
 10
1955.327439947139
 20
1120.071063737367
 30
0.0
  0
POINT
  5
6A6C
330
5F92
100
AcDbEntity
  8
Defpoints
 62
     0
100
AcDbPoint
 10
1955.327439947139
 20
999.7719342123337
 30
0.0
  0
ENDBLK
  5
5F9D
330
5F92
100
AcDbEntity
  8
0
 62
     3
100
AcDbBlockEnd
  0
BLOCK
  5
600A
330
6000
100
AcDbEntity
  8
0
 62
     3
100
AcDbBlockBegin
  2
*D20
 70
     1
 10
0.0
 20
0.0
 30
0.0
  3
*D20
  1

  0
LINE
  5
6A6D
330
6000
100
AcDbEntity
  8
実形
 62
     0
370
    18
100
AcDbLine
 10
913.6432427744203
 20
1667.517091367211
 30
0.0
 11
859.2206365706498
 21
1667.517091367211
 31
0.0
  0
LINE
  5
6A6E
330
6000
100
AcDbEntity
  8
実形
 62
     0
370
    18
100
AcDbLine
 10
912.8419942372401
 20
1197.517091367211
 30
0.0
 11
859.2206365706497
 21
1197.517091367211
 31
0.0
  0
LINE
  5
6A6F
330
6000
100
AcDbEntity
  8
実形
 62
     0
370
    18
100
AcDbLine
 10
859.2206365706498
 20
1667.517091367211
 30
0.0
 11
859.2206365706497
 21
1197.517091367211
 31
0.0
  0
INSERT
  5
6A70
330
6000
100
AcDbEntity
  8
実形
 62
     0
370
    18
100
AcDbBlockReference
  2
_DotSmall
 10
859.2206365706498
 20
1667.517091367211
 30
0.0
 41
35.0
 42
35.0
 43
35.0
 50
90.0
  0
INSERT
  5
6A71
330
6000
100
AcDbEntity
  8
実形
 62
     0
370
    18
100
AcDbBlockReference
  2
_DotSmall
 10
859.2206365706497
 20
1197.517091367211
 30
0.0
 41
35.0
 42
35.0
 43
35.0
 50
270.0
  0
MTEXT
  5
6A72
330
6000
100
AcDbEntity
  8
実形
 62
     0
100
AcDbMText
 10
840.4706365706497
 20
1432.517091367211
 30
0.0
 40
25.0
 41
0.0
 71
     5
 72
     1
  1
470
 11
0.0000000000000001
 21
1.0
 31
0.0
 73
     1
 44
1.0
1001
ACAD
1000
MTEXTBEGIN
1070
    73
1070
     1
1070
    44
1040
1.0
1070
    74
1070
     0
1000
MTEXTEND
  0
POINT
  5
6A73
330
6000
100
AcDbEntity
  8
Defpoints
 62
     0
100
AcDbPoint
 10
978.6432427744202
 20
1667.517091367211
 30
0.0
  0
POINT
  5
6A74
330
6000
100
AcDbEntity
  8
Defpoints
 62
     0
100
AcDbPoint
 10
977.8419942372401
 20
1197.517091367211
 30
0.0
  0
POINT
  5
6A75
330
6000
100
AcDbEntity
  8
Defpoints
 62
     0
100
AcDbPoint
 10
859.2206365706497
 20
1197.517091367211
 30
0.0
  0
ENDBLK
  5
600B
330
6000
100
AcDbEntity
  8
0
 62
     3
100
AcDbBlockEnd
  0
BLOCK
  5
6243
330
6239
100
AcDbEntity
  8
0
 62
     3
100
AcDbBlockBegin
  2
*D21
 70
     1
 10
0.0
 20
0.0
 30
0.0
  3
*D21
  1

  0
LINE
  5
6A76
330
6239
100
AcDbEntity
  8
実形
 62
     0
370
    18
100
AcDbLine
 10
1430.327439947139
 20
519.9421603690645
 30
0.0
 11
1430.327439947139
 21
460.6318884539888
 31
0.0
  0
LINE
  5
6A77
330
6239
100
AcDbEntity
  8
実形
 62
     0
370
    18
100
AcDbLine
 10
1590.327439947139
 20
519.9421603690645
 30
0.0
 11
1590.327439947139
 21
460.6318884539888
 31
0.0
  0
LINE
  5
6A78
330
6239
100
AcDbEntity
  8
実形
 62
     0
370
    18
100
AcDbLine
 10
1430.327439947139
 20
460.6318884539888
 30
0.0
 11
1590.327439947139
 21
460.6318884539888
 31
0.0
  0
INSERT
  5
6A79
330
6239
100
AcDbEntity
  8
実形
 62
     0
370
    18
100
AcDbBlockReference
  2
_DotSmall
 10
1430.327439947139
 20
460.6318884539888
 30
0.0
 41
35.0
 42
35.0
 43
35.0
 50
180.0
  0
INSERT
  5
6A7A
330
6239
100
AcDbEntity
  8
実形
 62
     0
370
    18
100
AcDbBlockReference
  2
_DotSmall
 10
1590.327439947139
 20
460.6318884539888
 30
0.0
 41
35.0
 42
35.0
 43
35.0
  0
MTEXT
  5
6A7B
330
6239
100
AcDbEntity
  8
実形
 62
     0
100
AcDbMText
 10
1510.327439947139
 20
479.3818884539888
 30
0.0
 40
25.0
 41
0.0
 71
     5
 72
     1
  1
160
 73
     1
 44
1.0
1001
ACAD
1000
MTEXTBEGIN
1070
    73
1070
     1
1070
    44
1040
1.0
1070
    74
1070
     0
1000
MTEXTEND
  0
POINT
  5
6A7C
330
6239
100
AcDbEntity
  8
Defpoints
 62
     0
100
AcDbPoint
 10
1430.327439947139
 20
584.9421603690644
 30
0.0
  0
POINT
  5
6A7D
330
6239
100
AcDbEntity
  8
Defpoints
 62
     0
100
AcDbPoint
 10
1590.327439947139
 20
584.9421603690646
 30
0.0
  0
POINT
  5
6A7E
330
6239
100
AcDbEntity
  8
Defpoints
 62
     0
100
AcDbPoint
 10
1590.327439947139
 20
460.6318884539888
 30
0.0
  0
ENDBLK
  5
6244
330
6239
100
AcDbEntity
  8
0
 62
     3
100
AcDbBlockEnd
  0
BLOCK
  5
624F
330
6245
100
AcDbEntity
  8
0
 62
     3
100
AcDbBlockBegin
  2
*D22
 70
     1
 10
0.0
 20
0.0
 30
0.0
  3
*D22
  1

  0
LINE
  5
6A7F
330
6245
100
AcDbEntity
  8
実形
 62
     0
370
    18
100
AcDbLine
 10
1419.827439947139
 20
519.9421603690645
 30
0.0
 11
1419.827439947139
 21
420.2113100433081
 31
0.0
  0
LINE
  5
6A80
330
6245
100
AcDbEntity
  8
実形
 62
     0
370
    18
100
AcDbLine
 10
1600.827439947139
 20
519.9421603690645
 30
0.0
 11
1600.827439947139
 21
420.2113100433081
 31
0.0
  0
LINE
  5
6A81
330
6245
100
AcDbEntity
  8
実形
 62
     0
370
    18
100
AcDbLine
 10
1419.827439947139
 20
420.2113100433081
 30
0.0
 11
1600.827439947139
 21
420.2113100433081
 31
0.0
  0
INSERT
  5
6A82
330
6245
100
AcDbEntity
  8
実形
 62
     0
370
    18
100
AcDbBlockReference
  2
_DotSmall
 10
1419.827439947139
 20
420.2113100433081
 30
0.0
 41
35.0
 42
35.0
 43
35.0
 50
180.0
  0
INSERT
  5
6A83
330
6245
100
AcDbEntity
  8
実形
 62
     0
370
    18
100
AcDbBlockReference
  2
_DotSmall
 10
1600.827439947139
 20
420.2113100433081
 30
0.0
 41
35.0
 42
35.0
 43
35.0
  0
MTEXT
  5
6A84
330
6245
100
AcDbEntity
  8
実形
 62
     0
100
AcDbMText
 10
1510.327439947139
 20
438.9613100433081
 30
0.0
 40
25.0
 41
0.0
 71
     5
 72
     1
  1
181
 73
     1
 44
1.0
1001
ACAD
1000
MTEXTBEGIN
1070
    73
1070
     1
1070
    44
1040
1.0
1070
    74
1070
     0
1000
MTEXTEND
  0
POINT
  5
6A85
330
6245
100
AcDbEntity
  8
Defpoints
 62
     0
100
AcDbPoint
 10
1419.827439947139
 20
584.9421603690644
 30
0.0
  0
POINT
  5
6A86
330
6245
100
AcDbEntity
  8
Defpoints
 62
     0
100
AcDbPoint
 10
1600.827439947139
 20
584.9421603690644
 30
0.0
  0
POINT
  5
6A87
330
6245
100
AcDbEntity
  8
Defpoints
 62
     0
100
AcDbPoint
 10
1600.827439947139
 20
420.2113100433081
 30
0.0
  0
ENDBLK
  5
6250
330
6245
100
AcDbEntity
  8
0
 62
     3
100
AcDbBlockEnd
  0
BLOCK
  5
6360
330
6356
100
AcDbEntity
  8
0
 62
     3
100
AcDbBlockBegin
  2
*D23
 70
     1
 10
0.0
 20
0.0
 30
0.0
  3
*D23
  1

  0
LINE
  5
6A88
330
6356
100
AcDbEntity
  8
寸法
 62
     0
370
    15
100
AcDbLine
 10
975.3274399471392
 20
779.9421603690643
 30
0.0
 11
882.6950651245509
 21
779.9421603690643
 31
0.0
  0
LINE
  5
6A89
330
6356
100
AcDbEntity
  8
寸法
 62
     0
370
    15
100
AcDbLine
 10
975.3274399471392
 20
584.9421603690643
 30
0.0
 11
882.6950651245507
 21
584.9421603690643
 31
0.0
  0
LINE
  5
6A8A
330
6356
100
AcDbEntity
  8
寸法
 62
     0
370
    18
100
AcDbLine
 10
882.6950651245509
 20
779.9421603690643
 30
0.0
 11
882.6950651245507
 21
584.9421603690643
 31
0.0
  0
INSERT
  5
6A8B
330
6356
100
AcDbEntity
  8
寸法
 62
     0
370
    18
100
AcDbBlockReference
  2
_DotSmall
 10
882.6950651245509
 20
779.9421603690643
 30
0.0
 41
35.0
 42
35.0
 43
35.0
 50
90.0
  0
INSERT
  5
6A8C
330
6356
100
AcDbEntity
  8
寸法
 62
     0
370
    18
100
AcDbBlockReference
  2
_DotSmall
 10
882.6950651245507
 20
584.9421603690643
 30
0.0
 41
35.0
 42
35.0
 43
35.0
 50
270.0
  0
MTEXT
  5
6A8D
330
6356
100
AcDbEntity
  8
寸法
 62
     0
100
AcDbMText
 10
863.9450651245507
 20
682.4421603690645
 30
0.0
 40
25.0
 41
0.0
 71
     5
 72
     1
  1
195
 11
0.0000000000000001
 21
1.0
 31
0.0
 73
     1
 44
1.0
1001
ACAD
1000
MTEXTBEGIN
1070
    73
1070
     1
1070
    44
1040
1.0
1070
    74
1070
     0
1000
MTEXTEND
  0
POINT
  5
6A8E
330
6356
100
AcDbEntity
  8
Defpoints
 62
     0
100
AcDbPoint
 10
1040.327439947139
 20
779.9421603690643
 30
0.0
  0
POINT
  5
6A8F
330
6356
100
AcDbEntity
  8
Defpoints
 62
     0
100
AcDbPoint
 10
1040.327439947139
 20
584.9421603690643
 30
0.0
  0
POINT
  5
6A90
330
6356
100
AcDbEntity
  8
Defpoints
 62
     0
100
AcDbPoint
 10
882.6950651245507
 20
584.9421603690643
 30
0.0
  0
ENDBLK
  5
6361
330
6356
100
AcDbEntity
  8
0
 62
     3
100
AcDbBlockEnd
  0
BLOCK
  5
636C
330
6362
100
AcDbEntity
  8
0
 62
     3
100
AcDbBlockBegin
  2
*D24
 70
     1
 10
0.0
 20
0.0
 30
0.0
  3
*D24
  1

  0
LINE
  5
6A91
330
6362
100
AcDbEntity
  8
実形
 62
     0
370
    18
100
AcDbLine
 10
964.1252901601921
 20
595.9421603690643
 30
0.0
 11
927.6406165177542
 21
595.9421603690643
 31
0.0
  0
LINE
  5
6A92
330
6362
100
AcDbEntity
  8
実形
 62
     0
370
    18
100
AcDbLine
 10
976.1535893721783
 20
574.9421603690644
 30
0.0
 11
927.6406165177542
 21
574.9421603690644
 31
0.0
  0
LINE
  5
6A93
330
6362
100
AcDbEntity
  8
実形
 62
     0
370
    18
100
AcDbLine
 10
927.6406165177542
 20
595.9421603690643
 30
0.0
 11
927.6406165177542
 21
574.9421603690644
 31
0.0
  0
MTEXT
  5
6A94
330
6362
100
AcDbEntity
  8
実形
 62
     0
100
AcDbMText
 10
917.9820279114393
 20
555.5695039800394
 30
0.0
 40
25.0
 41
0.0
 71
     5
 72
     1
  1
8
 11
0.0000000000000001
 21
1.0
 31
0.0
 73
     1
 44
1.0
1001
ACAD
1000
MTEXTBEGIN
1070
    73
1070
     1
1070
    44
1040
1.0
1070
    74
1070
     0
1000
MTEXTEND
  0
INSERT
  5
6A95
330
6362
100
AcDbEntity
  8
実形
 62
     0
370
    18
100
AcDbBlockReference
  2
_DotSmall
 10
927.6406165177542
 20
595.9421603690643
 30
0.0
 41
35.0
 42
35.0
 43
35.0
 50
90.0
  0
INSERT
  5
6A96
330
6362
100
AcDbEntity
  8
実形
 62
     0
370
    18
100
AcDbBlockReference
  2
_DotSmall
 10
927.6406165177542
 20
574.9421603690644
 30
0.0
 41
35.0
 42
35.0
 43
35.0
 50
270.0
  0
POINT
  5
6A97
330
6362
100
AcDbEntity
  8
Defpoints
 62
     0
100
AcDbPoint
 10
1029.125290160192
 20
595.9421603690643
 30
0.0
  0
POINT
  5
6A98
330
6362
100
AcDbEntity
  8
Defpoints
 62
     0
100
AcDbPoint
 10
1041.153589372178
 20
574.9421603690644
 30
0.0
  0
POINT
  5
6A99
330
6362
100
AcDbEntity
  8
Defpoints
 62
     0
100
AcDbPoint
 10
927.6406165177542
 20
574.9421603690644
 30
0.0
  0
ENDBLK
  5
636D
330
6362
100
AcDbEntity
  8
0
 62
     3
100
AcDbBlockEnd
  0
BLOCK
  5
6378
330
636E
100
AcDbEntity
  8
0
 62
     3
100
AcDbBlockBegin
  2
*D25
 70
     1
 10
0.0
 20
0.0
 30
0.0
  3
*D25
  1

  0
LINE
  5
6A9A
330
636E
100
AcDbEntity
  8
実形
 62
     0
370
    18
100
AcDbLine
 10
910.3274399471393
 20
779.9421603690643
 30
0.0
 11
834.3029572571989
 21
779.9421603690643
 31
0.0
  0
LINE
  5
6A9B
330
636E
100
AcDbEntity
  8
実形
 62
     0
370
    18
100
AcDbLine
 10
886.8971029449664
 20
574.9421603690644
 30
0.0
 11
834.3029572571987
 21
574.9421603690644
 31
0.0
  0
LINE
  5
6A9C
330
636E
100
AcDbEntity
  8
実形
 62
     0
370
    18
100
AcDbLine
 10
834.3029572571989
 20
779.9421603690643
 30
0.0
 11
834.3029572571987
 21
574.9421603690644
 31
0.0
  0
INSERT
  5
6A9D
330
636E
100
AcDbEntity
  8
実形
 62
     0
370
    18
100
AcDbBlockReference
  2
_DotSmall
 10
834.3029572571989
 20
779.9421603690643
 30
0.0
 41
35.0
 42
35.0
 43
35.0
 50
90.0
  0
INSERT
  5
6A9E
330
636E
100
AcDbEntity
  8
実形
 62
     0
370
    18
100
AcDbBlockReference
  2
_DotSmall
 10
834.3029572571987
 20
574.9421603690644
 30
0.0
 41
35.0
 42
35.0
 43
35.0
 50
270.0
  0
MTEXT
  5
6A9F
330
636E
100
AcDbEntity
  8
実形
 62
     0
100
AcDbMText
 10
815.5529572571985
 20
677.4421603690646
 30
0.0
 40
25.0
 41
0.0
 71
     5
 72
     1
  1
203
 11
0.0000000000000001
 21
1.0
 31
0.0
 73
     1
 44
1.0
1001
ACAD
1000
MTEXTBEGIN
1070
    73
1070
     1
1070
    44
1040
1.0
1070
    74
1070
     0
1000
MTEXTEND
  0
POINT
  5
6AA0
330
636E
100
AcDbEntity
  8
Defpoints
 62
     0
100
AcDbPoint
 10
975.3274399471393
 20
779.9421603690643
 30
0.0
  0
POINT
  5
6AA1
330
636E
100
AcDbEntity
  8
Defpoints
 62
     0
100
AcDbPoint
 10
951.8971029449664
 20
574.9421603690644
 30
0.0
  0
POINT
  5
6AA2
330
636E
100
AcDbEntity
  8
Defpoints
 62
     0
100
AcDbPoint
 10
834.3029572571987
 20
574.9421603690644
 30
0.0
  0
ENDBLK
  5
6379
330
636E
100
AcDbEntity
  8
0
 62
     3
100
AcDbBlockEnd
  0
BLOCK
  5
6440
330
6436
100
AcDbEntity
  8
0
 62
     3
100
AcDbBlockBegin
  2
*D26
 70
     1
 10
0.0
 20
0.0
 30
0.0
  3
*D26
  1

  0
LINE
  5
6C49
330
6436
100
AcDbEntity
  8
実形
 62
     0
370
    18
100
AcDbLine
 10
1732.827439947139
 20
519.9421603690645
 30
0.0
 11
1732.827439947139
 21
415.2113100433081
 31
0.0
  0
LINE
  5
6C4A
330
6436
100
AcDbEntity
  8
実形
 62
     0
370
    18
100
AcDbLine
 10
1847.827439947139
 20
519.9421603690645
 30
0.0
 11
1847.827439947139
 21
415.2113100433081
 31
0.0
  0
LINE
  5
6C4B
330
6436
100
AcDbEntity
  8
実形
 62
     0
370
    18
100
AcDbLine
 10
1732.827439947139
 20
415.2113100433081
 30
0.0
 11
1847.827439947139
 21
415.2113100433081
 31
0.0
  0
INSERT
  5
6C4C
330
6436
100
AcDbEntity
  8
実形
 62
     0
370
    18
100
AcDbBlockReference
  2
_DotSmall
 10
1732.827439947139
 20
415.2113100433081
 30
0.0
 41
35.0
 42
35.0
 43
35.0
 50
180.0
  0
INSERT
  5
6C4D
330
6436
100
AcDbEntity
  8
実形
 62
     0
370
    18
100
AcDbBlockReference
  2
_DotSmall
 10
1847.827439947139
 20
415.2113100433081
 30
0.0
 41
35.0
 42
35.0
 43
35.0
  0
MTEXT
  5
6C4E
330
6436
100
AcDbEntity
  8
実形
 62
     0
100
AcDbMText
 10
1790.327439947139
 20
433.9613100433081
 30
0.0
 40
25.0
 41
0.0
 71
     5
 72
     1
  1
115
 73
     1
 44
1.0
1001
ACAD
1000
MTEXTBEGIN
1070
    73
1070
     1
1070
    44
1040
1.0
1070
    74
1070
     0
1000
MTEXTEND
  0
POINT
  5
6C4F
330
6436
100
AcDbEntity
  8
Defpoints
 62
     0
100
AcDbPoint
 10
1732.827439947139
 20
584.9421603690644
 30
0.0
  0
POINT
  5
6C50
330
6436
100
AcDbEntity
  8
Defpoints
 62
     0
100
AcDbPoint
 10
1847.827439947139
 20
584.9421603690644
 30
0.0
  0
POINT
  5
6C51
330
6436
100
AcDbEntity
  8
Defpoints
 62
     0
100
AcDbPoint
 10
1847.827439947139
 20
415.2113100433081
 30
0.0
  0
ENDBLK
  5
6441
330
6436
100
AcDbEntity
  8
0
 62
     3
100
AcDbBlockEnd
  0
BLOCK
  5
644C
330
6442
100
AcDbEntity
  8
0
 62
     3
100
AcDbBlockBegin
  2
*D27
 70
     1
 10
0.0
 20
0.0
 30
0.0
  3
*D27
  1

  0
LINE
  5
6C35
330
6442
100
AcDbEntity
  8
実形
 62
     0
370
    18
100
AcDbLine
 10
1743.327439947139
 20
519.9421603690645
 30
0.0
 11
1743.327439947139
 21
455.6318884539888
 31
0.0
  0
LINE
  5
6C36
330
6442
100
AcDbEntity
  8
実形
 62
     0
370
    18
100
AcDbLine
 10
1837.327439947139
 20
519.9421603690645
 30
0.0
 11
1837.327439947139
 21
455.6318884539888
 31
0.0
  0
LINE
  5
6C37
330
6442
100
AcDbEntity
  8
実形
 62
     0
370
    18
100
AcDbLine
 10
1743.327439947139
 20
455.6318884539888
 30
0.0
 11
1837.327439947139
 21
455.6318884539888
 31
0.0
  0
INSERT
  5
6C38
330
6442
100
AcDbEntity
  8
実形
 62
     0
370
    18
100
AcDbBlockReference
  2
_DotSmall
 10
1743.327439947139
 20
455.6318884539888
 30
0.0
 41
35.0
 42
35.0
 43
35.0
 50
180.0
  0
INSERT
  5
6C39
330
6442
100
AcDbEntity
  8
実形
 62
     0
370
    18
100
AcDbBlockReference
  2
_DotSmall
 10
1837.327439947139
 20
455.6318884539888
 30
0.0
 41
35.0
 42
35.0
 43
35.0
  0
MTEXT
  5
6C3A
330
6442
100
AcDbEntity
  8
実形
 62
     0
100
AcDbMText
 10
1790.327439947139
 20
474.3818884539888
 30
0.0
 40
25.0
 41
0.0
 71
     5
 72
     1
  1
94
 73
     1
 44
1.0
1001
ACAD
1000
MTEXTBEGIN
1070
    73
1070
     1
1070
    44
1040
1.0
1070
    74
1070
     0
1000
MTEXTEND
  0
POINT
  5
6C3B
330
6442
100
AcDbEntity
  8
Defpoints
 62
     0
100
AcDbPoint
 10
1743.327439947139
 20
584.9421603690644
 30
0.0
  0
POINT
  5
6C3C
330
6442
100
AcDbEntity
  8
Defpoints
 62
     0
100
AcDbPoint
 10
1837.327439947139
 20
584.9421603690644
 30
0.0
  0
POINT
  5
6C3D
330
6442
100
AcDbEntity
  8
Defpoints
 62
     0
100
AcDbPoint
 10
1837.327439947139
 20
455.6318884539888
 30
0.0
  0
ENDBLK
  5
644D
330
6442
100
AcDbEntity
  8
0
 62
     3
100
AcDbBlockEnd
  0
BLOCK
  5
647B
330
6471
100
AcDbEntity
  8
0
 62
     3
100
AcDbBlockBegin
  2
*D28
 70
     1
 10
0.0
 20
0.0
 30
0.0
  3
*D28
  1

  0
LINE
  5
6AB5
330
6471
100
AcDbEntity
  8
寸法
 62
     0
370
    15
100
AcDbLine
 10
1996.639163016029
 20
779.9421603690643
 30
0.0
 11
2089.271537838618
 21
779.9421603690643
 31
0.0
  0
LINE
  5
6AB6
330
6471
100
AcDbEntity
  8
寸法
 62
     0
370
    15
100
AcDbLine
 10
1996.639163016029
 20
584.9421603690643
 30
0.0
 11
2089.271537838618
 21
584.9421603690643
 31
0.0
  0
LINE
  5
6AB7
330
6471
100
AcDbEntity
  8
寸法
 62
     0
370
    18
100
AcDbLine
 10
2089.271537838618
 20
779.9421603690643
 30
0.0
 11
2089.271537838618
 21
584.9421603690643
 31
0.0
  0
INSERT
  5
6AB8
330
6471
100
AcDbEntity
  8
寸法
 62
     0
370
    18
100
AcDbBlockReference
  2
_DotSmall
 10
2089.271537838618
 20
779.9421603690643
 30
0.0
 41
35.0
 42
35.0
 43
35.0
 50
90.0
  0
INSERT
  5
6AB9
330
6471
100
AcDbEntity
  8
寸法
 62
     0
370
    18
100
AcDbBlockReference
  2
_DotSmall
 10
2089.271537838618
 20
584.9421603690643
 30
0.0
 41
35.0
 42
35.0
 43
35.0
 50
270.0
  0
MTEXT
  5
6ABA
330
6471
100
AcDbEntity
  8
寸法
 62
     0
100
AcDbMText
 10
2070.521537838617
 20
682.4421603690646
 30
0.0
 40
25.0
 41
0.0
 71
     5
 72
     1
  1
195
 11
0.0000000000000001
 21
1.0
 31
0.0
 73
     1
 44
1.0
1001
ACAD
1000
MTEXTBEGIN
1070
    73
1070
     1
1070
    44
1040
1.0
1070
    74
1070
     0
1000
MTEXTEND
  0
POINT
  5
6ABB
330
6471
100
AcDbEntity
  8
Defpoints
 62
     0
100
AcDbPoint
 10
1931.639163016029
 20
779.9421603690643
 30
0.0
  0
POINT
  5
6ABC
330
6471
100
AcDbEntity
  8
Defpoints
 62
     0
100
AcDbPoint
 10
1931.639163016029
 20
584.9421603690643
 30
0.0
  0
POINT
  5
6ABD
330
6471
100
AcDbEntity
  8
Defpoints
 62
     0
100
AcDbPoint
 10
2089.271537838618
 20
584.9421603690643
 30
0.0
  0
ENDBLK
  5
647C
330
6471
100
AcDbEntity
  8
0
 62
     3
100
AcDbBlockEnd
  0
BLOCK
  5
6487
330
647D
100
AcDbEntity
  8
0
 62
     3
100
AcDbBlockBegin
  2
*D29
 70
     1
 10
0.0
 20
0.0
 30
0.0
  3
*D29
  1

  0
LINE
  5
6ABE
330
647D
100
AcDbEntity
  8
実形
 62
     0
370
    18
100
AcDbLine
 10
2007.841312802976
 20
595.9421603690643
 30
0.0
 11
2044.325986445414
 21
595.9421603690643
 31
0.0
  0
LINE
  5
6ABF
330
647D
100
AcDbEntity
  8
実形
 62
     0
370
    18
100
AcDbLine
 10
1995.813013590989
 20
574.9421603690644
 30
0.0
 11
2044.325986445414
 21
574.9421603690644
 31
0.0
  0
LINE
  5
6AC0
330
647D
100
AcDbEntity
  8
実形
 62
     0
370
    18
100
AcDbLine
 10
2044.325986445414
 20
595.9421603690643
 30
0.0
 11
2044.325986445414
 21
574.9421603690644
 31
0.0
  0
MTEXT
  5
6AC1
330
647D
100
AcDbEntity
  8
実形
 62
     0
100
AcDbMText
 10
2021.787495412086
 20
552.2891406642783
 30
0.0
 40
25.0
 41
0.0
 71
     5
 72
     1
  1
8
 11
0.0000000000000001
 21
1.0
 31
0.0
 73
     1
 44
1.0
1001
ACAD
1000
MTEXTBEGIN
1070
    73
1070
     1
1070
    44
1040
1.0
1070
    74
1070
     0
1000
MTEXTEND
  0
INSERT
  5
6AC2
330
647D
100
AcDbEntity
  8
実形
 62
     0
370
    18
100
AcDbBlockReference
  2
_DotSmall
 10
2044.325986445414
 20
595.9421603690643
 30
0.0
 41
35.0
 42
35.0
 43
35.0
 50
90.0
  0
INSERT
  5
6AC3
330
647D
100
AcDbEntity
  8
実形
 62
     0
370
    18
100
AcDbBlockReference
  2
_DotSmall
 10
2044.325986445414
 20
574.9421603690644
 30
0.0
 41
35.0
 42
35.0
 43
35.0
 50
270.0
  0
POINT
  5
6AC4
330
647D
100
AcDbEntity
  8
Defpoints
 62
     0
100
AcDbPoint
 10
1942.841312802976
 20
595.9421603690643
 30
0.0
  0
POINT
  5
6AC5
330
647D
100
AcDbEntity
  8
Defpoints
 62
     0
100
AcDbPoint
 10
1930.813013590989
 20
574.9421603690644
 30
0.0
  0
POINT
  5
6AC6
330
647D
100
AcDbEntity
  8
Defpoints
 62
     0
100
AcDbPoint
 10
2044.325986445414
 20
574.9421603690644
 30
0.0
  0
ENDBLK
  5
6488
330
647D
100
AcDbEntity
  8
0
 62
     3
100
AcDbBlockEnd
  0
BLOCK
  5
6493
330
6489
100
AcDbEntity
  8
0
 62
     3
100
AcDbBlockBegin
  2
*D30
 70
     1
 10
0.0
 20
0.0
 30
0.0
  3
*D30
  1

  0
LINE
  5
6AC7
330
6489
100
AcDbEntity
  8
実形
 62
     0
370
    18
100
AcDbLine
 10
2061.639163016029
 20
779.9421603690643
 30
0.0
 11
2137.66364570597
 21
779.9421603690643
 31
0.0
  0
LINE
  5
6AC8
330
6489
100
AcDbEntity
  8
実形
 62
     0
370
    18
100
AcDbLine
 10
2085.069500018201
 20
574.9421603690644
 30
0.0
 11
2137.66364570597
 21
574.9421603690644
 31
0.0
  0
LINE
  5
6AC9
330
6489
100
AcDbEntity
  8
実形
 62
     0
370
    18
100
AcDbLine
 10
2137.66364570597
 20
779.9421603690643
 30
0.0
 11
2137.66364570597
 21
574.9421603690644
 31
0.0
  0
INSERT
  5
6ACA
330
6489
100
AcDbEntity
  8
実形
 62
     0
370
    18
100
AcDbBlockReference
  2
_DotSmall
 10
2137.66364570597
 20
779.9421603690643
 30
0.0
 41
35.0
 42
35.0
 43
35.0
 50
90.0
  0
INSERT
  5
6ACB
330
6489
100
AcDbEntity
  8
実形
 62
     0
370
    18
100
AcDbBlockReference
  2
_DotSmall
 10
2137.66364570597
 20
574.9421603690644
 30
0.0
 41
35.0
 42
35.0
 43
35.0
 50
270.0
  0
MTEXT
  5
6ACC
330
6489
100
AcDbEntity
  8
実形
 62
     0
100
AcDbMText
 10
2118.91364570597
 20
677.4421603690647
 30
0.0
 40
25.0
 41
0.0
 71
     5
 72
     1
  1
203
 11
0.0000000000000001
 21
1.0
 31
0.0
 73
     1
 44
1.0
1001
ACAD
1000
MTEXTBEGIN
1070
    73
1070
     1
1070
    44
1040
1.0
1070
    74
1070
     0
1000
MTEXTEND
  0
POINT
  5
6ACD
330
6489
100
AcDbEntity
  8
Defpoints
 62
     0
100
AcDbPoint
 10
1996.639163016029
 20
779.9421603690643
 30
0.0
  0
POINT
  5
6ACE
330
6489
100
AcDbEntity
  8
Defpoints
 62
     0
100
AcDbPoint
 10
2020.069500018202
 20
574.9421603690644
 30
0.0
  0
POINT
  5
6ACF
330
6489
100
AcDbEntity
  8
Defpoints
 62
     0
100
AcDbPoint
 10
2137.66364570597
 20
574.9421603690644
 30
0.0
  0
ENDBLK
  5
6494
330
6489
100
AcDbEntity
  8
0
 62
     3
100
AcDbBlockEnd
  0
BLOCK
  5
66BA
330
66B0
100
AcDbEntity
  8
0
 62
     3
100
AcDbBlockBegin
  2
*D31
 70
     1
 10
0.0
 20
0.0
 30
0.0
  3
*D31
  1

  0
LINE
  5
6AD0
330
66B0
100
AcDbEntity
  8
寸法
 62
     0
370
    15
100
AcDbLine
 10
2048.854649934987
 20
1145.192356150399
 30
0.0
 11
2048.854649934987
 21
1052.559981327811
 31
0.0
  0
LINE
  5
6AD1
330
66B0
100
AcDbEntity
  8
寸法
 62
     0
370
    15
100
AcDbLine
 10
2243.854649934987
 20
1145.192356150399
 30
0.0
 11
2243.854649934987
 21
1052.559981327811
 31
0.0
  0
LINE
  5
6AD2
330
66B0
100
AcDbEntity
  8
寸法
 62
     0
370
    18
100
AcDbLine
 10
2048.854649934987
 20
1052.559981327811
 30
0.0
 11
2243.854649934987
 21
1052.559981327811
 31
0.0
  0
INSERT
  5
6AD3
330
66B0
100
AcDbEntity
  8
寸法
 62
     0
370
    18
100
AcDbBlockReference
  2
_DotSmall
 10
2048.854649934987
 20
1052.559981327811
 30
0.0
 41
35.0
 42
35.0
 43
35.0
 50
180.0
  0
INSERT
  5
6AD4
330
66B0
100
AcDbEntity
  8
寸法
 62
     0
370
    18
100
AcDbBlockReference
  2
_DotSmall
 10
2243.854649934987
 20
1052.559981327811
 30
0.0
 41
35.0
 42
35.0
 43
35.0
  0
MTEXT
  5
6AD5
330
66B0
100
AcDbEntity
  8
寸法
 62
     0
100
AcDbMText
 10
2146.354649934987
 20
1071.309981327811
 30
0.0
 40
25.0
 41
0.0
 71
     5
 72
     1
  1
195
 73
     1
 44
1.0
1001
ACAD
1000
MTEXTBEGIN
1070
    73
1070
     1
1070
    44
1040
1.0
1070
    74
1070
     0
1000
MTEXTEND
  0
POINT
  5
6AD6
330
66B0
100
AcDbEntity
  8
Defpoints
 62
     0
100
AcDbPoint
 10
2048.854649934987
 20
1210.192356150399
 30
0.0
  0
POINT
  5
6AD7
330
66B0
100
AcDbEntity
  8
Defpoints
 62
     0
100
AcDbPoint
 10
2243.854649934987
 20
1210.192356150399
 30
0.0
  0
POINT
  5
6AD8
330
66B0
100
AcDbEntity
  8
Defpoints
 62
     0
100
AcDbPoint
 10
2243.854649934987
 20
1052.559981327811
 30
0.0
  0
ENDBLK
  5
66BB
330
66B0
100
AcDbEntity
  8
0
 62
     3
100
AcDbBlockEnd
  0
BLOCK
  5
66C6
330
66BC
100
AcDbEntity
  8
0
 62
     3
100
AcDbBlockBegin
  2
*D32
 70
     1
 10
0.0
 20
0.0
 30
0.0
  3
*D32
  1

  0
LINE
  5
6AD9
330
66BC
100
AcDbEntity
  8
実形
 62
     0
370
    18
100
AcDbLine
 10
2232.854649934987
 20
1133.990206363452
 30
0.0
 11
2232.854649934987
 21
1097.505532721014
 31
0.0
  0
LINE
  5
6ADA
330
66BC
100
AcDbEntity
  8
実形
 62
     0
370
    18
100
AcDbLine
 10
2253.854649934987
 20
1146.018505575439
 30
0.0
 11
2253.854649934987
 21
1097.505532721014
 31
0.0
  0
LINE
  5
6ADB
330
66BC
100
AcDbEntity
  8
実形
 62
     0
370
    18
100
AcDbLine
 10
2232.854649934987
 20
1097.505532721014
 30
0.0
 11
2253.854649934987
 21
1097.505532721014
 31
0.0
  0
MTEXT
  5
6ADC
330
66BC
100
AcDbEntity
  8
実形
 62
     0
100
AcDbMText
 10
2273.227306324012
 20
1121.67624125857
 30
0.0
 40
25.0
 41
0.0
 71
     5
 72
     1
  1
8
 73
     1
 44
1.0
1001
ACAD
1000
MTEXTBEGIN
1070
    73
1070
     1
1070
    44
1040
1.0
1070
    74
1070
     0
1000
MTEXTEND
  0
INSERT
  5
6ADD
330
66BC
100
AcDbEntity
  8
実形
 62
     0
370
    18
100
AcDbBlockReference
  2
_DotSmall
 10
2232.854649934987
 20
1097.505532721014
 30
0.0
 41
35.0
 42
35.0
 43
35.0
 50
180.0
  0
INSERT
  5
6ADE
330
66BC
100
AcDbEntity
  8
実形
 62
     0
370
    18
100
AcDbBlockReference
  2
_DotSmall
 10
2253.854649934987
 20
1097.505532721014
 30
0.0
 41
35.0
 42
35.0
 43
35.0
  0
POINT
  5
6ADF
330
66BC
100
AcDbEntity
  8
Defpoints
 62
     0
100
AcDbPoint
 10
2232.854649934987
 20
1198.990206363452
 30
0.0
  0
POINT
  5
6AE0
330
66BC
100
AcDbEntity
  8
Defpoints
 62
     0
100
AcDbPoint
 10
2253.854649934987
 20
1211.018505575438
 30
0.0
  0
POINT
  5
6AE1
330
66BC
100
AcDbEntity
  8
Defpoints
 62
     0
100
AcDbPoint
 10
2253.854649934987
 20
1097.505532721014
 30
0.0
  0
ENDBLK
  5
66C7
330
66BC
100
AcDbEntity
  8
0
 62
     3
100
AcDbBlockEnd
  0
BLOCK
  5
66D2
330
66C8
100
AcDbEntity
  8
0
 62
     3
100
AcDbBlockBegin
  2
*D33
 70
     1
 10
0.0
 20
0.0
 30
0.0
  3
*D33
  1

  0
LINE
  5
6AE2
330
66C8
100
AcDbEntity
  8
実形
 62
     0
370
    18
100
AcDbLine
 10
2048.854649934987
 20
1080.192356150399
 30
0.0
 11
2048.854649934987
 21
1004.167873460459
 31
0.0
  0
LINE
  5
6AE3
330
66C8
100
AcDbEntity
  8
実形
 62
     0
370
    18
100
AcDbLine
 10
2253.854649934987
 20
1056.762019148226
 30
0.0
 11
2253.854649934987
 21
1004.167873460459
 31
0.0
  0
LINE
  5
6AE4
330
66C8
100
AcDbEntity
  8
実形
 62
     0
370
    18
100
AcDbLine
 10
2048.854649934987
 20
1004.167873460459
 30
0.0
 11
2253.854649934987
 21
1004.167873460459
 31
0.0
  0
INSERT
  5
6AE5
330
66C8
100
AcDbEntity
  8
実形
 62
     0
370
    18
100
AcDbBlockReference
  2
_DotSmall
 10
2048.854649934987
 20
1004.167873460459
 30
0.0
 41
35.0
 42
35.0
 43
35.0
 50
180.0
  0
INSERT
  5
6AE6
330
66C8
100
AcDbEntity
  8
実形
 62
     0
370
    18
100
AcDbBlockReference
  2
_DotSmall
 10
2253.854649934987
 20
1004.167873460459
 30
0.0
 41
35.0
 42
35.0
 43
35.0
  0
MTEXT
  5
6AE7
330
66C8
100
AcDbEntity
  8
実形
 62
     0
100
AcDbMText
 10
2151.354649934987
 20
1022.917873460459
 30
0.0
 40
25.0
 41
0.0
 71
     5
 72
     1
  1
203
 73
     1
 44
1.0
1001
ACAD
1000
MTEXTBEGIN
1070
    73
1070
     1
1070
    44
1040
1.0
1070
    74
1070
     0
1000
MTEXTEND
  0
POINT
  5
6AE8
330
66C8
100
AcDbEntity
  8
Defpoints
 62
     0
100
AcDbPoint
 10
2048.854649934987
 20
1145.192356150399
 30
0.0
  0
POINT
  5
6AE9
330
66C8
100
AcDbEntity
  8
Defpoints
 62
     0
100
AcDbPoint
 10
2253.854649934987
 20
1121.762019148226
 30
0.0
  0
POINT
  5
6AEA
330
66C8
100
AcDbEntity
  8
Defpoints
 62
     0
100
AcDbPoint
 10
2253.854649934987
 20
1004.167873460459
 30
0.0
  0
ENDBLK
  5
66D3
330
66C8
100
AcDbEntity
  8
0
 62
     3
100
AcDbBlockEnd
  0
BLOCK
  5
6760
330
6756
100
AcDbEntity
  8
0
 62
     3
100
AcDbBlockBegin
  2
*D34
 70
     1
 10
0.0
 20
0.0
 30
0.0
  3
*D34
  1

  0
LINE
  5
6AEB
330
6756
100
AcDbEntity
  8
寸法
 62
     0
370
    15
100
AcDbLine
 10
789.4221241276222
 20
1145.192356150399
 30
0.0
 11
789.4221241276222
 21
1052.559981327811
 31
0.0
  0
LINE
  5
6AEC
330
6756
100
AcDbEntity
  8
寸法
 62
     0
370
    15
100
AcDbLine
 10
594.4221241276222
 20
1145.192356150399
 30
0.0
 11
594.4221241276222
 21
1052.559981327811
 31
0.0
  0
LINE
  5
6AED
330
6756
100
AcDbEntity
  8
寸法
 62
     0
370
    18
100
AcDbLine
 10
789.4221241276222
 20
1052.559981327811
 30
0.0
 11
594.4221241276222
 21
1052.559981327811
 31
0.0
  0
INSERT
  5
6AEE
330
6756
100
AcDbEntity
  8
寸法
 62
     0
370
    18
100
AcDbBlockReference
  2
_DotSmall
 10
789.4221241276222
 20
1052.559981327811
 30
0.0
 41
35.0
 42
35.0
 43
35.0
  0
INSERT
  5
6AEF
330
6756
100
AcDbEntity
  8
寸法
 62
     0
370
    18
100
AcDbBlockReference
  2
_DotSmall
 10
594.4221241276222
 20
1052.559981327811
 30
0.0
 41
35.0
 42
35.0
 43
35.0
 50
180.0
  0
MTEXT
  5
6AF0
330
6756
100
AcDbEntity
  8
寸法
 62
     0
100
AcDbMText
 10
691.9221241276223
 20
1071.309981327811
 30
0.0
 40
25.0
 41
0.0
 71
     5
 72
     1
  1
195
 73
     1
 44
1.0
1001
ACAD
1000
MTEXTBEGIN
1070
    73
1070
     1
1070
    44
1040
1.0
1070
    74
1070
     0
1000
MTEXTEND
  0
POINT
  5
6AF1
330
6756
100
AcDbEntity
  8
Defpoints
 62
     0
100
AcDbPoint
 10
789.4221241276222
 20
1210.192356150399
 30
0.0
  0
POINT
  5
6AF2
330
6756
100
AcDbEntity
  8
Defpoints
 62
     0
100
AcDbPoint
 10
594.4221241276222
 20
1210.192356150399
 30
0.0
  0
POINT
  5
6AF3
330
6756
100
AcDbEntity
  8
Defpoints
 62
     0
100
AcDbPoint
 10
594.4221241276222
 20
1052.559981327811
 30
0.0
  0
ENDBLK
  5
6761
330
6756
100
AcDbEntity
  8
0
 62
     3
100
AcDbBlockEnd
  0
BLOCK
  5
676C
330
6762
100
AcDbEntity
  8
0
 62
     3
100
AcDbBlockBegin
  2
*D35
 70
     1
 10
0.0
 20
0.0
 30
0.0
  3
*D35
  1

  0
LINE
  5
6AF4
330
6762
100
AcDbEntity
  8
実形
 62
     0
370
    18
100
AcDbLine
 10
605.4221241276223
 20
1133.990206363452
 30
0.0
 11
605.4221241276223
 21
1097.505532721014
 31
0.0
  0
LINE
  5
6AF5
330
6762
100
AcDbEntity
  8
実形
 62
     0
370
    18
100
AcDbLine
 10
584.4221241276223
 20
1146.018505575439
 30
0.0
 11
584.4221241276223
 21
1097.505532721014
 31
0.0
  0
LINE
  5
6AF6
330
6762
100
AcDbEntity
  8
実形
 62
     0
370
    18
100
AcDbLine
 10
605.4221241276223
 20
1097.505532721014
 30
0.0
 11
584.4221241276223
 21
1097.505532721014
 31
0.0
  0
MTEXT
  5
6AF7
330
6762
100
AcDbEntity
  8
実形
 62
     0
100
AcDbMText
 10
565.0494677385973
 20
1121.67624125857
 30
0.0
 40
25.0
 41
0.0
 71
     5
 72
     1
  1
8
 73
     1
 44
1.0
1001
ACAD
1000
MTEXTBEGIN
1070
    73
1070
     1
1070
    44
1040
1.0
1070
    74
1070
     0
1000
MTEXTEND
  0
INSERT
  5
6AF8
330
6762
100
AcDbEntity
  8
実形
 62
     0
370
    18
100
AcDbBlockReference
  2
_DotSmall
 10
605.4221241276223
 20
1097.505532721014
 30
0.0
 41
35.0
 42
35.0
 43
35.0
  0
INSERT
  5
6AF9
330
6762
100
AcDbEntity
  8
実形
 62
     0
370
    18
100
AcDbBlockReference
  2
_DotSmall
 10
584.4221241276223
 20
1097.505532721014
 30
0.0
 41
35.0
 42
35.0
 43
35.0
 50
180.0
  0
POINT
  5
6AFA
330
6762
100
AcDbEntity
  8
Defpoints
 62
     0
100
AcDbPoint
 10
605.4221241276223
 20
1198.990206363452
 30
0.0
  0
POINT
  5
6AFB
330
6762
100
AcDbEntity
  8
Defpoints
 62
     0
100
AcDbPoint
 10
584.4221241276223
 20
1211.018505575438
 30
0.0
  0
POINT
  5
6AFC
330
6762
100
AcDbEntity
  8
Defpoints
 62
     0
100
AcDbPoint
 10
584.4221241276223
 20
1097.505532721014
 30
0.0
  0
ENDBLK
  5
676D
330
6762
100
AcDbEntity
  8
0
 62
     3
100
AcDbBlockEnd
  0
BLOCK
  5
6778
330
676E
100
AcDbEntity
  8
0
 62
     3
100
AcDbBlockBegin
  2
*D36
 70
     1
 10
0.0
 20
0.0
 30
0.0
  3
*D36
  1

  0
LINE
  5
6AFD
330
676E
100
AcDbEntity
  8
実形
 62
     0
370
    18
100
AcDbLine
 10
789.4221241276222
 20
1080.192356150399
 30
0.0
 11
789.4221241276222
 21
1004.167873460459
 31
0.0
  0
LINE
  5
6AFE
330
676E
100
AcDbEntity
  8
実形
 62
     0
370
    18
100
AcDbLine
 10
584.4221241276223
 20
1056.762019148226
 30
0.0
 11
584.4221241276223
 21
1004.167873460459
 31
0.0
  0
LINE
  5
6AFF
330
676E
100
AcDbEntity
  8
実形
 62
     0
370
    18
100
AcDbLine
 10
789.4221241276222
 20
1004.167873460459
 30
0.0
 11
584.4221241276223
 21
1004.167873460459
 31
0.0
  0
INSERT
  5
6B00
330
676E
100
AcDbEntity
  8
実形
 62
     0
370
    18
100
AcDbBlockReference
  2
_DotSmall
 10
789.4221241276222
 20
1004.167873460459
 30
0.0
 41
35.0
 42
35.0
 43
35.0
  0
INSERT
  5
6B01
330
676E
100
AcDbEntity
  8
実形
 62
     0
370
    18
100
AcDbBlockReference
  2
_DotSmall
 10
584.4221241276223
 20
1004.167873460459
 30
0.0
 41
35.0
 42
35.0
 43
35.0
 50
180.0
  0
MTEXT
  5
6B02
330
676E
100
AcDbEntity
  8
実形
 62
     0
100
AcDbMText
 10
686.9221241276222
 20
1022.917873460459
 30
0.0
 40
25.0
 41
0.0
 71
     5
 72
     1
  1
203
 73
     1
 44
1.0
1001
ACAD
1000
MTEXTBEGIN
1070
    73
1070
     1
1070
    44
1040
1.0
1070
    74
1070
     0
1000
MTEXTEND
  0
POINT
  5
6B03
330
676E
100
AcDbEntity
  8
Defpoints
 62
     0
100
AcDbPoint
 10
789.4221241276222
 20
1145.192356150399
 30
0.0
  0
POINT
  5
6B04
330
676E
100
AcDbEntity
  8
Defpoints
 62
     0
100
AcDbPoint
 10
584.4221241276223
 20
1121.762019148226
 30
0.0
  0
POINT
  5
6B05
330
676E
100
AcDbEntity
  8
Defpoints
 62
     0
100
AcDbPoint
 10
584.4221241276223
 20
1004.167873460459
 30
0.0
  0
ENDBLK
  5
6779
330
676E
100
AcDbEntity
  8
0
 62
     3
100
AcDbBlockEnd
  0
BLOCK
  5
69AC
330
69A2
100
AcDbEntity
  8
0
 62
     3
100
AcDbBlockBegin
  2
*D37
 70
     1
 10
0.0
 20
0.0
 30
0.0
  3
*D37
  1

  0
LINE
  5
6B06
330
69A2
100
AcDbEntity
  8
実形
 62
     0
370
    18
100
AcDbLine
 10
545.1402531549767
 20
1352.517091367211
 30
0.0
 11
493.223654619119
 21
1352.517091367212
 31
0.0
  0
LINE
  5
6B07
330
69A2
100
AcDbEntity
  8
実形
 62
     0
370
    18
100
AcDbLine
 10
545.1402531549767
 20
1512.517091367211
 30
0.0
 11
493.223654619119
 21
1512.517091367212
 31
0.0
  0
LINE
  5
6B08
330
69A2
100
AcDbEntity
  8
実形
 62
     0
370
    18
100
AcDbLine
 10
493.223654619119
 20
1362.517091367212
 30
0.0
 11
493.223654619119
 21
1502.517091367212
 31
0.0
  0
INSERT
  5
6B09
330
69A2
100
AcDbEntity
  8
実形
 62
     0
370
    18
100
AcDbBlockReference
  2
_Dot
 10
493.223654619119
 20
1352.517091367212
 30
0.0
 41
10.0
 42
10.0
 43
10.0
 50
270.0
  0
INSERT
  5
6B0A
330
69A2
100
AcDbEntity
  8
実形
 62
     0
370
    18
100
AcDbBlockReference
  2
_Dot
 10
493.223654619119
 20
1512.517091367212
 30
0.0
 41
10.0
 42
10.0
 43
10.0
 50
90.0
  0
MTEXT
  5
6B0B
330
69A2
100
AcDbEntity
  8
実形
 62
     0
100
AcDbMText
 10
474.1236546191188
 20
1432.517091367212
 30
0.0
 40
25.0
 41
0.0
 71
     5
 72
     1
  1
160
 11
0.0000000000000001
 21
1.0
 31
0.0
 73
     1
 44
1.0
1001
ACAD
1000
MTEXTBEGIN
1070
    73
1070
     1
1070
    44
1040
1.0
1070
    74
1070
     0
1000
MTEXTEND
  0
POINT
  5
6B0C
330
69A2
100
AcDbEntity
  8
Defpoints
 62
     0
100
AcDbPoint
 10
610.1402531549767
 20
1352.517091367211
 30
0.0
  0
POINT
  5
6B0D
330
69A2
100
AcDbEntity
  8
Defpoints
 62
     0
100
AcDbPoint
 10
610.1402531549767
 20
1512.517091367211
 30
0.0
  0
POINT
  5
6B0E
330
69A2
100
AcDbEntity
  8
Defpoints
 62
     0
100
AcDbPoint
 10
493.223654619119
 20
1512.517091367212
 30
0.0
  0
ENDBLK
  5
69AD
330
69A2
100
AcDbEntity
  8
0
 62
     3
100
AcDbBlockEnd
  0
BLOCK
  5
69B8
330
69AE
100
AcDbEntity
  8
0
 62
     3
100
AcDbBlockBegin
  2
*D38
 70
     1
 10
0.0
 20
0.0
 30
0.0
  3
*D38
  1

  0
LINE
  5
6B0F
330
69AE
100
AcDbEntity
  8
実形
 62
     0
370
    18
100
AcDbLine
 10
545.1402531549767
 20
1342.017091367212
 30
0.0
 11
421.9813578038421
 21
1342.017091367212
 31
0.0
  0
LINE
  5
6B10
330
69AE
100
AcDbEntity
  8
実形
 62
     0
370
    18
100
AcDbLine
 10
545.1402531549722
 20
1523.017091367211
 30
0.0
 11
421.9813578038422
 21
1523.017091367211
 31
0.0
  0
LINE
  5
6B11
330
69AE
100
AcDbEntity
  8
実形
 62
     0
370
    18
100
AcDbLine
 10
421.9813578038421
 20
1352.017091367212
 30
0.0
 11
421.9813578038422
 21
1513.017091367211
 31
0.0
  0
INSERT
  5
6B12
330
69AE
100
AcDbEntity
  8
実形
 62
     0
370
    18
100
AcDbBlockReference
  2
_Dot
 10
421.9813578038421
 20
1342.017091367212
 30
0.0
 41
10.0
 42
10.0
 43
10.0
 50
270.0
  0
INSERT
  5
6B13
330
69AE
100
AcDbEntity
  8
実形
 62
     0
370
    18
100
AcDbBlockReference
  2
_Dot
 10
421.9813578038422
 20
1523.017091367211
 30
0.0
 41
10.0
 42
10.0
 43
10.0
 50
90.0
  0
MTEXT
  5
6B14
330
69AE
100
AcDbEntity
  8
実形
 62
     0
100
AcDbMText
 10
402.881357803842
 20
1432.517091367211
 30
0.0
 40
25.0
 41
0.0
 71
     5
 72
     1
  1
181
 11
0.0000000000000001
 21
1.0
 31
0.0
 73
     1
 44
1.0
1001
ACAD
1000
MTEXTBEGIN
1070
    73
1070
     1
1070
    44
1040
1.0
1070
    74
1070
     0
1000
MTEXTEND
  0
POINT
  5
6B15
330
69AE
100
AcDbEntity
  8
Defpoints
 62
     0
100
AcDbPoint
 10
610.1402531549767
 20
1342.017091367212
 30
0.0
  0
POINT
  5
6B16
330
69AE
100
AcDbEntity
  8
Defpoints
 62
     0
100
AcDbPoint
 10
610.1402531549722
 20
1523.017091367211
 30
0.0
  0
POINT
  5
6B17
330
69AE
100
AcDbEntity
  8
Defpoints
 62
     0
100
AcDbPoint
 10
421.9813578038422
 20
1523.017091367211
 30
0.0
  0
ENDBLK
  5
69B9
330
69AE
100
AcDbEntity
  8
0
 62
     3
100
AcDbBlockEnd
  0
ENDSEC
  0
SECTION
  2
ENTITIES
  0
LINE
  5
9C
330
1F
100
AcDbEntity
  8
補助
100
AcDbLine
 10
109.0
 20
4.0
 30
0.0
 11
2784.0
 21
4.0
 31
0.0
  0
LINE
  5
A0
330
1F
100
AcDbEntity
  8
補助
100
AcDbLine
 10
2784.0
 20
2024.0
 30
0.0
 11
109.0
 21
2024.0
 31
0.0
  0
LINE
  5
A5
330
1F
100
AcDbEntity
  8
補助
100
AcDbLine
 10
2784.0
 20
4.0
 30
0.0
 11
2784.0
 21
2024.0
 31
0.0
  0
LINE
  5
AD
330
1F
100
AcDbEntity
  8
補助
100
AcDbLine
 10
2784.0
 20
4.0
 30
0.0
 11
2784.0
 21
69.0
 31
0.0
  0
TEXT
  5
8C9
330
1F
100
AcDbEntity
  8
0
100
AcDbText
 10
249.2632881086038
 20
83.52862940911927
 30
0.0
 40
30.0
  1
※実寸には製造上の誤差が多少生ずる場合があります。シンクの穴あけ加工は現物合わせにてお願いします。
100
AcDbText
  0
DIMENSION
  5
1677
330
1F
100
AcDbEntity
  8
寸法
100
AcDbDimension
  2
*D4
 10
1040.327439947139
 20
1059.147751339128
 30
0.0
 11
1350.327439947139
 21
1077.897751339129
 31
0.0
 70
    32
 71
     5
 42
620.0
  3
ISO-25
100
AcDbAlignedDimension
 13
1660.327439947139
 23
1172.517091367211
 33
0.0
 14
1040.327439947139
 24
1172.517091367211
 34
0.0
 50
0.000000000000007
100
AcDbRotatedDimension
1001
ACAD
1000
DSTYLE
1002
{
1070
   279
1070
     1
1002
}
  0
DIMENSION
  5
1678
330
1F
100
AcDbEntity
  8
寸法
100
AcDbDimension
  2
*D5
 10
1660.327439947139
 20
1059.147751339128
 30
0.0
 11
1628.078484448147
 21
1059.147751339128
 31
0.0
 70
   160
 71
     5
 42
20.0
  3
ISO-25
100
AcDbAlignedDimension
 13
1680.327439947139
 23
1172.517091367211
 33
0.0
 14
1660.327439947139
 24
1172.517091367211
 34
0.0
 50
0.000000000000007
100
AcDbRotatedDimension
1001
ACAD
1000
DSTYLE
1002
{
1070
   279
1070
     1
1002
}
  0
DIMENSION
  5
1679
330
1F
100
AcDbEntity
  8
寸法
100
AcDbDimension
  2
*D6
 10
1368.870710342712
 20
1652.517091367212
 30
0.0
 11
1368.870710342712
 21
1542.517091367211
 31
0.0
 70
   160
 71
     5
 42
220.0000000000007
  3
ISO-25
100
AcDbAlignedDimension
 13
1475.856991489458
 23
1432.517091367211
 33
0.0
 14
1640.327439947139
 24
1652.517091367211
 34
0.0
 50
90.0
100
AcDbRotatedDimension
  0
DIMENSION
  5
167B
330
1F
100
AcDbEntity
  8
寸法
100
AcDbDimension
  2
*D7
 10
1510.327439947139
 20
1309.196731626641
 30
0.0
 11
1585.327439947139
 21
1327.946731626641
 31
0.0
 70
    32
 71
     5
 42
150.0
  3
ISO-25
100
AcDbAlignedDimension
 13
1660.327439947139
 23
1317.51709136721
 33
0.0
 14
1510.327439947139
 24
1432.51709136721
 34
0.0
 50
180.0
100
AcDbRotatedDimension
1001
ACAD
1000
DSTYLE
1002
{
1070
   279
1070
     1
1070
    73
1070
     1
1070
    74
1070
     1
1002
}
  0
LINE
  5
167C
330
1F
100
AcDbEntity
  8
実形
100
AcDbLine
 10
1640.327439947139
 20
1652.517091367211
 30
0.0
 11
1060.327439947139
 21
1652.517091367211
 31
0.0
  0
LINE
  5
167D
330
1F
100
AcDbEntity
  8
実形
100
AcDbLine
 10
1640.327439947139
 20
1212.517091367211
 30
0.0
 11
1060.32743994714
 21
1212.517091367211
 31
0.0
  0
DIMENSION
  5
168D
330
1F
100
AcDbEntity
  8
寸法
100
AcDbDimension
  2
*D8
 10
1680.327439947139
 20
1310.860844241467
 30
0.0
 11
1735.327439947139
 21
1329.610844241467
 31
0.0
 70
    32
 71
     5
 42
109.9999999999997
  3
ISO-25
100
AcDbAlignedDimension
 13
1790.327439947139
 23
1433.074461011946
 33
0.0
 14
1680.327439947139
 24
1283.074461011947
 34
0.0
 50
180.0
100
AcDbRotatedDimension
1001
ACAD
1000
DSTYLE
1002
{
1070
    73
1070
     1
1070
    74
1070
     1
1002
}
  0
LINE
  5
1699
330
1F
100
AcDbEntity
  8
実形
100
AcDbLine
 10
1660.327439947139
 20
1632.517091367211
 30
0.0
 11
1660.327439947139
 21
1232.517091367211
 31
0.0
  0
DIMENSION
  5
169D
330
1F
100
AcDbEntity
  8
寸法
100
AcDbDimension
  2
*D9
 10
1680.327439947139
 20
1059.147751339128
 30
0.0
 11
1810.327439947139
 21
1077.897751339129
 31
0.0
 70
    33
 71
     5
 42
260.0
  3
ISO-25
100
AcDbAlignedDimension
 13
1940.327439947139
 23
1172.517091367211
 33
0.0
 14
1680.327439947139
 24
1172.517091367211
 34
0.0
  0
LINE
  5
16AB
330
1F
100
AcDbEntity
  8
実形
100
AcDbLine
 10
1920.327439947139
 20
1212.51709136721
 30
0.0
 11
1700.327439947139
 21
1212.517091367211
 31
0.0
  0
LINE
  5
16AD
330
1F
100
AcDbEntity
  8
実形
100
AcDbLine
 10
1940.327439947139
 20
1632.517091367212
 30
0.0
 11
1940.327439947139
 21
1232.51709136721
 31
0.0
  0
CIRCLE
  5
16B5
330
1F
100
AcDbEntity
  8
実形
100
AcDbCircle
 10
1790.327439947139
 20
1432.51709136721
 30
0.0
 40
47.0
  0
CIRCLE
  5
16B7
330
1F
100
AcDbEntity
  8
実形
100
AcDbCircle
 10
1790.327439947139
 20
1432.51709136721
 30
0.0
 40
57.5
  0
LINE
  5
16B9
330
1F
100
AcDbEntity
  8
実形
100
AcDbLine
 10
1660.327439947139
 20
1517.517091367211
 30
0.0
 11
1660.327439947139
 21
1297.517091367211
 31
0.0
  0
LINE
  5
16BB
330
1F
100
AcDbEntity
  8
実形
100
AcDbLine
 10
1680.327439947139
 20
1232.517091367211
 30
0.0
 11
1680.327439947139
 21
1632.517091367212
 31
0.0
  0
DIMENSION
  5
16CA
330
1F
100
AcDbEntity
  8
寸法
100
AcDbDimension
  2
*D10
 10
919.9799341825771
 20
1212.517091367211
 30
0.0
 11
901.2299341825769
 21
1432.517091367211
 31
0.0
 70
    32
 71
     5
 42
440.0
  3
ISO-25
100
AcDbAlignedDimension
 13
1041.224630054987
 23
1652.517091367211
 33
0.0
 14
1041.224630054987
 24
1212.517091367211
 34
0.0
 50
90.0
100
AcDbRotatedDimension
1001
ACAD
1000
DSTYLE
1002
{
1070
   279
1070
     1
1002
}
  0
LINE
  5
16CC
330
1F
100
AcDbEntity
  8
実形
100
AcDbLine
 10
1040.32743994714
 20
1232.517091367211
 30
0.0
 11
1040.327439947139
 21
1632.517091367211
 31
0.0
  0
CIRCLE
  5
16DA
330
1F
100
AcDbEntity
  8
実形
100
AcDbCircle
 10
1510.327439947139
 20
1432.51709136721
 30
0.0
 40
80.0
  0
CIRCLE
  5
16DB
330
1F
100
AcDbEntity
  8
実形
100
AcDbCircle
 10
1510.327439947139
 20
1432.51709136721
 30
0.0
 40
90.5
  0
LEADER
  5
16E2
330
1F
100
AcDbEntity
  8
寸法
100
AcDbLeader
  3
ISO-25
 76
     2
 10
1055.286365473428
 20
1634.819826947707
 30
0.0
 10
1103.433133599989
 20
1582.248772628747
 30
0.0
211
-1.0
221
0.0
231
0.0
1001
ACAD
1000
DSTYLE
1002
{
1070
    41
1040
25.0
1070
   147
1040
6.25
1070
    77
1070
     0
1002
}
  0
LINE
  5
1A22
330
1F
100
AcDbEntity
  8
センター
 48
0.5
100
AcDbLine
 10
1870.232908399503
 20
1432.51709136721
 30
0.0
 11
1738.582318865131
 21
1432.51709136721
 31
0.0
  0
LINE
  5
1A24
330
1F
100
AcDbEntity
  8
センター
 48
0.5
100
AcDbLine
 10
1790.327439947139
 20
1522.422559819576
 30
0.0
 11
1790.327439947139
 21
1352.611622914845
 31
0.0
  0
CIRCLE
  5
1A26
330
1F
100
AcDbEntity
  8
実形
100
AcDbCircle
 10
1810.327439947139
 20
1487.517091367211
 30
0.0
 40
0.0000000000002274
  0
LINE
  5
1A2B
330
1F
100
AcDbEntity
  8
センター
 48
0.75
100
AcDbLine
 10
1632.141421407363
 20
1432.51709136721
 30
0.0
 11
1388.513458486915
 21
1432.51709136721
 31
0.0
  0
LINE
  5
1A2C
330
1F
100
AcDbEntity
  8
センター
 48
0.75
100
AcDbLine
 10
1510.327439947139
 20
1554.331072827434
 30
0.0
 11
1510.327439947139
 21
1310.703109906987
 31
0.0
  0
ARC
  5
2936
330
1F
100
AcDbEntity
  8
実形
100
AcDbCircle
 10
1060.327439947139
 20
1632.517091367211
 30
0.0
 40
20.0
100
AcDbArc
 50
90.00000000000003
 51
180.0000000000001
  0
ARC
  5
2937
330
1F
100
AcDbEntity
  8
実形
100
AcDbCircle
 10
1640.327439947139
 20
1632.517091367211
 30
0.0
 40
20.0
100
AcDbArc
 50
0.000000000000007
 51
90.00000000000003
  0
ARC
  5
2938
330
1F
100
AcDbEntity
  8
実形
100
AcDbCircle
 10
1060.32743994714
 20
1232.517091367211
 30
0.0
 40
20.0
100
AcDbArc
 50
180.0000000000001
 51
270.0
  0
ARC
  5
2939
330
1F
100
AcDbEntity
  8
実形
100
AcDbCircle
 10
1640.327439947139
 20
1232.517091367211
 30
0.0
 40
20.0
100
AcDbArc
 50
270.0
 51
0.000000000000007
  0
ARC
  5
293A
330
1F
100
AcDbEntity
  8
実形
100
AcDbCircle
 10
1700.327439947139
 20
1232.517091367211
 30
0.0
 40
20.0
100
AcDbArc
 50
180.0
 51
270.0
  0
ARC
  5
293C
330
1F
100
AcDbEntity
  8
実形
100
AcDbCircle
 10
1920.327439947139
 20
1232.51709136721
 30
0.0
 40
20.0
100
AcDbArc
 50
270.0
 51
0.000000000000007
  0
LINE
  5
3422
330
1F
100
AcDbEntity
  8
センター
 48
0.6
100
AcDbLine
 10
2190.045047711712
 20
1432.517091367211
 30
0.0
 11
2287.823467503284
 21
1432.517091367211
 31
0.0
  0
LINE
  5
3425
330
1F
100
AcDbEntity
  8
実形
100
AcDbLine
 10
2253.854649934987
 20
1490.017091367211
 30
0.0
 11
2253.854649934987
 21
1375.017091367211
 31
0.0
  0
DIMENSION
  5
3819
330
1F
100
AcDbEntity
  8
実形
100
AcDbDimension
  2
*D12
 10
2330.060716463973
 20
1385.517091367211
 30
0.0
 11
2308.460716463973
 21
1432.517091367211
 31
0.0
 70
    32
 71
     5
 42
94.0
  3
ISO-25
100
AcDbAlignedDimension
 13
2222.060716463973
 23
1479.517091367211
 33
0.0
 14
2222.060716463974
 24
1385.517091367211
 34
0.0
 50
90.0
100
AcDbRotatedDimension
1001
ACAD
1000
DSTYLE
1002
{
1070
    41
1040
10.0
1070
   140
1040
30.0
1070
   147
1040
6.599999999999998
1070
   279
1070
     2
1070
   342
1005
2ED7
1070
   371
1070
    18
1070
   372
1070
    18
1002
}
  0
DIMENSION
  5
381A
330
1F
100
AcDbEntity
  8
実形
100
AcDbDimension
  2
*D13
 10
2380.767787382154
 20
1375.017091367211
 30
0.0
 11
2359.167787382153
 21
1432.517091367211
 31
0.0
 70
    32
 71
     5
 42
115.0
  3
ISO-25
100
AcDbAlignedDimension
 13
2221.524415820495
 23
1490.017091367211
 33
0.0
 14
2223.063000510301
 24
1375.017091367211
 34
0.0
 50
90.0
100
AcDbRotatedDimension
1001
ACAD
1000
DSTYLE
1002
{
1070
    41
1040
10.0
1070
   140
1040
30.0
1070
   147
1040
6.599999999999998
1070
   279
1070
     2
1070
   342
1005
2ED7
1070
   371
1070
    18
1070
   372
1070
    18
1002
}
  0
LEADER
  5
3A62
330
1F
100
AcDbEntity
  8
寸法
100
AcDbLeader
  3
ISO-25
 76
     2
 10
1061.570733593076
 20
1226.650679424787
 30
0.0
 10
1113.037170989288
 20
1278.10404172541
 30
0.0
211
-1.0
221
0.0
231
0.0
1001
ACAD
1000
DSTYLE
1002
{
1070
    41
1040
25.0
1070
   147
1040
6.25
1070
    77
1070
     0
1002
}
  0
LEADER
  5
3B00
330
1F
100
AcDbEntity
  8
寸法
100
AcDbLeader
  3
ISO-25
 76
     2
 10
1707.342541195627
 20
1221.068724341572
 30
0.0
 10
1758.808978591838
 20
1272.522086642195
 30
0.0
211
-1.0
221
0.0
231
0.0
1001
ACAD
1000
DSTYLE
1002
{
1070
    41
1040
25.0
1070
   147
1040
6.25
1070
    77
1070
     0
1002
}
  0
LEADER
  5
3B08
330
1F
100
AcDbEntity
  8
寸法
100
AcDbLeader
  3
ISO-25
 76
     2
 10
1921.218755873455
 20
1226.867597113103
 30
0.0
 10
1863.215263381853
 20
1272.522086642195
 30
0.0
211
-1.0
221
0.0
231
0.0
1001
ACAD
1000
DSTYLE
1002
{
1070
    41
1040
25.0
1070
   147
1040
6.25
1070
    77
1070
     0
1002
}
  0
LEADER
  5
3B11
330
1F
100
AcDbEntity
  8
寸法
100
AcDbLeader
  3
ISO-25
 76
     2
 10
1938.716124529574
 20
1652.12220244382
 30
0.0
 10
1956.219949184897
 20
1708.339910234774
 30
0.0
211
-1.0
221
0.0
231
0.0
1001
ACAD
1000
DSTYLE
1002
{
1070
    41
1040
25.0
1070
   147
1040
6.25
1070
    77
1070
     0
1002
}
  0
LEADER
  5
3B39
330
1F
100
AcDbEntity
  8
寸法
100
AcDbLeader
  3
ISO-25
 76
     2
 10
1633.395921535246
 20
1636.518071113101
 30
0.0
 10
1578.303944892261
 20
1590.532745098909
 30
0.0
211
-1.0
221
0.0
231
0.0
1001
ACAD
1000
DSTYLE
1002
{
1070
    41
1040
25.0
1070
   147
1040
6.25
1070
    77
1070
     0
1002
}
  0
LEADER
  5
44CA
330
1F
100
AcDbEntity
  8
寸法
100
AcDbLeader
  3
ISO-25
 76
     2
 10
1700.327439947139
 20
1639.81274866448
 30
0.0
 10
1734.952239427552
 20
1561.861915864729
 30
0.0
211
-1.0
221
0.0
231
0.0
1001
ACAD
1000
DSTYLE
1002
{
1070
    41
1040
25.0
1070
   147
1040
6.25
1070
    77
1070
     0
1002
}
  0
LEADER
  5
4506
330
1F
100
AcDbEntity
  8
寸法
100
AcDbLeader
  3
ISO-25
 76
     2
 10
1630.903366844353
 20
1228.865905694804
 30
0.0
 10
1549.001229239253
 20
1263.256065256998
 30
0.0
211
-1.0
221
0.0
231
0.0
1001
ACAD
1000
DSTYLE
1002
{
1070
    41
1040
25.0
1070
   147
1040
6.25
1070
    77
1070
     0
1002
}
  0
TEXT
  5
49EA
330
1F
100
AcDbEntity
  8
寸法
100
AcDbText
 10
1101.517446652447
 20
1535.558113606902
 30
0.0
 40
25.0
  1
20R
100
AcDbText
  0
TEXT
  5
49F3
330
1F
100
AcDbEntity
  8
寸法
100
AcDbText
 10
1115.331720498109
 20
1285.273233781293
 30
0.0
 40
25.0
  1
20R
100
AcDbText
  0
TEXT
  5
4A04
330
1F
100
AcDbEntity
  8
寸法
100
AcDbText
 10
1532.941928525858
 20
1540.961717052681
 30
0.0
 40
25.0
  1
20R
100
AcDbText
  0
TEXT
  5
4A39
330
1F
100
AcDbEntity
  8
寸法
100
AcDbText
 10
1783.554589537672
 20
1273.32493520058
 30
0.0
 40
25.0
  1
20R
100
AcDbText
  0
TEXT
  5
4AAE
330
1F
100
AcDbEntity
  8
寸法
100
AcDbText
 10
1709.776010561501
 20
1527.36993437667
 30
0.0
 40
25.0
  1
20R
100
AcDbText
  0
TEXT
  5
4AB7
330
1F
100
AcDbEntity
  8
寸法
100
AcDbText
 10
1922.173391308177
 20
1716.574635514113
 30
0.0
 40
25.0
  1
20R
100
AcDbText
  0
LINE
  5
5D49
330
1F
100
AcDbEntity
  8
実形
100
AcDbLine
 10
1955.327439947139
 20
1197.517091367211
 30
0.0
 11
1025.327439947139
 21
1197.517091367211
 31
0.0
  0
LINE
  5
5D4B
330
1F
100
AcDbEntity
  8
実形
100
AcDbLine
 10
1025.327439947139
 20
1197.517091367211
 30
0.0
 11
1025.327439947139
 21
1667.517091367211
 31
0.0
  0
LINE
  5
5D4C
330
1F
100
AcDbEntity
  8
実形
100
AcDbLine
 10
1955.327439947139
 20
1667.517091367211
 30
0.0
 11
1025.327439947139
 21
1667.517091367211
 31
0.0
  0
DIMENSION
  5
5E69
330
1F
100
AcDbEntity
  8
実形
100
AcDbDimension
  2
*D16
 10
919.9799341825773
 20
1652.517091367211
 30
0.0
 11
893.6365346771781
 21
1219.292156454092
 31
0.0
 70
   160
  1
15
 71
     5
 42
455.0
  3
ISO-25
100
AcDbAlignedDimension
 13
1042.84199423724
 23
1197.517091367211
 33
0.0
 14
1044.34630849441
 24
1652.517091367211
 34
0.0
 50
90.0
100
AcDbRotatedDimension
1001
ACAD
1000
DSTYLE
1002
{
1070
   279
1070
     2
1070
   289
1070
     0
1070
   371
1070
    18
1070
   372
1070
    18
1002
}
  0
LINE
  5
5EA5
330
1F
100
AcDbEntity
  8
実形
100
AcDbLine
 10
1955.327439947139
 20
1667.517091367211
 30
0.0
 11
1955.327439947139
 21
1197.51709136721
 31
0.0
  0
LINE
  5
5EA6
330
1F
100
AcDbEntity
  8
実形
100
AcDbLine
 10
1920.327439947139
 20
1652.517091367212
 30
0.0
 11
1700.327439947139
 21
1652.517091367212
 31
0.0
  0
ARC
  5
5EA7
330
1F
100
AcDbEntity
  8
実形
100
AcDbCircle
 10
1700.327439947139
 20
1632.517091367212
 30
0.0
 40
20.0
100
AcDbArc
 50
90.00000000000003
 51
180.0
  0
ARC
  5
5EA8
330
1F
100
AcDbEntity
  8
実形
100
AcDbCircle
 10
1920.327439947139
 20
1632.517091367212
 30
0.0
 40
20.0
100
AcDbArc
 50
0.0
 51
89.99999999999991
  0
DIMENSION
  5
5ECF
330
1F
100
AcDbEntity
  8
実形
100
AcDbDimension
  2
*D17
 10
1882.94389971863
 20
1432.51709136721
 30
0.0
 11
1864.19389971863
 21
1542.517091367211
 31
0.0
 70
    32
 71
     5
 42
220.0000000000007
  3
ISO-25
100
AcDbAlignedDimension
 13
1790.327439947139
 23
1652.517091367211
 33
0.0
 14
1790.327439947139
 24
1432.51709136721
 34
0.0
 50
90.0
100
AcDbRotatedDimension
1001
ACAD
1000
DSTYLE
1002
{
1070
   279
1070
     2
1070
   289
1070
     0
1070
   371
1070
    18
1070
   372
1070
    18
1002
}
  0
DIMENSION
  5
5F12
330
1F
100
AcDbEntity
  8
実形
100
AcDbDimension
  2
*D18
 10
1660.327439947139
 20
1059.147751339128
 30
0.0
 11
993.4521227761816
 21
1075.056139710103
 31
0.0
 70
   160
  1
15
 71
     5
 42
634.9999999999995
  3
ISO-25
100
AcDbAlignedDimension
 13
1025.327439947139
 23
1172.069398553753
 33
0.0
 14
1660.327439947139
 24
1133.374667841454
 34
0.0
100
AcDbRotatedDimension
1001
ACAD
1000
DSTYLE
1002
{
1070
   281
1070
     1
1070
    76
1070
     1
1070
    75
1070
     0
1070
   279
1070
     2
1070
   289
1070
     0
1070
   371
1070
    18
1070
   372
1070
    18
1002
}
  0
TEXT
  5
5F81
330
1F
100
AcDbEntity
  8
実形
370
    18
100
AcDbText
 10
1030.63761861786
 20
1054.783841931352
 30
0.0
 40
10.0
  1
●
 71
     2
100
AcDbText
  0
LINE
  5
5F83
330
1F
100
AcDbEntity
  8
実形
100
AcDbLine
 10
1040.327439947139
 20
1059.147751339128
 30
0.0
 11
1025.327439947139
 21
1059.147751339128
 31
0.0
  0
LINE
  5
5F85
330
1F
100
AcDbEntity
  8
実形
100
AcDbLine
 10
1940.327439947139
 20
1059.147751339128
 30
0.0
 11
1955.327439947138
 21
1059.147751339128
 31
0.0
  0
LINE
  5
5F86
330
1F
100
AcDbEntity
  8
実形
100
AcDbLine
 10
1955.327439947139
 20
1107.517091367211
 30
0.0
 11
1955.327439947139
 21
1059.147751339128
 31
0.0
  0
TEXT
  5
5F90
330
1F
100
AcDbEntity
  8
実形
370
    18
100
AcDbText
 10
1960.306847157762
 20
1054.152432025165
 30
0.0
 40
10.0
  1
●
 71
     2
100
AcDbText
  0
DIMENSION
  5
5F91
330
1F
100
AcDbEntity
  8
実形
100
AcDbDimension
  2
*D19
 10
1955.327439947139
 20
999.7719342123337
 30
0.0
 11
1490.327439947139
 21
1018.521934212333
 31
0.0
 70
    32
 71
     5
 42
929.9999999999993
  3
ISO-25
100
AcDbAlignedDimension
 13
1025.327439947139
 23
1120.071063737367
 33
0.0
 14
1955.327439947139
 24
1120.071063737367
 34
0.0
100
AcDbRotatedDimension
1001
ACAD
1000
DSTYLE
1002
{
1070
   279
1070
     2
1070
   289
1070
     0
1070
   371
1070
    18
1070
   372
1070
    18
1002
}
  0
TEXT
  5
5FDA
330
1F
100
AcDbEntity
  8
寸法
100
AcDbText
 10
1973.085092117316
 20
1063.402649374133
 30
0.0
 40
25.0
  1
15
100
AcDbText
  0
LINE
  5
5FDC
330
1F
100
AcDbEntity
  8
実形
100
AcDbLine
 10
2048.854649934987
 20
1197.51709136721
 30
0.0
 11
2048.854649934987
 21
1667.517091367211
 31
0.0
  0
LINE
  5
5FF1
330
1F
100
AcDbEntity
  8
実形
100
AcDbLine
 10
978.6432427744202
 20
1667.517091367211
 30
0.0
 11
920.1848514821303
 21
1667.517091367211
 31
0.0
  0
LINE
  5
5FF2
330
1F
100
AcDbEntity
  8
実形
100
AcDbLine
 10
919.9799341825773
 20
1652.517091367211
 30
0.0
 11
919.9799341825773
 21
1667.517091367211
 31
0.0
  0
TEXT
  5
5FFC
330
1F
100
AcDbEntity
  8
実形
370
    18
100
AcDbText
 10
924.9721729070079
 20
1662.439859697929
 30
0.0
 40
10.0
  1
●
 71
     2
100
AcDbText
  0
TEXT
  5
5FFD
330
1F
100
AcDbEntity
  8
寸法
100
AcDbText
 10
911.1240006233842
 20
1626.638274085888
 30
0.0
 40
25.0
  1
15
 50
90.0
100
AcDbText
  0
DIMENSION
  5
5FFF
330
1F
100
AcDbEntity
  8
実形
100
AcDbDimension
  2
*D20
 10
859.2206365706497
 20
1197.517091367211
 30
0.0
 11
840.4706365706497
 21
1432.517091367211
 31
0.0
 70
    32
 71
     5
 42
470.0000000000004
  3
ISO-25
100
AcDbAlignedDimension
 13
978.6432427744202
 23
1667.517091367211
 33
0.0
 14
977.8419942372401
 24
1197.517091367211
 34
0.0
 50
90.0
100
AcDbRotatedDimension
1001
ACAD
1000
DSTYLE
1002
{
1070
   279
1070
     2
1070
   289
1070
     0
1070
   371
1070
    18
1070
   372
1070
    18
1002
}
  0
LINE
  5
6080
330
1F
100
AcDbEntity
  8
実形
100
AcDbLine
 10
2048.854649934987
 20
1652.790508683589
 30
0.0
 11
2213.854649934987
 21
1652.790508683589
 31
0.0
  0
LINE
  5
6081
330
1F
100
AcDbEntity
  8
実形
100
AcDbLine
 10
2048.854649934987
 20
1212.51709136721
 30
0.0
 11
2213.854649934987
 21
1212.51709136721
 31
0.0
  0
LINE
  5
61AE
330
1F
100
AcDbEntity
  8
実形
100
AcDbLine
 10
1025.327439947139
 20
779.9421603690643
 30
0.0
 11
1955.327439947139
 21
779.9421603690644
 31
0.0
  0
LINE
  5
61B5
330
1F
100
AcDbEntity
  8
実形
100
AcDbLine
 10
1040.32743994714
 20
779.9421603690643
 30
0.0
 11
1040.32743994714
 21
615.3708500565105
 31
0.0
  0
LINE
  5
61B6
330
1F
100
AcDbEntity
  8
実形
100
AcDbLine
 10
1660.327439947139
 20
779.9421603690643
 30
0.0
 11
1660.327439947139
 21
604.9421603690643
 31
0.0
  0
LINE
  5
61B7
330
1F
100
AcDbEntity
  8
実形
100
AcDbLine
 10
1419.827439947139
 20
584.9421603690642
 30
0.0
 11
1640.327439947139
 21
584.9421603690643
 31
0.0
  0
LINE
  5
6233
330
1F
100
AcDbEntity
  8
センター
 48
0.5
100
AcDbLine
 10
1510.327439947139
 20
647.2804573451262
 30
0.0
 11
1510.327439947139
 21
532.4906908558761
 31
0.0
  0
LINE
  5
6234
330
1F
100
AcDbEntity
  8
実形
100
AcDbLine
 10
1600.827439947139
 20
574.9421603690644
 30
0.0
 11
1600.827439947139
 21
584.9421603690644
 31
0.0
  0
LINE
  5
6235
330
1F
100
AcDbEntity
  8
実形
100
AcDbLine
 10
1419.827439947139
 20
584.9421603690644
 30
0.0
 11
1419.827439947139
 21
574.9421603690644
 31
0.0
  0
LINE
  5
6236
330
1F
100
AcDbEntity
  8
実形
100
AcDbLine
 10
1600.827439947139
 20
574.9421603690644
 30
0.0
 11
1419.827439947139
 21
574.9421603690644
 31
0.0
  0
DIMENSION
  5
6237
330
1F
100
AcDbEntity
  8
実形
100
AcDbDimension
  2
*D21
 10
1590.327439947139
 20
460.6318884539888
 30
0.0
 11
1510.327439947139
 21
479.3818884539888
 31
0.0
 70
    32
 71
     5
 42
160.0
  3
ISO-25
100
AcDbAlignedDimension
 13
1430.327439947139
 23
584.9421603690644
 33
0.0
 14
1590.327439947139
 24
584.9421603690646
 34
0.0
100
AcDbRotatedDimension
1001
ACAD
1000
DSTYLE
1002
{
1070
   279
1070
     2
1070
   289
1070
     0
1070
   371
1070
    18
1070
   372
1070
    18
1002
}
  0
DIMENSION
  5
6238
330
1F
100
AcDbEntity
  8
実形
100
AcDbDimension
  2
*D22
 10
1600.827439947139
 20
420.2113100433081
 30
0.0
 11
1510.327439947139
 21
438.9613100433081
 31
0.0
 70
    32
 71
     5
 42
181.0
  3
ISO-25
100
AcDbAlignedDimension
 13
1419.827439947139
 23
584.9421603690644
 33
0.0
 14
1600.827439947139
 24
584.9421603690644
 34
0.0
100
AcDbRotatedDimension
1001
ACAD
1000
DSTYLE
1002
{
1070
   279
1070
     2
1070
   289
1070
     0
1070
   371
1070
    18
1070
   372
1070
    18
1002
}
  0
ARC
  5
6264
330
1F
100
AcDbEntity
  8
実形
100
AcDbCircle
 10
1640.327439947139
 20
604.9421603690643
 30
0.0
 40
20.0
100
AcDbArc
 50
270.0
 51
0.0
  0
DIMENSION
  5
6342
330
1F
100
AcDbEntity
  8
寸法
100
AcDbDimension
  2
*D23
 10
882.6950651245507
 20
584.9421603690643
 30
0.0
 11
863.9450651245507
 21
682.4421603690645
 31
0.0
 70
    32
 71
     5
 42
195.0
  3
ISO-25
100
AcDbAlignedDimension
 13
1040.327439947139
 23
779.9421603690643
 33
0.0
 14
1040.327439947139
 24
584.9421603690643
 34
0.0
 50
90.0
100
AcDbRotatedDimension
1001
ACAD
1000
DSTYLE
1002
{
1070
   371
1070
    18
1002
}
  0
DIMENSION
  5
6343
330
1F
100
AcDbEntity
  8
実形
100
AcDbDimension
  2
*D24
 10
927.6406165177542
 20
574.9421603690644
 30
0.0
 11
917.9820279114393
 21
555.5695039800394
 31
0.0
 70
   160
  1
8
 71
     5
 42
21.0
  3
ISO-25
100
AcDbAlignedDimension
 13
1029.125290160192
 23
595.9421603690643
 33
0.0
 14
1041.153589372178
 24
574.9421603690644
 34
0.0
 50
90.0
100
AcDbRotatedDimension
1001
ACAD
1000
DSTYLE
1002
{
1070
   279
1070
     2
1070
   172
1070
     0
1070
   175
1070
     1
1070
   371
1070
    18
1070
   372
1070
    18
1002
}
  0
LINE
  5
6344
330
1F
100
AcDbEntity
  8
実形
100
AcDbLine
 10
976.1535893721784
 20
574.9421603690644
 30
0.0
 11
927.640616517754
 21
574.9421603690644
 31
0.0
  0
LINE
  5
6345
330
1F
100
AcDbEntity
  8
実形
100
AcDbLine
 10
927.640616517754
 20
574.9421603690644
 30
0.0
 11
927.640616517754
 21
599.9421603690644
 31
0.0
  0
LINE
  5
6346
330
1F
100
AcDbEntity
  8
実形
100
AcDbLine
 10
927.640616517754
 20
595.9421603690642
 30
0.0
 11
975.3274399471392
 21
595.9421603690642
 31
0.0
  0
DIMENSION
  5
6347
330
1F
100
AcDbEntity
  8
実形
100
AcDbDimension
  2
*D25
 10
834.3029572571987
 20
574.9421603690644
 30
0.0
 11
815.5529572571985
 21
677.4421603690646
 31
0.0
 70
    32
  1
203
 71
     5
 42
205.0
  3
ISO-25
100
AcDbAlignedDimension
 13
975.3274399471393
 23
779.9421603690643
 33
0.0
 14
951.8971029449664
 24
574.9421603690644
 34
0.0
 50
90.0
100
AcDbRotatedDimension
1001
ACAD
1000
DSTYLE
1002
{
1070
   371
1070
    18
1070
   372
1070
    18
1002
}
  0
TEXT
  5
6348
330
1F
100
AcDbEntity
  8
寸法
100
AcDbText
 10
1115.199806914458
 20
669.0532960932355
 30
0.0
 40
25.0
  1
20R
100
AcDbText
  0
LEADER
  5
6349
330
1F
100
AcDbEntity
  8
0
100
AcDbLeader
  3
ISO-25
 40
25.0
 41
16.66666666666666
 76
     2
 10
1068.926293685753
 20
600.6310963763699
 30
0.0
 10
1138.83882012381
 20
660.8851977884206
 30
0.0
213
0.0
223
-12.5
233
0.0
1001
ACAD
1000
DSTYLE
1002
{
1070
    41
1040
25.0
1070
   147
1040
6.25
1070
    77
1070
     0
1070
    73
1070
     1
1070
    74
1070
     1
1070
   279
1070
     1
1070
   342
1005
DA
1002
}
  0
TEXT
  5
63BD
330
1F
100
AcDbEntity
  8
寸法
100
AcDbText
 10
930.0292294271494
 20
609.4866844977714
 30
0.0
 40
25.0
  1
11
 50
90.0
100
AcDbText
  0
TEXT
  5
63CF
330
1F
100
AcDbEntity
  8
実形
370
    18
100
AcDbText
 10
932.1681544993088
 20
580.1655063592598
 30
0.0
 40
10.0
  1
●
 71
     2
100
AcDbText
  0
LINE
  5
63D0
330
1F
100
AcDbEntity
  8
実形
100
AcDbLine
 10
1419.827439947139
 20
584.9421603690644
 30
0.0
 11
1059.7479731734
 21
595.3792463625061
 31
0.0
  0
ARC
  5
63D1
330
1F
100
AcDbEntity
  8
実形
100
AcDbCircle
 10
1060.32743994714
 20
615.3708500565105
 30
0.0
 40
20.0
100
AcDbArc
 50
180.0
 51
268.3397176310172
  0
TEXT
  5
63DC
330
1F
100
AcDbEntity
  8
寸法
100
AcDbText
 10
1500.844299400721
 20
667.4435066496612
 30
0.0
 40
25.0
  1
20R
100
AcDbText
  0
LEADER
  5
63DD
330
1F
100
AcDbEntity
  8
0
100
AcDbLeader
  3
ISO-25
 40
25.0
 41
16.66666666666666
 76
     2
 10
1638.436682981497
 20
600.2488855308956
 30
0.0
 10
1542.115469244938
 20
657.4250748321983
 30
0.0
213
0.0
223
-12.5
233
0.0
1001
ACAD
1000
DSTYLE
1002
{
1070
    41
1040
25.0
1070
   147
1040
6.25
1070
    77
1070
     0
1070
    73
1070
     1
1070
    74
1070
     1
1070
   279
1070
     1
1070
   342
1005
DA
1002
}
  0
LINE
  5
63DE
330
1F
100
AcDbEntity
  8
実形
100
AcDbLine
 10
1680.327439947139
 20
779.9421603690643
 30
0.0
 11
1680.327439947139
 21
604.9421603690644
 31
0.0
  0
LINE
  5
63DF
330
1F
100
AcDbEntity
  8
実形
100
AcDbLine
 10
1940.327439947139
 20
779.9421603690643
 30
0.0
 11
1940.327439947139
 21
611.278501900569
 31
0.0
  0
LINE
  5
6430
330
1F
100
AcDbEntity
  8
センター
 48
0.5
100
AcDbLine
 10
1790.327439947139
 20
652.2804573451264
 30
0.0
 11
1790.327439947139
 21
522.2509868573417
 31
0.0
  0
DIMENSION
  5
6433
330
1F
100
AcDbEntity
  8
実形
100
AcDbDimension
  2
*D26
 10
1847.827439947139
 20
415.2113100433081
 30
0.0
 11
1790.327439947139
 21
433.9613100433081
 31
0.0
 70
    32
 71
     5
 42
115.0
  3
ISO-25
100
AcDbAlignedDimension
 13
1732.827439947139
 23
584.9421603690644
 33
0.0
 14
1847.827439947139
 24
584.9421603690644
 34
0.0
100
AcDbRotatedDimension
1001
ACAD
1000
DSTYLE
1002
{
1070
   279
1070
     2
1070
   289
1070
     0
1070
   371
1070
    18
1070
   372
1070
    18
1002
}
  0
LINE
  5
6434
330
1F
100
AcDbEntity
  8
実形
100
AcDbLine
 10
1847.827439947139
 20
574.9421603690644
 30
0.0
 11
1732.827439947139
 21
574.9421603690644
 31
0.0
  0
DIMENSION
  5
6435
330
1F
100
AcDbEntity
  8
実形
100
AcDbDimension
  2
*D27
 10
1837.327439947139
 20
455.6318884539888
 30
0.0
 11
1790.327439947139
 21
474.3818884539888
 31
0.0
 70
    32
 71
     5
 42
94.0
  3
ISO-25
100
AcDbAlignedDimension
 13
1743.327439947139
 23
584.9421603690644
 33
0.0
 14
1837.327439947139
 24
584.9421603690644
 34
0.0
100
AcDbRotatedDimension
1001
ACAD
1000
DSTYLE
1002
{
1070
   279
1070
     2
1070
   289
1070
     0
1070
   371
1070
    18
1070
   372
1070
    18
1002
}
  0
LINE
  5
6463
330
1F
100
AcDbEntity
  8
実形
100
AcDbLine
 10
1848.327439947139
 20
584.9421603690644
 30
0.0
 11
1922.060032274436
 21
591.3536901366553
 31
0.0
  0
ARC
  5
6464
330
1F
100
AcDbEntity
  8
実形
100
AcDbCircle
 10
1920.327439947139
 20
611.278501900569
 30
0.0
 40
20.0
100
AcDbArc
 50
274.9697407281102
 51
0.0
  0
LINE
  5
6465
330
1F
100
AcDbEntity
  8
実形
100
AcDbLine
 10
1848.327439947139
 20
584.9421603690644
 30
0.0
 11
1700.327439947139
 21
584.9421603690644
 31
0.0
  0
ARC
  5
6466
330
1F
100
AcDbEntity
  8
実形
100
AcDbCircle
 10
1700.327439947139
 20
604.9421603690644
 30
0.0
 40
20.0
100
AcDbArc
 50
180.0
 51
270.0
  0
DIMENSION
  5
6468
330
1F
100
AcDbEntity
  8
寸法
100
AcDbDimension
  2
*D28
 10
2089.271537838618
 20
584.9421603690643
 30
0.0
 11
2070.521537838617
 21
682.4421603690646
 31
0.0
 70
    32
 71
     5
 42
195.0
  3
ISO-25
100
AcDbAlignedDimension
 13
1931.639163016029
 23
779.9421603690643
 33
0.0
 14
1931.639163016029
 24
584.9421603690643
 34
0.0
 50
90.0
100
AcDbRotatedDimension
1001
ACAD
1000
DSTYLE
1002
{
1070
   371
1070
    18
1002
}
  0
DIMENSION
  5
6469
330
1F
100
AcDbEntity
  8
実形
100
AcDbDimension
  2
*D29
 10
2044.325986445414
 20
574.9421603690644
 30
0.0
 11
2021.787495412086
 21
552.2891406642783
 31
0.0
 70
   160
  1
8
 71
     5
 42
21.0
  3
ISO-25
100
AcDbAlignedDimension
 13
1942.841312802976
 23
595.9421603690643
 33
0.0
 14
1930.813013590989
 24
574.9421603690644
 34
0.0
 50
90.0
100
AcDbRotatedDimension
1001
ACAD
1000
DSTYLE
1002
{
1070
   279
1070
     2
1070
   172
1070
     0
1070
   175
1070
     1
1070
   371
1070
    18
1070
   372
1070
    18
1002
}
  0
LINE
  5
646A
330
1F
100
AcDbEntity
  8
実形
100
AcDbLine
 10
1995.813013590989
 20
574.9421603690644
 30
0.0
 11
2044.325986445414
 21
574.9421603690644
 31
0.0
  0
LINE
  5
646B
330
1F
100
AcDbEntity
  8
実形
100
AcDbLine
 10
2044.325986445414
 20
574.9421603690644
 30
0.0
 11
2044.325986445414
 21
599.9421603690644
 31
0.0
  0
LINE
  5
646C
330
1F
100
AcDbEntity
  8
実形
100
AcDbLine
 10
2044.325986445414
 20
595.9421603690642
 30
0.0
 11
1996.639163016029
 21
595.9421603690642
 31
0.0
  0
DIMENSION
  5
646D
330
1F
100
AcDbEntity
  8
実形
100
AcDbDimension
  2
*D30
 10
2137.66364570597
 20
574.9421603690644
 30
0.0
 11
2118.91364570597
 21
677.4421603690647
 31
0.0
 70
    32
  1
203
 71
     5
 42
205.0
  3
ISO-25
100
AcDbAlignedDimension
 13
1996.639163016029
 23
779.9421603690643
 33
0.0
 14
2020.069500018202
 24
574.9421603690644
 34
0.0
 50
90.0
100
AcDbRotatedDimension
1001
ACAD
1000
DSTYLE
1002
{
1070
   371
1070
    18
1070
   372
1070
    18
1002
}
  0
TEXT
  5
6470
330
1F
100
AcDbEntity
  8
実形
370
    18
100
AcDbText
 10
2039.798448463859
 20
580.1655063592598
 30
0.0
 40
10.0
  1
●
100
AcDbText
  0
TEXT
  5
64B8
330
1F
100
AcDbEntity
  8
寸法
100
AcDbText
 10
2028.669542034458
 20
606.4714848989142
 30
0.0
 40
25.0
  1
6
 50
90.0
100
AcDbText
  0
TEXT
  5
64CB
330
1F
100
AcDbEntity
  8
寸法
100
AcDbText
 10
1776.488670858624
 20
688.5442965072029
 30
0.0
 40
25.0
  1
20R
100
AcDbText
  0
LEADER
  5
64CC
330
1F
100
AcDbEntity
  8
0
100
AcDbLeader
  3
ISO-25
 40
25.0
 41
16.66666666666666
 76
     2
 10
1914.081054439401
 20
621.3496753884373
 30
0.0
 10
1817.759840702842
 20
678.52586468974
 30
0.0
213
0.0
223
-12.5
233
0.0
1001
ACAD
1000
DSTYLE
1002
{
1070
    41
1040
25.0
1070
   147
1040
6.25
1070
    77
1070
     0
1070
    73
1070
     1
1070
    74
1070
     1
1070
   279
1070
     1
1070
   342
1005
DA
1002
}
  0
LEADER
  5
64D5
330
1F
100
AcDbEntity
  8
0
100
AcDbLeader
  3
ISO-25
 40
25.0
 41
16.66666666666666
 76
     2
 10
1706.602002997045
 20
604.5811394687907
 30
0.0
 10
1776.488672543477
 20
678.52586468974
 30
0.0
213
0.0
223
-12.5
233
0.0
1001
ACAD
1000
DSTYLE
1002
{
1070
    41
1040
25.0
1070
   147
1040
6.25
1070
    77
1070
     0
1070
    73
1070
     1
1070
    74
1070
     1
1070
   279
1070
     1
1070
   342
1005
DA
1002
}
  0
LINE
  5
653E
330
1F
100
AcDbEntity
  8
実形
100
AcDbLine
 10
2243.854649934987
 20
1232.51709136721
 30
0.0
 11
2243.854649934986
 21
1632.790508683589
 31
0.0
  0
LINE
  5
653F
330
1F
100
AcDbEntity
  8
実形
100
AcDbLine
 10
2253.854649934988
 20
1375.017091367211
 30
0.0
 11
2253.854649934986
 21
1490.017091367211
 31
0.0
  0
LINE
  5
6597
330
1F
100
AcDbEntity
  8
実形
  6
ACAD_ISO08W100
100
AcDbLine
 10
2233.854649934987
 20
1232.51709136721
 30
0.0
 11
2233.854649934987
 21
1632.790508683589
 31
0.0
  0
ARC
  5
6598
330
1F
100
AcDbEntity
  8
実形
100
AcDbCircle
 10
2213.854649934987
 20
1632.790508683589
 30
0.0
 40
20.0
100
AcDbArc
 50
0.0
 51
90.0
  0
LINE
  5
6599
330
1F
100
AcDbEntity
  8
実形
100
AcDbLine
 10
2213.854649934987
 20
1652.790508683589
 30
0.0
 11
2223.854649934986
 21
1652.790508683589
 31
0.0
  0
ARC
  5
659A
330
1F
100
AcDbEntity
  8
実形
100
AcDbCircle
 10
2223.854649934986
 20
1632.790508683589
 30
0.0
 40
20.0
100
AcDbArc
 50
0.0
 51
90.0000000000004
  0
LEADER
  5
65A4
330
1F
100
AcDbEntity
  8
寸法
100
AcDbLeader
  3
ISO-25
 76
     2
 10
2221.845301970519
 20
1224.621764872132
 30
0.0
 10
2182.594444693582
 20
1262.308266897456
 30
0.0
211
-1.0
221
0.0
231
0.0
1001
ACAD
1000
DSTYLE
1002
{
1070
    41
1040
25.0
1070
   147
1040
6.25
1070
    77
1070
     0
1002
}
  0
TEXT
  5
65A5
330
1F
100
AcDbEntity
  8
寸法
100
AcDbText
 10
2145.998403628125
 20
1270.883281248436
 30
0.0
 40
25.0
  1
20R
100
AcDbText
  0
ARC
  5
65A6
330
1F
100
AcDbEntity
  8
実形
100
AcDbCircle
 10
2213.854649934987
 20
1232.51709136721
 30
0.0
 40
20.0
100
AcDbArc
 50
270.0
 51
0.0
  0
LINE
  5
65A7
330
1F
100
AcDbEntity
  8
実形
100
AcDbLine
 10
2213.854649934987
 20
1212.51709136721
 30
0.0
 11
2223.854649934987
 21
1212.51709136721
 31
0.0
  0
ARC
  5
65A8
330
1F
100
AcDbEntity
  8
実形
100
AcDbCircle
 10
2223.854649934987
 20
1232.51709136721
 30
0.0
 40
20.0
100
AcDbArc
 50
270.0
 51
0.0000000000000509
  0
DIMENSION
  5
66A8
330
1F
100
AcDbEntity
  8
寸法
100
AcDbDimension
  2
*D31
 10
2243.854649934987
 20
1052.559981327811
 30
0.0
 11
2146.354649934987
 21
1071.309981327811
 31
0.0
 70
    32
 71
     5
 42
195.0
  3
ISO-25
100
AcDbAlignedDimension
 13
2048.854649934987
 23
1210.192356150399
 33
0.0
 14
2243.854649934987
 24
1210.192356150399
 34
0.0
 50
180.0
100
AcDbRotatedDimension
1001
ACAD
1000
DSTYLE
1002
{
1070
   371
1070
    18
1002
}
  0
DIMENSION
  5
66A9
330
1F
100
AcDbEntity
  8
実形
100
AcDbDimension
  2
*D32
 10
2253.854649934987
 20
1097.505532721014
 30
0.0
 11
2273.227306324012
 21
1121.67624125857
 31
0.0
 70
   160
  1
8
 71
     5
 42
21.0
  3
ISO-25
100
AcDbAlignedDimension
 13
2232.854649934987
 23
1198.990206363452
 33
0.0
 14
2253.854649934987
 24
1211.018505575438
 34
0.0
 50
180.0
100
AcDbRotatedDimension
1001
ACAD
1000
DSTYLE
1002
{
1070
   279
1070
     2
1070
   172
1070
     0
1070
   175
1070
     1
1070
   371
1070
    18
1070
   372
1070
    18
1002
}
  0
LINE
  5
66AA
330
1F
100
AcDbEntity
  8
実形
100
AcDbLine
 10
2253.854649934987
 20
1146.018505575439
 30
0.0
 11
2253.854649934987
 21
1097.505532721014
 31
0.0
  0
LINE
  5
66AB
330
1F
100
AcDbEntity
  8
実形
100
AcDbLine
 10
2253.854649934987
 20
1097.505532721014
 30
0.0
 11
2228.854649934987
 21
1097.505532721014
 31
0.0
  0
LINE
  5
66AC
330
1F
100
AcDbEntity
  8
実形
100
AcDbLine
 10
2232.854649934987
 20
1097.505532721014
 30
0.0
 11
2232.854649934987
 21
1145.192356150399
 31
0.0
  0
DIMENSION
  5
66AD
330
1F
100
AcDbEntity
  8
実形
100
AcDbDimension
  2
*D33
 10
2253.854649934987
 20
1004.167873460459
 30
0.0
 11
2151.354649934987
 21
1022.917873460459
 31
0.0
 70
    32
  1
203
 71
     5
 42
205.0
  3
ISO-25
100
AcDbAlignedDimension
 13
2048.854649934987
 23
1145.192356150399
 33
0.0
 14
2253.854649934987
 24
1121.762019148226
 34
0.0
 50
180.0
100
AcDbRotatedDimension
1001
ACAD
1000
DSTYLE
1002
{
1070
   371
1070
    18
1070
   372
1070
    18
1002
}
  0
TEXT
  5
66AF
330
1F
100
AcDbEntity
  8
実形
370
    18
100
AcDbText
 10
2248.631303944792
 20
1102.033070702569
 30
0.0
 40
10.0
  1
●
 50
90.0
 71
     2
100
AcDbText
  0
TEXT
  5
672D
330
1F
100
AcDbEntity
  8
寸法
100
AcDbText
 10
2203.309489762
 20
1109.059645804215
 30
0.0
 40
25.0
  1
6
100
AcDbText
  0
LINE
  5
6739
330
1F
100
AcDbEntity
  8
センター
 48
0.6
100
AcDbLine
 10
648.2317263508971
 20
1432.517091367211
 30
0.0
 11
550.4533065593254
 21
1432.517091367211
 31
0.0
  0
LINE
  5
673A
330
1F
100
AcDbEntity
  8
実形
100
AcDbLine
 10
584.4221241276223
 20
1490.517091367211
 30
0.0
 11
584.4221241276223
 21
1374.517091367211
 31
0.0
  0
LINE
  5
673F
330
1F
100
AcDbEntity
  8
実形
100
AcDbLine
 10
789.4221241276222
 20
1197.51709136721
 30
0.0
 11
789.4221241276225
 21
1667.517091367211
 31
0.0
  0
LINE
  5
6740
330
1F
100
AcDbEntity
  8
実形
100
AcDbLine
 10
594.4221241276218
 20
1232.51709136721
 30
0.0
 11
594.4221241276227
 21
1632.790508683589
 31
0.0
  0
ARC
  5
6741
330
1F
100
AcDbEntity
  8
実形
100
AcDbCircle
 10
614.4221241276218
 20
1232.51709136721
 30
0.0
 40
20.0
100
AcDbArc
 50
179.9999999999999
 51
270.0
  0
LINE
  5
6742
330
1F
100
AcDbEntity
  8
実形
  6
ACAD_ISO08W100
100
AcDbLine
 10
604.4221241276223
 20
1232.51709136721
 30
0.0
 11
604.4221241276223
 21
1632.790508683589
 31
0.0
  0
ARC
  5
6743
330
1F
100
AcDbEntity
  8
実形
100
AcDbCircle
 10
624.4221241276222
 20
1232.51709136721
 30
0.0
 40
20.0
100
AcDbArc
 50
180.0
 51
270.0
  0
ARC
  5
6744
330
1F
100
AcDbEntity
  8
実形
100
AcDbCircle
 10
624.4221241276222
 20
1632.790508683589
 30
0.0
 40
20.0
100
AcDbArc
 50
90.0
 51
180.0
  0
LINE
  5
6745
330
1F
100
AcDbEntity
  8
実形
100
AcDbLine
 10
584.4221241276218
 20
1374.517091367211
 30
0.0
 11
584.4221241276223
 21
1490.517091367211
 31
0.0
  0
LINE
  5
6747
330
1F
100
AcDbEntity
  8
実形
100
AcDbLine
 10
789.4221241276222
 20
1652.790508683589
 30
0.0
 11
624.4221241276222
 21
1652.790508683589
 31
0.0
  0
LINE
  5
6748
330
1F
100
AcDbEntity
  8
実形
100
AcDbLine
 10
789.4221241276222
 20
1212.51709136721
 30
0.0
 11
624.4221241276222
 21
1212.51709136721
 31
0.0
  0
LINE
  5
6749
330
1F
100
AcDbEntity
  8
実形
100
AcDbLine
 10
624.4221241276222
 20
1652.790508683589
 30
0.0
 11
614.422124127623
 21
1652.790508683589
 31
0.0
  0
ARC
  5
674A
330
1F
100
AcDbEntity
  8
実形
100
AcDbCircle
 10
614.4221241276227
 20
1632.790508683589
 30
0.0
 40
20.0
100
AcDbArc
 50
89.99999999999962
 51
180.0
  0
LEADER
  5
674B
330
1F
100
AcDbEntity
  8
寸法
100
AcDbLeader
  3
ISO-25
 76
     2
 10
616.4314720920897
 20
1224.621764872132
 30
0.0
 10
655.6823293690272
 20
1262.308266897456
 30
0.0
1001
ACAD
1000
DSTYLE
1002
{
1070
    41
1040
25.0
1070
   147
1040
6.25
1070
    77
1070
     0
1002
}
  0
LINE
  5
674D
330
1F
100
AcDbEntity
  8
実形
100
AcDbLine
 10
624.4221241276222
 20
1212.51709136721
 30
0.0
 11
614.4221241276218
 21
1212.51709136721
 31
0.0
  0
DIMENSION
  5
674E
330
1F
100
AcDbEntity
  8
寸法
100
AcDbDimension
  2
*D34
 10
594.4221241276222
 20
1052.559981327811
 30
0.0
 11
691.9221241276223
 21
1071.309981327811
 31
0.0
 70
    32
 71
     5
 42
195.0
  3
ISO-25
100
AcDbAlignedDimension
 13
789.4221241276222
 23
1210.192356150399
 33
0.0
 14
594.4221241276222
 24
1210.192356150399
 34
0.0
 50
0.000000000000007
100
AcDbRotatedDimension
1001
ACAD
1000
DSTYLE
1002
{
1070
   371
1070
    18
1002
}
  0
DIMENSION
  5
674F
330
1F
100
AcDbEntity
  8
実形
100
AcDbDimension
  2
*D35
 10
584.4221241276223
 20
1097.505532721014
 30
0.0
 11
565.0494677385973
 21
1121.67624125857
 31
0.0
 70
   160
  1
8
 71
     5
 42
21.0
  3
ISO-25
100
AcDbAlignedDimension
 13
605.4221241276223
 23
1198.990206363452
 33
0.0
 14
584.4221241276223
 24
1211.018505575438
 34
0.0
 50
0.000000000000007
100
AcDbRotatedDimension
1001
ACAD
1000
DSTYLE
1002
{
1070
   279
1070
     2
1070
   172
1070
     0
1070
   175
1070
     1
1070
   371
1070
    18
1070
   372
1070
    18
1002
}
  0
LINE
  5
6750
330
1F
100
AcDbEntity
  8
実形
100
AcDbLine
 10
584.4221241276223
 20
1146.018505575439
 30
0.0
 11
584.4221241276223
 21
1097.505532721014
 31
0.0
  0
LINE
  5
6751
330
1F
100
AcDbEntity
  8
実形
100
AcDbLine
 10
584.4221241276223
 20
1097.505532721014
 30
0.0
 11
609.4221241276223
 21
1097.505532721014
 31
0.0
  0
LINE
  5
6752
330
1F
100
AcDbEntity
  8
実形
100
AcDbLine
 10
605.4221241276223
 20
1097.505532721014
 30
0.0
 11
605.4221241276223
 21
1145.192356150399
 31
0.0
  0
DIMENSION
  5
6753
330
1F
100
AcDbEntity
  8
実形
100
AcDbDimension
  2
*D36
 10
584.4221241276223
 20
1004.167873460459
 30
0.0
 11
686.9221241276222
 21
1022.917873460459
 31
0.0
 70
    32
  1
203
 71
     5
 42
205.0
  3
ISO-25
100
AcDbAlignedDimension
 13
789.4221241276222
 23
1145.192356150399
 33
0.0
 14
584.4221241276223
 24
1121.762019148226
 34
0.0
 50
0.000000000000007
100
AcDbRotatedDimension
1001
ACAD
1000
DSTYLE
1002
{
1070
   371
1070
    18
1070
   372
1070
    18
1002
}
  0
TEXT
  5
6754
330
1F
100
AcDbEntity
  8
実形
370
    18
100
AcDbText
 10
589.6454701178177
 20
1102.033070702569
 30
0.0
 40
10.0
  1
●
 50
270.0
100
AcDbText
  0
TEXT
  5
67C6
330
1F
100
AcDbEntity
  8
寸法
100
AcDbText
 10
621.4718756517632
 20
1111.615042270632
 30
0.0
 40
25.0
  1
11
100
AcDbText
  0
TEXT
  5
67CF
330
1F
100
AcDbEntity
  8
寸法
100
AcDbText
 10
2148.320152492833
 20
1535.464440137631
 30
0.0
 40
25.0
  1
20R
100
AcDbText
  0
LEADER
  5
67D9
330
1F
100
AcDbEntity
  8
寸法
100
AcDbLeader
  3
ISO-25
 76
     2
 10
2221.465527734235
 20
1635.908796496101
 30
0.0
 10
2176.328281530378
 20
1569.871079833911
 30
0.0
211
-1.0
221
0.0
231
0.0
1001
ACAD
1000
DSTYLE
1002
{
1070
    41
1040
25.0
1070
   147
1040
6.25
1070
    77
1070
     0
1002
}
  0
LINE
  5
6814
330
1F
100
AcDbEntity
  8
補助
100
AcDbLine
 10
2064.0
 20
134.0
 30
0.0
 11
2784.0
 21
134.0
 31
0.0
  0
LINE
  5
6815
330
1F
100
AcDbEntity
  8
補助
100
AcDbLine
 10
2064.0
 20
199.0
 30
0.0
 11
2784.0
 21
199.0
 31
0.0
  0
LINE
  5
6816
330
1F
100
AcDbEntity
  8
補助
100
AcDbLine
 10
2064.0
 20
69.0
 30
0.0
 11
2784.0
 21
69.0
 31
0.0
  0
TEXT
  5
6817
330
1F
100
AcDbEntity
  8
補助
100
AcDbText
 10
2086.666666666667
 20
149.0
 30
0.0
 40
35.0
  1
品番
 72
     4
 11
2124.0
 21
166.5
 31
0.0
100
AcDbText
  0
TEXT
  5
6818
330
1F
100
AcDbEntity
  8
補助
100
AcDbText
 10
2086.666666666667
 20
84.0
 30
0.0
 40
35.0
  1
尺度
 72
     4
 11
2124.0
 21
101.5
 31
0.0
100
AcDbText
  0
LINE
  5
6819
330
1F
100
AcDbEntity
  8
補助
100
AcDbLine
 10
2064.0
 20
4.0
 30
0.0
 11
2064.0
 21
199.0
 31
0.0
  0
TEXT
  5
681A
330
1F
100
AcDbEntity
  8
0
100
AcDbText
 10
2253.583333333334
 20
149.0
 30
0.0
 40
35.0
  1
TBK260-620-440
 72
     4
 11
2484.0
 21
166.5
 31
0.0
100
AcDbText
  0
LINE
  5
681B
330
1F
100
AcDbEntity
  8
補助
100
AcDbLine
 10
2184.0
 20
69.0
 30
0.0
 11
2784.0
 21
69.0
 31
0.0
  0
TEXT
  5
681C
330
1F
100
AcDbEntity
  8
補助
100
AcDbText
 10
2300.255774665348
 20
16.49999999999999
 30
0.0
 40
40.0
  1
中外交易株式会社
 72
     4
 11
2488.255774665347
 21
36.5
 31
0.0
100
AcDbText
  0
LINE
  5
681D
330
1F
100
AcDbEntity
  8
補助
100
AcDbLine
 10
2184.0
 20
69.0
 30
0.0
 11
2184.0
 21
199.0
 31
0.0
  0
HATCH
  5
681E
330
1F
100
AcDbEntity
  8
補助
100
AcDbHatch
 10
0.0
 20
0.0
 30
0.0
210
0.0
220
0.0
230
1.0
  2
SOLID
 70
     1
 71
     0
 91
        3
 92
        1
 93
        4
 72
     2
 10
2257.166198313996
 20
36.5
 40
20.0
 50
11.64772366707341
 51
342.6561058784909
 73
     1
 72
     1
 10
2276.256852341323
 20
30.53787547858514
 11
2252.166198313995
 21
30.53787547858519
 72
     1
 10
2252.166198313995
 20
30.53787547858519
 11
2252.166198313995
 21
40.53787547858519
 72
     1
 10
2252.166198313995
 20
40.53787547858519
 11
2276.75434681301
 21
40.53787547858519
 97
        0
 92
        1
 93
        4
 72
     2
 10
2188.255774665348
 20
36.5
 40
20.0
 50
11.64772366707341
 51
342.6561058784909
 73
     1
 72
     1
 10
2207.346428692676
 20
30.53787547858514
 11
2183.255774665347
 21
30.53787547858519
 72
     1
 10
2183.255774665347
 20
30.53787547858519
 11
2183.255774665347
 21
40.53787547858519
 72
     1
 10
2183.255774665347
 20
40.53787547858519
 11
2207.843923164362
 21
40.53787547858519
 97
        0
 92
        1
 93
        5
 72
     1
 10
2245.64189404294
 20
56.5
 11
2210.641894042939
 21
56.5
 72
     1
 10
2210.641894042939
 20
56.5
 11
2210.641894042939
 21
16.5
 72
     1
 10
2210.641894042939
 20
16.5
 11
2245.64189404294
 21
16.5
 72
     1
 10
2245.64189404294
 20
16.5
 11
2210.641894042939
 21
36.5
 72
     1
 10
2210.641894042939
 20
36.5
 11
2245.64189404294
 21
56.5
 97
        0
 75
     0
 76
     1
 98
        1
 10
-60.0
 20
0.0
  0
ARC
  5
681F
330
1F
100
AcDbEntity
  8
補助
370
     5
100
AcDbCircle
 10
2257.166198313996
 20
36.5
 30
0.0
 40
20.0
100
AcDbArc
 50
11.64772366707296
 51
342.6561058784924
  0
ARC
  5
6820
330
1F
100
AcDbEntity
  8
補助
370
     5
100
AcDbCircle
 10
2188.255774665348
 20
36.5
 30
0.0
 40
20.0
100
AcDbArc
 50
11.64772366707296
 51
342.6561058784924
  0
LINE
  5
6821
330
1F
100
AcDbEntity
  8
補助
370
     5
100
AcDbLine
 10
2252.166198313995
 20
30.53787547858519
 30
0.0
 11
2276.256852341323
 21
30.53787547858514
 31
0.0
  0
LINE
  5
6822
330
1F
100
AcDbEntity
  8
補助
370
     5
100
AcDbLine
 10
2252.166198313995
 20
40.53787547858519
 30
0.0
 11
2252.166198313995
 21
30.53787547858519
 31
0.0
  0
LINE
  5
6823
330
1F
100
AcDbEntity
  8
補助
370
     5
100
AcDbLine
 10
2276.75434681301
 20
40.53787547858519
 30
0.0
 11
2252.166198313995
 21
40.53787547858519
 31
0.0
  0
LINE
  5
6824
330
1F
100
AcDbEntity
  8
補助
370
     5
100
AcDbLine
 10
2245.64189404294
 20
56.5
 30
0.0
 11
2210.641894042939
 21
56.5
 31
0.0
  0
LINE
  5
6825
330
1F
100
AcDbEntity
  8
補助
370
     5
100
AcDbLine
 10
2210.641894042939
 20
36.5
 30
0.0
 11
2245.64189404294
 21
56.5
 31
0.0
  0
LINE
  5
6826
330
1F
100
AcDbEntity
  8
補助
370
     5
100
AcDbLine
 10
2245.64189404294
 20
16.5
 30
0.0
 11
2210.641894042939
 21
36.5
 31
0.0
  0
LINE
  5
6827
330
1F
100
AcDbEntity
  8
補助
370
     5
100
AcDbLine
 10
2210.641894042939
 20
56.5
 30
0.0
 11
2210.641894042939
 21
16.5
 31
0.0
  0
LINE
  5
6828
330
1F
100
AcDbEntity
  8
補助
370
     5
100
AcDbLine
 10
2183.255774665347
 20
30.53787547858519
 30
0.0
 11
2207.346428692676
 21
30.53787547858514
 31
0.0
  0
LINE
  5
6829
330
1F
100
AcDbEntity
  8
補助
370
     5
100
AcDbLine
 10
2183.255774665347
 20
40.53787547858519
 30
0.0
 11
2183.255774665347
 21
30.53787547858519
 31
0.0
  0
LINE
  5
682A
330
1F
100
AcDbEntity
  8
補助
370
     5
100
AcDbLine
 10
2207.843923164362
 20
40.53787547858519
 30
0.0
 11
2183.255774665347
 21
40.53787547858519
 31
0.0
  0
TEXT
  5
682B
330
1F
100
AcDbEntity
  8
0
100
AcDbText
 10
2430.916666666667
 20
84.0
 30
0.0
 40
35.0
  1
1：10
 72
     4
 11
2484.0
 21
101.5
 31
0.0
100
AcDbText
  0
TEXT
  5
6834
330
1F
100
AcDbEntity
  8
寸法
100
AcDbText
 10
671.1025565053205
 20
1262.651299281219
 30
0.0
 40
25.0
  1
20R
100
AcDbText
  0
LEADER
  5
683E
330
1F
100
AcDbEntity
  8
寸法
100
AcDbLeader
  3
ISO-25
 76
     2
 10
625.718550471724
 20
1639.549696313681
 30
0.0
 10
664.979569033373
 20
1583.236507182686
 30
0.0
211
-1.0
221
0.0
231
0.0
1001
ACAD
1000
DSTYLE
1002
{
1070
    41
1040
25.0
1070
   147
1040
6.25
1070
    77
1070
     0
1002
}
  0
TEXT
  5
683F
330
1F
100
AcDbEntity
  8
寸法
100
AcDbText
 10
663.6387408440614
 20
1545.052574483045
 30
0.0
 40
25.0
  1
20R
100
AcDbText
  0
TEXT
  5
6977
330
1F
100
AcDbEntity
  8
寸法
100
AcDbText
 10
1473.677723453429
 20
1259.062177881841
 30
0.0
 40
25.0
  1
20R
100
AcDbText
  0
LINE
  5
699C
330
1F
100
AcDbEntity
  8
実形
100
AcDbLine
 10
594.422124127622
 20
1342.017091367211
 30
0.0
 11
584.422124127622
 21
1342.017091367211
 31
0.0
  0
LINE
  5
699D
330
1F
100
AcDbEntity
  8
実形
100
AcDbLine
 10
584.422124127622
 20
1523.017091367211
 30
0.0
 11
594.422124127622
 21
1523.017091367211
 31
0.0
  0
LINE
  5
699E
330
1F
100
AcDbEntity
  8
センター
 48
0.6
100
AcDbLine
 10
648.9505541795563
 20
1432.517091367211
 30
0.0
 11
519.7464943781844
 21
1432.517091367211
 31
0.0
  0
LINE
  5
699F
330
1F
100
AcDbEntity
  8
実形
100
AcDbLine
 10
584.422124127622
 20
1523.017091367211
 30
0.0
 11
584.422124127622
 21
1342.017091367211
 31
0.0
  0
DIMENSION
  5
69A0
330
1F
100
AcDbEntity
  8
実形
100
AcDbDimension
  2
*D37
 10
493.223654619119
 20
1512.517091367212
 30
0.0
 11
474.1236546191188
 21
1432.517091367212
 31
0.0
 70
    32
 71
     5
 42
160.0
  3
ISO-25
100
AcDbAlignedDimension
 13
610.1402531549767
 23
1352.517091367211
 33
0.0
 14
610.1402531549767
 24
1512.517091367211
 34
0.0
 50
90.0
100
AcDbRotatedDimension
1001
ACAD
1000
DSTYLE
1002
{
1070
    41
1040
10.0
1070
   140
1040
25.0
1070
   147
1040
6.599999999999998
1070
   279
1070
     2
1070
   342
1005
2ED7
1070
   371
1070
    18
1070
   372
1070
    18
1002
}
  0
DIMENSION
  5
69A1
330
1F
100
AcDbEntity
  8
実形
100
AcDbDimension
  2
*D38
 10
421.9813578038422
 20
1523.017091367211
 30
0.0
 11
402.881357803842
 21
1432.517091367211
 31
0.0
 70
    32
 71
     5
 42
180.9999999999995
  3
ISO-25
100
AcDbAlignedDimension
 13
610.1402531549767
 23
1342.017091367212
 33
0.0
 14
610.1402531549722
 24
1523.017091367211
 34
0.0
 50
90.0
100
AcDbRotatedDimension
1001
ACAD
1000
DSTYLE
1002
{
1070
    41
1040
10.0
1070
   140
1040
25.0
1070
   147
1040
6.599999999999998
1070
   279
1070
     2
1070
   342
1005
2ED7
1070
   371
1070
    18
1070
   372
1070
    18
1002
}
  0
LINE
  5
6BD6
330
1F
100
AcDbEntity
  8
補助
 62
     0
100
AcDbLine
 10
2784.0
 20
1959.000000000001
 30
0.0
 11
2019.387286519283
 21
1959.000000000002
 31
0.0
  0
LINE
  5
6BD7
330
1F
100
AcDbEntity
  8
補助
 62
     0
100
AcDbLine
 10
2784.0
 20
1894.000000000001
 30
0.0
 11
2019.387286519283
 21
1894.000000000001
 31
0.0
  0
LINE
  5
6BD8
330
1F
100
AcDbEntity
  8
補助
 62
     0
100
AcDbLine
 10
2202.547653420927
 20
1894.000000000001
 30
0.0
 11
2202.547653420927
 21
2024.000000000002
 31
0.0
  0
LINE
  5
6BD9
330
1F
100
AcDbEntity
  8
補助
 62
     0
100
AcDbLine
 10
2019.387286519283
 20
1894.000000000001
 30
0.0
 11
2019.387286519283
 21
2024.000000000002
 31
0.0
  0
TEXT
  5
6BDA
330
1F
100
AcDbEntity
  8
補助
 62
     0
100
AcDbText
 10
2050.295698850121
 20
1976.328571428573
 30
0.0
 40
30.0
  1
部品名
  7
明朝
 72
     4
 11
2116.124270278692
 21
1991.500000000002
 31
0.0
100
AcDbText
  0
TEXT
  5
6BDB
330
1F
100
AcDbEntity
  8
補助
 62
     0
100
AcDbText
 10
2627.614285714286
 20
1976.07142857143
 30
0.0
 40
30.0
  1
厚さ
  7
明朝
 72
     4
 11
2671.5
 21
1991.500000000002
 31
0.0
100
AcDbText
  0
LINE
  5
6BDC
330
1F
100
AcDbEntity
  8
補助
 62
     0
100
AcDbLine
 10
2559.0
 20
1894.000000000001
 30
0.0
 11
2559.0
 21
2024.000000000002
 31
0.0
  0
TEXT
  5
6BDD
330
1F
100
AcDbEntity
  8
補助
 62
     0
100
AcDbText
 10
2338.490869919937
 20
1975.947979478156
 30
0.0
 40
30.0
  1
材質
  7
明朝
 72
     4
 11
2382.376584205651
 21
1991.119408049584
 31
0.0
100
AcDbText
  0
TEXT
  5
6BDE
330
1F
100
AcDbEntity
  8
実形
 62
     0
100
AcDbText
 10
2048.227810657788
 20
1910.557142857144
 30
0.0
 40
30.0
  1
ボウル
  7
明朝
 72
     4
 11
2114.056382086359
 21
1926.500000000001
 31
0.0
100
AcDbText
  0
TEXT
  5
6BDF
330
1F
100
AcDbEntity
  8
実形
 62
     0
100
AcDbText
 10
2594.700000000001
 20
1911.842857142858
 30
0.0
 40
30.0
  1
1.0ｍｍ
  7
明朝
 72
     4
 11
2671.500000000001
 21
1926.500000000001
 31
0.0
100
AcDbText
  0
TEXT
  5
6BE0
330
1F
100
AcDbEntity
  8
実形
 62
     0
100
AcDbText
 10
2261.016869107866
 20
1910.728571428572
 30
0.0
 40
30.0
  1
SUS304（HL）
  7
明朝
 72
     4
 11
2392.674011965008
 21
1926.500000000001
 31
0.0
100
AcDbText
  0
LINE
  5
6BEA
330
1F
100
AcDbEntity
  8
補助
100
AcDbLine
 10
109.0
 20
4.0
 30
0.0
 11
109.0
 21
2024.0
 31
0.0
  0
LINE
  5
6C28
330
1F
100
AcDbEntity
  8
実形
100
AcDbLine
 10
2253.854649934987
 20
1490.017091367211
 30
0.0
 11
2243.854649934987
 21
1490.017091367211
 31
0.0
  0
LINE
  5
6C29
330
1F
100
AcDbEntity
  8
実形
100
AcDbLine
 10
2253.854649934987
 20
1375.017091367211
 30
0.0
 11
2243.854649934987
 21
1375.017091367211
 31
0.0
  0
LINE
  5
6C52
330
1F
100
AcDbEntity
  8
実形
100
AcDbLine
 10
1847.827439947139
 20
574.9421603690644
 30
0.0
 11
1847.827439947139
 21
584.9421603690644
 31
0.0
  0
LINE
  5
6C53
330
1F
100
AcDbEntity
  8
実形
100
AcDbLine
 10
1732.827439947139
 20
584.9421603690644
 30
0.0
 11
1732.827439947139
 21
574.9421603690644
 31
0.0
  0
VIEWPORT
  5
2E
102
{ACAD_XDICTIONARY
360
6C73
102
}
330
1B
100
AcDbEntity
 67
     1
  8
0
100
AcDbViewport
 10
144.7270812988281
 20
101.2295806407928
 30
0.0
 40
411.6736216682419
 41
222.1517806396485
 68
     1
 69
     1
 12
144.7270812988281
 22
101.2295806407928
 13
0.0
 23
0.0
 14
10.0
 24
10.0
 15
10.0
 25
10.0
 16
0.0
 26
0.0
 36
1.0
 17
0.0
 27
0.0
 37
0.0
 42
50.0
 43
0.0
 44
0.0
 45
222.1517806396485
 50
0.0
 51
0.0
 72
   100
 90
    32800
  1

281
     0
 71
     1
 74
     0
110
0.0
120
0.0
130
0.0
111
1.0
121
0.0
131
0.0
112
0.0
122
1.0
132
0.0
 79
     0
146
0.0
  0
VIEWPORT
  5
30
102
{ACAD_XDICTIONARY
360
6C75
102
}
330
1B
100
AcDbEntity
 67
     1
  8
0
100
AcDbViewport
 10
139.2237563133239
 20
101.2295821905136
 30
0.0
 40
222.7580101013184
 41
161.9673315048218
 68
     2
 69
     2
 12
210.0
 22
148.5
 13
0.0
 23
0.0
 14
10.0
 24
10.0
 15
10.0
 25
10.0
 16
0.0
 26
0.0
 36
1.0
 17
0.0
 27
0.0
 37
0.0
 42
50.0
 43
0.0
 44
0.0
 45
309.0686705647124
 50
0.0
 51
0.0
 72
   100
 90
    32864
  1

281
     0
 71
     1
 74
     0
110
0.0
120
0.0
130
0.0
111
1.0
121
0.0
131
0.0
112
0.0
122
1.0
132
0.0
 79
     0
146
0.0
  0
ENDSEC
  0
SECTION
  2
OBJECTS
  0
DICTIONARY
  5
C
330
0
100
AcDbDictionary
281
     1
  3
ACAD_COLOR
350
260C
  3
ACAD_GROUP
350
D
  3
ACAD_LAYOUT
350
1A
  3
ACAD_MATERIAL
350
260B
  3
ACAD_MLINESTYLE
350
17
  3
ACAD_PLOTSETTINGS
350
19
  3
ACAD_PLOTSTYLENAME
350
E
  3
ACAD_TABLESTYLE
350
260D
  3
AcadDim
350
124
  3
ACDBHEADERROUNDTRIPXREC
350
6C6C
  3
AcDbVariableDictionary
350
1055
  0
DICTIONARY
  5
2635
330
2
100
AcDbDictionary
280
     1
281
     1
  3
ACAD_LAYERFILTERS
360
2637
  3
ACAD_LAYERSTATES
360
272C
  3
ACLYDICTIONARY
360
2636
  0
DICTIONARY
  5
264B
330
1F
100
AcDbDictionary
280
     1
281
     1
  3
ACAD_SORTENTS
360
264C
  0
DICTIONARY
  5
3890
330
388E
100
AcDbDictionary
280
     1
281
     1
  3
ACAD_SORTENTS
360
3891
  0
DICTIONARY
  5
49DF
330
49DC
100
AcDbDictionary
280
     1
281
     1
  3
ACAD_SORTENTS
360
49E0
  0
DICTIONARY
  5
6C73
330
2E
100
AcDbDictionary
280
     1
281
     1
  3
ACAD_XREC_ROUNDTRIP
360
6C74
  0
DICTIONARY
  5
6C75
330
30
100
AcDbDictionary
280
     1
281
     1
  3
ACAD_XREC_ROUNDTRIP
360
6C76
  0
DICTIONARY
  5
260C
102
{ACAD_REACTORS
330
C
102
}
330
C
100
AcDbDictionary
281
     1
  0
DICTIONARY
  5
D
102
{ACAD_REACTORS
330
C
102
}
330
C
100
AcDbDictionary
281
     1
  0
DICTIONARY
  5
1A
102
{ACAD_REACTORS
330
C
102
}
330
C
100
AcDbDictionary
281
     1
  3
Model
350
22
  3
ﾚｲｱｳﾄ1
350
1E
  3
ﾚｲｱｳﾄ2
350
26
  0
DICTIONARY
  5
260B
102
{ACAD_REACTORS
330
C
102
}
330
C
100
AcDbDictionary
281
     1
  0
DICTIONARY
  5
17
102
{ACAD_REACTORS
330
C
102
}
330
C
100
AcDbDictionary
281
     1
  3
Standard
350
18
  0
DICTIONARY
  5
19
102
{ACAD_REACTORS
330
C
102
}
330
C
100
AcDbDictionary
281
     1
  0
ACDBDICTIONARYWDFLT
  5
E
102
{ACAD_REACTORS
330
C
102
}
330
C
100
AcDbDictionary
281
     1
  3
Normal
350
F
100
AcDbDictionaryWithDefault
340
F
  0
DICTIONARY
  5
260D
102
{ACAD_REACTORS
330
C
102
}
330
C
100
AcDbDictionary
281
     1
  3
Standard
350
260E
  0
XRECORD
  5
124
102
{ACAD_REACTORS
330
C
102
}
330
C
100
AcDbXrecord
280
     1
 90
   990106
  3

 60
     0
 61
     0
 62
     1
 63
     3
 64
     0
 65
     0
 66
     0
 67
     3
 68
     1
 69
     0
 70
     0
 71
     0
 72
     0
 40
30.0
170
     0
  0
DICTIONARY
  5
6C6C
102
{ACAD_REACTORS
330
C
102
}
330
C
100
AcDbDictionary
281
     1
  0
DICTIONARY
  5
1055
102
{ACAD_REACTORS
330
C
102
}
330
C
100
AcDbDictionary
281
     1
  3
CTABLESTYLE
350
2614
  3
DIMASSOC
350
6C69
  3
PROJECTNAME
350
6C6A
  3
SORTENTS
350
1056
  0
DICTIONARY
  5
2637
102
{ACAD_REACTORS
330
2635
102
}
330
2635
100
AcDbDictionary
281
     1
  0
DICTIONARY
  5
272C
102
{ACAD_REACTORS
330
2635
102
}
330
2635
100
AcDbDictionary
281
     1
  0
DICTIONARY
  5
2636
102
{ACAD_REACTORS
330
2635
102
}
330
2635
100
AcDbDictionary
281
     1
1001
ACAD
1000
<All
  0
SORTENTSTABLE
  5
264C
102
{ACAD_REACTORS
330
264B
102
}
330
264B
100
AcDbSortentsTable
330
1F
331
673A
  5
674D
331
67D9
  5
6820
331
6742
  5
6751
331
674A
  5
6814
331
3B00
  5
5520
331
169D
  5
16C2
331
3819
  5
54BD
331
3B08
  5
5570
331
16AD
  5
16C9
331
16B5
  5
16CE
331
5F83
  5
5FE2
331
66AD
  5
6748
331
6752
  5
681B
331
69A0
  5
6BEA
331
6819
  5
6826
331
6821
  5
683F
331
6829
  5
6BD6
331
293A
  5
1A61
331
1A2B
  5
237C
331
63D0
  5
6465
331
653E
  5
6081
331
6349
  5
6462
331
6430
  5
646D
331
65A6
  5
610F
331
6BDB
  5
6C2A
331
6743
  5
6752
331
674B
  5
6815
331
3422
  5
343D
331
9C
  5
9C
331
381A
  5
54CA
331
3B11
  5
558A
331
3B39
  5
55B7
331
6468
  5
65A6
331
5EA5
  5
16CC
331
6C52
  5
653C
331
6753
  5
681C
331
69A1
  5
6C00
331
681A
  5
6827
331
6822
  5
6977
331
682A
  5
6BD7
331
1A24
  5
2379
331
1677
  5
1678
331
63D1
  5
6349
331
1A2C
  5
2CEC
331
6342
  5
63DE
331
6470
  5
66AB
331
653F
  5
6235
331
3A62
  5
5512
331
4AAE
  5
5F86
331
5FDC
  5
607E
331
6233
  5
63BD
331
6597
  5
609D
331
5FFC
  5
6263
331
65A7
  5
6741
331
6BDC
  5
6C2B
331
6744
  5
6753
331
A5
  5
A5
331
16B7
  5
16D1
331
5F85
  5
5FE4
331
64B8
  5
66AC
331
66AF
  5
6749
331
6469
  5
65A7
331
5EA6
  5
1681
331
6C53
  5
653F
331
6754
  5
681D
331
681B
  5
6828
331
6823
  5
699C
331
682B
  5
6BD8
331
44CA
  5
56ED
331
1678
  5
1679
331
293C
  5
16C7
331
6343
  5
63E0
331
6234
  5
63CF
331
4AB7
  5
5F90
331
6598
  5
6234
331
5FFD
  5
6341
331
6BDD
  5
6C3E
331
672D
  5
674A
331
6745
  5
6754
331
674D
  5
6816
331
49EA
  5
5F12
331
8C9
  5
1677
331
65A8
  5
6082
331
66A8
  5
6742
331
5F86
  5
5FE5
331
6264
  5
639F
331
646A
  5
65A8
331
5EA7
  5
1683
331
6BD6
  5
6C01
331
6814
  5
6821
331
681C
  5
6829
331
6824
  5
699D
331
1A26
  5
237B
331
1679
  5
167B
331
5ECF
  5
5FDA
331
61B5
  5
6348
331
6344
  5
63FF
331
6235
  5
63D0
331
6433
  5
6540
331
6599
  5
6739
331
6BDE
  5
6C3F
331
6834
  5
6BD9
331
674E
  5
6817
331
699C
  5
6BDD
331
1699
  5
16AE
331
3425
  5
3E26
331
49F3
  5
5F81
331
66A9
  5
6743
331
6463
  5
65A4
331
646B
  5
66A8
331
5EA8
  5
1682
331
61AE
  5
6346
331
6BD7
  5
6C14
331
6815
  5
6822
331
681D
  5
682A
331
6825
  5
699E
331
16B9
  5
16E0
331
2936
  5
22F1
331
4A39
  5
5F85
331
61B6
  5
639E
331
6345
  5
6432
331
6236
  5
63D1
331
63DC
  5
6466
331
5D49
  5
16A2
331
6434
  5
6598
331
659A
  5
673A
331
5FFF
  5
6343
331
6BDF
  5
6C52
331
67C6
  5
681E
331
673F
  5
674E
331
6747
  5
67C6
331
674F
  5
6818
331
699D
  5
6BDE
331
A0
  5
A0
331
5E69
  5
5F91
331
4A04
  5
5F83
331
66AA
  5
6744
331
5F90
  5
5FE6
331
6464
  5
646C
331
646C
  5
66A9
331
63BD
  5
6463
331
64CB
  5
66AD
331
6816
  5
6823
331
681E
  5
682B
331
6826
  5
699F
331
16CA
  5
1A62
331
2937
  5
1684
331
16DA
  5
22F4
331
167B
  5
167C
331
61B7
  5
6347
331
6346
  5
6434
331
16E2
  5
2377
331
6237
  5
63DC
331
63DD
  5
6468
331
6435
  5
6599
331
6BD8
  5
6C15
331
6BE0
  5
6C53
331
67CF
  5
681F
331
6740
  5
674F
331
683E
  5
6BDA
331
6748
  5
67CF
331
699E
  5
6BDF
331
16AB
  5
16C5
331
5F81
  5
5FDD
331
66AB
  5
6745
331
6465
  5
65A5
331
5F91
  5
5FE7
331
6080
  5
6344
331
646D
  5
66AA
331
64CC
  5
66AF
331
6750
  5
6819
331
6C28
  5
3E2E
331
6817
  5
6824
331
681F
  5
6834
331
6827
  5
69A0
331
16BB
  5
16E3
331
AD
  5
8C9
331
2938
  5
1A6F
331
4506
  5
5EAA
331
16DB
  5
2376
331
167C
  5
167D
331
6347
  5
6435
331
5FF1
  5
6237
331
6238
  5
63DD
331
63DE
  5
6469
331
5D4B
  5
1A6D
331
5F12
  5
5FDC
331
65A4
  5
673F
331
6BD9
  5
6C28
331
6739
  5
674B
331
6741
  5
6750
331
683F
  5
6BDB
331
6749
  5
67D9
331
6977
  5
6BDC
331
699F
  5
6BE0
331
66AC
  5
6747
331
6466
  5
646A
331
6081
  5
6345
331
63CF
  5
6464
331
64D5
  5
672D
331
6751
  5
681A
331
6C29
  5
3E30
331
6818
  5
6825
331
6820
  5
683E
331
6828
  5
69A1
331
1A22
  5
2378
331
16CC
  5
1A69
331
2939
  5
16B5
331
167D
  5
1692
331
168D
  5
16AC
331
5FDA
  5
5FF1
331
6348
  5
6460
331
5FF2
  5
6238
331
63DF
  5
646B
331
5D4C
  5
167E
331
65A5
  5
6740
331
6BDA
  5
6C29
331
6BEA
  5
AD
  0
SORTENTSTABLE
  5
3891
102
{ACAD_REACTORS
330
3890
102
}
330
3890
100
AcDbSortentsTable
330
388E
  0
SORTENTSTABLE
  5
49E0
102
{ACAD_REACTORS
330
49DF
102
}
330
49DF
100
AcDbSortentsTable
330
49DC
  0
XRECORD
  5
6C74
102
{ACAD_REACTORS
330
6C73
102
}
330
6C73
100
AcDbXrecord
280
     1
102
SHADEPLOT
 70
     0
  0
XRECORD
  5
6C76
102
{ACAD_REACTORS
330
6C75
102
}
330
6C75
100
AcDbXrecord
280
     1
102
SHADEPLOT
 70
     0
  0
LAYOUT
  5
22
102
{ACAD_XDICTIONARY
360
6C6F
102
}
102
{ACAD_REACTORS
330
1A
102
}
330
1A
100
AcDbPlotSettings
  1

  2
EPSON PM-800C
  4
A4
  6

 40
3.757083177566528
 41
14.7637300491333
 42
3.757080078125
 43
3.757080078125
 44
209.9733276367187
 45
296.9683227539062
 46
0.0
 47
0.0
 48
0.0
 49
0.0
140
0.0
141
0.0
142
1.0
143
10.0
 70
 11952
 72
     1
 73
     1
 74
     2
  7

 75
    20
147
0.1
148
0.0
149
0.0
100
AcDbLayout
  1
Model
 70
     1
 71
     0
 10
0.0
 20
0.0
 11
12.0
 21
9.0
 12
0.0
 22
0.0
 32
0.0
 14
0.0
 24
0.0
 34
0.0
 15
0.0
 25
0.0
 35
0.0
146
0.0
 13
0.0
 23
0.0
 33
0.0
 16
1.0
 26
0.0
 36
0.0
 17
0.0
 27
1.0
 37
0.0
 76
     0
330
1F
  0
LAYOUT
  5
1E
102
{ACAD_XDICTIONARY
360
6C6D
102
}
102
{ACAD_REACTORS
330
1A
102
}
330
1A
100
AcDbPlotSettings
  1

  2
EPSON PM-800C
  4
A4
  6

 40
3.757083177566528
 41
14.7637300491333
 42
3.757080078125
 43
3.757080078125
 44
209.9733276367187
 45
296.9683227539062
 46
0.0
 47
0.0
 48
0.0
 49
0.0
140
0.0
141
0.0
142
1.0
143
1.0
 70
   688
 72
     1
 73
     1
 74
     5
  7

 75
    16
147
1.0
148
0.0
149
0.0
100
AcDbLayout
  1
ﾚｲｱｳﾄ1
 70
     1
 71
     1
 10
-3.757080078125
 20
-3.757083177566528
 11
293.2112426757813
 21
206.2162444591522
 12
0.0
 22
0.0
 32
0.0
 14
27.8447512626648
 24
20.24591643810271
 34
0.0
 15
250.6027613639831
 25
182.2132479429245
 35
0.0
146
0.0
 13
0.0
 23
0.0
 33
0.0
 16
1.0
 26
0.0
 36
0.0
 17
0.0
 27
1.0
 37
0.0
 76
     0
330
1B
331
2E
  0
LAYOUT
  5
26
102
{ACAD_XDICTIONARY
360
6C71
102
}
102
{ACAD_REACTORS
330
1A
102
}
330
1A
100
AcDbPlotSettings
  1

  2
EPSON PM-800C
  4

  6

 40
0.0
 41
0.0
 42
0.0
 43
0.0
 44
0.0
 45
0.0
 46
0.0
 47
0.0
 48
0.0
 49
0.0
140
0.0
141
0.0
142
1.0
143
1.0
 70
   688
 72
     0
 73
     0
 74
     5
  7

 75
    16
147
1.0
148
0.0
149
0.0
100
AcDbLayout
  1
ﾚｲｱｳﾄ2
 70
     1
 71
     2
 10
0.0
 20
0.0
 11
12.0
 21
9.0
 12
0.0
 22
0.0
 32
0.0
 14
0.0
 24
0.0
 34
0.0
 15
0.0
 25
0.0
 35
0.0
146
0.0
 13
0.0
 23
0.0
 33
0.0
 16
1.0
 26
0.0
 36
0.0
 17
0.0
 27
1.0
 37
0.0
 76
     0
330
23
  0
MLINESTYLE
  5
18
102
{ACAD_REACTORS
330
17
102
}
330
17
100
AcDbMlineStyle
  2
STANDARD
 70
     0
  3

 62
   256
 51
90.0
 52
90.0
 71
     2
 49
0.5
 62
   256
  6
BYLAYER
 49
-0.5
 62
   256
  6
BYLAYER
  0
ACDBPLACEHOLDER
  5
F
102
{ACAD_REACTORS
330
E
102
}
330
E
  0
TABLESTYLE
  5
260E
102
{ACAD_REACTORS
330
260D
102
}
330
260D
100
AcDbTableStyle
  3
Standard
 70
     0
 71
     0
 40
1.5
 41
1.5
280
     0
281
     0
  7
Standard
140
4.5
170
     2
 62
     0
 63
     7
283
     0
274
    -2
284
     1
 64
     0
275
    -2
285
     1
 65
     0
276
    -2
286
     1
 66
     0
277
    -2
287
     1
 67
     0
278
    -2
288
     1
 68
     0
279
    -2
289
     1
 69
     0
  7
Standard
140
6.0
170
     5
 62
     0
 63
     7
283
     0
274
    -2
284
     1
 64
     0
275
    -2
285
     1
 65
     0
276
    -2
286
     1
 66
     0
277
    -2
287
     1
 67
     0
278
    -2
288
     1
 68
     0
279
    -2
289
     1
 69
     0
  7
Standard
140
4.5
170
     5
 62
     0
 63
     7
283
     0
274
    -2
284
     1
 64
     0
275
    -2
285
     1
 65
     0
276
    -2
286
     1
 66
     0
277
    -2
287
     1
 67
     0
278
    -2
288
     1
 68
     0
279
    -2
289
     1
 69
     0
  0
DICTIONARYVAR
  5
2614
102
{ACAD_REACTORS
330
1055
102
}
330
1055
100
DictionaryVariables
280
     0
  1
STANDARD
  0
DICTIONARYVAR
  5
6C69
102
{ACAD_REACTORS
330
1055
102
}
330
1055
100
DictionaryVariables
280
     0
  1
1
  0
DICTIONARYVAR
  5
6C6A
102
{ACAD_REACTORS
330
1055
102
}
330
1055
100
DictionaryVariables
280
     0
  1

  0
DICTIONARYVAR
  5
1056
102
{ACAD_REACTORS
330
1055
102
}
330
1055
100
DictionaryVariables
280
     0
  1
96
  0
DICTIONARY
  5
6C6F
330
22
100
AcDbDictionary
280
     1
281
     1
  3
ACAD_XREC_ROUNDTRIP
360
6C70
  0
DICTIONARY
  5
6C6D
330
1E
100
AcDbDictionary
280
     1
281
     1
  3
ACAD_XREC_ROUNDTRIP
360
6C6E
  0
DICTIONARY
  5
6C71
330
26
100
AcDbDictionary
280
     1
281
     1
  3
ACAD_XREC_ROUNDTRIP
360
6C72
  0
XRECORD
  5
6C70
102
{ACAD_REACTORS
330
6C6F
102
}
330
6C6F
100
AcDbXrecord
280
     1
102
SHADEPLOT
 70
     0
102
SHADEPLOTRESLEVEL
 70
     2
102
SHADEPLOTCUSTOMDPI
 70
   300
  0
XRECORD
  5
6C6E
102
{ACAD_REACTORS
330
6C6D
102
}
330
6C6D
100
AcDbXrecord
280
     1
102
SHADEPLOT
 70
     0
102
SHADEPLOTRESLEVEL
 70
     2
102
SHADEPLOTCUSTOMDPI
 70
   300
  0
XRECORD
  5
6C72
102
{ACAD_REACTORS
330
6C71
102
}
330
6C71
100
AcDbXrecord
280
     1
102
SHADEPLOT
 70
     0
102
SHADEPLOTRESLEVEL
 70
     2
102
SHADEPLOTCUSTOMDPI
 70
   300
  0
ENDSEC
  0
EOF
