  0
SECTION
  2
HEADER
  9
$ACADVER
  1
AC1015
  9
$ACADMAINTVER
 70
    20
  9
$DWGCODEPAGE
  3
ANSI_932
  9
$INSBASE
 10
0.0
 20
0.0
 30
0.0
  9
$EXTMIN
 10
114.0
 20
4.0
 30
0.0
  9
$EXTMAX
 10
2784.0
 20
2024.000000000002
 30
0.0
  9
$LIMMIN
 10
0.0
 20
0.0
  9
$LIMMAX
 10
29700.0
 20
21000.0
  9
$ORTHOMODE
 70
     1
  9
$REGENMODE
 70
     1
  9
$FILLMODE
 70
     1
  9
$QTEXTMODE
 70
     0
  9
$MIRRTEXT
 70
     1
  9
$LTSCALE
 40
4.0
  9
$ATTMODE
 70
     1
  9
$TEXTSIZE
 40
25.0
  9
$TRACEWID
 40
1.0
  9
$TEXTSTYLE
  7
Standard
  9
$CLAYER
  8
実形
  9
$CELTYPE
  6
ByLayer
  9
$CECOLOR
 62
   256
  9
$CELTSCALE
 40
1.0
  9
$DISPSILH
 70
     0
  9
$DIMSCALE
 40
1.0
  9
$DIMASZ
 40
35.0
  9
$DIMEXO
 40
65.0
  9
$DIMDLI
 40
3.75
  9
$DIMRND
 40
0.0
  9
$DIMDLE
 40
0.0
  9
$DIMEXE
 40
0.0
  9
$DIMTP
 40
0.0
  9
$DIMTM
 40
0.0
  9
$DIMTXT
 40
25.0
  9
$DIMCEN
 40
2.5
  9
$DIMTSZ
 40
0.0
  9
$DIMTOL
 70
     0
  9
$DIMLIM
 70
     0
  9
$DIMTIH
 70
     0
  9
$DIMTOH
 70
     0
  9
$DIMSE1
 70
     0
  9
$DIMSE2
 70
     0
  9
$DIMTAD
 70
     1
  9
$DIMZIN
 70
     8
  9
$DIMBLK
  1
DotSmall
  9
$DIMASO
 70
     1
  9
$DIMSHO
 70
     1
  9
$DIMPOST
  1

  9
$DIMAPOST
  1

  9
$DIMALT
 70
     0
  9
$DIMALTD
 70
     3
  9
$DIMALTF
 40
0.03937007874016
  9
$DIMLFAC
 40
1.0
  9
$DIMTOFL
 70
     1
  9
$DIMTVP
 40
0.0
  9
$DIMTIX
 70
     0
  9
$DIMSOXD
 70
     0
  9
$DIMSAH
 70
     0
  9
$DIMBLK1
  1

  9
$DIMBLK2
  1

  9
$DIMSTYLE
  2
ISO-25
  9
$DIMCLRD
 70
     0
  9
$DIMCLRE
 70
     0
  9
$DIMCLRT
 70
     0
  9
$DIMTFAC
 40
1.0
  9
$DIMGAP
 40
6.25
  9
$DIMJUST
 70
     0
  9
$DIMSD1
 70
     0
  9
$DIMSD2
 70
     0
  9
$DIMTOLJ
 70
     0
  9
$DIMTZIN
 70
     8
  9
$DIMALTZ
 70
     0
  9
$DIMALTTZ
 70
     0
  9
$DIMUPT
 70
     0
  9
$DIMDEC
 70
     2
  9
$DIMTDEC
 70
     2
  9
$DIMALTU
 70
     2
  9
$DIMALTTD
 70
     3
  9
$DIMTXSTY
  7
Standard
  9
$DIMAUNIT
 70
     0
  9
$DIMADEC
 70
     0
  9
$DIMALTRND
 40
0.0
  9
$DIMAZIN
 70
     0
  9
$DIMDSEP
 70
    46
  9
$DIMATFIT
 70
     0
  9
$DIMFRAC
 70
     0
  9
$DIMLDRBLK
  1
Open30
  9
$DIMLUNIT
 70
     2
  9
$DIMLWD
 70
    18
  9
$DIMLWE
 70
    18
  9
$DIMTMOVE
 70
     2
  9
$LUNITS
 70
     2
  9
$LUPREC
 70
     2
  9
$SKETCHINC
 40
1.0
  9
$FILLETRAD
 40
20.0
  9
$AUNITS
 70
     0
  9
$AUPREC
 70
     0
  9
$MENU
  1
.
  9
$ELEVATION
 40
0.0
  9
$PELEVATION
 40
0.0
  9
$THICKNESS
 40
0.0
  9
$LIMCHECK
 70
     1
  9
$CHAMFERA
 40
10.0
  9
$CHAMFERB
 40
10.0
  9
$CHAMFERC
 40
20.0
  9
$CHAMFERD
 40
0.0
  9
$SKPOLY
 70
     0
  9
$TDCREATE
 40
2451673.575802199
  9
$TDUCREATE
 40
2451673.200802199
  9
$TDUPDATE
 40
2458809.720535382
  9
$TDUUPDATE
 40
2458809.345535382
  9
$TDINDWG
 40
1.7558374306
  9
$TDUSRTIMER
 40
1.7558367361
  9
$USRTIMER
 70
     1
  9
$ANGBASE
 50
0.0
  9
$ANGDIR
 70
     0
  9
$PDMODE
 70
     3
  9
$PDSIZE
 40
0.0
  9
$PLINEWID
 40
0.0
  9
$SPLFRAME
 70
     0
  9
$SPLINETYPE
 70
     6
  9
$SPLINESEGS
 70
     8
  9
$HANDSEED
  5
7EE0
  9
$SURFTAB1
 70
     6
  9
$SURFTAB2
 70
     6
  9
$SURFTYPE
 70
     6
  9
$SURFU
 70
     6
  9
$SURFV
 70
     6
  9
$UCSBASE
  2

  9
$UCSNAME
  2

  9
$UCSORG
 10
0.0
 20
0.0
 30
0.0
  9
$UCSXDIR
 10
1.0
 20
0.0
 30
0.0
  9
$UCSYDIR
 10
0.0
 20
1.0
 30
0.0
  9
$UCSORTHOREF
  2

  9
$UCSORTHOVIEW
 70
     0
  9
$UCSORGTOP
 10
0.0
 20
0.0
 30
0.0
  9
$UCSORGBOTTOM
 10
0.0
 20
0.0
 30
0.0
  9
$UCSORGLEFT
 10
0.0
 20
0.0
 30
0.0
  9
$UCSORGRIGHT
 10
0.0
 20
0.0
 30
0.0
  9
$UCSORGFRONT
 10
0.0
 20
0.0
 30
0.0
  9
$UCSORGBACK
 10
0.0
 20
0.0
 30
0.0
  9
$PUCSBASE
  2

  9
$PUCSNAME
  2

  9
$PUCSORG
 10
0.0
 20
0.0
 30
0.0
  9
$PUCSXDIR
 10
1.0
 20
0.0
 30
0.0
  9
$PUCSYDIR
 10
0.0
 20
1.0
 30
0.0
  9
$PUCSORTHOREF
  2

  9
$PUCSORTHOVIEW
 70
     0
  9
$PUCSORGTOP
 10
0.0
 20
0.0
 30
0.0
  9
$PUCSORGBOTTOM
 10
0.0
 20
0.0
 30
0.0
  9
$PUCSORGLEFT
 10
0.0
 20
0.0
 30
0.0
  9
$PUCSORGRIGHT
 10
0.0
 20
0.0
 30
0.0
  9
$PUCSORGFRONT
 10
0.0
 20
0.0
 30
0.0
  9
$PUCSORGBACK
 10
0.0
 20
0.0
 30
0.0
  9
$USERI1
 70
     0
  9
$USERI2
 70
     0
  9
$USERI3
 70
     0
  9
$USERI4
 70
     0
  9
$USERI5
 70
     0
  9
$USERR1
 40
0.0
  9
$USERR2
 40
0.0
  9
$USERR3
 40
0.0
  9
$USERR4
 40
0.0
  9
$USERR5
 40
0.0
  9
$WORLDVIEW
 70
     1
  9
$SHADEDGE
 70
     3
  9
$SHADEDIF
 70
    70
  9
$TILEMODE
 70
     1
  9
$MAXACTVP
 70
    64
  9
$PINSBASE
 10
0.0
 20
0.0
 30
0.0
  9
$PLIMCHECK
 70
     0
  9
$PEXTMIN
 10
27.8447512626648
 20
20.24591643810271
 30
0.0
  9
$PEXTMAX
 10
250.6027613639831
 20
182.2132479429245
 30
0.0
  9
$PLIMMIN
 10
-3.757080078125
 20
-3.757083177566528
  9
$PLIMMAX
 10
293.2112426757813
 20
206.2162444591522
  9
$UNITMODE
 70
     0
  9
$VISRETAIN
 70
     1
  9
$PLINEGEN
 70
     0
  9
$PSLTSCALE
 70
     1
  9
$TREEDEPTH
 70
  3020
  9
$CMLSTYLE
  2
Standard
  9
$CMLJUST
 70
     0
  9
$CMLSCALE
 40
20.0
  9
$PROXYGRAPHICS
 70
     1
  9
$MEASUREMENT
 70
     1
  9
$CELWEIGHT
370
    -1
  9
$ENDCAPS
280
     0
  9
$JOINSTYLE
280
     0
  9
$LWDISPLAY
290
     0
  9
$INSUNITS
 70
     4
  9
$HYPERLINKBASE
  1

  9
$STYLESHEET
  1

  9
$XEDIT
290
     1
  9
$CEPSNTYPE
380
     0
  9
$PSTYLEMODE
290
     1
  9
$FINGERPRINTGUID
  2
{C8EA1F16-24C9-11D4-9416-CE0A3B32152F}
  9
$VERSIONGUID
  2
{DCD4E10C-1736-4743-ADB2-C950A25936A5}
  9
$EXTNAMES
290
     1
  9
$PSVPSCALE
 40
0.0
  9
$OLESTARTUP
290
     0
  0
ENDSEC
  0
SECTION
  2
CLASSES
  0
CLASS
  1
ACDBDICTIONARYWDFLT
  2
AcDbDictionaryWithDefault
  3
ObjectDBX Classes
 90
        0
280
     0
281
     0
  0
CLASS
  1
ACDBPLACEHOLDER
  2
AcDbPlaceHolder
  3
ObjectDBX Classes
 90
        0
280
     0
281
     0
  0
CLASS
  1
LAYOUT
  2
AcDbLayout
  3
ObjectDBX Classes
 90
        0
280
     0
281
     0
  0
CLASS
  1
DICTIONARYVAR
  2
AcDbDictionaryVar
  3
ObjectDBX Classes
 90
        0
280
     0
281
     0
  0
CLASS
  1
TABLESTYLE
  2
AcDbTableStyle
  3
ObjectDBX Classes
 90
     2047
280
     0
281
     0
  0
CLASS
  1
SORTENTSTABLE
  2
AcDbSortentsTable
  3
ObjectDBX Classes
 90
        0
280
     0
281
     0
  0
ENDSEC
  0
SECTION
  2
TABLES
  0
TABLE
  2
VPORT
  5
8
330
0
100
AcDbSymbolTable
 70
     2
  0
VPORT
  5
7ED4
330
8
100
AcDbSymbolTableRecord
100
AcDbViewportTableRecord
  2
*Active
 70
     0
 10
0.0
 20
0.0
 11
1.0
 21
1.0
 12
1523.296421667787
 22
1141.352777392723
 13
0.0
 23
0.0
 14
10.0
 24
10.0
 15
10.0
 25
10.0
 16
0.0
 26
0.0
 36
1.0
 17
0.0
 27
0.0
 37
0.0
 40
2577.431103172703
 41
1.29038112522686
 42
50.0
 43
0.0
 44
0.0
 50
0.0
 51
0.0
 71
     0
 72
   100
 73
     1
 74
     3
 75
     0
 76
     0
 77
     0
 78
     0
281
     0
 65
     1
110
0.0
120
0.0
130
0.0
111
1.0
121
0.0
131
0.0
112
0.0
122
1.0
132
0.0
 79
     0
146
0.0
  0
ENDTAB
  0
TABLE
  2
LTYPE
  5
5
330
0
100
AcDbSymbolTable
 70
    46
  0
LTYPE
  5
14
330
5
100
AcDbSymbolTableRecord
100
AcDbLinetypeTableRecord
  2
ByBlock
 70
     0
  3

 72
    65
 73
     0
 40
0.0
  0
LTYPE
  5
15
330
5
100
AcDbSymbolTableRecord
100
AcDbLinetypeTableRecord
  2
ByLayer
 70
     0
  3

 72
    65
 73
     0
 40
0.0
  0
LTYPE
  5
16
330
5
100
AcDbSymbolTableRecord
100
AcDbLinetypeTableRecord
  2
Continuous
 70
     0
  3
Solid line
 72
    65
 73
     0
 40
0.0
  0
LTYPE
  5
34
330
5
100
AcDbSymbolTableRecord
100
AcDbLinetypeTableRecord
  2
ACAD_ISO02W100
 70
     0
  3
ISO dash __ __ __ __ __ __ __ __ __ __ __ __ __
 72
    65
 73
     2
 40
15.0
 49
12.0
 74
     0
 49
-3.0
 74
     0
  0
LTYPE
  5
35
330
5
100
AcDbSymbolTableRecord
100
AcDbLinetypeTableRecord
  2
ACAD_ISO03W100
 70
     0
  3
ISO dash space __    __    __    __    __    __
 72
    65
 73
     2
 40
30.0
 49
12.0
 74
     0
 49
-18.0
 74
     0
  0
LTYPE
  5
36
330
5
100
AcDbSymbolTableRecord
100
AcDbLinetypeTableRecord
  2
ACAD_ISO04W100
 70
     0
  3
ISO long-dash dot ____ . ____ . ____ . ____ . _
 72
    65
 73
     4
 40
30.0
 49
24.0
 74
     0
 49
-3.0
 74
     0
 49
0.0
 74
     0
 49
-3.0
 74
     0
  0
LTYPE
  5
37
330
5
100
AcDbSymbolTableRecord
100
AcDbLinetypeTableRecord
  2
ACAD_ISO05W100
 70
     0
  3
ISO long-dash double-dot ____ .. ____ .. ____ .
 72
    65
 73
     6
 40
34.0
 49
24.0
 74
     0
 49
-3.0
 74
     0
 49
0.5
 74
     0
 49
-3.0
 74
     0
 49
0.5
 74
     0
 49
-3.0
 74
     0
  0
LTYPE
  5
38
330
5
100
AcDbSymbolTableRecord
100
AcDbLinetypeTableRecord
  2
ACAD_ISO06W100
 70
     0
  3
ISO long-dash triple-dot ____ ... ____ ... ____
 72
    65
 73
     8
 40
37.5
 49
24.0
 74
     0
 49
-3.0
 74
     0
 49
0.5
 74
     0
 49
-3.0
 74
     0
 49
0.5
 74
     0
 49
-3.0
 74
     0
 49
0.5
 74
     0
 49
-3.0
 74
     0
  0
LTYPE
  5
39
330
5
100
AcDbSymbolTableRecord
100
AcDbLinetypeTableRecord
  2
ACAD_ISO07W100
 70
     0
  3
ISO dot . . . . . . . . . . . . . . . . . . . .
 72
    65
 73
     2
 40
3.0
 49
0.0
 74
     0
 49
-3.0
 74
     0
  0
LTYPE
  5
3A
330
5
100
AcDbSymbolTableRecord
100
AcDbLinetypeTableRecord
  2
ACAD_ISO08W100
 70
     0
  3
ISO long-dash short-dash ____ __ ____ __ ____ _
 72
    65
 73
     4
 40
36.0
 49
24.0
 74
     0
 49
-3.0
 74
     0
 49
6.0
 74
     0
 49
-3.0
 74
     0
  0
LTYPE
  5
3B
330
5
100
AcDbSymbolTableRecord
100
AcDbLinetypeTableRecord
  2
ACAD_ISO09W100
 70
     0
  3
ISO long-dash double-short-dash ____ __ __ ____
 72
    65
 73
     6
 40
45.0
 49
24.0
 74
     0
 49
-3.0
 74
     0
 49
6.0
 74
     0
 49
-3.0
 74
     0
 49
6.0
 74
     0
 49
-3.0
 74
     0
  0
LTYPE
  5
3C
330
5
100
AcDbSymbolTableRecord
100
AcDbLinetypeTableRecord
  2
ACAD_ISO10W100
 70
     0
  3
ISO dash dot __ . __ . __ . __ . __ . __ . __ .
 72
    65
 73
     4
 40
18.0
 49
12.0
 74
     0
 49
-3.0
 74
     0
 49
0.0
 74
     0
 49
-3.0
 74
     0
  0
LTYPE
  5
3D
330
5
100
AcDbSymbolTableRecord
100
AcDbLinetypeTableRecord
  2
ACAD_ISO11W100
 70
     0
  3
ISO double-dash dot __ __ . __ __ . __ __ . __ 
 72
    65
 73
     6
 40
33.0
 49
12.0
 74
     0
 49
-3.0
 74
     0
 49
12.0
 74
     0
 49
-3.0
 74
     0
 49
0.0
 74
     0
 49
-3.0
 74
     0
  0
LTYPE
  5
3E
330
5
100
AcDbSymbolTableRecord
100
AcDbLinetypeTableRecord
  2
ACAD_ISO12W100
 70
     0
  3
ISO dash double-dot __ . . __ . . __ . . __ . .
 72
    65
 73
     6
 40
21.0
 49
12.0
 74
     0
 49
-3.0
 74
     0
 49
0.0
 74
     0
 49
-3.0
 74
     0
 49
0.0
 74
     0
 49
-3.0
 74
     0
  0
LTYPE
  5
3F
330
5
100
AcDbSymbolTableRecord
100
AcDbLinetypeTableRecord
  2
ACAD_ISO13W100
 70
     0
  3
ISO double-dash double-dot __ __ . . __ __ . . 
 72
    65
 73
     8
 40
36.0
 49
12.0
 74
     0
 49
-3.0
 74
     0
 49
12.0
 74
     0
 49
-3.0
 74
     0
 49
0.0
 74
     0
 49
-3.0
 74
     0
 49
0.0
 74
     0
 49
-3.0
 74
     0
  0
LTYPE
  5
40
330
5
100
AcDbSymbolTableRecord
100
AcDbLinetypeTableRecord
  2
ACAD_ISO14W100
 70
     0
  3
ISO dash triple-dot __ . . . __ . . . __ . . . 
 72
    65
 73
     8
 40
24.0
 49
12.0
 74
     0
 49
-3.0
 74
     0
 49
0.0
 74
     0
 49
-3.0
 74
     0
 49
0.0
 74
     0
 49
-3.0
 74
     0
 49
0.0
 74
     0
 49
-3.0
 74
     0
  0
LTYPE
  5
41
330
5
100
AcDbSymbolTableRecord
100
AcDbLinetypeTableRecord
  2
ACAD_ISO15W100
 70
     0
  3
ISO double-dash triple-dot __ __ . . . __ __ . 
 72
    65
 73
    10
 40
39.0
 49
12.0
 74
     0
 49
-3.0
 74
     0
 49
12.0
 74
     0
 49
-3.0
 74
     0
 49
0.0
 74
     0
 49
-3.0
 74
     0
 49
0.0
 74
     0
 49
-3.0
 74
     0
 49
0.0
 74
     0
 49
-3.0
 74
     0
  0
LTYPE
  5
42
330
5
100
AcDbSymbolTableRecord
100
AcDbLinetypeTableRecord
  2
BATTING
 70
     0
  3
Batting SSSSSSSSSSSSSSSSSSSSSSSSSSSSSSSSSSSSSSS
 72
    65
 73
     4
 40
10.16254
 49
0.00254
 74
     0
 49
-2.54
 74
     4
 75
   134
340
33
 46
2.54
 50
0.0
 44
-2.54
 45
0.0
 49
-5.08
 74
     4
 75
   134
340
33
 46
2.54
 50
180.0
 44
2.54
 45
0.0
 49
-2.54
 74
     0
  0
LTYPE
  5
43
330
5
100
AcDbSymbolTableRecord
100
AcDbLinetypeTableRecord
  2
BORDER
 70
     0
  3
Border __ __ . __ __ . __ __ . __ __ . __ __ .
 72
    65
 73
     6
 40
44.45
 49
12.7
 74
     0
 49
-6.349999999999999
 74
     0
 49
12.7
 74
     0
 49
-6.349999999999999
 74
     0
 49
0.0
 74
     0
 49
-6.349999999999999
 74
     0
  0
LTYPE
  5
44
330
5
100
AcDbSymbolTableRecord
100
AcDbLinetypeTableRecord
  2
BORDER2
 70
     0
  3
Border (.5x) __.__.__.__.__.__.__.__.__.__.__.
 72
    65
 73
     6
 40
22.225
 49
6.349999999999999
 74
     0
 49
-3.174999999999999
 74
     0
 49
6.349999999999999
 74
     0
 49
-3.174999999999999
 74
     0
 49
0.0
 74
     0
 49
-3.174999999999999
 74
     0
  0
LTYPE
  5
45
330
5
100
AcDbSymbolTableRecord
100
AcDbLinetypeTableRecord
  2
BORDERX2
 70
     0
  3
Border (2x) ____  ____  .  ____  ____  .  ___
 72
    65
 73
     6
 40
88.9
 49
25.4
 74
     0
 49
-12.7
 74
     0
 49
25.4
 74
     0
 49
-12.7
 74
     0
 49
0.0
 74
     0
 49
-12.7
 74
     0
  0
LTYPE
  5
46
330
5
100
AcDbSymbolTableRecord
100
AcDbLinetypeTableRecord
  2
CENTER
 70
     0
  3
Center ____ _ ____ _ ____ _ ____ _ ____ _ ____
 72
    65
 73
     4
 40
50.8
 49
31.75
 74
     0
 49
-6.349999999999999
 74
     0
 49
6.349999999999999
 74
     0
 49
-6.349999999999999
 74
     0
  0
LTYPE
  5
47
330
5
100
AcDbSymbolTableRecord
100
AcDbLinetypeTableRecord
  2
CENTER2
 70
     0
  3
Center (.5x) ___ _ ___ _ ___ _ ___ _ ___ _ ___
 72
    65
 73
     4
 40
28.575
 49
19.05
 74
     0
 49
-3.174999999999999
 74
     0
 49
3.174999999999999
 74
     0
 49
-3.174999999999999
 74
     0
  0
LTYPE
  5
48
330
5
100
AcDbSymbolTableRecord
100
AcDbLinetypeTableRecord
  2
CENTERX2
 70
     0
  3
Center (2x) ________  __  ________  __  _____
 72
    65
 73
     4
 40
101.6
 49
63.5
 74
     0
 49
-12.7
 74
     0
 49
12.7
 74
     0
 49
-12.7
 74
     0
  0
LTYPE
  5
49
330
5
100
AcDbSymbolTableRecord
100
AcDbLinetypeTableRecord
  2
DASHDOT
 70
     0
  3
Dash dot __ . __ . __ . __ . __ . __ . __ . __
 72
    65
 73
     4
 40
25.4
 49
12.7
 74
     0
 49
-6.349999999999999
 74
     0
 49
0.0
 74
     0
 49
-6.349999999999999
 74
     0
  0
LTYPE
  5
4A
330
5
100
AcDbSymbolTableRecord
100
AcDbLinetypeTableRecord
  2
DASHDOT2
 70
     0
  3
Dash dot (.5x) _._._._._._._._._._._._._._._.
 72
    65
 73
     4
 40
12.7
 49
6.349999999999999
 74
     0
 49
-3.174999999999999
 74
     0
 49
0.0
 74
     0
 49
-3.174999999999999
 74
     0
  0
LTYPE
  5
4B
330
5
100
AcDbSymbolTableRecord
100
AcDbLinetypeTableRecord
  2
DASHDOTX2
 70
     0
  3
Dash dot (2x) ____  .  ____  .  ____  .  ___
 72
    65
 73
     4
 40
50.8
 49
25.4
 74
     0
 49
-12.7
 74
     0
 49
0.0
 74
     0
 49
-12.7
 74
     0
  0
LTYPE
  5
4C
330
5
100
AcDbSymbolTableRecord
100
AcDbLinetypeTableRecord
  2
DASHED
 70
     0
  3
Dashed __ __ __ __ __ __ __ __ __ __ __ __ __ _
 72
    65
 73
     2
 40
19.05
 49
12.7
 74
     0
 49
-6.349999999999999
 74
     0
  0
LTYPE
  5
4D
330
5
100
AcDbSymbolTableRecord
100
AcDbLinetypeTableRecord
  2
DASHED2
 70
     0
  3
Dashed (.5x) _ _ _ _ _ _ _ _ _ _ _ _ _ _ _ _ _
 72
    65
 73
     2
 40
9.524999999999998
 49
6.349999999999999
 74
     0
 49
-3.174999999999999
 74
     0
  0
LTYPE
  5
4E
330
5
100
AcDbSymbolTableRecord
100
AcDbLinetypeTableRecord
  2
DASHEDX2
 70
     0
  3
Dashed (2x) ____  ____  ____  ____  ____  ___
 72
    65
 73
     2
 40
38.1
 49
25.4
 74
     0
 49
-12.7
 74
     0
  0
LTYPE
  5
4F
330
5
100
AcDbSymbolTableRecord
100
AcDbLinetypeTableRecord
  2
DIVIDE
 70
     0
  3
Divide ____ . . ____ . . ____ . . ____ . . ____
 72
    65
 73
     6
 40
31.75
 49
12.7
 74
     0
 49
-6.349999999999999
 74
     0
 49
0.0
 74
     0
 49
-6.349999999999999
 74
     0
 49
0.0
 74
     0
 49
-6.349999999999999
 74
     0
  0
LTYPE
  5
50
330
5
100
AcDbSymbolTableRecord
100
AcDbLinetypeTableRecord
  2
DIVIDE2
 70
     0
  3
Divide (.5x) __..__..__..__..__..__..__..__.._
 72
    65
 73
     6
 40
15.875
 49
6.349999999999999
 74
     0
 49
-3.174999999999999
 74
     0
 49
0.0
 74
     0
 49
-3.174999999999999
 74
     0
 49
0.0
 74
     0
 49
-3.174999999999999
 74
     0
  0
LTYPE
  5
51
330
5
100
AcDbSymbolTableRecord
100
AcDbLinetypeTableRecord
  2
DIVIDEX2
 70
     0
  3
Divide (2x) ________  .  .  ________  .  .  _
 72
    65
 73
     6
 40
63.49999999999999
 49
25.4
 74
     0
 49
-12.7
 74
     0
 49
0.0
 74
     0
 49
-12.7
 74
     0
 49
0.0
 74
     0
 49
-12.7
 74
     0
  0
LTYPE
  5
52
330
5
100
AcDbSymbolTableRecord
100
AcDbLinetypeTableRecord
  2
DOT
 70
     0
  3
Dot . . . . . . . . . . . . . . . . . . . . . .
 72
    65
 73
     2
 40
6.349999999999999
 49
0.0
 74
     0
 49
-6.349999999999999
 74
     0
  0
LTYPE
  5
53
330
5
100
AcDbSymbolTableRecord
100
AcDbLinetypeTableRecord
  2
DOT2
 70
     0
  3
Dot (.5x) .....................................
 72
    65
 73
     2
 40
3.174999999999999
 49
0.0
 74
     0
 49
-3.174999999999999
 74
     0
  0
LTYPE
  5
54
330
5
100
AcDbSymbolTableRecord
100
AcDbLinetypeTableRecord
  2
DOTX2
 70
     0
  3
Dot (2x) .  .  .  .  .  .  .  .  .  .  .  .  . 
 72
    65
 73
     2
 40
12.7
 49
0.0
 74
     0
 49
-12.7
 74
     0
  0
LTYPE
  5
55
330
5
100
AcDbSymbolTableRecord
100
AcDbLinetypeTableRecord
  2
FENCELINE1
 70
     0
  3
Fenceline circle ----0-----0----0-----0----0---
 72
    65
 73
     4
 40
36.83
 49
6.349999999999999
 74
     0
 49
-2.54
 74
     4
 75
   133
340
33
 46
2.54
 50
0.0
 44
-2.54
 45
0.0
 49
-2.54
 74
     0
 49
25.4
 74
     0
  0
LTYPE
  5
56
330
5
100
AcDbSymbolTableRecord
100
AcDbLinetypeTableRecord
  2
FENCELINE2
 70
     0
  3
Fenceline square ----[]-----[]----[]-----[]----
 72
    65
 73
     4
 40
36.83
 49
6.349999999999999
 74
     0
 49
-2.54
 74
     4
 75
   132
340
33
 46
2.54
 50
0.0
 44
-2.54
 45
0.0
 49
-2.54
 74
     0
 49
25.4
 74
     0
  0
LTYPE
  5
57
330
5
100
AcDbSymbolTableRecord
100
AcDbLinetypeTableRecord
  2
GAS_LINE
 70
     0
  3
Gas line ----GAS----GAS----GAS----GAS----GAS---
 72
    65
 73
     3
 40
24.13
 49
12.7
 74
     0
 49
-5.08
 74
     2
 75
     0
340
11
 46
2.54
 50
0.0
 44
-2.54
 45
-1.27
  9
GAS
 49
-6.349999999999999
 74
     0
  0
LTYPE
  5
58
330
5
100
AcDbSymbolTableRecord
100
AcDbLinetypeTableRecord
  2
HIDDEN
 70
     0
  3
Hidden __ __ __ __ __ __ __ __ __ __ __ __ __ _
 72
    65
 73
     2
 40
9.524999999999998
 49
6.349999999999999
 74
     0
 49
-3.174999999999999
 74
     0
  0
LTYPE
  5
59
330
5
100
AcDbSymbolTableRecord
100
AcDbLinetypeTableRecord
  2
HIDDEN2
 70
     0
  3
Hidden (.5x) _ _ _ _ _ _ _ _ _ _ _ _ _ _ _ _ _
 72
    65
 73
     2
 40
4.762499999999999
 49
3.174999999999999
 74
     0
 49
-1.587499999999999
 74
     0
  0
LTYPE
  5
5A
330
5
100
AcDbSymbolTableRecord
100
AcDbLinetypeTableRecord
  2
HIDDENX2
 70
     0
  3
Hidden (2x) ____ ____ ____ ____ ____ ____ ____
 72
    65
 73
     2
 40
19.05
 49
12.7
 74
     0
 49
-6.349999999999999
 74
     0
  0
LTYPE
  5
5B
330
5
100
AcDbSymbolTableRecord
100
AcDbLinetypeTableRecord
  2
HOT_WATER_SUPPLY
 70
     0
  3
Hot water supply ---- HW ---- HW ---- HW ----
 72
    65
 73
     3
 40
22.86
 49
12.7
 74
     0
 49
-5.08
 74
     2
 75
     0
340
11
 46
2.54
 50
0.0
 44
-2.54
 45
-1.27
  9
HW
 49
-5.08
 74
     0
  0
LTYPE
  5
5C
330
5
100
AcDbSymbolTableRecord
100
AcDbLinetypeTableRecord
  2
PHANTOM
 70
     0
  3
Phantom ______  __  __  ______  __  __  ______
 72
    65
 73
     6
 40
63.5
 49
31.75
 74
     0
 49
-6.349999999999999
 74
     0
 49
6.349999999999999
 74
     0
 49
-6.349999999999999
 74
     0
 49
6.349999999999999
 74
     0
 49
-6.349999999999999
 74
     0
  0
LTYPE
  5
5D
330
5
100
AcDbSymbolTableRecord
100
AcDbLinetypeTableRecord
  2
PHANTOM2
 70
     0
  3
Phantom (.5x) ___ _ _ ___ _ _ ___ _ _ ___ _ _
 72
    65
 73
     6
 40
31.75
 49
15.875
 74
     0
 49
-3.174999999999999
 74
     0
 49
3.174999999999999
 74
     0
 49
-3.174999999999999
 74
     0
 49
3.174999999999999
 74
     0
 49
-3.174999999999999
 74
     0
  0
LTYPE
  5
5E
330
5
100
AcDbSymbolTableRecord
100
AcDbLinetypeTableRecord
  2
PHANTOMX2
 70
     0
  3
Phantom (2x) ____________    ____    ____   _
 72
    65
 73
     6
 40
127.0
 49
63.5
 74
     0
 49
-12.7
 74
     0
 49
12.7
 74
     0
 49
-12.7
 74
     0
 49
12.7
 74
     0
 49
-12.7
 74
     0
  0
LTYPE
  5
5F
330
5
100
AcDbSymbolTableRecord
100
AcDbLinetypeTableRecord
  2
TRACKS
 70
     0
  3
Tracks -|-|-|-|-|-|-|-|-|-|-|-|-|-|-|-|-|-|-|-|
 72
    65
 73
     2
 40
7.62
 49
3.81
 74
     4
 75
   130
340
33
 46
6.349999999999999
 50
0.0
 44
0.0
 45
0.0
 49
3.81
 74
     0
  0
LTYPE
  5
60
330
5
100
AcDbSymbolTableRecord
100
AcDbLinetypeTableRecord
  2
ZIGZAG
 70
     0
  3
Zig zag /\/\/\/\/\/\/\/\/\/\/\/\/\/\/\/\/\/\/\/
 72
    65
 73
     4
 40
20.32254
 49
0.00254
 74
     0
 49
-5.08
 74
     4
 75
   131
340
33
 46
5.08
 50
0.0
 44
-5.08
 45
0.0
 49
-10.16
 74
     4
 75
   131
340
33
 46
5.08
 50
180.0
 44
5.08
 45
0.0
 49
-5.08
 74
     0
  0
ENDTAB
  0
TABLE
  2
LAYER
  5
2
102
{ACAD_XDICTIONARY
360
2635
102
}
330
0
100
AcDbSymbolTable
 70
     9
  0
LAYER
  5
10
330
2
100
AcDbSymbolTableRecord
100
AcDbLayerTableRecord
  2
0
 70
     0
 62
     7
  6
Continuous
370
    -3
390
F
  0
LAYER
  5
C3
330
2
100
AcDbSymbolTableRecord
100
AcDbLayerTableRecord
  2
Defpoints
 70
     0
 62
     7
  6
Continuous
290
     0
370
    -3
390
F
  0
LAYER
  5
256
330
2
100
AcDbSymbolTableRecord
100
AcDbLayerTableRecord
  2
センター
 70
     0
 62
     7
  6
CENTER2
370
    18
390
F
  0
LAYER
  5
268
330
2
100
AcDbSymbolTableRecord
100
AcDbLayerTableRecord
  2
実形
 70
     0
 62
     7
  6
Continuous
370
    -3
390
F
  0
LAYER
  5
269
330
2
100
AcDbSymbolTableRecord
100
AcDbLayerTableRecord
  2
補助
 70
     0
 62
     7
  6
Continuous
370
    -3
390
F
  0
LAYER
  5
26A
330
2
100
AcDbSymbolTableRecord
100
AcDbLayerTableRecord
  2
寸法
 70
     0
 62
     7
  6
Continuous
370
    18
390
F
  0
LAYER
  5
26B
330
2
100
AcDbSymbolTableRecord
100
AcDbLayerTableRecord
  2
ハッチング
 70
     0
 62
     7
  6
Continuous
370
    18
390
F
  0
LAYER
  5
26D
330
2
100
AcDbSymbolTableRecord
100
AcDbLayerTableRecord
  2
文字
 70
     0
 62
     7
  6
Continuous
370
    -3
390
F
  0
LAYER
  5
7DE7
330
2
100
AcDbSymbolTableRecord
100
AcDbLayerTableRecord
  2
枠
 70
     0
 62
     7
  6
Continuous
370
    -3
390
F
  0
ENDTAB
  0
TABLE
  2
STYLE
  5
3
330
0
100
AcDbSymbolTable
 70
     4
  0
STYLE
  5
11
330
3
100
AcDbSymbolTableRecord
100
AcDbTextStyleTableRecord
  2
Standard
 70
     0
 40
0.0
 41
1.0
 50
0.0
 71
     0
 42
25.0
  3
txt.shx
  4
bigfont.shx
  0
STYLE
  5
33
330
3
100
AcDbSymbolTableRecord
100
AcDbTextStyleTableRecord
  2

 70
     1
 40
0.0
 41
1.0
 50
0.0
 71
     0
 42
2.5
  3
ltypeshp.shx
  4

  0
STYLE
  5
272B
330
3
100
AcDbSymbolTableRecord
100
AcDbTextStyleTableRecord
  2
MS明朝
 70
     0
 40
0.0
 41
1.0
 50
0.0
 71
     0
 42
25.0
  3
MS PMincho.ttf
  4

1001
ACAD
1000
MS PMincho
1071
    32786
  0
STYLE
  5
7E33
330
3
100
AcDbSymbolTableRecord
100
AcDbTextStyleTableRecord
  2
明朝
 70
     0
 40
0.0
 41
1.0
 50
0.0
 71
     0
 42
25.0
  3
MS Mincho.ttf
  4

1001
ACAD
1000
MS Mincho
1071
    32785
  0
ENDTAB
  0
TABLE
  2
VIEW
  5
6
330
0
100
AcDbSymbolTable
 70
     0
  0
ENDTAB
  0
TABLE
  2
UCS
  5
7
330
0
100
AcDbSymbolTable
 70
     0
  0
ENDTAB
  0
TABLE
  2
APPID
  5
9
330
0
100
AcDbSymbolTable
 70
     1
  0
APPID
  5
12
330
9
100
AcDbSymbolTableRecord
100
AcDbRegAppTableRecord
  2
ACAD
 70
     0
  0
ENDTAB
  0
TABLE
  2
DIMSTYLE
  5
A
330
0
100
AcDbSymbolTable
 70
     1
100
AcDbDimStyleTable
 71
     1
340
27
  0
DIMSTYLE
105
27
102
{ACAD_REACTORS
330
7B15
330
7B14
330
7B19
330
7B1D
330
7B22
330
7B1A
330
7B1E
330
7BC4
330
7BC5
330
167B
330
168D
330
169D
330
5ECF
330
7947
330
797C
330
7954
330
79E4
330
7A03
330
1677
330
1679
330
7076
330
70C3
330
6237
330
6238
330
6433
330
6435
330
3819
330
381A
102
}
330
A
100
AcDbSymbolTableRecord
100
AcDbDimStyleTableRecord
  2
ISO-25
 70
     0
 41
35.0
 42
65.0
 43
3.75
 44
0.0
 73
     0
 74
     0
 77
     1
 78
     8
140
25.0
141
2.5
143
0.03937007874016
147
6.25
171
     3
172
     1
271
     2
272
     2
274
     3
283
     0
284
     8
340
11
341
DA
342
D0
371
    15
372
    15
  0
ENDTAB
  0
TABLE
  2
BLOCK_RECORD
  5
1
330
0
100
AcDbSymbolTable
 70
    35
  0
BLOCK_RECORD
  5
1F
102
{ACAD_XDICTIONARY
360
264B
102
}
330
1
100
AcDbSymbolTableRecord
100
AcDbBlockTableRecord
  2
*Model_Space
340
22
  0
BLOCK_RECORD
  5
1B
330
1
100
AcDbSymbolTableRecord
100
AcDbBlockTableRecord
  2
*Paper_Space
340
1E
  0
BLOCK_RECORD
  5
23
330
1
100
AcDbSymbolTableRecord
100
AcDbBlockTableRecord
  2
*Paper_Space0
340
26
  0
BLOCK_RECORD
  5
D0
330
1
100
AcDbSymbolTableRecord
100
AcDbBlockTableRecord
  2
_DotSmall
340
0
102
{BLKREFS
331
7C6C
331
7C6D
331
7C75
331
7C76
331
7C90
331
7C91
331
7CA2
331
7CA3
331
7CAB
331
7CAC
331
7CB5
331
7CB6
331
7CBE
331
7CBF
331
7CC7
331
7CC8
331
7CCF
331
7CD0
331
7CD8
331
7CD9
331
7CE1
331
7CE2
331
7CEA
331
7CEB
331
7D5C
331
7D5D
331
7D65
331
7D66
331
7D6E
331
7D6F
331
7D93
331
7D94
331
7D9C
331
7D9D
331
7DA6
331
7DA7
331
7DB2
331
7DB3
331
7E76
331
7E77
331
7E8A
331
7E8B
102
}
  0
BLOCK_RECORD
  5
D4
330
1
100
AcDbSymbolTableRecord
100
AcDbBlockTableRecord
  2
_Origin2
340
0
  0
BLOCK_RECORD
  5
DA
330
1
100
AcDbSymbolTableRecord
100
AcDbBlockTableRecord
  2
_Open30
340
0
  0
BLOCK_RECORD
  5
16E5
330
1
100
AcDbSymbolTableRecord
100
AcDbBlockTableRecord
  2
*D4
340
0
  0
BLOCK_RECORD
  5
16FD
330
1
100
AcDbSymbolTableRecord
100
AcDbBlockTableRecord
  2
*D5
340
0
  0
BLOCK_RECORD
  5
1709
330
1
100
AcDbSymbolTableRecord
100
AcDbBlockTableRecord
  2
*D6
340
0
  0
BLOCK_RECORD
  5
1739
330
1
100
AcDbSymbolTableRecord
100
AcDbBlockTableRecord
  2
*D7
340
0
  0
BLOCK_RECORD
  5
1769
330
1
100
AcDbSymbolTableRecord
100
AcDbBlockTableRecord
  2
*D8
340
0
  0
BLOCK_RECORD
  5
2ED7
330
1
100
AcDbSymbolTableRecord
100
AcDbBlockTableRecord
  2
_Dot
340
0
102
{BLKREFS
331
7D77
331
7D78
331
7D80
331
7D81
331
7EA0
331
7EA1
331
7EB5
331
7EB6
102
}
  0
BLOCK_RECORD
  5
381B
330
1
100
AcDbSymbolTableRecord
100
AcDbBlockTableRecord
  2
*D10
340
0
  0
BLOCK_RECORD
  5
3827
330
1
100
AcDbSymbolTableRecord
100
AcDbBlockTableRecord
  2
*D11
340
0
  0
BLOCK_RECORD
  5
388E
102
{ACAD_XDICTIONARY
360
3890
102
}
330
1
100
AcDbSymbolTableRecord
100
AcDbBlockTableRecord
  2
A$C4E395AB2
340
0
  0
BLOCK_RECORD
  5
49DC
102
{ACAD_XDICTIONARY
360
49DF
102
}
330
1
100
AcDbSymbolTableRecord
100
AcDbBlockTableRecord
  2
A$C23847E86
340
0
  0
BLOCK_RECORD
  5
5ED0
330
1
100
AcDbSymbolTableRecord
100
AcDbBlockTableRecord
  2
*D14
340
0
  0
BLOCK_RECORD
  5
6239
330
1
100
AcDbSymbolTableRecord
100
AcDbBlockTableRecord
  2
*D15
340
0
  0
BLOCK_RECORD
  5
6245
330
1
100
AcDbSymbolTableRecord
100
AcDbBlockTableRecord
  2
*D16
340
0
  0
BLOCK_RECORD
  5
6436
330
1
100
AcDbSymbolTableRecord
100
AcDbBlockTableRecord
  2
*D17
340
0
  0
BLOCK_RECORD
  5
6442
330
1
100
AcDbSymbolTableRecord
100
AcDbBlockTableRecord
  2
*D18
340
0
  0
BLOCK_RECORD
  5
7077
330
1
100
AcDbSymbolTableRecord
100
AcDbBlockTableRecord
  2
*D19
340
0
  0
BLOCK_RECORD
  5
70C4
330
1
100
AcDbSymbolTableRecord
100
AcDbBlockTableRecord
  2
*D20
340
0
  0
BLOCK_RECORD
  5
7948
330
1
100
AcDbSymbolTableRecord
100
AcDbBlockTableRecord
  2
*D21
340
0
  0
BLOCK_RECORD
  5
7955
330
1
100
AcDbSymbolTableRecord
100
AcDbBlockTableRecord
  2
*D22
340
0
  0
BLOCK_RECORD
  5
797D
330
1
100
AcDbSymbolTableRecord
100
AcDbBlockTableRecord
  2
*D23
340
0
  0
BLOCK_RECORD
  5
79E5
330
1
100
AcDbSymbolTableRecord
100
AcDbBlockTableRecord
  2
*D24
340
0
  0
BLOCK_RECORD
  5
7A04
330
1
100
AcDbSymbolTableRecord
100
AcDbBlockTableRecord
  2
*D25
340
0
  0
BLOCK_RECORD
  5
7B23
330
1
100
AcDbSymbolTableRecord
100
AcDbBlockTableRecord
  2
*D26
340
0
  0
BLOCK_RECORD
  5
7B2A
330
1
100
AcDbSymbolTableRecord
100
AcDbBlockTableRecord
  2
*D27
340
0
  0
BLOCK_RECORD
  5
7B36
330
1
100
AcDbSymbolTableRecord
100
AcDbBlockTableRecord
  2
*D28
340
0
  0
BLOCK_RECORD
  5
7B42
330
1
100
AcDbSymbolTableRecord
100
AcDbBlockTableRecord
  2
*D29
340
0
  0
BLOCK_RECORD
  5
7B4B
330
1
100
AcDbSymbolTableRecord
100
AcDbBlockTableRecord
  2
*D30
340
0
  0
BLOCK_RECORD
  5
7B57
330
1
100
AcDbSymbolTableRecord
100
AcDbBlockTableRecord
  2
*D31
340
0
  0
BLOCK_RECORD
  5
7B5E
330
1
100
AcDbSymbolTableRecord
100
AcDbBlockTableRecord
  2
*D32
340
0
  0
BLOCK_RECORD
  5
7BC6
330
1
100
AcDbSymbolTableRecord
100
AcDbBlockTableRecord
  2
*D33
340
0
  0
BLOCK_RECORD
  5
7BD2
330
1
100
AcDbSymbolTableRecord
100
AcDbBlockTableRecord
  2
*D34
340
0
  0
ENDTAB
  0
ENDSEC
  0
SECTION
  2
BLOCKS
  0
BLOCK
  5
20
330
1F
100
AcDbEntity
  8
0
100
AcDbBlockBegin
  2
*Model_Space
 70
     0
 10
0.0
 20
0.0
 30
0.0
  3
*Model_Space
  1

  0
ENDBLK
  5
21
330
1F
100
AcDbEntity
  8
0
100
AcDbBlockEnd
  0
BLOCK
  5
1C
330
1B
100
AcDbEntity
 67
     1
  8
0
100
AcDbBlockBegin
  2
*Paper_Space
 70
     0
 10
0.0
 20
0.0
 30
0.0
  3
*Paper_Space
  1

  0
ENDBLK
  5
1D
330
1B
100
AcDbEntity
 67
     1
  8
0
100
AcDbBlockEnd
  0
BLOCK
  5
24
330
23
100
AcDbEntity
  8
0
100
AcDbBlockBegin
  2
*Paper_Space0
 70
     0
 10
0.0
 20
0.0
 30
0.0
  3
*Paper_Space0
  1

  0
ENDBLK
  5
25
330
23
100
AcDbEntity
  8
0
100
AcDbBlockEnd
  0
BLOCK
  5
D2
330
D0
100
AcDbEntity
  8
0
100
AcDbBlockBegin
  2
_DotSmall
 70
     0
 10
0.0
 20
0.0
 30
0.0
  3
_DotSmall
  1

  0
LWPOLYLINE
  5
D1
330
D0
100
AcDbEntity
  8
0
 62
     0
100
AcDbPolyline
 90
        2
 70
     1
 43
0.5
 10
-0.0625
 20
0.0
 42
1.0
 10
0.0625
 20
0.0
 42
1.0
  0
ENDBLK
  5
D3
330
D0
100
AcDbEntity
  8
0
100
AcDbBlockEnd
  0
BLOCK
  5
D8
330
D4
100
AcDbEntity
  8
0
100
AcDbBlockBegin
  2
_Origin2
 70
     0
 10
0.0
 20
0.0
 30
0.0
  3
_Origin2
  1

  0
CIRCLE
  5
D5
330
D4
100
AcDbEntity
  8
0
 62
     0
370
    -2
100
AcDbCircle
 10
0.0
 20
0.0
 30
0.0
 40
0.5
  0
CIRCLE
  5
D6
330
D4
100
AcDbEntity
  8
0
 62
     0
370
    -2
100
AcDbCircle
 10
0.0
 20
0.0
 30
0.0
 40
0.25
  0
LINE
  5
D7
330
D4
100
AcDbEntity
  8
0
 62
     0
370
    -2
100
AcDbLine
 10
-0.5
 20
0.0
 30
0.0
 11
-1.0
 21
0.0
 31
0.0
  0
ENDBLK
  5
D9
330
D4
100
AcDbEntity
  8
0
100
AcDbBlockEnd
  0
BLOCK
  5
DE
330
DA
100
AcDbEntity
  8
0
100
AcDbBlockBegin
  2
_Open30
 70
     0
 10
0.0
 20
0.0
 30
0.0
  3
_Open30
  1

  0
LINE
  5
DB
330
DA
100
AcDbEntity
  8
0
 62
     0
370
    -2
100
AcDbLine
 10
-1.0
 20
0.26794919
 30
0.0
 11
0.0
 21
0.0
 31
0.0
  0
LINE
  5
DC
330
DA
100
AcDbEntity
  8
0
 62
     0
370
    -2
100
AcDbLine
 10
0.0
 20
0.0
 30
0.0
 11
-1.0
 21
-0.26794919
 31
0.0
  0
LINE
  5
DD
330
DA
100
AcDbEntity
  8
0
 62
     0
370
    -2
100
AcDbLine
 10
0.0
 20
0.0
 30
0.0
 11
-1.0
 21
0.0
 31
0.0
  0
ENDBLK
  5
DF
330
DA
100
AcDbEntity
  8
0
100
AcDbBlockEnd
  0
BLOCK
  5
16EF
330
16E5
100
AcDbEntity
  8
0
100
AcDbBlockBegin
  2
*D4
 70
     1
 10
0.0
 20
0.0
 30
0.0
  3
*D4
  1

  0
LINE
  5
7D6B
330
16E5
100
AcDbEntity
  8
寸法
 62
     0
370
    15
100
AcDbLine
 10
1357.155358395523
 20
1122.517091367211
 30
0.0
 11
1357.155358395523
 21
1074.147751339128
 31
0.0
  0
LINE
  5
7D6C
330
16E5
100
AcDbEntity
  8
寸法
 62
     0
370
    15
100
AcDbLine
 10
1917.155358395523
 20
1122.517091367211
 30
0.0
 11
1917.155358395523
 21
1074.147751339128
 31
0.0
  0
LINE
  5
7D6D
330
16E5
100
AcDbEntity
  8
寸法
 62
     0
370
    15
100
AcDbLine
 10
1357.155358395523
 20
1074.147751339128
 30
0.0
 11
1917.155358395523
 21
1074.147751339128
 31
0.0
  0
INSERT
  5
7D6E
330
16E5
100
AcDbEntity
  8
寸法
 62
     0
370
    15
100
AcDbBlockReference
  2
_DotSmall
 10
1357.155358395523
 20
1074.147751339128
 30
0.0
 41
35.0
 42
35.0
 43
35.0
 50
180.0
  0
INSERT
  5
7D6F
330
16E5
100
AcDbEntity
  8
寸法
 62
     0
370
    15
100
AcDbBlockReference
  2
_DotSmall
 10
1917.155358395523
 20
1074.147751339128
 30
0.0
 41
35.0
 42
35.0
 43
35.0
  0
MTEXT
  5
7D70
330
16E5
100
AcDbEntity
  8
寸法
 62
     0
100
AcDbMText
 10
1637.155358395523
 20
1092.897751339128
 30
0.0
 40
25.0
 41
0.0
 71
     5
 72
     1
  1
560
 73
     1
 44
1.0
1001
ACAD
1000
MTEXTBEGIN
1070
    73
1070
     1
1070
    44
1040
1.0
1070
    74
1070
     0
1000
MTEXTEND
  0
POINT
  5
7D71
330
16E5
100
AcDbEntity
  8
Defpoints
 62
     0
100
AcDbPoint
 10
1357.155358395523
 20
1187.517091367211
 30
0.0
  0
POINT
  5
7D72
330
16E5
100
AcDbEntity
  8
Defpoints
 62
     0
100
AcDbPoint
 10
1917.155358395523
 20
1187.517091367211
 30
0.0
  0
POINT
  5
7D73
330
16E5
100
AcDbEntity
  8
Defpoints
 62
     0
100
AcDbPoint
 10
1917.155358395523
 20
1074.147751339128
 30
0.0
  0
ENDBLK
  5
16F0
330
16E5
100
AcDbEntity
  8
0
100
AcDbBlockEnd
  0
BLOCK
  5
1707
330
16FD
100
AcDbEntity
  8
0
100
AcDbBlockBegin
  2
*D5
 70
     1
 10
0.0
 20
0.0
 30
0.0
  3
*D5
  1

  0
LINE
  5
7C8D
330
16FD
100
AcDbEntity
  8
寸法
 62
     0
370
    15
100
AcDbLine
 10
1606.625806853204
 20
1432.517091367211
 30
0.0
 11
1648.612087999951
 21
1432.517091367211
 31
0.0
  0
LINE
  5
7C8E
330
16FD
100
AcDbEntity
  8
寸法
 62
     0
370
    15
100
AcDbLine
 10
1442.155358395523
 20
1637.517091367211
 30
0.0
 11
1648.612087999951
 21
1637.517091367211
 31
0.0
  0
LINE
  5
7C8F
330
16FD
100
AcDbEntity
  8
寸法
 62
     0
370
    15
100
AcDbLine
 10
1648.612087999951
 20
1432.517091367211
 30
0.0
 11
1648.612087999951
 21
1637.517091367211
 31
0.0
  0
INSERT
  5
7C90
330
16FD
100
AcDbEntity
  8
寸法
 62
     0
370
    15
100
AcDbBlockReference
  2
_DotSmall
 10
1648.612087999951
 20
1432.517091367211
 30
0.0
 41
35.0
 42
35.0
 43
35.0
 50
270.0
  0
INSERT
  5
7C91
330
16FD
100
AcDbEntity
  8
寸法
 62
     0
370
    15
100
AcDbBlockReference
  2
_DotSmall
 10
1648.612087999951
 20
1637.517091367211
 30
0.0
 41
35.0
 42
35.0
 43
35.0
 50
90.0
  0
MTEXT
  5
7C92
330
16FD
100
AcDbEntity
  8
寸法
 62
     0
100
AcDbMText
 10
1629.86208799995
 20
1527.517091367211
 30
0.0
 40
25.0
 41
0.0
 71
     5
 72
     1
  1
205
 11
0.0000000000000001
 21
1.0
 31
0.0
 73
     1
 44
1.0
1001
ACAD
1000
MTEXTBEGIN
1070
    73
1070
     1
1070
    44
1040
1.0
1070
    74
1070
     0
1000
MTEXTEND
  0
POINT
  5
7C93
330
16FD
100
AcDbEntity
  8
Defpoints
 62
     0
100
AcDbPoint
 10
1541.625806853204
 20
1432.517091367211
 30
0.0
  0
POINT
  5
7C94
330
16FD
100
AcDbEntity
  8
Defpoints
 62
     0
100
AcDbPoint
 10
1377.155358395523
 20
1637.517091367211
 30
0.0
  0
POINT
  5
7C95
330
16FD
100
AcDbEntity
  8
Defpoints
 62
     0
100
AcDbPoint
 10
1648.612087999951
 20
1637.517091367211
 30
0.0
  0
ENDBLK
  5
1708
330
16FD
100
AcDbEntity
  8
0
100
AcDbBlockEnd
  0
BLOCK
  5
1713
330
1709
100
AcDbEntity
  8
0
100
AcDbBlockBegin
  2
*D6
 70
     1
 10
0.0
 20
0.0
 30
0.0
  3
*D6
  1

  0
LINE
  5
7CE7
330
1709
100
AcDbEntity
  8
寸法
 62
     0
370
    15
100
AcDbLine
 10
1357.155358395523
 20
1252.517091367211
 30
0.0
 11
1357.155358395523
 21
1309.196731626641
 31
0.0
  0
LINE
  5
7CE8
330
1709
100
AcDbEntity
  8
寸法
 62
     0
370
    15
100
AcDbLine
 10
1507.155358395523
 20
1367.517091367211
 30
0.0
 11
1507.155358395523
 21
1309.196731626641
 31
0.0
  0
LINE
  5
7CE9
330
1709
100
AcDbEntity
  8
寸法
 62
     0
370
    15
100
AcDbLine
 10
1357.155358395523
 20
1309.196731626641
 30
0.0
 11
1507.155358395523
 21
1309.196731626641
 31
0.0
  0
INSERT
  5
7CEA
330
1709
100
AcDbEntity
  8
寸法
 62
     0
370
    15
100
AcDbBlockReference
  2
_DotSmall
 10
1357.155358395523
 20
1309.196731626641
 30
0.0
 41
35.0
 42
35.0
 43
35.0
 50
180.0
  0
INSERT
  5
7CEB
330
1709
100
AcDbEntity
  8
寸法
 62
     0
370
    15
100
AcDbBlockReference
  2
_DotSmall
 10
1507.155358395523
 20
1309.196731626641
 30
0.0
 41
35.0
 42
35.0
 43
35.0
  0
MTEXT
  5
7CEC
330
1709
100
AcDbEntity
  8
寸法
 62
     0
100
AcDbMText
 10
1432.155358395523
 20
1327.946731626641
 30
0.0
 40
25.0
 41
0.0
 71
     5
 72
     1
  1
150
 73
     1
 44
1.0
1001
ACAD
1000
MTEXTBEGIN
1070
    73
1070
     1
1070
    44
1040
1.0
1070
    74
1070
     0
1000
MTEXTEND
  0
POINT
  5
7CED
330
1709
100
AcDbEntity
  8
Defpoints
 62
     0
100
AcDbPoint
 10
1357.155358395523
 20
1317.51709136721
 30
0.0
  0
POINT
  5
7CEE
330
1709
100
AcDbEntity
  8
Defpoints
 62
     0
100
AcDbPoint
 10
1507.155358395523
 20
1432.51709136721
 30
0.0
  0
POINT
  5
7CEF
330
1709
100
AcDbEntity
  8
Defpoints
 62
     0
100
AcDbPoint
 10
1507.155358395523
 20
1309.196731626641
 30
0.0
  0
ENDBLK
  5
1714
330
1709
100
AcDbEntity
  8
0
100
AcDbBlockEnd
  0
BLOCK
  5
1743
330
1739
100
AcDbEntity
  8
0
100
AcDbBlockBegin
  2
*D7
 70
     1
 10
0.0
 20
0.0
 30
0.0
  3
*D7
  1

  0
LINE
  5
7CDE
330
1739
100
AcDbEntity
  8
寸法
 62
     0
370
    15
100
AcDbLine
 10
1227.155358395523
 20
1395.654670628226
 30
0.0
 11
1227.155358395523
 21
1338.441053857747
 31
0.0
  0
LINE
  5
7CDF
330
1739
100
AcDbEntity
  8
寸法
 62
     0
370
    15
100
AcDbLine
 10
1337.155358395523
 20
1375.654670628226
 30
0.0
 11
1337.155358395523
 21
1338.441053857747
 31
0.0
  0
LINE
  5
7CE0
330
1739
100
AcDbEntity
  8
寸法
 62
     0
370
    15
100
AcDbLine
 10
1227.155358395523
 20
1338.441053857747
 30
0.0
 11
1337.155358395523
 21
1338.441053857747
 31
0.0
  0
INSERT
  5
7CE1
330
1739
100
AcDbEntity
  8
寸法
 62
     0
370
    15
100
AcDbBlockReference
  2
_DotSmall
 10
1227.155358395523
 20
1338.441053857747
 30
0.0
 41
35.0
 42
35.0
 43
35.0
 50
180.0
  0
INSERT
  5
7CE2
330
1739
100
AcDbEntity
  8
寸法
 62
     0
370
    15
100
AcDbBlockReference
  2
_DotSmall
 10
1337.155358395523
 20
1338.441053857747
 30
0.0
 41
35.0
 42
35.0
 43
35.0
  0
MTEXT
  5
7CE3
330
1739
100
AcDbEntity
  8
寸法
 62
     0
100
AcDbMText
 10
1282.155358395523
 20
1357.191053857747
 30
0.0
 40
25.0
 41
0.0
 71
     5
 72
     1
  1
110
 73
     1
 44
1.0
1001
ACAD
1000
MTEXTBEGIN
1070
    73
1070
     1
1070
    44
1040
1.0
1070
    74
1070
     0
1000
MTEXTEND
  0
POINT
  5
7CE4
330
1739
100
AcDbEntity
  8
Defpoints
 62
     0
100
AcDbPoint
 10
1227.155358395523
 20
1460.654670628226
 30
0.0
  0
POINT
  5
7CE5
330
1739
100
AcDbEntity
  8
Defpoints
 62
     0
100
AcDbPoint
 10
1337.155358395523
 20
1310.654670628226
 30
0.0
  0
POINT
  5
7CE6
330
1739
100
AcDbEntity
  8
Defpoints
 62
     0
100
AcDbPoint
 10
1337.155358395523
 20
1338.441053857747
 30
0.0
  0
ENDBLK
  5
1744
330
1739
100
AcDbEntity
  8
0
100
AcDbBlockEnd
  0
BLOCK
  5
1773
330
1769
100
AcDbEntity
  8
0
100
AcDbBlockBegin
  2
*D8
 70
     1
 10
0.0
 20
0.0
 30
0.0
  3
*D8
  1

  0
LINE
  5
7CD5
330
1769
100
AcDbEntity
  8
寸法
 62
     0
370
    15
100
AcDbLine
 10
1057.155358395523
 20
1122.517091367211
 30
0.0
 11
1057.155358395523
 21
1074.147751339128
 31
0.0
  0
LINE
  5
7CD6
330
1769
100
AcDbEntity
  8
寸法
 62
     0
370
    15
100
AcDbLine
 10
1337.155358395523
 20
1122.517091367211
 30
0.0
 11
1337.155358395523
 21
1074.147751339128
 31
0.0
  0
LINE
  5
7CD7
330
1769
100
AcDbEntity
  8
寸法
 62
     0
370
    15
100
AcDbLine
 10
1057.155358395523
 20
1074.147751339128
 30
0.0
 11
1337.155358395523
 21
1074.147751339128
 31
0.0
  0
INSERT
  5
7CD8
330
1769
100
AcDbEntity
  8
寸法
 62
     0
370
    15
100
AcDbBlockReference
  2
_DotSmall
 10
1057.155358395523
 20
1074.147751339128
 30
0.0
 41
35.0
 42
35.0
 43
35.0
 50
180.0
  0
INSERT
  5
7CD9
330
1769
100
AcDbEntity
  8
寸法
 62
     0
370
    15
100
AcDbBlockReference
  2
_DotSmall
 10
1337.155358395523
 20
1074.147751339128
 30
0.0
 41
35.0
 42
35.0
 43
35.0
  0
MTEXT
  5
7CDA
330
1769
100
AcDbEntity
  8
寸法
 62
     0
100
AcDbMText
 10
1197.155358395523
 20
1092.897751339128
 30
0.0
 40
25.0
 41
0.0
 71
     5
 72
     1
  1
280
 73
     1
 44
1.0
1001
ACAD
1000
MTEXTBEGIN
1070
    73
1070
     1
1070
    44
1040
1.0
1070
    74
1070
     0
1000
MTEXTEND
  0
POINT
  5
7CDB
330
1769
100
AcDbEntity
  8
Defpoints
 62
     0
100
AcDbPoint
 10
1057.155358395523
 20
1187.517091367211
 30
0.0
  0
POINT
  5
7CDC
330
1769
100
AcDbEntity
  8
Defpoints
 62
     0
100
AcDbPoint
 10
1337.155358395523
 20
1187.517091367211
 30
0.0
  0
POINT
  5
7CDD
330
1769
100
AcDbEntity
  8
Defpoints
 62
     0
100
AcDbPoint
 10
1337.155358395523
 20
1074.147751339128
 30
0.0
  0
ENDBLK
  5
1774
330
1769
100
AcDbEntity
  8
0
100
AcDbBlockEnd
  0
BLOCK
  5
2ED8
330
2ED7
100
AcDbEntity
  8
0
100
AcDbBlockBegin
  2
_Dot
 70
     0
 10
0.0
 20
0.0
 30
0.0
  3
_Dot
  1

  0
LWPOLYLINE
  5
2ED9
330
2ED7
100
AcDbEntity
  8
0
 62
     0
100
AcDbPolyline
 90
        2
 70
     1
 43
0.5
 10
-0.25
 20
0.0
 42
1.0
 10
0.25
 20
0.0
 42
1.0
  0
LINE
  5
2EDA
330
2ED7
100
AcDbEntity
  8
0
 62
     0
370
    -2
100
AcDbLine
 10
-0.5
 20
0.0
 30
0.0
 11
-1.0
 21
0.0
 31
0.0
  0
ENDBLK
  5
2EDB
330
2ED7
100
AcDbEntity
  8
0
100
AcDbBlockEnd
  0
BLOCK
  5
3825
330
381B
100
AcDbEntity
  8
0
 62
     3
100
AcDbBlockBegin
  2
*D10
 70
     1
 10
0.0
 20
0.0
 30
0.0
  3
*D10
  1

  0
LINE
  5
7E9D
330
381B
100
AcDbEntity
  8
実形
 62
     0
370
    18
100
AcDbLine
 10
463.3585858317078
 20
1479.517091367211
 30
0.0
 11
420.3585858317079
 21
1479.517091367211
 31
0.0
  0
LINE
  5
7E9E
330
381B
100
AcDbEntity
  8
実形
 62
     0
370
    18
100
AcDbLine
 10
463.3585858317073
 20
1385.517091367211
 30
0.0
 11
420.3585858317078
 21
1385.517091367211
 31
0.0
  0
LINE
  5
7E9F
330
381B
100
AcDbEntity
  8
実形
 62
     0
370
    18
100
AcDbLine
 10
420.3585858317079
 20
1469.517091367212
 30
0.0
 11
420.3585858317078
 21
1395.517091367211
 31
0.0
  0
INSERT
  5
7EA0
330
381B
100
AcDbEntity
  8
実形
 62
     0
370
    18
100
AcDbBlockReference
  2
_Dot
 10
420.3585858317079
 20
1479.517091367211
 30
0.0
 41
10.0
 42
10.0
 43
10.0
 50
90.0
  0
INSERT
  5
7EA1
330
381B
100
AcDbEntity
  8
実形
 62
     0
370
    18
100
AcDbBlockReference
  2
_Dot
 10
420.3585858317078
 20
1385.517091367211
 30
0.0
 41
10.0
 42
10.0
 43
10.0
 50
270.0
  0
MTEXT
  5
7EA2
330
381B
100
AcDbEntity
  8
実形
 62
     0
100
AcDbMText
 10
398.7585858317077
 20
1432.517091367211
 30
0.0
 40
30.0
 41
0.0
 71
     5
 72
     1
  1
94
 11
0.0000000000000001
 21
1.0
 31
0.0
 73
     1
 44
1.0
1001
ACAD
1000
MTEXTBEGIN
1070
    73
1070
     1
1070
    44
1040
1.0
1070
    74
1070
     0
1000
MTEXTEND
  0
POINT
  5
7EA3
330
381B
100
AcDbEntity
  8
Defpoints
 62
     0
100
AcDbPoint
 10
528.3585858317078
 20
1479.517091367211
 30
0.0
  0
POINT
  5
7EA4
330
381B
100
AcDbEntity
  8
Defpoints
 62
     0
100
AcDbPoint
 10
528.3585858317073
 20
1385.517091367211
 30
0.0
  0
POINT
  5
7EA5
330
381B
100
AcDbEntity
  8
Defpoints
 62
     0
100
AcDbPoint
 10
420.3585858317078
 20
1385.517091367211
 30
0.0
  0
ENDBLK
  5
3826
330
381B
100
AcDbEntity
  8
0
 62
     3
100
AcDbBlockEnd
  0
BLOCK
  5
3831
330
3827
100
AcDbEntity
  8
0
 62
     3
100
AcDbBlockBegin
  2
*D11
 70
     1
 10
0.0
 20
0.0
 30
0.0
  3
*D11
  1

  0
LINE
  5
7EB2
330
3827
100
AcDbEntity
  8
実形
 62
     0
370
    18
100
AcDbLine
 10
463.894886475186
 20
1490.017091367211
 30
0.0
 11
369.6515149135271
 21
1490.017091367211
 31
0.0
  0
LINE
  5
7EB3
330
3827
100
AcDbEntity
  8
実形
 62
     0
370
    18
100
AcDbLine
 10
462.3563017853798
 20
1375.017091367211
 30
0.0
 11
369.6515149135271
 21
1375.017091367211
 31
0.0
  0
LINE
  5
7EB4
330
3827
100
AcDbEntity
  8
実形
 62
     0
370
    18
100
AcDbLine
 10
369.6515149135271
 20
1480.017091367211
 30
0.0
 11
369.6515149135271
 21
1385.017091367211
 31
0.0
  0
INSERT
  5
7EB5
330
3827
100
AcDbEntity
  8
実形
 62
     0
370
    18
100
AcDbBlockReference
  2
_Dot
 10
369.6515149135271
 20
1490.017091367211
 30
0.0
 41
10.0
 42
10.0
 43
10.0
 50
90.0
  0
INSERT
  5
7EB6
330
3827
100
AcDbEntity
  8
実形
 62
     0
370
    18
100
AcDbBlockReference
  2
_Dot
 10
369.6515149135271
 20
1375.017091367211
 30
0.0
 41
10.0
 42
10.0
 43
10.0
 50
270.0
  0
MTEXT
  5
7EB7
330
3827
100
AcDbEntity
  8
実形
 62
     0
100
AcDbMText
 10
348.0515149135269
 20
1432.517091367211
 30
0.0
 40
30.0
 41
0.0
 71
     5
 72
     1
  1
115
 11
0.0000000000000001
 21
1.0
 31
0.0
 73
     1
 44
1.0
1001
ACAD
1000
MTEXTBEGIN
1070
    73
1070
     1
1070
    44
1040
1.0
1070
    74
1070
     0
1000
MTEXTEND
  0
POINT
  5
7EB8
330
3827
100
AcDbEntity
  8
Defpoints
 62
     0
100
AcDbPoint
 10
528.8948864751859
 20
1490.017091367211
 30
0.0
  0
POINT
  5
7EB9
330
3827
100
AcDbEntity
  8
Defpoints
 62
     0
100
AcDbPoint
 10
527.3563017853798
 20
1375.017091367211
 30
0.0
  0
POINT
  5
7EBA
330
3827
100
AcDbEntity
  8
Defpoints
 62
     0
100
AcDbPoint
 10
369.6515149135271
 20
1375.017091367211
 30
0.0
  0
ENDBLK
  5
3832
330
3827
100
AcDbEntity
  8
0
 62
     3
100
AcDbBlockEnd
  0
BLOCK
  5
3892
330
388E
100
AcDbEntity
  8
0
 62
     3
100
AcDbBlockBegin
  2
A$C4E395AB2
 70
     0
 10
0.0
 20
0.0
 30
0.0
  3
A$C4E395AB2
  1

  0
TEXT
  5
388F
330
388E
100
AcDbEntity
  8
寸法
 62
     0
100
AcDbText
 10
0.0000147323662536
 20
0.0000153190912897
 30
0.0
 40
60.0
  1
36φ
 11
0.0000147323662532
 21
-7.99998468090871
 31
0.0
100
AcDbText
 73
     1
  0
ENDBLK
  5
3893
330
388E
100
AcDbEntity
  8
0
 62
     3
100
AcDbBlockEnd
  0
BLOCK
  5
49E1
330
49DC
100
AcDbEntity
  8
0
 62
     3
100
AcDbBlockBegin
  2
A$C23847E86
 70
     0
 10
0.0
 20
0.0
 30
0.0
  3
A$C23847E86
  1

  0
TEXT
  5
49DD
330
49DC
100
AcDbEntity
  8
寸法
100
AcDbText
 10
0.0000017526954252
 20
434.5506622631992
 30
0.0
 40
25.0
  1
20R
100
AcDbText
  0
TEXT
  5
49DE
330
49DC
100
AcDbEntity
  8
寸法
100
AcDbText
 10
478.2382265039713
 20
-0.0000001195608093
 30
0.0
 40
25.0
  1
30R
100
AcDbText
  0
ENDBLK
  5
49E2
330
49DC
100
AcDbEntity
  8
0
 62
     3
100
AcDbBlockEnd
  0
BLOCK
  5
5EDA
330
5ED0
100
AcDbEntity
  8
0
 62
     3
100
AcDbBlockBegin
  2
*D14
 70
     1
 10
0.0
 20
0.0
 30
0.0
  3
*D14
  1

  0
LINE
  5
7CCC
330
5ED0
100
AcDbEntity
  8
実形
 62
     0
370
    18
100
AcDbLine
 10
1162.155358395523
 20
1637.517091367211
 30
0.0
 11
1114.538898624033
 21
1637.517091367211
 31
0.0
  0
LINE
  5
7CCD
330
5ED0
100
AcDbEntity
  8
実形
 62
     0
370
    18
100
AcDbLine
 10
1162.155358395523
 20
1432.51709136721
 30
0.0
 11
1114.538898624032
 21
1432.51709136721
 31
0.0
  0
LINE
  5
7CCE
330
5ED0
100
AcDbEntity
  8
実形
 62
     0
370
    18
100
AcDbLine
 10
1114.538898624033
 20
1637.517091367211
 30
0.0
 11
1114.538898624032
 21
1432.51709136721
 31
0.0
  0
INSERT
  5
7CCF
330
5ED0
100
AcDbEntity
  8
実形
 62
     0
370
    18
100
AcDbBlockReference
  2
_DotSmall
 10
1114.538898624033
 20
1637.517091367211
 30
0.0
 41
35.0
 42
35.0
 43
35.0
 50
90.0
  0
INSERT
  5
7CD0
330
5ED0
100
AcDbEntity
  8
実形
 62
     0
370
    18
100
AcDbBlockReference
  2
_DotSmall
 10
1114.538898624032
 20
1432.51709136721
 30
0.0
 41
35.0
 42
35.0
 43
35.0
 50
270.0
  0
MTEXT
  5
7CD1
330
5ED0
100
AcDbEntity
  8
実形
 62
     0
100
AcDbMText
 10
1095.788898624032
 20
1535.017091367211
 30
0.0
 40
25.0
 41
0.0
 71
     5
 72
     1
  1
205
 11
0.0000000000000001
 21
1.0
 31
0.0
 73
     1
 44
1.0
1001
ACAD
1000
MTEXTBEGIN
1070
    73
1070
     1
1070
    44
1040
1.0
1070
    74
1070
     0
1000
MTEXTEND
  0
POINT
  5
7CD2
330
5ED0
100
AcDbEntity
  8
Defpoints
 62
     0
100
AcDbPoint
 10
1227.155358395523
 20
1637.517091367211
 30
0.0
  0
POINT
  5
7CD3
330
5ED0
100
AcDbEntity
  8
Defpoints
 62
     0
100
AcDbPoint
 10
1227.155358395523
 20
1432.51709136721
 30
0.0
  0
POINT
  5
7CD4
330
5ED0
100
AcDbEntity
  8
Defpoints
 62
     0
100
AcDbPoint
 10
1114.538898624032
 20
1432.51709136721
 30
0.0
  0
ENDBLK
  5
5EDB
330
5ED0
100
AcDbEntity
  8
0
 62
     3
100
AcDbBlockEnd
  0
BLOCK
  5
6243
330
6239
100
AcDbEntity
  8
0
 62
     3
100
AcDbBlockBegin
  2
*D15
 70
     1
 10
0.0
 20
0.0
 30
0.0
  3
*D15
  1

  0
LINE
  5
7C72
330
6239
100
AcDbEntity
  8
実形
 62
     0
370
    18
100
AcDbLine
 10
1587.155358395523
 20
519.9421603690645
 30
0.0
 11
1587.155358395523
 21
460.6318884539888
 31
0.0
  0
LINE
  5
7C73
330
6239
100
AcDbEntity
  8
実形
 62
     0
370
    18
100
AcDbLine
 10
1427.155358395523
 20
519.9421603690645
 30
0.0
 11
1427.155358395523
 21
460.6318884539888
 31
0.0
  0
LINE
  5
7C74
330
6239
100
AcDbEntity
  8
実形
 62
     0
370
    18
100
AcDbLine
 10
1587.155358395523
 20
460.6318884539888
 30
0.0
 11
1427.155358395523
 21
460.6318884539888
 31
0.0
  0
INSERT
  5
7C75
330
6239
100
AcDbEntity
  8
実形
 62
     0
370
    18
100
AcDbBlockReference
  2
_DotSmall
 10
1587.155358395523
 20
460.6318884539888
 30
0.0
 41
35.0
 42
35.0
 43
35.0
  0
INSERT
  5
7C76
330
6239
100
AcDbEntity
  8
実形
 62
     0
370
    18
100
AcDbBlockReference
  2
_DotSmall
 10
1427.155358395523
 20
460.6318884539888
 30
0.0
 41
35.0
 42
35.0
 43
35.0
 50
180.0
  0
MTEXT
  5
7C77
330
6239
100
AcDbEntity
  8
実形
 62
     0
100
AcDbMText
 10
1507.155358395523
 20
479.3818884539888
 30
0.0
 40
25.0
 41
0.0
 71
     5
 72
     1
  1
160
 73
     1
 44
1.0
1001
ACAD
1000
MTEXTBEGIN
1070
    73
1070
     1
1070
    44
1040
1.0
1070
    74
1070
     0
1000
MTEXTEND
  0
POINT
  5
7C78
330
6239
100
AcDbEntity
  8
Defpoints
 62
     0
100
AcDbPoint
 10
1587.155358395523
 20
584.9421603690644
 30
0.0
  0
POINT
  5
7C79
330
6239
100
AcDbEntity
  8
Defpoints
 62
     0
100
AcDbPoint
 10
1427.155358395523
 20
584.9421603690646
 30
0.0
  0
POINT
  5
7C7A
330
6239
100
AcDbEntity
  8
Defpoints
 62
     0
100
AcDbPoint
 10
1427.155358395523
 20
460.6318884539888
 30
0.0
  0
ENDBLK
  5
6244
330
6239
100
AcDbEntity
  8
0
 62
     3
100
AcDbBlockEnd
  0
BLOCK
  5
624F
330
6245
100
AcDbEntity
  8
0
 62
     3
100
AcDbBlockBegin
  2
*D16
 70
     1
 10
0.0
 20
0.0
 30
0.0
  3
*D16
  1

  0
LINE
  5
7C69
330
6245
100
AcDbEntity
  8
実形
 62
     0
370
    18
100
AcDbLine
 10
1597.655358395523
 20
519.9421603690645
 30
0.0
 11
1597.655358395523
 21
420.2113100433081
 31
0.0
  0
LINE
  5
7C6A
330
6245
100
AcDbEntity
  8
実形
 62
     0
370
    18
100
AcDbLine
 10
1416.655358395523
 20
519.9421603690645
 30
0.0
 11
1416.655358395523
 21
420.2113100433081
 31
0.0
  0
LINE
  5
7C6B
330
6245
100
AcDbEntity
  8
実形
 62
     0
370
    18
100
AcDbLine
 10
1597.655358395523
 20
420.2113100433081
 30
0.0
 11
1416.655358395523
 21
420.2113100433081
 31
0.0
  0
INSERT
  5
7C6C
330
6245
100
AcDbEntity
  8
実形
 62
     0
370
    18
100
AcDbBlockReference
  2
_DotSmall
 10
1597.655358395523
 20
420.2113100433081
 30
0.0
 41
35.0
 42
35.0
 43
35.0
  0
INSERT
  5
7C6D
330
6245
100
AcDbEntity
  8
実形
 62
     0
370
    18
100
AcDbBlockReference
  2
_DotSmall
 10
1416.655358395523
 20
420.2113100433081
 30
0.0
 41
35.0
 42
35.0
 43
35.0
 50
180.0
  0
MTEXT
  5
7C6E
330
6245
100
AcDbEntity
  8
実形
 62
     0
100
AcDbMText
 10
1507.155358395523
 20
438.9613100433081
 30
0.0
 40
25.0
 41
0.0
 71
     5
 72
     1
  1
181
 73
     1
 44
1.0
1001
ACAD
1000
MTEXTBEGIN
1070
    73
1070
     1
1070
    44
1040
1.0
1070
    74
1070
     0
1000
MTEXTEND
  0
POINT
  5
7C6F
330
6245
100
AcDbEntity
  8
Defpoints
 62
     0
100
AcDbPoint
 10
1597.655358395523
 20
584.9421603690644
 30
0.0
  0
POINT
  5
7C70
330
6245
100
AcDbEntity
  8
Defpoints
 62
     0
100
AcDbPoint
 10
1416.655358395523
 20
584.9421603690644
 30
0.0
  0
POINT
  5
7C71
330
6245
100
AcDbEntity
  8
Defpoints
 62
     0
100
AcDbPoint
 10
1416.655358395523
 20
420.2113100433081
 30
0.0
  0
ENDBLK
  5
6250
330
6245
100
AcDbEntity
  8
0
 62
     3
100
AcDbBlockEnd
  0
BLOCK
  5
6440
330
6436
100
AcDbEntity
  8
0
 62
     3
100
AcDbBlockBegin
  2
*D17
 70
     1
 10
0.0
 20
0.0
 30
0.0
  3
*D17
  1

  0
LINE
  5
7E87
330
6436
100
AcDbEntity
  8
実形
 62
     0
370
    18
100
AcDbLine
 10
1284.655358395523
 20
519.9421603690645
 30
0.0
 11
1284.655358395523
 21
415.2113100433081
 31
0.0
  0
LINE
  5
7E88
330
6436
100
AcDbEntity
  8
実形
 62
     0
370
    18
100
AcDbLine
 10
1169.655358395523
 20
519.9421603690645
 30
0.0
 11
1169.655358395523
 21
415.2113100433081
 31
0.0
  0
LINE
  5
7E89
330
6436
100
AcDbEntity
  8
実形
 62
     0
370
    18
100
AcDbLine
 10
1284.655358395523
 20
415.2113100433081
 30
0.0
 11
1169.655358395523
 21
415.2113100433081
 31
0.0
  0
INSERT
  5
7E8A
330
6436
100
AcDbEntity
  8
実形
 62
     0
370
    18
100
AcDbBlockReference
  2
_DotSmall
 10
1284.655358395523
 20
415.2113100433081
 30
0.0
 41
35.0
 42
35.0
 43
35.0
  0
INSERT
  5
7E8B
330
6436
100
AcDbEntity
  8
実形
 62
     0
370
    18
100
AcDbBlockReference
  2
_DotSmall
 10
1169.655358395523
 20
415.2113100433081
 30
0.0
 41
35.0
 42
35.0
 43
35.0
 50
180.0
  0
MTEXT
  5
7E8C
330
6436
100
AcDbEntity
  8
実形
 62
     0
100
AcDbMText
 10
1227.155358395523
 20
433.9613100433081
 30
0.0
 40
25.0
 41
0.0
 71
     5
 72
     1
  1
115
 73
     1
 44
1.0
1001
ACAD
1000
MTEXTBEGIN
1070
    73
1070
     1
1070
    44
1040
1.0
1070
    74
1070
     0
1000
MTEXTEND
  0
POINT
  5
7E8D
330
6436
100
AcDbEntity
  8
Defpoints
 62
     0
100
AcDbPoint
 10
1284.655358395523
 20
584.9421603690644
 30
0.0
  0
POINT
  5
7E8E
330
6436
100
AcDbEntity
  8
Defpoints
 62
     0
100
AcDbPoint
 10
1169.655358395523
 20
584.9421603690644
 30
0.0
  0
POINT
  5
7E8F
330
6436
100
AcDbEntity
  8
Defpoints
 62
     0
100
AcDbPoint
 10
1169.655358395523
 20
415.2113100433081
 30
0.0
  0
ENDBLK
  5
6441
330
6436
100
AcDbEntity
  8
0
 62
     3
100
AcDbBlockEnd
  0
BLOCK
  5
644C
330
6442
100
AcDbEntity
  8
0
 62
     3
100
AcDbBlockBegin
  2
*D18
 70
     1
 10
0.0
 20
0.0
 30
0.0
  3
*D18
  1

  0
LINE
  5
7E73
330
6442
100
AcDbEntity
  8
実形
 62
     0
370
    18
100
AcDbLine
 10
1274.155358395523
 20
519.9421603690645
 30
0.0
 11
1274.155358395523
 21
455.6318884539888
 31
0.0
  0
LINE
  5
7E74
330
6442
100
AcDbEntity
  8
実形
 62
     0
370
    18
100
AcDbLine
 10
1180.155358395523
 20
519.9421603690645
 30
0.0
 11
1180.155358395523
 21
455.6318884539888
 31
0.0
  0
LINE
  5
7E75
330
6442
100
AcDbEntity
  8
実形
 62
     0
370
    18
100
AcDbLine
 10
1274.155358395523
 20
455.6318884539888
 30
0.0
 11
1180.155358395523
 21
455.6318884539888
 31
0.0
  0
INSERT
  5
7E76
330
6442
100
AcDbEntity
  8
実形
 62
     0
370
    18
100
AcDbBlockReference
  2
_DotSmall
 10
1274.155358395523
 20
455.6318884539888
 30
0.0
 41
35.0
 42
35.0
 43
35.0
  0
INSERT
  5
7E77
330
6442
100
AcDbEntity
  8
実形
 62
     0
370
    18
100
AcDbBlockReference
  2
_DotSmall
 10
1180.155358395523
 20
455.6318884539888
 30
0.0
 41
35.0
 42
35.0
 43
35.0
 50
180.0
  0
MTEXT
  5
7E78
330
6442
100
AcDbEntity
  8
実形
 62
     0
100
AcDbMText
 10
1227.155358395523
 20
474.3818884539888
 30
0.0
 40
25.0
 41
0.0
 71
     5
 72
     1
  1
94
 73
     1
 44
1.0
1001
ACAD
1000
MTEXTBEGIN
1070
    73
1070
     1
1070
    44
1040
1.0
1070
    74
1070
     0
1000
MTEXTEND
  0
POINT
  5
7E79
330
6442
100
AcDbEntity
  8
Defpoints
 62
     0
100
AcDbPoint
 10
1274.155358395523
 20
584.9421603690644
 30
0.0
  0
POINT
  5
7E7A
330
6442
100
AcDbEntity
  8
Defpoints
 62
     0
100
AcDbPoint
 10
1180.155358395523
 20
584.9421603690644
 30
0.0
  0
POINT
  5
7E7B
330
6442
100
AcDbEntity
  8
Defpoints
 62
     0
100
AcDbPoint
 10
1180.155358395523
 20
455.6318884539888
 30
0.0
  0
ENDBLK
  5
644D
330
6442
100
AcDbEntity
  8
0
 62
     3
100
AcDbBlockEnd
  0
BLOCK
  5
7081
330
7077
100
AcDbEntity
  8
0
 62
     3
100
AcDbBlockBegin
  2
*D19
 70
     1
 10
0.0
 20
0.0
 30
0.0
  3
*D19
  1

  0
LINE
  5
7D62
330
7077
100
AcDbEntity
  8
実形
 62
     0
370
    18
100
AcDbLine
 10
1022.155358395523
 20
1121.326207410707
 30
0.0
 11
1022.155358395523
 21
957.0781018571276
 31
0.0
  0
LINE
  5
7D63
330
7077
100
AcDbEntity
  8
実形
 62
     0
370
    18
100
AcDbLine
 10
1952.155358395523
 20
1121.702078324637
 30
0.0
 11
1952.155358395523
 21
957.0781018571276
 31
0.0
  0
LINE
  5
7D64
330
7077
100
AcDbEntity
  8
実形
 62
     0
370
    18
100
AcDbLine
 10
1022.155358395523
 20
957.0781018571276
 30
0.0
 11
1952.155358395523
 21
957.0781018571276
 31
0.0
  0
INSERT
  5
7D65
330
7077
100
AcDbEntity
  8
実形
 62
     0
370
    18
100
AcDbBlockReference
  2
_DotSmall
 10
1022.155358395523
 20
957.0781018571276
 30
0.0
 41
35.0
 42
35.0
 43
35.0
 50
180.0
  0
INSERT
  5
7D66
330
7077
100
AcDbEntity
  8
実形
 62
     0
370
    18
100
AcDbBlockReference
  2
_DotSmall
 10
1952.155358395523
 20
957.0781018571276
 30
0.0
 41
35.0
 42
35.0
 43
35.0
  0
MTEXT
  5
7D67
330
7077
100
AcDbEntity
  8
実形
 62
     0
100
AcDbMText
 10
1487.155358395523
 20
975.8281018571276
 30
0.0
 40
25.0
 41
0.0
 71
     5
 72
     1
  1
930
 73
     1
 44
1.0
1001
ACAD
1000
MTEXTBEGIN
1070
    73
1070
     1
1070
    44
1040
1.0
1070
    74
1070
     0
1000
MTEXTEND
  0
POINT
  5
7D68
330
7077
100
AcDbEntity
  8
Defpoints
 62
     0
100
AcDbPoint
 10
1022.155358395523
 20
1186.326207410708
 30
0.0
  0
POINT
  5
7D69
330
7077
100
AcDbEntity
  8
Defpoints
 62
     0
100
AcDbPoint
 10
1952.155358395523
 20
1186.702078324637
 30
0.0
  0
POINT
  5
7D6A
330
7077
100
AcDbEntity
  8
Defpoints
 62
     0
100
AcDbPoint
 10
1952.155358395523
 20
957.0781018571276
 30
0.0
  0
ENDBLK
  5
7082
330
7077
100
AcDbEntity
  8
0
 62
     3
100
AcDbBlockEnd
  0
BLOCK
  5
70CE
330
70C4
100
AcDbEntity
  8
0
 62
     3
100
AcDbBlockBegin
  2
*D20
 70
     1
 10
0.0
 20
0.0
 30
0.0
  3
*D20
  1

  0
LINE
  5
7D59
330
70C4
100
AcDbEntity
  8
実形
 62
     0
370
    18
100
AcDbLine
 10
1037.155358395523
 20
1072.427925548517
 30
0.0
 11
1037.155358395523
 21
1009.676634767759
 31
0.0
  0
LINE
  5
7D5A
330
70C4
100
AcDbEntity
  8
実形
 62
     0
370
    18
100
AcDbLine
 10
1937.155358395523
 20
1071.420321409152
 30
0.0
 11
1937.155358395523
 21
1009.676634767759
 31
0.0
  0
LINE
  5
7D5B
330
70C4
100
AcDbEntity
  8
実形
 62
     0
370
    18
100
AcDbLine
 10
1037.155358395523
 20
1009.676634767759
 30
0.0
 11
1937.155358395523
 21
1009.676634767759
 31
0.0
  0
INSERT
  5
7D5C
330
70C4
100
AcDbEntity
  8
実形
 62
     0
370
    18
100
AcDbBlockReference
  2
_DotSmall
 10
1037.155358395523
 20
1009.676634767759
 30
0.0
 41
35.0
 42
35.0
 43
35.0
 50
180.0
  0
INSERT
  5
7D5D
330
70C4
100
AcDbEntity
  8
実形
 62
     0
370
    18
100
AcDbBlockReference
  2
_DotSmall
 10
1937.155358395523
 20
1009.676634767759
 30
0.0
 41
35.0
 42
35.0
 43
35.0
  0
MTEXT
  5
7D5E
330
70C4
100
AcDbEntity
  8
実形
 62
     0
100
AcDbMText
 10
1487.155358395523
 20
1028.426634767759
 30
0.0
 40
25.0
 41
0.0
 71
     5
 72
     1
  1
900
 73
     1
 44
1.0
1001
ACAD
1000
MTEXTBEGIN
1070
    73
1070
     1
1070
    44
1040
1.0
1070
    74
1070
     0
1000
MTEXTEND
  0
POINT
  5
7D5F
330
70C4
100
AcDbEntity
  8
Defpoints
 62
     0
100
AcDbPoint
 10
1037.155358395523
 20
1137.427925548517
 30
0.0
  0
POINT
  5
7D60
330
70C4
100
AcDbEntity
  8
Defpoints
 62
     0
100
AcDbPoint
 10
1937.155358395523
 20
1136.420321409152
 30
0.0
  0
POINT
  5
7D61
330
70C4
100
AcDbEntity
  8
Defpoints
 62
     0
100
AcDbPoint
 10
1937.155358395523
 20
1009.676634767759
 30
0.0
  0
ENDBLK
  5
70CF
330
70C4
100
AcDbEntity
  8
0
 62
     3
100
AcDbBlockEnd
  0
BLOCK
  5
7952
330
7948
100
AcDbEntity
  8
0
100
AcDbBlockBegin
  2
*D21
 70
     1
 10
0.0
 20
0.0
 30
0.0
  3
*D21
  1

  0
LINE
  5
7CC3
330
7948
100
AcDbEntity
  8
実形
 62
     0
370
    18
100
AcDbLine
 10
978.5147605214755
 20
1637.517091367211
 30
0.0
 11
932.2258960128921
 21
1637.517091367211
 31
0.0
  0
LINE
  5
7CC4
330
7948
100
AcDbEntity
  8
実形
 62
     0
370
    18
100
AcDbLine
 10
978.5147605214756
 20
1227.517091367211
 30
0.0
 11
932.225896012892
 21
1227.517091367211
 31
0.0
  0
LINE
  5
7CC5
330
7948
100
AcDbEntity
  8
実形
 62
     0
370
    18
100
AcDbLine
 10
932.2258960128921
 20
1637.517091367211
 30
0.0
 11
932.225896012892
 21
1227.517091367211
 31
0.0
  0
MTEXT
  5
7CC6
330
7948
100
AcDbEntity
  8
実形
 62
     0
100
AcDbMText
 10
913.4758960128918
 20
1435.43038038831
 30
0.0
 40
25.0
 41
0.0
 71
     5
 72
     1
  1
410
 11
0.0000000000000001
 21
1.0
 31
0.0
 73
     1
 44
1.0
1001
ACAD
1000
MTEXTBEGIN
1070
    73
1070
     1
1070
    44
1040
1.0
1070
    74
1070
     0
1000
MTEXTEND
  0
INSERT
  5
7CC7
330
7948
100
AcDbEntity
  8
実形
 62
     0
370
    18
100
AcDbBlockReference
  2
_DotSmall
 10
932.2258960128921
 20
1637.517091367211
 30
0.0
 41
35.0
 42
35.0
 43
35.0
 50
90.0
  0
INSERT
  5
7CC8
330
7948
100
AcDbEntity
  8
実形
 62
     0
370
    18
100
AcDbBlockReference
  2
_DotSmall
 10
932.225896012892
 20
1227.517091367211
 30
0.0
 41
35.0
 42
35.0
 43
35.0
 50
270.0
  0
POINT
  5
7CC9
330
7948
100
AcDbEntity
  8
Defpoints
 62
     0
100
AcDbPoint
 10
1043.514760521476
 20
1637.517091367211
 30
0.0
  0
POINT
  5
7CCA
330
7948
100
AcDbEntity
  8
Defpoints
 62
     0
100
AcDbPoint
 10
1043.514760521476
 20
1227.517091367211
 30
0.0
  0
POINT
  5
7CCB
330
7948
100
AcDbEntity
  8
Defpoints
 62
     0
100
AcDbPoint
 10
932.225896012892
 20
1227.517091367211
 30
0.0
  0
ENDBLK
  5
7953
330
7948
100
AcDbEntity
  8
0
100
AcDbBlockEnd
  0
BLOCK
  5
795F
330
7955
100
AcDbEntity
  8
0
100
AcDbBlockBegin
  2
*D22
 70
     1
 10
0.0
 20
0.0
 30
0.0
  3
*D22
  1

  0
LINE
  5
7CB1
330
7955
100
AcDbEntity
  8
実形
 62
     0
370
    18
100
AcDbLine
 10
979.992598662934
 20
1657.517091367211
 30
0.0
 11
932.2258960128921
 21
1657.517091367211
 31
0.0
  0
LINE
  5
7CB2
330
7955
100
AcDbEntity
  8
実形
 62
     0
370
    18
100
AcDbLine
 10
982.4079092576894
 20
1227.517091367211
 30
0.0
 11
932.225896012892
 21
1227.517091367211
 31
0.0
  0
LINE
  5
7CB3
330
7955
100
AcDbEntity
  8
実形
 62
     0
370
    18
100
AcDbLine
 10
932.2258960128921
 20
1657.517091367211
 30
0.0
 11
932.225896012892
 21
1227.517091367211
 31
0.0
  0
MTEXT
  5
7CB4
330
7955
100
AcDbEntity
  8
実形
 62
     0
100
AcDbMText
 10
913.4758960128918
 20
1630.693335174659
 30
0.0
 40
25.0
 41
0.0
 71
     5
 72
     1
  1
20
 11
0.0000000000000001
 21
1.0
 31
0.0
 73
     1
 44
1.0
1001
ACAD
1000
MTEXTBEGIN
1070
    73
1070
     1
1070
    44
1040
1.0
1070
    74
1070
     0
1000
MTEXTEND
  0
INSERT
  5
7CB5
330
7955
100
AcDbEntity
  8
実形
 62
     0
370
    18
100
AcDbBlockReference
  2
_DotSmall
 10
932.2258960128921
 20
1657.517091367211
 30
0.0
 41
35.0
 42
35.0
 43
35.0
 50
90.0
  0
INSERT
  5
7CB6
330
7955
100
AcDbEntity
  8
実形
 62
     0
370
    18
100
AcDbBlockReference
  2
_DotSmall
 10
932.225896012892
 20
1227.517091367211
 30
0.0
 41
35.0
 42
35.0
 43
35.0
 50
270.0
  0
POINT
  5
7CB7
330
7955
100
AcDbEntity
  8
Defpoints
 62
     0
100
AcDbPoint
 10
1044.992598662934
 20
1657.517091367211
 30
0.0
  0
POINT
  5
7CB8
330
7955
100
AcDbEntity
  8
Defpoints
 62
     0
100
AcDbPoint
 10
1047.407909257689
 20
1227.517091367211
 30
0.0
  0
POINT
  5
7CB9
330
7955
100
AcDbEntity
  8
Defpoints
 62
     0
100
AcDbPoint
 10
932.225896012892
 20
1227.517091367211
 30
0.0
  0
ENDBLK
  5
7960
330
7955
100
AcDbEntity
  8
0
100
AcDbBlockEnd
  0
BLOCK
  5
7987
330
797D
100
AcDbEntity
  8
0
100
AcDbBlockBegin
  2
*D23
 70
     1
 10
0.0
 20
0.0
 30
0.0
  3
*D23
  1

  0
LINE
  5
7CBA
330
797D
100
AcDbEntity
  8
実形
 62
     0
370
    18
100
AcDbLine
 10
981.1503460779977
 20
1207.517091367211
 30
0.0
 11
932.225896012892
 21
1207.517091367211
 31
0.0
  0
LINE
  5
7CBB
330
797D
100
AcDbEntity
  8
実形
 62
     0
370
    18
100
AcDbLine
 10
978.5147605214755
 20
1637.517091367211
 30
0.0
 11
932.2258960128921
 21
1637.517091367211
 31
0.0
  0
LINE
  5
7CBC
330
797D
100
AcDbEntity
  8
実形
 62
     0
370
    18
100
AcDbLine
 10
932.225896012892
 20
1207.517091367211
 30
0.0
 11
932.2258960128921
 21
1637.517091367211
 31
0.0
  0
MTEXT
  5
7CBD
330
797D
100
AcDbEntity
  8
実形
 62
     0
100
AcDbMText
 10
913.4758960128918
 20
1238.224271058043
 30
0.0
 40
25.0
 41
0.0
 71
     5
 72
     1
  1
20
 11
0.0000000000000001
 21
1.0
 31
0.0
 73
     1
 44
1.0
1001
ACAD
1000
MTEXTBEGIN
1070
    73
1070
     1
1070
    44
1040
1.0
1070
    74
1070
     0
1000
MTEXTEND
  0
INSERT
  5
7CBE
330
797D
100
AcDbEntity
  8
実形
 62
     0
370
    18
100
AcDbBlockReference
  2
_DotSmall
 10
932.225896012892
 20
1207.517091367211
 30
0.0
 41
35.0
 42
35.0
 43
35.0
 50
270.0
  0
INSERT
  5
7CBF
330
797D
100
AcDbEntity
  8
実形
 62
     0
370
    18
100
AcDbBlockReference
  2
_DotSmall
 10
932.2258960128921
 20
1637.517091367211
 30
0.0
 41
35.0
 42
35.0
 43
35.0
 50
90.0
  0
POINT
  5
7CC0
330
797D
100
AcDbEntity
  8
Defpoints
 62
     0
100
AcDbPoint
 10
1046.150346077998
 20
1207.517091367211
 30
0.0
  0
POINT
  5
7CC1
330
797D
100
AcDbEntity
  8
Defpoints
 62
     0
100
AcDbPoint
 10
1043.514760521476
 20
1637.517091367211
 30
0.0
  0
POINT
  5
7CC2
330
797D
100
AcDbEntity
  8
Defpoints
 62
     0
100
AcDbPoint
 10
932.2258960128921
 20
1637.517091367211
 30
0.0
  0
ENDBLK
  5
7988
330
797D
100
AcDbEntity
  8
0
100
AcDbBlockEnd
  0
BLOCK
  5
79EF
330
79E5
100
AcDbEntity
  8
0
100
AcDbBlockBegin
  2
*D24
 70
     1
 10
0.0
 20
0.0
 30
0.0
  3
*D24
  1

  0
LINE
  5
7CA8
330
79E5
100
AcDbEntity
  8
実形
 62
     0
370
    18
100
AcDbLine
 10
957.155358395523
 20
1657.517091367211
 30
0.0
 11
872.5903061959844
 21
1657.517091367211
 31
0.0
  0
LINE
  5
7CA9
330
79E5
100
AcDbEntity
  8
実形
 62
     0
370
    18
100
AcDbLine
 10
933.5430544527598
 20
1207.517091367211
 30
0.0
 11
872.5903061959844
 21
1207.517091367211
 31
0.0
  0
LINE
  5
7CAA
330
79E5
100
AcDbEntity
  8
実形
 62
     0
370
    18
100
AcDbLine
 10
872.5903061959844
 20
1657.517091367211
 30
0.0
 11
872.5903061959844
 21
1207.517091367211
 31
0.0
  0
INSERT
  5
7CAB
330
79E5
100
AcDbEntity
  8
実形
 62
     0
370
    18
100
AcDbBlockReference
  2
_DotSmall
 10
872.5903061959844
 20
1657.517091367211
 30
0.0
 41
35.0
 42
35.0
 43
35.0
 50
90.0
  0
INSERT
  5
7CAC
330
79E5
100
AcDbEntity
  8
実形
 62
     0
370
    18
100
AcDbBlockReference
  2
_DotSmall
 10
872.5903061959844
 20
1207.517091367211
 30
0.0
 41
35.0
 42
35.0
 43
35.0
 50
270.0
  0
MTEXT
  5
7CAD
330
79E5
100
AcDbEntity
  8
実形
 62
     0
100
AcDbMText
 10
853.8403061959842
 20
1432.517091367211
 30
0.0
 40
25.0
 41
0.0
 71
     5
 72
     1
  1
450
 11
0.0000000000000001
 21
1.0
 31
0.0
 73
     1
 44
1.0
1001
ACAD
1000
MTEXTBEGIN
1070
    73
1070
     1
1070
    44
1040
1.0
1070
    74
1070
     0
1000
MTEXTEND
  0
POINT
  5
7CAE
330
79E5
100
AcDbEntity
  8
Defpoints
 62
     0
100
AcDbPoint
 10
1022.155358395523
 20
1657.517091367211
 30
0.0
  0
POINT
  5
7CAF
330
79E5
100
AcDbEntity
  8
Defpoints
 62
     0
100
AcDbPoint
 10
998.5430544527599
 20
1207.517091367211
 30
0.0
  0
POINT
  5
7CB0
330
79E5
100
AcDbEntity
  8
Defpoints
 62
     0
100
AcDbPoint
 10
872.5903061959844
 20
1207.517091367211
 30
0.0
  0
ENDBLK
  5
79F0
330
79E5
100
AcDbEntity
  8
0
100
AcDbBlockEnd
  0
BLOCK
  5
7A0E
330
7A04
100
AcDbEntity
  8
0
100
AcDbBlockBegin
  2
*D25
 70
     1
 10
0.0
 20
0.0
 30
0.0
  3
*D25
  1

  0
LINE
  5
7C9F
330
7A04
100
AcDbEntity
  8
実形
 62
     0
370
    18
100
AcDbLine
 10
982.139765908917
 20
1672.517091367211
 30
0.0
 11
818.3560419872875
 21
1672.517091367211
 31
0.0
  0
LINE
  5
7CA0
330
7A04
100
AcDbEntity
  8
実形
 62
     0
370
    18
100
AcDbLine
 10
979.1089510053089
 20
1192.517091367211
 30
0.0
 11
818.3560419872874
 21
1192.517091367211
 31
0.0
  0
LINE
  5
7CA1
330
7A04
100
AcDbEntity
  8
実形
 62
     0
370
    18
100
AcDbLine
 10
818.3560419872875
 20
1672.517091367211
 30
0.0
 11
818.3560419872874
 21
1192.517091367211
 31
0.0
  0
INSERT
  5
7CA2
330
7A04
100
AcDbEntity
  8
実形
 62
     0
370
    18
100
AcDbBlockReference
  2
_DotSmall
 10
818.3560419872875
 20
1672.517091367211
 30
0.0
 41
35.0
 42
35.0
 43
35.0
 50
90.0
  0
INSERT
  5
7CA3
330
7A04
100
AcDbEntity
  8
実形
 62
     0
370
    18
100
AcDbBlockReference
  2
_DotSmall
 10
818.3560419872874
 20
1192.517091367211
 30
0.0
 41
35.0
 42
35.0
 43
35.0
 50
270.0
  0
MTEXT
  5
7CA4
330
7A04
100
AcDbEntity
  8
実形
 62
     0
100
AcDbMText
 10
799.6060419872873
 20
1432.517091367211
 30
0.0
 40
25.0
 41
0.0
 71
     5
 72
     1
  1
480
 11
0.0000000000000001
 21
1.0
 31
0.0
 73
     1
 44
1.0
1001
ACAD
1000
MTEXTBEGIN
1070
    73
1070
     1
1070
    44
1040
1.0
1070
    74
1070
     0
1000
MTEXTEND
  0
POINT
  5
7CA5
330
7A04
100
AcDbEntity
  8
Defpoints
 62
     0
100
AcDbPoint
 10
1047.139765908917
 20
1672.517091367211
 30
0.0
  0
POINT
  5
7CA6
330
7A04
100
AcDbEntity
  8
Defpoints
 62
     0
100
AcDbPoint
 10
1044.108951005309
 20
1192.517091367211
 30
0.0
  0
POINT
  5
7CA7
330
7A04
100
AcDbEntity
  8
Defpoints
 62
     0
100
AcDbPoint
 10
818.3560419872874
 20
1192.517091367211
 30
0.0
  0
ENDBLK
  5
7A0F
330
7A04
100
AcDbEntity
  8
0
100
AcDbBlockEnd
  0
BLOCK
  5
7B28
330
7B23
100
AcDbEntity
  8
0
100
AcDbBlockBegin
  2
*D26
 70
     1
 10
0.0
 20
0.0
 30
0.0
  3
*D26
  1

  0
MTEXT
  5
7DAB
330
7B23
100
AcDbEntity
  8
実形
 62
     0
100
AcDbMText
 10
2049.046340984531
 20
1119.390767961284
 30
0.0
 40
25.0
 41
0.0
 71
     5
 72
     1
  1
15
 73
     1
 44
1.0
1001
ACAD
1000
MTEXTBEGIN
1070
    73
1070
     1
1070
    44
1040
1.0
1070
    74
1070
     0
1000
MTEXTEND
  0
POINT
  5
7DAC
330
7B23
100
AcDbEntity
  8
Defpoints
 62
     0
100
AcDbPoint
 10
2084.217827047478
 20
1208.992507324764
 30
0.0
  0
POINT
  5
7DAD
330
7B23
100
AcDbEntity
  8
Defpoints
 62
     0
100
AcDbPoint
 10
2284.217827047478
 20
1208.992507324764
 30
0.0
  0
POINT
  5
7DAE
330
7B23
100
AcDbEntity
  8
Defpoints
 62
     0
100
AcDbPoint
 10
2284.217827047478
 20
1100.640767961285
 30
0.0
  0
ENDBLK
  5
7B29
330
7B23
100
AcDbEntity
  8
0
100
AcDbBlockEnd
  0
BLOCK
  5
7B34
330
7B2A
100
AcDbEntity
  8
0
100
AcDbBlockBegin
  2
*D27
 70
     1
 10
0.0
 20
0.0
 30
0.0
  3
*D27
  1

  0
LINE
  5
7DAF
330
7B2A
100
AcDbEntity
  8
実形
 62
     0
370
    18
100
AcDbLine
 10
2099.217827047477
 20
1143.992507324764
 30
0.0
 11
2099.217827047477
 21
1100.640767961285
 31
0.0
  0
LINE
  5
7DB0
330
7B2A
100
AcDbEntity
  8
実形
 62
     0
370
    18
100
AcDbLine
 10
2284.217827047478
 20
1143.992507324763
 30
0.0
 11
2284.217827047478
 21
1100.640767961285
 31
0.0
  0
LINE
  5
7DB1
330
7B2A
100
AcDbEntity
  8
実形
 62
     0
370
    18
100
AcDbLine
 10
2099.217827047477
 20
1100.640767961285
 30
0.0
 11
2284.217827047478
 21
1100.640767961285
 31
0.0
  0
INSERT
  5
7DB2
330
7B2A
100
AcDbEntity
  8
実形
 62
     0
370
    18
100
AcDbBlockReference
  2
_DotSmall
 10
2099.217827047477
 20
1100.640767961285
 30
0.0
 41
35.0
 42
35.0
 43
35.0
 50
180.0
  0
INSERT
  5
7DB3
330
7B2A
100
AcDbEntity
  8
実形
 62
     0
370
    18
100
AcDbBlockReference
  2
_DotSmall
 10
2284.217827047478
 20
1100.640767961285
 30
0.0
 41
35.0
 42
35.0
 43
35.0
  0
MTEXT
  5
7DB4
330
7B2A
100
AcDbEntity
  8
実形
 62
     0
100
AcDbMText
 10
2191.717827047478
 20
1119.390767961284
 30
0.0
 40
25.0
 41
0.0
 71
     5
 72
     1
  1
185
 73
     1
 44
1.0
1001
ACAD
1000
MTEXTBEGIN
1070
    73
1070
     1
1070
    44
1040
1.0
1070
    74
1070
     0
1000
MTEXTEND
  0
POINT
  5
7DB5
330
7B2A
100
AcDbEntity
  8
Defpoints
 62
     0
100
AcDbPoint
 10
2099.217827047477
 20
1208.992507324764
 30
0.0
  0
POINT
  5
7DB6
330
7B2A
100
AcDbEntity
  8
Defpoints
 62
     0
100
AcDbPoint
 10
2284.217827047478
 20
1208.992507324764
 30
0.0
  0
POINT
  5
7DB7
330
7B2A
100
AcDbEntity
  8
Defpoints
 62
     0
100
AcDbPoint
 10
2284.217827047478
 20
1100.640767961285
 30
0.0
  0
ENDBLK
  5
7B35
330
7B2A
100
AcDbEntity
  8
0
100
AcDbBlockEnd
  0
BLOCK
  5
7B40
330
7B36
100
AcDbEntity
  8
0
100
AcDbBlockBegin
  2
*D28
 70
     1
 10
0.0
 20
0.0
 30
0.0
  3
*D28
  1

  0
LINE
  5
7DA2
330
7B36
100
AcDbEntity
  8
実形
 62
     0
370
    18
100
AcDbLine
 10
2084.217827047478
 20
1143.992507324763
 30
0.0
 11
2084.217827047478
 21
1052.418202794423
 31
0.0
  0
LINE
  5
7DA3
330
7B36
100
AcDbEntity
  8
実形
 62
     0
370
    18
100
AcDbLine
 10
2284.217827047478
 20
1143.992507324763
 30
0.0
 11
2284.217827047478
 21
1052.418202794423
 31
0.0
  0
LINE
  5
7DA4
330
7B36
100
AcDbEntity
  8
実形
 62
     0
370
    18
100
AcDbLine
 10
2084.217827047478
 20
1052.418202794423
 30
0.0
 11
2284.217827047478
 21
1052.418202794423
 31
0.0
  0
MTEXT
  5
7DA5
330
7B36
100
AcDbEntity
  8
実形
 62
     0
100
AcDbMText
 10
2196.362104789247
 20
1071.168202794423
 30
0.0
 40
25.0
 41
0.0
 71
     5
 72
     1
  1
200
 73
     1
 44
1.0
1001
ACAD
1000
MTEXTBEGIN
1070
    73
1070
     1
1070
    44
1040
1.0
1070
    74
1070
     0
1000
MTEXTEND
  0
INSERT
  5
7DA6
330
7B36
100
AcDbEntity
  8
実形
 62
     0
370
    18
100
AcDbBlockReference
  2
_DotSmall
 10
2084.217827047478
 20
1052.418202794423
 30
0.0
 41
35.0
 42
35.0
 43
35.0
 50
180.0
  0
INSERT
  5
7DA7
330
7B36
100
AcDbEntity
  8
実形
 62
     0
370
    18
100
AcDbBlockReference
  2
_DotSmall
 10
2284.217827047478
 20
1052.418202794423
 30
0.0
 41
35.0
 42
35.0
 43
35.0
  0
POINT
  5
7DA8
330
7B36
100
AcDbEntity
  8
Defpoints
 62
     0
100
AcDbPoint
 10
2084.217827047478
 20
1208.992507324764
 30
0.0
  0
POINT
  5
7DA9
330
7B36
100
AcDbEntity
  8
Defpoints
 62
     0
100
AcDbPoint
 10
2284.217827047478
 20
1208.992507324764
 30
0.0
  0
POINT
  5
7DAA
330
7B36
100
AcDbEntity
  8
Defpoints
 62
     0
100
AcDbPoint
 10
2284.217827047478
 20
1052.418202794423
 30
0.0
  0
ENDBLK
  5
7B41
330
7B36
100
AcDbEntity
  8
0
100
AcDbBlockEnd
  0
BLOCK
  5
7B49
330
7B42
100
AcDbEntity
  8
0
100
AcDbBlockBegin
  2
*D29
 70
     1
 10
0.0
 20
0.0
 30
0.0
  3
*D29
  1

  0
LINE
  5
7D8A
330
7B42
100
AcDbEntity
  8
実形
 62
     0
370
    18
100
AcDbLine
 10
2084.217827047478
 20
1099.10607685679
 30
0.0
 11
2084.217827047478
 21
1052.418202794423
 31
0.0
  0
LINE
  5
7D8B
330
7B42
100
AcDbEntity
  8
実形
 62
     0
370
    18
100
AcDbLine
 10
2294.217827047478
 20
1099.10607685679
 30
0.0
 11
2294.217827047478
 21
1052.418202794423
 31
0.0
  0
MTEXT
  5
7D8C
330
7B42
100
AcDbEntity
  8
実形
 62
     0
100
AcDbMText
 10
2326.835898781405
 20
1071.168202794423
 30
0.0
 40
25.0
 41
0.0
 71
     5
 72
     1
  1
10
 73
     1
 44
1.0
1001
ACAD
1000
MTEXTBEGIN
1070
    73
1070
     1
1070
    44
1040
1.0
1070
    74
1070
     0
1000
MTEXTEND
  0
POINT
  5
7D8D
330
7B42
100
AcDbEntity
  8
Defpoints
 62
     0
100
AcDbPoint
 10
2084.217827047478
 20
1164.10607685679
 30
0.0
  0
POINT
  5
7D8E
330
7B42
100
AcDbEntity
  8
Defpoints
 62
     0
100
AcDbPoint
 10
2294.217827047478
 20
1164.10607685679
 30
0.0
  0
POINT
  5
7D8F
330
7B42
100
AcDbEntity
  8
Defpoints
 62
     0
100
AcDbPoint
 10
2294.217827047478
 20
1052.418202794423
 30
0.0
  0
ENDBLK
  5
7B4A
330
7B42
100
AcDbEntity
  8
0
100
AcDbBlockEnd
  0
BLOCK
  5
7B55
330
7B4B
100
AcDbEntity
  8
0
100
AcDbBlockBegin
  2
*D30
 70
     1
 10
0.0
 20
0.0
 30
0.0
  3
*D30
  1

  0
LINE
  5
7D99
330
7B4B
100
AcDbEntity
  8
実形
 62
     0
370
    18
100
AcDbLine
 10
2084.217827047478
 20
1099.10607685679
 30
0.0
 11
2084.217827047478
 21
999.87043981093
 31
0.0
  0
LINE
  5
7D9A
330
7B4B
100
AcDbEntity
  8
実形
 62
     0
370
    18
100
AcDbLine
 10
2294.217827047478
 20
1068.476731055189
 30
0.0
 11
2294.217827047478
 21
999.87043981093
 31
0.0
  0
LINE
  5
7D9B
330
7B4B
100
AcDbEntity
  8
実形
 62
     0
370
    18
100
AcDbLine
 10
2084.217827047478
 20
999.87043981093
 30
0.0
 11
2294.217827047478
 21
999.87043981093
 31
0.0
  0
INSERT
  5
7D9C
330
7B4B
100
AcDbEntity
  8
実形
 62
     0
370
    18
100
AcDbBlockReference
  2
_DotSmall
 10
2084.217827047478
 20
999.87043981093
 30
0.0
 41
35.0
 42
35.0
 43
35.0
 50
180.0
  0
INSERT
  5
7D9D
330
7B4B
100
AcDbEntity
  8
実形
 62
     0
370
    18
100
AcDbBlockReference
  2
_DotSmall
 10
2294.217827047478
 20
999.87043981093
 30
0.0
 41
35.0
 42
35.0
 43
35.0
  0
MTEXT
  5
7D9E
330
7B4B
100
AcDbEntity
  8
実形
 62
     0
100
AcDbMText
 10
2189.217827047478
 20
1018.62043981093
 30
0.0
 40
25.0
 41
0.0
 71
     5
 72
     1
  1
210
 73
     1
 44
1.0
1001
ACAD
1000
MTEXTBEGIN
1070
    73
1070
     1
1070
    44
1040
1.0
1070
    74
1070
     0
1000
MTEXTEND
  0
POINT
  5
7D9F
330
7B4B
100
AcDbEntity
  8
Defpoints
 62
     0
100
AcDbPoint
 10
2084.217827047478
 20
1164.10607685679
 30
0.0
  0
POINT
  5
7DA0
330
7B4B
100
AcDbEntity
  8
Defpoints
 62
     0
100
AcDbPoint
 10
2294.217827047478
 20
1133.476731055189
 30
0.0
  0
POINT
  5
7DA1
330
7B4B
100
AcDbEntity
  8
Defpoints
 62
     0
100
AcDbPoint
 10
2294.217827047478
 20
999.87043981093
 30
0.0
  0
ENDBLK
  5
7B56
330
7B4B
100
AcDbEntity
  8
0
100
AcDbBlockEnd
  0
BLOCK
  5
7B5C
330
7B57
100
AcDbEntity
  8
0
100
AcDbBlockBegin
  2
*D31
 70
     1
 10
0.0
 20
0.0
 30
0.0
  3
*D31
  1

  0
MTEXT
  5
7D86
330
7B57
100
AcDbEntity
  8
実形
 62
     0
100
AcDbMText
 10
2333.298308424097
 20
1018.62043981093
 30
0.0
 40
25.0
 41
0.0
 71
     5
 72
     1
  1
8
 73
     1
 44
1.0
1001
ACAD
1000
MTEXTBEGIN
1070
    73
1070
     1
1070
    44
1040
1.0
1070
    74
1070
     0
1000
MTEXTEND
  0
POINT
  5
7D87
330
7B57
100
AcDbEntity
  8
Defpoints
 62
     0
100
AcDbPoint
 10
2084.217827047478
 20
1164.10607685679
 30
0.0
  0
POINT
  5
7D88
330
7B57
100
AcDbEntity
  8
Defpoints
 62
     0
100
AcDbPoint
 10
2304.217827047478
 20
1152.403242481073
 30
0.0
  0
POINT
  5
7D89
330
7B57
100
AcDbEntity
  8
Defpoints
 62
     0
100
AcDbPoint
 10
2304.217827047478
 20
999.87043981093
 30
0.0
  0
ENDBLK
  5
7B5D
330
7B57
100
AcDbEntity
  8
0
100
AcDbBlockEnd
  0
BLOCK
  5
7B68
330
7B5E
100
AcDbEntity
  8
0
100
AcDbBlockBegin
  2
*D32
 70
     1
 10
0.0
 20
0.0
 30
0.0
  3
*D32
  1

  0
LINE
  5
7D90
330
7B5E
100
AcDbEntity
  8
実形
 62
     0
370
    18
100
AcDbLine
 10
2084.217827047478
 20
1099.10607685679
 30
0.0
 11
2084.217827047478
 21
948.7570792024168
 31
0.0
  0
LINE
  5
7D91
330
7B5E
100
AcDbEntity
  8
実形
 62
     0
370
    18
100
AcDbLine
 10
2304.217827047478
 20
1008.046778957103
 30
0.0
 11
2304.217827047478
 21
948.7570792024168
 31
0.0
  0
LINE
  5
7D92
330
7B5E
100
AcDbEntity
  8
実形
 62
     0
370
    18
100
AcDbLine
 10
2084.217827047478
 20
948.7570792024168
 30
0.0
 11
2304.217827047478
 21
948.7570792024168
 31
0.0
  0
INSERT
  5
7D93
330
7B5E
100
AcDbEntity
  8
実形
 62
     0
370
    18
100
AcDbBlockReference
  2
_DotSmall
 10
2084.217827047478
 20
948.7570792024168
 30
0.0
 41
35.0
 42
35.0
 43
35.0
 50
180.0
  0
INSERT
  5
7D94
330
7B5E
100
AcDbEntity
  8
実形
 62
     0
370
    18
100
AcDbBlockReference
  2
_DotSmall
 10
2304.217827047478
 20
948.7570792024168
 30
0.0
 41
35.0
 42
35.0
 43
35.0
  0
MTEXT
  5
7D95
330
7B5E
100
AcDbEntity
  8
実形
 62
     0
100
AcDbMText
 10
2194.217827047478
 20
967.5070792024168
 30
0.0
 40
25.0
 41
0.0
 71
     5
 72
     1
  1
218
 73
     1
 44
1.0
1001
ACAD
1000
MTEXTBEGIN
1070
    73
1070
     1
1070
    44
1040
1.0
1070
    74
1070
     0
1000
MTEXTEND
  0
POINT
  5
7D96
330
7B5E
100
AcDbEntity
  8
Defpoints
 62
     0
100
AcDbPoint
 10
2084.217827047478
 20
1164.10607685679
 30
0.0
  0
POINT
  5
7D97
330
7B5E
100
AcDbEntity
  8
Defpoints
 62
     0
100
AcDbPoint
 10
2304.217827047478
 20
1073.046778957103
 30
0.0
  0
POINT
  5
7D98
330
7B5E
100
AcDbEntity
  8
Defpoints
 62
     0
100
AcDbPoint
 10
2304.217827047478
 20
948.7570792024168
 30
0.0
  0
ENDBLK
  5
7B69
330
7B5E
100
AcDbEntity
  8
0
100
AcDbBlockEnd
  0
BLOCK
  5
7BD0
330
7BC6
100
AcDbEntity
  8
0
100
AcDbBlockBegin
  2
*D33
 70
     1
 10
0.0
 20
0.0
 30
0.0
  3
*D33
  1

  0
LINE
  5
7D7D
330
7BC6
100
AcDbEntity
  8
実形
 62
     0
370
    18
100
AcDbLine
 10
2369.217827047478
 20
1352.517091367212
 30
0.0
 11
2421.134425583336
 21
1352.517091367212
 31
0.0
  0
LINE
  5
7D7E
330
7BC6
100
AcDbEntity
  8
実形
 62
     0
370
    18
100
AcDbLine
 10
2369.217827047478
 20
1512.517091367212
 30
0.0
 11
2421.134425583336
 21
1512.517091367212
 31
0.0
  0
LINE
  5
7D7F
330
7BC6
100
AcDbEntity
  8
実形
 62
     0
370
    18
100
AcDbLine
 10
2421.134425583336
 20
1362.517091367212
 30
0.0
 11
2421.134425583336
 21
1502.517091367212
 31
0.0
  0
INSERT
  5
7D80
330
7BC6
100
AcDbEntity
  8
実形
 62
     0
370
    18
100
AcDbBlockReference
  2
_Dot
 10
2421.134425583336
 20
1352.517091367212
 30
0.0
 41
10.0
 42
10.0
 43
10.0
 50
270.0
  0
INSERT
  5
7D81
330
7BC6
100
AcDbEntity
  8
実形
 62
     0
370
    18
100
AcDbBlockReference
  2
_Dot
 10
2421.134425583336
 20
1512.517091367212
 30
0.0
 41
10.0
 42
10.0
 43
10.0
 50
90.0
  0
MTEXT
  5
7D82
330
7BC6
100
AcDbEntity
  8
実形
 62
     0
100
AcDbMText
 10
2402.034425583336
 20
1432.517091367212
 30
0.0
 40
25.0
 41
0.0
 71
     5
 72
     1
  1
160
 11
0.0000000000000001
 21
1.0
 31
0.0
 73
     1
 44
1.0
1001
ACAD
1000
MTEXTBEGIN
1070
    73
1070
     1
1070
    44
1040
1.0
1070
    74
1070
     0
1000
MTEXTEND
  0
POINT
  5
7D83
330
7BC6
100
AcDbEntity
  8
Defpoints
 62
     0
100
AcDbPoint
 10
2304.217827047478
 20
1352.517091367212
 30
0.0
  0
POINT
  5
7D84
330
7BC6
100
AcDbEntity
  8
Defpoints
 62
     0
100
AcDbPoint
 10
2304.217827047478
 20
1512.517091367212
 30
0.0
  0
POINT
  5
7D85
330
7BC6
100
AcDbEntity
  8
Defpoints
 62
     0
100
AcDbPoint
 10
2421.134425583336
 20
1512.517091367212
 30
0.0
  0
ENDBLK
  5
7BD1
330
7BC6
100
AcDbEntity
  8
0
100
AcDbBlockEnd
  0
BLOCK
  5
7BDC
330
7BD2
100
AcDbEntity
  8
0
100
AcDbBlockBegin
  2
*D34
 70
     1
 10
0.0
 20
0.0
 30
0.0
  3
*D34
  1

  0
LINE
  5
7D74
330
7BD2
100
AcDbEntity
  8
実形
 62
     0
370
    18
100
AcDbLine
 10
2369.217827047478
 20
1342.017091367212
 30
0.0
 11
2492.376722398613
 21
1342.017091367212
 31
0.0
  0
LINE
  5
7D75
330
7BD2
100
AcDbEntity
  8
実形
 62
     0
370
    18
100
AcDbLine
 10
2369.217827047483
 20
1523.017091367212
 30
0.0
 11
2492.376722398613
 21
1523.017091367212
 31
0.0
  0
LINE
  5
7D76
330
7BD2
100
AcDbEntity
  8
実形
 62
     0
370
    18
100
AcDbLine
 10
2492.376722398613
 20
1352.017091367212
 30
0.0
 11
2492.376722398613
 21
1513.017091367212
 31
0.0
  0
INSERT
  5
7D77
330
7BD2
100
AcDbEntity
  8
実形
 62
     0
370
    18
100
AcDbBlockReference
  2
_Dot
 10
2492.376722398613
 20
1342.017091367212
 30
0.0
 41
10.0
 42
10.0
 43
10.0
 50
270.0
  0
INSERT
  5
7D78
330
7BD2
100
AcDbEntity
  8
実形
 62
     0
370
    18
100
AcDbBlockReference
  2
_Dot
 10
2492.376722398613
 20
1523.017091367212
 30
0.0
 41
10.0
 42
10.0
 43
10.0
 50
90.0
  0
MTEXT
  5
7D79
330
7BD2
100
AcDbEntity
  8
実形
 62
     0
100
AcDbMText
 10
2473.276722398613
 20
1432.517091367212
 30
0.0
 40
25.0
 41
0.0
 71
     5
 72
     1
  1
181
 11
0.0000000000000001
 21
1.0
 31
0.0
 73
     1
 44
1.0
1001
ACAD
1000
MTEXTBEGIN
1070
    73
1070
     1
1070
    44
1040
1.0
1070
    74
1070
     0
1000
MTEXTEND
  0
POINT
  5
7D7A
330
7BD2
100
AcDbEntity
  8
Defpoints
 62
     0
100
AcDbPoint
 10
2304.217827047478
 20
1342.017091367212
 30
0.0
  0
POINT
  5
7D7B
330
7BD2
100
AcDbEntity
  8
Defpoints
 62
     0
100
AcDbPoint
 10
2304.217827047483
 20
1523.017091367212
 30
0.0
  0
POINT
  5
7D7C
330
7BD2
100
AcDbEntity
  8
Defpoints
 62
     0
100
AcDbPoint
 10
2492.376722398613
 20
1523.017091367212
 30
0.0
  0
ENDBLK
  5
7BDD
330
7BD2
100
AcDbEntity
  8
0
100
AcDbBlockEnd
  0
ENDSEC
  0
SECTION
  2
ENTITIES
  0
LINE
  5
9C
330
1F
100
AcDbEntity
  8
補助
100
AcDbLine
 10
114.0
 20
4.0
 30
0.0
 11
2784.0
 21
4.0
 31
0.0
  0
LINE
  5
A0
330
1F
100
AcDbEntity
  8
補助
100
AcDbLine
 10
2784.0
 20
2024.0
 30
0.0
 11
114.0
 21
2024.0
 31
0.0
  0
LINE
  5
A5
330
1F
100
AcDbEntity
  8
補助
100
AcDbLine
 10
2784.0
 20
4.0
 30
0.0
 11
2784.0
 21
2024.0
 31
0.0
  0
LINE
  5
AD
330
1F
100
AcDbEntity
  8
補助
100
AcDbLine
 10
2784.0
 20
4.0
 30
0.0
 11
2784.0
 21
69.0
 31
0.0
  0
TEXT
  5
8C9
330
1F
100
AcDbEntity
  8
0
100
AcDbText
 10
249.2632881086038
 20
83.52862940911927
 30
0.0
 40
30.0
  1
※実寸には製造上の誤差が多少生ずる場合があります。シンクの穴あけ加工は現物合わせにてお願いします。
100
AcDbText
  0
DIMENSION
  5
1677
330
1F
100
AcDbEntity
  8
寸法
100
AcDbDimension
  2
*D4
 10
1917.155358395523
 20
1074.147751339128
 30
0.0
 11
1637.155358395523
 21
1092.897751339128
 31
0.0
 70
    32
 71
     5
 42
559.9999999999997
  3
ISO-25
100
AcDbAlignedDimension
 13
1357.155358395523
 23
1187.517091367211
 33
0.0
 14
1917.155358395523
 24
1187.517091367211
 34
0.0
 50
180.0
100
AcDbRotatedDimension
1001
ACAD
1000
DSTYLE
1002
{
1070
   279
1070
     1
1002
}
  0
DIMENSION
  5
1679
330
1F
100
AcDbEntity
  8
寸法
100
AcDbDimension
  2
*D5
 10
1648.612087999951
 20
1637.517091367211
 30
0.0
 11
1648.61208799995
 21
1527.517091367211
 31
0.0
 70
   160
 71
     5
 42
205.0000000000002
  3
ISO-25
100
AcDbAlignedDimension
 13
1541.625806853204
 23
1432.517091367211
 33
0.0
 14
1377.155358395523
 24
1637.517091367211
 34
0.0
 50
90.0
100
AcDbRotatedDimension
  0
DIMENSION
  5
167B
330
1F
100
AcDbEntity
  8
寸法
100
AcDbDimension
  2
*D6
 10
1507.155358395523
 20
1309.196731626641
 30
0.0
 11
1432.155358395523
 21
1327.946731626641
 31
0.0
 70
    32
 71
     5
 42
149.9999999999998
  3
ISO-25
100
AcDbAlignedDimension
 13
1357.155358395523
 23
1317.51709136721
 33
0.0
 14
1507.155358395523
 24
1432.51709136721
 34
0.0
 50
0.000000000000007
100
AcDbRotatedDimension
1001
ACAD
1000
DSTYLE
1002
{
1070
   279
1070
     1
1070
    73
1070
     1
1070
    74
1070
     1
1002
}
  0
LINE
  5
167C
330
1F
100
AcDbEntity
  8
実形
100
AcDbLine
 10
1377.155358395523
 20
1637.517091367211
 30
0.0
 11
1897.155358395523
 21
1637.517091367211
 31
0.0
  0
LINE
  5
167D
330
1F
100
AcDbEntity
  8
実形
100
AcDbLine
 10
1377.155358395523
 20
1227.517091367211
 30
0.0
 11
1897.155358395522
 21
1227.517091367211
 31
0.0
  0
DIMENSION
  5
168D
330
1F
100
AcDbEntity
  8
寸法
100
AcDbDimension
  2
*D7
 10
1337.155358395523
 20
1338.441053857747
 30
0.0
 11
1282.155358395523
 21
1357.191053857747
 31
0.0
 70
    32
 71
     5
 42
109.9999999999997
  3
ISO-25
100
AcDbAlignedDimension
 13
1227.155358395523
 23
1460.654670628226
 33
0.0
 14
1337.155358395523
 24
1310.654670628226
 34
0.0
100
AcDbRotatedDimension
1001
ACAD
1000
DSTYLE
1002
{
1070
    73
1070
     1
1070
    74
1070
     1
1002
}
  0
LINE
  5
1699
330
1F
100
AcDbEntity
  8
実形
100
AcDbLine
 10
1357.155358395523
 20
1617.517091367211
 30
0.0
 11
1357.155358395523
 21
1247.517091367211
 31
0.0
  0
DIMENSION
  5
169D
330
1F
100
AcDbEntity
  8
寸法
100
AcDbDimension
  2
*D8
 10
1337.155358395523
 20
1074.147751339128
 30
0.0
 11
1197.155358395523
 21
1092.897751339128
 31
0.0
 70
    33
 71
     5
 42
280.0
  3
ISO-25
100
AcDbAlignedDimension
 13
1057.155358395523
 23
1187.517091367211
 33
0.0
 14
1337.155358395523
 24
1187.517091367211
 34
0.0
  0
LINE
  5
16AB
330
1F
100
AcDbEntity
  8
実形
100
AcDbLine
 10
1077.155358395523
 20
1227.517091367211
 30
0.0
 11
1317.155358395523
 21
1227.517091367211
 31
0.0
  0
LINE
  5
16AD
330
1F
100
AcDbEntity
  8
実形
100
AcDbLine
 10
1057.155358395523
 20
1617.517091367211
 30
0.0
 11
1057.155358395523
 21
1247.517091367211
 31
0.0
  0
CIRCLE
  5
16B5
330
1F
100
AcDbEntity
  8
実形
100
AcDbCircle
 10
1227.155358395524
 20
1432.51709136721
 30
0.0
 40
47.0
  0
CIRCLE
  5
16B6
330
1F
100
AcDbEntity
  8
実形
100
AcDbCircle
 10
1227.155358395524
 20
1432.51709136721
 30
0.0
 40
57.5
  0
LINE
  5
16B9
330
1F
100
AcDbEntity
  8
実形
100
AcDbLine
 10
1357.155358395523
 20
1517.517091367211
 30
0.0
 11
1357.155358395523
 21
1297.517091367211
 31
0.0
  0
LINE
  5
16BB
330
1F
100
AcDbEntity
  8
実形
100
AcDbLine
 10
1337.155358395523
 20
1247.517091367211
 30
0.0
 11
1337.155358395523
 21
1617.517091367212
 31
0.0
  0
LINE
  5
16CC
330
1F
100
AcDbEntity
  8
実形
100
AcDbLine
 10
1917.155358395523
 20
1247.517091367211
 30
0.0
 11
1917.155358395524
 21
1617.517091367211
 31
0.0
  0
CIRCLE
  5
16DA
330
1F
100
AcDbEntity
  8
実形
100
AcDbCircle
 10
1507.155358395523
 20
1432.51709136721
 30
0.0
 40
80.0
  0
CIRCLE
  5
16DB
330
1F
100
AcDbEntity
  8
実形
100
AcDbCircle
 10
1507.155358395523
 20
1432.51709136721
 30
0.0
 40
90.5
  0
LEADER
  5
16E2
330
1F
100
AcDbEntity
  8
寸法
100
AcDbLeader
  3
ISO-25
 76
     2
 10
1902.196432869234
 20
1619.819826947707
 30
0.0
 10
1854.049664742673
 20
1567.248772628747
 30
0.0
1001
ACAD
1000
DSTYLE
1002
{
1070
    41
1040
25.0
1070
   147
1040
6.25
1070
    77
1070
     0
1002
}
  0
LINE
  5
1A22
330
1F
100
AcDbEntity
  8
センター
 48
0.5
100
AcDbLine
 10
1147.249889943159
 20
1432.51709136721
 30
0.0
 11
1278.900479477531
 21
1432.51709136721
 31
0.0
  0
LINE
  5
1A24
330
1F
100
AcDbEntity
  8
センター
 48
0.5
100
AcDbLine
 10
1227.155358395524
 20
1522.422559819576
 30
0.0
 11
1227.155358395524
 21
1352.611622914845
 31
0.0
  0
CIRCLE
  5
1A26
330
1F
100
AcDbEntity
  8
実形
100
AcDbCircle
 10
1207.155358395523
 20
1487.517091367211
 30
0.0
 40
0.0000000000002274
  0
LINE
  5
1A2B
330
1F
100
AcDbEntity
  8
センター
 48
0.75
100
AcDbLine
 10
1385.3413769353
 20
1432.51709136721
 30
0.0
 11
1628.969339855746
 21
1432.51709136721
 31
0.0
  0
LINE
  5
1A2C
330
1F
100
AcDbEntity
  8
センター
 48
0.75
100
AcDbLine
 10
1507.155358395523
 20
1539.331072827434
 30
0.0
 11
1507.155358395523
 21
1310.703109906987
 31
0.0
  0
ARC
  5
2936
330
1F
100
AcDbEntity
  8
実形
100
AcDbCircle
 10
1897.155358395523
 20
1617.517091367211
 30
0.0
 40
20.0
100
AcDbArc
 50
359.9999999999999
 51
89.99999999999998
  0
ARC
  5
2937
330
1F
100
AcDbEntity
  8
実形
100
AcDbCircle
 10
1377.155358395523
 20
1617.517091367211
 30
0.0
 40
20.0
100
AcDbArc
 50
89.99999999999998
 51
180.0
  0
ARC
  5
2938
330
1F
100
AcDbEntity
  8
実形
100
AcDbCircle
 10
1897.155358395522
 20
1247.517091367211
 30
0.0
 40
20.0
100
AcDbArc
 50
270.0
 51
359.9999999999999
  0
ARC
  5
2939
330
1F
100
AcDbEntity
  8
実形
100
AcDbCircle
 10
1377.155358395523
 20
1247.517091367211
 30
0.0
 40
20.0
100
AcDbArc
 50
180.0
 51
270.0
  0
ARC
  5
293A
330
1F
100
AcDbEntity
  8
実形
100
AcDbCircle
 10
1317.155358395523
 20
1247.517091367211
 30
0.0
 40
20.0
100
AcDbArc
 50
270.0
 51
0.000000000000007
  0
ARC
  5
293C
330
1F
100
AcDbEntity
  8
実形
100
AcDbCircle
 10
1077.155358395523
 20
1247.517091367211
 30
0.0
 40
20.0
100
AcDbArc
 50
180.0
 51
270.0
  0
LINE
  5
3422
330
1F
100
AcDbEntity
  8
センター
 48
0.6
100
AcDbLine
 10
560.3742545839691
 20
1432.517091367211
 30
0.0
 11
462.5958347923974
 21
1432.517091367211
 31
0.0
  0
LINE
  5
3425
330
1F
100
AcDbEntity
  8
実形
100
AcDbLine
 10
496.5646523606943
 20
1490.017091367211
 30
0.0
 11
496.5646523606942
 21
1375.017091367211
 31
0.0
  0
DIMENSION
  5
3819
330
1F
100
AcDbEntity
  8
実形
100
AcDbDimension
  2
*D10
 10
420.3585858317078
 20
1385.517091367211
 30
0.0
 11
398.7585858317077
 21
1432.517091367211
 31
0.0
 70
    32
 71
     5
 42
94.0
  3
ISO-25
100
AcDbAlignedDimension
 13
528.3585858317078
 23
1479.517091367211
 33
0.0
 14
528.3585858317073
 24
1385.517091367211
 34
0.0
 50
90.0
100
AcDbRotatedDimension
1001
ACAD
1000
DSTYLE
1002
{
1070
    41
1040
10.0
1070
   140
1040
30.0
1070
   147
1040
6.599999999999998
1070
   279
1070
     2
1070
   342
1005
2ED7
1070
   371
1070
    18
1070
   372
1070
    18
1002
}
  0
DIMENSION
  5
381A
330
1F
100
AcDbEntity
  8
実形
100
AcDbDimension
  2
*D11
 10
369.6515149135271
 20
1375.017091367211
 30
0.0
 11
348.0515149135269
 21
1432.517091367211
 31
0.0
 70
    32
 71
     5
 42
115.0
  3
ISO-25
100
AcDbAlignedDimension
 13
528.8948864751859
 23
1490.017091367211
 33
0.0
 14
527.3563017853798
 24
1375.017091367211
 34
0.0
 50
90.0
100
AcDbRotatedDimension
1001
ACAD
1000
DSTYLE
1002
{
1070
    41
1040
10.0
1070
   140
1040
30.0
1070
   147
1040
6.599999999999998
1070
   279
1070
     2
1070
   342
1005
2ED7
1070
   371
1070
    18
1070
   372
1070
    18
1002
}
  0
LEADER
  5
3A62
330
1F
100
AcDbEntity
  8
寸法
100
AcDbLeader
  3
ISO-25
 76
     2
 10
1895.912064749586
 20
1241.650679424787
 30
0.0
 10
1844.445627353374
 20
1278.10404172541
 30
0.0
1001
ACAD
1000
DSTYLE
1002
{
1070
    41
1040
25.0
1070
   147
1040
6.25
1070
    77
1070
     0
1002
}
  0
LEADER
  5
3B00
330
1F
100
AcDbEntity
  8
寸法
100
AcDbLeader
  3
ISO-25
 76
     2
 10
1315.657707328585
 20
1247.100804243244
 30
0.0
 10
1257.159867051227
 20
1285.258483947999
 30
0.0
1001
ACAD
1000
DSTYLE
1002
{
1070
    41
1040
25.0
1070
   147
1040
6.25
1070
    77
1070
     0
1002
}
  0
LEADER
  5
3B08
330
1F
100
AcDbEntity
  8
寸法
100
AcDbLeader
  3
ISO-25
 76
     2
 10
1076.264042469207
 20
1241.867597113103
 30
0.0
 10
1154.267534960809
 20
1287.522086642195
 30
0.0
1001
ACAD
1000
DSTYLE
1002
{
1070
    41
1040
25.0
1070
   147
1040
6.25
1070
    77
1070
     0
1002
}
  0
LEADER
  5
3B11
330
1F
100
AcDbEntity
  8
寸法
100
AcDbLeader
  3
ISO-25
 76
     2
 10
1040.918722996082
 20
1660.784545895319
 30
0.0
 10
1011.794980470594
 20
1737.999598801685
 30
0.0
1001
ACAD
1000
DSTYLE
1002
{
1070
    41
1040
25.0
1070
   147
1040
6.25
1070
    77
1070
     0
1002
}
  0
LEADER
  5
3B39
330
1F
100
AcDbEntity
  8
寸法
100
AcDbLeader
  3
ISO-25
 76
     2
 10
1384.086876807416
 20
1621.5180711131
 30
0.0
 10
1439.178853450401
 20
1575.532745098909
 30
0.0
1001
ACAD
1000
DSTYLE
1002
{
1070
    41
1040
25.0
1070
   147
1040
6.25
1070
    77
1070
     0
1002
}
  0
LEADER
  5
44CA
330
1F
100
AcDbEntity
  8
寸法
100
AcDbLeader
  3
ISO-25
 76
     2
 10
1317.155358395523
 20
1624.812748664481
 30
0.0
 10
1287.81487010139
 20
1561.532639369295
 30
0.0
1001
ACAD
1000
DSTYLE
1002
{
1070
    41
1040
25.0
1070
   147
1040
6.25
1070
    77
1070
     0
1002
}
  0
LEADER
  5
4506
330
1F
100
AcDbEntity
  8
寸法
100
AcDbLeader
  3
ISO-25
 76
     2
 10
1386.579431498309
 20
1243.865905694804
 30
0.0
 10
1468.481569103409
 20
1278.256065256998
 30
0.0
1001
ACAD
1000
DSTYLE
1002
{
1070
    41
1040
25.0
1070
   147
1040
6.25
1070
    77
1070
     0
1002
}
  0
LINE
  5
5EA6
330
1F
100
AcDbEntity
  8
実形
100
AcDbLine
 10
1077.155358395523
 20
1637.517091367211
 30
0.0
 11
1317.155358395523
 21
1637.517091367212
 31
0.0
  0
ARC
  5
5EA7
330
1F
100
AcDbEntity
  8
実形
100
AcDbCircle
 10
1317.155358395523
 20
1617.517091367212
 30
0.0
 40
20.0
100
AcDbArc
 50
0.000000000000007
 51
89.99999999999998
  0
ARC
  5
5EA8
330
1F
100
AcDbEntity
  8
実形
100
AcDbCircle
 10
1077.155358395523
 20
1617.517091367211
 30
0.0
 40
20.0
100
AcDbArc
 50
90.0000000000001
 51
180.0
  0
DIMENSION
  5
5ECF
330
1F
100
AcDbEntity
  8
実形
100
AcDbDimension
  2
*D14
 10
1114.538898624032
 20
1432.51709136721
 30
0.0
 11
1095.788898624032
 21
1535.017091367211
 31
0.0
 70
    32
 71
     5
 42
205.0000000000007
  3
ISO-25
100
AcDbAlignedDimension
 13
1227.155358395523
 23
1637.517091367211
 33
0.0
 14
1227.155358395523
 24
1432.51709136721
 34
0.0
 50
90.0
100
AcDbRotatedDimension
1001
ACAD
1000
DSTYLE
1002
{
1070
   279
1070
     2
1070
   289
1070
     0
1070
   371
1070
    18
1070
   372
1070
    18
1002
}
  0
TEXT
  5
5F81
330
1F
100
AcDbEntity
  8
実形
370
    18
100
AcDbText
 10
1932.614969303368
 20
1068.815701109714
 30
0.0
 40
10.0
  1
●
100
AcDbText
  0
LINE
  5
5F83
330
1F
100
AcDbEntity
  8
実形
100
AcDbLine
 10
1917.155358395523
 20
1074.147751339128
 30
0.0
 11
1937.155358395523
 21
1074.147751339128
 31
0.0
  0
LINE
  5
5F85
330
1F
100
AcDbEntity
  8
実形
100
AcDbLine
 10
1057.155358395523
 20
1074.147751339128
 30
0.0
 11
1037.155358395524
 21
1074.147751339129
 31
0.0
  0
TEXT
  5
5F90
330
1F
100
AcDbEntity
  8
実形
370
    18
100
AcDbText
 10
1032.558624273677
 20
1069.152432025165
 30
0.0
 40
10.0
  1
●
100
AcDbText
  0
LINE
  5
5FDC
330
1F
100
AcDbEntity
  8
実形
100
AcDbLine
 10
701.5646523606942
 20
1207.517091367211
 30
0.0
 11
701.5646523606942
 21
1657.517091367211
 31
0.0
  0
LINE
  5
6080
330
1F
100
AcDbEntity
  8
実形
100
AcDbLine
 10
701.5646523606942
 20
1637.790508683589
 30
0.0
 11
536.5646523606942
 21
1637.790508683589
 31
0.0
  0
LINE
  5
6081
330
1F
100
AcDbEntity
  8
実形
100
AcDbLine
 10
701.5646523606942
 20
1227.51709136721
 30
0.0
 11
536.5646523606942
 21
1227.51709136721
 31
0.0
  0
LINE
  5
61AE
330
1F
100
AcDbEntity
  8
実形
100
AcDbLine
 10
1932.155358395523
 20
779.9421603690643
 30
0.0
 11
1042.155358395523
 21
779.9421603690644
 31
0.0
  0
LINE
  5
61B5
330
1F
100
AcDbEntity
  8
実形
100
AcDbLine
 10
1917.155358395523
 20
779.9421603690643
 30
0.0
 11
1917.155358395523
 21
615.3708500565105
 31
0.0
  0
LINE
  5
61B6
330
1F
100
AcDbEntity
  8
実形
100
AcDbLine
 10
1357.155358395523
 20
779.9421603690643
 30
0.0
 11
1357.155358395524
 21
604.9421603690643
 31
0.0
  0
LINE
  5
61B7
330
1F
100
AcDbEntity
  8
実形
100
AcDbLine
 10
1597.655358395523
 20
584.9421603690642
 30
0.0
 11
1377.155358395524
 21
584.9421603690643
 31
0.0
  0
LINE
  5
6233
330
1F
100
AcDbEntity
  8
センター
 48
0.5
100
AcDbLine
 10
1507.155358395523
 20
647.2804573451262
 30
0.0
 11
1507.155358395523
 21
532.4906908558761
 31
0.0
  0
LINE
  5
6234
330
1F
100
AcDbEntity
  8
実形
100
AcDbLine
 10
1416.655358395523
 20
574.9421603690644
 30
0.0
 11
1416.655358395523
 21
584.9421603690644
 31
0.0
  0
LINE
  5
6235
330
1F
100
AcDbEntity
  8
実形
100
AcDbLine
 10
1597.655358395523
 20
584.9421603690644
 30
0.0
 11
1597.655358395523
 21
574.9421603690644
 31
0.0
  0
LINE
  5
6236
330
1F
100
AcDbEntity
  8
実形
100
AcDbLine
 10
1416.655358395523
 20
574.9421603690644
 30
0.0
 11
1597.655358395523
 21
574.9421603690644
 31
0.0
  0
DIMENSION
  5
6237
330
1F
100
AcDbEntity
  8
実形
100
AcDbDimension
  2
*D15
 10
1427.155358395523
 20
460.6318884539888
 30
0.0
 11
1507.155358395523
 21
479.3818884539888
 31
0.0
 70
    32
 71
     5
 42
159.9999999999998
  3
ISO-25
100
AcDbAlignedDimension
 13
1587.155358395523
 23
584.9421603690644
 33
0.0
 14
1427.155358395523
 24
584.9421603690646
 34
0.0
 50
180.0
100
AcDbRotatedDimension
1001
ACAD
1000
DSTYLE
1002
{
1070
   279
1070
     2
1070
   289
1070
     0
1070
   371
1070
    18
1070
   372
1070
    18
1002
}
  0
DIMENSION
  5
6238
330
1F
100
AcDbEntity
  8
実形
100
AcDbDimension
  2
*D16
 10
1416.655358395523
 20
420.2113100433081
 30
0.0
 11
1507.155358395523
 21
438.9613100433081
 31
0.0
 70
    32
 71
     5
 42
180.9999999999998
  3
ISO-25
100
AcDbAlignedDimension
 13
1597.655358395523
 23
584.9421603690644
 33
0.0
 14
1416.655358395523
 24
584.9421603690644
 34
0.0
 50
180.0
100
AcDbRotatedDimension
1001
ACAD
1000
DSTYLE
1002
{
1070
   279
1070
     2
1070
   289
1070
     0
1070
   371
1070
    18
1070
   372
1070
    18
1002
}
  0
ARC
  5
6264
330
1F
100
AcDbEntity
  8
実形
100
AcDbCircle
 10
1377.155358395524
 20
604.9421603690643
 30
0.0
 40
20.0
100
AcDbArc
 50
180.0
 51
270.0
  0
LEADER
  5
6349
330
1F
100
AcDbEntity
  8
0
100
AcDbLeader
  3
ISO-25
 40
25.0
 41
16.66666666666666
 76
     2
 10
1888.556504656909
 20
600.6310963763699
 30
0.0
 10
1818.643978218852
 20
660.8851977884206
 30
0.0
211
-1.0
221
0.0
231
0.0
213
0.0
223
-12.5
233
0.0
1001
ACAD
1000
DSTYLE
1002
{
1070
    41
1040
25.0
1070
   147
1040
6.25
1070
    77
1070
     0
1070
    73
1070
     1
1070
    74
1070
     1
1070
   279
1070
     1
1070
   342
1005
DA
1002
}
  0
LINE
  5
63D0
330
1F
100
AcDbEntity
  8
実形
100
AcDbLine
 10
1597.655358395523
 20
584.9421603690644
 30
0.0
 11
1897.734825169262
 21
595.3792463625061
 31
0.0
  0
ARC
  5
63D1
330
1F
100
AcDbEntity
  8
実形
100
AcDbCircle
 10
1897.155358395522
 20
615.3708500565105
 30
0.0
 40
20.0
100
AcDbArc
 50
271.6602823689827
 51
0.000000000000007
  0
LEADER
  5
63DD
330
1F
100
AcDbEntity
  8
0
100
AcDbLeader
  3
ISO-25
 40
25.0
 41
16.66666666666666
 76
     2
 10
1379.046115361165
 20
600.2488855308956
 30
0.0
 10
1475.367329097724
 20
657.4250748321983
 30
0.0
211
-1.0
221
0.0
231
0.0
213
0.0
223
-12.5
233
0.0
1001
ACAD
1000
DSTYLE
1002
{
1070
    41
1040
25.0
1070
   147
1040
6.25
1070
    77
1070
     0
1070
    73
1070
     1
1070
    74
1070
     1
1070
   279
1070
     1
1070
   342
1005
DA
1002
}
  0
LINE
  5
63DE
330
1F
100
AcDbEntity
  8
実形
100
AcDbLine
 10
1337.155358395523
 20
779.9421603690643
 30
0.0
 11
1337.155358395523
 21
604.9421603690644
 31
0.0
  0
LINE
  5
63DF
330
1F
100
AcDbEntity
  8
実形
100
AcDbLine
 10
1057.155358395523
 20
779.9421603690643
 30
0.0
 11
1057.155358395523
 21
613.2360072217369
 31
0.0
  0
LINE
  5
6430
330
1F
100
AcDbEntity
  8
センター
 48
0.5
100
AcDbLine
 10
1227.155358395523
 20
652.2804573451264
 30
0.0
 11
1227.155358395523
 21
522.2509868573417
 31
0.0
  0
DIMENSION
  5
6433
330
1F
100
AcDbEntity
  8
実形
100
AcDbDimension
  2
*D17
 10
1169.655358395523
 20
415.2113100433081
 30
0.0
 11
1227.155358395523
 21
433.9613100433081
 31
0.0
 70
    32
 71
     5
 42
115.0
  3
ISO-25
100
AcDbAlignedDimension
 13
1284.655358395523
 23
584.9421603690644
 33
0.0
 14
1169.655358395523
 24
584.9421603690644
 34
0.0
 50
180.0
100
AcDbRotatedDimension
1001
ACAD
1000
DSTYLE
1002
{
1070
   279
1070
     2
1070
   289
1070
     0
1070
   371
1070
    18
1070
   372
1070
    18
1002
}
  0
LINE
  5
6434
330
1F
100
AcDbEntity
  8
実形
100
AcDbLine
 10
1169.655358395523
 20
574.9421603690644
 30
0.0
 11
1284.655358395523
 21
574.9421603690644
 31
0.0
  0
DIMENSION
  5
6435
330
1F
100
AcDbEntity
  8
実形
100
AcDbDimension
  2
*D18
 10
1180.155358395523
 20
455.6318884539888
 30
0.0
 11
1227.155358395523
 21
474.3818884539888
 31
0.0
 70
    32
 71
     5
 42
94.0
  3
ISO-25
100
AcDbAlignedDimension
 13
1274.155358395523
 23
584.9421603690644
 33
0.0
 14
1180.155358395523
 24
584.9421603690644
 34
0.0
 50
180.0
100
AcDbRotatedDimension
1001
ACAD
1000
DSTYLE
1002
{
1070
   279
1070
     2
1070
   289
1070
     0
1070
   371
1070
    18
1070
   372
1070
    18
1002
}
  0
LINE
  5
6465
330
1F
100
AcDbEntity
  8
実形
100
AcDbLine
 10
1169.155358395523
 20
584.9421603690644
 30
0.0
 11
1317.155358395523
 21
584.9421603690644
 31
0.0
  0
ARC
  5
6466
330
1F
100
AcDbEntity
  8
実形
100
AcDbCircle
 10
1317.155358395523
 20
604.9421603690644
 30
0.0
 40
20.0
100
AcDbArc
 50
270.0
 51
0.000000000000007
  0
LEADER
  5
64CC
330
1F
100
AcDbEntity
  8
0
100
AcDbLeader
  3
ISO-25
 40
25.0
 41
16.66666666666666
 76
     2
 10
1083.401743903262
 20
621.3496753884373
 30
0.0
 10
1199.722957639821
 20
678.52586468974
 30
0.0
211
-1.0
221
0.0
231
0.0
213
0.0
223
-12.5
233
0.0
1001
ACAD
1000
DSTYLE
1002
{
1070
    41
1040
25.0
1070
   147
1040
6.25
1070
    77
1070
     0
1070
    73
1070
     1
1070
    74
1070
     1
1070
   279
1070
     1
1070
   342
1005
DA
1002
}
  0
LEADER
  5
64D5
330
1F
100
AcDbEntity
  8
0
100
AcDbLeader
  3
ISO-25
 40
25.0
 41
16.66666666666666
 76
     2
 10
1310.880795345618
 20
604.5811394687907
 30
0.0
 10
1240.994125799185
 20
678.52586468974
 30
0.0
211
-1.0
221
0.0
231
0.0
213
0.0
223
-12.5
233
0.0
1001
ACAD
1000
DSTYLE
1002
{
1070
    41
1040
25.0
1070
   147
1040
6.25
1070
    77
1070
     0
1070
    73
1070
     1
1070
    74
1070
     1
1070
   279
1070
     1
1070
   342
1005
DA
1002
}
  0
LINE
  5
653E
330
1F
100
AcDbEntity
  8
実形
100
AcDbLine
 10
506.5646523606938
 20
1247.51709136721
 30
0.0
 11
506.5646523606947
 21
1617.790508683589
 31
0.0
  0
LINE
  5
653F
330
1F
100
AcDbEntity
  8
実形
100
AcDbLine
 10
496.5646523606938
 20
1375.017091367211
 30
0.0
 11
496.5646523606942
 21
1490.017091367211
 31
0.0
  0
LINE
  5
6597
330
1F
100
AcDbEntity
  8
実形
  6
ACAD_ISO08W100
100
AcDbLine
 10
516.5646523606942
 20
1247.51709136721
 30
0.0
 11
516.5646523606942
 21
1617.790508683589
 31
0.0
  0
ARC
  5
6598
330
1F
100
AcDbEntity
  8
実形
100
AcDbCircle
 10
536.5646523606942
 20
1617.790508683589
 30
0.0
 40
20.0
100
AcDbArc
 50
90.0
 51
180.0
  0
LINE
  5
6599
330
1F
100
AcDbEntity
  8
実形
100
AcDbLine
 10
536.5646523606942
 20
1637.790508683589
 30
0.0
 11
526.5646523606951
 21
1637.790508683589
 31
0.0
  0
ARC
  5
659A
330
1F
100
AcDbEntity
  8
実形
100
AcDbCircle
 10
526.5646523606947
 20
1617.790508683589
 30
0.0
 40
20.0
100
AcDbArc
 50
89.99999999999962
 51
180.0
  0
LEADER
  5
65A4
330
1F
100
AcDbEntity
  8
寸法
100
AcDbLeader
  3
ISO-25
 76
     2
 10
528.5740003251617
 20
1239.621764872132
 30
0.0
 10
567.8248576020991
 20
1277.308266897456
 30
0.0
1001
ACAD
1000
DSTYLE
1002
{
1070
    41
1040
25.0
1070
   147
1040
6.25
1070
    77
1070
     0
1002
}
  0
ARC
  5
65A6
330
1F
100
AcDbEntity
  8
実形
100
AcDbCircle
 10
536.5646523606942
 20
1247.51709136721
 30
0.0
 40
20.0
100
AcDbArc
 50
180.0
 51
270.0
  0
LINE
  5
65A7
330
1F
100
AcDbEntity
  8
実形
100
AcDbLine
 10
536.5646523606942
 20
1227.51709136721
 30
0.0
 11
526.5646523606938
 21
1227.51709136721
 31
0.0
  0
ARC
  5
65A8
330
1F
100
AcDbEntity
  8
実形
100
AcDbCircle
 10
526.5646523606938
 20
1247.51709136721
 30
0.0
 40
20.0
100
AcDbArc
 50
179.9999999999999
 51
270.0
  0
LEADER
  5
67D9
330
1F
100
AcDbEntity
  8
寸法
100
AcDbLeader
  3
ISO-25
 76
     2
 10
528.9537745614466
 20
1620.908796496101
 30
0.0
 10
574.0910207653028
 20
1554.871079833912
 30
0.0
1001
ACAD
1000
DSTYLE
1002
{
1070
    41
1040
25.0
1070
   147
1040
6.25
1070
    77
1070
     0
1002
}
  0
LINE
  5
6814
330
1F
100
AcDbEntity
  8
補助
100
AcDbLine
 10
2064.0
 20
134.0
 30
0.0
 11
2784.0
 21
134.0
 31
0.0
  0
LINE
  5
6815
330
1F
100
AcDbEntity
  8
補助
100
AcDbLine
 10
2064.0
 20
199.0
 30
0.0
 11
2784.0
 21
199.0
 31
0.0
  0
LINE
  5
6816
330
1F
100
AcDbEntity
  8
補助
100
AcDbLine
 10
2064.0
 20
69.0
 30
0.0
 11
2784.0
 21
69.0
 31
0.0
  0
TEXT
  5
6817
330
1F
100
AcDbEntity
  8
補助
100
AcDbText
 10
2086.666666666667
 20
149.0
 30
0.0
 40
35.0
  1
品番
 72
     4
 11
2124.0
 21
166.5
 31
0.0
100
AcDbText
  0
TEXT
  5
6818
330
1F
100
AcDbEntity
  8
補助
100
AcDbText
 10
2086.666666666667
 20
84.0
 30
0.0
 40
35.0
  1
尺度
 72
     4
 11
2124.0
 21
101.5
 31
0.0
100
AcDbText
  0
LINE
  5
6819
330
1F
100
AcDbEntity
  8
補助
100
AcDbLine
 10
2064.0
 20
4.0
 30
0.0
 11
2064.0
 21
199.0
 31
0.0
  0
TEXT
  5
681A
330
1F
100
AcDbEntity
  8
0
100
AcDbText
 10
2241.5
 20
151.5
 30
0.0
 40
30.0
  1
TBK280-560-450DAN
 72
     4
 11
2484.0
 21
166.5
 31
0.0
100
AcDbText
  0
LINE
  5
681B
330
1F
100
AcDbEntity
  8
補助
100
AcDbLine
 10
2184.0
 20
69.0
 30
0.0
 11
2784.0
 21
69.0
 31
0.0
  0
TEXT
  5
681C
330
1F
100
AcDbEntity
  8
補助
100
AcDbText
 10
2300.255774665348
 20
16.49999999999999
 30
0.0
 40
40.0
  1
中外交易株式会社
 72
     4
 11
2488.255774665347
 21
36.5
 31
0.0
100
AcDbText
  0
LINE
  5
681D
330
1F
100
AcDbEntity
  8
補助
100
AcDbLine
 10
2184.0
 20
69.0
 30
0.0
 11
2184.0
 21
199.0
 31
0.0
  0
HATCH
  5
681E
330
1F
100
AcDbEntity
  8
補助
100
AcDbHatch
 10
0.0
 20
0.0
 30
0.0
210
0.0
220
0.0
230
1.0
  2
SOLID
 70
     1
 71
     0
 91
        3
 92
        1
 93
        4
 72
     2
 10
2257.166198313996
 20
36.5
 40
20.0
 50
11.64772366707341
 51
342.6561058784909
 73
     1
 72
     1
 10
2276.256852341323
 20
30.53787547858514
 11
2252.166198313995
 21
30.53787547858519
 72
     1
 10
2252.166198313995
 20
30.53787547858519
 11
2252.166198313995
 21
40.53787547858519
 72
     1
 10
2252.166198313995
 20
40.53787547858519
 11
2276.75434681301
 21
40.53787547858519
 97
        0
 92
        1
 93
        4
 72
     2
 10
2188.255774665348
 20
36.5
 40
20.0
 50
11.64772366707341
 51
342.6561058784909
 73
     1
 72
     1
 10
2207.346428692676
 20
30.53787547858514
 11
2183.255774665347
 21
30.53787547858519
 72
     1
 10
2183.255774665347
 20
30.53787547858519
 11
2183.255774665347
 21
40.53787547858519
 72
     1
 10
2183.255774665347
 20
40.53787547858519
 11
2207.843923164362
 21
40.53787547858519
 97
        0
 92
        1
 93
        5
 72
     1
 10
2245.64189404294
 20
56.5
 11
2210.641894042939
 21
56.5
 72
     1
 10
2210.641894042939
 20
56.5
 11
2210.641894042939
 21
16.5
 72
     1
 10
2210.641894042939
 20
16.5
 11
2245.64189404294
 21
16.5
 72
     1
 10
2245.64189404294
 20
16.5
 11
2210.641894042939
 21
36.5
 72
     1
 10
2210.641894042939
 20
36.5
 11
2245.64189404294
 21
56.5
 97
        0
 75
     0
 76
     1
 98
        1
 10
-60.0
 20
0.0
  0
ARC
  5
681F
330
1F
100
AcDbEntity
  8
補助
370
     5
100
AcDbCircle
 10
2257.166198313996
 20
36.5
 30
0.0
 40
20.0
100
AcDbArc
 50
11.64772366707296
 51
342.6561058784924
  0
ARC
  5
6820
330
1F
100
AcDbEntity
  8
補助
370
     5
100
AcDbCircle
 10
2188.255774665348
 20
36.5
 30
0.0
 40
20.0
100
AcDbArc
 50
11.64772366707296
 51
342.6561058784924
  0
LINE
  5
6821
330
1F
100
AcDbEntity
  8
補助
370
     5
100
AcDbLine
 10
2252.166198313995
 20
30.53787547858519
 30
0.0
 11
2276.256852341323
 21
30.53787547858514
 31
0.0
  0
LINE
  5
6822
330
1F
100
AcDbEntity
  8
補助
370
     5
100
AcDbLine
 10
2252.166198313995
 20
40.53787547858519
 30
0.0
 11
2252.166198313995
 21
30.53787547858519
 31
0.0
  0
LINE
  5
6823
330
1F
100
AcDbEntity
  8
補助
370
     5
100
AcDbLine
 10
2276.75434681301
 20
40.53787547858519
 30
0.0
 11
2252.166198313995
 21
40.53787547858519
 31
0.0
  0
LINE
  5
6824
330
1F
100
AcDbEntity
  8
補助
370
     5
100
AcDbLine
 10
2245.64189404294
 20
56.5
 30
0.0
 11
2210.641894042939
 21
56.5
 31
0.0
  0
LINE
  5
6825
330
1F
100
AcDbEntity
  8
補助
370
     5
100
AcDbLine
 10
2210.641894042939
 20
36.5
 30
0.0
 11
2245.64189404294
 21
56.5
 31
0.0
  0
LINE
  5
6826
330
1F
100
AcDbEntity
  8
補助
370
     5
100
AcDbLine
 10
2245.64189404294
 20
16.5
 30
0.0
 11
2210.641894042939
 21
36.5
 31
0.0
  0
LINE
  5
6827
330
1F
100
AcDbEntity
  8
補助
370
     5
100
AcDbLine
 10
2210.641894042939
 20
56.5
 30
0.0
 11
2210.641894042939
 21
16.5
 31
0.0
  0
LINE
  5
6828
330
1F
100
AcDbEntity
  8
補助
370
     5
100
AcDbLine
 10
2183.255774665347
 20
30.53787547858519
 30
0.0
 11
2207.346428692676
 21
30.53787547858514
 31
0.0
  0
LINE
  5
6829
330
1F
100
AcDbEntity
  8
補助
370
     5
100
AcDbLine
 10
2183.255774665347
 20
40.53787547858519
 30
0.0
 11
2183.255774665347
 21
30.53787547858519
 31
0.0
  0
LINE
  5
682A
330
1F
100
AcDbEntity
  8
補助
370
     5
100
AcDbLine
 10
2207.843923164362
 20
40.53787547858519
 30
0.0
 11
2183.255774665347
 21
40.53787547858519
 31
0.0
  0
TEXT
  5
682B
330
1F
100
AcDbEntity
  8
0
100
AcDbText
 10
2430.916666666667
 20
84.0
 30
0.0
 40
35.0
  1
1：10
 72
     4
 11
2484.0
 21
101.5
 31
0.0
100
AcDbText
  0
LINE
  5
6E92
330
1F
100
AcDbEntity
  8
実形
100
AcDbLine
 10
1067.155358395523
 20
1207.517091367211
 30
0.0
 11
1907.155358395523
 21
1207.517091367211
 31
0.0
  0
LINE
  5
6E93
330
1F
100
AcDbEntity
  8
実形
100
AcDbLine
 10
1937.155358395523
 20
1237.517091367211
 30
0.0
 11
1937.155358395523
 21
1627.51709136721
 31
0.0
  0
LINE
  5
6E94
330
1F
100
AcDbEntity
  8
実形
100
AcDbLine
 10
1067.155358395523
 20
1657.517091367211
 30
0.0
 11
1907.155358395523
 21
1657.517091367211
 31
0.0
  0
LINE
  5
6E96
330
1F
100
AcDbEntity
  8
実形
100
AcDbLine
 10
1037.155358395523
 20
1627.517091367211
 30
0.0
 11
1037.155358395523
 21
1237.517091367211
 31
0.0
  0
TEXT
  5
6E9F
330
1F
100
AcDbEntity
  8
寸法
100
AcDbText
 10
1781.894847059265
 20
1294.520904833343
 30
0.0
 40
25.0
  1
20R
100
AcDbText
  0
TEXT
  5
6EA7
330
1F
100
AcDbEntity
  8
寸法
100
AcDbText
 10
1782.172224388562
 20
1524.863692430121
 30
0.0
 40
25.0
  1
20R
100
AcDbText
  0
TEXT
  5
6EAF
330
1F
100
AcDbEntity
  8
寸法
100
AcDbText
 10
1431.115309472458
 20
1537.95134947147
 30
0.0
 40
25.0
  1
20R
100
AcDbText
  0
TEXT
  5
6EB7
330
1F
100
AcDbEntity
  8
寸法
100
AcDbText
 10
1491.333843445211
 20
1265.728058027428
 30
0.0
 40
25.0
  1
20R
100
AcDbText
  0
TEXT
  5
6EBF
330
1F
100
AcDbEntity
  8
寸法
100
AcDbText
 10
1179.91566334103
 20
1281.581123980774
 30
0.0
 40
25.0
  1
20R
100
AcDbText
  0
TEXT
  5
6ED0
330
1F
100
AcDbEntity
  8
寸法
100
AcDbText
 10
971.7860866031852
 20
1749.110358533807
 30
0.0
 40
25.0
  1
30R
100
AcDbText
  0
TEXT
  5
6ED9
330
1F
100
AcDbEntity
  8
寸法
100
AcDbText
 10
1252.992104740105
 20
1527.252996444855
 30
0.0
 40
25.0
  1
20R
100
AcDbText
  0
ARC
  5
6EF5
330
1F
100
AcDbEntity
  8
実形
100
AcDbCircle
 10
1907.155358395523
 20
1627.51709136721
 30
0.0
 40
30.0
100
AcDbArc
 50
359.9999999999998
 51
89.99999999999994
  0
ARC
  5
6EF6
330
1F
100
AcDbEntity
  8
実形
100
AcDbCircle
 10
1907.155358395523
 20
1237.517091367211
 30
0.0
 40
30.0
100
AcDbArc
 50
270.0
 51
359.9999999999999
  0
ARC
  5
6EF7
330
1F
100
AcDbEntity
  8
実形
100
AcDbCircle
 10
1067.155358395523
 20
1237.517091367211
 30
0.0
 40
30.0
100
AcDbArc
 50
180.0
 51
270.0
  0
ARC
  5
6EF8
330
1F
100
AcDbEntity
  8
実形
100
AcDbCircle
 10
1067.155358395523
 20
1627.517091367211
 30
0.0
 40
30.0
100
AcDbArc
 50
89.99999999999992
 51
180.0
  0
LINE
  5
6EF9
330
1F
100
AcDbEntity
  8
実形
100
AcDbLine
 10
1022.155358395523
 20
1672.517091367211
 30
0.0
 11
1952.155358395523
 21
1672.517091367211
 31
0.0
  0
LINE
  5
6EFA
330
1F
100
AcDbEntity
  8
実形
100
AcDbLine
 10
1022.155358395523
 20
1192.517091367211
 30
0.0
 11
1952.155358395523
 21
1192.517091367211
 31
0.0
  0
LINE
  5
6EFB
330
1F
100
AcDbEntity
  8
実形
100
AcDbLine
 10
1952.155358395523
 20
1192.517091367211
 30
0.0
 11
1952.155358395523
 21
1672.517091367211
 31
0.0
  0
LINE
  5
6EFC
330
1F
100
AcDbEntity
  8
実形
100
AcDbLine
 10
1022.155358395523
 20
1672.517091367211
 30
0.0
 11
1022.155358395523
 21
1192.517091367211
 31
0.0
  0
TEXT
  5
6F71
330
1F
100
AcDbEntity
  8
寸法
100
AcDbText
 10
1032.853499416725
 20
1132.128697282216
 30
0.0
 40
25.0
  1
20
100
AcDbText
  0
LEADER
  5
700A
330
1F
100
AcDbEntity
  8
寸法
100
AcDbLeader
  3
ISO-25
 76
     2
 10
1933.603405805249
 20
1659.794003846885
 30
0.0
 10
1969.158267722325
 20
1733.30815954819
 30
0.0
1001
ACAD
1000
DSTYLE
1002
{
1070
    41
1040
25.0
1070
   147
1040
6.25
1070
    77
1070
     0
1002
}
  0
TEXT
  5
700B
330
1F
100
AcDbEntity
  8
寸法
100
AcDbText
 10
1938.840108940707
 20
1744.445870853002
 30
0.0
 40
25.0
  1
30R
100
AcDbText
  0
LINE
  5
7019
330
1F
100
AcDbEntity
  8
実形
100
AcDbLine
 10
1037.155358395523
 20
1122.51709136721
 30
0.0
 11
1037.155358395524
 21
1074.022685871276
 31
0.0
  0
LINE
  5
703B
330
1F
100
AcDbEntity
  8
実形
100
AcDbLine
 10
1337.155358395523
 20
1122.517091367211
 30
0.0
 11
1337.155358395523
 21
1074.147751339128
 31
0.0
  0
LINE
  5
703C
330
1F
100
AcDbEntity
  8
実形
100
AcDbLine
 10
1357.155358395523
 20
1122.517091367211
 30
0.0
 11
1357.155358395523
 21
1074.147751339128
 31
0.0
  0
TEXT
  5
7045
330
1F
100
AcDbEntity
  8
寸法
100
AcDbText
 10
1329.361445052232
 20
1129.868908933901
 30
0.0
 40
25.0
  1
20
100
AcDbText
  0
LINE
  5
7046
330
1F
100
AcDbEntity
  8
実形
100
AcDbLine
 10
1937.155358395523
 20
1122.51709136721
 30
0.0
 11
1937.155358395523
 21
1074.147751339128
 31
0.0
  0
TEXT
  5
704F
330
1F
100
AcDbEntity
  8
寸法
100
AcDbText
 10
1910.562236014616
 20
1133.586881027196
 30
0.0
 40
25.0
  1
20
100
AcDbText
  0
LINE
  5
7050
330
1F
100
AcDbEntity
  8
実形
100
AcDbLine
 10
1022.155358395523
 20
1122.51709136721
 30
0.0
 11
1022.155358395523
 21
1074.147751339129
 31
0.0
  0
TEXT
  5
7059
330
1F
100
AcDbEntity
  8
実形
370
    18
100
AcDbText
 10
1017.076223399855
 20
1005.113152003798
 30
0.0
 40
10.0
  1
●
100
AcDbText
  0
TEXT
  5
7062
330
1F
100
AcDbEntity
  8
寸法
100
AcDbText
 10
975.642688862089
 20
1019.079469519868
 30
0.0
 40
25.0
  1
15
100
AcDbText
  0
LINE
  5
7063
330
1F
100
AcDbEntity
  8
実形
100
AcDbLine
 10
1952.155358395522
 20
1122.51709136721
 30
0.0
 11
1952.155358395523
 21
1074.147751339129
 31
0.0
  0
TEXT
  5
706C
330
1F
100
AcDbEntity
  8
実形
370
    18
100
AcDbText
 10
1947.39597072125
 20
1004.991085509929
 30
0.0
 40
10.0
  1
●
100
AcDbText
  0
TEXT
  5
7075
330
1F
100
AcDbEntity
  8
寸法
100
AcDbText
 10
1966.160116712625
 20
1017.144887192573
 30
0.0
 40
25.0
  1
15
100
AcDbText
  0
DIMENSION
  5
7076
330
1F
100
AcDbEntity
  8
実形
100
AcDbDimension
  2
*D19
 10
1952.155358395523
 20
957.0781018571276
 30
0.0
 11
1487.155358395523
 21
975.8281018571276
 31
0.0
 70
    32
 71
     5
 42
929.999999999999
  3
ISO-25
100
AcDbAlignedDimension
 13
1022.155358395523
 23
1186.326207410708
 33
0.0
 14
1952.155358395523
 24
1186.702078324637
 34
0.0
100
AcDbRotatedDimension
1001
ACAD
1000
DSTYLE
1002
{
1070
   279
1070
     2
1070
   289
1070
     0
1070
   371
1070
    18
1070
   372
1070
    18
1002
}
  0
DIMENSION
  5
70C3
330
1F
100
AcDbEntity
  8
実形
100
AcDbDimension
  2
*D20
 10
1937.155358395523
 20
1009.676634767759
 30
0.0
 11
1487.155358395523
 21
1028.426634767759
 31
0.0
 70
    32
 71
     5
 42
899.9999999999992
  3
ISO-25
100
AcDbAlignedDimension
 13
1037.155358395523
 23
1137.427925548517
 33
0.0
 14
1937.155358395523
 24
1136.420321409152
 34
0.0
100
AcDbRotatedDimension
1001
ACAD
1000
DSTYLE
1002
{
1070
   279
1070
     2
1070
   289
1070
     0
1070
   371
1070
    18
1070
   372
1070
    18
1002
}
  0
LINE
  5
70E2
330
1F
100
AcDbEntity
  8
実形
100
AcDbLine
 10
1037.155358395523
 20
1009.676634767759
 30
0.0
 11
1022.155358395523
 21
1009.676634767759
 31
0.0
  0
LINE
  5
70E3
330
1F
100
AcDbEntity
  8
実形
100
AcDbLine
 10
1937.155358395523
 20
1009.676634767759
 30
0.0
 11
1952.155358395523
 21
1009.676634767759
 31
0.0
  0
LINE
  5
7111
330
1F
100
AcDbEntity
  8
実形
100
AcDbLine
 10
1337.155358395523
 20
1074.147751339128
 30
0.0
 11
1357.155358395523
 21
1074.147751339128
 31
0.0
  0
LINE
  5
7133
330
1F
100
AcDbEntity
  8
実形
100
AcDbLine
 10
716.5646523606942
 20
1192.517091367211
 30
0.0
 11
716.5646523606944
 21
1672.517091367212
 31
0.0
  0
LINE
  5
7136
330
1F
100
AcDbEntity
  8
実形
100
AcDbLine
 10
716.5646523606942
 20
1207.517091367211
 30
0.0
 11
701.5646523606942
 21
1207.517091367211
 31
0.0
  0
LINE
  5
7137
330
1F
100
AcDbEntity
  8
実形
100
AcDbLine
 10
716.5646523606944
 20
1657.517091367211
 30
0.0
 11
701.5646523606942
 21
1657.517091367211
 31
0.0
  0
LINE
  5
7139
330
1F
100
AcDbEntity
  8
実形
100
AcDbLine
 10
701.5646523606942
 20
1637.517091367211
 30
0.0
 11
600.6154560020613
 21
1637.517091367211
 31
0.0
  0
LINE
  5
73E8
330
1F
100
AcDbEntity
  8
実形
100
AcDbLine
 10
1952.155358395522
 20
794.9421603690644
 30
0.0
 11
1022.155358395523
 21
794.9421603690645
 31
0.0
  0
LINE
  5
73EA
330
1F
100
AcDbEntity
  8
実形
100
AcDbLine
 10
1042.155358395523
 20
779.9421603690644
 30
0.0
 11
1042.155358395523
 21
794.9421603690645
 31
0.0
  0
LINE
  5
73EC
330
1F
100
AcDbEntity
  8
実形
100
AcDbLine
 10
1932.155358395523
 20
779.9421603690643
 30
0.0
 11
1932.155358395523
 21
794.9421603690642
 31
0.0
  0
LINE
  5
73F3
330
1F
100
AcDbEntity
  8
実形
100
AcDbLine
 10
1075.376719636033
 20
593.3152531154477
 30
0.0
 11
1169.155358395523
 21
584.9421603690644
 31
0.0
  0
ARC
  5
73F4
330
1F
100
AcDbEntity
  8
実形
100
AcDbCircle
 10
1077.155358395524
 20
613.2360072217369
 30
0.0
 40
20.0
100
AcDbArc
 50
180.0
 51
264.8978347476417
  0
TEXT
  5
7413
330
1F
100
AcDbEntity
  8
寸法
100
AcDbText
 10
1196.249194240818
 20
687.8967381768079
 30
0.0
 40
25.0
  1
20R
100
AcDbText
  0
LINE
  5
741E
330
1F
100
AcDbEntity
  8
実形
100
AcDbLine
 10
854.8775348808931
 20
794.9421603690645
 30
0.0
 11
854.8775348808931
 21
594.9421603690645
 31
0.0
  0
LINE
  5
7440
330
1F
100
AcDbEntity
  8
実形
100
AcDbLine
 10
919.8775348808931
 20
779.9421603690644
 30
0.0
 11
854.8775348808931
 21
779.9421603690644
 31
0.0
  0
LINE
  5
7442
330
1F
100
AcDbEntity
  8
実形
100
AcDbLine
 10
919.8775348808931
 20
794.9421603690645
 30
0.0
 11
680.4066630268071
 21
794.9421603690645
 31
0.0
  0
LINE
  5
7443
330
1F
100
AcDbEntity
  8
実形
100
AcDbLine
 10
919.8775348808931
 20
594.9421603690645
 30
0.0
 11
801.2525386823991
 21
594.9421603690645
 31
0.0
  0
LINE
  5
7444
330
1F
100
AcDbEntity
  8
実形
100
AcDbLine
 10
919.8775348808931
 20
584.9421603690644
 30
0.0
 11
743.3722788840342
 21
584.9421603690644
 31
0.0
  0
LINE
  5
7445
330
1F
100
AcDbEntity
  8
実形
100
AcDbLine
 10
801.2525386823991
 20
574.9421603690645
 30
0.0
 11
680.4066630268071
 21
574.9421603690644
 31
0.0
  0
TEXT
  5
744E
330
1F
100
AcDbEntity
  8
実形
370
    18
100
AcDbText
 10
850.7127497066331
 20
790.6967801821747
 30
0.0
 40
10.0
  1
●
100
AcDbText
  0
TEXT
  5
7456
330
1F
100
AcDbEntity
  8
寸法
100
AcDbText
 10
842.3169528452287
 20
751.6634604775372
 30
0.0
 40
25.0
  1
15
 50
90.0
100
AcDbText
  0
TEXT
  5
745F
330
1F
100
AcDbEntity
  8
実形
370
    18
100
AcDbText
 10
850.6300422171198
 20
775.7990023076154
 30
0.0
 40
10.0
  1
●
100
AcDbText
  0
TEXT
  5
7467
330
1F
100
AcDbEntity
  8
実形
370
    18
100
AcDbText
 10
849.9510466152923
 20
590.7853919856442
 30
0.0
 40
10.0
  1
●
100
AcDbText
  0
TEXT
  5
7470
330
1F
100
AcDbEntity
  8
寸法
100
AcDbText
 10
842.2272374976119
 20
663.1097235582947
 30
0.0
 40
25.0
  1
189
 50
90.0
100
AcDbText
  0
TEXT
  5
7501
330
1F
100
AcDbEntity
  8
寸法
100
AcDbText
 10
780.2236822256209
 20
592.1432594310044
 30
0.0
 40
25.0
  1
6
 50
90.0
100
AcDbText
  0
LINE
  5
7513
330
1F
100
AcDbEntity
  8
実形
100
AcDbLine
 10
801.2525386823991
 20
794.9421603690645
 30
0.0
 11
801.2525386823991
 21
584.9421603690644
 31
0.0
  0
TEXT
  5
751D
330
1F
100
AcDbEntity
  8
寸法
100
AcDbText
 10
786.7458972369649
 20
661.568969809381
 30
0.0
 40
25.0
  1
204
 50
90.0
100
AcDbText
  0
TEXT
  5
7526
330
1F
100
AcDbEntity
  8
実形
370
    18
100
AcDbText
 10
796.8678824346016
 20
791.0791736441451
 30
0.0
 40
10.0
  1
●
100
AcDbText
  0
TEXT
  5
75AE
330
1F
100
AcDbEntity
  8
実形
370
    18
100
AcDbText
 10
796.9778440346881
 20
590.7213242784282
 30
0.0
 40
10.0
  1
●
100
AcDbText
  0
LINE
  5
75B8
330
1F
100
AcDbEntity
  8
実形
100
AcDbLine
 10
743.3722788840341
 20
799.4112615102132
 30
0.0
 11
743.3722788840341
 21
574.9421603690644
 31
0.0
  0
TEXT
  5
75C1
330
1F
100
AcDbEntity
  8
実形
370
    18
100
AcDbText
 10
796.7822710865321
 20
580.1643195941087
 30
0.0
 40
10.0
  1
●
100
AcDbText
  0
LINE
  5
75CA
330
1F
100
AcDbEntity
  8
実形
100
AcDbLine
 10
680.4066630268071
 20
794.9421603690646
 30
0.0
 11
680.4066630268071
 21
574.9421603690644
 31
0.0
  0
TEXT
  5
75D3
330
1F
100
AcDbEntity
  8
実形
370
    18
100
AcDbText
 10
738.2550718357752
 20
790.8339344213382
 30
0.0
 40
10.0
  1
●
100
AcDbText
  0
TEXT
  5
75DB
330
1F
100
AcDbEntity
  8
実形
370
    18
100
AcDbText
 10
737.8685700111064
 20
581.092417792237
 30
0.0
 40
10.0
  1
●
100
AcDbText
  0
TEXT
  5
75E5
330
1F
100
AcDbEntity
  8
寸法
100
AcDbText
 10
731.0118513093357
 20
667.2216351821498
 30
0.0
 40
25.0
  1
210
 50
90.0
100
AcDbText
  0
TEXT
  5
75EF
330
1F
100
AcDbEntity
  8
実形
370
    18
100
AcDbText
 10
737.8419104903741
 20
570.7676505990539
 30
0.0
 40
10.0
  1
●
100
AcDbText
  0
TEXT
  5
75F8
330
1F
100
AcDbEntity
  8
寸法
100
AcDbText
 10
729.6100748167109
 20
579.8344909648331
 30
0.0
 40
25.0
  1
8
 50
90.0
100
AcDbText
  0
TEXT
  5
7601
330
1F
100
AcDbEntity
  8
寸法
100
AcDbText
 10
664.552342574224
 20
661.843028668809
 30
0.0
 40
25.0
  1
218
 50
90.0
100
AcDbText
  0
TEXT
  5
760A
330
1F
100
AcDbEntity
  8
実形
370
    18
100
AcDbText
 10
675.9536786372946
 20
789.4836323288155
 30
0.0
 40
10.0
  1
●
100
AcDbText
  0
TEXT
  5
7613
330
1F
100
AcDbEntity
  8
実形
370
    18
100
AcDbText
 10
675.6250440662852
 20
570.1367728685782
 30
0.0
 40
10.0
  1
●
100
AcDbText
  0
TEXT
  5
765C
330
1F
100
AcDbEntity
  8
寸法
100
AcDbText
 10
1465.264151384152
 20
670.9538992336684
 30
0.0
 40
25.0
  1
20R
100
AcDbText
  0
TEXT
  5
7664
330
1F
100
AcDbEntity
  8
寸法
100
AcDbText
 10
1785.968011321841
 20
670.9538992336684
 30
0.0
 40
25.0
  1
20R
100
AcDbText
  0
LINE
  5
76AA
330
1F
100
AcDbEntity
  8
実形
100
AcDbLine
 10
2066.524320822947
 20
794.9421603690644
 30
0.0
 11
2066.524320822947
 21
594.9421603690645
 31
0.0
  0
LINE
  5
76AB
330
1F
100
AcDbEntity
  8
実形
100
AcDbLine
 10
2126.524320822947
 20
794.9421603690644
 30
0.0
 11
2126.524320822947
 21
584.9421603690646
 31
0.0
  0
LINE
  5
76AC
330
1F
100
AcDbEntity
  8
実形
100
AcDbLine
 10
2186.524320822947
 20
794.9421603690644
 30
0.0
 11
2186.524320822947
 21
574.9421603690644
 31
0.0
  0
LINE
  5
76AD
330
1F
100
AcDbEntity
  8
実形
100
AcDbLine
 10
2246.524320822947
 20
794.9421603690644
 30
0.0
 11
2246.524320822947
 21
574.9421603690644
 31
0.0
  0
LINE
  5
76AE
330
1F
100
AcDbEntity
  8
実形
100
AcDbLine
 10
2006.524320822947
 20
794.9421603690644
 30
0.0
 11
2246.524320822947
 21
794.9421603690644
 31
0.0
  0
LINE
  5
76B1
330
1F
100
AcDbEntity
  8
実形
100
AcDbLine
 10
2006.524320822947
 20
584.9421603690644
 30
0.0
 11
2186.524320822947
 21
584.9421603690646
 31
0.0
  0
LINE
  5
76B2
330
1F
100
AcDbEntity
  8
実形
100
AcDbLine
 10
2126.524320822947
 20
574.9421603690644
 30
0.0
 11
2246.524320822947
 21
574.9421603690644
 31
0.0
  0
TEXT
  5
76BB
330
1F
100
AcDbEntity
  8
実形
370
    18
100
AcDbText
 10
2062.508396145982
 20
789.6469436030019
 30
0.0
 40
10.0
  1
●
100
AcDbText
  0
TEXT
  5
76C3
330
1F
100
AcDbEntity
  8
実形
370
    18
100
AcDbText
 10
2062.017495181871
 20
775.4472136356107
 30
0.0
 40
10.0
  1
●
100
AcDbText
  0
TEXT
  5
76CD
330
1F
100
AcDbEntity
  8
寸法
100
AcDbText
 10
2051.358044539203
 20
801.5876766197997
 30
0.0
 40
25.0
  1
15
 50
90.0
100
AcDbText
  0
TEXT
  5
76CE
330
1F
100
AcDbEntity
  8
寸法
100
AcDbText
 10
2051.268329191586
 20
667.1552970684579
 30
0.0
 40
25.0
  1
185
 50
90.0
100
AcDbText
  0
TEXT
  5
76D7
330
1F
100
AcDbEntity
  8
実形
370
    18
100
AcDbText
 10
2061.864001766743
 20
590.0199091544672
 30
0.0
 40
10.0
  1
●
100
AcDbText
  0
TEXT
  5
76EA
330
1F
100
AcDbEntity
  8
寸法
100
AcDbText
 10
2114.009639468382
 20
667.6771518533642
 30
0.0
 40
25.0
  1
200
 50
90.0
100
AcDbText
  0
TEXT
  5
76F3
330
1F
100
AcDbEntity
  8
実形
370
    18
100
AcDbText
 10
2122.204188548582
 20
790.269069543564
 30
0.0
 40
10.0
  1
●
100
AcDbText
  0
TEXT
  5
76FB
330
1F
100
AcDbEntity
  8
実形
370
    18
100
AcDbText
 10
2121.924482244952
 20
581.0118816580889
 30
0.0
 40
10.0
  1
●
100
AcDbText
  0
TEXT
  5
7705
330
1F
100
AcDbEntity
  8
実形
370
    18
100
AcDbText
 10
2121.618728679926
 20
590.9626592255963
 30
0.0
 40
10.0
  1
●
100
AcDbText
  0
TEXT
  5
770E
330
1F
100
AcDbEntity
  8
寸法
100
AcDbText
 10
2173.346009402017
 20
670.8450123621268
 30
0.0
 40
25.0
  1
210
 50
90.0
100
AcDbText
  0
TEXT
  5
7716
330
1F
100
AcDbEntity
  8
寸法
100
AcDbText
 10
2236.592862211209
 20
668.7158312241336
 30
0.0
 40
25.0
  1
218
 50
90.0
100
AcDbText
  0
LINE
  5
7717
330
1F
100
AcDbEntity
  8
実形
100
AcDbLine
 10
2006.524320822947
 20
779.9421603690643
 30
0.0
 11
2066.524320822947
 21
779.9421603690643
 31
0.0
  0
LINE
  5
7718
330
1F
100
AcDbEntity
  8
実形
100
AcDbLine
 10
2006.524320822947
 20
794.9421603690644
 30
0.0
 11
2066.524320822947
 21
794.9421603690645
 31
0.0
  0
TEXT
  5
7721
330
1F
100
AcDbEntity
  8
寸法
100
AcDbText
 10
2115.974818862507
 20
600.2619628650345
 30
0.0
 40
25.0
  1
10
 50
90.0
100
AcDbText
  0
LINE
  5
7722
330
1F
100
AcDbEntity
  8
実形
100
AcDbLine
 10
2006.524320822947
 20
584.9421603690644
 30
0.0
 11
2126.524320822947
 21
584.9421603690644
 31
0.0
  0
LINE
  5
7723
330
1F
100
AcDbEntity
  8
実形
100
AcDbLine
 10
2126.524320822947
 20
594.9421603690645
 30
0.0
 11
2006.524320822947
 21
594.9421603690645
 31
0.0
  0
TEXT
  5
772C
330
1F
100
AcDbEntity
  8
実形
370
    18
100
AcDbText
 10
2181.163712861907
 20
789.4451456329806
 30
0.0
 40
10.0
  1
●
100
AcDbText
  0
TEXT
  5
7734
330
1F
100
AcDbEntity
  8
実形
370
    18
100
AcDbText
 10
2181.828014063341
 20
580.501403443649
 30
0.0
 40
10.0
  1
●
100
AcDbText
  0
TEXT
  5
773D
330
1F
100
AcDbEntity
  8
寸法
100
AcDbText
 10
2174.169141459723
 20
593.6046873192236
 30
0.0
 40
25.0
  1
8
 50
90.0
100
AcDbText
  0
TEXT
  5
7746
330
1F
100
AcDbEntity
  8
実形
370
    18
100
AcDbText
 10
2181.871930727107
 20
570.0787932059265
 30
0.0
 40
10.0
  1
●
100
AcDbText
  0
TEXT
  5
774F
330
1F
100
AcDbEntity
  8
実形
370
    18
100
AcDbText
 10
2241.027937631027
 20
569.6555681433046
 30
0.0
 40
10.0
  1
●
100
AcDbText
  0
TEXT
  5
7757
330
1F
100
AcDbEntity
  8
実形
370
    18
100
AcDbText
 10
2241.039675517123
 20
790.1525504667888
 30
0.0
 40
10.0
  1
●
100
AcDbText
  0
LINE
  5
777A
330
1F
100
AcDbEntity
  8
実形
100
AcDbLine
 10
716.5646523606942
 20
1092.9586178982
 30
0.0
 11
516.5646523606944
 21
1092.9586178982
 31
0.0
  0
LINE
  5
777B
330
1F
100
AcDbEntity
  8
実形
100
AcDbLine
 10
701.5646523606942
 20
1157.9586178982
 30
0.0
 11
701.5646523606942
 21
1092.9586178982
 31
0.0
  0
LINE
  5
777C
330
1F
100
AcDbEntity
  8
実形
100
AcDbLine
 10
716.5646523606942
 20
1157.9586178982
 30
0.0
 11
716.5646523606944
 21
918.4877460441141
 31
0.0
  0
LINE
  5
777D
330
1F
100
AcDbEntity
  8
実形
100
AcDbLine
 10
516.5646523606944
 20
1157.9586178982
 30
0.0
 11
516.5646523606944
 21
1039.333621699706
 31
0.0
  0
LINE
  5
777E
330
1F
100
AcDbEntity
  8
実形
100
AcDbLine
 10
506.5646523606943
 20
1157.9586178982
 30
0.0
 11
506.5646523606943
 21
981.4533619013412
 31
0.0
  0
LINE
  5
777F
330
1F
100
AcDbEntity
  8
実形
100
AcDbLine
 10
496.5646523606944
 20
1039.333621699706
 30
0.0
 11
496.5646523606944
 21
918.4877460441139
 31
0.0
  0
TEXT
  5
7780
330
1F
100
AcDbEntity
  8
実形
370
    18
100
AcDbText
 10
712.3192721738044
 20
1088.79383272394
 30
0.0
 40
10.0
  1
●
 50
270.0
 71
     2
100
AcDbText
  0
TEXT
  5
7782
330
1F
100
AcDbEntity
  8
実形
370
    18
100
AcDbText
 10
697.4214942992452
 20
1088.711125234427
 30
0.0
 40
10.0
  1
●
 50
270.0
 71
     2
100
AcDbText
  0
TEXT
  5
7783
330
1F
100
AcDbEntity
  8
実形
370
    18
100
AcDbText
 10
512.4078839772741
 20
1088.032129632599
 30
0.0
 40
10.0
  1
●
 50
270.0
 71
     2
100
AcDbText
  0
LINE
  5
7786
330
1F
100
AcDbEntity
  8
実形
100
AcDbLine
 10
716.5646523606942
 20
1039.333621699706
 30
0.0
 11
506.5646523606943
 21
1039.333621699706
 31
0.0
  0
TEXT
  5
7788
330
1F
100
AcDbEntity
  8
実形
370
    18
100
AcDbText
 10
712.7016656357749
 20
1034.948965451908
 30
0.0
 40
10.0
  1
●
 50
270.0
 71
     2
100
AcDbText
  0
TEXT
  5
7789
330
1F
100
AcDbEntity
  8
実形
370
    18
100
AcDbText
 10
512.343816270058
 20
1035.058927051995
 30
0.0
 40
10.0
  1
●
 50
270.0
 71
     2
100
AcDbText
  0
LINE
  5
778A
330
1F
100
AcDbEntity
  8
実形
100
AcDbLine
 10
721.0337535018429
 20
981.453361901341
 30
0.0
 11
496.5646523606941
 21
981.453361901341
 31
0.0
  0
TEXT
  5
778B
330
1F
100
AcDbEntity
  8
実形
370
    18
100
AcDbText
 10
501.7868115857385
 20
1034.863354103839
 30
0.0
 40
10.0
  1
●
 50
270.0
 71
     2
100
AcDbText
  0
LINE
  5
778C
330
1F
100
AcDbEntity
  8
実形
100
AcDbLine
 10
716.5646523606945
 20
918.4877460441139
 30
0.0
 11
496.5646523606944
 21
918.4877460441141
 31
0.0
  0
TEXT
  5
778D
330
1F
100
AcDbEntity
  8
実形
370
    18
100
AcDbText
 10
712.456426412968
 20
976.336154853082
 30
0.0
 40
10.0
  1
●
 50
270.0
 71
     2
100
AcDbText
  0
TEXT
  5
778E
330
1F
100
AcDbEntity
  8
実形
370
    18
100
AcDbText
 10
502.7149097838668
 20
975.9496530284131
 30
0.0
 40
10.0
  1
●
 50
270.0
 71
     2
100
AcDbText
  0
TEXT
  5
7790
330
1F
100
AcDbEntity
  8
実形
370
    18
100
AcDbText
 10
492.3901425906836
 20
975.922993507681
 30
0.0
 40
10.0
  1
●
 50
270.0
 71
     2
100
AcDbText
  0
TEXT
  5
779B
330
1F
100
AcDbEntity
  8
寸法
100
AcDbText
 10
729.9475836808842
 20
1101.590149679871
 30
0.0
 40
25.0
  1
15
100
AcDbText
  0
TEXT
  5
77A4
330
1F
100
AcDbEntity
  8
寸法
100
AcDbText
 10
583.3711018767653
 20
1101.844685315644
 30
0.0
 40
25.0
  1
189
100
AcDbText
  0
TEXT
  5
77AD
330
1F
100
AcDbEntity
  8
寸法
100
AcDbText
 10
477.4223354965752
 20
1051.712609716387
 30
0.0
 40
25.0
  1
6
100
AcDbText
  0
TEXT
  5
77B6
330
1F
100
AcDbEntity
  8
寸法
100
AcDbText
 10
467.3933701613214
 20
988.689435014402
 30
0.0
 40
25.0
  1
8
100
AcDbText
  0
TEXT
  5
77BF
330
1F
100
AcDbEntity
  8
寸法
100
AcDbText
 10
584.8755105269565
 20
1047.415579203547
 30
0.0
 40
25.0
  1
204
100
AcDbText
  0
TEXT
  5
77C8
330
1F
100
AcDbEntity
  8
寸法
100
AcDbText
 10
584.8755105269565
 20
990.1217785186817
 30
0.0
 40
25.0
  1
210
100
AcDbText
  0
TEXT
  5
77D1
330
1F
100
AcDbEntity
  8
寸法
100
AcDbText
 10
584.2957971494788
 20
932.5138437946453
 30
0.0
 40
25.0
  1
218
100
AcDbText
  0
TEXT
  5
77DA
330
1F
100
AcDbEntity
  8
実形
370
    18
100
AcDbText
 10
712.4859285663245
 20
914.8294074035867
 30
0.0
 40
10.0
  1
●
 50
270.0
 71
     2
100
AcDbText
  0
TEXT
  5
77E2
330
1F
100
AcDbEntity
  8
実形
370
    18
100
AcDbText
 10
491.4376727530473
 20
914.3282634231599
 30
0.0
 40
10.0
  1
●
 50
270.0
 71
     2
100
AcDbText
  0
TEXT
  5
77FD
330
1F
100
AcDbEntity
  8
寸法
100
AcDbText
 10
566.3544294593857
 20
1515.925578618681
 30
0.0
 40
25.0
  1
20R
100
AcDbText
  0
TEXT
  5
7805
330
1F
100
AcDbEntity
  8
寸法
100
AcDbText
 10
573.0678180746099
 20
1285.491109043055
 30
0.0
 40
25.0
  1
20R
100
AcDbText
  0
DIMENSION
  5
7947
330
1F
100
AcDbEntity
  8
実形
100
AcDbDimension
  2
*D21
 10
932.225896012892
 20
1227.517091367211
 30
0.0
 11
913.4758960128918
 21
1435.43038038831
 31
0.0
 70
   160
 71
     5
 42
410.0000000000009
  3
ISO-25
100
AcDbAlignedDimension
 13
1043.514760521476
 23
1637.517091367211
 33
0.0
 14
1043.514760521476
 24
1227.517091367211
 34
0.0
 50
90.0
100
AcDbRotatedDimension
1001
ACAD
1000
DSTYLE
1002
{
1070
   279
1070
     2
1070
   289
1070
     0
1070
   371
1070
    18
1070
   372
1070
    18
1002
}
  0
DIMENSION
  5
7954
330
1F
100
AcDbEntity
  8
実形
100
AcDbDimension
  2
*D22
 10
932.225896012892
 20
1227.517091367211
 30
0.0
 11
913.4758960128918
 21
1630.693335174659
 31
0.0
 70
   160
  1
20
 71
     5
 42
430.0000000000006
  3
ISO-25
100
AcDbAlignedDimension
 13
1044.992598662934
 23
1657.517091367211
 33
0.0
 14
1047.407909257689
 24
1227.517091367211
 34
0.0
 50
90.0
100
AcDbRotatedDimension
1001
ACAD
1000
DSTYLE
1002
{
1070
   279
1070
     2
1070
   289
1070
     0
1070
   371
1070
    18
1070
   372
1070
    18
1002
}
  0
DIMENSION
  5
797C
330
1F
100
AcDbEntity
  8
実形
100
AcDbDimension
  2
*D23
 10
932.2258960128921
 20
1637.517091367211
 30
0.0
 11
913.4758960128918
 21
1238.224271058043
 31
0.0
 70
   160
  1
20
 71
     5
 42
430.0000000000004
  3
ISO-25
100
AcDbAlignedDimension
 13
1046.150346077998
 23
1207.517091367211
 33
0.0
 14
1043.514760521476
 24
1637.517091367211
 34
0.0
 50
90.0
100
AcDbRotatedDimension
1001
ACAD
1000
DSTYLE
1002
{
1070
   279
1070
     2
1070
   289
1070
     0
1070
   371
1070
    18
1070
   372
1070
    18
1002
}
  0
DIMENSION
  5
79E4
330
1F
100
AcDbEntity
  8
実形
100
AcDbDimension
  2
*D24
 10
872.5903061959844
 20
1207.517091367211
 30
0.0
 11
853.8403061959842
 21
1432.517091367211
 31
0.0
 70
    32
 71
     5
 42
450.0
  3
ISO-25
100
AcDbAlignedDimension
 13
1022.155358395523
 23
1657.517091367211
 33
0.0
 14
998.5430544527599
 24
1207.517091367211
 34
0.0
 50
90.0
100
AcDbRotatedDimension
1001
ACAD
1000
DSTYLE
1002
{
1070
   279
1070
     2
1070
   289
1070
     0
1070
   371
1070
    18
1070
   372
1070
    18
1002
}
  0
DIMENSION
  5
7A03
330
1F
100
AcDbEntity
  8
実形
100
AcDbDimension
  2
*D25
 10
818.3560419872874
 20
1192.517091367211
 30
0.0
 11
799.6060419872873
 21
1432.517091367211
 31
0.0
 70
    32
 71
     5
 42
480.0000000000004
  3
ISO-25
100
AcDbAlignedDimension
 13
1047.139765908917
 23
1672.517091367211
 33
0.0
 14
1044.108951005309
 24
1192.517091367211
 34
0.0
 50
90.0
100
AcDbRotatedDimension
1001
ACAD
1000
DSTYLE
1002
{
1070
   279
1070
     2
1070
   289
1070
     0
1070
   371
1070
    18
1070
   372
1070
    18
1002
}
  0
LINE
  5
7A2B
330
1F
100
AcDbEntity
  8
実形
100
AcDbLine
 10
872.5903061959844
 20
1657.517091367211
 30
0.0
 11
872.5903061959844
 21
1672.517091367211
 31
0.0
  0
LINE
  5
7A2C
330
1F
100
AcDbEntity
  8
実形
100
AcDbLine
 10
872.5903061959844
 20
1207.517091367211
 30
0.0
 11
872.5903061959844
 21
1192.517091367211
 31
0.0
  0
TEXT
  5
7A34
330
1F
100
AcDbEntity
  8
寸法
100
AcDbText
 10
859.0537614754499
 20
1627.101041885316
 30
0.0
 40
25.0
  1
15
 50
90.0
100
AcDbText
  0
TEXT
  5
7A3D
330
1F
100
AcDbEntity
  8
寸法
100
AcDbText
 10
863.0257764141131
 20
1202.203404042728
 30
0.0
 40
25.0
  1
15
 50
90.0
100
AcDbText
  0
TEXT
  5
7A45
330
1F
100
AcDbEntity
  8
実形
370
    18
100
AcDbText
 10
877.1198287698016
 20
1668.328186122248
 30
0.0
 40
10.0
  1
●
 71
     2
100
AcDbText
  0
TEXT
  5
7A4D
330
1F
100
AcDbEntity
  8
実形
370
    18
100
AcDbText
 10
876.9563205412751
 20
1188.149152472903
 30
0.0
 40
10.0
  1
●
 71
     2
100
AcDbText
  0
LINE
  5
7A50
330
1F
100
AcDbEntity
  8
センター
 48
0.6
100
AcDbLine
 10
2240.408224824203
 20
1432.517091367212
 30
0.0
 11
2338.186644615775
 21
1432.517091367212
 31
0.0
  0
LINE
  5
7A56
330
1F
100
AcDbEntity
  8
実形
100
AcDbLine
 10
2099.217827047478
 20
1207.517091367211
 30
0.0
 11
2099.217827047478
 21
1657.517091367212
 31
0.0
  0
LINE
  5
7A57
330
1F
100
AcDbEntity
  8
実形
100
AcDbLine
 10
2084.217827047478
 20
1192.517091367212
 30
0.0
 11
2084.217827047478
 21
1672.517091367212
 31
0.0
  0
LINE
  5
7A58
330
1F
100
AcDbEntity
  8
実形
100
AcDbLine
 10
2294.217827047479
 20
1247.517091367211
 30
0.0
 11
2294.217827047477
 21
1617.790508683589
 31
0.0
  0
ARC
  5
7A59
330
1F
100
AcDbEntity
  8
実形
100
AcDbCircle
 10
2274.217827047479
 20
1247.517091367211
 30
0.0
 40
20.0
100
AcDbArc
 50
270.0000000000001
 51
0.0000000000000938
  0
LINE
  5
7A5A
330
1F
100
AcDbEntity
  8
実形
  6
ACAD_ISO08W100
100
AcDbLine
 10
2284.217827047478
 20
1247.517091367211
 30
0.0
 11
2284.217827047478
 21
1617.79050868359
 31
0.0
  0
ARC
  5
7A5B
330
1F
100
AcDbEntity
  8
実形
100
AcDbCircle
 10
2264.217827047478
 20
1247.517091367211
 30
0.0
 40
20.0
100
AcDbArc
 50
270.0000000000001
 51
0.0000000000000429
  0
ARC
  5
7A5C
330
1F
100
AcDbEntity
  8
実形
100
AcDbCircle
 10
2264.217827047478
 20
1617.79050868359
 30
0.0
 40
20.0
100
AcDbArc
 50
0.0000000000000429
 51
90.00000000000005
  0
LINE
  5
7A5E
330
1F
100
AcDbEntity
  8
実形
100
AcDbLine
 10
2099.217827047478
 20
1637.790508683589
 30
0.0
 11
2264.217827047478
 21
1637.79050868359
 31
0.0
  0
LINE
  5
7A5F
330
1F
100
AcDbEntity
  8
実形
100
AcDbLine
 10
2099.217827047478
 20
1227.517091367211
 30
0.0
 11
2264.217827047478
 21
1227.517091367211
 31
0.0
  0
LINE
  5
7A60
330
1F
100
AcDbEntity
  8
実形
100
AcDbLine
 10
2264.217827047478
 20
1637.79050868359
 30
0.0
 11
2274.217827047477
 21
1637.79050868359
 31
0.0
  0
ARC
  5
7A61
330
1F
100
AcDbEntity
  8
実形
100
AcDbCircle
 10
2274.217827047477
 20
1617.790508683589
 30
0.0
 40
20.0
100
AcDbArc
 50
0.0000000000000429
 51
90.00000000000042
  0
LEADER
  5
7A62
330
1F
100
AcDbEntity
  8
寸法
100
AcDbLeader
  3
ISO-25
 76
     2
 10
2272.208479083011
 20
1239.621764872133
 30
0.0
 10
2232.957621806073
 20
1277.308266897456
 30
0.0
211
-1.0
221
-0.0000000000000006
231
0.0
1001
ACAD
1000
DSTYLE
1002
{
1070
    41
1040
25.0
1070
   147
1040
6.25
1070
    77
1070
     0
1002
}
  0
LINE
  5
7A63
330
1F
100
AcDbEntity
  8
実形
100
AcDbLine
 10
2264.217827047478
 20
1227.517091367211
 30
0.0
 11
2274.217827047479
 21
1227.517091367211
 31
0.0
  0
LEADER
  5
7A64
330
1F
100
AcDbEntity
  8
寸法
100
AcDbLeader
  3
ISO-25
 76
     2
 10
2271.828704846726
 20
1620.908796496101
 30
0.0
 10
2226.69145864287
 20
1554.871079833912
 30
0.0
211
-1.0
221
-0.0000000000000006
231
0.0
1001
ACAD
1000
DSTYLE
1002
{
1070
    41
1040
25.0
1070
   147
1040
6.25
1070
    77
1070
     0
1002
}
  0
LINE
  5
7A65
330
1F
100
AcDbEntity
  8
実形
100
AcDbLine
 10
2084.217827047478
 20
1207.517091367211
 30
0.0
 11
2099.217827047478
 21
1207.517091367211
 31
0.0
  0
LINE
  5
7A66
330
1F
100
AcDbEntity
  8
実形
100
AcDbLine
 10
2084.217827047478
 20
1657.517091367212
 30
0.0
 11
2099.217827047478
 21
1657.517091367212
 31
0.0
  0
LINE
  5
7A67
330
1F
100
AcDbEntity
  8
実形
100
AcDbLine
 10
2099.217827047478
 20
1637.517091367212
 30
0.0
 11
2200.167023406111
 21
1637.517091367212
 31
0.0
  0
DIMENSION
  5
7B14
330
1F
100
AcDbEntity
  8
実形
100
AcDbDimension
  2
*D26
 10
2284.217827047478
 20
1100.640767961285
 30
0.0
 11
2049.046340984531
 21
1119.390767961284
 31
0.0
 70
   160
  1
15
 71
     5
 42
200.0000000000004
  3
ISO-25
100
AcDbAlignedDimension
 13
2084.217827047478
 23
1208.992507324764
 33
0.0
 14
2284.217827047478
 24
1208.992507324764
 34
0.0
100
AcDbRotatedDimension
1001
ACAD
1000
DSTYLE
1002
{
1070
   282
1070
     1
1070
   281
1070
     1
1070
    76
1070
     1
1070
    75
1070
     1
1070
   279
1070
     2
1070
   289
1070
     0
1070
   371
1070
    18
1070
   372
1070
    18
1002
}
  0
DIMENSION
  5
7B15
330
1F
100
AcDbEntity
  8
実形
100
AcDbDimension
  2
*D27
 10
2284.217827047478
 20
1100.640767961285
 30
0.0
 11
2191.717827047478
 21
1119.390767961284
 31
0.0
 70
    32
 71
     5
 42
185.0000000000009
  3
ISO-25
100
AcDbAlignedDimension
 13
2099.217827047477
 23
1208.992507324764
 33
0.0
 14
2284.217827047478
 24
1208.992507324764
 34
0.0
100
AcDbRotatedDimension
1001
ACAD
1000
DSTYLE
1002
{
1070
   279
1070
     2
1070
   289
1070
     0
1070
   371
1070
    18
1070
   372
1070
    18
1002
}
  0
LINE
  5
7B16
330
1F
100
AcDbEntity
  8
実形
100
AcDbLine
 10
2084.217827047478
 20
1143.992507324764
 30
0.0
 11
2084.217827047478
 21
1100.640767961285
 31
0.0
  0
LINE
  5
7B17
330
1F
100
AcDbEntity
  8
実形
100
AcDbLine
 10
2084.217827047478
 20
1100.640767961285
 30
0.0
 11
2099.217827047477
 21
1100.640767961285
 31
0.0
  0
TEXT
  5
7B18
330
1F
100
AcDbEntity
  8
実形
370
    18
100
AcDbText
 10
2079.486576519515
 20
1095.884973442927
 30
0.0
 40
10.0
  1
●
100
AcDbText
  0
DIMENSION
  5
7B19
330
1F
100
AcDbEntity
  8
実形
100
AcDbDimension
  2
*D28
 10
2284.217827047478
 20
1052.418202794423
 30
0.0
 11
2196.362104789247
 21
1071.168202794423
 31
0.0
 70
   160
 71
     5
 42
200.0000000000004
  3
ISO-25
100
AcDbAlignedDimension
 13
2084.217827047478
 23
1208.992507324764
 33
0.0
 14
2284.217827047478
 24
1208.992507324764
 34
0.0
100
AcDbRotatedDimension
1001
ACAD
1000
DSTYLE
1002
{
1070
   279
1070
     2
1070
   289
1070
     0
1070
   371
1070
    18
1070
   372
1070
    18
1002
}
  0
DIMENSION
  5
7B1A
330
1F
100
AcDbEntity
  8
実形
100
AcDbDimension
  2
*D29
 10
2294.217827047478
 20
1052.418202794423
 30
0.0
 11
2326.835898781405
 21
1071.168202794423
 31
0.0
 70
   160
  1
10
 71
     5
 42
210.0
  3
ISO-25
100
AcDbAlignedDimension
 13
2084.217827047478
 23
1164.10607685679
 33
0.0
 14
2294.217827047478
 24
1164.10607685679
 34
0.0
100
AcDbRotatedDimension
1001
ACAD
1000
DSTYLE
1002
{
1070
   282
1070
     1
1070
   281
1070
     1
1070
   279
1070
     2
1070
   289
1070
     0
1070
   371
1070
    18
1070
   372
1070
    18
1002
}
  0
LINE
  5
7B1B
330
1F
100
AcDbEntity
  8
実形
100
AcDbLine
 10
2284.217827047478
 20
1052.418202794423
 30
0.0
 11
2294.217827047478
 21
1052.418202794423
 31
0.0
  0
TEXT
  5
7B1C
330
1F
100
AcDbEntity
  8
実形
370
    18
100
AcDbText
 10
2289.953056430497
 20
1047.380414347367
 30
0.0
 40
10.0
  1
●
100
AcDbText
  0
DIMENSION
  5
7B1D
330
1F
100
AcDbEntity
  8
実形
100
AcDbDimension
  2
*D30
 10
2294.217827047478
 20
999.87043981093
 30
0.0
 11
2189.217827047478
 21
1018.62043981093
 31
0.0
 70
    32
 71
     5
 42
210.0
  3
ISO-25
100
AcDbAlignedDimension
 13
2084.217827047478
 23
1164.10607685679
 33
0.0
 14
2294.217827047478
 24
1133.476731055189
 34
0.0
100
AcDbRotatedDimension
1001
ACAD
1000
DSTYLE
1002
{
1070
   279
1070
     2
1070
   289
1070
     0
1070
   371
1070
    18
1070
   372
1070
    18
1002
}
  0
DIMENSION
  5
7B1E
330
1F
100
AcDbEntity
  8
実形
100
AcDbDimension
  2
*D31
 10
2304.217827047478
 20
999.87043981093
 30
0.0
 11
2333.298308424097
 21
1018.62043981093
 31
0.0
 70
   160
  1
8
 71
     5
 42
219.9999999999995
  3
ISO-25
100
AcDbAlignedDimension
 13
2084.217827047478
 23
1164.10607685679
 33
0.0
 14
2304.217827047478
 24
1152.403242481073
 34
0.0
100
AcDbRotatedDimension
1001
ACAD
1000
DSTYLE
1002
{
1070
   282
1070
     1
1070
   281
1070
     1
1070
    76
1070
     1
1070
    75
1070
     1
1070
   279
1070
     2
1070
   289
1070
     0
1070
   371
1070
    18
1070
   372
1070
    18
1002
}
  0
LINE
  5
7B1F
330
1F
100
AcDbEntity
  8
実形
100
AcDbLine
 10
2294.217827047478
 20
999.87043981093
 30
0.0
 11
2304.286353976322
 21
999.87043981093
 31
0.0
  0
LINE
  5
7B20
330
1F
100
AcDbEntity
  8
実形
100
AcDbLine
 10
2304.286353976322
 20
999.87043981093
 30
0.0
 11
2304.286353976322
 21
1048.095311348709
 31
0.0
  0
TEXT
  5
7B21
330
1F
100
AcDbEntity
  8
実形
370
    18
100
AcDbText
 10
2299.362222662187
 20
994.7294690157512
 30
0.0
 40
10.0
  1
●
100
AcDbText
  0
DIMENSION
  5
7B22
330
1F
100
AcDbEntity
  8
実形
100
AcDbDimension
  2
*D32
 10
2304.217827047478
 20
948.7570792024168
 30
0.0
 11
2194.217827047478
 21
967.5070792024168
 31
0.0
 70
    32
  1
218
 71
     5
 42
219.9999999999995
  3
ISO-25
100
AcDbAlignedDimension
 13
2084.217827047478
 23
1164.10607685679
 33
0.0
 14
2304.217827047478
 24
1073.046778957103
 34
0.0
100
AcDbRotatedDimension
1001
ACAD
1000
DSTYLE
1002
{
1070
   279
1070
     2
1070
   289
1070
     0
1070
   371
1070
    18
1070
   372
1070
    18
1002
}
  0
LINE
  5
7BC0
330
1F
100
AcDbEntity
  8
実形
100
AcDbLine
 10
2294.217827047479
 20
1342.017091367212
 30
0.0
 11
2304.217827047478
 21
1342.017091367212
 31
0.0
  0
LINE
  5
7BC1
330
1F
100
AcDbEntity
  8
実形
100
AcDbLine
 10
2304.217827047478
 20
1523.017091367212
 30
0.0
 11
2294.217827047479
 21
1523.017091367212
 31
0.0
  0
LINE
  5
7BC3
330
1F
100
AcDbEntity
  8
実形
100
AcDbLine
 10
2304.217827047478
 20
1523.017091367212
 30
0.0
 11
2304.217827047478
 21
1342.017091367212
 31
0.0
  0
DIMENSION
  5
7BC4
330
1F
100
AcDbEntity
  8
実形
100
AcDbDimension
  2
*D33
 10
2421.134425583336
 20
1512.517091367212
 30
0.0
 11
2402.034425583336
 21
1432.517091367212
 31
0.0
 70
    32
 71
     5
 42
160.0
  3
ISO-25
100
AcDbAlignedDimension
 13
2304.217827047478
 23
1352.517091367212
 33
0.0
 14
2304.217827047478
 24
1512.517091367212
 34
0.0
 50
90.0
100
AcDbRotatedDimension
1001
ACAD
1000
DSTYLE
1002
{
1070
    41
1040
10.0
1070
   140
1040
25.0
1070
   147
1040
6.599999999999998
1070
   279
1070
     2
1070
   342
1005
2ED7
1070
   371
1070
    18
1070
   372
1070
    18
1002
}
  0
DIMENSION
  5
7BC5
330
1F
100
AcDbEntity
  8
実形
100
AcDbDimension
  2
*D34
 10
2492.376722398613
 20
1523.017091367212
 30
0.0
 11
2473.276722398613
 21
1432.517091367212
 31
0.0
 70
    32
 71
     5
 42
180.9999999999995
  3
ISO-25
100
AcDbAlignedDimension
 13
2304.217827047478
 23
1342.017091367212
 33
0.0
 14
2304.217827047483
 24
1523.017091367212
 34
0.0
 50
90.0
100
AcDbRotatedDimension
1001
ACAD
1000
DSTYLE
1002
{
1070
    41
1040
10.0
1070
   140
1040
25.0
1070
   147
1040
6.599999999999998
1070
   279
1070
     2
1070
   342
1005
2ED7
1070
   371
1070
    18
1070
   372
1070
    18
1002
}
  0
TEXT
  5
7BF8
330
1F
100
AcDbEntity
  8
寸法
100
AcDbText
 10
2173.321438522409
 20
1514.839398314496
 30
0.0
 40
25.0
  1
20R
100
AcDbText
  0
TEXT
  5
7C00
330
1F
100
AcDbEntity
  8
寸法
100
AcDbText
 10
2189.542357437481
 20
1289.831446952568
 30
0.0
 40
25.0
  1
20R
100
AcDbText
  0
LINE
  5
7E46
330
1F
100
AcDbEntity
  8
補助
 62
     0
100
AcDbLine
 10
2784.0
 20
1959.000000000001
 30
0.0
 11
2019.387286519283
 21
1959.000000000002
 31
0.0
  0
LINE
  5
7E47
330
1F
100
AcDbEntity
  8
補助
 62
     0
100
AcDbLine
 10
2784.0
 20
1894.000000000001
 30
0.0
 11
2019.387286519283
 21
1894.000000000001
 31
0.0
  0
LINE
  5
7E48
330
1F
100
AcDbEntity
  8
補助
 62
     0
100
AcDbLine
 10
2202.547653420927
 20
1894.000000000001
 30
0.0
 11
2202.547653420927
 21
2024.000000000002
 31
0.0
  0
LINE
  5
7E49
330
1F
100
AcDbEntity
  8
補助
 62
     0
100
AcDbLine
 10
2019.387286519283
 20
1894.000000000001
 30
0.0
 11
2019.387286519283
 21
2024.000000000002
 31
0.0
  0
TEXT
  5
7E4A
330
1F
100
AcDbEntity
  8
補助
 62
     0
100
AcDbText
 10
2050.295698850121
 20
1976.328571428573
 30
0.0
 40
30.0
  1
部品名
  7
明朝
 72
     4
 11
2116.124270278692
 21
1991.500000000002
 31
0.0
100
AcDbText
  0
TEXT
  5
7E4B
330
1F
100
AcDbEntity
  8
補助
 62
     0
100
AcDbText
 10
2627.614285714286
 20
1976.07142857143
 30
0.0
 40
30.0
  1
厚さ
  7
明朝
 72
     4
 11
2671.5
 21
1991.500000000002
 31
0.0
100
AcDbText
  0
LINE
  5
7E4C
330
1F
100
AcDbEntity
  8
補助
 62
     0
100
AcDbLine
 10
2559.0
 20
1894.000000000001
 30
0.0
 11
2559.0
 21
2024.000000000002
 31
0.0
  0
TEXT
  5
7E4D
330
1F
100
AcDbEntity
  8
補助
 62
     0
100
AcDbText
 10
2338.490869919937
 20
1975.947979478156
 30
0.0
 40
30.0
  1
材質
  7
明朝
 72
     4
 11
2382.376584205651
 21
1991.119408049584
 31
0.0
100
AcDbText
  0
TEXT
  5
7E4E
330
1F
100
AcDbEntity
  8
実形
 62
     0
100
AcDbText
 10
2048.227810657788
 20
1910.557142857144
 30
0.0
 40
30.0
  1
ボウル
  7
明朝
 72
     4
 11
2114.056382086359
 21
1926.500000000001
 31
0.0
100
AcDbText
  0
TEXT
  5
7E4F
330
1F
100
AcDbEntity
  8
実形
 62
     0
100
AcDbText
 10
2594.700000000001
 20
1911.842857142858
 30
0.0
 40
30.0
  1
1.0ｍｍ
  7
明朝
 72
     4
 11
2671.500000000001
 21
1926.500000000001
 31
0.0
100
AcDbText
  0
TEXT
  5
7E50
330
1F
100
AcDbEntity
  8
実形
 62
     0
100
AcDbText
 10
2261.016869107866
 20
1910.728571428572
 30
0.0
 40
30.0
  1
SUS304（HL）
  7
明朝
 72
     4
 11
2392.674011965008
 21
1926.500000000001
 31
0.0
100
AcDbText
  0
LINE
  5
7E51
330
1F
100
AcDbEntity
  8
実形
100
AcDbLine
 10
114.0
 20
2024.0
 30
0.0
 11
114.0
 21
4.0
 31
0.0
  0
LINE
  5
7E90
330
1F
100
AcDbEntity
  8
実形
100
AcDbLine
 10
1284.655358395523
 20
584.9421603690644
 30
0.0
 11
1284.655358395523
 21
574.9421603690644
 31
0.0
  0
LINE
  5
7E91
330
1F
100
AcDbEntity
  8
実形
100
AcDbLine
 10
1169.655358395523
 20
574.9421603690644
 30
0.0
 11
1169.655358395523
 21
584.9421603690644
 31
0.0
  0
LINE
  5
7EBB
330
1F
100
AcDbEntity
  8
実形
100
AcDbLine
 10
496.5646523606942
 20
1490.017091367211
 30
0.0
 11
506.5646523606942
 21
1490.017091367211
 31
0.0
  0
LINE
  5
7EBC
330
1F
100
AcDbEntity
  8
実形
100
AcDbLine
 10
496.5646523606942
 20
1375.017091367211
 30
0.0
 11
506.5646523606942
 21
1375.017091367211
 31
0.0
  0
VIEWPORT
  5
2E
102
{ACAD_XDICTIONARY
360
7EDC
102
}
330
1B
100
AcDbEntity
 67
     1
  8
0
100
AcDbViewport
 10
144.7270812988281
 20
101.2295806407928
 30
0.0
 40
411.6736216682419
 41
222.1517806396485
 68
     1
 69
     1
 12
144.7270812988281
 22
101.2295806407928
 13
0.0
 23
0.0
 14
10.0
 24
10.0
 15
10.0
 25
10.0
 16
0.0
 26
0.0
 36
1.0
 17
0.0
 27
0.0
 37
0.0
 42
50.0
 43
0.0
 44
0.0
 45
222.1517806396485
 50
0.0
 51
0.0
 72
   100
 90
    32800
  1

281
     0
 71
     1
 74
     0
110
0.0
120
0.0
130
0.0
111
1.0
121
0.0
131
0.0
112
0.0
122
1.0
132
0.0
 79
     0
146
0.0
  0
VIEWPORT
  5
30
102
{ACAD_XDICTIONARY
360
7EDE
102
}
330
1B
100
AcDbEntity
 67
     1
  8
0
100
AcDbViewport
 10
139.2237563133239
 20
101.2295821905136
 30
0.0
 40
222.7580101013184
 41
161.9673315048218
 68
     2
 69
     2
 12
210.0
 22
148.5
 13
0.0
 23
0.0
 14
10.0
 24
10.0
 15
10.0
 25
10.0
 16
0.0
 26
0.0
 36
1.0
 17
0.0
 27
0.0
 37
0.0
 42
50.0
 43
0.0
 44
0.0
 45
309.0686705647124
 50
0.0
 51
0.0
 72
   100
 90
    32864
  1

281
     0
 71
     1
 74
     0
110
0.0
120
0.0
130
0.0
111
1.0
121
0.0
131
0.0
112
0.0
122
1.0
132
0.0
 79
     0
146
0.0
  0
ENDSEC
  0
SECTION
  2
OBJECTS
  0
DICTIONARY
  5
C
330
0
100
AcDbDictionary
281
     1
  3
ACAD_COLOR
350
260C
  3
ACAD_GROUP
350
D
  3
ACAD_LAYOUT
350
1A
  3
ACAD_MATERIAL
350
260B
  3
ACAD_MLINESTYLE
350
17
  3
ACAD_PLOTSETTINGS
350
19
  3
ACAD_PLOTSTYLENAME
350
E
  3
ACAD_TABLESTYLE
350
260D
  3
AcadDim
350
124
  3
ACDBHEADERROUNDTRIPXREC
350
7ED5
  3
AcDbVariableDictionary
350
1055
  0
DICTIONARY
  5
2635
330
2
100
AcDbDictionary
280
     1
281
     1
  3
ACAD_LAYERFILTERS
360
2637
  3
ACAD_LAYERSTATES
360
272C
  3
ACLYDICTIONARY
360
2636
  0
DICTIONARY
  5
264B
330
1F
100
AcDbDictionary
280
     1
281
     1
  3
ACAD_SORTENTS
360
264C
  0
DICTIONARY
  5
3890
330
388E
100
AcDbDictionary
280
     1
281
     1
  3
ACAD_SORTENTS
360
3891
  0
DICTIONARY
  5
49DF
330
49DC
100
AcDbDictionary
280
     1
281
     1
  3
ACAD_SORTENTS
360
49E0
  0
DICTIONARY
  5
7EDC
330
2E
100
AcDbDictionary
280
     1
281
     1
  3
ACAD_XREC_ROUNDTRIP
360
7EDD
  0
DICTIONARY
  5
7EDE
330
30
100
AcDbDictionary
280
     1
281
     1
  3
ACAD_XREC_ROUNDTRIP
360
7EDF
  0
DICTIONARY
  5
260C
102
{ACAD_REACTORS
330
C
102
}
330
C
100
AcDbDictionary
281
     1
  0
DICTIONARY
  5
D
102
{ACAD_REACTORS
330
C
102
}
330
C
100
AcDbDictionary
281
     1
  0
DICTIONARY
  5
1A
102
{ACAD_REACTORS
330
C
102
}
330
C
100
AcDbDictionary
281
     1
  3
Model
350
22
  3
ﾚｲｱｳﾄ1
350
1E
  3
ﾚｲｱｳﾄ2
350
26
  0
DICTIONARY
  5
260B
102
{ACAD_REACTORS
330
C
102
}
330
C
100
AcDbDictionary
281
     1
  0
DICTIONARY
  5
17
102
{ACAD_REACTORS
330
C
102
}
330
C
100
AcDbDictionary
281
     1
  3
Standard
350
18
  0
DICTIONARY
  5
19
102
{ACAD_REACTORS
330
C
102
}
330
C
100
AcDbDictionary
281
     1
  0
ACDBDICTIONARYWDFLT
  5
E
102
{ACAD_REACTORS
330
C
102
}
330
C
100
AcDbDictionary
281
     1
  3
Normal
350
F
100
AcDbDictionaryWithDefault
340
F
  0
DICTIONARY
  5
260D
102
{ACAD_REACTORS
330
C
102
}
330
C
100
AcDbDictionary
281
     1
  3
Standard
350
260E
  0
XRECORD
  5
124
102
{ACAD_REACTORS
330
C
102
}
330
C
100
AcDbXrecord
280
     1
 90
   990106
  3

 60
     0
 61
     0
 62
     1
 63
     3
 64
     0
 65
     0
 66
     0
 67
     3
 68
     1
 69
     0
 70
     0
 71
     0
 72
     0
 40
30.0
170
     0
  0
DICTIONARY
  5
7ED5
102
{ACAD_REACTORS
330
C
102
}
330
C
100
AcDbDictionary
281
     1
  0
DICTIONARY
  5
1055
102
{ACAD_REACTORS
330
C
102
}
330
C
100
AcDbDictionary
281
     1
  3
CTABLESTYLE
350
2614
  3
DIMASSOC
350
7ED2
  3
PROJECTNAME
350
7ED3
  3
SORTENTS
350
1056
  0
DICTIONARY
  5
2637
102
{ACAD_REACTORS
330
2635
102
}
330
2635
100
AcDbDictionary
281
     1
  0
DICTIONARY
  5
272C
102
{ACAD_REACTORS
330
2635
102
}
330
2635
100
AcDbDictionary
281
     1
  0
DICTIONARY
  5
2636
102
{ACAD_REACTORS
330
2635
102
}
330
2635
100
AcDbDictionary
281
     1
1001
ACAD
1000
<All
  0
SORTENTSTABLE
  5
264C
102
{ACAD_REACTORS
330
264B
102
}
330
264B
100
AcDbSortentsTable
330
1F
331
16AB
  5
16CF
331
2938
  5
2382
331
6819
  5
6E6C
331
4506
  5
6341
331
A5
  5
A5
331
6821
  5
6F71
331
6234
  5
64D5
331
6ED0
  5
70C3
331
7076
  5
7442
331
76B1
  5
7717
331
778E
  5
7947
331
7954
  5
7A58
331
7A03
  5
7A5B
331
7A5A
  5
7B14
331
7BF8
  5
7E51
331
797C
  5
7A59
331
7A62
  5
7B1B
331
7C00
  5
7E68
331
AD
  5
AD
331
16BB
  5
2377
331
167C
  5
167C
331
16DB
  5
2385
331
5F85
  5
6346
331
6433
  5
6828
331
659A
  5
6977
331
6829
  5
704F
331
5EA6
  5
1683
331
6EF8
  5
1682
331
704F
  5
71F7
331
760A
  5
76CE
331
6264
  5
646D
331
7718
  5
777D
331
774F
  5
7789
331
77FD
  5
7A50
331
7A2B
  5
7A5C
331
75D3
  5
76A9
331
7757
  5
778A
331
77B6
  5
7A2B
331
7805
  5
7A56
331
7B1A
  5
7BC5
331
7E4C
  5
7E93
331
7445
  5
75DB
331
75DB
  5
76AF
331
777F
  5
779B
331
79E4
  5
7A5A
331
7B22
  5
7E4B
331
7BC1
  5
7E4D
331
1A22
  5
2387
331
2939
  5
16CC
331
681A
  5
6E6D
331
61B5
  5
6462
331
7136
  5
7470
331
6822
  5
700A
331
6235
  5
653C
331
76AA
  5
76F3
331
76B2
  5
7718
331
7EBB
  5
5FDC
331
7A5B
  5
7B15
331
7A63
  5
7B1C
331
16CC
  5
237B
331
3B00
  5
5FF1
331
167D
  5
16AE
331
6434
  5
6829
331
682A
  5
7050
331
6ED9
  5
70E2
331
5EA7
  5
16A2
331
3819
  5
5FE4
331
3B08
  5
607E
331
168D
  5
16C5
331
6E92
  5
16B5
331
6EF9
  5
1681
331
7050
  5
71F8
331
6F71
  5
70E3
331
7613
  5
76D7
331
7A2C
  5
7A5E
331
741E
  5
75AF
331
7721
  5
777E
331
7A34
  5
7A5F
331
7B1B
  5
7BF8
331
7E4D
  5
7EA7
331
751D
  5
7613
331
76EA
  5
773D
331
7780
  5
77A4
331
77BF
  5
7A2C
331
169D
  5
16CE
331
5ECF
  5
6343
331
16AD
  5
16E3
331
16B5
  5
1A6F
331
61AE
  5
6434
331
64CC
  5
6834
331
293A
  5
2378
331
681B
  5
6E88
331
7019
  5
7113
331
61B6
  5
6464
331
7137
  5
7501
331
63DD
  5
6740
331
6823
  5
700B
331
6236
  5
653E
331
744E
  5
75DC
331
76AB
  5
76FB
331
7788
  5
77C8
331
7456
  5
75E5
331
7790
  5
7954
331
7EBC
  5
5FE2
331
76BB
  5
7721
331
7A5C
  5
7B16
331
7A64
  5
7B1D
331
1A2B
  5
238A
331
3422
  5
54CA
331
6435
  5
682A
331
682B
  5
7059
331
5EA8
  5
1684
331
381A
  5
5FE5
331
6E93
  5
237C
331
65A4
  5
699C
331
6EFA
  5
16C2
331
76C3
  5
7722
331
6465
  5
682B
331
7059
  5
73EB
331
7B14
  5
7B21
331
7E46
  5
7E69
331
765C
  5
76D8
331
7722
  5
777F
331
7B1C
  5
7C00
331
7E4E
  5
7EA8
331
7664
  5
76EA
331
77C8
  5
7A34
331
7947
  5
7A57
331
7A3D
  5
7A60
331
7A45
  5
7A61
331
7BC3
  5
7E4E
331
3B11
  5
6081
331
3B39
  5
610F
331
1A24
  5
2388
331
16B6
  5
22F1
331
6814
  5
699F
331
700A
  5
7111
331
A0
  5
A0
331
681C
  5
6E91
331
61B7
  5
6460
331
64D5
  5
683E
331
63DE
  5
6742
331
6824
  5
7019
331
6237
  5
653F
331
73E8
  5
6435
331
7526
  5
765C
331
75E5
  5
76B2
331
76AC
  5
7705
331
76F3
  5
7746
331
7789
  5
77D1
331
75AE
  5
7664
331
76FB
  5
774F
331
7A4D
  5
7A62
331
745F
  5
75E6
331
7467
  5
75EF
331
7A65
  5
7B1E
331
1A2C
  5
238B
331
3A62
  5
5FE6
331
1677
  5
1677
331
5F90
  5
6347
331
6E94
  5
167E
331
6EFB
  5
237F
331
6080
  5
63FF
331
6466
  5
6743
331
7111
  5
7467
331
7B15
  5
7B22
331
7E47
  5
7E7C
331
7440
  5
75B8
331
7723
  5
7780
331
777A
  5
778B
331
7B1D
  5
7E46
331
7E4F
  5
7EBB
331
7782
  5
77AD
331
7BC4
  5
7E4F
331
44CA
  5
6237
331
293C
  5
16E0
331
6815
  5
69A1
331
700B
  5
7112
331
7062
  5
73ED
331
7139
  5
7513
331
681D
  5
6E92
331
76AD
  5
770E
331
778A
  5
77DA
331
77D1
  5
7A3D
331
6825
  5
703B
331
703B
  5
7131
331
63DF
  5
6744
331
653E
  5
63D0
331
6238
  5
6598
331
7A56
  5
7A64
331
7A5E
  5
7B17
331
7A66
  5
7B1F
331
5F81
  5
6344
331
7470
  5
75F8
331
65A6
  5
63DD
331
6EFC
  5
1A62
331
6081
  5
6432
331
70E2
  5
7445
331
76CD
  5
7723
331
7B16
  5
7BC0
331
7E48
  5
7E7D
331
777B
  5
778C
331
7B1E
  5
7E47
331
7E50
  5
7EBC
331
772C
  5
7782
331
7783
  5
77B6
331
7BC5
  5
7E50
331
1A26
  5
2389
331
8C9
  5
8C9
331
63D0
  5
65A4
331
6816
  5
6B5D
331
7063
  5
73F4
331
681E
  5
6E93
331
73EA
  5
751D
331
76AE
  5
7716
331
7734
  5
7783
331
778B
  5
77E2
331
6826
  5
703C
331
703C
  5
7132
331
653F
  5
63E0
331
75B8
  5
76A5
331
75EF
  5
76BB
331
77DA
  5
7A45
331
6597
  5
63DC
331
7705
  5
7757
331
779B
  5
797C
331
77E2
  5
7A4D
331
7A57
  5
7A65
331
7A5F
  5
7B18
331
7A67
  5
7B20
331
1679
  5
1679
331
3425
  5
5F91
331
6430
  5
681A
331
70C3
  5
7444
331
6E96
  5
1A61
331
65A7
  5
699D
331
6EF5
  5
2381
331
7501
  5
7601
331
70E3
  5
7456
331
76CE
  5
772C
331
7B17
  5
7BC1
331
7E90
  5
6827
331
7B1F
  5
7E48
331
7E49
  5
7E90
331
7442
  5
75C1
331
777C
  5
778D
331
7E51
  5
54BD
331
1699
  5
16C7
331
6349
  5
6599
331
2936
  5
2383
331
7133
  5
63CF
331
63D1
  5
6463
331
6817
  5
6E6A
331
681F
  5
6EFB
331
706C
  5
7413
331
6827
  5
7045
331
778C
  5
77FD
331
7A50
  5
7A63
331
773D
  5
7786
331
75F8
  5
76C3
331
7A58
  5
7A66
331
7A60
  5
7B19
331
770E
  5
777A
331
77A4
  5
79E4
331
16B9
  5
2376
331
5F83
  5
6345
331
6598
  5
63DE
331
7045
  5
7133
331
65A8
  5
63D1
331
6EF6
  5
2380
331
73F3
  5
7527
331
75C1
  5
76A7
331
6E9F
  5
7062
331
7413
  5
75AE
331
7716
  5
777B
331
7B18
  5
7BC3
331
6EA7
  5
7063
331
7E91
  5
6826
331
7B20
  5
7E49
331
7E4A
  5
7E91
331
7443
  5
75CA
331
76D7
  5
7734
331
777D
  5
778E
331
9C
  5
9C
331
2937
  5
16AC
331
6818
  5
6E6B
331
6EAF
  5
706C
331
6820
  5
6EFC
331
6233
  5
64CB
331
6EB7
  5
7075
331
6EBF
  5
7076
331
7075
  5
741E
331
73EC
  5
7526
331
778D
  5
7805
331
7A59
  5
7A67
331
7746
  5
7788
331
7601
  5
76CD
331
7A61
  5
7B1A
331
167B
  5
167B
331
16DA
  5
2384
331
6599
  5
683F
331
6828
  5
7046
331
16E2
  5
2386
331
7046
  5
7139
331
5FDC
  5
6348
331
6EF7
  5
1A6D
331
73F4
  5
6750
331
67D9
  5
699E
331
75CA
  5
76A8
331
7717
  5
777C
331
77AD
  5
7A03
331
7B19
  5
7BC4
331
7513
  5
760A
331
7B21
  5
7E4A
331
7E4B
  5
7E92
331
7444
  5
75D3
331
777E
  5
7790
331
7786
  5
77BF
331
7BC0
  5
7E4C
  0
SORTENTSTABLE
  5
3891
102
{ACAD_REACTORS
330
3890
102
}
330
3890
100
AcDbSortentsTable
330
388E
  0
SORTENTSTABLE
  5
49E0
102
{ACAD_REACTORS
330
49DF
102
}
330
49DF
100
AcDbSortentsTable
330
49DC
  0
XRECORD
  5
7EDD
102
{ACAD_REACTORS
330
7EDC
102
}
330
7EDC
100
AcDbXrecord
280
     1
102
SHADEPLOT
 70
     0
  0
XRECORD
  5
7EDF
102
{ACAD_REACTORS
330
7EDE
102
}
330
7EDE
100
AcDbXrecord
280
     1
102
SHADEPLOT
 70
     0
  0
LAYOUT
  5
22
102
{ACAD_XDICTIONARY
360
7ED8
102
}
102
{ACAD_REACTORS
330
1A
102
}
330
1A
100
AcDbPlotSettings
  1

  2
EPSON PM-800C
  4
A4
  6

 40
3.757083177566528
 41
14.7637300491333
 42
3.757080078125
 43
3.757080078125
 44
209.9733276367187
 45
296.9683227539062
 46
0.0
 47
0.0
 48
0.0
 49
0.0
140
0.0
141
0.0
142
1.0
143
10.0
 70
 11952
 72
     1
 73
     1
 74
     2
  7

 75
    20
147
0.1
148
0.0
149
0.0
100
AcDbLayout
  1
Model
 70
     1
 71
     0
 10
0.0
 20
0.0
 11
12.0
 21
9.0
 12
0.0
 22
0.0
 32
0.0
 14
0.0
 24
0.0
 34
0.0
 15
0.0
 25
0.0
 35
0.0
146
0.0
 13
0.0
 23
0.0
 33
0.0
 16
1.0
 26
0.0
 36
0.0
 17
0.0
 27
1.0
 37
0.0
 76
     0
330
1F
  0
LAYOUT
  5
1E
102
{ACAD_XDICTIONARY
360
7ED6
102
}
102
{ACAD_REACTORS
330
1A
102
}
330
1A
100
AcDbPlotSettings
  1

  2
EPSON PM-800C
  4
A4
  6

 40
3.757083177566528
 41
14.7637300491333
 42
3.757080078125
 43
3.757080078125
 44
209.9733276367187
 45
296.9683227539062
 46
0.0
 47
0.0
 48
0.0
 49
0.0
140
0.0
141
0.0
142
1.0
143
1.0
 70
   688
 72
     1
 73
     1
 74
     5
  7

 75
    16
147
1.0
148
0.0
149
0.0
100
AcDbLayout
  1
ﾚｲｱｳﾄ1
 70
     1
 71
     1
 10
-3.757080078125
 20
-3.757083177566528
 11
293.2112426757813
 21
206.2162444591522
 12
0.0
 22
0.0
 32
0.0
 14
27.8447512626648
 24
20.24591643810271
 34
0.0
 15
250.6027613639831
 25
182.2132479429245
 35
0.0
146
0.0
 13
0.0
 23
0.0
 33
0.0
 16
1.0
 26
0.0
 36
0.0
 17
0.0
 27
1.0
 37
0.0
 76
     0
330
1B
331
2E
  0
LAYOUT
  5
26
102
{ACAD_XDICTIONARY
360
7EDA
102
}
102
{ACAD_REACTORS
330
1A
102
}
330
1A
100
AcDbPlotSettings
  1

  2
EPSON PM-800C
  4

  6

 40
0.0
 41
0.0
 42
0.0
 43
0.0
 44
0.0
 45
0.0
 46
0.0
 47
0.0
 48
0.0
 49
0.0
140
0.0
141
0.0
142
1.0
143
1.0
 70
   688
 72
     0
 73
     0
 74
     5
  7

 75
    16
147
1.0
148
0.0
149
0.0
100
AcDbLayout
  1
ﾚｲｱｳﾄ2
 70
     1
 71
     2
 10
0.0
 20
0.0
 11
12.0
 21
9.0
 12
0.0
 22
0.0
 32
0.0
 14
0.0
 24
0.0
 34
0.0
 15
0.0
 25
0.0
 35
0.0
146
0.0
 13
0.0
 23
0.0
 33
0.0
 16
1.0
 26
0.0
 36
0.0
 17
0.0
 27
1.0
 37
0.0
 76
     0
330
23
  0
MLINESTYLE
  5
18
102
{ACAD_REACTORS
330
17
102
}
330
17
100
AcDbMlineStyle
  2
STANDARD
 70
     0
  3

 62
   256
 51
90.0
 52
90.0
 71
     2
 49
0.5
 62
   256
  6
BYLAYER
 49
-0.5
 62
   256
  6
BYLAYER
  0
ACDBPLACEHOLDER
  5
F
102
{ACAD_REACTORS
330
E
102
}
330
E
  0
TABLESTYLE
  5
260E
102
{ACAD_REACTORS
330
260D
102
}
330
260D
100
AcDbTableStyle
  3
Standard
 70
     0
 71
     0
 40
1.5
 41
1.5
280
     0
281
     0
  7
Standard
140
4.5
170
     2
 62
     0
 63
     7
283
     0
274
    -2
284
     1
 64
     0
275
    -2
285
     1
 65
     0
276
    -2
286
     1
 66
     0
277
    -2
287
     1
 67
     0
278
    -2
288
     1
 68
     0
279
    -2
289
     1
 69
     0
  7
Standard
140
6.0
170
     5
 62
     0
 63
     7
283
     0
274
    -2
284
     1
 64
     0
275
    -2
285
     1
 65
     0
276
    -2
286
     1
 66
     0
277
    -2
287
     1
 67
     0
278
    -2
288
     1
 68
     0
279
    -2
289
     1
 69
     0
  7
Standard
140
4.5
170
     5
 62
     0
 63
     7
283
     0
274
    -2
284
     1
 64
     0
275
    -2
285
     1
 65
     0
276
    -2
286
     1
 66
     0
277
    -2
287
     1
 67
     0
278
    -2
288
     1
 68
     0
279
    -2
289
     1
 69
     0
  0
DICTIONARYVAR
  5
2614
102
{ACAD_REACTORS
330
1055
102
}
330
1055
100
DictionaryVariables
280
     0
  1
STANDARD
  0
DICTIONARYVAR
  5
7ED2
102
{ACAD_REACTORS
330
1055
102
}
330
1055
100
DictionaryVariables
280
     0
  1
1
  0
DICTIONARYVAR
  5
7ED3
102
{ACAD_REACTORS
330
1055
102
}
330
1055
100
DictionaryVariables
280
     0
  1

  0
DICTIONARYVAR
  5
1056
102
{ACAD_REACTORS
330
1055
102
}
330
1055
100
DictionaryVariables
280
     0
  1
96
  0
DICTIONARY
  5
7ED8
330
22
100
AcDbDictionary
280
     1
281
     1
  3
ACAD_XREC_ROUNDTRIP
360
7ED9
  0
DICTIONARY
  5
7ED6
330
1E
100
AcDbDictionary
280
     1
281
     1
  3
ACAD_XREC_ROUNDTRIP
360
7ED7
  0
DICTIONARY
  5
7EDA
330
26
100
AcDbDictionary
280
     1
281
     1
  3
ACAD_XREC_ROUNDTRIP
360
7EDB
  0
XRECORD
  5
7ED9
102
{ACAD_REACTORS
330
7ED8
102
}
330
7ED8
100
AcDbXrecord
280
     1
102
SHADEPLOT
 70
     0
102
SHADEPLOTRESLEVEL
 70
     2
102
SHADEPLOTCUSTOMDPI
 70
   300
  0
XRECORD
  5
7ED7
102
{ACAD_REACTORS
330
7ED6
102
}
330
7ED6
100
AcDbXrecord
280
     1
102
SHADEPLOT
 70
     0
102
SHADEPLOTRESLEVEL
 70
     2
102
SHADEPLOTCUSTOMDPI
 70
   300
  0
XRECORD
  5
7EDB
102
{ACAD_REACTORS
330
7EDA
102
}
330
7EDA
100
AcDbXrecord
280
     1
102
SHADEPLOT
 70
     0
102
SHADEPLOTRESLEVEL
 70
     2
102
SHADEPLOTCUSTOMDPI
 70
   300
  0
ENDSEC
  0
EOF
