  0
SECTION
  2
HEADER
  9
$ACADVER
  1
AC1015
  9
$ACADMAINTVER
 70
    20
  9
$DWGCODEPAGE
  3
ANSI_932
  9
$INSBASE
 10
0.0
 20
0.0
 30
0.0
  9
$EXTMIN
 10
109.0
 20
4.0
 30
0.0
  9
$EXTMAX
 10
2784.0
 20
2024.000000000002
 30
0.0
  9
$LIMMIN
 10
0.0
 20
0.0
  9
$LIMMAX
 10
29700.0
 20
21000.0
  9
$ORTHOMODE
 70
     0
  9
$REGENMODE
 70
     1
  9
$FILLMODE
 70
     1
  9
$QTEXTMODE
 70
     0
  9
$MIRRTEXT
 70
     1
  9
$LTSCALE
 40
4.0
  9
$ATTMODE
 70
     1
  9
$TEXTSIZE
 40
25.0
  9
$TRACEWID
 40
1.0
  9
$TEXTSTYLE
  7
Standard
  9
$CLAYER
  8
実形
  9
$CELTYPE
  6
ByLayer
  9
$CECOLOR
 62
   256
  9
$CELTSCALE
 40
1.0
  9
$DISPSILH
 70
     0
  9
$DIMSCALE
 40
1.0
  9
$DIMASZ
 40
35.0
  9
$DIMEXO
 40
65.0
  9
$DIMDLI
 40
3.75
  9
$DIMRND
 40
0.0
  9
$DIMDLE
 40
0.0
  9
$DIMEXE
 40
0.0
  9
$DIMTP
 40
0.0
  9
$DIMTM
 40
0.0
  9
$DIMTXT
 40
25.0
  9
$DIMCEN
 40
2.5
  9
$DIMTSZ
 40
0.0
  9
$DIMTOL
 70
     0
  9
$DIMLIM
 70
     0
  9
$DIMTIH
 70
     0
  9
$DIMTOH
 70
     0
  9
$DIMSE1
 70
     0
  9
$DIMSE2
 70
     0
  9
$DIMTAD
 70
     1
  9
$DIMZIN
 70
     8
  9
$DIMBLK
  1
DotSmall
  9
$DIMASO
 70
     1
  9
$DIMSHO
 70
     1
  9
$DIMPOST
  1

  9
$DIMAPOST
  1

  9
$DIMALT
 70
     0
  9
$DIMALTD
 70
     3
  9
$DIMALTF
 40
0.03937007874016
  9
$DIMLFAC
 40
1.0
  9
$DIMTOFL
 70
     1
  9
$DIMTVP
 40
0.0
  9
$DIMTIX
 70
     0
  9
$DIMSOXD
 70
     0
  9
$DIMSAH
 70
     0
  9
$DIMBLK1
  1

  9
$DIMBLK2
  1

  9
$DIMSTYLE
  2
ISO-25
  9
$DIMCLRD
 70
     0
  9
$DIMCLRE
 70
     0
  9
$DIMCLRT
 70
     0
  9
$DIMTFAC
 40
1.0
  9
$DIMGAP
 40
6.25
  9
$DIMJUST
 70
     0
  9
$DIMSD1
 70
     0
  9
$DIMSD2
 70
     0
  9
$DIMTOLJ
 70
     0
  9
$DIMTZIN
 70
     8
  9
$DIMALTZ
 70
     0
  9
$DIMALTTZ
 70
     0
  9
$DIMUPT
 70
     0
  9
$DIMDEC
 70
     2
  9
$DIMTDEC
 70
     2
  9
$DIMALTU
 70
     2
  9
$DIMALTTD
 70
     3
  9
$DIMTXSTY
  7
Standard
  9
$DIMAUNIT
 70
     0
  9
$DIMADEC
 70
     0
  9
$DIMALTRND
 40
0.0
  9
$DIMAZIN
 70
     0
  9
$DIMDSEP
 70
    46
  9
$DIMATFIT
 70
     3
  9
$DIMFRAC
 70
     0
  9
$DIMLDRBLK
  1
Open30
  9
$DIMLUNIT
 70
     2
  9
$DIMLWD
 70
    18
  9
$DIMLWE
 70
    18
  9
$DIMTMOVE
 70
     0
  9
$LUNITS
 70
     2
  9
$LUPREC
 70
     2
  9
$SKETCHINC
 40
1.0
  9
$FILLETRAD
 40
20.0
  9
$AUNITS
 70
     0
  9
$AUPREC
 70
     0
  9
$MENU
  1
.
  9
$ELEVATION
 40
0.0
  9
$PELEVATION
 40
0.0
  9
$THICKNESS
 40
0.0
  9
$LIMCHECK
 70
     1
  9
$CHAMFERA
 40
10.0
  9
$CHAMFERB
 40
10.0
  9
$CHAMFERC
 40
20.0
  9
$CHAMFERD
 40
0.0
  9
$SKPOLY
 70
     0
  9
$TDCREATE
 40
2451673.575802199
  9
$TDUCREATE
 40
2451673.200802199
  9
$TDUPDATE
 40
2458809.720937003
  9
$TDUUPDATE
 40
2458809.345937003
  9
$TDINDWG
 40
1.0024145139
  9
$TDUSRTIMER
 40
1.0024138194
  9
$USRTIMER
 70
     1
  9
$ANGBASE
 50
0.0
  9
$ANGDIR
 70
     0
  9
$PDMODE
 70
     3
  9
$PDSIZE
 40
0.0
  9
$PLINEWID
 40
0.0
  9
$SPLFRAME
 70
     0
  9
$SPLINETYPE
 70
     6
  9
$SPLINESEGS
 70
     8
  9
$HANDSEED
  5
1480
  9
$SURFTAB1
 70
     6
  9
$SURFTAB2
 70
     6
  9
$SURFTYPE
 70
     6
  9
$SURFU
 70
     6
  9
$SURFV
 70
     6
  9
$UCSBASE
  2

  9
$UCSNAME
  2

  9
$UCSORG
 10
0.0
 20
0.0
 30
0.0
  9
$UCSXDIR
 10
1.0
 20
0.0
 30
0.0
  9
$UCSYDIR
 10
0.0
 20
1.0
 30
0.0
  9
$UCSORTHOREF
  2

  9
$UCSORTHOVIEW
 70
     0
  9
$UCSORGTOP
 10
0.0
 20
0.0
 30
0.0
  9
$UCSORGBOTTOM
 10
0.0
 20
0.0
 30
0.0
  9
$UCSORGLEFT
 10
0.0
 20
0.0
 30
0.0
  9
$UCSORGRIGHT
 10
0.0
 20
0.0
 30
0.0
  9
$UCSORGFRONT
 10
0.0
 20
0.0
 30
0.0
  9
$UCSORGBACK
 10
0.0
 20
0.0
 30
0.0
  9
$PUCSBASE
  2

  9
$PUCSNAME
  2

  9
$PUCSORG
 10
0.0
 20
0.0
 30
0.0
  9
$PUCSXDIR
 10
1.0
 20
0.0
 30
0.0
  9
$PUCSYDIR
 10
0.0
 20
1.0
 30
0.0
  9
$PUCSORTHOREF
  2

  9
$PUCSORTHOVIEW
 70
     0
  9
$PUCSORGTOP
 10
0.0
 20
0.0
 30
0.0
  9
$PUCSORGBOTTOM
 10
0.0
 20
0.0
 30
0.0
  9
$PUCSORGLEFT
 10
0.0
 20
0.0
 30
0.0
  9
$PUCSORGRIGHT
 10
0.0
 20
0.0
 30
0.0
  9
$PUCSORGFRONT
 10
0.0
 20
0.0
 30
0.0
  9
$PUCSORGBACK
 10
0.0
 20
0.0
 30
0.0
  9
$USERI1
 70
     0
  9
$USERI2
 70
     0
  9
$USERI3
 70
     0
  9
$USERI4
 70
     0
  9
$USERI5
 70
     0
  9
$USERR1
 40
0.0
  9
$USERR2
 40
0.0
  9
$USERR3
 40
0.0
  9
$USERR4
 40
0.0
  9
$USERR5
 40
0.0
  9
$WORLDVIEW
 70
     1
  9
$SHADEDGE
 70
     3
  9
$SHADEDIF
 70
    70
  9
$TILEMODE
 70
     1
  9
$MAXACTVP
 70
    64
  9
$PINSBASE
 10
0.0
 20
0.0
 30
0.0
  9
$PLIMCHECK
 70
     0
  9
$PEXTMIN
 10
27.8447512626648
 20
20.24591643810271
 30
0.0
  9
$PEXTMAX
 10
250.6027613639831
 20
182.2132479429245
 30
0.0
  9
$PLIMMIN
 10
-3.757080078125
 20
-3.757083177566528
  9
$PLIMMAX
 10
293.2112426757813
 20
206.2162444591522
  9
$UNITMODE
 70
     0
  9
$VISRETAIN
 70
     1
  9
$PLINEGEN
 70
     0
  9
$PSLTSCALE
 70
     1
  9
$TREEDEPTH
 70
  3020
  9
$CMLSTYLE
  2
Standard
  9
$CMLJUST
 70
     0
  9
$CMLSCALE
 40
20.0
  9
$PROXYGRAPHICS
 70
     1
  9
$MEASUREMENT
 70
     1
  9
$CELWEIGHT
370
    -1
  9
$ENDCAPS
280
     0
  9
$JOINSTYLE
280
     0
  9
$LWDISPLAY
290
     0
  9
$INSUNITS
 70
     4
  9
$HYPERLINKBASE
  1

  9
$STYLESHEET
  1

  9
$XEDIT
290
     1
  9
$CEPSNTYPE
380
     0
  9
$PSTYLEMODE
290
     1
  9
$FINGERPRINTGUID
  2
{C8EA1F16-24C9-11D4-9416-CE0A3B32152F}
  9
$VERSIONGUID
  2
{78D17803-4609-46F6-A4DD-8A2B7F3E3B32}
  9
$EXTNAMES
290
     1
  9
$PSVPSCALE
 40
0.0
  9
$OLESTARTUP
290
     0
  0
ENDSEC
  0
SECTION
  2
CLASSES
  0
CLASS
  1
ACDBDICTIONARYWDFLT
  2
AcDbDictionaryWithDefault
  3
ObjectDBX Classes
 90
        0
280
     0
281
     0
  0
CLASS
  1
ACDBPLACEHOLDER
  2
AcDbPlaceHolder
  3
ObjectDBX Classes
 90
        0
280
     0
281
     0
  0
CLASS
  1
LAYOUT
  2
AcDbLayout
  3
ObjectDBX Classes
 90
        0
280
     0
281
     0
  0
CLASS
  1
DICTIONARYVAR
  2
AcDbDictionaryVar
  3
ObjectDBX Classes
 90
        0
280
     0
281
     0
  0
CLASS
  1
TABLESTYLE
  2
AcDbTableStyle
  3
ObjectDBX Classes
 90
     2047
280
     0
281
     0
  0
CLASS
  1
SORTENTSTABLE
  2
AcDbSortentsTable
  3
ObjectDBX Classes
 90
        0
280
     0
281
     0
  0
ENDSEC
  0
SECTION
  2
TABLES
  0
TABLE
  2
VPORT
  5
8
330
0
100
AcDbSymbolTable
 70
     2
  0
VPORT
  5
1474
330
8
100
AcDbSymbolTableRecord
100
AcDbViewportTableRecord
  2
*Active
 70
     0
 10
0.0
 20
0.0
 11
1.0
 21
1.0
 12
1231.481511748761
 22
1104.910053789018
 13
0.0
 23
0.0
 14
10.0
 24
10.0
 15
10.0
 25
10.0
 16
0.0
 26
0.0
 36
1.0
 17
0.0
 27
0.0
 37
0.0
 40
2897.947941390876
 41
1.29038112522686
 42
50.0
 43
0.0
 44
0.0
 50
0.0
 51
0.0
 71
     0
 72
   100
 73
     1
 74
     3
 75
     0
 76
     0
 77
     0
 78
     0
281
     0
 65
     1
110
0.0
120
0.0
130
0.0
111
1.0
121
0.0
131
0.0
112
0.0
122
1.0
132
0.0
 79
     0
146
0.0
  0
ENDTAB
  0
TABLE
  2
LTYPE
  5
5
330
0
100
AcDbSymbolTable
 70
    46
  0
LTYPE
  5
14
330
5
100
AcDbSymbolTableRecord
100
AcDbLinetypeTableRecord
  2
ByBlock
 70
     0
  3

 72
    65
 73
     0
 40
0.0
  0
LTYPE
  5
15
330
5
100
AcDbSymbolTableRecord
100
AcDbLinetypeTableRecord
  2
ByLayer
 70
     0
  3

 72
    65
 73
     0
 40
0.0
  0
LTYPE
  5
16
330
5
100
AcDbSymbolTableRecord
100
AcDbLinetypeTableRecord
  2
Continuous
 70
     0
  3
Solid line
 72
    65
 73
     0
 40
0.0
  0
LTYPE
  5
34
330
5
100
AcDbSymbolTableRecord
100
AcDbLinetypeTableRecord
  2
ACAD_ISO02W100
 70
     0
  3
ISO dash __ __ __ __ __ __ __ __ __ __ __ __ __
 72
    65
 73
     2
 40
15.0
 49
12.0
 74
     0
 49
-3.0
 74
     0
  0
LTYPE
  5
35
330
5
100
AcDbSymbolTableRecord
100
AcDbLinetypeTableRecord
  2
ACAD_ISO03W100
 70
     0
  3
ISO dash space __    __    __    __    __    __
 72
    65
 73
     2
 40
30.0
 49
12.0
 74
     0
 49
-18.0
 74
     0
  0
LTYPE
  5
36
330
5
100
AcDbSymbolTableRecord
100
AcDbLinetypeTableRecord
  2
ACAD_ISO04W100
 70
     0
  3
ISO long-dash dot ____ . ____ . ____ . ____ . _
 72
    65
 73
     4
 40
30.0
 49
24.0
 74
     0
 49
-3.0
 74
     0
 49
0.0
 74
     0
 49
-3.0
 74
     0
  0
LTYPE
  5
37
330
5
100
AcDbSymbolTableRecord
100
AcDbLinetypeTableRecord
  2
ACAD_ISO05W100
 70
     0
  3
ISO long-dash double-dot ____ .. ____ .. ____ .
 72
    65
 73
     6
 40
34.0
 49
24.0
 74
     0
 49
-3.0
 74
     0
 49
0.5
 74
     0
 49
-3.0
 74
     0
 49
0.5
 74
     0
 49
-3.0
 74
     0
  0
LTYPE
  5
38
330
5
100
AcDbSymbolTableRecord
100
AcDbLinetypeTableRecord
  2
ACAD_ISO06W100
 70
     0
  3
ISO long-dash triple-dot ____ ... ____ ... ____
 72
    65
 73
     8
 40
37.5
 49
24.0
 74
     0
 49
-3.0
 74
     0
 49
0.5
 74
     0
 49
-3.0
 74
     0
 49
0.5
 74
     0
 49
-3.0
 74
     0
 49
0.5
 74
     0
 49
-3.0
 74
     0
  0
LTYPE
  5
39
330
5
100
AcDbSymbolTableRecord
100
AcDbLinetypeTableRecord
  2
ACAD_ISO07W100
 70
     0
  3
ISO dot . . . . . . . . . . . . . . . . . . . .
 72
    65
 73
     2
 40
3.0
 49
0.0
 74
     0
 49
-3.0
 74
     0
  0
LTYPE
  5
3A
330
5
100
AcDbSymbolTableRecord
100
AcDbLinetypeTableRecord
  2
ACAD_ISO08W100
 70
     0
  3
ISO long-dash short-dash ____ __ ____ __ ____ _
 72
    65
 73
     4
 40
36.0
 49
24.0
 74
     0
 49
-3.0
 74
     0
 49
6.0
 74
     0
 49
-3.0
 74
     0
  0
LTYPE
  5
3B
330
5
100
AcDbSymbolTableRecord
100
AcDbLinetypeTableRecord
  2
ACAD_ISO09W100
 70
     0
  3
ISO long-dash double-short-dash ____ __ __ ____
 72
    65
 73
     6
 40
45.0
 49
24.0
 74
     0
 49
-3.0
 74
     0
 49
6.0
 74
     0
 49
-3.0
 74
     0
 49
6.0
 74
     0
 49
-3.0
 74
     0
  0
LTYPE
  5
3C
330
5
100
AcDbSymbolTableRecord
100
AcDbLinetypeTableRecord
  2
ACAD_ISO10W100
 70
     0
  3
ISO dash dot __ . __ . __ . __ . __ . __ . __ .
 72
    65
 73
     4
 40
18.0
 49
12.0
 74
     0
 49
-3.0
 74
     0
 49
0.0
 74
     0
 49
-3.0
 74
     0
  0
LTYPE
  5
3D
330
5
100
AcDbSymbolTableRecord
100
AcDbLinetypeTableRecord
  2
ACAD_ISO11W100
 70
     0
  3
ISO double-dash dot __ __ . __ __ . __ __ . __ 
 72
    65
 73
     6
 40
33.0
 49
12.0
 74
     0
 49
-3.0
 74
     0
 49
12.0
 74
     0
 49
-3.0
 74
     0
 49
0.0
 74
     0
 49
-3.0
 74
     0
  0
LTYPE
  5
3E
330
5
100
AcDbSymbolTableRecord
100
AcDbLinetypeTableRecord
  2
ACAD_ISO12W100
 70
     0
  3
ISO dash double-dot __ . . __ . . __ . . __ . .
 72
    65
 73
     6
 40
21.0
 49
12.0
 74
     0
 49
-3.0
 74
     0
 49
0.0
 74
     0
 49
-3.0
 74
     0
 49
0.0
 74
     0
 49
-3.0
 74
     0
  0
LTYPE
  5
3F
330
5
100
AcDbSymbolTableRecord
100
AcDbLinetypeTableRecord
  2
ACAD_ISO13W100
 70
     0
  3
ISO double-dash double-dot __ __ . . __ __ . . 
 72
    65
 73
     8
 40
36.0
 49
12.0
 74
     0
 49
-3.0
 74
     0
 49
12.0
 74
     0
 49
-3.0
 74
     0
 49
0.0
 74
     0
 49
-3.0
 74
     0
 49
0.0
 74
     0
 49
-3.0
 74
     0
  0
LTYPE
  5
40
330
5
100
AcDbSymbolTableRecord
100
AcDbLinetypeTableRecord
  2
ACAD_ISO14W100
 70
     0
  3
ISO dash triple-dot __ . . . __ . . . __ . . . 
 72
    65
 73
     8
 40
24.0
 49
12.0
 74
     0
 49
-3.0
 74
     0
 49
0.0
 74
     0
 49
-3.0
 74
     0
 49
0.0
 74
     0
 49
-3.0
 74
     0
 49
0.0
 74
     0
 49
-3.0
 74
     0
  0
LTYPE
  5
41
330
5
100
AcDbSymbolTableRecord
100
AcDbLinetypeTableRecord
  2
ACAD_ISO15W100
 70
     0
  3
ISO double-dash triple-dot __ __ . . . __ __ . 
 72
    65
 73
    10
 40
39.0
 49
12.0
 74
     0
 49
-3.0
 74
     0
 49
12.0
 74
     0
 49
-3.0
 74
     0
 49
0.0
 74
     0
 49
-3.0
 74
     0
 49
0.0
 74
     0
 49
-3.0
 74
     0
 49
0.0
 74
     0
 49
-3.0
 74
     0
  0
LTYPE
  5
42
330
5
100
AcDbSymbolTableRecord
100
AcDbLinetypeTableRecord
  2
BATTING
 70
     0
  3
Batting SSSSSSSSSSSSSSSSSSSSSSSSSSSSSSSSSSSSSSS
 72
    65
 73
     4
 40
10.16254
 49
0.00254
 74
     0
 49
-2.54
 74
     4
 75
   134
340
33
 46
2.54
 50
0.0
 44
-2.54
 45
0.0
 49
-5.08
 74
     4
 75
   134
340
33
 46
2.54
 50
180.0
 44
2.54
 45
0.0
 49
-2.54
 74
     0
  0
LTYPE
  5
43
330
5
100
AcDbSymbolTableRecord
100
AcDbLinetypeTableRecord
  2
BORDER
 70
     0
  3
Border __ __ . __ __ . __ __ . __ __ . __ __ .
 72
    65
 73
     6
 40
44.45
 49
12.7
 74
     0
 49
-6.349999999999999
 74
     0
 49
12.7
 74
     0
 49
-6.349999999999999
 74
     0
 49
0.0
 74
     0
 49
-6.349999999999999
 74
     0
  0
LTYPE
  5
44
330
5
100
AcDbSymbolTableRecord
100
AcDbLinetypeTableRecord
  2
BORDER2
 70
     0
  3
Border (.5x) __.__.__.__.__.__.__.__.__.__.__.
 72
    65
 73
     6
 40
22.225
 49
6.349999999999999
 74
     0
 49
-3.174999999999999
 74
     0
 49
6.349999999999999
 74
     0
 49
-3.174999999999999
 74
     0
 49
0.0
 74
     0
 49
-3.174999999999999
 74
     0
  0
LTYPE
  5
45
330
5
100
AcDbSymbolTableRecord
100
AcDbLinetypeTableRecord
  2
BORDERX2
 70
     0
  3
Border (2x) ____  ____  .  ____  ____  .  ___
 72
    65
 73
     6
 40
88.9
 49
25.4
 74
     0
 49
-12.7
 74
     0
 49
25.4
 74
     0
 49
-12.7
 74
     0
 49
0.0
 74
     0
 49
-12.7
 74
     0
  0
LTYPE
  5
46
330
5
100
AcDbSymbolTableRecord
100
AcDbLinetypeTableRecord
  2
CENTER
 70
     0
  3
Center ____ _ ____ _ ____ _ ____ _ ____ _ ____
 72
    65
 73
     4
 40
50.8
 49
31.75
 74
     0
 49
-6.349999999999999
 74
     0
 49
6.349999999999999
 74
     0
 49
-6.349999999999999
 74
     0
  0
LTYPE
  5
47
330
5
100
AcDbSymbolTableRecord
100
AcDbLinetypeTableRecord
  2
CENTER2
 70
     0
  3
Center (.5x) ___ _ ___ _ ___ _ ___ _ ___ _ ___
 72
    65
 73
     4
 40
28.575
 49
19.05
 74
     0
 49
-3.174999999999999
 74
     0
 49
3.174999999999999
 74
     0
 49
-3.174999999999999
 74
     0
  0
LTYPE
  5
48
330
5
100
AcDbSymbolTableRecord
100
AcDbLinetypeTableRecord
  2
CENTERX2
 70
     0
  3
Center (2x) ________  __  ________  __  _____
 72
    65
 73
     4
 40
101.6
 49
63.5
 74
     0
 49
-12.7
 74
     0
 49
12.7
 74
     0
 49
-12.7
 74
     0
  0
LTYPE
  5
49
330
5
100
AcDbSymbolTableRecord
100
AcDbLinetypeTableRecord
  2
DASHDOT
 70
     0
  3
Dash dot __ . __ . __ . __ . __ . __ . __ . __
 72
    65
 73
     4
 40
25.4
 49
12.7
 74
     0
 49
-6.349999999999999
 74
     0
 49
0.0
 74
     0
 49
-6.349999999999999
 74
     0
  0
LTYPE
  5
4A
330
5
100
AcDbSymbolTableRecord
100
AcDbLinetypeTableRecord
  2
DASHDOT2
 70
     0
  3
Dash dot (.5x) _._._._._._._._._._._._._._._.
 72
    65
 73
     4
 40
12.7
 49
6.349999999999999
 74
     0
 49
-3.174999999999999
 74
     0
 49
0.0
 74
     0
 49
-3.174999999999999
 74
     0
  0
LTYPE
  5
4B
330
5
100
AcDbSymbolTableRecord
100
AcDbLinetypeTableRecord
  2
DASHDOTX2
 70
     0
  3
Dash dot (2x) ____  .  ____  .  ____  .  ___
 72
    65
 73
     4
 40
50.8
 49
25.4
 74
     0
 49
-12.7
 74
     0
 49
0.0
 74
     0
 49
-12.7
 74
     0
  0
LTYPE
  5
4C
330
5
100
AcDbSymbolTableRecord
100
AcDbLinetypeTableRecord
  2
DASHED
 70
     0
  3
Dashed __ __ __ __ __ __ __ __ __ __ __ __ __ _
 72
    65
 73
     2
 40
19.05
 49
12.7
 74
     0
 49
-6.349999999999999
 74
     0
  0
LTYPE
  5
4D
330
5
100
AcDbSymbolTableRecord
100
AcDbLinetypeTableRecord
  2
DASHED2
 70
     0
  3
Dashed (.5x) _ _ _ _ _ _ _ _ _ _ _ _ _ _ _ _ _
 72
    65
 73
     2
 40
9.524999999999998
 49
6.349999999999999
 74
     0
 49
-3.174999999999999
 74
     0
  0
LTYPE
  5
4E
330
5
100
AcDbSymbolTableRecord
100
AcDbLinetypeTableRecord
  2
DASHEDX2
 70
     0
  3
Dashed (2x) ____  ____  ____  ____  ____  ___
 72
    65
 73
     2
 40
38.1
 49
25.4
 74
     0
 49
-12.7
 74
     0
  0
LTYPE
  5
4F
330
5
100
AcDbSymbolTableRecord
100
AcDbLinetypeTableRecord
  2
DIVIDE
 70
     0
  3
Divide ____ . . ____ . . ____ . . ____ . . ____
 72
    65
 73
     6
 40
31.75
 49
12.7
 74
     0
 49
-6.349999999999999
 74
     0
 49
0.0
 74
     0
 49
-6.349999999999999
 74
     0
 49
0.0
 74
     0
 49
-6.349999999999999
 74
     0
  0
LTYPE
  5
50
330
5
100
AcDbSymbolTableRecord
100
AcDbLinetypeTableRecord
  2
DIVIDE2
 70
     0
  3
Divide (.5x) __..__..__..__..__..__..__..__.._
 72
    65
 73
     6
 40
15.875
 49
6.349999999999999
 74
     0
 49
-3.174999999999999
 74
     0
 49
0.0
 74
     0
 49
-3.174999999999999
 74
     0
 49
0.0
 74
     0
 49
-3.174999999999999
 74
     0
  0
LTYPE
  5
51
330
5
100
AcDbSymbolTableRecord
100
AcDbLinetypeTableRecord
  2
DIVIDEX2
 70
     0
  3
Divide (2x) ________  .  .  ________  .  .  _
 72
    65
 73
     6
 40
63.49999999999999
 49
25.4
 74
     0
 49
-12.7
 74
     0
 49
0.0
 74
     0
 49
-12.7
 74
     0
 49
0.0
 74
     0
 49
-12.7
 74
     0
  0
LTYPE
  5
52
330
5
100
AcDbSymbolTableRecord
100
AcDbLinetypeTableRecord
  2
DOT
 70
     0
  3
Dot . . . . . . . . . . . . . . . . . . . . . .
 72
    65
 73
     2
 40
6.349999999999999
 49
0.0
 74
     0
 49
-6.349999999999999
 74
     0
  0
LTYPE
  5
53
330
5
100
AcDbSymbolTableRecord
100
AcDbLinetypeTableRecord
  2
DOT2
 70
     0
  3
Dot (.5x) .....................................
 72
    65
 73
     2
 40
3.174999999999999
 49
0.0
 74
     0
 49
-3.174999999999999
 74
     0
  0
LTYPE
  5
54
330
5
100
AcDbSymbolTableRecord
100
AcDbLinetypeTableRecord
  2
DOTX2
 70
     0
  3
Dot (2x) .  .  .  .  .  .  .  .  .  .  .  .  . 
 72
    65
 73
     2
 40
12.7
 49
0.0
 74
     0
 49
-12.7
 74
     0
  0
LTYPE
  5
55
330
5
100
AcDbSymbolTableRecord
100
AcDbLinetypeTableRecord
  2
FENCELINE1
 70
     0
  3
Fenceline circle ----0-----0----0-----0----0---
 72
    65
 73
     4
 40
36.83
 49
6.349999999999999
 74
     0
 49
-2.54
 74
     4
 75
   133
340
33
 46
2.54
 50
0.0
 44
-2.54
 45
0.0
 49
-2.54
 74
     0
 49
25.4
 74
     0
  0
LTYPE
  5
56
330
5
100
AcDbSymbolTableRecord
100
AcDbLinetypeTableRecord
  2
FENCELINE2
 70
     0
  3
Fenceline square ----[]-----[]----[]-----[]----
 72
    65
 73
     4
 40
36.83
 49
6.349999999999999
 74
     0
 49
-2.54
 74
     4
 75
   132
340
33
 46
2.54
 50
0.0
 44
-2.54
 45
0.0
 49
-2.54
 74
     0
 49
25.4
 74
     0
  0
LTYPE
  5
57
330
5
100
AcDbSymbolTableRecord
100
AcDbLinetypeTableRecord
  2
GAS_LINE
 70
     0
  3
Gas line ----GAS----GAS----GAS----GAS----GAS---
 72
    65
 73
     3
 40
24.13
 49
12.7
 74
     0
 49
-5.08
 74
     2
 75
     0
340
11
 46
2.54
 50
0.0
 44
-2.54
 45
-1.27
  9
GAS
 49
-6.349999999999999
 74
     0
  0
LTYPE
  5
58
330
5
100
AcDbSymbolTableRecord
100
AcDbLinetypeTableRecord
  2
HIDDEN
 70
     0
  3
Hidden __ __ __ __ __ __ __ __ __ __ __ __ __ _
 72
    65
 73
     2
 40
9.524999999999998
 49
6.349999999999999
 74
     0
 49
-3.174999999999999
 74
     0
  0
LTYPE
  5
59
330
5
100
AcDbSymbolTableRecord
100
AcDbLinetypeTableRecord
  2
HIDDEN2
 70
     0
  3
Hidden (.5x) _ _ _ _ _ _ _ _ _ _ _ _ _ _ _ _ _
 72
    65
 73
     2
 40
4.762499999999999
 49
3.174999999999999
 74
     0
 49
-1.587499999999999
 74
     0
  0
LTYPE
  5
5A
330
5
100
AcDbSymbolTableRecord
100
AcDbLinetypeTableRecord
  2
HIDDENX2
 70
     0
  3
Hidden (2x) ____ ____ ____ ____ ____ ____ ____
 72
    65
 73
     2
 40
19.05
 49
12.7
 74
     0
 49
-6.349999999999999
 74
     0
  0
LTYPE
  5
5B
330
5
100
AcDbSymbolTableRecord
100
AcDbLinetypeTableRecord
  2
HOT_WATER_SUPPLY
 70
     0
  3
Hot water supply ---- HW ---- HW ---- HW ----
 72
    65
 73
     3
 40
22.86
 49
12.7
 74
     0
 49
-5.08
 74
     2
 75
     0
340
11
 46
2.54
 50
0.0
 44
-2.54
 45
-1.27
  9
HW
 49
-5.08
 74
     0
  0
LTYPE
  5
5C
330
5
100
AcDbSymbolTableRecord
100
AcDbLinetypeTableRecord
  2
PHANTOM
 70
     0
  3
Phantom ______  __  __  ______  __  __  ______
 72
    65
 73
     6
 40
63.5
 49
31.75
 74
     0
 49
-6.349999999999999
 74
     0
 49
6.349999999999999
 74
     0
 49
-6.349999999999999
 74
     0
 49
6.349999999999999
 74
     0
 49
-6.349999999999999
 74
     0
  0
LTYPE
  5
5D
330
5
100
AcDbSymbolTableRecord
100
AcDbLinetypeTableRecord
  2
PHANTOM2
 70
     0
  3
Phantom (.5x) ___ _ _ ___ _ _ ___ _ _ ___ _ _
 72
    65
 73
     6
 40
31.75
 49
15.875
 74
     0
 49
-3.174999999999999
 74
     0
 49
3.174999999999999
 74
     0
 49
-3.174999999999999
 74
     0
 49
3.174999999999999
 74
     0
 49
-3.174999999999999
 74
     0
  0
LTYPE
  5
5E
330
5
100
AcDbSymbolTableRecord
100
AcDbLinetypeTableRecord
  2
PHANTOMX2
 70
     0
  3
Phantom (2x) ____________    ____    ____   _
 72
    65
 73
     6
 40
127.0
 49
63.5
 74
     0
 49
-12.7
 74
     0
 49
12.7
 74
     0
 49
-12.7
 74
     0
 49
12.7
 74
     0
 49
-12.7
 74
     0
  0
LTYPE
  5
5F
330
5
100
AcDbSymbolTableRecord
100
AcDbLinetypeTableRecord
  2
TRACKS
 70
     0
  3
Tracks -|-|-|-|-|-|-|-|-|-|-|-|-|-|-|-|-|-|-|-|
 72
    65
 73
     2
 40
7.62
 49
3.81
 74
     4
 75
   130
340
33
 46
6.349999999999999
 50
0.0
 44
0.0
 45
0.0
 49
3.81
 74
     0
  0
LTYPE
  5
60
330
5
100
AcDbSymbolTableRecord
100
AcDbLinetypeTableRecord
  2
ZIGZAG
 70
     0
  3
Zig zag /\/\/\/\/\/\/\/\/\/\/\/\/\/\/\/\/\/\/\/
 72
    65
 73
     4
 40
20.32254
 49
0.00254
 74
     0
 49
-5.08
 74
     4
 75
   131
340
33
 46
5.08
 50
0.0
 44
-5.08
 45
0.0
 49
-10.16
 74
     4
 75
   131
340
33
 46
5.08
 50
180.0
 44
5.08
 45
0.0
 49
-5.08
 74
     0
  0
ENDTAB
  0
TABLE
  2
LAYER
  5
2
102
{ACAD_XDICTIONARY
360
1247
102
}
330
0
100
AcDbSymbolTable
 70
    10
  0
LAYER
  5
10
330
2
100
AcDbSymbolTableRecord
100
AcDbLayerTableRecord
  2
0
 70
     0
 62
     7
  6
Continuous
370
    -3
390
F
  0
LAYER
  5
C3
330
2
100
AcDbSymbolTableRecord
100
AcDbLayerTableRecord
  2
Defpoints
 70
     0
 62
     7
  6
Continuous
290
     0
370
    -3
390
F
  0
LAYER
  5
256
330
2
100
AcDbSymbolTableRecord
100
AcDbLayerTableRecord
  2
センター
 70
     0
 62
     7
  6
CENTER2
370
    18
390
F
  0
LAYER
  5
268
330
2
100
AcDbSymbolTableRecord
100
AcDbLayerTableRecord
  2
実形
 70
     0
 62
     7
  6
Continuous
370
    -3
390
F
  0
LAYER
  5
269
330
2
100
AcDbSymbolTableRecord
100
AcDbLayerTableRecord
  2
補助
 70
     0
 62
     7
  6
Continuous
370
    -3
390
F
  0
LAYER
  5
26A
330
2
100
AcDbSymbolTableRecord
100
AcDbLayerTableRecord
  2
寸法
 70
     0
 62
     7
  6
Continuous
370
    18
390
F
  0
LAYER
  5
26B
330
2
100
AcDbSymbolTableRecord
100
AcDbLayerTableRecord
  2
ハッチング
 70
     0
 62
     7
  6
Continuous
370
    18
390
F
  0
LAYER
  5
26D
330
2
100
AcDbSymbolTableRecord
100
AcDbLayerTableRecord
  2
文字
 70
     0
 62
     7
  6
Continuous
370
    -3
390
F
  0
LAYER
  5
107B
330
2
100
AcDbSymbolTableRecord
100
AcDbLayerTableRecord
  2
Cen
 70
     0
 62
     7
  6
CENTER2
370
    15
390
F
  0
LAYER
  5
13C2
330
2
100
AcDbSymbolTableRecord
100
AcDbLayerTableRecord
  2
枠
 70
     0
 62
     7
  6
Continuous
370
    -3
390
F
  0
ENDTAB
  0
TABLE
  2
STYLE
  5
3
330
0
100
AcDbSymbolTable
 70
     3
  0
STYLE
  5
11
330
3
100
AcDbSymbolTableRecord
100
AcDbTextStyleTableRecord
  2
Standard
 70
     0
 40
0.0
 41
1.0
 50
0.0
 71
     0
 42
25.0
  3
txt.shx
  4
bigfont.shx
  0
STYLE
  5
33
330
3
100
AcDbSymbolTableRecord
100
AcDbTextStyleTableRecord
  2

 70
     1
 40
0.0
 41
1.0
 50
0.0
 71
     0
 42
2.5
  3
ltypeshp.shx
  4

  0
STYLE
  5
1427
330
3
100
AcDbSymbolTableRecord
100
AcDbTextStyleTableRecord
  2
明朝
 70
     0
 40
0.0
 41
1.0
 50
0.0
 71
     0
 42
25.0
  3
MS Mincho.ttf
  4

1001
ACAD
1000
MS Mincho
1071
    32785
  0
ENDTAB
  0
TABLE
  2
VIEW
  5
6
330
0
100
AcDbSymbolTable
 70
     0
  0
ENDTAB
  0
TABLE
  2
UCS
  5
7
330
0
100
AcDbSymbolTable
 70
     0
  0
ENDTAB
  0
TABLE
  2
APPID
  5
9
330
0
100
AcDbSymbolTable
 70
     1
  0
APPID
  5
12
330
9
100
AcDbSymbolTableRecord
100
AcDbRegAppTableRecord
  2
ACAD
 70
     0
  0
ENDTAB
  0
TABLE
  2
DIMSTYLE
  5
A
330
0
100
AcDbSymbolTable
 70
     1
100
AcDbDimStyleTable
 71
     1
340
27
  0
DIMSTYLE
105
27
102
{ACAD_REACTORS
330
4BE
330
4CC
330
4F8
330
505
330
368
330
458
330
35B
330
3CE
330
43D
330
3E9
330
3DC
330
3F6
330
4A3
330
44B
330
12B0
330
1319
102
}
330
A
100
AcDbSymbolTableRecord
100
AcDbDimStyleTableRecord
  2
ISO-25
 70
     0
 41
35.0
 42
65.0
 43
3.75
 44
0.0
 73
     0
 74
     0
 77
     1
 78
     8
140
25.0
141
2.5
143
0.03937007874016
147
6.25
171
     3
172
     1
271
     2
272
     2
274
     3
283
     0
284
     8
340
11
341
DA
342
D0
371
    15
372
    15
  0
ENDTAB
  0
TABLE
  2
BLOCK_RECORD
  5
1
330
0
100
AcDbSymbolTable
 70
    21
  0
BLOCK_RECORD
  5
1F
102
{ACAD_XDICTIONARY
360
123C
102
}
330
1
100
AcDbSymbolTableRecord
100
AcDbBlockTableRecord
  2
*Model_Space
340
22
  0
BLOCK_RECORD
  5
1B
330
1
100
AcDbSymbolTableRecord
100
AcDbBlockTableRecord
  2
*Paper_Space
340
1E
  0
BLOCK_RECORD
  5
23
330
1
100
AcDbSymbolTableRecord
100
AcDbBlockTableRecord
  2
*Paper_Space0
340
26
  0
BLOCK_RECORD
  5
D0
330
1
100
AcDbSymbolTableRecord
100
AcDbBlockTableRecord
  2
_DotSmall
340
0
102
{BLKREFS
331
1153
331
1154
331
115C
331
115D
331
1165
331
1166
331
116E
331
116F
331
1177
331
1178
331
1191
331
1192
331
119A
331
119B
331
11A4
331
11A5
331
11AD
331
11AE
331
11B5
331
11B6
331
11BD
331
11BE
331
11C5
331
11C6
331
1268
331
1269
331
1272
331
1273
331
1314
331
1315
331
1344
331
1345
102
}
  0
BLOCK_RECORD
  5
D4
330
1
100
AcDbSymbolTableRecord
100
AcDbBlockTableRecord
  2
_Origin2
340
0
  0
BLOCK_RECORD
  5
DA
330
1
100
AcDbSymbolTableRecord
100
AcDbBlockTableRecord
  2
_Open30
340
0
  0
BLOCK_RECORD
  5
35C
330
1
100
AcDbSymbolTableRecord
100
AcDbBlockTableRecord
  2
*D4
340
0
  0
BLOCK_RECORD
  5
369
330
1
100
AcDbSymbolTableRecord
100
AcDbBlockTableRecord
  2
*D5
340
0
  0
BLOCK_RECORD
  5
3CF
330
1
100
AcDbSymbolTableRecord
100
AcDbBlockTableRecord
  2
*D6
340
0
  0
BLOCK_RECORD
  5
3DD
330
1
100
AcDbSymbolTableRecord
100
AcDbBlockTableRecord
  2
*D7
340
0
  0
BLOCK_RECORD
  5
3EA
330
1
100
AcDbSymbolTableRecord
100
AcDbBlockTableRecord
  2
*D8
340
0
  0
BLOCK_RECORD
  5
3F7
330
1
100
AcDbSymbolTableRecord
100
AcDbBlockTableRecord
  2
*D9
340
0
  0
BLOCK_RECORD
  5
43E
330
1
100
AcDbSymbolTableRecord
100
AcDbBlockTableRecord
  2
*D10
340
0
  0
BLOCK_RECORD
  5
44C
330
1
100
AcDbSymbolTableRecord
100
AcDbBlockTableRecord
  2
*D11
340
0
  0
BLOCK_RECORD
  5
459
330
1
100
AcDbSymbolTableRecord
100
AcDbBlockTableRecord
  2
*D12
340
0
  0
BLOCK_RECORD
  5
4A4
330
1
100
AcDbSymbolTableRecord
100
AcDbBlockTableRecord
  2
*D13
340
0
  0
BLOCK_RECORD
  5
4BF
330
1
100
AcDbSymbolTableRecord
100
AcDbBlockTableRecord
  2
*D14
340
0
  0
BLOCK_RECORD
  5
4CD
330
1
100
AcDbSymbolTableRecord
100
AcDbBlockTableRecord
  2
*D15
340
0
  0
BLOCK_RECORD
  5
4F9
330
1
100
AcDbSymbolTableRecord
100
AcDbBlockTableRecord
  2
*D16
340
0
  0
BLOCK_RECORD
  5
506
330
1
100
AcDbSymbolTableRecord
100
AcDbBlockTableRecord
  2
*D17
340
0
  0
BLOCK_RECORD
  5
12B1
330
1
100
AcDbSymbolTableRecord
100
AcDbBlockTableRecord
  2
*D18
340
0
  0
BLOCK_RECORD
  5
131A
330
1
100
AcDbSymbolTableRecord
100
AcDbBlockTableRecord
  2
*D19
340
0
  0
BLOCK_RECORD
  5
1422
330
1
100
AcDbSymbolTableRecord
100
AcDbBlockTableRecord
  2
_Dot
340
0
  0
ENDTAB
  0
ENDSEC
  0
SECTION
  2
BLOCKS
  0
BLOCK
  5
20
330
1F
100
AcDbEntity
  8
0
100
AcDbBlockBegin
  2
*Model_Space
 70
     0
 10
0.0
 20
0.0
 30
0.0
  3
*Model_Space
  1

  0
ENDBLK
  5
21
330
1F
100
AcDbEntity
  8
0
100
AcDbBlockEnd
  0
BLOCK
  5
1C
330
1B
100
AcDbEntity
 67
     1
  8
0
100
AcDbBlockBegin
  2
*Paper_Space
 70
     0
 10
0.0
 20
0.0
 30
0.0
  3
*Paper_Space
  1

  0
ENDBLK
  5
1D
330
1B
100
AcDbEntity
 67
     1
  8
0
100
AcDbBlockEnd
  0
BLOCK
  5
24
330
23
100
AcDbEntity
  8
0
100
AcDbBlockBegin
  2
*Paper_Space0
 70
     0
 10
0.0
 20
0.0
 30
0.0
  3
*Paper_Space0
  1

  0
ENDBLK
  5
25
330
23
100
AcDbEntity
  8
0
100
AcDbBlockEnd
  0
BLOCK
  5
D2
330
D0
100
AcDbEntity
  8
0
100
AcDbBlockBegin
  2
_DotSmall
 70
     0
 10
0.0
 20
0.0
 30
0.0
  3
_DotSmall
  1

  0
LWPOLYLINE
  5
D1
330
D0
100
AcDbEntity
  8
0
 62
     0
100
AcDbPolyline
 90
        2
 70
     1
 43
0.5
 10
-0.0625
 20
0.0
 42
1.0
 10
0.0625
 20
0.0
 42
1.0
  0
ENDBLK
  5
D3
330
D0
100
AcDbEntity
  8
0
100
AcDbBlockEnd
  0
BLOCK
  5
D8
330
D4
100
AcDbEntity
  8
0
100
AcDbBlockBegin
  2
_Origin2
 70
     0
 10
0.0
 20
0.0
 30
0.0
  3
_Origin2
  1

  0
CIRCLE
  5
D5
330
D4
100
AcDbEntity
  8
0
 62
     0
370
    -2
100
AcDbCircle
 10
0.0
 20
0.0
 30
0.0
 40
0.5
  0
CIRCLE
  5
D6
330
D4
100
AcDbEntity
  8
0
 62
     0
370
    -2
100
AcDbCircle
 10
0.0
 20
0.0
 30
0.0
 40
0.25
  0
LINE
  5
D7
330
D4
100
AcDbEntity
  8
0
 62
     0
370
    -2
100
AcDbLine
 10
-0.5
 20
0.0
 30
0.0
 11
-1.0
 21
0.0
 31
0.0
  0
ENDBLK
  5
D9
330
D4
100
AcDbEntity
  8
0
100
AcDbBlockEnd
  0
BLOCK
  5
DE
330
DA
100
AcDbEntity
  8
0
100
AcDbBlockBegin
  2
_Open30
 70
     0
 10
0.0
 20
0.0
 30
0.0
  3
_Open30
  1

  0
LINE
  5
DB
330
DA
100
AcDbEntity
  8
0
 62
     0
370
    -2
100
AcDbLine
 10
-1.0
 20
0.26794919
 30
0.0
 11
0.0
 21
0.0
 31
0.0
  0
LINE
  5
DC
330
DA
100
AcDbEntity
  8
0
 62
     0
370
    -2
100
AcDbLine
 10
0.0
 20
0.0
 30
0.0
 11
-1.0
 21
-0.26794919
 31
0.0
  0
LINE
  5
DD
330
DA
100
AcDbEntity
  8
0
 62
     0
370
    -2
100
AcDbLine
 10
0.0
 20
0.0
 30
0.0
 11
-1.0
 21
0.0
 31
0.0
  0
ENDBLK
  5
DF
330
DA
100
AcDbEntity
  8
0
100
AcDbBlockEnd
  0
BLOCK
  5
366
330
35C
100
AcDbEntity
  8
0
100
AcDbBlockBegin
  2
*D4
 70
     1
 10
0.0
 20
0.0
 30
0.0
  3
*D4
  1

  0
LINE
  5
1150
330
35C
100
AcDbEntity
  8
寸法
 62
     0
370
    15
100
AcDbLine
 10
1044.235600302483
 20
1613.774067115558
 30
0.0
 11
1044.235600302483
 21
1772.077185278966
 31
0.0
  0
LINE
  5
1151
330
35C
100
AcDbEntity
  8
寸法
 62
     0
370
    15
100
AcDbLine
 10
894.2356003024833
 20
1523.274067115558
 30
0.0
 11
894.2356003024833
 21
1772.077185278966
 31
0.0
  0
LINE
  5
1152
330
35C
100
AcDbEntity
  8
寸法
 62
     0
370
    18
100
AcDbLine
 10
1044.235600302483
 20
1772.077185278966
 30
0.0
 11
894.2356003024833
 21
1772.077185278966
 31
0.0
  0
INSERT
  5
1153
330
35C
100
AcDbEntity
  8
寸法
 62
     0
370
    18
100
AcDbBlockReference
  2
_DotSmall
 10
1044.235600302483
 20
1772.077185278966
 30
0.0
 41
35.0
 42
35.0
 43
35.0
  0
INSERT
  5
1154
330
35C
100
AcDbEntity
  8
寸法
 62
     0
370
    18
100
AcDbBlockReference
  2
_DotSmall
 10
894.2356003024833
 20
1772.077185278966
 30
0.0
 41
35.0
 42
35.0
 43
35.0
 50
180.0
  0
MTEXT
  5
1155
330
35C
100
AcDbEntity
  8
寸法
 62
     0
100
AcDbMText
 10
969.2356003024833
 20
1790.827185278966
 30
0.0
 40
25.0
 41
0.0
 71
     5
 72
     1
  1
150
 73
     1
 44
1.0
1001
ACAD
1000
MTEXTBEGIN
1070
    73
1070
     1
1070
    44
1040
1.0
1070
    74
1070
     0
1000
MTEXTEND
  0
POINT
  5
1156
330
35C
100
AcDbEntity
  8
Defpoints
 62
     0
100
AcDbPoint
 10
1044.235600302483
 20
1548.774067115558
 30
0.0
  0
POINT
  5
1157
330
35C
100
AcDbEntity
  8
Defpoints
 62
     0
100
AcDbPoint
 10
894.2356003024833
 20
1458.274067115558
 30
0.0
  0
POINT
  5
1158
330
35C
100
AcDbEntity
  8
Defpoints
 62
     0
100
AcDbPoint
 10
894.2356003024833
 20
1772.077185278966
 30
0.0
  0
ENDBLK
  5
367
330
35C
100
AcDbEntity
  8
0
100
AcDbBlockEnd
  0
BLOCK
  5
373
330
369
100
AcDbEntity
  8
0
100
AcDbBlockBegin
  2
*D5
 70
     1
 10
0.0
 20
0.0
 30
0.0
  3
*D5
  1

  0
LINE
  5
11C2
330
369
100
AcDbEntity
  8
寸法
 62
     0
370
    15
100
AcDbLine
 10
1199.735600302483
 20
1458.274067115558
 30
0.0
 11
1219.235600302483
 21
1458.274067115558
 31
0.0
  0
LINE
  5
11C3
330
369
100
AcDbEntity
  8
寸法
 62
     0
370
    15
100
AcDbLine
 10
1214.731946890782
 20
1678.274067115558
 30
0.0
 11
1219.235600302483
 21
1678.274067115558
 31
0.0
  0
LINE
  5
11C4
330
369
100
AcDbEntity
  8
寸法
 62
     0
370
    18
100
AcDbLine
 10
1219.235600302483
 20
1458.274067115558
 30
0.0
 11
1219.235600302483
 21
1678.274067115558
 31
0.0
  0
INSERT
  5
11C5
330
369
100
AcDbEntity
  8
寸法
 62
     0
370
    18
100
AcDbBlockReference
  2
_DotSmall
 10
1219.235600302483
 20
1458.274067115558
 30
0.0
 41
35.0
 42
35.0
 43
35.0
 50
270.0
  0
INSERT
  5
11C6
330
369
100
AcDbEntity
  8
寸法
 62
     0
370
    18
100
AcDbBlockReference
  2
_DotSmall
 10
1219.235600302483
 20
1678.274067115558
 30
0.0
 41
35.0
 42
35.0
 43
35.0
 50
90.0
  0
MTEXT
  5
11C7
330
369
100
AcDbEntity
  8
寸法
 62
     0
100
AcDbMText
 10
1200.485600302483
 20
1568.274067115558
 30
0.0
 40
25.0
 41
0.0
 71
     5
 72
     1
  1
220
 11
0.0000000000000001
 21
1.0
 31
0.0
 73
     1
 44
1.0
1001
ACAD
1000
MTEXTBEGIN
1070
    73
1070
     1
1070
    44
1040
1.0
1070
    74
1070
     0
1000
MTEXTEND
  0
POINT
  5
11C8
330
369
100
AcDbEntity
  8
Defpoints
 62
     0
100
AcDbPoint
 10
1134.735600302483
 20
1458.274067115558
 30
0.0
  0
POINT
  5
11C9
330
369
100
AcDbEntity
  8
Defpoints
 62
     0
100
AcDbPoint
 10
1279.731946890782
 20
1678.274067115558
 30
0.0
  0
POINT
  5
11CA
330
369
100
AcDbEntity
  8
Defpoints
 62
     0
100
AcDbPoint
 10
1219.235600302483
 20
1678.274067115558
 30
0.0
  0
ENDBLK
  5
374
330
369
100
AcDbEntity
  8
0
100
AcDbBlockEnd
  0
BLOCK
  5
3DA
330
3CF
100
AcDbEntity
  8
0
100
AcDbBlockBegin
  2
*D6
 70
     1
 10
0.0
 20
0.0
 30
0.0
  3
*D6
  1

  0
LINE
  5
11B2
330
3CF
100
AcDbEntity
  8
寸法
 62
     0
370
    15
100
AcDbLine
 10
814.2356003024833
 20
1693.274067115558
 30
0.0
 11
736.06028557861
 21
1693.274067115558
 31
0.0
  0
LINE
  5
11B3
330
3CF
100
AcDbEntity
  8
寸法
 62
     0
370
    15
100
AcDbLine
 10
814.2356003024833
 20
1678.274067115558
 30
0.0
 11
736.06028557861
 21
1678.274067115558
 31
0.0
  0
LINE
  5
11B4
330
3CF
100
AcDbEntity
  8
寸法
 62
     0
370
    18
100
AcDbLine
 10
736.06028557861
 20
1693.274067115558
 30
0.0
 11
736.06028557861
 21
1678.274067115558
 31
0.0
  0
INSERT
  5
11B5
330
3CF
100
AcDbEntity
  8
寸法
 62
     0
370
    18
100
AcDbBlockReference
  2
_DotSmall
 10
736.06028557861
 20
1693.274067115558
 30
0.0
 41
35.0
 42
35.0
 43
35.0
 50
90.0
  0
INSERT
  5
11B6
330
3CF
100
AcDbEntity
  8
寸法
 62
     0
370
    18
100
AcDbBlockReference
  2
_DotSmall
 10
736.06028557861
 20
1678.274067115558
 30
0.0
 41
35.0
 42
35.0
 43
35.0
 50
270.0
  0
POINT
  5
11B7
330
3CF
100
AcDbEntity
  8
Defpoints
 62
     0
100
AcDbPoint
 10
879.2356003024833
 20
1693.274067115558
 30
0.0
  0
POINT
  5
11B8
330
3CF
100
AcDbEntity
  8
Defpoints
 62
     0
100
AcDbPoint
 10
879.2356003024833
 20
1678.274067115558
 30
0.0
  0
POINT
  5
11B9
330
3CF
100
AcDbEntity
  8
Defpoints
 62
     0
100
AcDbPoint
 10
736.06028557861
 20
1678.274067115558
 30
0.0
  0
ENDBLK
  5
3DB
330
3CF
100
AcDbEntity
  8
0
100
AcDbBlockEnd
  0
BLOCK
  5
3E7
330
3DD
100
AcDbEntity
  8
0
100
AcDbBlockBegin
  2
*D7
 70
     1
 10
0.0
 20
0.0
 30
0.0
  3
*D7
  1

  0
LINE
  5
118E
330
3DD
100
AcDbEntity
  8
寸法
 62
     0
370
    15
100
AcDbLine
 10
814.2356003024833
 20
1678.274067115558
 30
0.0
 11
736.0602855786102
 21
1678.274067115558
 31
0.0
  0
LINE
  5
118F
330
3DD
100
AcDbEntity
  8
寸法
 62
     0
370
    15
100
AcDbLine
 10
814.2356003024833
 20
1238.274067115558
 30
0.0
 11
736.06028557861
 21
1238.274067115558
 31
0.0
  0
LINE
  5
1190
330
3DD
100
AcDbEntity
  8
寸法
 62
     0
370
    18
100
AcDbLine
 10
736.0602855786102
 20
1678.274067115558
 30
0.0
 11
736.06028557861
 21
1238.274067115558
 31
0.0
  0
INSERT
  5
1191
330
3DD
100
AcDbEntity
  8
寸法
 62
     0
370
    18
100
AcDbBlockReference
  2
_DotSmall
 10
736.0602855786102
 20
1678.274067115558
 30
0.0
 41
35.0
 42
35.0
 43
35.0
 50
90.0
  0
INSERT
  5
1192
330
3DD
100
AcDbEntity
  8
寸法
 62
     0
370
    18
100
AcDbBlockReference
  2
_DotSmall
 10
736.06028557861
 20
1238.274067115558
 30
0.0
 41
35.0
 42
35.0
 43
35.0
 50
270.0
  0
MTEXT
  5
1193
330
3DD
100
AcDbEntity
  8
寸法
 62
     0
100
AcDbMText
 10
717.3102855786099
 20
1458.274067115558
 30
0.0
 40
25.0
 41
0.0
 71
     5
 72
     1
  1
440
 11
0.0000000000000001
 21
1.0
 31
0.0
 73
     1
 44
1.0
1001
ACAD
1000
MTEXTBEGIN
1070
    73
1070
     1
1070
    44
1040
1.0
1070
    74
1070
     0
1000
MTEXTEND
  0
POINT
  5
1194
330
3DD
100
AcDbEntity
  8
Defpoints
 62
     0
100
AcDbPoint
 10
879.2356003024833
 20
1678.274067115558
 30
0.0
  0
POINT
  5
1195
330
3DD
100
AcDbEntity
  8
Defpoints
 62
     0
100
AcDbPoint
 10
879.2356003024833
 20
1238.274067115558
 30
0.0
  0
POINT
  5
1196
330
3DD
100
AcDbEntity
  8
Defpoints
 62
     0
100
AcDbPoint
 10
736.06028557861
 20
1238.274067115558
 30
0.0
  0
ENDBLK
  5
3E8
330
3DD
100
AcDbEntity
  8
0
100
AcDbBlockEnd
  0
BLOCK
  5
3F4
330
3EA
100
AcDbEntity
  8
0
100
AcDbBlockBegin
  2
*D8
 70
     1
 10
0.0
 20
0.0
 30
0.0
  3
*D8
  1

  0
LINE
  5
11A9
330
3EA
100
AcDbEntity
  8
寸法
 62
     0
370
    15
100
AcDbLine
 10
814.2356003024833
 20
1238.274067115558
 30
0.0
 11
736.06028557861
 21
1238.274067115558
 31
0.0
  0
LINE
  5
11AA
330
3EA
100
AcDbEntity
  8
寸法
 62
     0
370
    15
100
AcDbLine
 10
814.2356003024833
 20
1223.274067115558
 30
0.0
 11
736.06028557861
 21
1223.274067115558
 31
0.0
  0
LINE
  5
11AB
330
3EA
100
AcDbEntity
  8
寸法
 62
     0
370
    18
100
AcDbLine
 10
736.06028557861
 20
1238.274067115558
 30
0.0
 11
736.06028557861
 21
1223.274067115558
 31
0.0
  0
MTEXT
  5
11AC
330
3EA
100
AcDbEntity
  8
寸法
 62
     0
370
    18
100
AcDbMText
 10
721.7441798740246
 20
1180.589826407332
 30
0.0
 40
25.0
 41
0.0
 71
     5
 72
     1
  1
15
 11
0.0000000000000001
 21
1.0
 31
0.0
 73
     1
 44
1.0
1001
ACAD
1000
MTEXTBEGIN
1070
    73
1070
     1
1070
    44
1040
1.0
1070
    74
1070
     0
1000
MTEXTEND
  0
INSERT
  5
11AD
330
3EA
100
AcDbEntity
  8
寸法
 62
     0
370
    18
100
AcDbBlockReference
  2
_DotSmall
 10
736.06028557861
 20
1238.274067115558
 30
0.0
 41
35.0
 42
35.0
 43
35.0
 50
90.0
  0
INSERT
  5
11AE
330
3EA
100
AcDbEntity
  8
寸法
 62
     0
370
    18
100
AcDbBlockReference
  2
_DotSmall
 10
736.06028557861
 20
1223.274067115558
 30
0.0
 41
35.0
 42
35.0
 43
35.0
 50
270.0
  0
POINT
  5
11AF
330
3EA
100
AcDbEntity
  8
Defpoints
 62
     0
100
AcDbPoint
 10
879.2356003024833
 20
1238.274067115558
 30
0.0
  0
POINT
  5
11B0
330
3EA
100
AcDbEntity
  8
Defpoints
 62
     0
100
AcDbPoint
 10
879.2356003024833
 20
1223.274067115558
 30
0.0
  0
POINT
  5
11B1
330
3EA
100
AcDbEntity
  8
Defpoints
 62
     0
100
AcDbPoint
 10
736.06028557861
 20
1223.274067115558
 30
0.0
  0
ENDBLK
  5
3F5
330
3EA
100
AcDbEntity
  8
0
100
AcDbBlockEnd
  0
BLOCK
  5
401
330
3F7
100
AcDbEntity
  8
0
100
AcDbBlockBegin
  2
*D9
 70
     1
 10
0.0
 20
0.0
 30
0.0
  3
*D9
  1

  0
LINE
  5
1197
330
3F7
100
AcDbEntity
  8
寸法
 62
     0
370
    15
100
AcDbLine
 10
814.2356003024833
 20
1693.274067115558
 30
0.0
 11
667.2203872539259
 21
1693.274067115558
 31
0.0
  0
LINE
  5
1198
330
3F7
100
AcDbEntity
  8
寸法
 62
     0
370
    15
100
AcDbLine
 10
814.2356003024833
 20
1223.274067115558
 30
0.0
 11
667.2203872539257
 21
1223.274067115558
 31
0.0
  0
LINE
  5
1199
330
3F7
100
AcDbEntity
  8
寸法
 62
     0
370
    18
100
AcDbLine
 10
667.2203872539259
 20
1693.274067115558
 30
0.0
 11
667.2203872539257
 21
1223.274067115558
 31
0.0
  0
INSERT
  5
119A
330
3F7
100
AcDbEntity
  8
寸法
 62
     0
370
    18
100
AcDbBlockReference
  2
_DotSmall
 10
667.2203872539259
 20
1693.274067115558
 30
0.0
 41
35.0
 42
35.0
 43
35.0
 50
90.0
  0
INSERT
  5
119B
330
3F7
100
AcDbEntity
  8
寸法
 62
     0
370
    18
100
AcDbBlockReference
  2
_DotSmall
 10
667.2203872539257
 20
1223.274067115558
 30
0.0
 41
35.0
 42
35.0
 43
35.0
 50
270.0
  0
MTEXT
  5
119C
330
3F7
100
AcDbEntity
  8
寸法
 62
     0
100
AcDbMText
 10
648.4703872539256
 20
1458.274067115558
 30
0.0
 40
25.0
 41
0.0
 71
     5
 72
     1
  1
470
 11
0.0000000000000001
 21
1.0
 31
0.0
 73
     1
 44
1.0
1001
ACAD
1000
MTEXTBEGIN
1070
    73
1070
     1
1070
    44
1040
1.0
1070
    74
1070
     0
1000
MTEXTEND
  0
POINT
  5
119D
330
3F7
100
AcDbEntity
  8
Defpoints
 62
     0
100
AcDbPoint
 10
879.2356003024833
 20
1693.274067115558
 30
0.0
  0
POINT
  5
119E
330
3F7
100
AcDbEntity
  8
Defpoints
 62
     0
100
AcDbPoint
 10
879.2356003024833
 20
1223.274067115558
 30
0.0
  0
POINT
  5
119F
330
3F7
100
AcDbEntity
  8
Defpoints
 62
     0
100
AcDbPoint
 10
667.2203872539257
 20
1223.274067115558
 30
0.0
  0
ENDBLK
  5
402
330
3F7
100
AcDbEntity
  8
0
100
AcDbBlockEnd
  0
BLOCK
  5
449
330
43E
100
AcDbEntity
  8
0
100
AcDbBlockBegin
  2
*D10
 70
     1
 10
0.0
 20
0.0
 30
0.0
  3
*D10
  1

  0
LINE
  5
11A0
330
43E
100
AcDbEntity
  8
寸法
 62
     0
370
    15
100
AcDbLine
 10
879.2356003024833
 20
1158.274067115558
 30
0.0
 11
879.2356003024833
 21
1075.341949345503
 31
0.0
  0
LINE
  5
11A1
330
43E
100
AcDbEntity
  8
寸法
 62
     0
370
    15
100
AcDbLine
 10
894.2356003024833
 20
1158.274067115558
 30
0.0
 11
894.2356003024833
 21
1075.341949345503
 31
0.0
  0
LINE
  5
11A2
330
43E
100
AcDbEntity
  8
寸法
 62
     0
370
    18
100
AcDbLine
 10
879.2356003024833
 20
1075.341949345503
 30
0.0
 11
894.2356003024833
 21
1075.341949345503
 31
0.0
  0
LINE
  5
11A3
330
43E
100
AcDbEntity
  8
寸法
 62
     0
370
    18
100
AcDbLine
 10
894.2356003024833
 20
1075.341949345503
 30
0.0
 11
959.9856003024834
 21
1075.341949345503
 31
0.0
  0
INSERT
  5
11A4
330
43E
100
AcDbEntity
  8
寸法
 62
     0
370
    18
100
AcDbBlockReference
  2
_DotSmall
 10
879.2356003024833
 20
1075.341949345503
 30
0.0
 41
35.0
 42
35.0
 43
35.0
 50
180.0
  0
INSERT
  5
11A5
330
43E
100
AcDbEntity
  8
寸法
 62
     0
370
    18
100
AcDbBlockReference
  2
_DotSmall
 10
894.2356003024833
 20
1075.341949345503
 30
0.0
 41
35.0
 42
35.0
 43
35.0
  0
POINT
  5
11A6
330
43E
100
AcDbEntity
  8
Defpoints
 62
     0
100
AcDbPoint
 10
879.2356003024833
 20
1223.274067115558
 30
0.0
  0
POINT
  5
11A7
330
43E
100
AcDbEntity
  8
Defpoints
 62
     0
100
AcDbPoint
 10
894.2356003024833
 20
1223.274067115558
 30
0.0
  0
POINT
  5
11A8
330
43E
100
AcDbEntity
  8
Defpoints
 62
     0
100
AcDbPoint
 10
894.2356003024833
 20
1075.341949345503
 30
0.0
  0
ENDBLK
  5
44A
330
43E
100
AcDbEntity
  8
0
100
AcDbBlockEnd
  0
BLOCK
  5
456
330
44C
100
AcDbEntity
  8
0
100
AcDbBlockBegin
  2
*D11
 70
     1
 10
0.0
 20
0.0
 30
0.0
  3
*D11
  1

  0
LINE
  5
1159
330
44C
100
AcDbEntity
  8
寸法
 62
     0
370
    15
100
AcDbLine
 10
894.2356003024833
 20
1158.274067115558
 30
0.0
 11
894.2356003024833
 21
1075.341949345503
 31
0.0
  0
LINE
  5
115A
330
44C
100
AcDbEntity
  8
寸法
 62
     0
370
    15
100
AcDbLine
 10
1694.235600302483
 20
1158.274067115558
 30
0.0
 11
1694.235600302483
 21
1075.341949345503
 31
0.0
  0
LINE
  5
115B
330
44C
100
AcDbEntity
  8
寸法
 62
     0
370
    18
100
AcDbLine
 10
894.2356003024833
 20
1075.341949345503
 30
0.0
 11
1694.235600302483
 21
1075.341949345503
 31
0.0
  0
INSERT
  5
115C
330
44C
100
AcDbEntity
  8
寸法
 62
     0
370
    18
100
AcDbBlockReference
  2
_DotSmall
 10
894.2356003024833
 20
1075.341949345503
 30
0.0
 41
35.0
 42
35.0
 43
35.0
 50
180.0
  0
INSERT
  5
115D
330
44C
100
AcDbEntity
  8
寸法
 62
     0
370
    18
100
AcDbBlockReference
  2
_DotSmall
 10
1694.235600302483
 20
1075.341949345503
 30
0.0
 41
35.0
 42
35.0
 43
35.0
  0
MTEXT
  5
115E
330
44C
100
AcDbEntity
  8
寸法
 62
     0
100
AcDbMText
 10
1294.235600302483
 20
1094.091949345503
 30
0.0
 40
25.0
 41
0.0
 71
     5
 72
     1
  1
800
 73
     1
 44
1.0
1001
ACAD
1000
MTEXTBEGIN
1070
    73
1070
     1
1070
    44
1040
1.0
1070
    74
1070
     0
1000
MTEXTEND
  0
POINT
  5
115F
330
44C
100
AcDbEntity
  8
Defpoints
 62
     0
100
AcDbPoint
 10
894.2356003024833
 20
1223.274067115558
 30
0.0
  0
POINT
  5
1160
330
44C
100
AcDbEntity
  8
Defpoints
 62
     0
100
AcDbPoint
 10
1694.235600302483
 20
1223.274067115558
 30
0.0
  0
POINT
  5
1161
330
44C
100
AcDbEntity
  8
Defpoints
 62
     0
100
AcDbPoint
 10
1694.235600302483
 20
1075.341949345503
 30
0.0
  0
ENDBLK
  5
457
330
44C
100
AcDbEntity
  8
0
100
AcDbBlockEnd
  0
BLOCK
  5
465
330
459
100
AcDbEntity
  8
0
100
AcDbBlockBegin
  2
*D12
 70
     1
 10
0.0
 20
0.0
 30
0.0
  3
*D12
  1

  0
LINE
  5
11BA
330
459
100
AcDbEntity
  8
寸法
 62
     0
370
    15
100
AcDbLine
 10
1694.235600302483
 20
1158.274067115558
 30
0.0
 11
1694.235600302483
 21
1075.341949345503
 31
0.0
  0
LINE
  5
11BB
330
459
100
AcDbEntity
  8
寸法
 62
     0
370
    15
100
AcDbLine
 10
1709.235600302483
 20
1158.274067115558
 30
0.0
 11
1709.235600302483
 21
1075.341949345503
 31
0.0
  0
LINE
  5
11BC
330
459
100
AcDbEntity
  8
寸法
 62
     0
370
    18
100
AcDbLine
 10
1694.235600302483
 20
1075.341949345503
 30
0.0
 11
1709.235600302483
 21
1075.341949345503
 31
0.0
  0
INSERT
  5
11BD
330
459
100
AcDbEntity
  8
寸法
 62
     0
370
    18
100
AcDbBlockReference
  2
_DotSmall
 10
1694.235600302483
 20
1075.341949345503
 30
0.0
 41
35.0
 42
35.0
 43
35.0
 50
180.0
  0
INSERT
  5
11BE
330
459
100
AcDbEntity
  8
寸法
 62
     0
370
    18
100
AcDbBlockReference
  2
_DotSmall
 10
1709.235600302483
 20
1075.341949345503
 30
0.0
 41
35.0
 42
35.0
 43
35.0
  0
POINT
  5
11BF
330
459
100
AcDbEntity
  8
Defpoints
 62
     0
100
AcDbPoint
 10
1694.235600302483
 20
1223.274067115558
 30
0.0
  0
POINT
  5
11C0
330
459
100
AcDbEntity
  8
Defpoints
 62
     0
100
AcDbPoint
 10
1709.235600302483
 20
1223.274067115558
 30
0.0
  0
POINT
  5
11C1
330
459
100
AcDbEntity
  8
Defpoints
 62
     0
100
AcDbPoint
 10
1709.235600302483
 20
1075.341949345503
 30
0.0
  0
ENDBLK
  5
466
330
459
100
AcDbEntity
  8
0
100
AcDbBlockEnd
  0
BLOCK
  5
4AE
330
4A4
100
AcDbEntity
  8
0
100
AcDbBlockBegin
  2
*D13
 70
     1
 10
0.0
 20
0.0
 30
0.0
  3
*D13
  1

  0
LINE
  5
1162
330
4A4
100
AcDbEntity
  8
寸法
 62
     0
370
    15
100
AcDbLine
 10
879.2356003024833
 20
1158.274067115558
 30
0.0
 11
879.2356003024833
 21
997.5500391896339
 31
0.0
  0
LINE
  5
1163
330
4A4
100
AcDbEntity
  8
寸法
 62
     0
370
    15
100
AcDbLine
 10
1709.235600302483
 20
1158.274067115558
 30
0.0
 11
1709.235600302483
 21
997.5500391896339
 31
0.0
  0
LINE
  5
1164
330
4A4
100
AcDbEntity
  8
寸法
 62
     0
370
    18
100
AcDbLine
 10
879.2356003024833
 20
997.5500391896339
 30
0.0
 11
1709.235600302483
 21
997.5500391896339
 31
0.0
  0
INSERT
  5
1165
330
4A4
100
AcDbEntity
  8
寸法
 62
     0
370
    18
100
AcDbBlockReference
  2
_DotSmall
 10
879.2356003024833
 20
997.5500391896339
 30
0.0
 41
35.0
 42
35.0
 43
35.0
 50
180.0
  0
INSERT
  5
1166
330
4A4
100
AcDbEntity
  8
寸法
 62
     0
370
    18
100
AcDbBlockReference
  2
_DotSmall
 10
1709.235600302483
 20
997.5500391896339
 30
0.0
 41
35.0
 42
35.0
 43
35.0
  0
MTEXT
  5
1167
330
4A4
100
AcDbEntity
  8
寸法
 62
     0
100
AcDbMText
 10
1294.235600302483
 20
1016.300039189634
 30
0.0
 40
25.0
 41
0.0
 71
     5
 72
     1
  1
830
 73
     1
 44
1.0
1001
ACAD
1000
MTEXTBEGIN
1070
    73
1070
     1
1070
    44
1040
1.0
1070
    74
1070
     0
1000
MTEXTEND
  0
POINT
  5
1168
330
4A4
100
AcDbEntity
  8
Defpoints
 62
     0
100
AcDbPoint
 10
879.2356003024833
 20
1223.274067115558
 30
0.0
  0
POINT
  5
1169
330
4A4
100
AcDbEntity
  8
Defpoints
 62
     0
100
AcDbPoint
 10
1709.235600302483
 20
1223.274067115558
 30
0.0
  0
POINT
  5
116A
330
4A4
100
AcDbEntity
  8
Defpoints
 62
     0
100
AcDbPoint
 10
1709.235600302483
 20
997.5500391896339
 30
0.0
  0
ENDBLK
  5
4AF
330
4A4
100
AcDbEntity
  8
0
100
AcDbBlockEnd
  0
BLOCK
  5
4CA
330
4BF
100
AcDbEntity
  8
0
100
AcDbBlockBegin
  2
*D14
 70
     1
 10
0.0
 20
0.0
 30
0.0
  3
*D14
  1

  0
LINE
  5
126E
330
4BF
100
AcDbEntity
  8
寸法
 62
     0
370
    15
100
AcDbLine
 10
829.2356003024833
 20
603.2740671155579
 30
0.0
 11
781.5487768730982
 21
603.2740671155579
 31
0.0
  0
LINE
  5
126F
330
4BF
100
AcDbEntity
  8
寸法
 62
     0
370
    15
100
AcDbLine
 10
829.2356003024833
 20
588.274067115558
 30
0.0
 11
781.5487768730982
 21
588.274067115558
 31
0.0
  0
LINE
  5
1270
330
4BF
100
AcDbEntity
  8
寸法
 62
     0
370
    18
100
AcDbLine
 10
781.5487768730982
 20
603.2740671155579
 30
0.0
 11
781.5487768730982
 21
588.274067115558
 31
0.0
  0
MTEXT
  5
1271
330
4BF
100
AcDbEntity
  8
寸法
 62
     0
100
AcDbMText
 10
777.0572138122515
 20
627.0706220081374
 30
0.0
 40
25.0
 41
0.0
 71
     5
 72
     1
  1
 15
 11
0.0000000000000001
 21
1.0
 31
0.0
 73
     1
 44
1.0
1001
ACAD
1000
MTEXTBEGIN
1070
    73
1070
     1
1070
    44
1040
1.0
1070
    74
1070
     0
1000
MTEXTEND
  0
INSERT
  5
1272
330
4BF
100
AcDbEntity
  8
寸法
 62
     0
370
    18
100
AcDbBlockReference
  2
_DotSmall
 10
781.5487768730982
 20
603.2740671155579
 30
0.0
 41
35.0
 42
35.0
 43
35.0
 50
90.0
  0
INSERT
  5
1273
330
4BF
100
AcDbEntity
  8
寸法
 62
     0
370
    18
100
AcDbBlockReference
  2
_DotSmall
 10
781.5487768730982
 20
588.274067115558
 30
0.0
 41
35.0
 42
35.0
 43
35.0
 50
270.0
  0
POINT
  5
1274
330
4BF
100
AcDbEntity
  8
Defpoints
 62
     0
100
AcDbPoint
 10
894.2356003024833
 20
603.2740671155579
 30
0.0
  0
POINT
  5
1275
330
4BF
100
AcDbEntity
  8
Defpoints
 62
     0
100
AcDbPoint
 10
894.2356003024833
 20
588.274067115558
 30
0.0
  0
POINT
  5
1276
330
4BF
100
AcDbEntity
  8
Defpoints
 62
     0
100
AcDbPoint
 10
781.5487768730982
 20
588.274067115558
 30
0.0
  0
ENDBLK
  5
4CB
330
4BF
100
AcDbEntity
  8
0
100
AcDbBlockEnd
  0
BLOCK
  5
4D7
330
4CD
100
AcDbEntity
  8
0
100
AcDbBlockBegin
  2
*D15
 70
     1
 10
0.0
 20
0.0
 30
0.0
  3
*D15
  1

  0
LINE
  5
1265
330
4CD
100
AcDbEntity
  8
寸法
 62
     0
370
    15
100
AcDbLine
 10
829.2356003024833
 20
783.2740671155579
 30
0.0
 11
736.6032254798948
 21
783.2740671155581
 31
0.0
  0
LINE
  5
1266
330
4CD
100
AcDbEntity
  8
寸法
 62
     0
370
    15
100
AcDbLine
 10
829.2356003024833
 20
588.274067115558
 30
0.0
 11
736.6032254798946
 21
588.274067115558
 31
0.0
  0
LINE
  5
1267
330
4CD
100
AcDbEntity
  8
寸法
 62
     0
370
    18
100
AcDbLine
 10
736.6032254798948
 20
783.2740671155581
 30
0.0
 11
736.6032254798946
 21
588.274067115558
 31
0.0
  0
INSERT
  5
1268
330
4CD
100
AcDbEntity
  8
寸法
 62
     0
370
    18
100
AcDbBlockReference
  2
_DotSmall
 10
736.6032254798948
 20
783.2740671155581
 30
0.0
 41
35.0
 42
35.0
 43
35.0
 50
90.0
  0
INSERT
  5
1269
330
4CD
100
AcDbEntity
  8
寸法
 62
     0
370
    18
100
AcDbBlockReference
  2
_DotSmall
 10
736.6032254798946
 20
588.274067115558
 30
0.0
 41
35.0
 42
35.0
 43
35.0
 50
270.0
  0
MTEXT
  5
126A
330
4CD
100
AcDbEntity
  8
寸法
 62
     0
100
AcDbMText
 10
717.8532254798946
 20
685.7740671155582
 30
0.0
 40
25.0
 41
0.0
 71
     5
 72
     1
  1
195
 11
0.0000000000000001
 21
1.0
 31
0.0
 73
     1
 44
1.0
1001
ACAD
1000
MTEXTBEGIN
1070
    73
1070
     1
1070
    44
1040
1.0
1070
    74
1070
     0
1000
MTEXTEND
  0
POINT
  5
126B
330
4CD
100
AcDbEntity
  8
Defpoints
 62
     0
100
AcDbPoint
 10
894.2356003024833
 20
783.2740671155579
 30
0.0
  0
POINT
  5
126C
330
4CD
100
AcDbEntity
  8
Defpoints
 62
     0
100
AcDbPoint
 10
894.2356003024833
 20
588.274067115558
 30
0.0
  0
POINT
  5
126D
330
4CD
100
AcDbEntity
  8
Defpoints
 62
     0
100
AcDbPoint
 10
736.6032254798946
 20
588.274067115558
 30
0.0
  0
ENDBLK
  5
4D8
330
4CD
100
AcDbEntity
  8
0
100
AcDbBlockEnd
  0
BLOCK
  5
503
330
4F9
100
AcDbEntity
  8
0
100
AcDbBlockBegin
  2
*D16
 70
     1
 10
0.0
 20
0.0
 30
0.0
  3
*D16
  1

  0
LINE
  5
116B
330
4F9
100
AcDbEntity
  8
寸法
 62
     0
370
    15
100
AcDbLine
 10
964.2356003024833
 20
513.274067115558
 30
0.0
 11
964.2356003024833
 21
461.846659814485
 31
0.0
  0
LINE
  5
116C
330
4F9
100
AcDbEntity
  8
寸法
 62
     0
370
    15
100
AcDbLine
 10
1124.235600302483
 20
513.274067115558
 30
0.0
 11
1124.235600302483
 21
461.846659814485
 31
0.0
  0
LINE
  5
116D
330
4F9
100
AcDbEntity
  8
寸法
 62
     0
370
    18
100
AcDbLine
 10
964.2356003024833
 20
461.846659814485
 30
0.0
 11
1124.235600302483
 21
461.846659814485
 31
0.0
  0
INSERT
  5
116E
330
4F9
100
AcDbEntity
  8
寸法
 62
     0
370
    18
100
AcDbBlockReference
  2
_DotSmall
 10
964.2356003024833
 20
461.846659814485
 30
0.0
 41
35.0
 42
35.0
 43
35.0
 50
180.0
  0
INSERT
  5
116F
330
4F9
100
AcDbEntity
  8
寸法
 62
     0
370
    18
100
AcDbBlockReference
  2
_DotSmall
 10
1124.235600302483
 20
461.846659814485
 30
0.0
 41
35.0
 42
35.0
 43
35.0
  0
MTEXT
  5
1170
330
4F9
100
AcDbEntity
  8
寸法
 62
     0
100
AcDbMText
 10
1044.235600302483
 20
480.596659814485
 30
0.0
 40
25.0
 41
0.0
 71
     5
 72
     1
  1
160
 73
     1
 44
1.0
1001
ACAD
1000
MTEXTBEGIN
1070
    73
1070
     1
1070
    44
1040
1.0
1070
    74
1070
     0
1000
MTEXTEND
  0
POINT
  5
1171
330
4F9
100
AcDbEntity
  8
Defpoints
 62
     0
100
AcDbPoint
 10
964.2356003024833
 20
578.2740671155579
 30
0.0
  0
POINT
  5
1172
330
4F9
100
AcDbEntity
  8
Defpoints
 62
     0
100
AcDbPoint
 10
1124.235600302483
 20
578.2740671155579
 30
0.0
  0
POINT
  5
1173
330
4F9
100
AcDbEntity
  8
Defpoints
 62
     0
100
AcDbPoint
 10
1124.235600302483
 20
461.846659814485
 30
0.0
  0
ENDBLK
  5
504
330
4F9
100
AcDbEntity
  8
0
100
AcDbBlockEnd
  0
BLOCK
  5
510
330
506
100
AcDbEntity
  8
0
100
AcDbBlockBegin
  2
*D17
 70
     1
 10
0.0
 20
0.0
 30
0.0
  3
*D17
  1

  0
LINE
  5
1174
330
506
100
AcDbEntity
  8
寸法
 62
     0
370
    15
100
AcDbLine
 10
953.7356003024834
 20
513.274067115558
 30
0.0
 11
953.7356003024834
 21
401.8872612455561
 31
0.0
  0
LINE
  5
1175
330
506
100
AcDbEntity
  8
寸法
 62
     0
370
    15
100
AcDbLine
 10
1134.735600302483
 20
513.274067115558
 30
0.0
 11
1134.735600302483
 21
401.8872612455561
 31
0.0
  0
LINE
  5
1176
330
506
100
AcDbEntity
  8
寸法
 62
     0
370
    18
100
AcDbLine
 10
953.7356003024834
 20
401.8872612455561
 30
0.0
 11
1134.735600302483
 21
401.8872612455561
 31
0.0
  0
INSERT
  5
1177
330
506
100
AcDbEntity
  8
寸法
 62
     0
370
    18
100
AcDbBlockReference
  2
_DotSmall
 10
953.7356003024834
 20
401.8872612455561
 30
0.0
 41
35.0
 42
35.0
 43
35.0
 50
180.0
  0
INSERT
  5
1178
330
506
100
AcDbEntity
  8
寸法
 62
     0
370
    18
100
AcDbBlockReference
  2
_DotSmall
 10
1134.735600302483
 20
401.8872612455561
 30
0.0
 41
35.0
 42
35.0
 43
35.0
  0
MTEXT
  5
1179
330
506
100
AcDbEntity
  8
寸法
 62
     0
100
AcDbMText
 10
1044.235600302483
 20
420.6372612455561
 30
0.0
 40
25.0
 41
0.0
 71
     5
 72
     1
  1
181
 73
     1
 44
1.0
1001
ACAD
1000
MTEXTBEGIN
1070
    73
1070
     1
1070
    44
1040
1.0
1070
    74
1070
     0
1000
MTEXTEND
  0
POINT
  5
117A
330
506
100
AcDbEntity
  8
Defpoints
 62
     0
100
AcDbPoint
 10
953.7356003024834
 20
578.274067115558
 30
0.0
  0
POINT
  5
117B
330
506
100
AcDbEntity
  8
Defpoints
 62
     0
100
AcDbPoint
 10
1134.735600302483
 20
578.2740671155579
 30
0.0
  0
POINT
  5
117C
330
506
100
AcDbEntity
  8
Defpoints
 62
     0
100
AcDbPoint
 10
1134.735600302483
 20
401.8872612455561
 30
0.0
  0
ENDBLK
  5
511
330
506
100
AcDbEntity
  8
0
100
AcDbBlockEnd
  0
BLOCK
  5
12BC
330
12B1
100
AcDbEntity
  8
0
100
AcDbBlockBegin
  2
*D18
 70
     1
 10
0.0
 20
0.0
 30
0.0
  3
*D18
  1

  0
LINE
  5
1310
330
12B1
100
AcDbEntity
  8
実形
 62
     0
370
    18
100
AcDbLine
 10
818.0334505155361
 20
603.2740671155579
 30
0.0
 11
781.5487768730982
 21
603.2740671155579
 31
0.0
  0
LINE
  5
1311
330
12B1
100
AcDbEntity
  8
実形
 62
     0
370
    18
100
AcDbLine
 10
830.0617497275224
 20
578.2740671155579
 30
0.0
 11
781.5487768730982
 21
578.2740671155579
 31
0.0
  0
LINE
  5
1312
330
12B1
100
AcDbEntity
  8
実形
 62
     0
370
    18
100
AcDbLine
 10
781.5487768730982
 20
603.2740671155579
 30
0.0
 11
781.5487768730982
 21
578.2740671155579
 31
0.0
  0
MTEXT
  5
1313
330
12B1
100
AcDbEntity
  8
実形
 62
     0
100
AcDbMText
 10
780.9009818228714
 20
559.272592971638
 30
0.0
 40
25.0
 41
0.0
 71
     5
 72
     1
  1
8
 11
0.0000000000000001
 21
1.0
 31
0.0
 73
     1
 44
1.0
1001
ACAD
1000
MTEXTBEGIN
1070
    73
1070
     1
1070
    44
1040
1.0
1070
    74
1070
     0
1000
MTEXTEND
  0
INSERT
  5
1314
330
12B1
100
AcDbEntity
  8
実形
 62
     0
370
    18
100
AcDbBlockReference
  2
_DotSmall
 10
781.5487768730982
 20
603.2740671155579
 30
0.0
 41
35.0
 42
35.0
 43
35.0
 50
90.0
  0
INSERT
  5
1315
330
12B1
100
AcDbEntity
  8
実形
 62
     0
370
    18
100
AcDbBlockReference
  2
_DotSmall
 10
781.5487768730982
 20
578.2740671155579
 30
0.0
 41
35.0
 42
35.0
 43
35.0
 50
270.0
  0
POINT
  5
1316
330
12B1
100
AcDbEntity
  8
Defpoints
 62
     0
100
AcDbPoint
 10
883.0334505155361
 20
603.2740671155579
 30
0.0
  0
POINT
  5
1317
330
12B1
100
AcDbEntity
  8
Defpoints
 62
     0
100
AcDbPoint
 10
895.0617497275224
 20
578.2740671155579
 30
0.0
  0
POINT
  5
1318
330
12B1
100
AcDbEntity
  8
Defpoints
 62
     0
100
AcDbPoint
 10
781.5487768730982
 20
578.2740671155579
 30
0.0
  0
ENDBLK
  5
12BD
330
12B1
100
AcDbEntity
  8
0
100
AcDbBlockEnd
  0
BLOCK
  5
1324
330
131A
100
AcDbEntity
  8
0
100
AcDbBlockBegin
  2
*D19
 70
     1
 10
0.0
 20
0.0
 30
0.0
  3
*D19
  1

  0
LINE
  5
1341
330
131A
100
AcDbEntity
  8
実形
 62
     0
370
    18
100
AcDbLine
 10
764.2356003024834
 20
783.2740671155581
 30
0.0
 11
688.2111176125428
 21
783.2740671155581
 31
0.0
  0
LINE
  5
1342
330
131A
100
AcDbEntity
  8
実形
 62
     0
370
    18
100
AcDbLine
 10
740.8052633003103
 20
578.274067115558
 30
0.0
 11
688.2111176125427
 21
578.274067115558
 31
0.0
  0
LINE
  5
1343
330
131A
100
AcDbEntity
  8
実形
 62
     0
370
    18
100
AcDbLine
 10
688.2111176125428
 20
783.2740671155581
 30
0.0
 11
688.2111176125427
 21
578.274067115558
 31
0.0
  0
INSERT
  5
1344
330
131A
100
AcDbEntity
  8
実形
 62
     0
370
    18
100
AcDbBlockReference
  2
_DotSmall
 10
688.2111176125428
 20
783.2740671155581
 30
0.0
 41
35.0
 42
35.0
 43
35.0
 50
90.0
  0
INSERT
  5
1345
330
131A
100
AcDbEntity
  8
実形
 62
     0
370
    18
100
AcDbBlockReference
  2
_DotSmall
 10
688.2111176125427
 20
578.274067115558
 30
0.0
 41
35.0
 42
35.0
 43
35.0
 50
270.0
  0
MTEXT
  5
1346
330
131A
100
AcDbEntity
  8
実形
 62
     0
100
AcDbMText
 10
669.4611176125426
 20
680.7740671155581
 30
0.0
 40
25.0
 41
0.0
 71
     5
 72
     1
  1
203
 11
0.0000000000000001
 21
1.0
 31
0.0
 73
     1
 44
1.0
1001
ACAD
1000
MTEXTBEGIN
1070
    73
1070
     1
1070
    44
1040
1.0
1070
    74
1070
     0
1000
MTEXTEND
  0
POINT
  5
1347
330
131A
100
AcDbEntity
  8
Defpoints
 62
     0
100
AcDbPoint
 10
829.2356003024833
 20
783.2740671155579
 30
0.0
  0
POINT
  5
1348
330
131A
100
AcDbEntity
  8
Defpoints
 62
     0
100
AcDbPoint
 10
805.8052633003104
 20
578.2740671155579
 30
0.0
  0
POINT
  5
1349
330
131A
100
AcDbEntity
  8
Defpoints
 62
     0
100
AcDbPoint
 10
688.2111176125427
 20
578.274067115558
 30
0.0
  0
ENDBLK
  5
1325
330
131A
100
AcDbEntity
  8
0
100
AcDbBlockEnd
  0
BLOCK
  5
1423
330
1422
100
AcDbEntity
  8
0
100
AcDbBlockBegin
  2
_Dot
 70
     0
 10
0.0
 20
0.0
 30
0.0
  3
_Dot
  1

  0
LWPOLYLINE
  5
1424
330
1422
100
AcDbEntity
  8
0
 62
     0
100
AcDbPolyline
 90
        2
 70
     1
 43
0.5
 10
-0.25
 20
0.0
 42
1.0
 10
0.25
 20
0.0
 42
1.0
  0
LINE
  5
1425
330
1422
100
AcDbEntity
  8
0
 62
     0
370
    -2
100
AcDbLine
 10
-0.5
 20
0.0
 30
0.0
 11
-1.0
 21
0.0
 31
0.0
  0
ENDBLK
  5
1426
330
1422
100
AcDbEntity
  8
0
100
AcDbBlockEnd
  0
ENDSEC
  0
SECTION
  2
ENTITIES
  0
LINE
  5
9C
330
1F
100
AcDbEntity
  8
補助
100
AcDbLine
 10
109.0
 20
4.0
 30
0.0
 11
2784.0
 21
4.0
 31
0.0
  0
LINE
  5
A0
330
1F
100
AcDbEntity
  8
補助
100
AcDbLine
 10
2784.0
 20
2024.0
 30
0.0
 11
109.0
 21
2024.0
 31
0.0
  0
LINE
  5
A5
330
1F
100
AcDbEntity
  8
補助
100
AcDbLine
 10
2784.0
 20
4.0
 30
0.0
 11
2784.0
 21
2024.0
 31
0.0
  0
LINE
  5
2E6
330
1F
100
AcDbEntity
  8
実形
100
AcDbLine
 10
879.2356003024833
 20
783.2740671155579
 30
0.0
 11
1709.235600302483
 21
783.2740671155579
 31
0.0
  0
CIRCLE
  5
2EB
330
1F
100
AcDbEntity
  8
実形
100
AcDbCircle
 10
1044.235600302483
 20
1458.274067115558
 30
0.0
 40
80.0
  0
CIRCLE
  5
2EE
330
1F
100
AcDbEntity
  8
実形
100
AcDbCircle
 10
1044.235600302483
 20
1458.274067115558
 30
0.0
 40
90.5
  0
LINE
  5
2F9
330
1F
100
AcDbEntity
  8
実形
100
AcDbLine
 10
953.7356003024834
 20
588.274067115558
 30
0.0
 11
1124.235600302483
 21
588.274067115558
 31
0.0
  0
LINE
  5
2FA
330
1F
100
AcDbEntity
  8
実形
100
AcDbLine
 10
1124.235600302483
 20
588.274067115558
 30
0.0
 11
1134.735600302483
 21
588.274067115558
 31
0.0
  0
LINE
  5
2FB
330
1F
100
AcDbEntity
  8
実形
100
AcDbLine
 10
1134.735600302483
 20
588.274067115558
 30
0.0
 11
1134.735600302483
 21
588.274067115558
 31
0.0
  0
LINE
  5
306
330
1F
100
AcDbEntity
  8
実形
100
AcDbLine
 10
953.7356003024834
 20
588.274067115558
 30
0.0
 11
953.7356003024834
 21
578.2740671155579
 31
0.0
  0
LINE
  5
307
330
1F
100
AcDbEntity
  8
実形
100
AcDbLine
 10
953.7356003024834
 20
578.2740671155579
 30
0.0
 11
1134.735600302483
 21
578.2740671155579
 31
0.0
  0
LINE
  5
308
330
1F
100
AcDbEntity
  8
実形
100
AcDbLine
 10
1134.735600302483
 20
578.2740671155579
 30
0.0
 11
1134.735600302483
 21
588.274067115558
 31
0.0
  0
LINE
  5
33A
330
1F
100
AcDbEntity
  8
センター
370
    15
100
AcDbLine
 10
868.9320482224875
 20
1458.274067115558
 30
0.0
 11
1219.539152382479
 21
1458.274067115558
 31
0.0
  0
LINE
  5
33B
330
1F
100
AcDbEntity
  8
センター
370
    15
100
AcDbLine
 10
1044.235600302483
 20
1648.577619195554
 30
0.0
 11
1044.235600302483
 21
1267.970515035562
 31
0.0
  0
LINE
  5
33C
330
1F
100
AcDbEntity
  8
センター
 48
0.5
370
    15
100
AcDbLine
 10
1044.235600302483
 20
666.4906909909714
 30
0.0
 11
1044.235600302483
 21
510.0748706836712
 31
0.0
  0
DIMENSION
  5
35B
330
1F
100
AcDbEntity
  8
寸法
100
AcDbDimension
  2
*D4
 10
894.2356003024833
 20
1772.077185278966
 30
0.0
 11
969.2356003024833
 21
1790.827185278966
 31
0.0
 70
    32
 71
     5
 42
150.0
  3
ISO-25
100
AcDbAlignedDimension
 13
1044.235600302483
 23
1548.774067115558
 33
0.0
 14
894.2356003024833
 24
1458.274067115558
 34
0.0
100
AcDbRotatedDimension
1001
ACAD
1000
DSTYLE
1002
{
1070
   371
1070
    18
1002
}
  0
DIMENSION
  5
368
330
1F
100
AcDbEntity
  8
寸法
100
AcDbDimension
  2
*D5
 10
1219.235600302483
 20
1678.274067115558
 30
0.0
 11
1200.485600302483
 21
1568.274067115558
 31
0.0
 70
    32
 71
     5
 42
220.0
  3
ISO-25
100
AcDbAlignedDimension
 13
1134.735600302483
 23
1458.274067115558
 33
0.0
 14
1279.731946890782
 24
1678.274067115558
 34
0.0
 50
90.0
100
AcDbRotatedDimension
1001
ACAD
1000
DSTYLE
1002
{
1070
   371
1070
    18
1002
}
  0
TEXT
  5
395
330
1F
100
AcDbEntity
  8
寸法
370
    18
100
AcDbText
 10
1558.50813527046
 20
1572.387398119228
 30
0.0
 40
25.0
  1
20R
100
AcDbText
  0
TEXT
  5
3AF
330
1F
100
AcDbEntity
  8
寸法
100
AcDbText
 10
1555.075053088351
 20
652.9802669159294
 30
0.0
 40
25.0
  1
20R
100
AcDbText
  0
DIMENSION
  5
3CE
330
1F
100
AcDbEntity
  8
寸法
100
AcDbDimension
  2
*D6
 10
736.06028557861
 20
1678.274067115558
 30
0.0
 11
736.0602855786098
 21
1685.774067115558
 31
0.0
 70
    32
  1
 
 71
     5
 42
15.0
  3
ISO-25
100
AcDbAlignedDimension
 13
879.2356003024833
 23
1693.274067115558
 33
0.0
 14
879.2356003024833
 24
1678.274067115558
 34
0.0
 50
90.0
100
AcDbRotatedDimension
1001
ACAD
1000
DSTYLE
1002
{
1070
   371
1070
    18
1002
}
  0
DIMENSION
  5
3DC
330
1F
100
AcDbEntity
  8
寸法
100
AcDbDimension
  2
*D7
 10
736.06028557861
 20
1238.274067115558
 30
0.0
 11
717.3102855786099
 21
1458.274067115558
 31
0.0
 70
    32
 71
     5
 42
440.0
  3
ISO-25
100
AcDbAlignedDimension
 13
879.2356003024833
 23
1678.274067115558
 33
0.0
 14
879.2356003024833
 24
1238.274067115558
 34
0.0
 50
90.0
100
AcDbRotatedDimension
1001
ACAD
1000
DSTYLE
1002
{
1070
   371
1070
    18
1070
   279
1070
     1
1002
}
  0
DIMENSION
  5
3E9
330
1F
100
AcDbEntity
  8
寸法
370
    18
100
AcDbDimension
  2
*D8
 10
736.06028557861
 20
1223.274067115558
 30
0.0
 11
740.4941798740246
 21
1180.589826407332
 31
0.0
 70
   160
 71
     5
 42
15.0
  3
ISO-25
100
AcDbAlignedDimension
 13
879.2356003024833
 23
1238.274067115558
 33
0.0
 14
879.2356003024833
 24
1223.274067115558
 34
0.0
 50
90.0
100
AcDbRotatedDimension
1001
ACAD
1000
DSTYLE
1002
{
1070
   371
1070
    18
1070
   279
1070
     1
1002
}
  0
DIMENSION
  5
3F6
330
1F
100
AcDbEntity
  8
寸法
100
AcDbDimension
  2
*D9
 10
667.2203872539257
 20
1223.274067115558
 30
0.0
 11
648.4703872539256
 21
1458.274067115558
 31
0.0
 70
    32
 71
     5
 42
470.0
  3
ISO-25
100
AcDbAlignedDimension
 13
879.2356003024833
 23
1693.274067115558
 33
0.0
 14
879.2356003024833
 24
1223.274067115558
 34
0.0
 50
90.0
100
AcDbRotatedDimension
1001
ACAD
1000
DSTYLE
1002
{
1070
   371
1070
    18
1002
}
  0
TEXT
  5
43C
330
1F
100
AcDbEntity
  8
寸法
370
    18
100
AcDbText
 10
740.4941798740246
 20
1718.525240054884
 30
0.0
 40
25.0
  1
15
 50
90.0
100
AcDbText
  0
DIMENSION
  5
43D
330
1F
100
AcDbEntity
  8
寸法
100
AcDbDimension
  2
*D10
 10
894.2356003024833
 20
1075.341949345503
 30
0.0
 11
953.7356003024834
 21
1075.341949345503
 31
0.0
 70
   160
  1
 
 71
     5
 42
15.0
  3
ISO-25
100
AcDbAlignedDimension
 13
879.2356003024833
 23
1223.274067115558
 33
0.0
 14
894.2356003024833
 24
1223.274067115558
 34
0.0
100
AcDbRotatedDimension
1001
ACAD
1000
DSTYLE
1002
{
1070
   371
1070
    18
1002
}
  0
DIMENSION
  5
44B
330
1F
100
AcDbEntity
  8
寸法
100
AcDbDimension
  2
*D11
 10
1694.235600302483
 20
1075.341949345503
 30
0.0
 11
1294.235600302483
 21
1094.091949345503
 31
0.0
 70
    32
 71
     5
 42
800.0
  3
ISO-25
100
AcDbAlignedDimension
 13
894.2356003024833
 23
1223.274067115558
 33
0.0
 14
1694.235600302483
 24
1223.274067115558
 34
0.0
100
AcDbRotatedDimension
1001
ACAD
1000
DSTYLE
1002
{
1070
   371
1070
    18
1070
   279
1070
     1
1002
}
  0
DIMENSION
  5
458
330
1F
100
AcDbEntity
  8
寸法
100
AcDbDimension
  2
*D12
 10
1709.235600302483
 20
1075.341949345503
 30
0.0
 11
1701.735600302483
 21
1075.341949345503
 31
0.0
 70
    32
  1
 
 71
     5
 42
15.0
  3
ISO-25
100
AcDbAlignedDimension
 13
1694.235600302483
 23
1223.274067115558
 33
0.0
 14
1709.235600302483
 24
1223.274067115558
 34
0.0
100
AcDbRotatedDimension
1001
ACAD
1000
DSTYLE
1002
{
1070
   371
1070
    18
1070
   279
1070
     1
1002
}
  0
TEXT
  5
494
330
1F
100
AcDbEntity
  8
寸法
100
AcDbText
 10
820.6373838562676
 20
1077.629946979899
 30
0.0
 40
25.0
  1
15
100
AcDbText
  0
TEXT
  5
495
330
1F
100
AcDbEntity
  8
寸法
370
    18
100
AcDbText
 10
1726.993967915168
 20
1073.242377634884
 30
0.0
 40
25.0
  1
15
100
AcDbText
  0
DIMENSION
  5
4A3
330
1F
100
AcDbEntity
  8
寸法
100
AcDbDimension
  2
*D13
 10
1709.235600302483
 20
997.5500391896339
 30
0.0
 11
1294.235600302483
 21
1016.300039189634
 31
0.0
 70
    32
 71
     5
 42
830.0
  3
ISO-25
100
AcDbAlignedDimension
 13
879.2356003024833
 23
1223.274067115558
 33
0.0
 14
1709.235600302483
 24
1223.274067115558
 34
0.0
100
AcDbRotatedDimension
1001
ACAD
1000
DSTYLE
1002
{
1070
   371
1070
    18
1002
}
  0
DIMENSION
  5
4BE
330
1F
100
AcDbEntity
  8
寸法
100
AcDbDimension
  2
*D14
 10
781.5487768730982
 20
588.274067115558
 30
0.0
 11
777.0572138122515
 21
627.0706220081374
 31
0.0
 70
   160
  1
 15
 71
     5
 42
15.0
  3
ISO-25
100
AcDbAlignedDimension
 13
894.2356003024833
 23
603.2740671155579
 33
0.0
 14
894.2356003024833
 24
588.274067115558
 34
0.0
 50
90.0
100
AcDbRotatedDimension
1001
ACAD
1000
DSTYLE
1002
{
1070
   282
1070
     0
1070
   279
1070
     2
1070
   371
1070
    18
1002
}
  0
DIMENSION
  5
4CC
330
1F
100
AcDbEntity
  8
寸法
100
AcDbDimension
  2
*D15
 10
736.6032254798946
 20
588.274067115558
 30
0.0
 11
717.8532254798946
 21
685.7740671155582
 31
0.0
 70
    32
 71
     5
 42
195.0
  3
ISO-25
100
AcDbAlignedDimension
 13
894.2356003024833
 23
783.2740671155579
 33
0.0
 14
894.2356003024833
 24
588.274067115558
 34
0.0
 50
90.0
100
AcDbRotatedDimension
1001
ACAD
1000
DSTYLE
1002
{
1070
   371
1070
    18
1002
}
  0
DIMENSION
  5
4F8
330
1F
100
AcDbEntity
  8
寸法
100
AcDbDimension
  2
*D16
 10
1124.235600302483
 20
461.846659814485
 30
0.0
 11
1044.235600302483
 21
480.596659814485
 31
0.0
 70
    32
 71
     5
 42
160.0
  3
ISO-25
100
AcDbAlignedDimension
 13
964.2356003024833
 23
578.2740671155579
 33
0.0
 14
1124.235600302483
 24
578.2740671155579
 34
0.0
100
AcDbRotatedDimension
1001
ACAD
1000
DSTYLE
1002
{
1070
   371
1070
    18
1002
}
  0
DIMENSION
  5
505
330
1F
100
AcDbEntity
  8
寸法
100
AcDbDimension
  2
*D17
 10
1134.735600302483
 20
401.8872612455561
 30
0.0
 11
1044.235600302483
 21
420.6372612455561
 31
0.0
 70
    32
 71
     5
 42
181.0
  3
ISO-25
100
AcDbAlignedDimension
 13
953.7356003024834
 23
578.274067115558
 33
0.0
 14
1134.735600302483
 24
578.2740671155579
 34
0.0
100
AcDbRotatedDimension
1001
ACAD
1000
DSTYLE
1002
{
1070
   371
1070
    18
1002
}
  0
LEADER
  5
7CF
330
1F
100
AcDbEntity
  8
0
100
AcDbLeader
  3
ISO-25
 40
25.0
 41
16.66666666666666
 76
     2
 10
1677.034311232126
 20
1656.027402134856
 30
0.0
 10
1624.048946066305
 20
1606.513749341996
 30
0.0
213
0.0
223
-12.5
233
0.0
1001
ACAD
1000
DSTYLE
1002
{
1070
    41
1040
25.0
1070
   147
1040
6.25
1070
    77
1070
     0
1070
    73
1070
     1
1070
    74
1070
     1
1070
   279
1070
     1
1070
   342
1005
DA
1002
}
  0
LEADER
  5
7D2
330
1F
100
AcDbEntity
  8
0
100
AcDbLeader
  3
ISO-25
 40
25.0
 41
16.66666666666666
 76
     2
 10
1676.519197238183
 20
623.4547981709028
 30
0.0
 10
1628.580698943132
 20
653.9370199353579
 30
0.0
213
0.0
223
-12.5
233
0.0
1001
ACAD
1000
DSTYLE
1002
{
1070
    41
1040
25.0
1070
   147
1040
6.25
1070
    77
1070
     0
1070
    73
1070
     1
1070
    74
1070
     1
1070
   279
1070
     1
1070
   342
1005
DA
1002
}
  0
TEXT
  5
8C9
330
1F
100
AcDbEntity
  8
0
100
AcDbText
 10
249.2632881086038
 20
83.52862940911927
 30
0.0
 40
30.0
  1
※実寸には製造上の誤差が多少生ずる場合があります。シンクの穴あけ加工は現物合わせにてお願いします。
100
AcDbText
  0
LINE
  5
F27
330
1F
100
AcDbEntity
  8
実形
100
AcDbLine
 10
879.2356003024833
 20
783.2740671155579
 30
0.0
 11
1709.235600302483
 21
783.2740671155579
 31
0.0
  0
LINE
  5
F28
330
1F
100
AcDbEntity
  8
実形
100
AcDbLine
 10
1694.235600302483
 20
783.2740671155579
 30
0.0
 11
1694.235600302483
 21
632.1952856637397
 31
0.0
  0
LINE
  5
F2A
330
1F
100
AcDbEntity
  8
実形
100
AcDbLine
 10
894.2356003024833
 20
783.2740671155579
 30
0.0
 11
894.2356003024833
 21
626.649680374682
 31
0.0
  0
LINE
  5
FFC
330
1F
100
AcDbEntity
  8
実形
100
AcDbLine
 10
1694.235600302483
 20
1658.274067115558
 30
0.0
 11
1694.235600302483
 21
1258.274067115558
 31
0.0
  0
LINE
  5
FFD
330
1F
100
AcDbEntity
  8
実形
100
AcDbLine
 10
1674.235600302483
 20
1238.274067115558
 30
0.0
 11
914.2356003024833
 21
1238.274067115558
 31
0.0
  0
LINE
  5
FFE
330
1F
100
AcDbEntity
  8
実形
100
AcDbLine
 10
894.2356003024833
 20
1258.274067115558
 30
0.0
 11
894.2356003024833
 21
1658.274067115558
 31
0.0
  0
LINE
  5
FFF
330
1F
100
AcDbEntity
  8
実形
100
AcDbLine
 10
914.2356003024833
 20
1678.274067115558
 30
0.0
 11
1674.235600302483
 21
1678.274067115558
 31
0.0
  0
LINE
  5
1005
330
1F
100
AcDbEntity
  8
実形
100
AcDbLine
 10
1709.235600302483
 20
1693.274067115558
 30
0.0
 11
1709.235600302483
 21
1223.274067115558
 31
0.0
  0
LINE
  5
1007
330
1F
100
AcDbEntity
  8
実形
100
AcDbLine
 10
879.2356003024837
 20
1693.274067115558
 30
0.0
 11
1709.235600302483
 21
1693.274067115558
 31
0.0
  0
LINE
  5
1009
330
1F
100
AcDbEntity
  8
実形
100
AcDbLine
 10
879.2356003024833
 20
1223.274067115558
 30
0.0
 11
879.2356003024837
 21
1693.274067115558
 31
0.0
  0
LINE
  5
100B
330
1F
100
AcDbEntity
  8
実形
100
AcDbLine
 10
1709.235600302483
 20
1223.274067115558
 30
0.0
 11
879.2356003024833
 21
1223.274067115558
 31
0.0
  0
LINE
  5
105B
330
1F
100
AcDbEntity
  8
実形
100
AcDbLine
 10
1694.235600302483
 20
783.2740671155579
 30
0.0
 11
1694.235600302484
 21
622.7450603691226
 31
0.0
  0
LINE
  5
105C
330
1F
100
AcDbEntity
  8
実形
100
AcDbLine
 10
1674.771600739431
 20
602.7522440709721
 30
0.0
 11
1134.735600302483
 21
588.274067115558
 31
0.0
  0
LINE
  5
105D
330
1F
100
AcDbEntity
  8
実形
100
AcDbLine
 10
1134.735600302483
 20
588.274067115558
 30
0.0
 11
953.7356003024834
 21
588.274067115558
 31
0.0
  0
LINE
  5
105F
330
1F
100
AcDbEntity
  8
実形
100
AcDbLine
 10
894.2356003024833
 20
608.4013638770849
 30
0.0
 11
894.2356003024833
 21
783.2740671155579
 31
0.0
  0
LINE
  5
10B2
330
1F
100
AcDbEntity
  8
補助
100
AcDbLine
 10
2064.0
 20
134.0
 30
0.0
 11
2784.0
 21
134.0
 31
0.0
  0
LINE
  5
10B3
330
1F
100
AcDbEntity
  8
補助
100
AcDbLine
 10
2064.0
 20
199.0
 30
0.0
 11
2784.0
 21
199.0
 31
0.0
  0
LINE
  5
10B4
330
1F
100
AcDbEntity
  8
補助
100
AcDbLine
 10
2064.0
 20
69.0
 30
0.0
 11
2784.0
 21
69.0
 31
0.0
  0
TEXT
  5
10B5
330
1F
100
AcDbEntity
  8
補助
100
AcDbText
 10
2086.666666666667
 20
149.0
 30
0.0
 40
35.0
  1
品番
 72
     4
 11
2124.0
 21
166.5
 31
0.0
100
AcDbText
  0
TEXT
  5
10B6
330
1F
100
AcDbEntity
  8
補助
100
AcDbText
 10
2086.666666666667
 20
84.0
 30
0.0
 40
35.0
  1
尺度
 72
     4
 11
2124.0
 21
101.5
 31
0.0
100
AcDbText
  0
LINE
  5
10B7
330
1F
100
AcDbEntity
  8
補助
100
AcDbLine
 10
2064.0
 20
4.0
 30
0.0
 11
2064.0
 21
199.0
 31
0.0
  0
TEXT
  5
10B8
330
1F
100
AcDbEntity
  8
0
100
AcDbText
 10
2323.583333333334
 20
149.0
 30
0.0
 40
35.0
  1
TBK800-440
 72
     4
 11
2484.0
 21
166.5
 31
0.0
100
AcDbText
  0
LINE
  5
10B9
330
1F
100
AcDbEntity
  8
補助
100
AcDbLine
 10
2184.0
 20
69.0
 30
0.0
 11
2784.0
 21
69.0
 31
0.0
  0
TEXT
  5
10BA
330
1F
100
AcDbEntity
  8
補助
100
AcDbText
 10
2300.255774665348
 20
16.49999999999999
 30
0.0
 40
40.0
  1
中外交易株式会社
 72
     4
 11
2488.255774665347
 21
36.5
 31
0.0
100
AcDbText
  0
LINE
  5
10BB
330
1F
100
AcDbEntity
  8
補助
100
AcDbLine
 10
2184.0
 20
69.0
 30
0.0
 11
2184.0
 21
199.0
 31
0.0
  0
HATCH
  5
10BC
330
1F
100
AcDbEntity
  8
補助
100
AcDbHatch
 10
0.0
 20
0.0
 30
0.0
210
0.0
220
0.0
230
1.0
  2
SOLID
 70
     1
 71
     1
 91
        3
 92
        1
 93
        4
 72
     2
 10
2257.166198313996
 20
36.5
 40
20.0
 50
11.64772366707341
 51
342.6561058784909
 73
     1
 72
     1
 10
2276.256852341323
 20
30.53787547858514
 11
2252.166198313995
 21
30.53787547858519
 72
     1
 10
2252.166198313995
 20
30.53787547858519
 11
2252.166198313995
 21
40.53787547858519
 72
     1
 10
2252.166198313995
 20
40.53787547858519
 11
2276.75434681301
 21
40.53787547858519
 97
        4
330
10BD
330
10BF
330
10C0
330
10C1
 92
        1
 93
        4
 72
     2
 10
2188.255774665348
 20
36.5
 40
20.0
 50
11.64772366707341
 51
342.6561058784909
 73
     1
 72
     1
 10
2207.346428692676
 20
30.53787547858514
 11
2183.255774665347
 21
30.53787547858519
 72
     1
 10
2183.255774665347
 20
30.53787547858519
 11
2183.255774665347
 21
40.53787547858519
 72
     1
 10
2183.255774665347
 20
40.53787547858519
 11
2207.843923164362
 21
40.53787547858519
 97
        4
330
10BE
330
10C7
330
10C8
330
10C9
 92
        1
 93
        5
 72
     1
 10
2245.64189404294
 20
56.5
 11
2210.641894042939
 21
56.5
 72
     1
 10
2210.641894042939
 20
56.5
 11
2210.641894042939
 21
16.5
 72
     1
 10
2210.641894042939
 20
16.5
 11
2245.64189404294
 21
16.5
 72
     1
 10
2245.64189404294
 20
16.5
 11
2210.641894042939
 21
36.5
 72
     1
 10
2210.641894042939
 20
36.5
 11
2245.64189404294
 21
56.5
 97
        5
330
10C2
330
10C6
330
10C5
330
10C4
330
10C3
 75
     0
 76
     1
 98
        1
 10
-60.0
 20
0.0
  0
ARC
  5
10BD
102
{ACAD_REACTORS
330
10BC
102
}
330
1F
100
AcDbEntity
  8
補助
370
     5
100
AcDbCircle
 10
2257.166198313996
 20
36.5
 30
0.0
 40
20.0
100
AcDbArc
 50
11.64772366707341
 51
342.6561058784909
  0
ARC
  5
10BE
102
{ACAD_REACTORS
330
10BC
102
}
330
1F
100
AcDbEntity
  8
補助
370
     5
100
AcDbCircle
 10
2188.255774665348
 20
36.5
 30
0.0
 40
20.0
100
AcDbArc
 50
11.64772366707341
 51
342.6561058784909
  0
LINE
  5
10BF
102
{ACAD_REACTORS
330
10BC
102
}
330
1F
100
AcDbEntity
  8
補助
370
     5
100
AcDbLine
 10
2252.166198313995
 20
30.53787547858519
 30
0.0
 11
2276.256852341323
 21
30.53787547858514
 31
0.0
  0
LINE
  5
10C0
102
{ACAD_REACTORS
330
10BC
102
}
330
1F
100
AcDbEntity
  8
補助
370
     5
100
AcDbLine
 10
2252.166198313995
 20
40.53787547858519
 30
0.0
 11
2252.166198313995
 21
30.53787547858519
 31
0.0
  0
LINE
  5
10C1
102
{ACAD_REACTORS
330
10BC
102
}
330
1F
100
AcDbEntity
  8
補助
370
     5
100
AcDbLine
 10
2276.75434681301
 20
40.53787547858519
 30
0.0
 11
2252.166198313995
 21
40.53787547858519
 31
0.0
  0
LINE
  5
10C2
102
{ACAD_REACTORS
330
10BC
102
}
330
1F
100
AcDbEntity
  8
補助
370
     5
100
AcDbLine
 10
2245.64189404294
 20
56.5
 30
0.0
 11
2210.641894042939
 21
56.5
 31
0.0
  0
LINE
  5
10C3
102
{ACAD_REACTORS
330
10BC
102
}
330
1F
100
AcDbEntity
  8
補助
370
     5
100
AcDbLine
 10
2210.641894042939
 20
36.5
 30
0.0
 11
2245.64189404294
 21
56.5
 31
0.0
  0
LINE
  5
10C4
102
{ACAD_REACTORS
330
10BC
102
}
330
1F
100
AcDbEntity
  8
補助
370
     5
100
AcDbLine
 10
2245.64189404294
 20
16.5
 30
0.0
 11
2210.641894042939
 21
36.5
 31
0.0
  0
LINE
  5
10C5
102
{ACAD_REACTORS
330
10BC
102
}
330
1F
100
AcDbEntity
  8
補助
370
     5
100
AcDbLine
 10
2210.641894042939
 20
16.5
 30
0.0
 11
2245.64189404294
 21
16.5
 31
0.0
  0
LINE
  5
10C6
102
{ACAD_REACTORS
330
10BC
102
}
330
1F
100
AcDbEntity
  8
補助
370
     5
100
AcDbLine
 10
2210.641894042939
 20
56.5
 30
0.0
 11
2210.641894042939
 21
16.5
 31
0.0
  0
LINE
  5
10C7
102
{ACAD_REACTORS
330
10BC
102
}
330
1F
100
AcDbEntity
  8
補助
370
     5
100
AcDbLine
 10
2183.255774665347
 20
30.53787547858519
 30
0.0
 11
2207.346428692676
 21
30.53787547858514
 31
0.0
  0
LINE
  5
10C8
102
{ACAD_REACTORS
330
10BC
102
}
330
1F
100
AcDbEntity
  8
補助
370
     5
100
AcDbLine
 10
2183.255774665347
 20
40.53787547858519
 30
0.0
 11
2183.255774665347
 21
30.53787547858519
 31
0.0
  0
LINE
  5
10C9
102
{ACAD_REACTORS
330
10BC
102
}
330
1F
100
AcDbEntity
  8
補助
370
     5
100
AcDbLine
 10
2207.843923164362
 20
40.53787547858519
 30
0.0
 11
2183.255774665347
 21
40.53787547858519
 31
0.0
  0
TEXT
  5
10CA
330
1F
100
AcDbEntity
  8
0
100
AcDbText
 10
2430.916666666667
 20
84.0
 30
0.0
 40
35.0
  1
1：10
 72
     4
 11
2484.0
 21
101.5
 31
0.0
100
AcDbText
  0
LINE
  5
10CB
330
1F
100
AcDbEntity
  8
補助
100
AcDbLine
 10
2784.0
 20
4.0
 30
0.0
 11
2784.0
 21
69.0
 31
0.0
  0
LINE
  5
10CC
330
1F
100
AcDbEntity
  8
補助
100
AcDbLine
 10
2784.0
 20
134.0
 30
0.0
 11
2784.0
 21
199.0
 31
0.0
  0
LINE
  5
10CD
330
1F
100
AcDbEntity
  8
補助
100
AcDbLine
 10
2784.0
 20
69.0
 30
0.0
 11
2784.0
 21
134.0
 31
0.0
  0
ARC
  5
123E
330
1F
100
AcDbEntity
  8
実形
100
AcDbCircle
 10
1674.235600302483
 20
622.7450603691226
 30
0.0
 40
20.0
100
AcDbArc
 50
271.5357120154043
 51
0.0
  0
LINE
  5
1261
330
1F
100
AcDbEntity
  8
実形
100
AcDbLine
 10
894.2356003024833
 20
626.649680374682
 30
0.0
 11
894.2356003024833
 21
618.8578092883073
 31
0.0
  0
DIMENSION
  5
12B0
330
1F
100
AcDbEntity
  8
実形
100
AcDbDimension
  2
*D18
 10
781.5487768730982
 20
578.2740671155579
 30
0.0
 11
780.9009818228714
 21
559.272592971638
 31
0.0
 70
   160
  1
8
 71
     5
 42
25.0
  3
ISO-25
100
AcDbAlignedDimension
 13
883.0334505155361
 23
603.2740671155579
 33
0.0
 14
895.0617497275224
 24
578.2740671155579
 34
0.0
 50
90.0
100
AcDbRotatedDimension
1001
ACAD
1000
DSTYLE
1002
{
1070
   279
1070
     2
1070
   172
1070
     0
1070
   175
1070
     1
1070
   371
1070
    18
1070
   372
1070
    18
1002
}
  0
LINE
  5
12F0
330
1F
100
AcDbEntity
  8
実形
100
AcDbLine
 10
830.0617497275224
 20
578.2740671155579
 30
0.0
 11
781.5487768730982
 21
578.2740671155579
 31
0.0
  0
LINE
  5
12F1
330
1F
100
AcDbEntity
  8
実形
100
AcDbLine
 10
781.5487768730982
 20
578.2740671155579
 30
0.0
 11
781.5487768730982
 21
603.2740671155579
 31
0.0
  0
LINE
  5
12F2
330
1F
100
AcDbEntity
  8
実形
100
AcDbLine
 10
781.5487768730982
 20
603.2740671155579
 30
0.0
 11
829.2356003024833
 21
603.2740671155579
 31
0.0
  0
DIMENSION
  5
1319
330
1F
100
AcDbEntity
  8
実形
100
AcDbDimension
  2
*D19
 10
688.2111176125427
 20
578.274067115558
 30
0.0
 11
669.4611176125426
 21
680.7740671155581
 31
0.0
 70
    32
  1
203
 71
     5
 42
205.0
  3
ISO-25
100
AcDbAlignedDimension
 13
829.2356003024833
 23
783.2740671155579
 33
0.0
 14
805.8052633003104
 24
578.2740671155579
 34
0.0
 50
90.0
100
AcDbRotatedDimension
1001
ACAD
1000
DSTYLE
1002
{
1070
   371
1070
    18
1070
   372
1070
    18
1002
}
  0
LINE
  5
1361
330
1F
100
AcDbEntity
  8
実形
100
AcDbLine
 10
953.7356003024834
 20
588.274067115558
 30
0.0
 11
914.1711990805266
 21
588.4014675652884
 31
0.0
  0
ARC
  5
1362
330
1F
100
AcDbEntity
  8
実形
100
AcDbCircle
 10
914.2356003024833
 20
608.4013638770849
 30
0.0
 40
20.0
100
AcDbArc
 50
180.0
 51
269.8155037704845
  0
TEXT
  5
136C
330
1F
100
AcDbEntity
  8
寸法
100
AcDbText
 10
969.1079672698023
 20
672.3852028397291
 30
0.0
 40
25.0
  1
20R
100
AcDbText
  0
LEADER
  5
136D
330
1F
100
AcDbEntity
  8
0
100
AcDbLeader
  3
ISO-25
 40
25.0
 41
16.66666666666666
 76
     2
 10
922.834454041097
 20
603.9630031228634
 30
0.0
 10
992.7469804791543
 20
664.2171045349141
 30
0.0
213
0.0
223
-12.5
233
0.0
1001
ACAD
1000
DSTYLE
1002
{
1070
    41
1040
25.0
1070
   147
1040
6.25
1070
    77
1070
     0
1070
    73
1070
     1
1070
    74
1070
     1
1070
   279
1070
     1
1070
   342
1005
DA
1002
}
  0
ARC
  5
136E
330
1F
100
AcDbEntity
  8
実形
100
AcDbCircle
 10
1674.235600302483
 20
1258.274067115558
 30
0.0
 40
20.0
100
AcDbArc
 50
270.0
 51
0.0
  0
ARC
  5
136F
330
1F
100
AcDbEntity
  8
実形
100
AcDbCircle
 10
1674.235600302483
 20
1658.274067115558
 30
0.0
 40
20.0
100
AcDbArc
 50
0.0
 51
90.0
  0
ARC
  5
1370
330
1F
100
AcDbEntity
  8
実形
100
AcDbCircle
 10
914.2356003024833
 20
1258.274067115558
 30
0.0
 40
20.0
100
AcDbArc
 50
180.0
 51
270.0
  0
ARC
  5
1371
330
1F
100
AcDbEntity
  8
実形
100
AcDbCircle
 10
914.2356003024833
 20
1658.274067115558
 30
0.0
 40
20.0
100
AcDbArc
 50
90.00000000000003
 51
180.0
  0
TEXT
  5
138D
330
1F
100
AcDbEntity
  8
寸法
370
    18
100
AcDbText
 10
1558.695731027486
 20
1302.126610940597
 30
0.0
 40
25.0
  1
20R
100
AcDbText
  0
LEADER
  5
138E
330
1F
100
AcDbEntity
  8
0
100
AcDbLeader
  3
ISO-25
 40
25.0
 41
16.66666666666666
 76
     2
 10
1674.235600302483
 20
1258.274067115558
 30
0.0
 10
1621.386328578526
 20
1297.2167323477
 30
0.0
213
0.0
223
-12.5
233
0.0
1001
ACAD
1000
DSTYLE
1002
{
1070
    41
1040
25.0
1070
   147
1040
6.25
1070
    77
1070
     0
1070
    73
1070
     1
1070
    74
1070
     1
1070
   279
1070
     1
1070
   342
1005
DA
1002
}
  0
TEXT
  5
139A
330
1F
100
AcDbEntity
  8
寸法
370
    18
100
AcDbText
 10
965.9096561086043
 20
1574.464248160498
 30
0.0
 40
25.0
  1
20R
100
AcDbText
  0
LEADER
  5
139B
330
1F
100
AcDbEntity
  8
0
100
AcDbLeader
  3
ISO-25
 40
25.0
 41
16.66666666666666
 76
     2
 10
918.7735648193211
 20
1660.858446239861
 30
0.0
 10
962.5427889098627
 20
1607.002323929454
 30
0.0
213
0.0
223
-12.5
233
0.0
1001
ACAD
1000
DSTYLE
1002
{
1070
    41
1040
25.0
1070
   147
1040
6.25
1070
    77
1070
     0
1070
    73
1070
     1
1070
    74
1070
     1
1070
   279
1070
     1
1070
   342
1005
DA
1002
}
  0
TEXT
  5
139C
330
1F
100
AcDbEntity
  8
寸法
370
    18
100
AcDbText
 10
966.9703551347701
 20
1294.693214582146
 30
0.0
 40
25.0
  1
20R
100
AcDbText
  0
LEADER
  5
139D
330
1F
100
AcDbEntity
  8
0
100
AcDbLeader
  3
ISO-25
 40
25.0
 41
16.66666666666666
 76
     2
 10
915.5745566346904
 20
1254.816829460635
 30
0.0
 10
989.6943578039682
 20
1285.489877183204
 30
0.0
213
0.0
223
-12.5
233
0.0
1001
ACAD
1000
DSTYLE
1002
{
1070
    41
1040
25.0
1070
   147
1040
6.25
1070
    77
1070
     0
1070
    73
1070
     1
1070
    74
1070
     1
1070
   279
1070
     1
1070
   342
1005
DA
1002
}
  0
LINE
  5
143A
330
1F
100
AcDbEntity
  8
補助
 62
     0
100
AcDbLine
 10
2784.0
 20
1959.000000000001
 30
0.0
 11
2019.387286519283
 21
1959.000000000002
 31
0.0
  0
LINE
  5
143B
330
1F
100
AcDbEntity
  8
補助
 62
     0
100
AcDbLine
 10
2784.0
 20
1894.000000000001
 30
0.0
 11
2019.387286519283
 21
1894.000000000001
 31
0.0
  0
LINE
  5
143C
330
1F
100
AcDbEntity
  8
補助
 62
     0
100
AcDbLine
 10
2202.547653420927
 20
1894.000000000001
 30
0.0
 11
2202.547653420927
 21
2024.000000000002
 31
0.0
  0
LINE
  5
143D
330
1F
100
AcDbEntity
  8
補助
 62
     0
100
AcDbLine
 10
2019.387286519283
 20
1894.000000000001
 30
0.0
 11
2019.387286519283
 21
2024.000000000002
 31
0.0
  0
TEXT
  5
143E
330
1F
100
AcDbEntity
  8
補助
 62
     0
100
AcDbText
 10
2050.295698850121
 20
1976.328571428573
 30
0.0
 40
30.0
  1
部品名
  7
明朝
 72
     4
 11
2116.124270278692
 21
1991.500000000002
 31
0.0
100
AcDbText
  0
TEXT
  5
143F
330
1F
100
AcDbEntity
  8
補助
 62
     0
100
AcDbText
 10
2627.614285714286
 20
1976.07142857143
 30
0.0
 40
30.0
  1
厚さ
  7
明朝
 72
     4
 11
2671.5
 21
1991.500000000002
 31
0.0
100
AcDbText
  0
LINE
  5
1440
330
1F
100
AcDbEntity
  8
補助
 62
     0
100
AcDbLine
 10
2559.0
 20
1894.000000000001
 30
0.0
 11
2559.0
 21
2024.000000000002
 31
0.0
  0
TEXT
  5
1441
330
1F
100
AcDbEntity
  8
補助
 62
     0
100
AcDbText
 10
2338.490869919937
 20
1975.947979478156
 30
0.0
 40
30.0
  1
材質
  7
明朝
 72
     4
 11
2382.376584205651
 21
1991.119408049584
 31
0.0
100
AcDbText
  0
TEXT
  5
1442
330
1F
100
AcDbEntity
  8
実形
 62
     0
100
AcDbText
 10
2048.227810657788
 20
1910.557142857144
 30
0.0
 40
30.0
  1
ボウル
  7
明朝
 72
     4
 11
2114.056382086359
 21
1926.500000000001
 31
0.0
100
AcDbText
  0
TEXT
  5
1443
330
1F
100
AcDbEntity
  8
実形
 62
     0
100
AcDbText
 10
2594.700000000001
 20
1911.842857142858
 30
0.0
 40
30.0
  1
1.0ｍｍ
  7
明朝
 72
     4
 11
2671.500000000001
 21
1926.500000000001
 31
0.0
100
AcDbText
  0
TEXT
  5
1444
330
1F
100
AcDbEntity
  8
実形
 62
     0
100
AcDbText
 10
2261.016869107866
 20
1910.728571428572
 30
0.0
 40
30.0
  1
SUS304（HL）
  7
明朝
 72
     4
 11
2392.674011965008
 21
1926.500000000001
 31
0.0
100
AcDbText
  0
LINE
  5
1445
330
1F
100
AcDbEntity
  8
実形
100
AcDbLine
 10
109.0
 20
2024.0
 30
0.0
 11
109.0
 21
4.0
 31
0.0
  0
VIEWPORT
  5
2E
102
{ACAD_XDICTIONARY
360
147C
102
}
330
1B
100
AcDbEntity
 67
     1
  8
0
100
AcDbViewport
 10
144.7270812988281
 20
101.2295806407928
 30
0.0
 40
411.6736216682419
 41
222.1517806396485
 68
     1
 69
     1
 12
144.7270812988281
 22
101.2295806407928
 13
0.0
 23
0.0
 14
10.0
 24
10.0
 15
10.0
 25
10.0
 16
0.0
 26
0.0
 36
1.0
 17
0.0
 27
0.0
 37
0.0
 42
50.0
 43
0.0
 44
0.0
 45
222.1517806396485
 50
0.0
 51
0.0
 72
   100
 90
    32800
  1

281
     0
 71
     1
 74
     0
110
0.0
120
0.0
130
0.0
111
1.0
121
0.0
131
0.0
112
0.0
122
1.0
132
0.0
 79
     0
146
0.0
  0
VIEWPORT
  5
30
102
{ACAD_XDICTIONARY
360
147E
102
}
330
1B
100
AcDbEntity
 67
     1
  8
0
100
AcDbViewport
 10
139.2237563133239
 20
101.2295821905136
 30
0.0
 40
222.7580101013184
 41
161.9673315048218
 68
     2
 69
     2
 12
210.0
 22
148.5
 13
0.0
 23
0.0
 14
10.0
 24
10.0
 15
10.0
 25
10.0
 16
0.0
 26
0.0
 36
1.0
 17
0.0
 27
0.0
 37
0.0
 42
50.0
 43
0.0
 44
0.0
 45
309.0686705647124
 50
0.0
 51
0.0
 72
   100
 90
    32864
  1

281
     0
 71
     1
 74
     0
110
0.0
120
0.0
130
0.0
111
1.0
121
0.0
131
0.0
112
0.0
122
1.0
132
0.0
 79
     0
146
0.0
  0
ENDSEC
  0
SECTION
  2
OBJECTS
  0
DICTIONARY
  5
C
330
0
100
AcDbDictionary
281
     1
  3
ACAD_COLOR
350
1221
  3
ACAD_GROUP
350
D
  3
ACAD_LAYOUT
350
1A
  3
ACAD_MATERIAL
350
1220
  3
ACAD_MLINESTYLE
350
17
  3
ACAD_PLOTSETTINGS
350
19
  3
ACAD_PLOTSTYLENAME
350
E
  3
ACAD_TABLESTYLE
350
1222
  3
AcadDim
350
124
  3
ACDBHEADERROUNDTRIPXREC
350
1475
  3
AcDbVariableDictionary
350
1055
  0
DICTIONARY
  5
1247
330
2
100
AcDbDictionary
280
     1
281
     1
  3
ACAD_LAYERFILTERS
360
1249
  3
ACAD_LAYERSTATES
360
13C3
  3
ACLYDICTIONARY
360
1248
  0
DICTIONARY
  5
123C
330
1F
100
AcDbDictionary
280
     1
281
     1
  3
ACAD_SORTENTS
360
123D
  0
DICTIONARY
  5
147C
330
2E
100
AcDbDictionary
280
     1
281
     1
  3
ACAD_XREC_ROUNDTRIP
360
147D
  0
DICTIONARY
  5
147E
330
30
100
AcDbDictionary
280
     1
281
     1
  3
ACAD_XREC_ROUNDTRIP
360
147F
  0
DICTIONARY
  5
1221
102
{ACAD_REACTORS
330
C
102
}
330
C
100
AcDbDictionary
281
     1
  0
DICTIONARY
  5
D
102
{ACAD_REACTORS
330
C
102
}
330
C
100
AcDbDictionary
281
     1
  0
DICTIONARY
  5
1A
102
{ACAD_REACTORS
330
C
102
}
330
C
100
AcDbDictionary
281
     1
  3
Model
350
22
  3
ﾚｲｱｳﾄ1
350
1E
  3
ﾚｲｱｳﾄ2
350
26
  0
DICTIONARY
  5
1220
102
{ACAD_REACTORS
330
C
102
}
330
C
100
AcDbDictionary
281
     1
  0
DICTIONARY
  5
17
102
{ACAD_REACTORS
330
C
102
}
330
C
100
AcDbDictionary
281
     1
  3
Standard
350
18
  0
DICTIONARY
  5
19
102
{ACAD_REACTORS
330
C
102
}
330
C
100
AcDbDictionary
281
     1
  0
ACDBDICTIONARYWDFLT
  5
E
102
{ACAD_REACTORS
330
C
102
}
330
C
100
AcDbDictionary
281
     1
  3
Normal
350
F
100
AcDbDictionaryWithDefault
340
F
  0
DICTIONARY
  5
1222
102
{ACAD_REACTORS
330
C
102
}
330
C
100
AcDbDictionary
281
     1
  3
Standard
350
1223
  0
XRECORD
  5
124
102
{ACAD_REACTORS
330
C
102
}
330
C
100
AcDbXrecord
280
     1
 90
   990106
  3

 60
     0
 61
     0
 62
     1
 63
     3
 64
     0
 65
     0
 66
     0
 67
     3
 68
     1
 69
     0
 70
     0
 71
     0
 72
     0
 40
30.0
170
     0
  0
DICTIONARY
  5
1475
102
{ACAD_REACTORS
330
C
102
}
330
C
100
AcDbDictionary
281
     1
  0
DICTIONARY
  5
1055
102
{ACAD_REACTORS
330
C
102
}
330
C
100
AcDbDictionary
281
     1
  3
CTABLESTYLE
350
1229
  3
DIMASSOC
350
1472
  3
PROJECTNAME
350
1473
  3
SORTENTS
350
1056
  0
DICTIONARY
  5
1249
102
{ACAD_REACTORS
330
1247
102
}
330
1247
100
AcDbDictionary
281
     1
  0
DICTIONARY
  5
13C3
102
{ACAD_REACTORS
330
1247
102
}
330
1247
100
AcDbDictionary
281
     1
  0
DICTIONARY
  5
1248
102
{ACAD_REACTORS
330
1247
102
}
330
1247
100
AcDbDictionary
281
     1
1001
ACAD
1000
<All
  0
SORTENTSTABLE
  5
123D
102
{ACAD_REACTORS
330
123C
102
}
330
123C
100
AcDbSortentsTable
330
1F
331
10B8
  5
10BF
331
10BA
  5
10C1
331
10BC
  5
10C3
331
10BE
  5
10C5
331
10C0
  5
10C7
331
F28
  5
F28
331
10C2
  5
10C9
331
F2A
  5
F2A
331
10C4
  5
10CB
331
123E
  5
10A9
331
10C6
  5
10CD
331
105C
  5
10AA
331
FFC
  5
FFC
331
FFE
  5
1005
331
9C
  5
9C
331
7D2
  5
7D2
331
A0
  5
A0
331
458
  5
458
331
4F8
  5
4F8
331
4BE
  5
4BE
331
43C
  5
43C
331
4CC
  5
4CC
331
494
  5
494
331
3DC
  5
3DC
331
1371
  5
100B
331
143B
  5
143C
331
143D
  5
143E
331
138D
  5
138E
331
143F
  5
1440
331
1441
  5
1442
331
12F1
  5
136D
331
2FA
  5
2FA
331
139B
  5
139C
331
1443
  5
1444
331
139D
  5
143A
331
1445
  5
1319
331
3F6
  5
3F6
331
368
  5
368
331
1361
  5
1370
331
3CE
  5
3CE
331
306
  5
306
331
308
  5
308
331
1319
  5
136F
331
10C9
  5
123E
331
10CB
  5
12B0
331
136D
  5
138D
331
10CD
  5
12F1
331
136F
  5
FFD
331
33A
  5
33A
331
33C
  5
33C
331
2E6
  5
2E6
331
1261
  5
1361
331
10B3
  5
10BA
331
1005
  5
105B
331
2EE
  5
2EE
331
10B5
  5
10BC
331
10B7
  5
10BE
331
1007
  5
105D
331
10B9
  5
10C0
331
1009
  5
105E
331
10BB
  5
10C2
331
100B
  5
105F
331
10BD
  5
10C4
331
F27
  5
F27
331
10BF
  5
10C6
331
10C1
  5
10C8
331
10C3
  5
10CA
331
10C5
  5
10CC
331
10C7
  5
11F4
331
105B
  5
10A8
331
105D
  5
10AB
331
FFD
  5
FFF
331
7CF
  5
7CF
331
105F
  5
10AC
331
FFF
  5
1009
331
4A3
  5
4A3
331
8C9
  5
8C9
331
A5
  5
A5
331
505
  5
505
331
495
  5
495
331
43D
  5
43D
331
1370
  5
1007
331
44B
  5
44B
331
3E9
  5
3E9
331
143A
  5
143B
331
35B
  5
35B
331
143C
  5
143D
331
395
  5
395
331
143E
  5
143F
331
138E
  5
139A
331
12F0
  5
136C
331
1440
  5
1441
331
2F9
  5
2F9
331
12F2
  5
136E
331
1442
  5
1443
331
139A
  5
139B
331
2FB
  5
2FB
331
1444
  5
1445
331
139C
  5
139D
331
3AF
  5
3AF
331
1362
  5
10AD
331
307
  5
307
331
10C8
  5
123A
331
10CA
  5
1261
331
136C
  5
1371
331
10CC
  5
12F0
331
136E
  5
FFE
331
12B0
  5
1362
331
33B
  5
33B
331
2EB
  5
2EB
331
10B2
  5
10B9
331
10B4
  5
10BB
331
10B6
  5
10BD
  0
XRECORD
  5
147D
102
{ACAD_REACTORS
330
147C
102
}
330
147C
100
AcDbXrecord
280
     1
102
SHADEPLOT
 70
     0
  0
XRECORD
  5
147F
102
{ACAD_REACTORS
330
147E
102
}
330
147E
100
AcDbXrecord
280
     1
102
SHADEPLOT
 70
     0
  0
LAYOUT
  5
22
102
{ACAD_XDICTIONARY
360
1478
102
}
102
{ACAD_REACTORS
330
1A
102
}
330
1A
100
AcDbPlotSettings
  1

  2
EPSON PM-800C
  4
A4
  6

 40
3.757083177566528
 41
14.7637300491333
 42
3.757080078125
 43
3.757080078125
 44
209.9733276367187
 45
296.9683227539062
 46
0.0
 47
0.0
 48
0.0
 49
0.0
140
0.0
141
0.0
142
1.0
143
10.0
 70
 11952
 72
     1
 73
     1
 74
     2
  7

 75
    20
147
0.1
148
0.0
149
0.0
100
AcDbLayout
  1
Model
 70
     1
 71
     0
 10
0.0
 20
0.0
 11
12.0
 21
9.0
 12
0.0
 22
0.0
 32
0.0
 14
0.0
 24
0.0
 34
0.0
 15
0.0
 25
0.0
 35
0.0
146
0.0
 13
0.0
 23
0.0
 33
0.0
 16
1.0
 26
0.0
 36
0.0
 17
0.0
 27
1.0
 37
0.0
 76
     0
330
1F
  0
LAYOUT
  5
1E
102
{ACAD_XDICTIONARY
360
1476
102
}
102
{ACAD_REACTORS
330
1A
102
}
330
1A
100
AcDbPlotSettings
  1

  2
EPSON PM-800C
  4
A4
  6

 40
3.757083177566528
 41
14.7637300491333
 42
3.757080078125
 43
3.757080078125
 44
209.9733276367187
 45
296.9683227539062
 46
0.0
 47
0.0
 48
0.0
 49
0.0
140
0.0
141
0.0
142
1.0
143
1.0
 70
   688
 72
     1
 73
     1
 74
     5
  7

 75
    16
147
1.0
148
0.0
149
0.0
100
AcDbLayout
  1
ﾚｲｱｳﾄ1
 70
     1
 71
     1
 10
-3.757080078125
 20
-3.757083177566528
 11
293.2112426757813
 21
206.2162444591522
 12
0.0
 22
0.0
 32
0.0
 14
27.8447512626648
 24
20.24591643810271
 34
0.0
 15
250.6027613639831
 25
182.2132479429245
 35
0.0
146
0.0
 13
0.0
 23
0.0
 33
0.0
 16
1.0
 26
0.0
 36
0.0
 17
0.0
 27
1.0
 37
0.0
 76
     0
330
1B
331
2E
  0
LAYOUT
  5
26
102
{ACAD_XDICTIONARY
360
147A
102
}
102
{ACAD_REACTORS
330
1A
102
}
330
1A
100
AcDbPlotSettings
  1

  2
EPSON PM-800C
  4

  6

 40
0.0
 41
0.0
 42
0.0
 43
0.0
 44
0.0
 45
0.0
 46
0.0
 47
0.0
 48
0.0
 49
0.0
140
0.0
141
0.0
142
1.0
143
1.0
 70
   688
 72
     0
 73
     0
 74
     5
  7

 75
    16
147
1.0
148
0.0
149
0.0
100
AcDbLayout
  1
ﾚｲｱｳﾄ2
 70
     1
 71
     2
 10
0.0
 20
0.0
 11
12.0
 21
9.0
 12
0.0
 22
0.0
 32
0.0
 14
0.0
 24
0.0
 34
0.0
 15
0.0
 25
0.0
 35
0.0
146
0.0
 13
0.0
 23
0.0
 33
0.0
 16
1.0
 26
0.0
 36
0.0
 17
0.0
 27
1.0
 37
0.0
 76
     0
330
23
  0
MLINESTYLE
  5
18
102
{ACAD_REACTORS
330
17
102
}
330
17
100
AcDbMlineStyle
  2
STANDARD
 70
     0
  3

 62
   256
 51
90.0
 52
90.0
 71
     2
 49
0.5
 62
   256
  6
BYLAYER
 49
-0.5
 62
   256
  6
BYLAYER
  0
ACDBPLACEHOLDER
  5
F
102
{ACAD_REACTORS
330
E
102
}
330
E
  0
TABLESTYLE
  5
1223
102
{ACAD_REACTORS
330
1222
102
}
330
1222
100
AcDbTableStyle
  3
Standard
 70
     0
 71
     0
 40
1.5
 41
1.5
280
     0
281
     0
  7
Standard
140
4.5
170
     2
 62
     0
 63
     7
283
     0
274
    -2
284
     1
 64
     0
275
    -2
285
     1
 65
     0
276
    -2
286
     1
 66
     0
277
    -2
287
     1
 67
     0
278
    -2
288
     1
 68
     0
279
    -2
289
     1
 69
     0
  7
Standard
140
6.0
170
     5
 62
     0
 63
     7
283
     0
274
    -2
284
     1
 64
     0
275
    -2
285
     1
 65
     0
276
    -2
286
     1
 66
     0
277
    -2
287
     1
 67
     0
278
    -2
288
     1
 68
     0
279
    -2
289
     1
 69
     0
  7
Standard
140
4.5
170
     5
 62
     0
 63
     7
283
     0
274
    -2
284
     1
 64
     0
275
    -2
285
     1
 65
     0
276
    -2
286
     1
 66
     0
277
    -2
287
     1
 67
     0
278
    -2
288
     1
 68
     0
279
    -2
289
     1
 69
     0
  0
DICTIONARYVAR
  5
1229
102
{ACAD_REACTORS
330
1055
102
}
330
1055
100
DictionaryVariables
280
     0
  1
STANDARD
  0
DICTIONARYVAR
  5
1472
102
{ACAD_REACTORS
330
1055
102
}
330
1055
100
DictionaryVariables
280
     0
  1
1
  0
DICTIONARYVAR
  5
1473
102
{ACAD_REACTORS
330
1055
102
}
330
1055
100
DictionaryVariables
280
     0
  1

  0
DICTIONARYVAR
  5
1056
102
{ACAD_REACTORS
330
1055
102
}
330
1055
100
DictionaryVariables
280
     0
  1
96
  0
DICTIONARY
  5
1478
330
22
100
AcDbDictionary
280
     1
281
     1
  3
ACAD_XREC_ROUNDTRIP
360
1479
  0
DICTIONARY
  5
1476
330
1E
100
AcDbDictionary
280
     1
281
     1
  3
ACAD_XREC_ROUNDTRIP
360
1477
  0
DICTIONARY
  5
147A
330
26
100
AcDbDictionary
280
     1
281
     1
  3
ACAD_XREC_ROUNDTRIP
360
147B
  0
XRECORD
  5
1479
102
{ACAD_REACTORS
330
1478
102
}
330
1478
100
AcDbXrecord
280
     1
102
SHADEPLOT
 70
     0
102
SHADEPLOTRESLEVEL
 70
     2
102
SHADEPLOTCUSTOMDPI
 70
   300
  0
XRECORD
  5
1477
102
{ACAD_REACTORS
330
1476
102
}
330
1476
100
AcDbXrecord
280
     1
102
SHADEPLOT
 70
     0
102
SHADEPLOTRESLEVEL
 70
     2
102
SHADEPLOTCUSTOMDPI
 70
   300
  0
XRECORD
  5
147B
102
{ACAD_REACTORS
330
147A
102
}
330
147A
100
AcDbXrecord
280
     1
102
SHADEPLOT
 70
     0
102
SHADEPLOTRESLEVEL
 70
     2
102
SHADEPLOTCUSTOMDPI
 70
   300
  0
ENDSEC
  0
EOF
