  0
SECTION
  2
HEADER
  9
$ACADVER
  1
AC1015
  9
$ACADMAINTVER
 70
    20
  9
$DWGCODEPAGE
  3
ANSI_932
  9
$INSBASE
 10
0.0
 20
0.0
 30
0.0
  9
$EXTMIN
 10
109.0
 20
4.0
 30
0.0
  9
$EXTMAX
 10
2784.0
 20
2024.000000000002
 30
0.0
  9
$LIMMIN
 10
0.0
 20
0.0
  9
$LIMMAX
 10
29700.0
 20
21000.0
  9
$ORTHOMODE
 70
     0
  9
$REGENMODE
 70
     1
  9
$FILLMODE
 70
     1
  9
$QTEXTMODE
 70
     0
  9
$MIRRTEXT
 70
     1
  9
$LTSCALE
 40
4.0
  9
$ATTMODE
 70
     1
  9
$TEXTSIZE
 40
25.0
  9
$TRACEWID
 40
1.0
  9
$TEXTSTYLE
  7
Standard
  9
$CLAYER
  8
実形
  9
$CELTYPE
  6
ByLayer
  9
$CECOLOR
 62
   256
  9
$CELTSCALE
 40
1.0
  9
$DISPSILH
 70
     0
  9
$DIMSCALE
 40
1.0
  9
$DIMASZ
 40
35.0
  9
$DIMEXO
 40
65.0
  9
$DIMDLI
 40
3.75
  9
$DIMRND
 40
0.0
  9
$DIMDLE
 40
0.0
  9
$DIMEXE
 40
0.0
  9
$DIMTP
 40
0.0
  9
$DIMTM
 40
0.0
  9
$DIMTXT
 40
25.0
  9
$DIMCEN
 40
2.5
  9
$DIMTSZ
 40
0.0
  9
$DIMTOL
 70
     0
  9
$DIMLIM
 70
     0
  9
$DIMTIH
 70
     0
  9
$DIMTOH
 70
     0
  9
$DIMSE1
 70
     0
  9
$DIMSE2
 70
     0
  9
$DIMTAD
 70
     1
  9
$DIMZIN
 70
     8
  9
$DIMBLK
  1
DotSmall
  9
$DIMASO
 70
     1
  9
$DIMSHO
 70
     1
  9
$DIMPOST
  1

  9
$DIMAPOST
  1

  9
$DIMALT
 70
     0
  9
$DIMALTD
 70
     3
  9
$DIMALTF
 40
0.03937007874016
  9
$DIMLFAC
 40
1.0
  9
$DIMTOFL
 70
     1
  9
$DIMTVP
 40
0.0
  9
$DIMTIX
 70
     0
  9
$DIMSOXD
 70
     0
  9
$DIMSAH
 70
     0
  9
$DIMBLK1
  1

  9
$DIMBLK2
  1

  9
$DIMSTYLE
  2
ISO-25
  9
$DIMCLRD
 70
     0
  9
$DIMCLRE
 70
     0
  9
$DIMCLRT
 70
     0
  9
$DIMTFAC
 40
1.0
  9
$DIMGAP
 40
6.25
  9
$DIMJUST
 70
     0
  9
$DIMSD1
 70
     0
  9
$DIMSD2
 70
     0
  9
$DIMTOLJ
 70
     0
  9
$DIMTZIN
 70
     8
  9
$DIMALTZ
 70
     0
  9
$DIMALTTZ
 70
     0
  9
$DIMUPT
 70
     0
  9
$DIMDEC
 70
     2
  9
$DIMTDEC
 70
     2
  9
$DIMALTU
 70
     2
  9
$DIMALTTD
 70
     3
  9
$DIMTXSTY
  7
Standard
  9
$DIMAUNIT
 70
     0
  9
$DIMADEC
 70
     0
  9
$DIMALTRND
 40
0.0
  9
$DIMAZIN
 70
     0
  9
$DIMDSEP
 70
    46
  9
$DIMATFIT
 70
     3
  9
$DIMFRAC
 70
     0
  9
$DIMLDRBLK
  1
Open30
  9
$DIMLUNIT
 70
     2
  9
$DIMLWD
 70
    18
  9
$DIMLWE
 70
    18
  9
$DIMTMOVE
 70
     0
  9
$LUNITS
 70
     2
  9
$LUPREC
 70
     2
  9
$SKETCHINC
 40
1.0
  9
$FILLETRAD
 40
20.0
  9
$AUNITS
 70
     0
  9
$AUPREC
 70
     0
  9
$MENU
  1
.
  9
$ELEVATION
 40
0.0
  9
$PELEVATION
 40
0.0
  9
$THICKNESS
 40
0.0
  9
$LIMCHECK
 70
     1
  9
$CHAMFERA
 40
10.0
  9
$CHAMFERB
 40
10.0
  9
$CHAMFERC
 40
20.0
  9
$CHAMFERD
 40
0.0
  9
$SKPOLY
 70
     0
  9
$TDCREATE
 40
2451673.575802199
  9
$TDUCREATE
 40
2451673.200802199
  9
$TDUPDATE
 40
2458809.721447570
  9
$TDUUPDATE
 40
2458809.346447569
  9
$TDINDWG
 40
0.7845311343
  9
$TDUSRTIMER
 40
0.7845304398
  9
$USRTIMER
 70
     1
  9
$ANGBASE
 50
0.0
  9
$ANGDIR
 70
     0
  9
$PDMODE
 70
     3
  9
$PDSIZE
 40
0.0
  9
$PLINEWID
 40
0.0
  9
$SPLFRAME
 70
     0
  9
$SPLINETYPE
 70
     6
  9
$SPLINESEGS
 70
     8
  9
$HANDSEED
  5
1879
  9
$SURFTAB1
 70
     6
  9
$SURFTAB2
 70
     6
  9
$SURFTYPE
 70
     6
  9
$SURFU
 70
     6
  9
$SURFV
 70
     6
  9
$UCSBASE
  2

  9
$UCSNAME
  2

  9
$UCSORG
 10
0.0
 20
0.0
 30
0.0
  9
$UCSXDIR
 10
1.0
 20
0.0
 30
0.0
  9
$UCSYDIR
 10
0.0
 20
1.0
 30
0.0
  9
$UCSORTHOREF
  2

  9
$UCSORTHOVIEW
 70
     0
  9
$UCSORGTOP
 10
0.0
 20
0.0
 30
0.0
  9
$UCSORGBOTTOM
 10
0.0
 20
0.0
 30
0.0
  9
$UCSORGLEFT
 10
0.0
 20
0.0
 30
0.0
  9
$UCSORGRIGHT
 10
0.0
 20
0.0
 30
0.0
  9
$UCSORGFRONT
 10
0.0
 20
0.0
 30
0.0
  9
$UCSORGBACK
 10
0.0
 20
0.0
 30
0.0
  9
$PUCSBASE
  2

  9
$PUCSNAME
  2

  9
$PUCSORG
 10
0.0
 20
0.0
 30
0.0
  9
$PUCSXDIR
 10
1.0
 20
0.0
 30
0.0
  9
$PUCSYDIR
 10
0.0
 20
1.0
 30
0.0
  9
$PUCSORTHOREF
  2

  9
$PUCSORTHOVIEW
 70
     0
  9
$PUCSORGTOP
 10
0.0
 20
0.0
 30
0.0
  9
$PUCSORGBOTTOM
 10
0.0
 20
0.0
 30
0.0
  9
$PUCSORGLEFT
 10
0.0
 20
0.0
 30
0.0
  9
$PUCSORGRIGHT
 10
0.0
 20
0.0
 30
0.0
  9
$PUCSORGFRONT
 10
0.0
 20
0.0
 30
0.0
  9
$PUCSORGBACK
 10
0.0
 20
0.0
 30
0.0
  9
$USERI1
 70
     0
  9
$USERI2
 70
     0
  9
$USERI3
 70
     0
  9
$USERI4
 70
     0
  9
$USERI5
 70
     0
  9
$USERR1
 40
0.0
  9
$USERR2
 40
0.0
  9
$USERR3
 40
0.0
  9
$USERR4
 40
0.0
  9
$USERR5
 40
0.0
  9
$WORLDVIEW
 70
     1
  9
$SHADEDGE
 70
     3
  9
$SHADEDIF
 70
    70
  9
$TILEMODE
 70
     1
  9
$MAXACTVP
 70
    64
  9
$PINSBASE
 10
0.0
 20
0.0
 30
0.0
  9
$PLIMCHECK
 70
     0
  9
$PEXTMIN
 10
27.8447512626648
 20
20.24591643810271
 30
0.0
  9
$PEXTMAX
 10
250.6027613639831
 20
182.2132479429245
 30
0.0
  9
$PLIMMIN
 10
-3.757080078125
 20
-3.757083177566528
  9
$PLIMMAX
 10
293.2112426757813
 20
206.2162444591522
  9
$UNITMODE
 70
     0
  9
$VISRETAIN
 70
     1
  9
$PLINEGEN
 70
     0
  9
$PSLTSCALE
 70
     1
  9
$TREEDEPTH
 70
  3020
  9
$CMLSTYLE
  2
Standard
  9
$CMLJUST
 70
     0
  9
$CMLSCALE
 40
20.0
  9
$PROXYGRAPHICS
 70
     1
  9
$MEASUREMENT
 70
     1
  9
$CELWEIGHT
370
    -1
  9
$ENDCAPS
280
     0
  9
$JOINSTYLE
280
     0
  9
$LWDISPLAY
290
     0
  9
$INSUNITS
 70
     4
  9
$HYPERLINKBASE
  1

  9
$STYLESHEET
  1

  9
$XEDIT
290
     1
  9
$CEPSNTYPE
380
     0
  9
$PSTYLEMODE
290
     1
  9
$FINGERPRINTGUID
  2
{C8EA1F16-24C9-11D4-9416-CE0A3B32152F}
  9
$VERSIONGUID
  2
{17D9985F-FF55-46A7-862F-558D883926DC}
  9
$EXTNAMES
290
     1
  9
$PSVPSCALE
 40
0.0
  9
$OLESTARTUP
290
     0
  0
ENDSEC
  0
SECTION
  2
CLASSES
  0
CLASS
  1
ACDBDICTIONARYWDFLT
  2
AcDbDictionaryWithDefault
  3
ObjectDBX Classes
 90
        0
280
     0
281
     0
  0
CLASS
  1
ACDBPLACEHOLDER
  2
AcDbPlaceHolder
  3
ObjectDBX Classes
 90
        0
280
     0
281
     0
  0
CLASS
  1
LAYOUT
  2
AcDbLayout
  3
ObjectDBX Classes
 90
        0
280
     0
281
     0
  0
CLASS
  1
DICTIONARYVAR
  2
AcDbDictionaryVar
  3
ObjectDBX Classes
 90
        0
280
     0
281
     0
  0
CLASS
  1
TABLESTYLE
  2
AcDbTableStyle
  3
ObjectDBX Classes
 90
     2047
280
     0
281
     0
  0
CLASS
  1
SORTENTSTABLE
  2
AcDbSortentsTable
  3
ObjectDBX Classes
 90
        0
280
     0
281
     0
  0
ENDSEC
  0
SECTION
  2
TABLES
  0
TABLE
  2
VPORT
  5
8
330
0
100
AcDbSymbolTable
 70
     2
  0
VPORT
  5
186D
330
8
100
AcDbSymbolTableRecord
100
AcDbViewportTableRecord
  2
*Active
 70
     0
 10
0.0
 20
0.0
 11
1.0
 21
1.0
 12
1565.309527449027
 22
1072.307906592452
 13
0.0
 23
0.0
 14
10.0
 24
10.0
 15
10.0
 25
10.0
 16
0.0
 26
0.0
 36
1.0
 17
0.0
 27
0.0
 37
0.0
 40
2654.685704056086
 41
1.29038112522686
 42
50.0
 43
0.0
 44
0.0
 50
0.0
 51
0.0
 71
     0
 72
   100
 73
     1
 74
     3
 75
     0
 76
     0
 77
     0
 78
     0
281
     0
 65
     1
110
0.0
120
0.0
130
0.0
111
1.0
121
0.0
131
0.0
112
0.0
122
1.0
132
0.0
 79
     0
146
0.0
  0
ENDTAB
  0
TABLE
  2
LTYPE
  5
5
330
0
100
AcDbSymbolTable
 70
    46
  0
LTYPE
  5
14
330
5
100
AcDbSymbolTableRecord
100
AcDbLinetypeTableRecord
  2
ByBlock
 70
     0
  3

 72
    65
 73
     0
 40
0.0
  0
LTYPE
  5
15
330
5
100
AcDbSymbolTableRecord
100
AcDbLinetypeTableRecord
  2
ByLayer
 70
     0
  3

 72
    65
 73
     0
 40
0.0
  0
LTYPE
  5
16
330
5
100
AcDbSymbolTableRecord
100
AcDbLinetypeTableRecord
  2
Continuous
 70
     0
  3
Solid line
 72
    65
 73
     0
 40
0.0
  0
LTYPE
  5
34
330
5
100
AcDbSymbolTableRecord
100
AcDbLinetypeTableRecord
  2
ACAD_ISO02W100
 70
     0
  3
ISO dash __ __ __ __ __ __ __ __ __ __ __ __ __
 72
    65
 73
     2
 40
15.0
 49
12.0
 74
     0
 49
-3.0
 74
     0
  0
LTYPE
  5
35
330
5
100
AcDbSymbolTableRecord
100
AcDbLinetypeTableRecord
  2
ACAD_ISO03W100
 70
     0
  3
ISO dash space __    __    __    __    __    __
 72
    65
 73
     2
 40
30.0
 49
12.0
 74
     0
 49
-18.0
 74
     0
  0
LTYPE
  5
36
330
5
100
AcDbSymbolTableRecord
100
AcDbLinetypeTableRecord
  2
ACAD_ISO04W100
 70
     0
  3
ISO long-dash dot ____ . ____ . ____ . ____ . _
 72
    65
 73
     4
 40
30.0
 49
24.0
 74
     0
 49
-3.0
 74
     0
 49
0.0
 74
     0
 49
-3.0
 74
     0
  0
LTYPE
  5
37
330
5
100
AcDbSymbolTableRecord
100
AcDbLinetypeTableRecord
  2
ACAD_ISO05W100
 70
     0
  3
ISO long-dash double-dot ____ .. ____ .. ____ .
 72
    65
 73
     6
 40
34.0
 49
24.0
 74
     0
 49
-3.0
 74
     0
 49
0.5
 74
     0
 49
-3.0
 74
     0
 49
0.5
 74
     0
 49
-3.0
 74
     0
  0
LTYPE
  5
38
330
5
100
AcDbSymbolTableRecord
100
AcDbLinetypeTableRecord
  2
ACAD_ISO06W100
 70
     0
  3
ISO long-dash triple-dot ____ ... ____ ... ____
 72
    65
 73
     8
 40
37.5
 49
24.0
 74
     0
 49
-3.0
 74
     0
 49
0.5
 74
     0
 49
-3.0
 74
     0
 49
0.5
 74
     0
 49
-3.0
 74
     0
 49
0.5
 74
     0
 49
-3.0
 74
     0
  0
LTYPE
  5
39
330
5
100
AcDbSymbolTableRecord
100
AcDbLinetypeTableRecord
  2
ACAD_ISO07W100
 70
     0
  3
ISO dot . . . . . . . . . . . . . . . . . . . .
 72
    65
 73
     2
 40
3.0
 49
0.0
 74
     0
 49
-3.0
 74
     0
  0
LTYPE
  5
3A
330
5
100
AcDbSymbolTableRecord
100
AcDbLinetypeTableRecord
  2
ACAD_ISO08W100
 70
     0
  3
ISO long-dash short-dash ____ __ ____ __ ____ _
 72
    65
 73
     4
 40
36.0
 49
24.0
 74
     0
 49
-3.0
 74
     0
 49
6.0
 74
     0
 49
-3.0
 74
     0
  0
LTYPE
  5
3B
330
5
100
AcDbSymbolTableRecord
100
AcDbLinetypeTableRecord
  2
ACAD_ISO09W100
 70
     0
  3
ISO long-dash double-short-dash ____ __ __ ____
 72
    65
 73
     6
 40
45.0
 49
24.0
 74
     0
 49
-3.0
 74
     0
 49
6.0
 74
     0
 49
-3.0
 74
     0
 49
6.0
 74
     0
 49
-3.0
 74
     0
  0
LTYPE
  5
3C
330
5
100
AcDbSymbolTableRecord
100
AcDbLinetypeTableRecord
  2
ACAD_ISO10W100
 70
     0
  3
ISO dash dot __ . __ . __ . __ . __ . __ . __ .
 72
    65
 73
     4
 40
18.0
 49
12.0
 74
     0
 49
-3.0
 74
     0
 49
0.0
 74
     0
 49
-3.0
 74
     0
  0
LTYPE
  5
3D
330
5
100
AcDbSymbolTableRecord
100
AcDbLinetypeTableRecord
  2
ACAD_ISO11W100
 70
     0
  3
ISO double-dash dot __ __ . __ __ . __ __ . __ 
 72
    65
 73
     6
 40
33.0
 49
12.0
 74
     0
 49
-3.0
 74
     0
 49
12.0
 74
     0
 49
-3.0
 74
     0
 49
0.0
 74
     0
 49
-3.0
 74
     0
  0
LTYPE
  5
3E
330
5
100
AcDbSymbolTableRecord
100
AcDbLinetypeTableRecord
  2
ACAD_ISO12W100
 70
     0
  3
ISO dash double-dot __ . . __ . . __ . . __ . .
 72
    65
 73
     6
 40
21.0
 49
12.0
 74
     0
 49
-3.0
 74
     0
 49
0.0
 74
     0
 49
-3.0
 74
     0
 49
0.0
 74
     0
 49
-3.0
 74
     0
  0
LTYPE
  5
3F
330
5
100
AcDbSymbolTableRecord
100
AcDbLinetypeTableRecord
  2
ACAD_ISO13W100
 70
     0
  3
ISO double-dash double-dot __ __ . . __ __ . . 
 72
    65
 73
     8
 40
36.0
 49
12.0
 74
     0
 49
-3.0
 74
     0
 49
12.0
 74
     0
 49
-3.0
 74
     0
 49
0.0
 74
     0
 49
-3.0
 74
     0
 49
0.0
 74
     0
 49
-3.0
 74
     0
  0
LTYPE
  5
40
330
5
100
AcDbSymbolTableRecord
100
AcDbLinetypeTableRecord
  2
ACAD_ISO14W100
 70
     0
  3
ISO dash triple-dot __ . . . __ . . . __ . . . 
 72
    65
 73
     8
 40
24.0
 49
12.0
 74
     0
 49
-3.0
 74
     0
 49
0.0
 74
     0
 49
-3.0
 74
     0
 49
0.0
 74
     0
 49
-3.0
 74
     0
 49
0.0
 74
     0
 49
-3.0
 74
     0
  0
LTYPE
  5
41
330
5
100
AcDbSymbolTableRecord
100
AcDbLinetypeTableRecord
  2
ACAD_ISO15W100
 70
     0
  3
ISO double-dash triple-dot __ __ . . . __ __ . 
 72
    65
 73
    10
 40
39.0
 49
12.0
 74
     0
 49
-3.0
 74
     0
 49
12.0
 74
     0
 49
-3.0
 74
     0
 49
0.0
 74
     0
 49
-3.0
 74
     0
 49
0.0
 74
     0
 49
-3.0
 74
     0
 49
0.0
 74
     0
 49
-3.0
 74
     0
  0
LTYPE
  5
42
330
5
100
AcDbSymbolTableRecord
100
AcDbLinetypeTableRecord
  2
BATTING
 70
     0
  3
Batting SSSSSSSSSSSSSSSSSSSSSSSSSSSSSSSSSSSSSSS
 72
    65
 73
     4
 40
10.16254
 49
0.00254
 74
     0
 49
-2.54
 74
     4
 75
   134
340
33
 46
2.54
 50
0.0
 44
-2.54
 45
0.0
 49
-5.08
 74
     4
 75
   134
340
33
 46
2.54
 50
180.0
 44
2.54
 45
0.0
 49
-2.54
 74
     0
  0
LTYPE
  5
43
330
5
100
AcDbSymbolTableRecord
100
AcDbLinetypeTableRecord
  2
BORDER
 70
     0
  3
Border __ __ . __ __ . __ __ . __ __ . __ __ .
 72
    65
 73
     6
 40
44.45
 49
12.7
 74
     0
 49
-6.349999999999999
 74
     0
 49
12.7
 74
     0
 49
-6.349999999999999
 74
     0
 49
0.0
 74
     0
 49
-6.349999999999999
 74
     0
  0
LTYPE
  5
44
330
5
100
AcDbSymbolTableRecord
100
AcDbLinetypeTableRecord
  2
BORDER2
 70
     0
  3
Border (.5x) __.__.__.__.__.__.__.__.__.__.__.
 72
    65
 73
     6
 40
22.225
 49
6.349999999999999
 74
     0
 49
-3.174999999999999
 74
     0
 49
6.349999999999999
 74
     0
 49
-3.174999999999999
 74
     0
 49
0.0
 74
     0
 49
-3.174999999999999
 74
     0
  0
LTYPE
  5
45
330
5
100
AcDbSymbolTableRecord
100
AcDbLinetypeTableRecord
  2
BORDERX2
 70
     0
  3
Border (2x) ____  ____  .  ____  ____  .  ___
 72
    65
 73
     6
 40
88.9
 49
25.4
 74
     0
 49
-12.7
 74
     0
 49
25.4
 74
     0
 49
-12.7
 74
     0
 49
0.0
 74
     0
 49
-12.7
 74
     0
  0
LTYPE
  5
46
330
5
100
AcDbSymbolTableRecord
100
AcDbLinetypeTableRecord
  2
CENTER
 70
     0
  3
Center ____ _ ____ _ ____ _ ____ _ ____ _ ____
 72
    65
 73
     4
 40
50.8
 49
31.75
 74
     0
 49
-6.349999999999999
 74
     0
 49
6.349999999999999
 74
     0
 49
-6.349999999999999
 74
     0
  0
LTYPE
  5
47
330
5
100
AcDbSymbolTableRecord
100
AcDbLinetypeTableRecord
  2
CENTER2
 70
     0
  3
Center (.5x) ___ _ ___ _ ___ _ ___ _ ___ _ ___
 72
    65
 73
     4
 40
28.575
 49
19.05
 74
     0
 49
-3.174999999999999
 74
     0
 49
3.174999999999999
 74
     0
 49
-3.174999999999999
 74
     0
  0
LTYPE
  5
48
330
5
100
AcDbSymbolTableRecord
100
AcDbLinetypeTableRecord
  2
CENTERX2
 70
     0
  3
Center (2x) ________  __  ________  __  _____
 72
    65
 73
     4
 40
101.6
 49
63.5
 74
     0
 49
-12.7
 74
     0
 49
12.7
 74
     0
 49
-12.7
 74
     0
  0
LTYPE
  5
49
330
5
100
AcDbSymbolTableRecord
100
AcDbLinetypeTableRecord
  2
DASHDOT
 70
     0
  3
Dash dot __ . __ . __ . __ . __ . __ . __ . __
 72
    65
 73
     4
 40
25.4
 49
12.7
 74
     0
 49
-6.349999999999999
 74
     0
 49
0.0
 74
     0
 49
-6.349999999999999
 74
     0
  0
LTYPE
  5
4A
330
5
100
AcDbSymbolTableRecord
100
AcDbLinetypeTableRecord
  2
DASHDOT2
 70
     0
  3
Dash dot (.5x) _._._._._._._._._._._._._._._.
 72
    65
 73
     4
 40
12.7
 49
6.349999999999999
 74
     0
 49
-3.174999999999999
 74
     0
 49
0.0
 74
     0
 49
-3.174999999999999
 74
     0
  0
LTYPE
  5
4B
330
5
100
AcDbSymbolTableRecord
100
AcDbLinetypeTableRecord
  2
DASHDOTX2
 70
     0
  3
Dash dot (2x) ____  .  ____  .  ____  .  ___
 72
    65
 73
     4
 40
50.8
 49
25.4
 74
     0
 49
-12.7
 74
     0
 49
0.0
 74
     0
 49
-12.7
 74
     0
  0
LTYPE
  5
4C
330
5
100
AcDbSymbolTableRecord
100
AcDbLinetypeTableRecord
  2
DASHED
 70
     0
  3
Dashed __ __ __ __ __ __ __ __ __ __ __ __ __ _
 72
    65
 73
     2
 40
19.05
 49
12.7
 74
     0
 49
-6.349999999999999
 74
     0
  0
LTYPE
  5
4D
330
5
100
AcDbSymbolTableRecord
100
AcDbLinetypeTableRecord
  2
DASHED2
 70
     0
  3
Dashed (.5x) _ _ _ _ _ _ _ _ _ _ _ _ _ _ _ _ _
 72
    65
 73
     2
 40
9.524999999999998
 49
6.349999999999999
 74
     0
 49
-3.174999999999999
 74
     0
  0
LTYPE
  5
4E
330
5
100
AcDbSymbolTableRecord
100
AcDbLinetypeTableRecord
  2
DASHEDX2
 70
     0
  3
Dashed (2x) ____  ____  ____  ____  ____  ___
 72
    65
 73
     2
 40
38.1
 49
25.4
 74
     0
 49
-12.7
 74
     0
  0
LTYPE
  5
4F
330
5
100
AcDbSymbolTableRecord
100
AcDbLinetypeTableRecord
  2
DIVIDE
 70
     0
  3
Divide ____ . . ____ . . ____ . . ____ . . ____
 72
    65
 73
     6
 40
31.75
 49
12.7
 74
     0
 49
-6.349999999999999
 74
     0
 49
0.0
 74
     0
 49
-6.349999999999999
 74
     0
 49
0.0
 74
     0
 49
-6.349999999999999
 74
     0
  0
LTYPE
  5
50
330
5
100
AcDbSymbolTableRecord
100
AcDbLinetypeTableRecord
  2
DIVIDE2
 70
     0
  3
Divide (.5x) __..__..__..__..__..__..__..__.._
 72
    65
 73
     6
 40
15.875
 49
6.349999999999999
 74
     0
 49
-3.174999999999999
 74
     0
 49
0.0
 74
     0
 49
-3.174999999999999
 74
     0
 49
0.0
 74
     0
 49
-3.174999999999999
 74
     0
  0
LTYPE
  5
51
330
5
100
AcDbSymbolTableRecord
100
AcDbLinetypeTableRecord
  2
DIVIDEX2
 70
     0
  3
Divide (2x) ________  .  .  ________  .  .  _
 72
    65
 73
     6
 40
63.49999999999999
 49
25.4
 74
     0
 49
-12.7
 74
     0
 49
0.0
 74
     0
 49
-12.7
 74
     0
 49
0.0
 74
     0
 49
-12.7
 74
     0
  0
LTYPE
  5
52
330
5
100
AcDbSymbolTableRecord
100
AcDbLinetypeTableRecord
  2
DOT
 70
     0
  3
Dot . . . . . . . . . . . . . . . . . . . . . .
 72
    65
 73
     2
 40
6.349999999999999
 49
0.0
 74
     0
 49
-6.349999999999999
 74
     0
  0
LTYPE
  5
53
330
5
100
AcDbSymbolTableRecord
100
AcDbLinetypeTableRecord
  2
DOT2
 70
     0
  3
Dot (.5x) .....................................
 72
    65
 73
     2
 40
3.174999999999999
 49
0.0
 74
     0
 49
-3.174999999999999
 74
     0
  0
LTYPE
  5
54
330
5
100
AcDbSymbolTableRecord
100
AcDbLinetypeTableRecord
  2
DOTX2
 70
     0
  3
Dot (2x) .  .  .  .  .  .  .  .  .  .  .  .  . 
 72
    65
 73
     2
 40
12.7
 49
0.0
 74
     0
 49
-12.7
 74
     0
  0
LTYPE
  5
55
330
5
100
AcDbSymbolTableRecord
100
AcDbLinetypeTableRecord
  2
FENCELINE1
 70
     0
  3
Fenceline circle ----0-----0----0-----0----0---
 72
    65
 73
     4
 40
36.83
 49
6.349999999999999
 74
     0
 49
-2.54
 74
     4
 75
   133
340
33
 46
2.54
 50
0.0
 44
-2.54
 45
0.0
 49
-2.54
 74
     0
 49
25.4
 74
     0
  0
LTYPE
  5
56
330
5
100
AcDbSymbolTableRecord
100
AcDbLinetypeTableRecord
  2
FENCELINE2
 70
     0
  3
Fenceline square ----[]-----[]----[]-----[]----
 72
    65
 73
     4
 40
36.83
 49
6.349999999999999
 74
     0
 49
-2.54
 74
     4
 75
   132
340
33
 46
2.54
 50
0.0
 44
-2.54
 45
0.0
 49
-2.54
 74
     0
 49
25.4
 74
     0
  0
LTYPE
  5
57
330
5
100
AcDbSymbolTableRecord
100
AcDbLinetypeTableRecord
  2
GAS_LINE
 70
     0
  3
Gas line ----GAS----GAS----GAS----GAS----GAS---
 72
    65
 73
     3
 40
24.13
 49
12.7
 74
     0
 49
-5.08
 74
     2
 75
     0
340
11
 46
2.54
 50
0.0
 44
-2.54
 45
-1.27
  9
GAS
 49
-6.349999999999999
 74
     0
  0
LTYPE
  5
58
330
5
100
AcDbSymbolTableRecord
100
AcDbLinetypeTableRecord
  2
HIDDEN
 70
     0
  3
Hidden __ __ __ __ __ __ __ __ __ __ __ __ __ _
 72
    65
 73
     2
 40
9.524999999999998
 49
6.349999999999999
 74
     0
 49
-3.174999999999999
 74
     0
  0
LTYPE
  5
59
330
5
100
AcDbSymbolTableRecord
100
AcDbLinetypeTableRecord
  2
HIDDEN2
 70
     0
  3
Hidden (.5x) _ _ _ _ _ _ _ _ _ _ _ _ _ _ _ _ _
 72
    65
 73
     2
 40
4.762499999999999
 49
3.174999999999999
 74
     0
 49
-1.587499999999999
 74
     0
  0
LTYPE
  5
5A
330
5
100
AcDbSymbolTableRecord
100
AcDbLinetypeTableRecord
  2
HIDDENX2
 70
     0
  3
Hidden (2x) ____ ____ ____ ____ ____ ____ ____
 72
    65
 73
     2
 40
19.05
 49
12.7
 74
     0
 49
-6.349999999999999
 74
     0
  0
LTYPE
  5
5B
330
5
100
AcDbSymbolTableRecord
100
AcDbLinetypeTableRecord
  2
HOT_WATER_SUPPLY
 70
     0
  3
Hot water supply ---- HW ---- HW ---- HW ----
 72
    65
 73
     3
 40
22.86
 49
12.7
 74
     0
 49
-5.08
 74
     2
 75
     0
340
11
 46
2.54
 50
0.0
 44
-2.54
 45
-1.27
  9
HW
 49
-5.08
 74
     0
  0
LTYPE
  5
5C
330
5
100
AcDbSymbolTableRecord
100
AcDbLinetypeTableRecord
  2
PHANTOM
 70
     0
  3
Phantom ______  __  __  ______  __  __  ______
 72
    65
 73
     6
 40
63.5
 49
31.75
 74
     0
 49
-6.349999999999999
 74
     0
 49
6.349999999999999
 74
     0
 49
-6.349999999999999
 74
     0
 49
6.349999999999999
 74
     0
 49
-6.349999999999999
 74
     0
  0
LTYPE
  5
5D
330
5
100
AcDbSymbolTableRecord
100
AcDbLinetypeTableRecord
  2
PHANTOM2
 70
     0
  3
Phantom (.5x) ___ _ _ ___ _ _ ___ _ _ ___ _ _
 72
    65
 73
     6
 40
31.75
 49
15.875
 74
     0
 49
-3.174999999999999
 74
     0
 49
3.174999999999999
 74
     0
 49
-3.174999999999999
 74
     0
 49
3.174999999999999
 74
     0
 49
-3.174999999999999
 74
     0
  0
LTYPE
  5
5E
330
5
100
AcDbSymbolTableRecord
100
AcDbLinetypeTableRecord
  2
PHANTOMX2
 70
     0
  3
Phantom (2x) ____________    ____    ____   _
 72
    65
 73
     6
 40
127.0
 49
63.5
 74
     0
 49
-12.7
 74
     0
 49
12.7
 74
     0
 49
-12.7
 74
     0
 49
12.7
 74
     0
 49
-12.7
 74
     0
  0
LTYPE
  5
5F
330
5
100
AcDbSymbolTableRecord
100
AcDbLinetypeTableRecord
  2
TRACKS
 70
     0
  3
Tracks -|-|-|-|-|-|-|-|-|-|-|-|-|-|-|-|-|-|-|-|
 72
    65
 73
     2
 40
7.62
 49
3.81
 74
     4
 75
   130
340
33
 46
6.349999999999999
 50
0.0
 44
0.0
 45
0.0
 49
3.81
 74
     0
  0
LTYPE
  5
60
330
5
100
AcDbSymbolTableRecord
100
AcDbLinetypeTableRecord
  2
ZIGZAG
 70
     0
  3
Zig zag /\/\/\/\/\/\/\/\/\/\/\/\/\/\/\/\/\/\/\/
 72
    65
 73
     4
 40
20.32254
 49
0.00254
 74
     0
 49
-5.08
 74
     4
 75
   131
340
33
 46
5.08
 50
0.0
 44
-5.08
 45
0.0
 49
-10.16
 74
     4
 75
   131
340
33
 46
5.08
 50
180.0
 44
5.08
 45
0.0
 49
-5.08
 74
     0
  0
ENDTAB
  0
TABLE
  2
LAYER
  5
2
102
{ACAD_XDICTIONARY
360
1618
102
}
330
0
100
AcDbSymbolTable
 70
    10
  0
LAYER
  5
10
330
2
100
AcDbSymbolTableRecord
100
AcDbLayerTableRecord
  2
0
 70
     0
 62
     7
  6
Continuous
370
    -3
390
F
  0
LAYER
  5
C3
330
2
100
AcDbSymbolTableRecord
100
AcDbLayerTableRecord
  2
Defpoints
 70
     0
 62
     7
  6
Continuous
290
     0
370
    -3
390
F
  0
LAYER
  5
256
330
2
100
AcDbSymbolTableRecord
100
AcDbLayerTableRecord
  2
センター
 70
     0
 62
     7
  6
CENTER2
370
    18
390
F
  0
LAYER
  5
268
330
2
100
AcDbSymbolTableRecord
100
AcDbLayerTableRecord
  2
実形
 70
     0
 62
     7
  6
Continuous
370
    -3
390
F
  0
LAYER
  5
269
330
2
100
AcDbSymbolTableRecord
100
AcDbLayerTableRecord
  2
補助
 70
     0
 62
     7
  6
Continuous
370
    -3
390
F
  0
LAYER
  5
26A
330
2
100
AcDbSymbolTableRecord
100
AcDbLayerTableRecord
  2
寸法
 70
     0
 62
     7
  6
Continuous
370
    18
390
F
  0
LAYER
  5
26B
330
2
100
AcDbSymbolTableRecord
100
AcDbLayerTableRecord
  2
ハッチング
 70
     0
 62
     7
  6
Continuous
370
    18
390
F
  0
LAYER
  5
26D
330
2
100
AcDbSymbolTableRecord
100
AcDbLayerTableRecord
  2
文字
 70
     0
 62
     7
  6
Continuous
370
    -3
390
F
  0
LAYER
  5
107B
330
2
100
AcDbSymbolTableRecord
100
AcDbLayerTableRecord
  2
Cen
 70
     0
 62
     7
  6
CENTER2
370
    15
390
F
  0
LAYER
  5
17D1
330
2
100
AcDbSymbolTableRecord
100
AcDbLayerTableRecord
  2
枠
 70
     0
 62
     7
  6
Continuous
370
    -3
390
F
  0
ENDTAB
  0
TABLE
  2
STYLE
  5
3
330
0
100
AcDbSymbolTable
 70
     3
  0
STYLE
  5
11
330
3
100
AcDbSymbolTableRecord
100
AcDbTextStyleTableRecord
  2
Standard
 70
     0
 40
0.0
 41
1.0
 50
0.0
 71
     0
 42
25.0
  3
txt.shx
  4
bigfont.shx
  0
STYLE
  5
33
330
3
100
AcDbSymbolTableRecord
100
AcDbTextStyleTableRecord
  2

 70
     1
 40
0.0
 41
1.0
 50
0.0
 71
     0
 42
2.5
  3
ltypeshp.shx
  4

  0
STYLE
  5
1837
330
3
100
AcDbSymbolTableRecord
100
AcDbTextStyleTableRecord
  2
明朝
 70
     0
 40
0.0
 41
1.0
 50
0.0
 71
     0
 42
25.0
  3
MS Mincho.ttf
  4

1001
ACAD
1000
MS Mincho
1071
    32785
  0
ENDTAB
  0
TABLE
  2
VIEW
  5
6
330
0
100
AcDbSymbolTable
 70
     0
  0
ENDTAB
  0
TABLE
  2
UCS
  5
7
330
0
100
AcDbSymbolTable
 70
     0
  0
ENDTAB
  0
TABLE
  2
APPID
  5
9
330
0
100
AcDbSymbolTable
 70
     1
  0
APPID
  5
12
330
9
100
AcDbSymbolTableRecord
100
AcDbRegAppTableRecord
  2
ACAD
 70
     0
  0
ENDTAB
  0
TABLE
  2
DIMSTYLE
  5
A
330
0
100
AcDbSymbolTable
 70
     1
100
AcDbDimStyleTable
 71
     1
340
27
  0
DIMSTYLE
105
27
102
{ACAD_REACTORS
330
4BE
330
4CC
330
4F8
330
505
330
368
330
458
330
35B
330
3CE
330
43D
330
3E9
330
3DC
330
3F6
330
4A3
330
44B
330
12F3
330
1318
330
1325
330
1385
330
1393
330
13A0
330
1411
330
141E
330
154D
330
166F
330
170F
102
}
330
A
100
AcDbSymbolTableRecord
100
AcDbDimStyleTableRecord
  2
ISO-25
 70
     0
 41
35.0
 42
65.0
 43
3.75
 44
0.0
 73
     0
 74
     0
 77
     1
 78
     8
140
25.0
141
2.5
143
0.03937007874016
147
6.25
171
     3
172
     1
271
     2
272
     2
274
     3
283
     0
284
     8
340
11
341
DA
342
D0
371
    15
372
    15
  0
ENDTAB
  0
TABLE
  2
BLOCK_RECORD
  5
1
330
0
100
AcDbSymbolTable
 70
    30
  0
BLOCK_RECORD
  5
1F
102
{ACAD_XDICTIONARY
360
1626
102
}
330
1
100
AcDbSymbolTableRecord
100
AcDbBlockTableRecord
  2
*Model_Space
340
22
  0
BLOCK_RECORD
  5
1B
330
1
100
AcDbSymbolTableRecord
100
AcDbBlockTableRecord
  2
*Paper_Space
340
1E
  0
BLOCK_RECORD
  5
23
330
1
100
AcDbSymbolTableRecord
100
AcDbBlockTableRecord
  2
*Paper_Space0
340
26
  0
BLOCK_RECORD
  5
D0
330
1
100
AcDbSymbolTableRecord
100
AcDbBlockTableRecord
  2
_DotSmall
340
0
102
{BLKREFS
331
1470
331
1471
331
1483
331
1484
331
148B
331
148C
331
1495
331
1496
331
149D
331
149E
331
14A6
331
14A7
331
14AF
331
14B0
331
14BA
331
14BB
331
14C3
331
14C4
331
14CB
331
14CC
331
14DD
331
14DE
331
14E5
331
14E6
331
14EE
331
14EF
331
14F7
331
14F8
331
1500
331
1501
331
151B
331
151C
331
1548
331
1549
331
158B
331
158C
331
15A7
331
15A8
331
15C1
331
1660
331
1661
331
1669
331
166A
331
16EA
331
16EB
331
16FD
331
16FE
331
1728
331
1729
102
}
  0
BLOCK_RECORD
  5
D4
330
1
100
AcDbSymbolTableRecord
100
AcDbBlockTableRecord
  2
_Origin2
340
0
  0
BLOCK_RECORD
  5
DA
330
1
100
AcDbSymbolTableRecord
100
AcDbBlockTableRecord
  2
_Open30
340
0
  0
BLOCK_RECORD
  5
35C
330
1
100
AcDbSymbolTableRecord
100
AcDbBlockTableRecord
  2
*D4
340
0
  0
BLOCK_RECORD
  5
369
330
1
100
AcDbSymbolTableRecord
100
AcDbBlockTableRecord
  2
*D5
340
0
  0
BLOCK_RECORD
  5
3CF
330
1
100
AcDbSymbolTableRecord
100
AcDbBlockTableRecord
  2
*D6
340
0
  0
BLOCK_RECORD
  5
3DD
330
1
100
AcDbSymbolTableRecord
100
AcDbBlockTableRecord
  2
*D7
340
0
  0
BLOCK_RECORD
  5
3EA
330
1
100
AcDbSymbolTableRecord
100
AcDbBlockTableRecord
  2
*D8
340
0
  0
BLOCK_RECORD
  5
3F7
330
1
100
AcDbSymbolTableRecord
100
AcDbBlockTableRecord
  2
*D9
340
0
  0
BLOCK_RECORD
  5
43E
330
1
100
AcDbSymbolTableRecord
100
AcDbBlockTableRecord
  2
*D10
340
0
  0
BLOCK_RECORD
  5
44C
330
1
100
AcDbSymbolTableRecord
100
AcDbBlockTableRecord
  2
*D11
340
0
  0
BLOCK_RECORD
  5
459
330
1
100
AcDbSymbolTableRecord
100
AcDbBlockTableRecord
  2
*D12
340
0
  0
BLOCK_RECORD
  5
4A4
330
1
100
AcDbSymbolTableRecord
100
AcDbBlockTableRecord
  2
*D13
340
0
  0
BLOCK_RECORD
  5
4BF
330
1
100
AcDbSymbolTableRecord
100
AcDbBlockTableRecord
  2
*D14
340
0
  0
BLOCK_RECORD
  5
4CD
330
1
100
AcDbSymbolTableRecord
100
AcDbBlockTableRecord
  2
*D15
340
0
  0
BLOCK_RECORD
  5
4F9
330
1
100
AcDbSymbolTableRecord
100
AcDbBlockTableRecord
  2
*D16
340
0
  0
BLOCK_RECORD
  5
506
330
1
100
AcDbSymbolTableRecord
100
AcDbBlockTableRecord
  2
*D17
340
0
  0
BLOCK_RECORD
  5
12F4
330
1
100
AcDbSymbolTableRecord
100
AcDbBlockTableRecord
  2
*D18
340
0
  0
BLOCK_RECORD
  5
1319
330
1
100
AcDbSymbolTableRecord
100
AcDbBlockTableRecord
  2
*D19
340
0
  0
BLOCK_RECORD
  5
1326
330
1
100
AcDbSymbolTableRecord
100
AcDbBlockTableRecord
  2
*D20
340
0
  0
BLOCK_RECORD
  5
1386
330
1
100
AcDbSymbolTableRecord
100
AcDbBlockTableRecord
  2
*D21
340
0
  0
BLOCK_RECORD
  5
1394
330
1
100
AcDbSymbolTableRecord
100
AcDbBlockTableRecord
  2
*D22
340
0
  0
BLOCK_RECORD
  5
13A1
330
1
100
AcDbSymbolTableRecord
100
AcDbBlockTableRecord
  2
*D23
340
0
  0
BLOCK_RECORD
  5
1412
330
1
100
AcDbSymbolTableRecord
100
AcDbBlockTableRecord
  2
*D24
340
0
  0
BLOCK_RECORD
  5
141F
330
1
100
AcDbSymbolTableRecord
100
AcDbBlockTableRecord
  2
*D25
340
0
  0
BLOCK_RECORD
  5
154E
330
1
100
AcDbSymbolTableRecord
100
AcDbBlockTableRecord
  2
*D26
340
0
  0
BLOCK_RECORD
  5
1670
330
1
100
AcDbSymbolTableRecord
100
AcDbBlockTableRecord
  2
*D27
340
0
  0
BLOCK_RECORD
  5
1710
330
1
100
AcDbSymbolTableRecord
100
AcDbBlockTableRecord
  2
*D28
340
0
  0
BLOCK_RECORD
  5
1832
330
1
100
AcDbSymbolTableRecord
100
AcDbBlockTableRecord
  2
_Dot
340
0
  0
ENDTAB
  0
ENDSEC
  0
SECTION
  2
BLOCKS
  0
BLOCK
  5
20
330
1F
100
AcDbEntity
  8
0
100
AcDbBlockBegin
  2
*Model_Space
 70
     0
 10
0.0
 20
0.0
 30
0.0
  3
*Model_Space
  1

  0
ENDBLK
  5
21
330
1F
100
AcDbEntity
  8
0
100
AcDbBlockEnd
  0
BLOCK
  5
1C
330
1B
100
AcDbEntity
 67
     1
  8
0
100
AcDbBlockBegin
  2
*Paper_Space
 70
     0
 10
0.0
 20
0.0
 30
0.0
  3
*Paper_Space
  1

  0
ENDBLK
  5
1D
330
1B
100
AcDbEntity
 67
     1
  8
0
100
AcDbBlockEnd
  0
BLOCK
  5
24
330
23
100
AcDbEntity
  8
0
100
AcDbBlockBegin
  2
*Paper_Space0
 70
     0
 10
0.0
 20
0.0
 30
0.0
  3
*Paper_Space0
  1

  0
ENDBLK
  5
25
330
23
100
AcDbEntity
  8
0
100
AcDbBlockEnd
  0
BLOCK
  5
D2
330
D0
100
AcDbEntity
  8
0
100
AcDbBlockBegin
  2
_DotSmall
 70
     0
 10
0.0
 20
0.0
 30
0.0
  3
_DotSmall
  1

  0
LWPOLYLINE
  5
D1
330
D0
100
AcDbEntity
  8
0
 62
     0
100
AcDbPolyline
 90
        2
 70
     1
 43
0.5
 10
-0.0625
 20
0.0
 42
1.0
 10
0.0625
 20
0.0
 42
1.0
  0
ENDBLK
  5
D3
330
D0
100
AcDbEntity
  8
0
100
AcDbBlockEnd
  0
BLOCK
  5
D8
330
D4
100
AcDbEntity
  8
0
100
AcDbBlockBegin
  2
_Origin2
 70
     0
 10
0.0
 20
0.0
 30
0.0
  3
_Origin2
  1

  0
CIRCLE
  5
D5
330
D4
100
AcDbEntity
  8
0
 62
     0
370
    -2
100
AcDbCircle
 10
0.0
 20
0.0
 30
0.0
 40
0.5
  0
CIRCLE
  5
D6
330
D4
100
AcDbEntity
  8
0
 62
     0
370
    -2
100
AcDbCircle
 10
0.0
 20
0.0
 30
0.0
 40
0.25
  0
LINE
  5
D7
330
D4
100
AcDbEntity
  8
0
 62
     0
370
    -2
100
AcDbLine
 10
-0.5
 20
0.0
 30
0.0
 11
-1.0
 21
0.0
 31
0.0
  0
ENDBLK
  5
D9
330
D4
100
AcDbEntity
  8
0
100
AcDbBlockEnd
  0
BLOCK
  5
DE
330
DA
100
AcDbEntity
  8
0
100
AcDbBlockBegin
  2
_Open30
 70
     0
 10
0.0
 20
0.0
 30
0.0
  3
_Open30
  1

  0
LINE
  5
DB
330
DA
100
AcDbEntity
  8
0
 62
     0
370
    -2
100
AcDbLine
 10
-1.0
 20
0.26794919
 30
0.0
 11
0.0
 21
0.0
 31
0.0
  0
LINE
  5
DC
330
DA
100
AcDbEntity
  8
0
 62
     0
370
    -2
100
AcDbLine
 10
0.0
 20
0.0
 30
0.0
 11
-1.0
 21
-0.26794919
 31
0.0
  0
LINE
  5
DD
330
DA
100
AcDbEntity
  8
0
 62
     0
370
    -2
100
AcDbLine
 10
0.0
 20
0.0
 30
0.0
 11
-1.0
 21
0.0
 31
0.0
  0
ENDBLK
  5
DF
330
DA
100
AcDbEntity
  8
0
100
AcDbBlockEnd
  0
BLOCK
  5
366
330
35C
100
AcDbEntity
  8
0
100
AcDbBlockBegin
  2
*D4
 70
     1
 10
0.0
 20
0.0
 30
0.0
  3
*D4
  1

  0
LINE
  5
14A3
330
35C
100
AcDbEntity
  8
実形
 62
     0
370
    15
100
AcDbLine
 10
1064.235600302483
 20
1594.07900167759
 30
0.0
 11
1064.235600302483
 21
1777.077185278966
 31
0.0
  0
LINE
  5
14A4
330
35C
100
AcDbEntity
  8
実形
 62
     0
370
    15
100
AcDbLine
 10
914.2356003024833
 20
1523.274067115558
 30
0.0
 11
914.2356003024833
 21
1777.077185278966
 31
0.0
  0
LINE
  5
14A5
330
35C
100
AcDbEntity
  8
実形
 62
     0
370
    18
100
AcDbLine
 10
1064.235600302483
 20
1777.077185278966
 30
0.0
 11
914.2356003024833
 21
1777.077185278966
 31
0.0
  0
INSERT
  5
14A6
330
35C
100
AcDbEntity
  8
実形
 62
     0
370
    18
100
AcDbBlockReference
  2
_DotSmall
 10
1064.235600302483
 20
1777.077185278966
 30
0.0
 41
35.0
 42
35.0
 43
35.0
  0
INSERT
  5
14A7
330
35C
100
AcDbEntity
  8
実形
 62
     0
370
    18
100
AcDbBlockReference
  2
_DotSmall
 10
914.2356003024833
 20
1777.077185278966
 30
0.0
 41
35.0
 42
35.0
 43
35.0
 50
180.0
  0
MTEXT
  5
14A8
330
35C
100
AcDbEntity
  8
実形
 62
     0
100
AcDbMText
 10
989.2356003024833
 20
1795.827185278966
 30
0.0
 40
25.0
 41
0.0
 71
     5
 72
     1
  1
150
 73
     1
 44
1.0
1001
ACAD
1000
MTEXTBEGIN
1070
    73
1070
     1
1070
    44
1040
1.0
1070
    74
1070
     0
1000
MTEXTEND
  0
POINT
  5
14A9
330
35C
100
AcDbEntity
  8
Defpoints
 62
     0
100
AcDbPoint
 10
1064.235600302483
 20
1529.07900167759
 30
0.0
  0
POINT
  5
14AA
330
35C
100
AcDbEntity
  8
Defpoints
 62
     0
100
AcDbPoint
 10
914.2356003024833
 20
1458.274067115558
 30
0.0
  0
POINT
  5
14AB
330
35C
100
AcDbEntity
  8
Defpoints
 62
     0
100
AcDbPoint
 10
914.2356003024833
 20
1777.077185278966
 30
0.0
  0
ENDBLK
  5
367
330
35C
100
AcDbEntity
  8
0
100
AcDbBlockEnd
  0
BLOCK
  5
373
330
369
100
AcDbEntity
  8
0
100
AcDbBlockBegin
  2
*D5
 70
     1
 10
0.0
 20
0.0
 30
0.0
  3
*D5
  1

  0
LINE
  5
14AC
330
369
100
AcDbEntity
  8
実形
 62
     0
370
    15
100
AcDbLine
 10
1199.735600302483
 20
1458.274067115558
 30
0.0
 11
1241.836619414706
 21
1458.274067115558
 31
0.0
  0
LINE
  5
14AD
330
369
100
AcDbEntity
  8
実形
 62
     0
370
    15
100
AcDbLine
 10
1579.235600302483
 20
1253.274067115558
 30
0.0
 11
1241.836619414706
 21
1253.274067115558
 31
0.0
  0
LINE
  5
14AE
330
369
100
AcDbEntity
  8
実形
 62
     0
370
    18
100
AcDbLine
 10
1241.836619414706
 20
1458.274067115558
 30
0.0
 11
1241.836619414706
 21
1253.274067115558
 31
0.0
  0
INSERT
  5
14AF
330
369
100
AcDbEntity
  8
実形
 62
     0
370
    18
100
AcDbBlockReference
  2
_DotSmall
 10
1241.836619414706
 20
1458.274067115558
 30
0.0
 41
35.0
 42
35.0
 43
35.0
 50
90.0
  0
INSERT
  5
14B0
330
369
100
AcDbEntity
  8
実形
 62
     0
370
    18
100
AcDbBlockReference
  2
_DotSmall
 10
1241.836619414706
 20
1253.274067115558
 30
0.0
 41
35.0
 42
35.0
 43
35.0
 50
270.0
  0
MTEXT
  5
14B1
330
369
100
AcDbEntity
  8
実形
 62
     0
100
AcDbMText
 10
1223.086619414706
 20
1355.774067115558
 30
0.0
 40
25.0
 41
0.0
 71
     5
 72
     1
  1
205
 11
0.0000000000000001
 21
1.0
 31
0.0
 73
     1
 44
1.0
1001
ACAD
1000
MTEXTBEGIN
1070
    73
1070
     1
1070
    44
1040
1.0
1070
    74
1070
     0
1000
MTEXTEND
  0
POINT
  5
14B2
330
369
100
AcDbEntity
  8
Defpoints
 62
     0
100
AcDbPoint
 10
1134.735600302483
 20
1458.274067115558
 30
0.0
  0
POINT
  5
14B3
330
369
100
AcDbEntity
  8
Defpoints
 62
     0
100
AcDbPoint
 10
1644.235600302483
 20
1253.274067115558
 30
0.0
  0
POINT
  5
14B4
330
369
100
AcDbEntity
  8
Defpoints
 62
     0
100
AcDbPoint
 10
1241.836619414706
 20
1253.274067115558
 30
0.0
  0
ENDBLK
  5
374
330
369
100
AcDbEntity
  8
0
100
AcDbBlockEnd
  0
BLOCK
  5
3DA
330
3CF
100
AcDbEntity
  8
0
100
AcDbBlockBegin
  2
*D6
 70
     1
 10
0.0
 20
0.0
 30
0.0
  3
*D6
  1

  0
LINE
  5
15A3
330
3CF
100
AcDbEntity
  8
実形
 62
     0
370
    15
100
AcDbLine
 10
814.2356003024833
 20
1698.274067115558
 30
0.0
 11
672.7664981535772
 21
1698.274067115558
 31
0.0
  0
LINE
  5
15A4
330
3CF
100
AcDbEntity
  8
実形
 62
     0
370
    15
100
AcDbLine
 10
814.2356003024833
 20
1683.274067115558
 30
0.0
 11
672.7664981535772
 21
1683.274067115558
 31
0.0
  0
LINE
  5
15A5
330
3CF
100
AcDbEntity
  8
実形
 62
     0
370
    18
100
AcDbLine
 10
672.7664981535772
 20
1698.274067115558
 30
0.0
 11
672.7664981535772
 21
1683.274067115558
 31
0.0
  0
MTEXT
  5
15A6
330
3CF
100
AcDbEntity
  8
実形
 62
     0
100
AcDbMText
 10
651.0367376199856
 20
1677.773695826441
 30
0.0
 40
25.0
 41
0.0
 71
     5
 72
     1
  1
15
 11
0.0000000000000001
 21
1.0
 31
0.0
 73
     1
 44
1.0
1001
ACAD
1000
MTEXTBEGIN
1070
    73
1070
     1
1070
    44
1040
1.0
1070
    74
1070
     0
1000
MTEXTEND
  0
INSERT
  5
15A7
330
3CF
100
AcDbEntity
  8
実形
 62
     0
370
    18
100
AcDbBlockReference
  2
_DotSmall
 10
672.7664981535772
 20
1698.274067115558
 30
0.0
 41
35.0
 42
35.0
 43
35.0
 50
90.0
  0
INSERT
  5
15A8
330
3CF
100
AcDbEntity
  8
実形
 62
     0
370
    18
100
AcDbBlockReference
  2
_DotSmall
 10
672.7664981535772
 20
1683.274067115558
 30
0.0
 41
35.0
 42
35.0
 43
35.0
 50
270.0
  0
POINT
  5
15A9
330
3CF
100
AcDbEntity
  8
Defpoints
 62
     0
100
AcDbPoint
 10
879.2356003024833
 20
1698.274067115558
 30
0.0
  0
POINT
  5
15AA
330
3CF
100
AcDbEntity
  8
Defpoints
 62
     0
100
AcDbPoint
 10
879.2356003024833
 20
1683.274067115558
 30
0.0
  0
POINT
  5
15AB
330
3CF
100
AcDbEntity
  8
Defpoints
 62
     0
100
AcDbPoint
 10
672.7664981535772
 20
1683.274067115558
 30
0.0
  0
ENDBLK
  5
3DB
330
3CF
100
AcDbEntity
  8
0
100
AcDbBlockEnd
  0
BLOCK
  5
3E7
330
3DD
100
AcDbEntity
  8
0
100
AcDbBlockBegin
  2
*D7
 70
     1
 10
0.0
 20
0.0
 30
0.0
  3
*D7
  1

  0
LINE
  5
146D
330
3DD
100
AcDbEntity
  8
実形
 62
     0
370
    15
100
AcDbLine
 10
814.2356003024833
 20
1683.274067115558
 30
0.0
 11
672.7664981535773
 21
1683.274067115558
 31
0.0
  0
LINE
  5
146E
330
3DD
100
AcDbEntity
  8
実形
 62
     0
370
    15
100
AcDbLine
 10
814.2356003024833
 20
1233.274067115558
 30
0.0
 11
672.7664981535772
 21
1233.274067115558
 31
0.0
  0
LINE
  5
146F
330
3DD
100
AcDbEntity
  8
実形
 62
     0
370
    18
100
AcDbLine
 10
672.7664981535773
 20
1683.274067115558
 30
0.0
 11
672.7664981535772
 21
1233.274067115558
 31
0.0
  0
INSERT
  5
1470
330
3DD
100
AcDbEntity
  8
実形
 62
     0
370
    18
100
AcDbBlockReference
  2
_DotSmall
 10
672.7664981535773
 20
1683.274067115558
 30
0.0
 41
35.0
 42
35.0
 43
35.0
 50
90.0
  0
INSERT
  5
1471
330
3DD
100
AcDbEntity
  8
実形
 62
     0
370
    18
100
AcDbBlockReference
  2
_DotSmall
 10
672.7664981535772
 20
1233.274067115558
 30
0.0
 41
35.0
 42
35.0
 43
35.0
 50
270.0
  0
MTEXT
  5
1472
330
3DD
100
AcDbEntity
  8
実形
 62
     0
100
AcDbMText
 10
654.0164981535771
 20
1458.274067115558
 30
0.0
 40
25.0
 41
0.0
 71
     5
 72
     1
  1
450
 11
0.0000000000000001
 21
1.0
 31
0.0
 73
     1
 44
1.0
1001
ACAD
1000
MTEXTBEGIN
1070
    73
1070
     1
1070
    44
1040
1.0
1070
    74
1070
     0
1000
MTEXTEND
  0
POINT
  5
1473
330
3DD
100
AcDbEntity
  8
Defpoints
 62
     0
100
AcDbPoint
 10
879.2356003024833
 20
1683.274067115558
 30
0.0
  0
POINT
  5
1474
330
3DD
100
AcDbEntity
  8
Defpoints
 62
     0
100
AcDbPoint
 10
879.2356003024833
 20
1233.274067115558
 30
0.0
  0
POINT
  5
1475
330
3DD
100
AcDbEntity
  8
Defpoints
 62
     0
100
AcDbPoint
 10
672.7664981535772
 20
1233.274067115558
 30
0.0
  0
ENDBLK
  5
3E8
330
3DD
100
AcDbEntity
  8
0
100
AcDbBlockEnd
  0
BLOCK
  5
3F4
330
3EA
100
AcDbEntity
  8
0
100
AcDbBlockBegin
  2
*D8
 70
     1
 10
0.0
 20
0.0
 30
0.0
  3
*D8
  1

  0
LINE
  5
1587
330
3EA
100
AcDbEntity
  8
実形
 62
     0
370
    15
100
AcDbLine
 10
814.2356003024833
 20
1233.274067115558
 30
0.0
 11
672.7664981535772
 21
1233.274067115558
 31
0.0
  0
LINE
  5
1588
330
3EA
100
AcDbEntity
  8
実形
 62
     0
370
    15
100
AcDbLine
 10
814.2356003024833
 20
1218.274067115558
 30
0.0
 11
672.7664981535772
 21
1218.274067115558
 31
0.0
  0
LINE
  5
1589
330
3EA
100
AcDbEntity
  8
実形
 62
     0
370
    18
100
AcDbLine
 10
672.7664981535772
 20
1233.274067115558
 30
0.0
 11
672.7664981535772
 21
1218.274067115558
 31
0.0
  0
MTEXT
  5
158A
330
3EA
100
AcDbEntity
  8
実形
 62
     0
100
AcDbMText
 10
649.3648611830685
 20
1239.244116954427
 30
0.0
 40
25.0
 41
0.0
 71
     5
 72
     1
  1
15
 11
0.0000000000000001
 21
1.0
 31
0.0
 73
     1
 44
1.0
1001
ACAD
1000
MTEXTBEGIN
1070
    73
1070
     1
1070
    44
1040
1.0
1070
    74
1070
     0
1000
MTEXTEND
  0
INSERT
  5
158B
330
3EA
100
AcDbEntity
  8
実形
 62
     0
370
    18
100
AcDbBlockReference
  2
_DotSmall
 10
672.7664981535772
 20
1233.274067115558
 30
0.0
 41
35.0
 42
35.0
 43
35.0
 50
90.0
  0
INSERT
  5
158C
330
3EA
100
AcDbEntity
  8
実形
 62
     0
370
    18
100
AcDbBlockReference
  2
_DotSmall
 10
672.7664981535772
 20
1218.274067115558
 30
0.0
 41
35.0
 42
35.0
 43
35.0
 50
270.0
  0
POINT
  5
158D
330
3EA
100
AcDbEntity
  8
Defpoints
 62
     0
100
AcDbPoint
 10
879.2356003024833
 20
1233.274067115558
 30
0.0
  0
POINT
  5
158E
330
3EA
100
AcDbEntity
  8
Defpoints
 62
     0
100
AcDbPoint
 10
879.2356003024833
 20
1218.274067115558
 30
0.0
  0
POINT
  5
158F
330
3EA
100
AcDbEntity
  8
Defpoints
 62
     0
100
AcDbPoint
 10
672.7664981535772
 20
1218.274067115558
 30
0.0
  0
ENDBLK
  5
3F5
330
3EA
100
AcDbEntity
  8
0
100
AcDbBlockEnd
  0
BLOCK
  5
401
330
3F7
100
AcDbEntity
  8
0
100
AcDbBlockBegin
  2
*D9
 70
     1
 10
0.0
 20
0.0
 30
0.0
  3
*D9
  1

  0
LINE
  5
149A
330
3F7
100
AcDbEntity
  8
実形
 62
     0
370
    15
100
AcDbLine
 10
814.2356003024833
 20
1698.274067115558
 30
0.0
 11
606.7664981535773
 21
1698.274067115558
 31
0.0
  0
LINE
  5
149B
330
3F7
100
AcDbEntity
  8
実形
 62
     0
370
    15
100
AcDbLine
 10
814.2356003024833
 20
1218.274067115558
 30
0.0
 11
606.7664981535772
 21
1218.274067115558
 31
0.0
  0
LINE
  5
149C
330
3F7
100
AcDbEntity
  8
実形
 62
     0
370
    18
100
AcDbLine
 10
606.7664981535773
 20
1698.274067115558
 30
0.0
 11
606.7664981535772
 21
1218.274067115558
 31
0.0
  0
INSERT
  5
149D
330
3F7
100
AcDbEntity
  8
実形
 62
     0
370
    18
100
AcDbBlockReference
  2
_DotSmall
 10
606.7664981535773
 20
1698.274067115558
 30
0.0
 41
35.0
 42
35.0
 43
35.0
 50
90.0
  0
INSERT
  5
149E
330
3F7
100
AcDbEntity
  8
実形
 62
     0
370
    18
100
AcDbBlockReference
  2
_DotSmall
 10
606.7664981535772
 20
1218.274067115558
 30
0.0
 41
35.0
 42
35.0
 43
35.0
 50
270.0
  0
MTEXT
  5
149F
330
3F7
100
AcDbEntity
  8
実形
 62
     0
100
AcDbMText
 10
588.0164981535771
 20
1458.274067115558
 30
0.0
 40
25.0
 41
0.0
 71
     5
 72
     1
  1
480
 11
0.0000000000000001
 21
1.0
 31
0.0
 73
     1
 44
1.0
1001
ACAD
1000
MTEXTBEGIN
1070
    73
1070
     1
1070
    44
1040
1.0
1070
    74
1070
     0
1000
MTEXTEND
  0
POINT
  5
14A0
330
3F7
100
AcDbEntity
  8
Defpoints
 62
     0
100
AcDbPoint
 10
879.2356003024833
 20
1698.274067115558
 30
0.0
  0
POINT
  5
14A1
330
3F7
100
AcDbEntity
  8
Defpoints
 62
     0
100
AcDbPoint
 10
879.2356003024833
 20
1218.274067115558
 30
0.0
  0
POINT
  5
14A2
330
3F7
100
AcDbEntity
  8
Defpoints
 62
     0
100
AcDbPoint
 10
606.7664981535772
 20
1218.274067115558
 30
0.0
  0
ENDBLK
  5
402
330
3F7
100
AcDbEntity
  8
0
100
AcDbBlockEnd
  0
BLOCK
  5
449
330
43E
100
AcDbEntity
  8
0
100
AcDbBlockBegin
  2
*D10
 70
     1
 10
0.0
 20
0.0
 30
0.0
  3
*D10
  1

  0
LINE
  5
14D9
330
43E
100
AcDbEntity
  8
実形
 62
     0
370
    15
100
AcDbLine
 10
879.2356003024833
 20
1153.274067115558
 30
0.0
 11
879.2356003024833
 21
1022.81663083867
 31
0.0
  0
LINE
  5
14DA
330
43E
100
AcDbEntity
  8
実形
 62
     0
370
    15
100
AcDbLine
 10
894.2356003024833
 20
1153.274067115558
 30
0.0
 11
894.2356003024833
 21
1022.81663083867
 31
0.0
  0
LINE
  5
14DB
330
43E
100
AcDbEntity
  8
実形
 62
     0
370
    18
100
AcDbLine
 10
879.2356003024833
 20
1022.81663083867
 30
0.0
 11
894.2356003024833
 21
1022.81663083867
 31
0.0
  0
LINE
  5
14DC
330
43E
100
AcDbEntity
  8
実形
 62
     0
370
    18
100
AcDbLine
 10
894.2356003024833
 20
1022.81663083867
 30
0.0
 11
959.9856003024834
 21
1022.81663083867
 31
0.0
  0
INSERT
  5
14DD
330
43E
100
AcDbEntity
  8
実形
 62
     0
370
    18
100
AcDbBlockReference
  2
_DotSmall
 10
879.2356003024833
 20
1022.81663083867
 30
0.0
 41
35.0
 42
35.0
 43
35.0
 50
180.0
  0
INSERT
  5
14DE
330
43E
100
AcDbEntity
  8
実形
 62
     0
370
    18
100
AcDbBlockReference
  2
_DotSmall
 10
894.2356003024833
 20
1022.81663083867
 30
0.0
 41
35.0
 42
35.0
 43
35.0
  0
POINT
  5
14DF
330
43E
100
AcDbEntity
  8
Defpoints
 62
     0
100
AcDbPoint
 10
879.2356003024833
 20
1218.274067115558
 30
0.0
  0
POINT
  5
14E0
330
43E
100
AcDbEntity
  8
Defpoints
 62
     0
100
AcDbPoint
 10
894.2356003024833
 20
1218.274067115558
 30
0.0
  0
POINT
  5
14E1
330
43E
100
AcDbEntity
  8
Defpoints
 62
     0
100
AcDbPoint
 10
894.2356003024833
 20
1022.81663083867
 30
0.0
  0
ENDBLK
  5
44A
330
43E
100
AcDbEntity
  8
0
100
AcDbBlockEnd
  0
BLOCK
  5
456
330
44C
100
AcDbEntity
  8
0
100
AcDbBlockBegin
  2
*D11
 70
     1
 10
0.0
 20
0.0
 30
0.0
  3
*D11
  1

  0
LINE
  5
14C8
330
44C
100
AcDbEntity
  8
実形
 62
     0
370
    15
100
AcDbLine
 10
894.2356003024833
 20
1153.274067115558
 30
0.0
 11
894.2356003024833
 21
1022.81663083867
 31
0.0
  0
LINE
  5
14C9
330
44C
100
AcDbEntity
  8
実形
 62
     0
370
    15
100
AcDbLine
 10
1694.235600302483
 20
1153.274067115558
 30
0.0
 11
1694.235600302483
 21
1022.81663083867
 31
0.0
  0
LINE
  5
14CA
330
44C
100
AcDbEntity
  8
実形
 62
     0
370
    18
100
AcDbLine
 10
894.2356003024833
 20
1022.81663083867
 30
0.0
 11
1694.235600302483
 21
1022.81663083867
 31
0.0
  0
INSERT
  5
14CB
330
44C
100
AcDbEntity
  8
実形
 62
     0
370
    18
100
AcDbBlockReference
  2
_DotSmall
 10
894.2356003024833
 20
1022.81663083867
 30
0.0
 41
35.0
 42
35.0
 43
35.0
 50
180.0
  0
INSERT
  5
14CC
330
44C
100
AcDbEntity
  8
実形
 62
     0
370
    18
100
AcDbBlockReference
  2
_DotSmall
 10
1694.235600302483
 20
1022.81663083867
 30
0.0
 41
35.0
 42
35.0
 43
35.0
  0
MTEXT
  5
14CD
330
44C
100
AcDbEntity
  8
実形
 62
     0
100
AcDbMText
 10
1294.235600302483
 20
1041.56663083867
 30
0.0
 40
25.0
 41
0.0
 71
     5
 72
     1
  1
800
 73
     1
 44
1.0
1001
ACAD
1000
MTEXTBEGIN
1070
    73
1070
     1
1070
    44
1040
1.0
1070
    74
1070
     0
1000
MTEXTEND
  0
POINT
  5
14CE
330
44C
100
AcDbEntity
  8
Defpoints
 62
     0
100
AcDbPoint
 10
894.2356003024833
 20
1218.274067115558
 30
0.0
  0
POINT
  5
14CF
330
44C
100
AcDbEntity
  8
Defpoints
 62
     0
100
AcDbPoint
 10
1694.235600302483
 20
1218.274067115558
 30
0.0
  0
POINT
  5
14D0
330
44C
100
AcDbEntity
  8
Defpoints
 62
     0
100
AcDbPoint
 10
1694.235600302483
 20
1022.81663083867
 30
0.0
  0
ENDBLK
  5
457
330
44C
100
AcDbEntity
  8
0
100
AcDbBlockEnd
  0
BLOCK
  5
465
330
459
100
AcDbEntity
  8
0
100
AcDbBlockBegin
  2
*D12
 70
     1
 10
0.0
 20
0.0
 30
0.0
  3
*D12
  1

  0
LINE
  5
1544
330
459
100
AcDbEntity
  8
実形
 62
     0
370
    15
100
AcDbLine
 10
1694.235600302483
 20
1153.274067115558
 30
0.0
 11
1694.235600302483
 21
1022.81663083867
 31
0.0
  0
LINE
  5
1545
330
459
100
AcDbEntity
  8
実形
 62
     0
370
    15
100
AcDbLine
 10
1709.235600302483
 20
1153.274067115558
 30
0.0
 11
1709.235600302483
 21
1022.81663083867
 31
0.0
  0
LINE
  5
1546
330
459
100
AcDbEntity
  8
実形
 62
     0
370
    18
100
AcDbLine
 10
1694.235600302483
 20
1022.81663083867
 30
0.0
 11
1709.235600302483
 21
1022.81663083867
 31
0.0
  0
MTEXT
  5
1547
330
459
100
AcDbEntity
  8
実形
 62
     0
100
AcDbMText
 10
1734.037910462254
 20
1040.389514557998
 30
0.0
 40
25.0
 41
0.0
 71
     5
 72
     1
  1
15
 73
     1
 44
1.0
1001
ACAD
1000
MTEXTBEGIN
1070
    73
1070
     1
1070
    44
1040
1.0
1070
    74
1070
     0
1000
MTEXTEND
  0
INSERT
  5
1548
330
459
100
AcDbEntity
  8
実形
 62
     0
370
    18
100
AcDbBlockReference
  2
_DotSmall
 10
1694.235600302483
 20
1022.81663083867
 30
0.0
 41
35.0
 42
35.0
 43
35.0
 50
180.0
  0
INSERT
  5
1549
330
459
100
AcDbEntity
  8
実形
 62
     0
370
    18
100
AcDbBlockReference
  2
_DotSmall
 10
1709.235600302483
 20
1022.81663083867
 30
0.0
 41
35.0
 42
35.0
 43
35.0
  0
POINT
  5
154A
330
459
100
AcDbEntity
  8
Defpoints
 62
     0
100
AcDbPoint
 10
1694.235600302483
 20
1218.274067115558
 30
0.0
  0
POINT
  5
154B
330
459
100
AcDbEntity
  8
Defpoints
 62
     0
100
AcDbPoint
 10
1709.235600302483
 20
1218.274067115558
 30
0.0
  0
POINT
  5
154C
330
459
100
AcDbEntity
  8
Defpoints
 62
     0
100
AcDbPoint
 10
1709.235600302483
 20
1022.81663083867
 30
0.0
  0
ENDBLK
  5
466
330
459
100
AcDbEntity
  8
0
100
AcDbBlockEnd
  0
BLOCK
  5
4AE
330
4A4
100
AcDbEntity
  8
0
100
AcDbBlockBegin
  2
*D13
 70
     1
 10
0.0
 20
0.0
 30
0.0
  3
*D13
  1

  0
LINE
  5
14E2
330
4A4
100
AcDbEntity
  8
実形
 62
     0
370
    15
100
AcDbLine
 10
879.2356003024833
 20
1153.274067115558
 30
0.0
 11
879.2356003024833
 21
956.8166308386704
 31
0.0
  0
LINE
  5
14E3
330
4A4
100
AcDbEntity
  8
実形
 62
     0
370
    15
100
AcDbLine
 10
1709.235600302483
 20
1153.274067115558
 30
0.0
 11
1709.235600302483
 21
956.8166308386704
 31
0.0
  0
LINE
  5
14E4
330
4A4
100
AcDbEntity
  8
実形
 62
     0
370
    18
100
AcDbLine
 10
879.2356003024833
 20
956.8166308386704
 30
0.0
 11
1709.235600302483
 21
956.8166308386704
 31
0.0
  0
INSERT
  5
14E5
330
4A4
100
AcDbEntity
  8
実形
 62
     0
370
    18
100
AcDbBlockReference
  2
_DotSmall
 10
879.2356003024833
 20
956.8166308386704
 30
0.0
 41
35.0
 42
35.0
 43
35.0
 50
180.0
  0
INSERT
  5
14E6
330
4A4
100
AcDbEntity
  8
実形
 62
     0
370
    18
100
AcDbBlockReference
  2
_DotSmall
 10
1709.235600302483
 20
956.8166308386704
 30
0.0
 41
35.0
 42
35.0
 43
35.0
  0
MTEXT
  5
14E7
330
4A4
100
AcDbEntity
  8
実形
 62
     0
100
AcDbMText
 10
1294.235600302483
 20
975.5666308386704
 30
0.0
 40
25.0
 41
0.0
 71
     5
 72
     1
  1
830
 73
     1
 44
1.0
1001
ACAD
1000
MTEXTBEGIN
1070
    73
1070
     1
1070
    44
1040
1.0
1070
    74
1070
     0
1000
MTEXTEND
  0
POINT
  5
14E8
330
4A4
100
AcDbEntity
  8
Defpoints
 62
     0
100
AcDbPoint
 10
879.2356003024833
 20
1218.274067115558
 30
0.0
  0
POINT
  5
14E9
330
4A4
100
AcDbEntity
  8
Defpoints
 62
     0
100
AcDbPoint
 10
1709.235600302483
 20
1218.274067115558
 30
0.0
  0
POINT
  5
14EA
330
4A4
100
AcDbEntity
  8
Defpoints
 62
     0
100
AcDbPoint
 10
1709.235600302483
 20
956.8166308386704
 30
0.0
  0
ENDBLK
  5
4AF
330
4A4
100
AcDbEntity
  8
0
100
AcDbBlockEnd
  0
BLOCK
  5
4CA
330
4BF
100
AcDbEntity
  8
0
100
AcDbBlockBegin
  2
*D14
 70
     1
 10
0.0
 20
0.0
 30
0.0
  3
*D14
  1

  0
LINE
  5
15BD
330
4BF
100
AcDbEntity
  8
実形
 62
     0
370
    15
100
AcDbLine
 10
829.2356003024833
 20
598.2740671155579
 30
0.0
 11
772.6479710693693
 21
598.2740671155579
 31
0.0
  0
LINE
  5
15BE
330
4BF
100
AcDbEntity
  8
実形
 62
     0
370
    15
100
AcDbLine
 10
829.2356003024833
 20
583.2740671155579
 30
0.0
 11
772.6479710693693
 21
583.2740671155579
 31
0.0
  0
LINE
  5
15BF
330
4BF
100
AcDbEntity
  8
実形
 62
     0
370
    18
100
AcDbLine
 10
772.6479710693693
 20
598.2740671155579
 30
0.0
 11
772.6479710693693
 21
579.5240671155579
 31
0.0
  0
LINE
  5
15C0
330
4BF
100
AcDbEntity
  8
実形
 62
     0
370
    18
100
AcDbLine
 10
772.6479710693693
 20
598.2740671155579
 30
0.0
 11
772.6479710693693
 21
583.2740671155579
 31
0.0
  0
INSERT
  5
15C1
330
4BF
100
AcDbEntity
  8
実形
 62
     0
370
    18
100
AcDbBlockReference
  2
_DotSmall
 10
772.6479710693693
 20
598.2740671155579
 30
0.0
 41
35.0
 42
35.0
 43
35.0
 50
270.0
  0
POINT
  5
15C2
330
4BF
100
AcDbEntity
  8
Defpoints
 62
     0
100
AcDbPoint
 10
894.2356003024833
 20
598.2740671155579
 30
0.0
  0
POINT
  5
15C3
330
4BF
100
AcDbEntity
  8
Defpoints
 62
     0
100
AcDbPoint
 10
894.2356003024833
 20
583.2740671155579
 30
0.0
  0
POINT
  5
15C4
330
4BF
100
AcDbEntity
  8
Defpoints
 62
     0
100
AcDbPoint
 10
772.6479710693693
 20
583.2740671155579
 30
0.0
  0
ENDBLK
  5
4CB
330
4BF
100
AcDbEntity
  8
0
100
AcDbBlockEnd
  0
BLOCK
  5
4D7
330
4CD
100
AcDbEntity
  8
0
100
AcDbBlockBegin
  2
*D15
 70
     1
 10
0.0
 20
0.0
 30
0.0
  3
*D15
  1

  0
LINE
  5
1518
330
4CD
100
AcDbEntity
  8
実形
 62
     0
370
    15
100
AcDbLine
 10
829.2356003024833
 20
793.2740671155579
 30
0.0
 11
706.6479710693695
 21
793.274067115558
 31
0.0
  0
LINE
  5
1519
330
4CD
100
AcDbEntity
  8
実形
 62
     0
370
    15
100
AcDbLine
 10
829.2356003024833
 20
583.2740671155579
 30
0.0
 11
706.6479710693694
 21
583.2740671155581
 31
0.0
  0
LINE
  5
151A
330
4CD
100
AcDbEntity
  8
実形
 62
     0
370
    18
100
AcDbLine
 10
706.6479710693695
 20
793.274067115558
 30
0.0
 11
706.6479710693694
 21
583.2740671155581
 31
0.0
  0
INSERT
  5
151B
330
4CD
100
AcDbEntity
  8
実形
 62
     0
370
    18
100
AcDbBlockReference
  2
_DotSmall
 10
706.6479710693695
 20
793.274067115558
 30
0.0
 41
35.0
 42
35.0
 43
35.0
 50
90.0
  0
INSERT
  5
151C
330
4CD
100
AcDbEntity
  8
実形
 62
     0
370
    18
100
AcDbBlockReference
  2
_DotSmall
 10
706.6479710693694
 20
583.2740671155581
 30
0.0
 41
35.0
 42
35.0
 43
35.0
 50
270.0
  0
MTEXT
  5
151D
330
4CD
100
AcDbEntity
  8
実形
 62
     0
100
AcDbMText
 10
687.8979710693693
 20
688.2740671155581
 30
0.0
 40
25.0
 41
0.0
 71
     5
 72
     1
  1
210
 11
0.0000000000000001
 21
1.0
 31
0.0
 73
     1
 44
1.0
1001
ACAD
1000
MTEXTBEGIN
1070
    73
1070
     1
1070
    44
1040
1.0
1070
    74
1070
     0
1000
MTEXTEND
  0
POINT
  5
151E
330
4CD
100
AcDbEntity
  8
Defpoints
 62
     0
100
AcDbPoint
 10
894.2356003024833
 20
793.2740671155579
 30
0.0
  0
POINT
  5
151F
330
4CD
100
AcDbEntity
  8
Defpoints
 62
     0
100
AcDbPoint
 10
894.2356003024833
 20
583.2740671155579
 30
0.0
  0
POINT
  5
1520
330
4CD
100
AcDbEntity
  8
Defpoints
 62
     0
100
AcDbPoint
 10
706.6479710693694
 20
583.2740671155581
 30
0.0
  0
ENDBLK
  5
4D8
330
4CD
100
AcDbEntity
  8
0
100
AcDbBlockEnd
  0
BLOCK
  5
503
330
4F9
100
AcDbEntity
  8
0
100
AcDbBlockBegin
  2
*D16
 70
     1
 10
0.0
 20
0.0
 30
0.0
  3
*D16
  1

  0
LINE
  5
14F4
330
4F9
100
AcDbEntity
  8
実形
 62
     0
370
    15
100
AcDbLine
 10
984.2356003024834
 20
508.2740671155579
 30
0.0
 11
984.2356003024834
 21
456.846659814485
 31
0.0
  0
LINE
  5
14F5
330
4F9
100
AcDbEntity
  8
実形
 62
     0
370
    15
100
AcDbLine
 10
1144.235600302483
 20
508.2740671155579
 30
0.0
 11
1144.235600302483
 21
456.846659814485
 31
0.0
  0
LINE
  5
14F6
330
4F9
100
AcDbEntity
  8
実形
 62
     0
370
    18
100
AcDbLine
 10
984.2356003024834
 20
456.846659814485
 30
0.0
 11
1144.235600302483
 21
456.846659814485
 31
0.0
  0
INSERT
  5
14F7
330
4F9
100
AcDbEntity
  8
実形
 62
     0
370
    18
100
AcDbBlockReference
  2
_DotSmall
 10
984.2356003024834
 20
456.846659814485
 30
0.0
 41
35.0
 42
35.0
 43
35.0
 50
180.0
  0
INSERT
  5
14F8
330
4F9
100
AcDbEntity
  8
実形
 62
     0
370
    18
100
AcDbBlockReference
  2
_DotSmall
 10
1144.235600302483
 20
456.846659814485
 30
0.0
 41
35.0
 42
35.0
 43
35.0
  0
MTEXT
  5
14F9
330
4F9
100
AcDbEntity
  8
実形
 62
     0
100
AcDbMText
 10
1064.235600302483
 20
475.596659814485
 30
0.0
 40
25.0
 41
0.0
 71
     5
 72
     1
  1
160
 73
     1
 44
1.0
1001
ACAD
1000
MTEXTBEGIN
1070
    73
1070
     1
1070
    44
1040
1.0
1070
    74
1070
     0
1000
MTEXTEND
  0
POINT
  5
14FA
330
4F9
100
AcDbEntity
  8
Defpoints
 62
     0
100
AcDbPoint
 10
984.2356003024834
 20
573.2740671155579
 30
0.0
  0
POINT
  5
14FB
330
4F9
100
AcDbEntity
  8
Defpoints
 62
     0
100
AcDbPoint
 10
1144.235600302483
 20
573.2740671155579
 30
0.0
  0
POINT
  5
14FC
330
4F9
100
AcDbEntity
  8
Defpoints
 62
     0
100
AcDbPoint
 10
1144.235600302483
 20
456.846659814485
 30
0.0
  0
ENDBLK
  5
504
330
4F9
100
AcDbEntity
  8
0
100
AcDbBlockEnd
  0
BLOCK
  5
510
330
506
100
AcDbEntity
  8
0
100
AcDbBlockBegin
  2
*D17
 70
     1
 10
0.0
 20
0.0
 30
0.0
  3
*D17
  1

  0
LINE
  5
14FD
330
506
100
AcDbEntity
  8
実形
 62
     0
370
    15
100
AcDbLine
 10
973.7356003024833
 20
508.2740671155581
 30
0.0
 11
973.7356003024833
 21
396.8872612455561
 31
0.0
  0
LINE
  5
14FE
330
506
100
AcDbEntity
  8
実形
 62
     0
370
    15
100
AcDbLine
 10
1154.735600302483
 20
508.2740671155579
 30
0.0
 11
1154.735600302483
 21
396.8872612455561
 31
0.0
  0
LINE
  5
14FF
330
506
100
AcDbEntity
  8
実形
 62
     0
370
    18
100
AcDbLine
 10
973.7356003024833
 20
396.8872612455561
 30
0.0
 11
1154.735600302483
 21
396.8872612455561
 31
0.0
  0
INSERT
  5
1500
330
506
100
AcDbEntity
  8
実形
 62
     0
370
    18
100
AcDbBlockReference
  2
_DotSmall
 10
973.7356003024833
 20
396.8872612455561
 30
0.0
 41
35.0
 42
35.0
 43
35.0
 50
180.0
  0
INSERT
  5
1501
330
506
100
AcDbEntity
  8
実形
 62
     0
370
    18
100
AcDbBlockReference
  2
_DotSmall
 10
1154.735600302483
 20
396.8872612455561
 30
0.0
 41
35.0
 42
35.0
 43
35.0
  0
MTEXT
  5
1502
330
506
100
AcDbEntity
  8
実形
 62
     0
100
AcDbMText
 10
1064.235600302483
 20
415.6372612455561
 30
0.0
 40
25.0
 41
0.0
 71
     5
 72
     1
  1
181
 73
     1
 44
1.0
1001
ACAD
1000
MTEXTBEGIN
1070
    73
1070
     1
1070
    44
1040
1.0
1070
    74
1070
     0
1000
MTEXTEND
  0
POINT
  5
1503
330
506
100
AcDbEntity
  8
Defpoints
 62
     0
100
AcDbPoint
 10
973.7356003024833
 20
573.274067115558
 30
0.0
  0
POINT
  5
1504
330
506
100
AcDbEntity
  8
Defpoints
 62
     0
100
AcDbPoint
 10
1154.735600302483
 20
573.2740671155579
 30
0.0
  0
POINT
  5
1505
330
506
100
AcDbEntity
  8
Defpoints
 62
     0
100
AcDbPoint
 10
1154.735600302483
 20
396.8872612455561
 30
0.0
  0
ENDBLK
  5
511
330
506
100
AcDbEntity
  8
0
100
AcDbBlockEnd
  0
BLOCK
  5
12FF
330
12F4
100
AcDbEntity
  8
0
100
AcDbBlockBegin
  2
*D18
 70
     1
 10
0.0
 20
0.0
 30
0.0
  3
*D18
  1

  0
LINE
  5
147F
330
12F4
100
AcDbEntity
  8
実形
 62
     0
370
    18
100
AcDbLine
 10
814.2356003024833
 20
1683.274067115558
 30
0.0
 11
738.7664981535772
 21
1683.274067115558
 31
0.0
  0
LINE
  5
1480
330
12F4
100
AcDbEntity
  8
実形
 62
     0
370
    18
100
AcDbLine
 10
814.2356003024833
 20
1663.274067115558
 30
0.0
 11
738.7664981535772
 21
1663.274067115558
 31
0.0
  0
LINE
  5
1481
330
12F4
100
AcDbEntity
  8
実形
 62
     0
370
    18
100
AcDbLine
 10
738.7664981535772
 20
1683.274067115558
 30
0.0
 11
738.7664981535772
 21
1663.274067115558
 31
0.0
  0
MTEXT
  5
1482
330
12F4
100
AcDbEntity
  8
実形
 62
     0
100
AcDbMText
 10
717.4271891342614
 20
1657.874649539284
 30
0.0
 40
25.0
 41
0.0
 71
     5
 72
     1
  1
20
 11
0.0000000000000001
 21
1.0
 31
0.0
 73
     1
 44
1.0
1001
ACAD
1000
MTEXTBEGIN
1070
    73
1070
     1
1070
    44
1040
1.0
1070
    74
1070
     0
1000
MTEXTEND
  0
INSERT
  5
1483
330
12F4
100
AcDbEntity
  8
実形
 62
     0
370
    18
100
AcDbBlockReference
  2
_DotSmall
 10
738.7664981535772
 20
1683.274067115558
 30
0.0
 41
35.0
 42
35.0
 43
35.0
 50
90.0
  0
INSERT
  5
1484
330
12F4
100
AcDbEntity
  8
実形
 62
     0
370
    18
100
AcDbBlockReference
  2
_DotSmall
 10
738.7664981535772
 20
1663.274067115558
 30
0.0
 41
35.0
 42
35.0
 43
35.0
 50
270.0
  0
POINT
  5
1485
330
12F4
100
AcDbEntity
  8
Defpoints
 62
     0
100
AcDbPoint
 10
879.2356003024833
 20
1683.274067115558
 30
0.0
  0
POINT
  5
1486
330
12F4
100
AcDbEntity
  8
Defpoints
 62
     0
100
AcDbPoint
 10
879.2356003024833
 20
1663.274067115558
 30
0.0
  0
POINT
  5
1487
330
12F4
100
AcDbEntity
  8
Defpoints
 62
     0
100
AcDbPoint
 10
738.7664981535772
 20
1663.274067115558
 30
0.0
  0
ENDBLK
  5
1300
330
12F4
100
AcDbEntity
  8
0
100
AcDbBlockEnd
  0
BLOCK
  5
1323
330
1319
100
AcDbEntity
  8
0
100
AcDbBlockBegin
  2
*D19
 70
     1
 10
0.0
 20
0.0
 30
0.0
  3
*D19
  1

  0
LINE
  5
1488
330
1319
100
AcDbEntity
  8
実形
 62
     0
370
    18
100
AcDbLine
 10
814.2356003024833
 20
1663.274067115558
 30
0.0
 11
738.7664981535772
 21
1663.274067115558
 31
0.0
  0
LINE
  5
1489
330
1319
100
AcDbEntity
  8
実形
 62
     0
370
    18
100
AcDbLine
 10
814.2356003024833
 20
1253.274067115558
 30
0.0
 11
738.766498153577
 21
1253.274067115558
 31
0.0
  0
LINE
  5
148A
330
1319
100
AcDbEntity
  8
実形
 62
     0
370
    18
100
AcDbLine
 10
738.7664981535772
 20
1663.274067115558
 30
0.0
 11
738.766498153577
 21
1253.274067115558
 31
0.0
  0
INSERT
  5
148B
330
1319
100
AcDbEntity
  8
実形
 62
     0
370
    18
100
AcDbBlockReference
  2
_DotSmall
 10
738.7664981535772
 20
1663.274067115558
 30
0.0
 41
35.0
 42
35.0
 43
35.0
 50
90.0
  0
INSERT
  5
148C
330
1319
100
AcDbEntity
  8
実形
 62
     0
370
    18
100
AcDbBlockReference
  2
_DotSmall
 10
738.766498153577
 20
1253.274067115558
 30
0.0
 41
35.0
 42
35.0
 43
35.0
 50
270.0
  0
MTEXT
  5
148D
330
1319
100
AcDbEntity
  8
実形
 62
     0
100
AcDbMText
 10
720.016498153577
 20
1458.274067115558
 30
0.0
 40
25.0
 41
0.0
 71
     5
 72
     1
  1
410
 11
0.0000000000000001
 21
1.0
 31
0.0
 73
     1
 44
1.0
1001
ACAD
1000
MTEXTBEGIN
1070
    73
1070
     1
1070
    44
1040
1.0
1070
    74
1070
     0
1000
MTEXTEND
  0
POINT
  5
148E
330
1319
100
AcDbEntity
  8
Defpoints
 62
     0
100
AcDbPoint
 10
879.2356003024833
 20
1663.274067115558
 30
0.0
  0
POINT
  5
148F
330
1319
100
AcDbEntity
  8
Defpoints
 62
     0
100
AcDbPoint
 10
879.2356003024833
 20
1253.274067115558
 30
0.0
  0
POINT
  5
1490
330
1319
100
AcDbEntity
  8
Defpoints
 62
     0
100
AcDbPoint
 10
738.766498153577
 20
1253.274067115558
 30
0.0
  0
ENDBLK
  5
1324
330
1319
100
AcDbEntity
  8
0
100
AcDbBlockEnd
  0
BLOCK
  5
1330
330
1326
100
AcDbEntity
  8
0
100
AcDbBlockBegin
  2
*D20
 70
     1
 10
0.0
 20
0.0
 30
0.0
  3
*D20
  1

  0
LINE
  5
1491
330
1326
100
AcDbEntity
  8
実形
 62
     0
370
    18
100
AcDbLine
 10
814.2356003024833
 20
1253.274067115558
 30
0.0
 11
738.766498153577
 21
1253.274067115558
 31
0.0
  0
LINE
  5
1492
330
1326
100
AcDbEntity
  8
実形
 62
     0
370
    18
100
AcDbLine
 10
814.2356003024833
 20
1233.274067115558
 30
0.0
 11
738.766498153577
 21
1233.274067115558
 31
0.0
  0
LINE
  5
1493
330
1326
100
AcDbEntity
  8
実形
 62
     0
370
    18
100
AcDbLine
 10
738.766498153577
 20
1253.274067115558
 30
0.0
 11
738.766498153577
 21
1233.274067115558
 31
0.0
  0
MTEXT
  5
1494
330
1326
100
AcDbEntity
  8
実形
 62
     0
100
AcDbMText
 10
715.9146977200862
 20
1258.891037953052
 30
0.0
 40
25.0
 41
0.0
 71
     5
 72
     1
  1
20
 11
0.0000000000000001
 21
1.0
 31
0.0
 73
     1
 44
1.0
1001
ACAD
1000
MTEXTBEGIN
1070
    73
1070
     1
1070
    44
1040
1.0
1070
    74
1070
     0
1000
MTEXTEND
  0
INSERT
  5
1495
330
1326
100
AcDbEntity
  8
実形
 62
     0
370
    18
100
AcDbBlockReference
  2
_DotSmall
 10
738.766498153577
 20
1253.274067115558
 30
0.0
 41
35.0
 42
35.0
 43
35.0
 50
90.0
  0
INSERT
  5
1496
330
1326
100
AcDbEntity
  8
実形
 62
     0
370
    18
100
AcDbBlockReference
  2
_DotSmall
 10
738.766498153577
 20
1233.274067115558
 30
0.0
 41
35.0
 42
35.0
 43
35.0
 50
270.0
  0
POINT
  5
1497
330
1326
100
AcDbEntity
  8
Defpoints
 62
     0
100
AcDbPoint
 10
879.2356003024833
 20
1253.274067115558
 30
0.0
  0
POINT
  5
1498
330
1326
100
AcDbEntity
  8
Defpoints
 62
     0
100
AcDbPoint
 10
879.2356003024833
 20
1233.274067115558
 30
0.0
  0
POINT
  5
1499
330
1326
100
AcDbEntity
  8
Defpoints
 62
     0
100
AcDbPoint
 10
738.766498153577
 20
1233.274067115558
 30
0.0
  0
ENDBLK
  5
1331
330
1326
100
AcDbEntity
  8
0
100
AcDbBlockEnd
  0
BLOCK
  5
1391
330
1386
100
AcDbEntity
  8
0
100
AcDbBlockBegin
  2
*D21
 70
     1
 10
0.0
 20
0.0
 30
0.0
  3
*D21
  1

  0
LINE
  5
14B6
330
1386
100
AcDbEntity
  8
実形
 62
     0
370
    18
100
AcDbLine
 10
894.2356003024833
 20
1153.274067115558
 30
0.0
 11
894.2356003024833
 21
1088.81663083867
 31
0.0
  0
LINE
  5
14B7
330
1386
100
AcDbEntity
  8
実形
 62
     0
370
    18
100
AcDbLine
 10
914.2356003024833
 20
1153.274067115558
 30
0.0
 11
914.2356003024833
 21
1088.81663083867
 31
0.0
  0
LINE
  5
14B8
330
1386
100
AcDbEntity
  8
実形
 62
     0
370
    18
100
AcDbLine
 10
894.2356003024833
 20
1088.81663083867
 30
0.0
 11
914.2356003024833
 21
1088.81663083867
 31
0.0
  0
MTEXT
  5
14B9
330
1386
100
AcDbEntity
  8
実形
 62
     0
100
AcDbMText
 10
943.1761932842446
 20
1106.096242096206
 30
0.0
 40
25.0
 41
0.0
 71
     5
 72
     1
  1
20
 73
     1
 44
1.0
1001
ACAD
1000
MTEXTBEGIN
1070
    73
1070
     1
1070
    44
1040
1.0
1070
    74
1070
     0
1000
MTEXTEND
  0
INSERT
  5
14BA
330
1386
100
AcDbEntity
  8
実形
 62
     0
370
    18
100
AcDbBlockReference
  2
_DotSmall
 10
894.2356003024833
 20
1088.81663083867
 30
0.0
 41
35.0
 42
35.0
 43
35.0
 50
180.0
  0
INSERT
  5
14BB
330
1386
100
AcDbEntity
  8
実形
 62
     0
370
    18
100
AcDbBlockReference
  2
_DotSmall
 10
914.2356003024833
 20
1088.81663083867
 30
0.0
 41
35.0
 42
35.0
 43
35.0
  0
POINT
  5
14BC
330
1386
100
AcDbEntity
  8
Defpoints
 62
     0
100
AcDbPoint
 10
894.2356003024833
 20
1218.274067115558
 30
0.0
  0
POINT
  5
14BD
330
1386
100
AcDbEntity
  8
Defpoints
 62
     0
100
AcDbPoint
 10
914.2356003024833
 20
1218.274067115558
 30
0.0
  0
POINT
  5
14BE
330
1386
100
AcDbEntity
  8
Defpoints
 62
     0
100
AcDbPoint
 10
914.2356003024833
 20
1088.81663083867
 30
0.0
  0
ENDBLK
  5
1392
330
1386
100
AcDbEntity
  8
0
100
AcDbBlockEnd
  0
BLOCK
  5
139E
330
1394
100
AcDbEntity
  8
0
100
AcDbBlockBegin
  2
*D22
 70
     1
 10
0.0
 20
0.0
 30
0.0
  3
*D22
  1

  0
LINE
  5
14EB
330
1394
100
AcDbEntity
  8
実形
 62
     0
370
    18
100
AcDbLine
 10
914.2356003024833
 20
1153.274067115558
 30
0.0
 11
914.2356003024833
 21
1088.81663083867
 31
0.0
  0
LINE
  5
14EC
330
1394
100
AcDbEntity
  8
実形
 62
     0
370
    18
100
AcDbLine
 10
1674.235600302483
 20
1153.81663083867
 30
0.0
 11
1674.235600302483
 21
1088.81663083867
 31
0.0
  0
LINE
  5
14ED
330
1394
100
AcDbEntity
  8
実形
 62
     0
370
    18
100
AcDbLine
 10
914.2356003024833
 20
1088.81663083867
 30
0.0
 11
1674.235600302483
 21
1088.81663083867
 31
0.0
  0
INSERT
  5
14EE
330
1394
100
AcDbEntity
  8
実形
 62
     0
370
    18
100
AcDbBlockReference
  2
_DotSmall
 10
914.2356003024833
 20
1088.81663083867
 30
0.0
 41
35.0
 42
35.0
 43
35.0
 50
180.0
  0
INSERT
  5
14EF
330
1394
100
AcDbEntity
  8
実形
 62
     0
370
    18
100
AcDbBlockReference
  2
_DotSmall
 10
1674.235600302483
 20
1088.81663083867
 30
0.0
 41
35.0
 42
35.0
 43
35.0
  0
MTEXT
  5
14F0
330
1394
100
AcDbEntity
  8
実形
 62
     0
100
AcDbMText
 10
1294.235600302483
 20
1107.56663083867
 30
0.0
 40
25.0
 41
0.0
 71
     5
 72
     1
  1
760
 73
     1
 44
1.0
1001
ACAD
1000
MTEXTBEGIN
1070
    73
1070
     1
1070
    44
1040
1.0
1070
    74
1070
     0
1000
MTEXTEND
  0
POINT
  5
14F1
330
1394
100
AcDbEntity
  8
Defpoints
 62
     0
100
AcDbPoint
 10
914.2356003024833
 20
1218.274067115558
 30
0.0
  0
POINT
  5
14F2
330
1394
100
AcDbEntity
  8
Defpoints
 62
     0
100
AcDbPoint
 10
1674.235600302483
 20
1088.81663083867
 30
0.0
  0
POINT
  5
14F3
330
1394
100
AcDbEntity
  8
Defpoints
 62
     0
100
AcDbPoint
 10
1674.235600302483
 20
1088.81663083867
 30
0.0
  0
ENDBLK
  5
139F
330
1394
100
AcDbEntity
  8
0
100
AcDbBlockEnd
  0
BLOCK
  5
13AD
330
13A1
100
AcDbEntity
  8
0
100
AcDbBlockBegin
  2
*D23
 70
     1
 10
0.0
 20
0.0
 30
0.0
  3
*D23
  1

  0
LINE
  5
14BF
330
13A1
100
AcDbEntity
  8
実形
 62
     0
370
    18
100
AcDbLine
 10
1674.235600302483
 20
1153.81663083867
 30
0.0
 11
1674.235600302483
 21
1088.81663083867
 31
0.0
  0
LINE
  5
14C0
330
13A1
100
AcDbEntity
  8
実形
 62
     0
370
    18
100
AcDbLine
 10
1694.235600302483
 20
1153.274067115558
 30
0.0
 11
1694.235600302483
 21
1088.81663083867
 31
0.0
  0
LINE
  5
14C1
330
13A1
100
AcDbEntity
  8
実形
 62
     0
370
    18
100
AcDbLine
 10
1674.235600302483
 20
1088.81663083867
 30
0.0
 11
1694.235600302483
 21
1088.81663083867
 31
0.0
  0
MTEXT
  5
14C2
330
13A1
100
AcDbEntity
  8
実形
 62
     0
100
AcDbMText
 10
1645.13535958563
 20
1107.376176510658
 30
0.0
 40
25.0
 41
0.0
 71
     5
 72
     1
  1
20
 73
     1
 44
1.0
1001
ACAD
1000
MTEXTBEGIN
1070
    73
1070
     1
1070
    44
1040
1.0
1070
    74
1070
     0
1000
MTEXTEND
  0
INSERT
  5
14C3
330
13A1
100
AcDbEntity
  8
実形
 62
     0
370
    18
100
AcDbBlockReference
  2
_DotSmall
 10
1674.235600302483
 20
1088.81663083867
 30
0.0
 41
35.0
 42
35.0
 43
35.0
 50
180.0
  0
INSERT
  5
14C4
330
13A1
100
AcDbEntity
  8
実形
 62
     0
370
    18
100
AcDbBlockReference
  2
_DotSmall
 10
1694.235600302483
 20
1088.81663083867
 30
0.0
 41
35.0
 42
35.0
 43
35.0
  0
POINT
  5
14C5
330
13A1
100
AcDbEntity
  8
Defpoints
 62
     0
100
AcDbPoint
 10
1674.235600302483
 20
1088.81663083867
 30
0.0
  0
POINT
  5
14C6
330
13A1
100
AcDbEntity
  8
Defpoints
 62
     0
100
AcDbPoint
 10
1694.235600302483
 20
1218.274067115558
 30
0.0
  0
POINT
  5
14C7
330
13A1
100
AcDbEntity
  8
Defpoints
 62
     0
100
AcDbPoint
 10
1694.235600302483
 20
1088.81663083867
 30
0.0
  0
ENDBLK
  5
13AE
330
13A1
100
AcDbEntity
  8
0
100
AcDbBlockEnd
  0
BLOCK
  5
141C
330
1412
100
AcDbEntity
  8
0
100
AcDbBlockBegin
  2
*D24
 70
     1
 10
0.0
 20
0.0
 30
0.0
  3
*D24
  1

  0
LINE
  5
1665
330
1412
100
AcDbEntity
  8
実形
 62
     0
370
    18
100
AcDbLine
 10
829.2356003024833
 20
598.2740671155579
 30
0.0
 11
772.6479710693693
 21
598.2740671155579
 31
0.0
  0
LINE
  5
1666
330
1412
100
AcDbEntity
  8
実形
 62
     0
370
    18
100
AcDbLine
 10
829.2356003024833
 20
778.2740671155579
 30
0.0
 11
772.6479710693694
 21
778.2740671155579
 31
0.0
  0
LINE
  5
1667
330
1412
100
AcDbEntity
  8
実形
 62
     0
370
    18
100
AcDbLine
 10
772.6479710693693
 20
598.2740671155579
 30
0.0
 11
772.6479710693694
 21
778.2740671155579
 31
0.0
  0
MTEXT
  5
1668
330
1412
100
AcDbEntity
  8
実形
 62
     0
100
AcDbMText
 10
745.7999378062486
 20
686.9459773419166
 30
0.0
 40
25.0
 41
0.0
 71
     5
 72
     1
  1
180
 11
0.0000000000000001
 21
1.0
 31
0.0
 73
     1
 44
1.0
1001
ACAD
1000
MTEXTBEGIN
1070
    73
1070
     1
1070
    44
1040
1.0
1070
    74
1070
     0
1000
MTEXTEND
  0
INSERT
  5
1669
330
1412
100
AcDbEntity
  8
実形
 62
     0
370
    18
100
AcDbBlockReference
  2
_DotSmall
 10
772.6479710693693
 20
598.2740671155579
 30
0.0
 41
35.0
 42
35.0
 43
35.0
 50
270.0
  0
INSERT
  5
166A
330
1412
100
AcDbEntity
  8
実形
 62
     0
370
    18
100
AcDbBlockReference
  2
_DotSmall
 10
772.6479710693694
 20
778.2740671155579
 30
0.0
 41
35.0
 42
35.0
 43
35.0
 50
90.0
  0
POINT
  5
166B
330
1412
100
AcDbEntity
  8
Defpoints
 62
     0
100
AcDbPoint
 10
894.2356003024833
 20
598.2740671155579
 30
0.0
  0
POINT
  5
166C
330
1412
100
AcDbEntity
  8
Defpoints
 62
     0
100
AcDbPoint
 10
894.2356003024833
 20
778.2740671155579
 30
0.0
  0
POINT
  5
166D
330
1412
100
AcDbEntity
  8
Defpoints
 62
     0
100
AcDbPoint
 10
772.6479710693694
 20
778.2740671155579
 30
0.0
  0
ENDBLK
  5
141D
330
1412
100
AcDbEntity
  8
0
100
AcDbBlockEnd
  0
BLOCK
  5
1429
330
141F
100
AcDbEntity
  8
0
100
AcDbBlockBegin
  2
*D25
 70
     1
 10
0.0
 20
0.0
 30
0.0
  3
*D25
  1

  0
LINE
  5
165C
330
141F
100
AcDbEntity
  8
実形
 62
     0
370
    18
100
AcDbLine
 10
829.2356003024833
 20
778.2740671155579
 30
0.0
 11
772.6479710693694
 21
778.2740671155579
 31
0.0
  0
LINE
  5
165D
330
141F
100
AcDbEntity
  8
実形
 62
     0
370
    18
100
AcDbLine
 10
829.2356003024833
 20
793.2740671155579
 30
0.0
 11
772.6479710693694
 21
793.2740671155579
 31
0.0
  0
LINE
  5
165E
330
141F
100
AcDbEntity
  8
実形
 62
     0
370
    18
100
AcDbLine
 10
772.6479710693694
 20
778.2740671155579
 30
0.0
 11
772.6479710693694
 21
793.2740671155579
 31
0.0
  0
MTEXT
  5
165F
330
141F
100
AcDbEntity
  8
実形
 62
     0
100
AcDbMText
 10
751.0646906621396
 20
768.0025931536029
 30
0.0
 40
25.0
 41
0.0
 71
     5
 72
     1
  1
15
 11
0.0000000000000001
 21
1.0
 31
0.0
 73
     1
 44
1.0
1001
ACAD
1000
MTEXTBEGIN
1070
    73
1070
     1
1070
    44
1040
1.0
1070
    74
1070
     0
1000
MTEXTEND
  0
INSERT
  5
1660
330
141F
100
AcDbEntity
  8
実形
 62
     0
370
    18
100
AcDbBlockReference
  2
_DotSmall
 10
772.6479710693694
 20
778.2740671155579
 30
0.0
 41
35.0
 42
35.0
 43
35.0
 50
270.0
  0
INSERT
  5
1661
330
141F
100
AcDbEntity
  8
実形
 62
     0
370
    18
100
AcDbBlockReference
  2
_DotSmall
 10
772.6479710693694
 20
793.2740671155579
 30
0.0
 41
35.0
 42
35.0
 43
35.0
 50
90.0
  0
POINT
  5
1662
330
141F
100
AcDbEntity
  8
Defpoints
 62
     0
100
AcDbPoint
 10
894.2356003024833
 20
778.2740671155579
 30
0.0
  0
POINT
  5
1663
330
141F
100
AcDbEntity
  8
Defpoints
 62
     0
100
AcDbPoint
 10
894.2356003024833
 20
793.2740671155579
 30
0.0
  0
POINT
  5
1664
330
141F
100
AcDbEntity
  8
Defpoints
 62
     0
100
AcDbPoint
 10
772.6479710693694
 20
793.2740671155579
 30
0.0
  0
ENDBLK
  5
142A
330
141F
100
AcDbEntity
  8
0
100
AcDbBlockEnd
  0
BLOCK
  5
1558
330
154E
100
AcDbEntity
  8
0
100
AcDbBlockBegin
  2
*D26
 70
     1
 10
0.0
 20
0.0
 30
0.0
  3
*D26
  1

  0
LINE
  5
16F9
330
154E
100
AcDbEntity
  8
実形
 62
     0
370
    18
100
AcDbLine
 10
829.2356003024833
 20
778.2740671155579
 30
0.0
 11
772.6479710693694
 21
778.2740671155579
 31
0.0
  0
LINE
  5
16FA
330
154E
100
AcDbEntity
  8
実形
 62
     0
370
    18
100
AcDbLine
 10
814.2356003024833
 20
583.2740671155581
 30
0.0
 11
772.6479710693693
 21
583.2740671155581
 31
0.0
  0
LINE
  5
16FB
330
154E
100
AcDbEntity
  8
実形
 62
     0
370
    18
100
AcDbLine
 10
772.6479710693694
 20
778.2740671155579
 30
0.0
 11
772.6479710693693
 21
583.2740671155581
 31
0.0
  0
MTEXT
  5
16FC
330
154E
100
AcDbEntity
  8
実形
 62
     0
100
AcDbMText
 10
755.8239560718484
 20
553.9326193573524
 30
0.0
 40
25.0
 41
0.0
 71
     5
 72
     1
  1
8
 11
0.0000000000000001
 21
1.0
 31
0.0
 73
     1
 44
1.0
1001
ACAD
1000
MTEXTBEGIN
1070
    73
1070
     1
1070
    44
1040
1.0
1070
    74
1070
     0
1000
MTEXTEND
  0
INSERT
  5
16FD
330
154E
100
AcDbEntity
  8
実形
 62
     0
370
    18
100
AcDbBlockReference
  2
_DotSmall
 10
772.6479710693694
 20
778.2740671155579
 30
0.0
 41
35.0
 42
35.0
 43
35.0
 50
90.0
  0
INSERT
  5
16FE
330
154E
100
AcDbEntity
  8
実形
 62
     0
370
    18
100
AcDbBlockReference
  2
_DotSmall
 10
772.6479710693693
 20
583.2740671155581
 30
0.0
 41
35.0
 42
35.0
 43
35.0
 50
270.0
  0
POINT
  5
16FF
330
154E
100
AcDbEntity
  8
Defpoints
 62
     0
100
AcDbPoint
 10
894.2356003024833
 20
778.2740671155579
 30
0.0
  0
POINT
  5
1700
330
154E
100
AcDbEntity
  8
Defpoints
 62
     0
100
AcDbPoint
 10
879.2356003024833
 20
583.2740671155581
 30
0.0
  0
POINT
  5
1701
330
154E
100
AcDbEntity
  8
Defpoints
 62
     0
100
AcDbPoint
 10
772.6479710693693
 20
583.2740671155581
 30
0.0
  0
ENDBLK
  5
1559
330
154E
100
AcDbEntity
  8
0
100
AcDbBlockEnd
  0
BLOCK
  5
167A
330
1670
100
AcDbEntity
  8
0
100
AcDbBlockBegin
  2
*D27
 70
     1
 10
0.0
 20
0.0
 30
0.0
  3
*D27
  1

  0
LINE
  5
16E7
330
1670
100
AcDbEntity
  8
実形
 62
     0
370
    18
100
AcDbLine
 10
830.9103238275165
 20
573.2740671155579
 30
0.0
 11
772.6479710693693
 21
573.2740671155579
 31
0.0
  0
LINE
  5
16E8
330
1670
100
AcDbEntity
  8
実形
 62
     0
370
    18
100
AcDbLine
 10
814.2356003024833
 20
793.2740671155579
 30
0.0
 11
772.6479710693694
 21
793.2740671155579
 31
0.0
  0
LINE
  5
16E9
330
1670
100
AcDbEntity
  8
実形
 62
     0
370
    18
100
AcDbLine
 10
772.6479710693693
 20
573.2740671155579
 30
0.0
 11
772.6479710693694
 21
793.2740671155579
 31
0.0
  0
INSERT
  5
16EA
330
1670
100
AcDbEntity
  8
実形
 62
     0
370
    18
100
AcDbBlockReference
  2
_DotSmall
 10
772.6479710693693
 20
573.2740671155579
 30
0.0
 41
35.0
 42
35.0
 43
35.0
 50
270.0
  0
INSERT
  5
16EB
330
1670
100
AcDbEntity
  8
実形
 62
     0
370
    18
100
AcDbBlockReference
  2
_DotSmall
 10
772.6479710693694
 20
793.2740671155579
 30
0.0
 41
35.0
 42
35.0
 43
35.0
 50
90.0
  0
MTEXT
  5
16EC
330
1670
100
AcDbEntity
  8
実形
 62
     0
100
AcDbMText
 10
753.8979710693691
 20
604.3330451782611
 30
0.0
 40
25.0
 41
0.0
 71
     5
 72
     1
  1
15
 11
0.0000000000000001
 21
1.0
 31
0.0
 73
     1
 44
1.0
1001
ACAD
1000
MTEXTBEGIN
1070
    73
1070
     1
1070
    44
1040
1.0
1070
    74
1070
     0
1000
MTEXTEND
  0
POINT
  5
16ED
330
1670
100
AcDbEntity
  8
Defpoints
 62
     0
100
AcDbPoint
 10
895.9103238275165
 20
573.2740671155579
 30
0.0
  0
POINT
  5
16EE
330
1670
100
AcDbEntity
  8
Defpoints
 62
     0
100
AcDbPoint
 10
879.2356003024833
 20
793.2740671155579
 30
0.0
  0
POINT
  5
16EF
330
1670
100
AcDbEntity
  8
Defpoints
 62
     0
100
AcDbPoint
 10
772.6479710693694
 20
793.2740671155579
 30
0.0
  0
ENDBLK
  5
167B
330
1670
100
AcDbEntity
  8
0
100
AcDbBlockEnd
  0
BLOCK
  5
171A
330
1710
100
AcDbEntity
  8
0
100
AcDbBlockBegin
  2
*D28
 70
     1
 10
0.0
 20
0.0
 30
0.0
  3
*D28
  1

  0
LINE
  5
1725
330
1710
100
AcDbEntity
  8
実形
 62
     0
370
    18
100
AcDbLine
 10
814.2356003024833
 20
793.2740671155579
 30
0.0
 11
653.587806997457
 21
793.274067115558
 31
0.0
  0
LINE
  5
1726
330
1710
100
AcDbEntity
  8
実形
 62
     0
370
    18
100
AcDbLine
 10
705.4604710693693
 20
573.274067115558
 30
0.0
 11
653.5878069974569
 21
573.274067115558
 31
0.0
  0
LINE
  5
1727
330
1710
100
AcDbEntity
  8
実形
 62
     0
370
    18
100
AcDbLine
 10
653.587806997457
 20
793.274067115558
 30
0.0
 11
653.5878069974569
 21
573.274067115558
 31
0.0
  0
INSERT
  5
1728
330
1710
100
AcDbEntity
  8
実形
 62
     0
370
    18
100
AcDbBlockReference
  2
_DotSmall
 10
653.587806997457
 20
793.274067115558
 30
0.0
 41
35.0
 42
35.0
 43
35.0
 50
90.0
  0
INSERT
  5
1729
330
1710
100
AcDbEntity
  8
実形
 62
     0
370
    18
100
AcDbBlockReference
  2
_DotSmall
 10
653.5878069974569
 20
573.274067115558
 30
0.0
 41
35.0
 42
35.0
 43
35.0
 50
270.0
  0
MTEXT
  5
172A
330
1710
100
AcDbEntity
  8
実形
 62
     0
100
AcDbMText
 10
634.8378069974568
 20
683.2740671155582
 30
0.0
 40
25.0
 41
0.0
 71
     5
 72
     1
  1
218
 11
0.0000000000000001
 21
1.0
 31
0.0
 73
     1
 44
1.0
1001
ACAD
1000
MTEXTBEGIN
1070
    73
1070
     1
1070
    44
1040
1.0
1070
    74
1070
     0
1000
MTEXTEND
  0
POINT
  5
172B
330
1710
100
AcDbEntity
  8
Defpoints
 62
     0
100
AcDbPoint
 10
879.2356003024833
 20
793.2740671155579
 30
0.0
  0
POINT
  5
172C
330
1710
100
AcDbEntity
  8
Defpoints
 62
     0
100
AcDbPoint
 10
770.4604710693693
 20
573.2740671155579
 30
0.0
  0
POINT
  5
172D
330
1710
100
AcDbEntity
  8
Defpoints
 62
     0
100
AcDbPoint
 10
653.5878069974569
 20
573.274067115558
 30
0.0
  0
ENDBLK
  5
171B
330
1710
100
AcDbEntity
  8
0
100
AcDbBlockEnd
  0
BLOCK
  5
1833
330
1832
100
AcDbEntity
  8
0
100
AcDbBlockBegin
  2
_Dot
 70
     0
 10
0.0
 20
0.0
 30
0.0
  3
_Dot
  1

  0
LWPOLYLINE
  5
1834
330
1832
100
AcDbEntity
  8
0
 62
     0
100
AcDbPolyline
 90
        2
 70
     1
 43
0.5
 10
-0.25
 20
0.0
 42
1.0
 10
0.25
 20
0.0
 42
1.0
  0
LINE
  5
1835
330
1832
100
AcDbEntity
  8
0
 62
     0
370
    -2
100
AcDbLine
 10
-0.5
 20
0.0
 30
0.0
 11
-1.0
 21
0.0
 31
0.0
  0
ENDBLK
  5
1836
330
1832
100
AcDbEntity
  8
0
100
AcDbBlockEnd
  0
ENDSEC
  0
SECTION
  2
ENTITIES
  0
LINE
  5
9C
330
1F
100
AcDbEntity
  8
補助
100
AcDbLine
 10
109.0
 20
4.0
 30
0.0
 11
2784.0
 21
4.0
 31
0.0
  0
LINE
  5
A0
330
1F
100
AcDbEntity
  8
補助
100
AcDbLine
 10
2784.0
 20
2024.0
 30
0.0
 11
109.0
 21
2024.0
 31
0.0
  0
LINE
  5
A5
330
1F
100
AcDbEntity
  8
補助
100
AcDbLine
 10
2784.0
 20
4.0
 30
0.0
 11
2784.0
 21
2024.0
 31
0.0
  0
LINE
  5
2E6
330
1F
100
AcDbEntity
  8
実形
100
AcDbLine
 10
879.2356003024833
 20
793.2740671155579
 30
0.0
 11
1709.235600302483
 21
793.2740671155579
 31
0.0
  0
CIRCLE
  5
2EB
330
1F
100
AcDbEntity
  8
実形
100
AcDbCircle
 10
1064.235600302483
 20
1458.274067115558
 30
0.0
 40
80.0
  0
CIRCLE
  5
2EE
330
1F
100
AcDbEntity
  8
実形
100
AcDbCircle
 10
1064.235600302483
 20
1458.274067115558
 30
0.0
 40
90.5
  0
LINE
  5
2F9
330
1F
100
AcDbEntity
  8
実形
100
AcDbLine
 10
973.7356003024833
 20
583.2740671155579
 30
0.0
 11
1144.235600302483
 21
583.2740671155579
 31
0.0
  0
LINE
  5
2FA
330
1F
100
AcDbEntity
  8
実形
100
AcDbLine
 10
1144.235600302483
 20
583.2740671155579
 30
0.0
 11
1154.735600302483
 21
583.2740671155579
 31
0.0
  0
LINE
  5
2FB
330
1F
100
AcDbEntity
  8
実形
100
AcDbLine
 10
1154.735600302483
 20
583.2740671155579
 30
0.0
 11
1154.735600302483
 21
583.2740671155579
 31
0.0
  0
LINE
  5
306
330
1F
100
AcDbEntity
  8
実形
100
AcDbLine
 10
973.7356003024833
 20
583.2740671155579
 30
0.0
 11
973.7356003024833
 21
573.2740671155579
 31
0.0
  0
LINE
  5
307
330
1F
100
AcDbEntity
  8
実形
100
AcDbLine
 10
973.7356003024833
 20
573.2740671155579
 30
0.0
 11
1154.735600302483
 21
573.2740671155579
 31
0.0
  0
LINE
  5
308
330
1F
100
AcDbEntity
  8
実形
100
AcDbLine
 10
1154.735600302483
 20
573.2740671155579
 30
0.0
 11
1154.735600302483
 21
583.2740671155579
 31
0.0
  0
LINE
  5
33A
330
1F
100
AcDbEntity
  8
センター
370
    15
100
AcDbLine
 10
921.6808324213006
 20
1458.274067115558
 30
0.0
 11
1206.790368183666
 21
1458.274067115558
 31
0.0
  0
LINE
  5
33B
330
1F
100
AcDbEntity
  8
センター
370
    15
100
AcDbLine
 10
1064.235600302483
 20
1600.828834996741
 30
0.0
 11
1064.235600302483
 21
1315.719299234375
 31
0.0
  0
LINE
  5
33C
330
1F
100
AcDbEntity
  8
センター
 48
0.5
370
    15
100
AcDbLine
 10
1054.735600302483
 20
661.4906909909714
 30
0.0
 11
1054.735600302483
 21
505.0748706836712
 31
0.0
  0
DIMENSION
  5
35B
330
1F
100
AcDbEntity
  8
実形
100
AcDbDimension
  2
*D4
 10
914.2356003024833
 20
1777.077185278966
 30
0.0
 11
989.2356003024833
 21
1795.827185278966
 31
0.0
 70
    32
 71
     5
 42
150.0
  3
ISO-25
100
AcDbAlignedDimension
 13
1064.235600302483
 23
1529.07900167759
 33
0.0
 14
914.2356003024833
 24
1458.274067115558
 34
0.0
100
AcDbRotatedDimension
1001
ACAD
1000
DSTYLE
1002
{
1070
   371
1070
    18
1002
}
  0
DIMENSION
  5
368
330
1F
100
AcDbEntity
  8
実形
100
AcDbDimension
  2
*D5
 10
1241.836619414706
 20
1253.274067115558
 30
0.0
 11
1223.086619414706
 21
1355.774067115558
 31
0.0
 70
    32
 71
     5
 42
204.9999999999998
  3
ISO-25
100
AcDbAlignedDimension
 13
1134.735600302483
 23
1458.274067115558
 33
0.0
 14
1644.235600302483
 24
1253.274067115558
 34
0.0
 50
90.0
100
AcDbRotatedDimension
1001
ACAD
1000
DSTYLE
1002
{
1070
   371
1070
    18
1002
}
  0
TEXT
  5
3AF
330
1F
100
AcDbEntity
  8
実形
100
AcDbText
 10
1534.677899739473
 20
643.0633264800931
 30
0.0
 40
25.0
  1
20R
100
AcDbText
  0
DIMENSION
  5
3CE
330
1F
100
AcDbEntity
  8
実形
100
AcDbDimension
  2
*D6
 10
672.7664981535772
 20
1683.274067115558
 30
0.0
 11
651.0367376199856
 21
1677.773695826441
 31
0.0
 70
   160
  1
15
 71
     5
 42
15.0
  3
ISO-25
100
AcDbAlignedDimension
 13
879.2356003024833
 23
1698.274067115558
 33
0.0
 14
879.2356003024833
 24
1683.274067115558
 34
0.0
 50
90.0
100
AcDbRotatedDimension
1001
ACAD
1000
DSTYLE
1002
{
1070
   279
1070
     2
1070
   371
1070
    18
1002
}
  0
DIMENSION
  5
3DC
330
1F
100
AcDbEntity
  8
実形
100
AcDbDimension
  2
*D7
 10
672.7664981535772
 20
1233.274067115558
 30
0.0
 11
654.0164981535771
 21
1458.274067115558
 31
0.0
 70
    32
 71
     5
 42
450.0
  3
ISO-25
100
AcDbAlignedDimension
 13
879.2356003024833
 23
1683.274067115558
 33
0.0
 14
879.2356003024833
 24
1233.274067115558
 34
0.0
 50
90.0
100
AcDbRotatedDimension
1001
ACAD
1000
DSTYLE
1002
{
1070
   371
1070
    18
1070
   279
1070
     1
1002
}
  0
DIMENSION
  5
3E9
330
1F
100
AcDbEntity
  8
実形
100
AcDbDimension
  2
*D8
 10
672.7664981535772
 20
1218.274067115558
 30
0.0
 11
649.3648611830685
 21
1239.244116954427
 31
0.0
 70
   160
 71
     5
 42
15.0
  3
ISO-25
100
AcDbAlignedDimension
 13
879.2356003024833
 23
1233.274067115558
 33
0.0
 14
879.2356003024833
 24
1218.274067115558
 34
0.0
 50
90.0
100
AcDbRotatedDimension
1001
ACAD
1000
DSTYLE
1002
{
1070
   371
1070
    18
1070
   279
1070
     2
1002
}
  0
DIMENSION
  5
3F6
330
1F
100
AcDbEntity
  8
実形
100
AcDbDimension
  2
*D9
 10
606.7664981535772
 20
1218.274067115558
 30
0.0
 11
588.0164981535771
 21
1458.274067115558
 31
0.0
 70
    32
 71
     5
 42
480.0
  3
ISO-25
100
AcDbAlignedDimension
 13
879.2356003024833
 23
1698.274067115558
 33
0.0
 14
879.2356003024833
 24
1218.274067115558
 34
0.0
 50
90.0
100
AcDbRotatedDimension
1001
ACAD
1000
DSTYLE
1002
{
1070
   371
1070
    18
1002
}
  0
DIMENSION
  5
43D
330
1F
100
AcDbEntity
  8
実形
100
AcDbDimension
  2
*D10
 10
894.2356003024833
 20
1022.81663083867
 30
0.0
 11
953.7356003024834
 21
1022.81663083867
 31
0.0
 70
   160
  1
 
 71
     5
 42
15.0
  3
ISO-25
100
AcDbAlignedDimension
 13
879.2356003024833
 23
1218.274067115558
 33
0.0
 14
894.2356003024833
 24
1218.274067115558
 34
0.0
100
AcDbRotatedDimension
1001
ACAD
1000
DSTYLE
1002
{
1070
   371
1070
    18
1002
}
  0
DIMENSION
  5
44B
330
1F
100
AcDbEntity
  8
実形
100
AcDbDimension
  2
*D11
 10
1694.235600302483
 20
1022.81663083867
 30
0.0
 11
1294.235600302483
 21
1041.56663083867
 31
0.0
 70
    32
 71
     5
 42
800.0
  3
ISO-25
100
AcDbAlignedDimension
 13
894.2356003024833
 23
1218.274067115558
 33
0.0
 14
1694.235600302483
 24
1218.274067115558
 34
0.0
100
AcDbRotatedDimension
1001
ACAD
1000
DSTYLE
1002
{
1070
   371
1070
    18
1070
   279
1070
     1
1002
}
  0
DIMENSION
  5
458
330
1F
100
AcDbEntity
  8
実形
100
AcDbDimension
  2
*D12
 10
1709.235600302483
 20
1022.81663083867
 30
0.0
 11
1734.037910462254
 21
1040.389514557998
 31
0.0
 70
   160
  1
15
 71
     5
 42
15.0
  3
ISO-25
100
AcDbAlignedDimension
 13
1694.235600302483
 23
1218.274067115558
 33
0.0
 14
1709.235600302483
 24
1218.274067115558
 34
0.0
100
AcDbRotatedDimension
1001
ACAD
1000
DSTYLE
1002
{
1070
   371
1070
    18
1070
   279
1070
     2
1002
}
  0
TEXT
  5
494
330
1F
100
AcDbEntity
  8
実形
100
AcDbText
 10
838.1385146446946
 20
1024.180359540389
 30
0.0
 40
25.0
  1
15
100
AcDbText
  0
DIMENSION
  5
4A3
330
1F
100
AcDbEntity
  8
実形
100
AcDbDimension
  2
*D13
 10
1709.235600302483
 20
956.8166308386704
 30
0.0
 11
1294.235600302483
 21
975.5666308386704
 31
0.0
 70
    32
 71
     5
 42
830.0
  3
ISO-25
100
AcDbAlignedDimension
 13
879.2356003024833
 23
1218.274067115558
 33
0.0
 14
1709.235600302483
 24
1218.274067115558
 34
0.0
100
AcDbRotatedDimension
1001
ACAD
1000
DSTYLE
1002
{
1070
   371
1070
    18
1002
}
  0
DIMENSION
  5
4BE
330
1F
100
AcDbEntity
  8
実形
100
AcDbDimension
  2
*D14
 10
772.6479710693693
 20
583.2740671155579
 30
0.0
 11
775.3438498147763
 21
585.7740671155581
 31
0.0
 70
    32
  1
 
 71
     5
 42
15.0
  3
ISO-25
100
AcDbAlignedDimension
 13
894.2356003024833
 23
598.2740671155579
 33
0.0
 14
894.2356003024833
 24
583.2740671155579
 34
0.0
 50
90.0
100
AcDbRotatedDimension
1001
ACAD
1000
DSTYLE
1002
{
1070
   282
1070
     1
1070
   279
1070
     2
1070
   371
1070
    18
1002
}
  0
DIMENSION
  5
4CC
330
1F
100
AcDbEntity
  8
実形
100
AcDbDimension
  2
*D15
 10
706.6479710693694
 20
583.2740671155581
 30
0.0
 11
687.8979710693693
 21
688.2740671155581
 31
0.0
 70
    32
 71
     5
 42
210.0
  3
ISO-25
100
AcDbAlignedDimension
 13
894.2356003024833
 23
793.2740671155579
 33
0.0
 14
894.2356003024833
 24
583.2740671155579
 34
0.0
 50
90.0
100
AcDbRotatedDimension
1001
ACAD
1000
DSTYLE
1002
{
1070
   371
1070
    18
1002
}
  0
DIMENSION
  5
4F8
330
1F
100
AcDbEntity
  8
実形
100
AcDbDimension
  2
*D16
 10
1144.235600302483
 20
456.846659814485
 30
0.0
 11
1064.235600302483
 21
475.596659814485
 31
0.0
 70
    32
 71
     5
 42
160.0
  3
ISO-25
100
AcDbAlignedDimension
 13
984.2356003024834
 23
573.2740671155579
 33
0.0
 14
1144.235600302483
 24
573.2740671155579
 34
0.0
100
AcDbRotatedDimension
1001
ACAD
1000
DSTYLE
1002
{
1070
   371
1070
    18
1002
}
  0
DIMENSION
  5
505
330
1F
100
AcDbEntity
  8
実形
100
AcDbDimension
  2
*D17
 10
1154.735600302483
 20
396.8872612455561
 30
0.0
 11
1064.235600302483
 21
415.6372612455561
 31
0.0
 70
    32
 71
     5
 42
181.0
  3
ISO-25
100
AcDbAlignedDimension
 13
973.7356003024833
 23
573.274067115558
 33
0.0
 14
1154.735600302483
 24
573.2740671155579
 34
0.0
100
AcDbRotatedDimension
1001
ACAD
1000
DSTYLE
1002
{
1070
   371
1070
    18
1002
}
  0
LEADER
  5
7D2
330
1F
100
AcDbEntity
  8
実形
100
AcDbLeader
  3
ISO-25
 40
25.0
 41
16.66666666666666
 76
     2
 10
1656.122043889304
 20
613.5378577350666
 30
0.0
 10
1608.183545594254
 20
644.0200794995217
 30
0.0
213
0.0
223
-12.5
233
0.0
1001
ACAD
1000
DSTYLE
1002
{
1070
    41
1040
25.0
1070
   147
1040
6.25
1070
    77
1070
     0
1070
    73
1070
     1
1070
    74
1070
     1
1070
   279
1070
     1
1070
   342
1005
DA
1002
}
  0
TEXT
  5
8C9
330
1F
100
AcDbEntity
  8
0
100
AcDbText
 10
249.2632881086038
 20
83.52862940911927
 30
0.0
 40
30.0
  1
※実寸には製造上の誤差が多少生ずる場合があります。シンクの穴あけ加工は現物合わせにてお願いします。
100
AcDbText
  0
LINE
  5
F27
330
1F
100
AcDbEntity
  8
実形
100
AcDbLine
 10
879.2356003024833
 20
793.2740671155579
 30
0.0
 11
1709.235600302483
 21
793.2740671155579
 31
0.0
  0
LINE
  5
105D
330
1F
100
AcDbEntity
  8
実形
100
AcDbLine
 10
1154.735600302483
 20
583.2740671155579
 30
0.0
 11
973.7356003024833
 21
583.2740671155579
 31
0.0
  0
LINE
  5
10B2
330
1F
100
AcDbEntity
  8
補助
100
AcDbLine
 10
2064.0
 20
134.0
 30
0.0
 11
2784.0
 21
134.0
 31
0.0
  0
LINE
  5
10B3
330
1F
100
AcDbEntity
  8
補助
100
AcDbLine
 10
2064.0
 20
199.0
 30
0.0
 11
2784.0
 21
199.0
 31
0.0
  0
LINE
  5
10B4
330
1F
100
AcDbEntity
  8
補助
100
AcDbLine
 10
2064.0
 20
69.0
 30
0.0
 11
2784.0
 21
69.0
 31
0.0
  0
TEXT
  5
10B5
330
1F
100
AcDbEntity
  8
補助
100
AcDbText
 10
2086.666666666667
 20
149.0
 30
0.0
 40
35.0
  1
品番
 72
     4
 11
2124.0
 21
166.5
 31
0.0
100
AcDbText
  0
TEXT
  5
10B6
330
1F
100
AcDbEntity
  8
補助
100
AcDbText
 10
2086.666666666667
 20
84.0
 30
0.0
 40
35.0
  1
尺度
 72
     4
 11
2124.0
 21
101.5
 31
0.0
100
AcDbText
  0
LINE
  5
10B7
330
1F
100
AcDbEntity
  8
補助
100
AcDbLine
 10
2064.0
 20
4.0
 30
0.0
 11
2064.0
 21
199.0
 31
0.0
  0
TEXT
  5
10B8
330
1F
100
AcDbEntity
  8
0
100
AcDbText
 10
2271.083333333334
 20
149.0
 30
0.0
 40
35.0
  1
TBK800-450DAN
 72
     4
 11
2484.0
 21
166.5
 31
0.0
100
AcDbText
  0
LINE
  5
10B9
330
1F
100
AcDbEntity
  8
補助
100
AcDbLine
 10
2184.0
 20
69.0
 30
0.0
 11
2784.0
 21
69.0
 31
0.0
  0
TEXT
  5
10BA
330
1F
100
AcDbEntity
  8
補助
100
AcDbText
 10
2300.255774665348
 20
16.49999999999999
 30
0.0
 40
40.0
  1
中外交易株式会社
 72
     4
 11
2488.255774665347
 21
36.5
 31
0.0
100
AcDbText
  0
LINE
  5
10BB
330
1F
100
AcDbEntity
  8
補助
100
AcDbLine
 10
2184.0
 20
69.0
 30
0.0
 11
2184.0
 21
199.0
 31
0.0
  0
HATCH
  5
10BC
330
1F
100
AcDbEntity
  8
補助
100
AcDbHatch
 10
0.0
 20
0.0
 30
0.0
210
0.0
220
0.0
230
1.0
  2
SOLID
 70
     1
 71
     1
 91
        3
 92
        1
 93
        4
 72
     2
 10
2257.166198313996
 20
36.5
 40
20.0
 50
11.64772366707341
 51
342.6561058784909
 73
     1
 72
     1
 10
2276.256852341323
 20
30.53787547858514
 11
2252.166198313995
 21
30.53787547858519
 72
     1
 10
2252.166198313995
 20
30.53787547858519
 11
2252.166198313995
 21
40.53787547858519
 72
     1
 10
2252.166198313995
 20
40.53787547858519
 11
2276.75434681301
 21
40.53787547858519
 97
        4
330
10BD
330
10BF
330
10C0
330
10C1
 92
        1
 93
        4
 72
     2
 10
2188.255774665348
 20
36.5
 40
20.0
 50
11.64772366707341
 51
342.6561058784909
 73
     1
 72
     1
 10
2207.346428692676
 20
30.53787547858514
 11
2183.255774665347
 21
30.53787547858519
 72
     1
 10
2183.255774665347
 20
30.53787547858519
 11
2183.255774665347
 21
40.53787547858519
 72
     1
 10
2183.255774665347
 20
40.53787547858519
 11
2207.843923164362
 21
40.53787547858519
 97
        4
330
10BE
330
10C7
330
10C8
330
10C9
 92
        1
 93
        5
 72
     1
 10
2245.64189404294
 20
56.5
 11
2210.641894042939
 21
56.5
 72
     1
 10
2210.641894042939
 20
56.5
 11
2210.641894042939
 21
16.5
 72
     1
 10
2210.641894042939
 20
16.5
 11
2245.64189404294
 21
16.5
 72
     1
 10
2245.64189404294
 20
16.5
 11
2210.641894042939
 21
36.5
 72
     1
 10
2210.641894042939
 20
36.5
 11
2245.64189404294
 21
56.5
 97
        5
330
10C2
330
10C6
330
10C5
330
10C4
330
10C3
 75
     0
 76
     1
 98
        1
 10
-60.0
 20
0.0
  0
ARC
  5
10BD
102
{ACAD_REACTORS
330
10BC
102
}
330
1F
100
AcDbEntity
  8
補助
370
     5
100
AcDbCircle
 10
2257.166198313996
 20
36.5
 30
0.0
 40
20.0
100
AcDbArc
 50
11.64772366707341
 51
342.6561058784909
  0
ARC
  5
10BE
102
{ACAD_REACTORS
330
10BC
102
}
330
1F
100
AcDbEntity
  8
補助
370
     5
100
AcDbCircle
 10
2188.255774665348
 20
36.5
 30
0.0
 40
20.0
100
AcDbArc
 50
11.64772366707341
 51
342.6561058784909
  0
LINE
  5
10BF
102
{ACAD_REACTORS
330
10BC
102
}
330
1F
100
AcDbEntity
  8
補助
370
     5
100
AcDbLine
 10
2252.166198313995
 20
30.53787547858519
 30
0.0
 11
2276.256852341323
 21
30.53787547858514
 31
0.0
  0
LINE
  5
10C0
102
{ACAD_REACTORS
330
10BC
102
}
330
1F
100
AcDbEntity
  8
補助
370
     5
100
AcDbLine
 10
2252.166198313995
 20
40.53787547858519
 30
0.0
 11
2252.166198313995
 21
30.53787547858519
 31
0.0
  0
LINE
  5
10C1
102
{ACAD_REACTORS
330
10BC
102
}
330
1F
100
AcDbEntity
  8
補助
370
     5
100
AcDbLine
 10
2276.75434681301
 20
40.53787547858519
 30
0.0
 11
2252.166198313995
 21
40.53787547858519
 31
0.0
  0
LINE
  5
10C2
102
{ACAD_REACTORS
330
10BC
102
}
330
1F
100
AcDbEntity
  8
補助
370
     5
100
AcDbLine
 10
2245.64189404294
 20
56.5
 30
0.0
 11
2210.641894042939
 21
56.5
 31
0.0
  0
LINE
  5
10C3
102
{ACAD_REACTORS
330
10BC
102
}
330
1F
100
AcDbEntity
  8
補助
370
     5
100
AcDbLine
 10
2210.641894042939
 20
36.5
 30
0.0
 11
2245.64189404294
 21
56.5
 31
0.0
  0
LINE
  5
10C4
102
{ACAD_REACTORS
330
10BC
102
}
330
1F
100
AcDbEntity
  8
補助
370
     5
100
AcDbLine
 10
2245.64189404294
 20
16.5
 30
0.0
 11
2210.641894042939
 21
36.5
 31
0.0
  0
LINE
  5
10C5
102
{ACAD_REACTORS
330
10BC
102
}
330
1F
100
AcDbEntity
  8
補助
370
     5
100
AcDbLine
 10
2210.641894042939
 20
16.5
 30
0.0
 11
2245.64189404294
 21
16.5
 31
0.0
  0
LINE
  5
10C6
102
{ACAD_REACTORS
330
10BC
102
}
330
1F
100
AcDbEntity
  8
補助
370
     5
100
AcDbLine
 10
2210.641894042939
 20
56.5
 30
0.0
 11
2210.641894042939
 21
16.5
 31
0.0
  0
LINE
  5
10C7
102
{ACAD_REACTORS
330
10BC
102
}
330
1F
100
AcDbEntity
  8
補助
370
     5
100
AcDbLine
 10
2183.255774665347
 20
30.53787547858519
 30
0.0
 11
2207.346428692676
 21
30.53787547858514
 31
0.0
  0
LINE
  5
10C8
102
{ACAD_REACTORS
330
10BC
102
}
330
1F
100
AcDbEntity
  8
補助
370
     5
100
AcDbLine
 10
2183.255774665347
 20
40.53787547858519
 30
0.0
 11
2183.255774665347
 21
30.53787547858519
 31
0.0
  0
LINE
  5
10C9
102
{ACAD_REACTORS
330
10BC
102
}
330
1F
100
AcDbEntity
  8
補助
370
     5
100
AcDbLine
 10
2207.843923164362
 20
40.53787547858519
 30
0.0
 11
2183.255774665347
 21
40.53787547858519
 31
0.0
  0
TEXT
  5
10CA
330
1F
100
AcDbEntity
  8
0
100
AcDbText
 10
2430.916666666667
 20
84.0
 30
0.0
 40
35.0
  1
1：10
 72
     4
 11
2484.0
 21
101.5
 31
0.0
100
AcDbText
  0
LINE
  5
10CB
330
1F
100
AcDbEntity
  8
補助
100
AcDbLine
 10
2784.0
 20
4.0
 30
0.0
 11
2784.0
 21
69.0
 31
0.0
  0
LINE
  5
10CC
330
1F
100
AcDbEntity
  8
補助
100
AcDbLine
 10
2784.0
 20
134.0
 30
0.0
 11
2784.0
 21
199.0
 31
0.0
  0
LINE
  5
10CD
330
1F
100
AcDbEntity
  8
補助
100
AcDbLine
 10
2784.0
 20
69.0
 30
0.0
 11
2784.0
 21
134.0
 31
0.0
  0
LINE
  5
1263
330
1F
100
AcDbEntity
  8
実形
100
AcDbLine
 10
914.2356003024833
 20
1643.274067115558
 30
0.0
 11
914.2356003024834
 21
1273.274067115558
 31
0.0
  0
LINE
  5
1264
330
1F
100
AcDbEntity
  8
実形
100
AcDbLine
 10
934.2356003024834
 20
1253.274067115558
 30
0.0
 11
1654.235600302483
 21
1253.274067115558
 31
0.0
  0
LINE
  5
1265
330
1F
100
AcDbEntity
  8
実形
100
AcDbLine
 10
1674.235600302483
 20
1273.274067115558
 30
0.0
 11
1674.235600302484
 21
1643.274067115558
 31
0.0
  0
LINE
  5
1266
330
1F
100
AcDbEntity
  8
実形
100
AcDbLine
 10
1654.235600302484
 20
1663.274067115558
 30
0.0
 11
934.2356003024832
 21
1663.274067115558
 31
0.0
  0
LWPOLYLINE
  5
1267
330
1F
100
AcDbEntity
  8
実形
100
AcDbPolyline
 90
        4
 70
     1
 43
0.0
 10
879.2356003024833
 20
1698.274067115558
 10
1709.235600302483
 20
1698.274067115558
 10
1709.235600302483
 20
1218.274067115558
 10
879.2356003024833
 20
1218.274067115558
  0
LINE
  5
126C
330
1F
100
AcDbEntity
  8
実形
100
AcDbLine
 10
1664.235600302484
 20
1683.274067115558
 30
0.0
 11
924.2356003024831
 21
1683.274067115557
 31
0.0
  0
LINE
  5
126E
330
1F
100
AcDbEntity
  8
実形
100
AcDbLine
 10
1694.235600302483
 20
1263.274067115558
 30
0.0
 11
1694.235600302484
 21
1653.274067115558
 31
0.0
  0
LINE
  5
1270
330
1F
100
AcDbEntity
  8
実形
100
AcDbLine
 10
924.2356003024834
 20
1233.274067115558
 30
0.0
 11
1664.235600302483
 21
1233.274067115557
 31
0.0
  0
LINE
  5
1272
330
1F
100
AcDbEntity
  8
実形
100
AcDbLine
 10
894.2356003024832
 20
1653.274067115557
 30
0.0
 11
894.2356003024835
 21
1263.274067115558
 31
0.0
  0
DIMENSION
  5
12F3
330
1F
100
AcDbEntity
  8
実形
100
AcDbDimension
  2
*D18
 10
738.7664981535772
 20
1663.274067115558
 30
0.0
 11
717.4271891342614
 21
1657.874649539284
 31
0.0
 70
   160
 71
     5
 42
20.00000000000046
  3
ISO-25
100
AcDbAlignedDimension
 13
879.2356003024833
 23
1683.274067115558
 33
0.0
 14
879.2356003024833
 24
1663.274067115558
 34
0.0
 50
90.0
100
AcDbRotatedDimension
1001
ACAD
1000
DSTYLE
1002
{
1070
   279
1070
     2
1070
   371
1070
    18
1070
   372
1070
    18
1002
}
  0
DIMENSION
  5
1318
330
1F
100
AcDbEntity
  8
実形
100
AcDbDimension
  2
*D19
 10
738.766498153577
 20
1253.274067115558
 30
0.0
 11
720.016498153577
 21
1458.274067115558
 31
0.0
 70
    32
 71
     5
 42
409.9999999999997
  3
ISO-25
100
AcDbAlignedDimension
 13
879.2356003024833
 23
1663.274067115558
 33
0.0
 14
879.2356003024833
 24
1253.274067115558
 34
0.0
 50
90.0
100
AcDbRotatedDimension
1001
ACAD
1000
DSTYLE
1002
{
1070
   279
1070
     2
1070
   371
1070
    18
1070
   372
1070
    18
1002
}
  0
DIMENSION
  5
1325
330
1F
100
AcDbEntity
  8
実形
100
AcDbDimension
  2
*D20
 10
738.766498153577
 20
1233.274067115558
 30
0.0
 11
715.9146977200862
 21
1258.891037953052
 31
0.0
 70
   160
 71
     5
 42
20.0
  3
ISO-25
100
AcDbAlignedDimension
 13
879.2356003024833
 23
1253.274067115558
 33
0.0
 14
879.2356003024833
 24
1233.274067115558
 34
0.0
 50
90.0
100
AcDbRotatedDimension
1001
ACAD
1000
DSTYLE
1002
{
1070
   279
1070
     2
1070
   371
1070
    18
1070
   372
1070
    18
1002
}
  0
DIMENSION
  5
1385
330
1F
100
AcDbEntity
  8
実形
100
AcDbDimension
  2
*D21
 10
914.2356003024833
 20
1088.81663083867
 30
0.0
 11
943.1761932842446
 21
1106.096242096206
 31
0.0
 70
   160
 71
     5
 42
20.0
  3
ISO-25
100
AcDbAlignedDimension
 13
894.2356003024833
 23
1218.274067115558
 33
0.0
 14
914.2356003024833
 24
1218.274067115558
 34
0.0
100
AcDbRotatedDimension
1001
ACAD
1000
DSTYLE
1002
{
1070
   279
1070
     2
1070
   371
1070
    18
1070
   372
1070
    18
1002
}
  0
DIMENSION
  5
1393
330
1F
100
AcDbEntity
  8
実形
100
AcDbDimension
  2
*D22
 10
1674.235600302483
 20
1088.81663083867
 30
0.0
 11
1294.235600302483
 21
1107.56663083867
 31
0.0
 70
    32
 71
     5
 42
760.0
  3
ISO-25
100
AcDbAlignedDimension
 13
914.2356003024833
 23
1218.274067115558
 33
0.0
 14
1674.235600302483
 24
1088.81663083867
 34
0.0
100
AcDbRotatedDimension
1001
ACAD
1000
DSTYLE
1002
{
1070
   279
1070
     1
1070
   371
1070
    18
1070
   372
1070
    18
1002
}
  0
DIMENSION
  5
13A0
330
1F
100
AcDbEntity
  8
実形
100
AcDbDimension
  2
*D23
 10
1694.235600302483
 20
1088.81663083867
 30
0.0
 11
1645.13535958563
 21
1107.376176510658
 31
0.0
 70
   160
 71
     5
 42
20.0
  3
ISO-25
100
AcDbAlignedDimension
 13
1674.235600302483
 23
1088.81663083867
 33
0.0
 14
1694.235600302483
 24
1218.274067115558
 34
0.0
100
AcDbRotatedDimension
1001
ACAD
1000
DSTYLE
1002
{
1070
   279
1070
     2
1070
   371
1070
    18
1070
   372
1070
    18
1002
}
  0
LINE
  5
13E6
330
1F
100
AcDbEntity
  8
実形
100
AcDbLine
 10
894.2356003024833
 20
793.2740671155579
 30
0.0
 11
894.2356003024835
 21
781.2740671155579
 31
0.0
  0
LINE
  5
13E7
330
1F
100
AcDbEntity
  8
実形
100
AcDbLine
 10
897.2356003024835
 20
778.2740671155579
 30
0.0
 11
1691.235600302483
 21
778.274067115558
 31
0.0
  0
LINE
  5
13E8
330
1F
100
AcDbEntity
  8
実形
100
AcDbLine
 10
1694.235600302483
 20
781.274067115558
 30
0.0
 11
1694.235600302483
 21
793.2740671155579
 31
0.0
  0
LINE
  5
13E9
330
1F
100
AcDbEntity
  8
実形
100
AcDbLine
 10
1674.235600302483
 20
778.2740671155579
 30
0.0
 11
1674.235600302483
 21
617.7049240650286
 31
0.0
  0
LINE
  5
13EA
330
1F
100
AcDbEntity
  8
実形
100
AcDbLine
 10
1654.812838074718
 20
597.7132558866522
 30
0.0
 11
1154.735600302483
 21
583.2740671155579
 31
0.0
  0
LINE
  5
13EC
330
1F
100
AcDbEntity
  8
実形
100
AcDbLine
 10
914.2356003024834
 20
603.274067115558
 30
0.0
 11
914.2356003024833
 21
778.2740671155579
 31
0.0
  0
DIMENSION
  5
1411
330
1F
100
AcDbEntity
  8
実形
100
AcDbDimension
  2
*D24
 10
772.6479710693694
 20
778.2740671155579
 30
0.0
 11
764.5499378062486
 21
686.9459773419166
 31
0.0
 70
   160
 71
     5
 42
180.0
  3
ISO-25
100
AcDbAlignedDimension
 13
894.2356003024833
 23
598.2740671155579
 33
0.0
 14
894.2356003024833
 24
778.2740671155579
 34
0.0
 50
90.0
100
AcDbRotatedDimension
1001
ACAD
1000
DSTYLE
1002
{
1070
   279
1070
     1
1070
   371
1070
    18
1070
   372
1070
    18
1002
}
  0
DIMENSION
  5
141E
330
1F
100
AcDbEntity
  8
実形
100
AcDbDimension
  2
*D25
 10
772.6479710693694
 20
793.2740671155579
 30
0.0
 11
769.8146906621396
 21
768.0025931536029
 31
0.0
 70
   160
 71
     5
 42
15.0
  3
ISO-25
100
AcDbAlignedDimension
 13
894.2356003024833
 23
778.2740671155579
 33
0.0
 14
894.2356003024833
 24
793.2740671155579
 34
0.0
 50
90.0
100
AcDbRotatedDimension
1001
ACAD
1000
DSTYLE
1002
{
1070
   279
1070
     1
1070
   371
1070
    18
1070
   372
1070
    18
1002
}
  0
ARC
  5
1453
330
1F
100
AcDbEntity
  8
実形
100
AcDbCircle
 10
897.2356003024835
 20
781.2740671155579
 30
0.0
 40
3.0
100
AcDbArc
 50
180.0
 51
270.0
  0
ARC
  5
1454
330
1F
100
AcDbEntity
  8
実形
100
AcDbCircle
 10
1691.235600302483
 20
781.274067115558
 30
0.0
 40
3.0
100
AcDbArc
 50
270.0
 51
0.0
  0
DIMENSION
  5
154D
330
1F
100
AcDbEntity
  8
実形
100
AcDbDimension
  2
*D26
 10
772.6479710693693
 20
583.2740671155581
 30
0.0
 11
755.8239560718484
 21
553.9326193573524
 31
0.0
 70
   160
  1
8
 71
     5
 42
194.9999999999999
  3
ISO-25
100
AcDbAlignedDimension
 13
894.2356003024833
 23
778.2740671155579
 33
0.0
 14
879.2356003024833
 24
583.2740671155581
 34
0.0
 50
90.0
100
AcDbRotatedDimension
1001
ACAD
1000
DSTYLE
1002
{
1070
   279
1070
     2
1070
   371
1070
    18
1070
   372
1070
    18
1002
}
  0
ARC
  5
1625
330
1F
100
AcDbEntity
  8
実形
100
AcDbCircle
 10
1654.235600302483
 20
617.7049240650286
 30
0.0
 40
20.0
100
AcDbArc
 50
271.6538940784474
 51
0.0000000000000636
  0
TEXT
  5
1643
330
1F
100
AcDbEntity
  8
寸法
100
AcDbText
 10
1697.576224706739
 20
1758.531801524614
 30
0.0
 40
25.0
  1
30R
100
AcDbText
  0
LEADER
  5
1644
330
1F
100
AcDbEntity
  8
寸法
100
AcDbLeader
  3
ISO-25
 76
     2
 10
1696.390653686931
 20
1683.85989790175
 30
0.0
 10
1726.622677507086
 20
1748.457021897983
 30
0.0
1001
ACAD
1000
DSTYLE
1002
{
1070
    41
1040
25.0
1070
   147
1040
6.25
1070
    77
1070
     0
1002
}
  0
ARC
  5
1645
330
1F
100
AcDbEntity
  8
実形
100
AcDbCircle
 10
1664.235600302484
 20
1653.274067115558
 30
0.0
 40
30.0
100
AcDbArc
 50
0.0
 51
90.0
  0
ARC
  5
1646
330
1F
100
AcDbEntity
  8
実形
100
AcDbCircle
 10
1664.235600302483
 20
1263.274067115558
 30
0.0
 40
30.0
100
AcDbArc
 50
270.0
 51
360.0
  0
ARC
  5
1647
330
1F
100
AcDbEntity
  8
実形
100
AcDbCircle
 10
924.2356003024834
 20
1263.274067115558
 30
0.0
 40
30.0
100
AcDbArc
 50
180.0
 51
270.0
  0
ARC
  5
1648
330
1F
100
AcDbEntity
  8
実形
100
AcDbCircle
 10
924.2356003024831
 20
1653.274067115557
 30
0.0
 40
30.0
100
AcDbArc
 50
90.0
 51
180.0
  0
LINE
  5
166E
330
1F
100
AcDbEntity
  8
実形
100
AcDbLine
 10
1154.735600302483
 20
573.2740671155579
 30
0.0
 11
973.7356003024833
 21
573.2740671155579
 31
0.0
  0
DIMENSION
  5
166F
330
1F
100
AcDbEntity
  8
実形
100
AcDbDimension
  2
*D27
 10
772.6479710693694
 20
793.2740671155579
 30
0.0
 11
772.6479710693691
 21
604.3330451782611
 31
0.0
 70
   160
  1
15
 71
     5
 42
220.0
  3
ISO-25
100
AcDbAlignedDimension
 13
895.9103238275165
 23
573.2740671155579
 33
0.0
 14
879.2356003024833
 24
793.2740671155579
 34
0.0
 50
90.0
100
AcDbRotatedDimension
1001
ACAD
1000
DSTYLE
1002
{
1070
   371
1070
    18
1070
   372
1070
    18
1002
}
  0
DIMENSION
  5
170F
330
1F
100
AcDbEntity
  8
実形
100
AcDbDimension
  2
*D28
 10
653.5878069974569
 20
573.274067115558
 30
0.0
 11
634.8378069974568
 21
683.2740671155582
 31
0.0
 70
    32
  1
218
 71
     5
 42
220.0
  3
ISO-25
100
AcDbAlignedDimension
 13
879.2356003024833
 23
793.2740671155579
 33
0.0
 14
770.4604710693693
 24
573.2740671155579
 34
0.0
 50
90.0
100
AcDbRotatedDimension
1001
ACAD
1000
DSTYLE
1002
{
1070
   371
1070
    18
1070
   372
1070
    18
1002
}
  0
ARC
  5
1742
330
1F
100
AcDbEntity
  8
実形
100
AcDbCircle
 10
1654.235600302483
 20
1273.274067115558
 30
0.0
 40
20.0
100
AcDbArc
 50
270.0
 51
0.0
  0
ARC
  5
1743
330
1F
100
AcDbEntity
  8
実形
100
AcDbCircle
 10
1654.235600302484
 20
1643.274067115558
 30
0.0
 40
20.0
100
AcDbArc
 50
0.0
 51
90.0
  0
ARC
  5
1744
330
1F
100
AcDbEntity
  8
実形
100
AcDbCircle
 10
934.2356003024832
 20
1643.274067115558
 30
0.0
 40
20.0
100
AcDbArc
 50
90.00000000000003
 51
180.0
  0
ARC
  5
1745
330
1F
100
AcDbEntity
  8
実形
100
AcDbCircle
 10
934.2356003024834
 20
1273.274067115558
 30
0.0
 40
20.0
100
AcDbArc
 50
180.0
 51
270.0
  0
LINE
  5
1746
330
1F
100
AcDbEntity
  8
実形
100
AcDbLine
 10
973.7356003024833
 20
583.2740671155579
 30
0.0
 11
934.2356003024834
 21
583.2740671155581
 31
0.0
  0
ARC
  5
1747
330
1F
100
AcDbEntity
  8
実形
100
AcDbCircle
 10
934.2356003024834
 20
603.274067115558
 30
0.0
 40
20.0
100
AcDbArc
 50
180.0
 51
270.0
  0
TEXT
  5
1759
330
1F
100
AcDbEntity
  8
実形
100
AcDbText
 10
980.8847800695403
 20
663.8052410919795
 30
0.0
 40
25.0
  1
20R
100
AcDbText
  0
LEADER
  5
175A
330
1F
100
AcDbEntity
  8
実形
100
AcDbLeader
  3
ISO-25
 40
25.0
 41
16.66666666666666
 76
     2
 10
937.5009020253301
 20
596.6138708230483
 30
0.0
 10
1012.851853518405
 20
653.6834221366425
 30
0.0
213
0.0
223
-12.5
233
0.0
1001
ACAD
1000
DSTYLE
1002
{
1070
    41
1040
25.0
1070
   147
1040
6.25
1070
    77
1070
     0
1070
    73
1070
     1
1070
    74
1070
     1
1070
   279
1070
     1
1070
   342
1005
DA
1002
}
  0
LEADER
  5
1777
330
1F
100
AcDbEntity
  8
実形
100
AcDbLeader
  3
ISO-25
 40
25.0
 41
16.66666666666666
 76
     2
 10
1658.394227310658
 20
1644.864708950056
 30
0.0
 10
1606.961710519352
 20
1592.112823446017
 30
0.0
213
0.0
223
-12.5
233
0.0
1001
ACAD
1000
DSTYLE
1002
{
1070
    41
1040
25.0
1070
   147
1040
6.25
1070
    77
1070
     0
1070
    73
1070
     1
1070
    74
1070
     1
1070
   279
1070
     1
1070
   342
1005
DA
1002
}
  0
TEXT
  5
1778
330
1F
100
AcDbEntity
  8
実形
100
AcDbText
 10
1564.329816831433
 20
1559.215536627384
 30
0.0
 40
25.0
  1
20R
100
AcDbText
  0
LEADER
  5
1779
330
1F
100
AcDbEntity
  8
実形
100
AcDbLeader
  3
ISO-25
 40
25.0
 41
16.66666666666666
 76
     2
 10
1661.310759048197
 20
1270.495276364499
 30
0.0
 10
1604.349917888994
 20
1304.415717481339
 30
0.0
213
0.0
223
-12.5
233
0.0
1001
ACAD
1000
DSTYLE
1002
{
1070
    41
1040
25.0
1070
   147
1040
6.25
1070
    77
1070
     0
1070
    73
1070
     1
1070
    74
1070
     1
1070
   279
1070
     1
1070
   342
1005
DA
1002
}
  0
TEXT
  5
177A
330
1F
100
AcDbEntity
  8
実形
100
AcDbText
 10
1566.90350082424
 20
1315.127430166077
 30
0.0
 40
25.0
  1
20R
100
AcDbText
  0
LEADER
  5
1785
330
1F
100
AcDbEntity
  8
実形
100
AcDbLeader
  3
ISO-25
 40
25.0
 41
16.66666666666666
 76
     2
 10
937.4628384661109
 20
1263.706924344328
 30
0.0
 10
1003.266841716086
 20
1306.91050941599
 30
0.0
213
0.0
223
-12.5
233
0.0
1001
ACAD
1000
DSTYLE
1002
{
1070
    41
1040
25.0
1070
   147
1040
6.25
1070
    77
1070
     0
1070
    73
1070
     1
1070
    74
1070
     1
1070
   279
1070
     1
1070
   342
1005
DA
1002
}
  0
TEXT
  5
1786
330
1F
100
AcDbEntity
  8
実形
100
AcDbText
 10
980.6439791234224
 20
1316.744286782292
 30
0.0
 40
25.0
  1
20R
100
AcDbText
  0
LEADER
  5
1787
330
1F
100
AcDbEntity
  8
実形
100
AcDbLeader
  3
ISO-25
 40
25.0
 41
16.66666666666666
 76
     2
 10
931.4547747402349
 20
1643.618975782813
 30
0.0
 10
995.7304653293194
 20
1592.715175283873
 30
0.0
213
0.0
223
-12.5
233
0.0
1001
ACAD
1000
DSTYLE
1002
{
1070
    41
1040
25.0
1070
   147
1040
6.25
1070
    77
1070
     0
1070
    73
1070
     1
1070
    74
1070
     1
1070
   279
1070
     1
1070
   342
1005
DA
1002
}
  0
TEXT
  5
1788
330
1F
100
AcDbEntity
  8
実形
100
AcDbText
 10
977.7775152215326
 20
1560.03155879577
 30
0.0
 40
25.0
  1
20R
100
AcDbText
  0
TEXT
  5
17A4
330
1F
100
AcDbEntity
  8
寸法
100
AcDbText
 10
1799.124682641113
 20
1213.218374832394
 30
0.0
 40
25.0
  1
30R
100
AcDbText
  0
LEADER
  5
17A5
330
1F
100
AcDbEntity
  8
寸法
100
AcDbLeader
  3
ISO-25
 76
     2
 10
1699.041573964887
 20
1238.750330730258
 30
0.0
 10
1790.841948425957
 20
1227.019436319045
 30
0.0
1001
ACAD
1000
DSTYLE
1002
{
1070
    41
1040
25.0
1070
   147
1040
6.25
1070
    77
1070
     0
1002
}
  0
TEXT
  5
17AF
330
1F
100
AcDbEntity
  8
寸法
100
AcDbText
 10
769.1345231413833
 20
1129.11916606117
 30
0.0
 40
25.0
  1
30R
100
AcDbText
  0
LEADER
  5
17B0
330
1F
100
AcDbEntity
  8
寸法
100
AcDbLeader
  3
ISO-25
 76
     2
 10
895.9921045903701
 20
1229.912296300876
 30
0.0
 10
835.6510855693377
 20
1165.81823979687
 30
0.0
1001
ACAD
1000
DSTYLE
1002
{
1070
    41
1040
25.0
1070
   147
1040
6.25
1070
    77
1070
     0
1002
}
  0
TEXT
  5
17BA
330
1F
100
AcDbEntity
  8
寸法
100
AcDbText
 10
766.8366925615573
 20
1747.91673087207
 30
0.0
 40
25.0
  1
30R
100
AcDbText
  0
LEADER
  5
17BB
330
1F
100
AcDbEntity
  8
寸法
100
AcDbLeader
  3
ISO-25
 76
     2
 10
892.5256076382465
 20
1683.491387100827
 30
0.0
 10
833.8530410270086
 20
1736.554301457962
 30
0.0
1001
ACAD
1000
DSTYLE
1002
{
1070
    41
1040
25.0
1070
   147
1040
6.25
1070
    77
1070
     0
1002
}
  0
LINE
  5
1831
330
1F
100
AcDbEntity
  8
補助
100
AcDbLine
 10
109.0
 20
4.0
 30
0.0
 11
109.0
 21
2024.0
 31
0.0
  0
LINE
  5
184A
330
1F
100
AcDbEntity
  8
補助
 62
     0
100
AcDbLine
 10
2784.0
 20
1959.000000000001
 30
0.0
 11
2019.387286519283
 21
1959.000000000002
 31
0.0
  0
LINE
  5
184B
330
1F
100
AcDbEntity
  8
補助
 62
     0
100
AcDbLine
 10
2784.0
 20
1894.000000000001
 30
0.0
 11
2019.387286519283
 21
1894.000000000001
 31
0.0
  0
LINE
  5
184C
330
1F
100
AcDbEntity
  8
補助
 62
     0
100
AcDbLine
 10
2202.547653420927
 20
1894.000000000001
 30
0.0
 11
2202.547653420927
 21
2024.000000000002
 31
0.0
  0
LINE
  5
184D
330
1F
100
AcDbEntity
  8
補助
 62
     0
100
AcDbLine
 10
2019.387286519283
 20
1894.000000000001
 30
0.0
 11
2019.387286519283
 21
2024.000000000002
 31
0.0
  0
TEXT
  5
184E
330
1F
100
AcDbEntity
  8
補助
 62
     0
100
AcDbText
 10
2050.295698850121
 20
1976.328571428573
 30
0.0
 40
30.0
  1
部品名
  7
明朝
 72
     4
 11
2116.124270278692
 21
1991.500000000002
 31
0.0
100
AcDbText
  0
TEXT
  5
184F
330
1F
100
AcDbEntity
  8
補助
 62
     0
100
AcDbText
 10
2627.614285714286
 20
1976.07142857143
 30
0.0
 40
30.0
  1
厚さ
  7
明朝
 72
     4
 11
2671.5
 21
1991.500000000002
 31
0.0
100
AcDbText
  0
LINE
  5
1850
330
1F
100
AcDbEntity
  8
補助
 62
     0
100
AcDbLine
 10
2559.0
 20
1894.000000000001
 30
0.0
 11
2559.0
 21
2024.000000000002
 31
0.0
  0
TEXT
  5
1851
330
1F
100
AcDbEntity
  8
補助
 62
     0
100
AcDbText
 10
2338.490869919937
 20
1975.947979478156
 30
0.0
 40
30.0
  1
材質
  7
明朝
 72
     4
 11
2382.376584205651
 21
1991.119408049584
 31
0.0
100
AcDbText
  0
TEXT
  5
1852
330
1F
100
AcDbEntity
  8
実形
 62
     0
100
AcDbText
 10
2048.227810657788
 20
1910.557142857144
 30
0.0
 40
30.0
  1
ボウル
  7
明朝
 72
     4
 11
2114.056382086359
 21
1926.500000000001
 31
0.0
100
AcDbText
  0
TEXT
  5
1853
330
1F
100
AcDbEntity
  8
実形
 62
     0
100
AcDbText
 10
2594.700000000001
 20
1911.842857142858
 30
0.0
 40
30.0
  1
1.0ｍｍ
  7
明朝
 72
     4
 11
2671.500000000001
 21
1926.500000000001
 31
0.0
100
AcDbText
  0
TEXT
  5
1854
330
1F
100
AcDbEntity
  8
実形
 62
     0
100
AcDbText
 10
2261.016869107866
 20
1910.728571428572
 30
0.0
 40
30.0
  1
SUS304（HL）
  7
明朝
 72
     4
 11
2392.674011965008
 21
1926.500000000001
 31
0.0
100
AcDbText
  0
VIEWPORT
  5
2E
102
{ACAD_XDICTIONARY
360
1875
102
}
330
1B
100
AcDbEntity
 67
     1
  8
0
100
AcDbViewport
 10
144.7270812988281
 20
101.2295806407928
 30
0.0
 40
411.6736216682419
 41
222.1517806396485
 68
     1
 69
     1
 12
144.7270812988281
 22
101.2295806407928
 13
0.0
 23
0.0
 14
10.0
 24
10.0
 15
10.0
 25
10.0
 16
0.0
 26
0.0
 36
1.0
 17
0.0
 27
0.0
 37
0.0
 42
50.0
 43
0.0
 44
0.0
 45
222.1517806396485
 50
0.0
 51
0.0
 72
   100
 90
    32800
  1

281
     0
 71
     1
 74
     0
110
0.0
120
0.0
130
0.0
111
1.0
121
0.0
131
0.0
112
0.0
122
1.0
132
0.0
 79
     0
146
0.0
  0
VIEWPORT
  5
30
102
{ACAD_XDICTIONARY
360
1877
102
}
330
1B
100
AcDbEntity
 67
     1
  8
0
100
AcDbViewport
 10
139.2237563133239
 20
101.2295821905136
 30
0.0
 40
222.7580101013184
 41
161.9673315048218
 68
     2
 69
     2
 12
210.0
 22
148.5
 13
0.0
 23
0.0
 14
10.0
 24
10.0
 15
10.0
 25
10.0
 16
0.0
 26
0.0
 36
1.0
 17
0.0
 27
0.0
 37
0.0
 42
50.0
 43
0.0
 44
0.0
 45
309.0686705647124
 50
0.0
 51
0.0
 72
   100
 90
    32864
  1

281
     0
 71
     1
 74
     0
110
0.0
120
0.0
130
0.0
111
1.0
121
0.0
131
0.0
112
0.0
122
1.0
132
0.0
 79
     0
146
0.0
  0
ENDSEC
  0
SECTION
  2
OBJECTS
  0
DICTIONARY
  5
C
330
0
100
AcDbDictionary
281
     1
  3
ACAD_COLOR
350
15EA
  3
ACAD_GROUP
350
D
  3
ACAD_LAYOUT
350
1A
  3
ACAD_MATERIAL
350
15E9
  3
ACAD_MLINESTYLE
350
17
  3
ACAD_PLOTSETTINGS
350
19
  3
ACAD_PLOTSTYLENAME
350
E
  3
ACAD_TABLESTYLE
350
15EB
  3
AcadDim
350
124
  3
ACDBHEADERROUNDTRIPXREC
350
186E
  3
AcDbVariableDictionary
350
1055
  0
DICTIONARY
  5
1618
330
2
100
AcDbDictionary
280
     1
281
     1
  3
ACAD_LAYERFILTERS
360
161A
  3
ACAD_LAYERSTATES
360
17D2
  3
ACLYDICTIONARY
360
1619
  0
DICTIONARY
  5
1626
330
1F
100
AcDbDictionary
280
     1
281
     1
  3
ACAD_SORTENTS
360
1627
  0
DICTIONARY
  5
1875
330
2E
100
AcDbDictionary
280
     1
281
     1
  3
ACAD_XREC_ROUNDTRIP
360
1876
  0
DICTIONARY
  5
1877
330
30
100
AcDbDictionary
280
     1
281
     1
  3
ACAD_XREC_ROUNDTRIP
360
1878
  0
DICTIONARY
  5
15EA
102
{ACAD_REACTORS
330
C
102
}
330
C
100
AcDbDictionary
281
     1
  0
DICTIONARY
  5
D
102
{ACAD_REACTORS
330
C
102
}
330
C
100
AcDbDictionary
281
     1
  0
DICTIONARY
  5
1A
102
{ACAD_REACTORS
330
C
102
}
330
C
100
AcDbDictionary
281
     1
  3
Model
350
22
  3
ﾚｲｱｳﾄ1
350
1E
  3
ﾚｲｱｳﾄ2
350
26
  0
DICTIONARY
  5
15E9
102
{ACAD_REACTORS
330
C
102
}
330
C
100
AcDbDictionary
281
     1
  0
DICTIONARY
  5
17
102
{ACAD_REACTORS
330
C
102
}
330
C
100
AcDbDictionary
281
     1
  3
Standard
350
18
  0
DICTIONARY
  5
19
102
{ACAD_REACTORS
330
C
102
}
330
C
100
AcDbDictionary
281
     1
  0
ACDBDICTIONARYWDFLT
  5
E
102
{ACAD_REACTORS
330
C
102
}
330
C
100
AcDbDictionary
281
     1
  3
Normal
350
F
100
AcDbDictionaryWithDefault
340
F
  0
DICTIONARY
  5
15EB
102
{ACAD_REACTORS
330
C
102
}
330
C
100
AcDbDictionary
281
     1
  3
Standard
350
15EC
  0
XRECORD
  5
124
102
{ACAD_REACTORS
330
C
102
}
330
C
100
AcDbXrecord
280
     1
 90
   990106
  3

 60
     0
 61
     0
 62
     1
 63
     3
 64
     0
 65
     0
 66
     0
 67
     3
 68
     1
 69
     0
 70
     0
 71
     0
 72
     0
 40
30.0
170
     0
  0
DICTIONARY
  5
186E
102
{ACAD_REACTORS
330
C
102
}
330
C
100
AcDbDictionary
281
     1
  0
DICTIONARY
  5
1055
102
{ACAD_REACTORS
330
C
102
}
330
C
100
AcDbDictionary
281
     1
  3
CTABLESTYLE
350
15F4
  3
DIMASSOC
350
186B
  3
PROJECTNAME
350
186C
  3
SORTENTS
350
1056
  0
DICTIONARY
  5
161A
102
{ACAD_REACTORS
330
1618
102
}
330
1618
100
AcDbDictionary
281
     1
  0
DICTIONARY
  5
17D2
102
{ACAD_REACTORS
330
1618
102
}
330
1618
100
AcDbDictionary
281
     1
  0
DICTIONARY
  5
1619
102
{ACAD_REACTORS
330
1618
102
}
330
1618
100
AcDbDictionary
281
     1
1001
ACAD
1000
<All
  0
SORTENTSTABLE
  5
1627
102
{ACAD_REACTORS
330
1626
102
}
330
1626
100
AcDbSortentsTable
330
1F
331
1853
  5
1855
331
1647
  5
13EB
331
1745
  5
126E
331
17A4
  5
17B0
331
1454
  5
1744
331
35B
  5
3CE
331
126E
  5
13E6
331
4F8
  5
8C9
331
1385
  5
1453
331
10B7
  5
10BB
331
A5
  5
A5
331
166F
  5
1759
331
10BF
  5
10C3
331
184C
  5
184E
331
1785
  5
1788
331
10C7
  5
10CB
331
33C
  5
3AF
331
1267
  5
1385
331
1854
  5
1856
331
1648
  5
13A0
331
1746
  5
1777
331
17A5
  5
17BA
331
170F
  5
175A
331
13E6
  5
1625
331
10B8
  5
10BC
331
10C0
  5
10C4
331
8C9
  5
10A7
331
184D
  5
184F
331
44B
  5
4A3
331
1786
  5
17A4
331
10C8
  5
10CC
331
3DC
  5
43D
331
141E
  5
170F
331
1747
  5
1648
331
1270
  5
13E9
331
2E6
  5
2F9
331
4A3
  5
4F8
331
2EE
  5
2FB
331
13E7
  5
1628
331
1777
  5
177A
331
10B9
  5
10BD
331
7D2
  5
105D
331
306
  5
33A
331
10C1
  5
10C5
331
1318
  5
1411
331
1787
  5
17A5
331
184E
  5
1850
331
10C9
  5
10CD
331
17AF
  5
17BB
331
494
  5
4CC
331
10B2
  5
10B6
331
A0
  5
A0
331
13A0
  5
154D
331
13E8
  5
1643
331
1778
  5
1785
331
10BA
  5
10BE
331
43D
  5
494
331
307
  5
33B
331
10C2
  5
10C6
331
184F
  5
1851
331
10CA
  5
1263
331
4CC
  5
7D2
331
3CE
  5
3F6
331
1788
  5
17AF
331
1643
  5
1746
331
17B0
  5
17E7
331
1272
  5
13EA
331
3F6
  5
458
331
10B3
  5
10B7
331
1759
  5
1778
331
154D
  5
1745
331
13E9
  5
1644
331
1779
  5
1786
331
10BB
  5
10BF
331
10C3
  5
10C7
331
308
  5
33C
331
3AF
  5
3E9
331
10CB
  5
1264
331
1263
  5
1267
331
1411
  5
166E
331
1644
  5
1747
331
1850
  5
1852
331
1742
  5
1271
331
368
  5
3DC
331
12F3
  5
13EC
331
505
  5
F27
331
10B4
  5
10B8
331
175A
  5
1779
331
13EA
  5
1646
331
1831
  5
2EE
331
177A
  5
1787
331
2F9
  5
306
331
10BC
  5
10C0
331
10C4
  5
10C8
331
4BE
  5
505
331
10CC
  5
1265
331
1264
  5
1268
331
1625
  5
1645
331
1645
  5
13E8
331
1851
  5
1853
331
1743
  5
1325
331
126C
  5
1393
331
105D
  5
10B4
331
1393
  5
1454
331
10B5
  5
10B9
331
17BA
  5
184A
331
2FA
  5
307
331
10BD
  5
10C1
331
184A
  5
184C
331
10C5
  5
10C9
331
458
  5
4BE
331
33A
  5
35B
331
10CD
  5
1266
331
1265
  5
126F
331
1852
  5
1854
331
1646
  5
13E7
331
1744
  5
1318
331
1453
  5
1742
331
3E9
  5
44B
331
2EB
  5
2FA
331
10B6
  5
10BA
331
9C
  5
9C
331
17BB
  5
184B
331
166E
  5
10B5
331
13EC
  5
1647
331
2FB
  5
308
331
10BE
  5
10C2
331
184B
  5
184D
331
10C6
  5
10CA
331
1325
  5
141E
331
F27
  5
10B3
331
33B
  5
368
331
1266
  5
1273
  0
XRECORD
  5
1876
102
{ACAD_REACTORS
330
1875
102
}
330
1875
100
AcDbXrecord
280
     1
102
SHADEPLOT
 70
     0
  0
XRECORD
  5
1878
102
{ACAD_REACTORS
330
1877
102
}
330
1877
100
AcDbXrecord
280
     1
102
SHADEPLOT
 70
     0
  0
LAYOUT
  5
22
102
{ACAD_XDICTIONARY
360
1871
102
}
102
{ACAD_REACTORS
330
1A
102
}
330
1A
100
AcDbPlotSettings
  1

  2
EPSON PM-800C
  4
A4
  6

 40
3.757083177566528
 41
14.7637300491333
 42
3.757080078125
 43
3.757080078125
 44
209.9733276367187
 45
296.9683227539062
 46
0.0
 47
0.0
 48
0.0
 49
0.0
140
0.0
141
0.0
142
1.0
143
10.0
 70
 11952
 72
     1
 73
     1
 74
     2
  7

 75
    20
147
0.1
148
0.0
149
0.0
100
AcDbLayout
  1
Model
 70
     1
 71
     0
 10
0.0
 20
0.0
 11
12.0
 21
9.0
 12
0.0
 22
0.0
 32
0.0
 14
0.0
 24
0.0
 34
0.0
 15
0.0
 25
0.0
 35
0.0
146
0.0
 13
0.0
 23
0.0
 33
0.0
 16
1.0
 26
0.0
 36
0.0
 17
0.0
 27
1.0
 37
0.0
 76
     0
330
1F
  0
LAYOUT
  5
1E
102
{ACAD_XDICTIONARY
360
186F
102
}
102
{ACAD_REACTORS
330
1A
102
}
330
1A
100
AcDbPlotSettings
  1

  2
EPSON PM-800C
  4
A4
  6

 40
3.757083177566528
 41
14.7637300491333
 42
3.757080078125
 43
3.757080078125
 44
209.9733276367187
 45
296.9683227539062
 46
0.0
 47
0.0
 48
0.0
 49
0.0
140
0.0
141
0.0
142
1.0
143
1.0
 70
   688
 72
     1
 73
     1
 74
     5
  7

 75
    16
147
1.0
148
0.0
149
0.0
100
AcDbLayout
  1
ﾚｲｱｳﾄ1
 70
     1
 71
     1
 10
-3.757080078125
 20
-3.757083177566528
 11
293.2112426757813
 21
206.2162444591522
 12
0.0
 22
0.0
 32
0.0
 14
27.8447512626648
 24
20.24591643810271
 34
0.0
 15
250.6027613639831
 25
182.2132479429245
 35
0.0
146
0.0
 13
0.0
 23
0.0
 33
0.0
 16
1.0
 26
0.0
 36
0.0
 17
0.0
 27
1.0
 37
0.0
 76
     0
330
1B
331
2E
  0
LAYOUT
  5
26
102
{ACAD_XDICTIONARY
360
1873
102
}
102
{ACAD_REACTORS
330
1A
102
}
330
1A
100
AcDbPlotSettings
  1

  2
EPSON PM-800C
  4

  6

 40
0.0
 41
0.0
 42
0.0
 43
0.0
 44
0.0
 45
0.0
 46
0.0
 47
0.0
 48
0.0
 49
0.0
140
0.0
141
0.0
142
1.0
143
1.0
 70
   688
 72
     0
 73
     0
 74
     5
  7

 75
    16
147
1.0
148
0.0
149
0.0
100
AcDbLayout
  1
ﾚｲｱｳﾄ2
 70
     1
 71
     2
 10
0.0
 20
0.0
 11
12.0
 21
9.0
 12
0.0
 22
0.0
 32
0.0
 14
0.0
 24
0.0
 34
0.0
 15
0.0
 25
0.0
 35
0.0
146
0.0
 13
0.0
 23
0.0
 33
0.0
 16
1.0
 26
0.0
 36
0.0
 17
0.0
 27
1.0
 37
0.0
 76
     0
330
23
  0
MLINESTYLE
  5
18
102
{ACAD_REACTORS
330
17
102
}
330
17
100
AcDbMlineStyle
  2
STANDARD
 70
     0
  3

 62
   256
 51
90.0
 52
90.0
 71
     2
 49
0.5
 62
   256
  6
BYLAYER
 49
-0.5
 62
   256
  6
BYLAYER
  0
ACDBPLACEHOLDER
  5
F
102
{ACAD_REACTORS
330
E
102
}
330
E
  0
TABLESTYLE
  5
15EC
102
{ACAD_REACTORS
330
15EB
102
}
330
15EB
100
AcDbTableStyle
  3
Standard
 70
     0
 71
     0
 40
1.5
 41
1.5
280
     0
281
     0
  7
Standard
140
4.5
170
     2
 62
     0
 63
     7
283
     0
274
    -2
284
     1
 64
     0
275
    -2
285
     1
 65
     0
276
    -2
286
     1
 66
     0
277
    -2
287
     1
 67
     0
278
    -2
288
     1
 68
     0
279
    -2
289
     1
 69
     0
  7
Standard
140
6.0
170
     5
 62
     0
 63
     7
283
     0
274
    -2
284
     1
 64
     0
275
    -2
285
     1
 65
     0
276
    -2
286
     1
 66
     0
277
    -2
287
     1
 67
     0
278
    -2
288
     1
 68
     0
279
    -2
289
     1
 69
     0
  7
Standard
140
4.5
170
     5
 62
     0
 63
     7
283
     0
274
    -2
284
     1
 64
     0
275
    -2
285
     1
 65
     0
276
    -2
286
     1
 66
     0
277
    -2
287
     1
 67
     0
278
    -2
288
     1
 68
     0
279
    -2
289
     1
 69
     0
  0
DICTIONARYVAR
  5
15F4
102
{ACAD_REACTORS
330
1055
102
}
330
1055
100
DictionaryVariables
280
     0
  1
STANDARD
  0
DICTIONARYVAR
  5
186B
102
{ACAD_REACTORS
330
1055
102
}
330
1055
100
DictionaryVariables
280
     0
  1
1
  0
DICTIONARYVAR
  5
186C
102
{ACAD_REACTORS
330
1055
102
}
330
1055
100
DictionaryVariables
280
     0
  1

  0
DICTIONARYVAR
  5
1056
102
{ACAD_REACTORS
330
1055
102
}
330
1055
100
DictionaryVariables
280
     0
  1
96
  0
DICTIONARY
  5
1871
330
22
100
AcDbDictionary
280
     1
281
     1
  3
ACAD_XREC_ROUNDTRIP
360
1872
  0
DICTIONARY
  5
186F
330
1E
100
AcDbDictionary
280
     1
281
     1
  3
ACAD_XREC_ROUNDTRIP
360
1870
  0
DICTIONARY
  5
1873
330
26
100
AcDbDictionary
280
     1
281
     1
  3
ACAD_XREC_ROUNDTRIP
360
1874
  0
XRECORD
  5
1872
102
{ACAD_REACTORS
330
1871
102
}
330
1871
100
AcDbXrecord
280
     1
102
SHADEPLOT
 70
     0
102
SHADEPLOTRESLEVEL
 70
     2
102
SHADEPLOTCUSTOMDPI
 70
   300
  0
XRECORD
  5
1870
102
{ACAD_REACTORS
330
186F
102
}
330
186F
100
AcDbXrecord
280
     1
102
SHADEPLOT
 70
     0
102
SHADEPLOTRESLEVEL
 70
     2
102
SHADEPLOTCUSTOMDPI
 70
   300
  0
XRECORD
  5
1874
102
{ACAD_REACTORS
330
1873
102
}
330
1873
100
AcDbXrecord
280
     1
102
SHADEPLOT
 70
     0
102
SHADEPLOTRESLEVEL
 70
     2
102
SHADEPLOTCUSTOMDPI
 70
   300
  0
ENDSEC
  0
EOF
