  0
SECTION
  2
HEADER
  9
$ACADVER
  1
AC1015
  9
$ACADMAINTVER
 70
    20
  9
$DWGCODEPAGE
  3
ANSI_932
  9
$INSBASE
 10
0.0
 20
0.0
 30
0.0
  9
$EXTMIN
 10
174.0
 20
-392.3860966284574
 30
0.0
  9
$EXTMAX
 10
2834.0
 20
2024.0
 30
0.0
  9
$LIMMIN
 10
54.0
 20
4.0
  9
$LIMMAX
 10
2834.0
 20
2024.0
  9
$ORTHOMODE
 70
     1
  9
$REGENMODE
 70
     1
  9
$FILLMODE
 70
     1
  9
$QTEXTMODE
 70
     0
  9
$MIRRTEXT
 70
     1
  9
$LTSCALE
 40
4.0
  9
$ATTMODE
 70
     1
  9
$TEXTSIZE
 40
30.0
  9
$TRACEWID
 40
1.0
  9
$TEXTSTYLE
  7
Standard
  9
$CLAYER
  8
実形
  9
$CELTYPE
  6
ByLayer
  9
$CECOLOR
 62
     3
  9
$CELTSCALE
 40
1.0
  9
$DISPSILH
 70
     0
  9
$DIMSCALE
 40
1.0
  9
$DIMASZ
 40
10.0
  9
$DIMEXO
 40
65.0
  9
$DIMDLI
 40
3.75
  9
$DIMRND
 40
0.0
  9
$DIMDLE
 40
0.0
  9
$DIMEXE
 40
0.0
  9
$DIMTP
 40
0.0
  9
$DIMTM
 40
0.0
  9
$DIMTXT
 40
30.0
  9
$DIMCEN
 40
2.5
  9
$DIMTSZ
 40
0.0
  9
$DIMTOL
 70
     0
  9
$DIMLIM
 70
     0
  9
$DIMTIH
 70
     0
  9
$DIMTOH
 70
     0
  9
$DIMSE1
 70
     0
  9
$DIMSE2
 70
     0
  9
$DIMTAD
 70
     1
  9
$DIMZIN
 70
     8
  9
$DIMBLK
  1
Dot
  9
$DIMASO
 70
     1
  9
$DIMSHO
 70
     1
  9
$DIMPOST
  1

  9
$DIMAPOST
  1

  9
$DIMALT
 70
     0
  9
$DIMALTD
 70
     3
  9
$DIMALTF
 40
0.03937007874016
  9
$DIMLFAC
 40
1.0
  9
$DIMTOFL
 70
     1
  9
$DIMTVP
 40
0.0
  9
$DIMTIX
 70
     0
  9
$DIMSOXD
 70
     0
  9
$DIMSAH
 70
     0
  9
$DIMBLK1
  1

  9
$DIMBLK2
  1

  9
$DIMSTYLE
  2
ISO-25
  9
$DIMCLRD
 70
     0
  9
$DIMCLRE
 70
     0
  9
$DIMCLRT
 70
     0
  9
$DIMTFAC
 40
1.0
  9
$DIMGAP
 40
6.599999999999998
  9
$DIMJUST
 70
     0
  9
$DIMSD1
 70
     0
  9
$DIMSD2
 70
     0
  9
$DIMTOLJ
 70
     0
  9
$DIMTZIN
 70
     8
  9
$DIMALTZ
 70
     0
  9
$DIMALTTZ
 70
     0
  9
$DIMUPT
 70
     0
  9
$DIMDEC
 70
     2
  9
$DIMTDEC
 70
     2
  9
$DIMALTU
 70
     2
  9
$DIMALTTD
 70
     3
  9
$DIMTXSTY
  7
Standard
  9
$DIMAUNIT
 70
     0
  9
$DIMADEC
 70
     0
  9
$DIMALTRND
 40
0.0
  9
$DIMAZIN
 70
     0
  9
$DIMDSEP
 70
    46
  9
$DIMATFIT
 70
     3
  9
$DIMFRAC
 70
     0
  9
$DIMLDRBLK
  1
Open30
  9
$DIMLUNIT
 70
     2
  9
$DIMLWD
 70
    18
  9
$DIMLWE
 70
    18
  9
$DIMTMOVE
 70
     2
  9
$LUNITS
 70
     2
  9
$LUPREC
 70
     2
  9
$SKETCHINC
 40
1.0
  9
$FILLETRAD
 40
6.0
  9
$AUNITS
 70
     0
  9
$AUPREC
 70
     0
  9
$MENU
  1
.
  9
$ELEVATION
 40
0.0
  9
$PELEVATION
 40
0.0
  9
$THICKNESS
 40
0.0
  9
$LIMCHECK
 70
     1
  9
$CHAMFERA
 40
10.0
  9
$CHAMFERB
 40
10.0
  9
$CHAMFERC
 40
20.0
  9
$CHAMFERD
 40
0.0
  9
$SKPOLY
 70
     0
  9
$TDCREATE
 40
2451673.575802199
  9
$TDUCREATE
 40
2451673.200802199
  9
$TDUPDATE
 40
2458808.782347592
  9
$TDUUPDATE
 40
2458808.407347593
  9
$TDINDWG
 40
3.6131022338
  9
$TDUSRTIMER
 40
3.6131015394
  9
$USRTIMER
 70
     1
  9
$ANGBASE
 50
0.0
  9
$ANGDIR
 70
     0
  9
$PDMODE
 70
     0
  9
$PDSIZE
 40
0.0
  9
$PLINEWID
 40
0.0
  9
$SPLFRAME
 70
     0
  9
$SPLINETYPE
 70
     6
  9
$SPLINESEGS
 70
     8
  9
$HANDSEED
  5
BF59
  9
$SURFTAB1
 70
     6
  9
$SURFTAB2
 70
     6
  9
$SURFTYPE
 70
     6
  9
$SURFU
 70
     6
  9
$SURFV
 70
     6
  9
$UCSBASE
  2

  9
$UCSNAME
  2

  9
$UCSORG
 10
0.0
 20
0.0
 30
0.0
  9
$UCSXDIR
 10
1.0
 20
0.0
 30
0.0
  9
$UCSYDIR
 10
0.0
 20
1.0
 30
0.0
  9
$UCSORTHOREF
  2

  9
$UCSORTHOVIEW
 70
     0
  9
$UCSORGTOP
 10
0.0
 20
0.0
 30
0.0
  9
$UCSORGBOTTOM
 10
0.0
 20
0.0
 30
0.0
  9
$UCSORGLEFT
 10
0.0
 20
0.0
 30
0.0
  9
$UCSORGRIGHT
 10
0.0
 20
0.0
 30
0.0
  9
$UCSORGFRONT
 10
0.0
 20
0.0
 30
0.0
  9
$UCSORGBACK
 10
0.0
 20
0.0
 30
0.0
  9
$PUCSBASE
  2

  9
$PUCSNAME
  2

  9
$PUCSORG
 10
0.0
 20
0.0
 30
0.0
  9
$PUCSXDIR
 10
1.0
 20
0.0
 30
0.0
  9
$PUCSYDIR
 10
0.0
 20
1.0
 30
0.0
  9
$PUCSORTHOREF
  2

  9
$PUCSORTHOVIEW
 70
     0
  9
$PUCSORGTOP
 10
0.0
 20
0.0
 30
0.0
  9
$PUCSORGBOTTOM
 10
0.0
 20
0.0
 30
0.0
  9
$PUCSORGLEFT
 10
0.0
 20
0.0
 30
0.0
  9
$PUCSORGRIGHT
 10
0.0
 20
0.0
 30
0.0
  9
$PUCSORGFRONT
 10
0.0
 20
0.0
 30
0.0
  9
$PUCSORGBACK
 10
0.0
 20
0.0
 30
0.0
  9
$USERI1
 70
     0
  9
$USERI2
 70
     0
  9
$USERI3
 70
     0
  9
$USERI4
 70
     0
  9
$USERI5
 70
     0
  9
$USERR1
 40
0.0
  9
$USERR2
 40
0.0
  9
$USERR3
 40
0.0
  9
$USERR4
 40
0.0
  9
$USERR5
 40
0.0
  9
$WORLDVIEW
 70
     1
  9
$SHADEDGE
 70
     3
  9
$SHADEDIF
 70
    70
  9
$TILEMODE
 70
     1
  9
$MAXACTVP
 70
    64
  9
$PINSBASE
 10
0.0
 20
0.0
 30
0.0
  9
$PLIMCHECK
 70
     0
  9
$PEXTMIN
 10
27.8447512626648
 20
20.24591643810271
 30
0.0
  9
$PEXTMAX
 10
250.6027613639831
 20
182.2132479429245
 30
0.0
  9
$PLIMMIN
 10
-3.757080078125
 20
-3.757083177566528
  9
$PLIMMAX
 10
293.2112426757813
 20
206.2162444591522
  9
$UNITMODE
 70
     0
  9
$VISRETAIN
 70
     1
  9
$PLINEGEN
 70
     0
  9
$PSLTSCALE
 70
     1
  9
$TREEDEPTH
 70
  3020
  9
$CMLSTYLE
  2
Standard
  9
$CMLJUST
 70
     0
  9
$CMLSCALE
 40
20.0
  9
$PROXYGRAPHICS
 70
     1
  9
$MEASUREMENT
 70
     1
  9
$CELWEIGHT
370
    -1
  9
$ENDCAPS
280
     0
  9
$JOINSTYLE
280
     0
  9
$LWDISPLAY
290
     0
  9
$INSUNITS
 70
     4
  9
$HYPERLINKBASE
  1

  9
$STYLESHEET
  1

  9
$XEDIT
290
     1
  9
$CEPSNTYPE
380
     0
  9
$PSTYLEMODE
290
     1
  9
$FINGERPRINTGUID
  2
{C8EA1F16-24C9-11D4-9416-CE0A3B32152F}
  9
$VERSIONGUID
  2
{34D65462-0DC9-4278-9611-C29F833A5771}
  9
$EXTNAMES
290
     1
  9
$PSVPSCALE
 40
0.0
  9
$OLESTARTUP
290
     0
  0
ENDSEC
  0
SECTION
  2
CLASSES
  0
CLASS
  1
ACDBDICTIONARYWDFLT
  2
AcDbDictionaryWithDefault
  3
ObjectDBX Classes
 90
        0
280
     0
281
     0
  0
CLASS
  1
ACDBPLACEHOLDER
  2
AcDbPlaceHolder
  3
ObjectDBX Classes
 90
        0
280
     0
281
     0
  0
CLASS
  1
LAYOUT
  2
AcDbLayout
  3
ObjectDBX Classes
 90
        0
280
     0
281
     0
  0
CLASS
  1
DICTIONARYVAR
  2
AcDbDictionaryVar
  3
ObjectDBX Classes
 90
        0
280
     0
281
     0
  0
CLASS
  1
TABLESTYLE
  2
AcDbTableStyle
  3
ObjectDBX Classes
 90
     2047
280
     0
281
     0
  0
CLASS
  1
SORTENTSTABLE
  2
AcDbSortentsTable
  3
ObjectDBX Classes
 90
        0
280
     0
281
     0
  0
ENDSEC
  0
SECTION
  2
TABLES
  0
TABLE
  2
VPORT
  5
8
330
0
100
AcDbSymbolTable
 70
     2
  0
VPORT
  5
BF4C
330
8
100
AcDbSymbolTableRecord
100
AcDbViewportTableRecord
  2
*Active
 70
     0
 10
0.0
 20
0.0
 11
1.0
 21
1.0
 12
1651.974461970782
 22
927.041021594246
 13
0.0
 23
0.0
 14
10.0
 24
10.0
 15
10.0
 25
10.0
 16
0.0
 26
0.0
 36
1.0
 17
0.0
 27
0.0
 37
0.0
 40
2436.682762066222
 41
1.29038112522686
 42
50.0
 43
0.0
 44
0.0
 50
0.0
 51
0.0
 71
     0
 72
   100
 73
     1
 74
     3
 75
     0
 76
     0
 77
     0
 78
     0
281
     0
 65
     1
110
0.0
120
0.0
130
0.0
111
1.0
121
0.0
131
0.0
112
0.0
122
1.0
132
0.0
 79
     0
146
0.0
  0
ENDTAB
  0
TABLE
  2
LTYPE
  5
5
330
0
100
AcDbSymbolTable
 70
    46
  0
LTYPE
  5
14
330
5
100
AcDbSymbolTableRecord
100
AcDbLinetypeTableRecord
  2
ByBlock
 70
     0
  3

 72
    65
 73
     0
 40
0.0
  0
LTYPE
  5
15
330
5
100
AcDbSymbolTableRecord
100
AcDbLinetypeTableRecord
  2
ByLayer
 70
     0
  3

 72
    65
 73
     0
 40
0.0
  0
LTYPE
  5
16
330
5
100
AcDbSymbolTableRecord
100
AcDbLinetypeTableRecord
  2
Continuous
 70
     0
  3
Solid line
 72
    65
 73
     0
 40
0.0
  0
LTYPE
  5
34
330
5
100
AcDbSymbolTableRecord
100
AcDbLinetypeTableRecord
  2
ACAD_ISO02W100
 70
     0
  3
ISO dash __ __ __ __ __ __ __ __ __ __ __ __ __
 72
    65
 73
     2
 40
15.0
 49
12.0
 74
     0
 49
-3.0
 74
     0
  0
LTYPE
  5
35
330
5
100
AcDbSymbolTableRecord
100
AcDbLinetypeTableRecord
  2
ACAD_ISO03W100
 70
     0
  3
ISO dash space __    __    __    __    __    __
 72
    65
 73
     2
 40
30.0
 49
12.0
 74
     0
 49
-18.0
 74
     0
  0
LTYPE
  5
36
330
5
100
AcDbSymbolTableRecord
100
AcDbLinetypeTableRecord
  2
ACAD_ISO04W100
 70
     0
  3
ISO long-dash dot ____ . ____ . ____ . ____ . _
 72
    65
 73
     4
 40
30.0
 49
24.0
 74
     0
 49
-3.0
 74
     0
 49
0.0
 74
     0
 49
-3.0
 74
     0
  0
LTYPE
  5
37
330
5
100
AcDbSymbolTableRecord
100
AcDbLinetypeTableRecord
  2
ACAD_ISO05W100
 70
     0
  3
ISO long-dash double-dot ____ .. ____ .. ____ .
 72
    65
 73
     6
 40
34.0
 49
24.0
 74
     0
 49
-3.0
 74
     0
 49
0.5
 74
     0
 49
-3.0
 74
     0
 49
0.5
 74
     0
 49
-3.0
 74
     0
  0
LTYPE
  5
38
330
5
100
AcDbSymbolTableRecord
100
AcDbLinetypeTableRecord
  2
ACAD_ISO06W100
 70
     0
  3
ISO long-dash triple-dot ____ ... ____ ... ____
 72
    65
 73
     8
 40
37.5
 49
24.0
 74
     0
 49
-3.0
 74
     0
 49
0.5
 74
     0
 49
-3.0
 74
     0
 49
0.5
 74
     0
 49
-3.0
 74
     0
 49
0.5
 74
     0
 49
-3.0
 74
     0
  0
LTYPE
  5
39
330
5
100
AcDbSymbolTableRecord
100
AcDbLinetypeTableRecord
  2
ACAD_ISO07W100
 70
     0
  3
ISO dot . . . . . . . . . . . . . . . . . . . .
 72
    65
 73
     2
 40
3.0
 49
0.0
 74
     0
 49
-3.0
 74
     0
  0
LTYPE
  5
3A
330
5
100
AcDbSymbolTableRecord
100
AcDbLinetypeTableRecord
  2
ACAD_ISO08W100
 70
     0
  3
ISO long-dash short-dash ____ __ ____ __ ____ _
 72
    65
 73
     4
 40
36.0
 49
24.0
 74
     0
 49
-3.0
 74
     0
 49
6.0
 74
     0
 49
-3.0
 74
     0
  0
LTYPE
  5
3B
330
5
100
AcDbSymbolTableRecord
100
AcDbLinetypeTableRecord
  2
ACAD_ISO09W100
 70
     0
  3
ISO long-dash double-short-dash ____ __ __ ____
 72
    65
 73
     6
 40
45.0
 49
24.0
 74
     0
 49
-3.0
 74
     0
 49
6.0
 74
     0
 49
-3.0
 74
     0
 49
6.0
 74
     0
 49
-3.0
 74
     0
  0
LTYPE
  5
3C
330
5
100
AcDbSymbolTableRecord
100
AcDbLinetypeTableRecord
  2
ACAD_ISO10W100
 70
     0
  3
ISO dash dot __ . __ . __ . __ . __ . __ . __ .
 72
    65
 73
     4
 40
18.0
 49
12.0
 74
     0
 49
-3.0
 74
     0
 49
0.0
 74
     0
 49
-3.0
 74
     0
  0
LTYPE
  5
3D
330
5
100
AcDbSymbolTableRecord
100
AcDbLinetypeTableRecord
  2
ACAD_ISO11W100
 70
     0
  3
ISO double-dash dot __ __ . __ __ . __ __ . __ 
 72
    65
 73
     6
 40
33.0
 49
12.0
 74
     0
 49
-3.0
 74
     0
 49
12.0
 74
     0
 49
-3.0
 74
     0
 49
0.0
 74
     0
 49
-3.0
 74
     0
  0
LTYPE
  5
3E
330
5
100
AcDbSymbolTableRecord
100
AcDbLinetypeTableRecord
  2
ACAD_ISO12W100
 70
     0
  3
ISO dash double-dot __ . . __ . . __ . . __ . .
 72
    65
 73
     6
 40
21.0
 49
12.0
 74
     0
 49
-3.0
 74
     0
 49
0.0
 74
     0
 49
-3.0
 74
     0
 49
0.0
 74
     0
 49
-3.0
 74
     0
  0
LTYPE
  5
3F
330
5
100
AcDbSymbolTableRecord
100
AcDbLinetypeTableRecord
  2
ACAD_ISO13W100
 70
     0
  3
ISO double-dash double-dot __ __ . . __ __ . . 
 72
    65
 73
     8
 40
36.0
 49
12.0
 74
     0
 49
-3.0
 74
     0
 49
12.0
 74
     0
 49
-3.0
 74
     0
 49
0.0
 74
     0
 49
-3.0
 74
     0
 49
0.0
 74
     0
 49
-3.0
 74
     0
  0
LTYPE
  5
40
330
5
100
AcDbSymbolTableRecord
100
AcDbLinetypeTableRecord
  2
ACAD_ISO14W100
 70
     0
  3
ISO dash triple-dot __ . . . __ . . . __ . . . 
 72
    65
 73
     8
 40
24.0
 49
12.0
 74
     0
 49
-3.0
 74
     0
 49
0.0
 74
     0
 49
-3.0
 74
     0
 49
0.0
 74
     0
 49
-3.0
 74
     0
 49
0.0
 74
     0
 49
-3.0
 74
     0
  0
LTYPE
  5
41
330
5
100
AcDbSymbolTableRecord
100
AcDbLinetypeTableRecord
  2
ACAD_ISO15W100
 70
     0
  3
ISO double-dash triple-dot __ __ . . . __ __ . 
 72
    65
 73
    10
 40
39.0
 49
12.0
 74
     0
 49
-3.0
 74
     0
 49
12.0
 74
     0
 49
-3.0
 74
     0
 49
0.0
 74
     0
 49
-3.0
 74
     0
 49
0.0
 74
     0
 49
-3.0
 74
     0
 49
0.0
 74
     0
 49
-3.0
 74
     0
  0
LTYPE
  5
42
330
5
100
AcDbSymbolTableRecord
100
AcDbLinetypeTableRecord
  2
BATTING
 70
     0
  3
Batting SSSSSSSSSSSSSSSSSSSSSSSSSSSSSSSSSSSSSSS
 72
    65
 73
     4
 40
10.16254
 49
0.00254
 74
     0
 49
-2.54
 74
     4
 75
   134
340
33
 46
2.54
 50
0.0
 44
-2.54
 45
0.0
 49
-5.08
 74
     4
 75
   134
340
33
 46
2.54
 50
180.0
 44
2.54
 45
0.0
 49
-2.54
 74
     0
  0
LTYPE
  5
43
330
5
100
AcDbSymbolTableRecord
100
AcDbLinetypeTableRecord
  2
BORDER
 70
     0
  3
Border __ __ . __ __ . __ __ . __ __ . __ __ .
 72
    65
 73
     6
 40
44.45
 49
12.7
 74
     0
 49
-6.349999999999999
 74
     0
 49
12.7
 74
     0
 49
-6.349999999999999
 74
     0
 49
0.0
 74
     0
 49
-6.349999999999999
 74
     0
  0
LTYPE
  5
44
330
5
100
AcDbSymbolTableRecord
100
AcDbLinetypeTableRecord
  2
BORDER2
 70
     0
  3
Border (.5x) __.__.__.__.__.__.__.__.__.__.__.
 72
    65
 73
     6
 40
22.225
 49
6.349999999999999
 74
     0
 49
-3.174999999999999
 74
     0
 49
6.349999999999999
 74
     0
 49
-3.174999999999999
 74
     0
 49
0.0
 74
     0
 49
-3.174999999999999
 74
     0
  0
LTYPE
  5
45
330
5
100
AcDbSymbolTableRecord
100
AcDbLinetypeTableRecord
  2
BORDERX2
 70
     0
  3
Border (2x) ____  ____  .  ____  ____  .  ___
 72
    65
 73
     6
 40
88.9
 49
25.4
 74
     0
 49
-12.7
 74
     0
 49
25.4
 74
     0
 49
-12.7
 74
     0
 49
0.0
 74
     0
 49
-12.7
 74
     0
  0
LTYPE
  5
46
330
5
100
AcDbSymbolTableRecord
100
AcDbLinetypeTableRecord
  2
CENTER
 70
     0
  3
Center ____ _ ____ _ ____ _ ____ _ ____ _ ____
 72
    65
 73
     4
 40
50.8
 49
31.75
 74
     0
 49
-6.349999999999999
 74
     0
 49
6.349999999999999
 74
     0
 49
-6.349999999999999
 74
     0
  0
LTYPE
  5
47
330
5
100
AcDbSymbolTableRecord
100
AcDbLinetypeTableRecord
  2
CENTER2
 70
     0
  3
Center (.5x) ___ _ ___ _ ___ _ ___ _ ___ _ ___
 72
    65
 73
     4
 40
28.575
 49
19.05
 74
     0
 49
-3.174999999999999
 74
     0
 49
3.174999999999999
 74
     0
 49
-3.174999999999999
 74
     0
  0
LTYPE
  5
48
330
5
100
AcDbSymbolTableRecord
100
AcDbLinetypeTableRecord
  2
CENTERX2
 70
     0
  3
Center (2x) ________  __  ________  __  _____
 72
    65
 73
     4
 40
101.6
 49
63.5
 74
     0
 49
-12.7
 74
     0
 49
12.7
 74
     0
 49
-12.7
 74
     0
  0
LTYPE
  5
49
330
5
100
AcDbSymbolTableRecord
100
AcDbLinetypeTableRecord
  2
DASHDOT
 70
     0
  3
Dash dot __ . __ . __ . __ . __ . __ . __ . __
 72
    65
 73
     4
 40
25.4
 49
12.7
 74
     0
 49
-6.349999999999999
 74
     0
 49
0.0
 74
     0
 49
-6.349999999999999
 74
     0
  0
LTYPE
  5
4A
330
5
100
AcDbSymbolTableRecord
100
AcDbLinetypeTableRecord
  2
DASHDOT2
 70
     0
  3
Dash dot (.5x) _._._._._._._._._._._._._._._.
 72
    65
 73
     4
 40
12.7
 49
6.349999999999999
 74
     0
 49
-3.174999999999999
 74
     0
 49
0.0
 74
     0
 49
-3.174999999999999
 74
     0
  0
LTYPE
  5
4B
330
5
100
AcDbSymbolTableRecord
100
AcDbLinetypeTableRecord
  2
DASHDOTX2
 70
     0
  3
Dash dot (2x) ____  .  ____  .  ____  .  ___
 72
    65
 73
     4
 40
50.8
 49
25.4
 74
     0
 49
-12.7
 74
     0
 49
0.0
 74
     0
 49
-12.7
 74
     0
  0
LTYPE
  5
4C
330
5
100
AcDbSymbolTableRecord
100
AcDbLinetypeTableRecord
  2
DASHED
 70
     0
  3
Dashed __ __ __ __ __ __ __ __ __ __ __ __ __ _
 72
    65
 73
     2
 40
19.05
 49
12.7
 74
     0
 49
-6.349999999999999
 74
     0
  0
LTYPE
  5
4D
330
5
100
AcDbSymbolTableRecord
100
AcDbLinetypeTableRecord
  2
DASHED2
 70
     0
  3
Dashed (.5x) _ _ _ _ _ _ _ _ _ _ _ _ _ _ _ _ _
 72
    65
 73
     2
 40
9.524999999999998
 49
6.349999999999999
 74
     0
 49
-3.174999999999999
 74
     0
  0
LTYPE
  5
4E
330
5
100
AcDbSymbolTableRecord
100
AcDbLinetypeTableRecord
  2
DASHEDX2
 70
     0
  3
Dashed (2x) ____  ____  ____  ____  ____  ___
 72
    65
 73
     2
 40
38.1
 49
25.4
 74
     0
 49
-12.7
 74
     0
  0
LTYPE
  5
4F
330
5
100
AcDbSymbolTableRecord
100
AcDbLinetypeTableRecord
  2
DIVIDE
 70
     0
  3
Divide ____ . . ____ . . ____ . . ____ . . ____
 72
    65
 73
     6
 40
31.75
 49
12.7
 74
     0
 49
-6.349999999999999
 74
     0
 49
0.0
 74
     0
 49
-6.349999999999999
 74
     0
 49
0.0
 74
     0
 49
-6.349999999999999
 74
     0
  0
LTYPE
  5
50
330
5
100
AcDbSymbolTableRecord
100
AcDbLinetypeTableRecord
  2
DIVIDE2
 70
     0
  3
Divide (.5x) __..__..__..__..__..__..__..__.._
 72
    65
 73
     6
 40
15.875
 49
6.349999999999999
 74
     0
 49
-3.174999999999999
 74
     0
 49
0.0
 74
     0
 49
-3.174999999999999
 74
     0
 49
0.0
 74
     0
 49
-3.174999999999999
 74
     0
  0
LTYPE
  5
51
330
5
100
AcDbSymbolTableRecord
100
AcDbLinetypeTableRecord
  2
DIVIDEX2
 70
     0
  3
Divide (2x) ________  .  .  ________  .  .  _
 72
    65
 73
     6
 40
63.49999999999999
 49
25.4
 74
     0
 49
-12.7
 74
     0
 49
0.0
 74
     0
 49
-12.7
 74
     0
 49
0.0
 74
     0
 49
-12.7
 74
     0
  0
LTYPE
  5
52
330
5
100
AcDbSymbolTableRecord
100
AcDbLinetypeTableRecord
  2
DOT
 70
     0
  3
Dot . . . . . . . . . . . . . . . . . . . . . .
 72
    65
 73
     2
 40
6.349999999999999
 49
0.0
 74
     0
 49
-6.349999999999999
 74
     0
  0
LTYPE
  5
53
330
5
100
AcDbSymbolTableRecord
100
AcDbLinetypeTableRecord
  2
DOT2
 70
     0
  3
Dot (.5x) .....................................
 72
    65
 73
     2
 40
3.174999999999999
 49
0.0
 74
     0
 49
-3.174999999999999
 74
     0
  0
LTYPE
  5
54
330
5
100
AcDbSymbolTableRecord
100
AcDbLinetypeTableRecord
  2
DOTX2
 70
     0
  3
Dot (2x) .  .  .  .  .  .  .  .  .  .  .  .  . 
 72
    65
 73
     2
 40
12.7
 49
0.0
 74
     0
 49
-12.7
 74
     0
  0
LTYPE
  5
55
330
5
100
AcDbSymbolTableRecord
100
AcDbLinetypeTableRecord
  2
FENCELINE1
 70
     0
  3
Fenceline circle ----0-----0----0-----0----0---
 72
    65
 73
     4
 40
36.83
 49
6.349999999999999
 74
     0
 49
-2.54
 74
     4
 75
   133
340
33
 46
2.54
 50
0.0
 44
-2.54
 45
0.0
 49
-2.54
 74
     0
 49
25.4
 74
     0
  0
LTYPE
  5
56
330
5
100
AcDbSymbolTableRecord
100
AcDbLinetypeTableRecord
  2
FENCELINE2
 70
     0
  3
Fenceline square ----[]-----[]----[]-----[]----
 72
    65
 73
     4
 40
36.83
 49
6.349999999999999
 74
     0
 49
-2.54
 74
     4
 75
   132
340
33
 46
2.54
 50
0.0
 44
-2.54
 45
0.0
 49
-2.54
 74
     0
 49
25.4
 74
     0
  0
LTYPE
  5
57
330
5
100
AcDbSymbolTableRecord
100
AcDbLinetypeTableRecord
  2
GAS_LINE
 70
     0
  3
Gas line ----GAS----GAS----GAS----GAS----GAS---
 72
    65
 73
     3
 40
24.13
 49
12.7
 74
     0
 49
-5.08
 74
     2
 75
     0
340
11
 46
2.54
 50
0.0
 44
-2.54
 45
-1.27
  9
GAS
 49
-6.349999999999999
 74
     0
  0
LTYPE
  5
58
330
5
100
AcDbSymbolTableRecord
100
AcDbLinetypeTableRecord
  2
HIDDEN
 70
     0
  3
Hidden __ __ __ __ __ __ __ __ __ __ __ __ __ _
 72
    65
 73
     2
 40
9.524999999999998
 49
6.349999999999999
 74
     0
 49
-3.174999999999999
 74
     0
  0
LTYPE
  5
59
330
5
100
AcDbSymbolTableRecord
100
AcDbLinetypeTableRecord
  2
HIDDEN2
 70
     0
  3
Hidden (.5x) _ _ _ _ _ _ _ _ _ _ _ _ _ _ _ _ _
 72
    65
 73
     2
 40
4.762499999999999
 49
3.174999999999999
 74
     0
 49
-1.587499999999999
 74
     0
  0
LTYPE
  5
5A
330
5
100
AcDbSymbolTableRecord
100
AcDbLinetypeTableRecord
  2
HIDDENX2
 70
     0
  3
Hidden (2x) ____ ____ ____ ____ ____ ____ ____
 72
    65
 73
     2
 40
19.05
 49
12.7
 74
     0
 49
-6.349999999999999
 74
     0
  0
LTYPE
  5
5B
330
5
100
AcDbSymbolTableRecord
100
AcDbLinetypeTableRecord
  2
HOT_WATER_SUPPLY
 70
     0
  3
Hot water supply ---- HW ---- HW ---- HW ----
 72
    65
 73
     3
 40
22.86
 49
12.7
 74
     0
 49
-5.08
 74
     2
 75
     0
340
11
 46
2.54
 50
0.0
 44
-2.54
 45
-1.27
  9
HW
 49
-5.08
 74
     0
  0
LTYPE
  5
5C
330
5
100
AcDbSymbolTableRecord
100
AcDbLinetypeTableRecord
  2
PHANTOM
 70
     0
  3
Phantom ______  __  __  ______  __  __  ______
 72
    65
 73
     6
 40
63.5
 49
31.75
 74
     0
 49
-6.349999999999999
 74
     0
 49
6.349999999999999
 74
     0
 49
-6.349999999999999
 74
     0
 49
6.349999999999999
 74
     0
 49
-6.349999999999999
 74
     0
  0
LTYPE
  5
5D
330
5
100
AcDbSymbolTableRecord
100
AcDbLinetypeTableRecord
  2
PHANTOM2
 70
     0
  3
Phantom (.5x) ___ _ _ ___ _ _ ___ _ _ ___ _ _
 72
    65
 73
     6
 40
31.75
 49
15.875
 74
     0
 49
-3.174999999999999
 74
     0
 49
3.174999999999999
 74
     0
 49
-3.174999999999999
 74
     0
 49
3.174999999999999
 74
     0
 49
-3.174999999999999
 74
     0
  0
LTYPE
  5
5E
330
5
100
AcDbSymbolTableRecord
100
AcDbLinetypeTableRecord
  2
PHANTOMX2
 70
     0
  3
Phantom (2x) ____________    ____    ____   _
 72
    65
 73
     6
 40
127.0
 49
63.5
 74
     0
 49
-12.7
 74
     0
 49
12.7
 74
     0
 49
-12.7
 74
     0
 49
12.7
 74
     0
 49
-12.7
 74
     0
  0
LTYPE
  5
5F
330
5
100
AcDbSymbolTableRecord
100
AcDbLinetypeTableRecord
  2
TRACKS
 70
     0
  3
Tracks -|-|-|-|-|-|-|-|-|-|-|-|-|-|-|-|-|-|-|-|
 72
    65
 73
     2
 40
7.62
 49
3.81
 74
     4
 75
   130
340
33
 46
6.349999999999999
 50
0.0
 44
0.0
 45
0.0
 49
3.81
 74
     0
  0
LTYPE
  5
60
330
5
100
AcDbSymbolTableRecord
100
AcDbLinetypeTableRecord
  2
ZIGZAG
 70
     0
  3
Zig zag /\/\/\/\/\/\/\/\/\/\/\/\/\/\/\/\/\/\/\/
 72
    65
 73
     4
 40
20.32254
 49
0.00254
 74
     0
 49
-5.08
 74
     4
 75
   131
340
33
 46
5.08
 50
0.0
 44
-5.08
 45
0.0
 49
-10.16
 74
     4
 75
   131
340
33
 46
5.08
 50
180.0
 44
5.08
 45
0.0
 49
-5.08
 74
     0
  0
ENDTAB
  0
TABLE
  2
LAYER
  5
2
102
{ACAD_XDICTIONARY
360
24C4
102
}
330
0
100
AcDbSymbolTable
 70
     9
  0
LAYER
  5
10
330
2
100
AcDbSymbolTableRecord
100
AcDbLayerTableRecord
  2
0
 70
     0
 62
     7
  6
Continuous
290
     0
370
    -3
390
F
  0
LAYER
  5
C3
330
2
100
AcDbSymbolTableRecord
100
AcDbLayerTableRecord
  2
Defpoints
 70
     0
 62
     7
  6
Continuous
290
     0
370
    -3
390
F
  0
LAYER
  5
256
330
2
100
AcDbSymbolTableRecord
100
AcDbLayerTableRecord
  2
センター
 70
     0
 62
     7
  6
CENTER2
370
    18
390
F
  0
LAYER
  5
268
330
2
100
AcDbSymbolTableRecord
100
AcDbLayerTableRecord
  2
実形
 70
     0
 62
     7
  6
Continuous
370
    -3
390
F
  0
LAYER
  5
269
330
2
100
AcDbSymbolTableRecord
100
AcDbLayerTableRecord
  2
補助
 70
     0
 62
     4
  6
Continuous
370
    -3
390
F
  0
LAYER
  5
26A
330
2
100
AcDbSymbolTableRecord
100
AcDbLayerTableRecord
  2
寸法
 70
     0
 62
     7
  6
Continuous
370
    18
390
F
  0
LAYER
  5
26B
330
2
100
AcDbSymbolTableRecord
100
AcDbLayerTableRecord
  2
ハッチング
 70
     0
 62
     7
  6
Continuous
370
    18
390
F
  0
LAYER
  5
26D
330
2
100
AcDbSymbolTableRecord
100
AcDbLayerTableRecord
  2
枠
 70
     0
 62
     7
  6
Continuous
370
    -3
390
F
  0
LAYER
  5
1B3D
330
2
100
AcDbSymbolTableRecord
100
AcDbLayerTableRecord
  2
Cen
 70
     0
 62
     7
  6
CENTER2
290
     0
370
    15
390
F
  0
ENDTAB
  0
TABLE
  2
STYLE
  5
3
330
0
100
AcDbSymbolTable
 70
     5
  0
STYLE
  5
11
330
3
100
AcDbSymbolTableRecord
100
AcDbTextStyleTableRecord
  2
Standard
 70
     0
 40
0.0
 41
1.0
 50
0.0
 71
     0
 42
30.0
  3
txt.shx
  4
bigfont.shx
  0
STYLE
  5
33
330
3
100
AcDbSymbolTableRecord
100
AcDbTextStyleTableRecord
  2

 70
     1
 40
0.0
 41
1.0
 50
0.0
 71
     0
 42
2.5
  3
ltypeshp.shx
  4

  0
STYLE
  5
35E2
330
3
100
AcDbSymbolTableRecord
100
AcDbTextStyleTableRecord
  2
ms明朝
 70
     0
 40
0.0
 41
1.0
 50
0.0
 71
     0
 42
25.0
  3
MS Mincho.ttf
  4

1001
ACAD
1000
MS Mincho
1071
    32785
  0
STYLE
  5
BE38
330
3
100
AcDbSymbolTableRecord
100
AcDbTextStyleTableRecord
  2
ｍｓ明朝1
 70
     0
 40
0.0
 41
1.0
 50
0.0
 71
     0
 42
25.0
  3
MS Mincho.ttf
  4

1001
ACAD
1000
MS Mincho
1071
    32785
  0
STYLE
  5
BE39
330
3
100
AcDbSymbolTableRecord
100
AcDbTextStyleTableRecord
  2
明朝
 70
     0
 40
0.0
 41
1.0
 50
0.0
 71
     0
 42
25.0
  3
MS Mincho.ttf
  4

1001
ACAD
1000
MS Mincho
1071
    32785
  0
ENDTAB
  0
TABLE
  2
VIEW
  5
6
330
0
100
AcDbSymbolTable
 70
     0
  0
ENDTAB
  0
TABLE
  2
UCS
  5
7
330
0
100
AcDbSymbolTable
 70
     0
  0
ENDTAB
  0
TABLE
  2
APPID
  5
9
330
0
100
AcDbSymbolTable
 70
     2
  0
APPID
  5
12
330
9
100
AcDbSymbolTableRecord
100
AcDbRegAppTableRecord
  2
ACAD
 70
     0
  0
APPID
  5
24C3
330
9
100
AcDbSymbolTableRecord
100
AcDbRegAppTableRecord
  2
ACAD_PSEXT
 70
     0
  0
ENDTAB
  0
TABLE
  2
DIMSTYLE
  5
A
330
0
100
AcDbSymbolTable
 70
     1
100
AcDbDimStyleTable
 71
     1
340
27
  0
DIMSTYLE
105
27
102
{ACAD_REACTORS
330
78E9
330
78F6
330
7A0D
330
7A2E
330
7A4D
330
7B4E
330
7BA4
330
7BCC
330
8192
330
8193
330
8279
330
827A
330
8C4D
330
8C70
330
8E06
330
8E13
330
8E29
330
8E3F
330
8E81
330
8EC8
330
8EE7
330
90B3
330
90C0
330
9201
330
9202
330
9D33
330
9D5D
330
A61A
330
A630
330
AF14
330
AF21
330
AF71
330
AF7E
330
AFEF
330
B006
330
B040
330
B16A
330
B189
330
B196
330
B1A3
330
B1DD
330
B1EA
330
B21B
330
B314
330
B32A
330
B385
330
B3E3
330
B402
330
B40F
330
B46D
330
B5D2
330
B5E8
330
B61A
330
B630
330
B673
330
B689
330
B6BA
102
}
330
A
100
AcDbSymbolTableRecord
100
AcDbDimStyleTableRecord
  2
ISO-25
 70
     0
 41
35.0
 42
65.0
 43
3.75
 44
0.0
 73
     0
 74
     0
 77
     1
 78
     8
140
25.0
141
2.5
143
0.03937007874016
147
6.25
171
     3
172
     1
271
     2
272
     2
274
     3
283
     0
284
     8
340
11
341
DA
342
D0
371
    15
372
    15
  0
ENDTAB
  0
TABLE
  2
BLOCK_RECORD
  5
1
330
0
100
AcDbSymbolTable
 70
   102
  0
BLOCK_RECORD
  5
1F
102
{ACAD_XDICTIONARY
360
2396
102
}
330
1
100
AcDbSymbolTableRecord
100
AcDbBlockTableRecord
  2
*Model_Space
340
22
  0
BLOCK_RECORD
  5
1B
330
1
100
AcDbSymbolTableRecord
100
AcDbBlockTableRecord
  2
*Paper_Space
340
1E
  0
BLOCK_RECORD
  5
23
330
1
100
AcDbSymbolTableRecord
100
AcDbBlockTableRecord
  2
*Paper_Space0
340
26
  0
BLOCK_RECORD
  5
D0
330
1
100
AcDbSymbolTableRecord
100
AcDbBlockTableRecord
  2
_DotSmall
340
0
  0
BLOCK_RECORD
  5
D4
330
1
100
AcDbSymbolTableRecord
100
AcDbBlockTableRecord
  2
_Origin2
340
0
  0
BLOCK_RECORD
  5
DA
330
1
100
AcDbSymbolTableRecord
100
AcDbBlockTableRecord
  2
_Open30
340
0
  0
BLOCK_RECORD
  5
2D6
330
1
100
AcDbSymbolTableRecord
100
AcDbBlockTableRecord
  2
A$C6CAC4411
340
0
  0
BLOCK_RECORD
  5
30D
330
1
100
AcDbSymbolTableRecord
100
AcDbBlockTableRecord
  2
_Dot
340
0
102
{BLKREFS
331
7F4A
331
7F4B
331
7F57
331
7F58
331
7F63
331
7F64
331
7F6E
331
7F6F
331
7F7A
331
7F7B
331
7F86
331
7F87
331
7F92
331
7F93
331
7F0E
331
7F0F
331
7F1B
331
7F1C
331
7F26
331
7F27
331
7F33
331
7F34
331
7F3E
331
7F3F
331
7F9E
331
7F9F
331
7FAA
331
7FAB
331
7FB6
331
7FB7
331
7FC2
331
7FC3
331
7FCE
331
7FCF
331
7FDB
331
7FDC
331
7FE6
331
7FE7
331
7FF3
331
7FF4
331
7FFE
331
7FFF
331
800B
331
800C
331
8017
331
8018
331
8022
331
8023
331
802E
331
802F
331
803B
331
803C
331
8052
331
8053
331
805E
331
805F
331
8047
331
8048
331
AB13
331
AB14
331
AB1C
331
AB1D
331
AB26
331
AB27
331
AB2F
331
AB30
331
AB37
331
AB38
331
AB40
331
AB41
331
ACF3
331
ACF4
331
ACFC
331
ACFD
331
AD05
331
AD06
331
AD0F
331
AD10
331
AD17
331
AD18
331
AD1F
331
AD20
331
ADAF
331
ADB0
331
ADC1
331
ADC2
331
ADCA
331
ADCB
331
ADD3
331
ADD4
331
AE2E
331
AE2F
331
AE36
331
AE37
331
AE48
331
AE49
331
AE51
331
AE52
331
AE5A
331
AE5B
331
AE98
331
AE99
331
AEA1
331
AEA2
331
B72E
331
B72F
331
B9C9
331
B9CA
331
B9D2
331
B9D3
331
B9DB
331
B9DC
331
B9E4
331
B9E5
331
B9F6
331
B9F7
331
B9FE
331
B9FF
331
BA08
331
BA09
331
BA11
331
BA12
331
BA1A
331
BA1B
331
BA22
331
BA23
331
BA34
331
BA35
331
BA3E
331
BA3F
331
BA74
331
BA75
331
BAA1
331
BAA2
331
BAE4
331
BAE5
331
BAF6
331
BAF7
331
BB36
331
BB37
331
BB40
331
BB41
331
BBC2
331
BBC3
331
BBDD
331
BBDE
331
BBE6
331
BBE7
331
BBEF
331
BBF0
331
BC24
331
BC25
331
BC3B
331
BC3C
331
BC79
331
BC7A
331
BD0F
331
BD10
331
BD19
331
BD1A
331
BD47
331
BD48
331
BD50
331
BD51
331
BEB7
331
BEB8
331
BECB
331
BECC
331
BEDF
331
BEE0
331
BF06
331
BF07
102
}
  0
BLOCK_RECORD
  5
313C
102
{ACAD_XDICTIONARY
360
313E
102
}
330
1
100
AcDbSymbolTableRecord
100
AcDbBlockTableRecord
  2
A$C6850087C
340
0
  0
BLOCK_RECORD
  5
3846
102
{ACAD_XDICTIONARY
360
3848
102
}
330
1
100
AcDbSymbolTableRecord
100
AcDbBlockTableRecord
  2
A$C71387EE1
340
0
  0
BLOCK_RECORD
  5
6B87
102
{ACAD_XDICTIONARY
360
6B89
102
}
330
1
100
AcDbSymbolTableRecord
100
AcDbBlockTableRecord
  2
A$C47AF373A
340
0
  0
BLOCK_RECORD
  5
6C00
102
{ACAD_XDICTIONARY
360
6C02
102
}
330
1
100
AcDbSymbolTableRecord
100
AcDbBlockTableRecord
  2
A$C2B9560D8
340
0
  0
BLOCK_RECORD
  5
7752
102
{ACAD_XDICTIONARY
360
7758
102
}
330
1
100
AcDbSymbolTableRecord
100
AcDbBlockTableRecord
  2
A$C113940D1
340
0
  0
BLOCK_RECORD
  5
78EA
330
1
100
AcDbSymbolTableRecord
100
AcDbBlockTableRecord
  2
*D11
340
0
  0
BLOCK_RECORD
  5
78F7
330
1
100
AcDbSymbolTableRecord
100
AcDbBlockTableRecord
  2
*D12
340
0
  0
BLOCK_RECORD
  5
79A0
102
{ACAD_XDICTIONARY
360
79A2
102
}
330
1
100
AcDbSymbolTableRecord
100
AcDbBlockTableRecord
  2
A$C34481AC4
340
0
  0
BLOCK_RECORD
  5
7A0E
330
1
100
AcDbSymbolTableRecord
100
AcDbBlockTableRecord
  2
*D14
340
0
  0
BLOCK_RECORD
  5
7A2F
330
1
100
AcDbSymbolTableRecord
100
AcDbBlockTableRecord
  2
*D15
340
0
  0
BLOCK_RECORD
  5
7A4E
330
1
100
AcDbSymbolTableRecord
100
AcDbBlockTableRecord
  2
*D16
340
0
  0
BLOCK_RECORD
  5
7B4F
330
1
100
AcDbSymbolTableRecord
100
AcDbBlockTableRecord
  2
*D17
340
0
  0
BLOCK_RECORD
  5
7BA5
330
1
100
AcDbSymbolTableRecord
100
AcDbBlockTableRecord
  2
*D18
340
0
  0
BLOCK_RECORD
  5
7BCD
330
1
100
AcDbSymbolTableRecord
100
AcDbBlockTableRecord
  2
*D19
340
0
  0
BLOCK_RECORD
  5
7F09
330
1
100
AcDbSymbolTableRecord
100
AcDbBlockTableRecord
  2
*D20
340
0
  0
BLOCK_RECORD
  5
7F15
330
1
100
AcDbSymbolTableRecord
100
AcDbBlockTableRecord
  2
*D21
340
0
  0
BLOCK_RECORD
  5
7F21
330
1
100
AcDbSymbolTableRecord
100
AcDbBlockTableRecord
  2
*D22
340
0
  0
BLOCK_RECORD
  5
7F2D
330
1
100
AcDbSymbolTableRecord
100
AcDbBlockTableRecord
  2
*D23
340
0
  0
BLOCK_RECORD
  5
7F39
330
1
100
AcDbSymbolTableRecord
100
AcDbBlockTableRecord
  2
*D24
340
0
  0
BLOCK_RECORD
  5
7F45
330
1
100
AcDbSymbolTableRecord
100
AcDbBlockTableRecord
  2
*D25
340
0
  0
BLOCK_RECORD
  5
7F51
330
1
100
AcDbSymbolTableRecord
100
AcDbBlockTableRecord
  2
*D26
340
0
  0
BLOCK_RECORD
  5
7F5D
330
1
100
AcDbSymbolTableRecord
100
AcDbBlockTableRecord
  2
*D27
340
0
  0
BLOCK_RECORD
  5
7F69
330
1
100
AcDbSymbolTableRecord
100
AcDbBlockTableRecord
  2
*D28
340
0
  0
BLOCK_RECORD
  5
7F75
330
1
100
AcDbSymbolTableRecord
100
AcDbBlockTableRecord
  2
*D29
340
0
  0
BLOCK_RECORD
  5
7F81
330
1
100
AcDbSymbolTableRecord
100
AcDbBlockTableRecord
  2
*D30
340
0
  0
BLOCK_RECORD
  5
7F8D
330
1
100
AcDbSymbolTableRecord
100
AcDbBlockTableRecord
  2
*D31
340
0
  0
BLOCK_RECORD
  5
7F99
330
1
100
AcDbSymbolTableRecord
100
AcDbBlockTableRecord
  2
*D32
340
0
  0
BLOCK_RECORD
  5
7FA5
330
1
100
AcDbSymbolTableRecord
100
AcDbBlockTableRecord
  2
*D33
340
0
  0
BLOCK_RECORD
  5
7FB1
330
1
100
AcDbSymbolTableRecord
100
AcDbBlockTableRecord
  2
*D34
340
0
  0
BLOCK_RECORD
  5
7FBD
330
1
100
AcDbSymbolTableRecord
100
AcDbBlockTableRecord
  2
*D35
340
0
  0
BLOCK_RECORD
  5
7FC9
330
1
100
AcDbSymbolTableRecord
100
AcDbBlockTableRecord
  2
*D36
340
0
  0
BLOCK_RECORD
  5
7FD5
330
1
100
AcDbSymbolTableRecord
100
AcDbBlockTableRecord
  2
*D37
340
0
  0
BLOCK_RECORD
  5
7FE1
330
1
100
AcDbSymbolTableRecord
100
AcDbBlockTableRecord
  2
*D38
340
0
  0
BLOCK_RECORD
  5
7FED
330
1
100
AcDbSymbolTableRecord
100
AcDbBlockTableRecord
  2
*D39
340
0
  0
BLOCK_RECORD
  5
7FF9
330
1
100
AcDbSymbolTableRecord
100
AcDbBlockTableRecord
  2
*D40
340
0
  0
BLOCK_RECORD
  5
8005
330
1
100
AcDbSymbolTableRecord
100
AcDbBlockTableRecord
  2
*D41
340
0
  0
BLOCK_RECORD
  5
8011
330
1
100
AcDbSymbolTableRecord
100
AcDbBlockTableRecord
  2
*D42
340
0
  0
BLOCK_RECORD
  5
801D
330
1
100
AcDbSymbolTableRecord
100
AcDbBlockTableRecord
  2
*D43
340
0
  0
BLOCK_RECORD
  5
8029
330
1
100
AcDbSymbolTableRecord
100
AcDbBlockTableRecord
  2
*D44
340
0
  0
BLOCK_RECORD
  5
8035
330
1
100
AcDbSymbolTableRecord
100
AcDbBlockTableRecord
  2
*D45
340
0
  0
BLOCK_RECORD
  5
8041
330
1
100
AcDbSymbolTableRecord
100
AcDbBlockTableRecord
  2
*D46
340
0
  0
BLOCK_RECORD
  5
804D
330
1
100
AcDbSymbolTableRecord
100
AcDbBlockTableRecord
  2
*D47
340
0
  0
BLOCK_RECORD
  5
8059
330
1
100
AcDbSymbolTableRecord
100
AcDbBlockTableRecord
  2
*D48
340
0
  0
BLOCK_RECORD
  5
8065
102
{ACAD_XDICTIONARY
360
80F8
102
}
330
1
100
AcDbSymbolTableRecord
100
AcDbBlockTableRecord
  2
RAS800-510GRM
340
0
  0
BLOCK_RECORD
  5
81D4
330
1
100
AcDbSymbolTableRecord
100
AcDbBlockTableRecord
  2
*D50
340
0
  0
BLOCK_RECORD
  5
81E0
330
1
100
AcDbSymbolTableRecord
100
AcDbBlockTableRecord
  2
*D51
340
0
  0
BLOCK_RECORD
  5
827C
330
1
100
AcDbSymbolTableRecord
100
AcDbBlockTableRecord
  2
*D52
340
0
  0
BLOCK_RECORD
  5
8288
330
1
100
AcDbSymbolTableRecord
100
AcDbBlockTableRecord
  2
*D53
340
0
  0
BLOCK_RECORD
  5
8C4E
330
1
100
AcDbSymbolTableRecord
100
AcDbBlockTableRecord
  2
*D54
340
0
  0
BLOCK_RECORD
  5
8C71
330
1
100
AcDbSymbolTableRecord
100
AcDbBlockTableRecord
  2
*D55
340
0
  0
BLOCK_RECORD
  5
8E07
330
1
100
AcDbSymbolTableRecord
100
AcDbBlockTableRecord
  2
*D56
340
0
  0
BLOCK_RECORD
  5
8E14
330
1
100
AcDbSymbolTableRecord
100
AcDbBlockTableRecord
  2
*D57
340
0
  0
BLOCK_RECORD
  5
8E2A
330
1
100
AcDbSymbolTableRecord
100
AcDbBlockTableRecord
  2
*D58
340
0
  0
BLOCK_RECORD
  5
8E40
330
1
100
AcDbSymbolTableRecord
100
AcDbBlockTableRecord
  2
*D59
340
0
  0
BLOCK_RECORD
  5
8E82
330
1
100
AcDbSymbolTableRecord
100
AcDbBlockTableRecord
  2
*D60
340
0
  0
BLOCK_RECORD
  5
8EA8
102
{ACAD_XDICTIONARY
360
8EAA
102
}
330
1
100
AcDbSymbolTableRecord
100
AcDbBlockTableRecord
  2
A$C02AA3AB7
340
0
  0
BLOCK_RECORD
  5
8EC9
330
1
100
AcDbSymbolTableRecord
100
AcDbBlockTableRecord
  2
*D62
340
0
  0
BLOCK_RECORD
  5
8EE8
330
1
100
AcDbSymbolTableRecord
100
AcDbBlockTableRecord
  2
*D63
340
0
  0
BLOCK_RECORD
  5
90B4
330
1
100
AcDbSymbolTableRecord
100
AcDbBlockTableRecord
  2
*D64
340
0
  0
BLOCK_RECORD
  5
90C1
330
1
100
AcDbSymbolTableRecord
100
AcDbBlockTableRecord
  2
*D65
340
0
  0
BLOCK_RECORD
  5
9203
330
1
100
AcDbSymbolTableRecord
100
AcDbBlockTableRecord
  2
*D66
340
0
  0
BLOCK_RECORD
  5
920F
330
1
100
AcDbSymbolTableRecord
100
AcDbBlockTableRecord
  2
*D67
340
0
  0
BLOCK_RECORD
  5
9BE3
102
{ACAD_XDICTIONARY
360
9BE5
102
}
330
1
100
AcDbSymbolTableRecord
100
AcDbBlockTableRecord
  2
A$C30365A2B
340
0
  0
BLOCK_RECORD
  5
9D34
330
1
100
AcDbSymbolTableRecord
100
AcDbBlockTableRecord
  2
*D69
340
0
  0
BLOCK_RECORD
  5
9D5E
330
1
100
AcDbSymbolTableRecord
100
AcDbBlockTableRecord
  2
*D70
340
0
  0
BLOCK_RECORD
  5
A61B
330
1
100
AcDbSymbolTableRecord
100
AcDbBlockTableRecord
  2
*D71
340
0
  0
BLOCK_RECORD
  5
A631
330
1
100
AcDbSymbolTableRecord
100
AcDbBlockTableRecord
  2
*D72
340
0
  0
BLOCK_RECORD
  5
AC33
102
{ACAD_XDICTIONARY
360
AC35
102
}
330
1
100
AcDbSymbolTableRecord
100
AcDbBlockTableRecord
  2
A$C390A10C6
340
0
  0
BLOCK_RECORD
  5
AF15
330
1
100
AcDbSymbolTableRecord
100
AcDbBlockTableRecord
  2
*D74
340
0
  0
BLOCK_RECORD
  5
AF22
330
1
100
AcDbSymbolTableRecord
100
AcDbBlockTableRecord
  2
*D75
340
0
  0
BLOCK_RECORD
  5
AF72
330
1
100
AcDbSymbolTableRecord
100
AcDbBlockTableRecord
  2
*D76
340
0
  0
BLOCK_RECORD
  5
AF7F
330
1
100
AcDbSymbolTableRecord
100
AcDbBlockTableRecord
  2
*D77
340
0
  0
BLOCK_RECORD
  5
AFF0
330
1
100
AcDbSymbolTableRecord
100
AcDbBlockTableRecord
  2
*D78
340
0
  0
BLOCK_RECORD
  5
B007
330
1
100
AcDbSymbolTableRecord
100
AcDbBlockTableRecord
  2
*D79
340
0
  0
BLOCK_RECORD
  5
B041
330
1
100
AcDbSymbolTableRecord
100
AcDbBlockTableRecord
  2
*D80
340
0
  0
BLOCK_RECORD
  5
B16B
330
1
100
AcDbSymbolTableRecord
100
AcDbBlockTableRecord
  2
*D81
340
0
  0
BLOCK_RECORD
  5
B18A
330
1
100
AcDbSymbolTableRecord
100
AcDbBlockTableRecord
  2
*D82
340
0
  0
BLOCK_RECORD
  5
B197
330
1
100
AcDbSymbolTableRecord
100
AcDbBlockTableRecord
  2
*D83
340
0
  0
BLOCK_RECORD
  5
B1A4
330
1
100
AcDbSymbolTableRecord
100
AcDbBlockTableRecord
  2
*D84
340
0
  0
BLOCK_RECORD
  5
B1DE
330
1
100
AcDbSymbolTableRecord
100
AcDbBlockTableRecord
  2
*D85
340
0
  0
BLOCK_RECORD
  5
B1EB
330
1
100
AcDbSymbolTableRecord
100
AcDbBlockTableRecord
  2
*D86
340
0
  0
BLOCK_RECORD
  5
B21C
330
1
100
AcDbSymbolTableRecord
100
AcDbBlockTableRecord
  2
*D87
340
0
  0
BLOCK_RECORD
  5
B315
330
1
100
AcDbSymbolTableRecord
100
AcDbBlockTableRecord
  2
*D88
340
0
  0
BLOCK_RECORD
  5
B32B
330
1
100
AcDbSymbolTableRecord
100
AcDbBlockTableRecord
  2
*D89
340
0
  0
BLOCK_RECORD
  5
B386
330
1
100
AcDbSymbolTableRecord
100
AcDbBlockTableRecord
  2
*D90
340
0
  0
BLOCK_RECORD
  5
B3E4
330
1
100
AcDbSymbolTableRecord
100
AcDbBlockTableRecord
  2
*D91
340
0
  0
BLOCK_RECORD
  5
B403
330
1
100
AcDbSymbolTableRecord
100
AcDbBlockTableRecord
  2
*D92
340
0
  0
BLOCK_RECORD
  5
B410
330
1
100
AcDbSymbolTableRecord
100
AcDbBlockTableRecord
  2
*D93
340
0
  0
BLOCK_RECORD
  5
B46E
330
1
100
AcDbSymbolTableRecord
100
AcDbBlockTableRecord
  2
*D94
340
0
  0
BLOCK_RECORD
  5
B5D3
330
1
100
AcDbSymbolTableRecord
100
AcDbBlockTableRecord
  2
*D95
340
0
  0
BLOCK_RECORD
  5
B5E9
330
1
100
AcDbSymbolTableRecord
100
AcDbBlockTableRecord
  2
*D96
340
0
  0
BLOCK_RECORD
  5
B61B
330
1
100
AcDbSymbolTableRecord
100
AcDbBlockTableRecord
  2
*D97
340
0
  0
BLOCK_RECORD
  5
B631
330
1
100
AcDbSymbolTableRecord
100
AcDbBlockTableRecord
  2
*D98
340
0
  0
BLOCK_RECORD
  5
B674
330
1
100
AcDbSymbolTableRecord
100
AcDbBlockTableRecord
  2
*D99
340
0
  0
BLOCK_RECORD
  5
B68A
330
1
100
AcDbSymbolTableRecord
100
AcDbBlockTableRecord
  2
*D100
340
0
  0
BLOCK_RECORD
  5
B6BB
330
1
100
AcDbSymbolTableRecord
100
AcDbBlockTableRecord
  2
*D101
340
0
  0
ENDTAB
  0
ENDSEC
  0
SECTION
  2
BLOCKS
  0
BLOCK
  5
20
330
1F
100
AcDbEntity
  8
0
100
AcDbBlockBegin
  2
*Model_Space
 70
     0
 10
0.0
 20
0.0
 30
0.0
  3
*Model_Space
  1

  0
ENDBLK
  5
21
330
1F
100
AcDbEntity
  8
0
100
AcDbBlockEnd
  0
BLOCK
  5
1C
330
1B
100
AcDbEntity
 67
     1
  8
0
100
AcDbBlockBegin
  2
*Paper_Space
 70
     0
 10
0.0
 20
0.0
 30
0.0
  3
*Paper_Space
  1

  0
ENDBLK
  5
1D
330
1B
100
AcDbEntity
 67
     1
  8
0
100
AcDbBlockEnd
  0
BLOCK
  5
24
330
23
100
AcDbEntity
  8
0
100
AcDbBlockBegin
  2
*Paper_Space0
 70
     0
 10
0.0
 20
0.0
 30
0.0
  3
*Paper_Space0
  1

  0
ENDBLK
  5
25
330
23
100
AcDbEntity
  8
0
100
AcDbBlockEnd
  0
BLOCK
  5
D2
330
D0
100
AcDbEntity
  8
0
100
AcDbBlockBegin
  2
_DotSmall
 70
     0
 10
0.0
 20
0.0
 30
0.0
  3
_DotSmall
  1

  0
LWPOLYLINE
  5
D1
330
D0
100
AcDbEntity
  8
0
 62
     0
100
AcDbPolyline
 90
        2
 70
     1
 43
0.5
 10
-0.0625
 20
0.0
 42
1.0
 10
0.0625
 20
0.0
 42
1.0
  0
ENDBLK
  5
D3
330
D0
100
AcDbEntity
  8
0
100
AcDbBlockEnd
  0
BLOCK
  5
D8
330
D4
100
AcDbEntity
  8
0
100
AcDbBlockBegin
  2
_Origin2
 70
     0
 10
0.0
 20
0.0
 30
0.0
  3
_Origin2
  1

  0
CIRCLE
  5
D5
330
D4
100
AcDbEntity
  8
0
 62
     0
370
    -2
100
AcDbCircle
 10
0.0
 20
0.0
 30
0.0
 40
0.5
  0
CIRCLE
  5
D6
330
D4
100
AcDbEntity
  8
0
 62
     0
370
    -2
100
AcDbCircle
 10
0.0
 20
0.0
 30
0.0
 40
0.25
  0
LINE
  5
D7
330
D4
100
AcDbEntity
  8
0
 62
     0
370
    -2
100
AcDbLine
 10
-0.5
 20
0.0
 30
0.0
 11
-1.0
 21
0.0
 31
0.0
  0
ENDBLK
  5
D9
330
D4
100
AcDbEntity
  8
0
100
AcDbBlockEnd
  0
BLOCK
  5
DE
330
DA
100
AcDbEntity
  8
0
100
AcDbBlockBegin
  2
_Open30
 70
     0
 10
0.0
 20
0.0
 30
0.0
  3
_Open30
  1

  0
LINE
  5
DB
330
DA
100
AcDbEntity
  8
0
 62
     0
370
    -2
100
AcDbLine
 10
-1.0
 20
0.26794919
 30
0.0
 11
0.0
 21
0.0
 31
0.0
  0
LINE
  5
DC
330
DA
100
AcDbEntity
  8
0
 62
     0
370
    -2
100
AcDbLine
 10
0.0
 20
0.0
 30
0.0
 11
-1.0
 21
-0.26794919
 31
0.0
  0
LINE
  5
DD
330
DA
100
AcDbEntity
  8
0
 62
     0
370
    -2
100
AcDbLine
 10
0.0
 20
0.0
 30
0.0
 11
-1.0
 21
0.0
 31
0.0
  0
ENDBLK
  5
DF
330
DA
100
AcDbEntity
  8
0
100
AcDbBlockEnd
  0
BLOCK
  5
2E7
330
2D6
100
AcDbEntity
  8
0
100
AcDbBlockBegin
  2
A$C6CAC4411
 70
     0
 10
0.0
 20
0.0
 30
0.0
  3
A$C6CAC4411
  1

  0
TEXT
  5
2D7
330
2D6
100
AcDbEntity
  8
0
100
AcDbText
 10
176.2557717918098
 20
0.0000022116982912
 30
0.0
 40
40.0
  1
中外交易株式会社
 72
     4
 11
364.2557717918098
 21
20.0000022116983
 31
0.0
100
AcDbText
  0
LINE
  5
2D8
330
2D6
100
AcDbEntity
  8
0
100
AcDbLine
 10
-0.0000028735375963
 20
52.5000022116983
 30
0.0
 11
599.9999971264624
 21
52.5000022116983
 31
0.0
  0
HATCH
  5
2D9
330
2D6
100
AcDbEntity
  8
実形
100
AcDbHatch
 10
0.0
 20
0.0
 30
0.0
210
0.0
220
0.0
230
1.0
  2
SOLID
 70
     1
 71
     1
 91
        3
 92
        1
 93
        4
 72
     2
 10
133.1661954404576
 20
20.0000022116983
 40
20.0
 50
11.64772366707622
 51
342.6561058784662
 73
     1
 72
     1
 10
152.2568494677857
 20
14.03787769028346
 11
128.1661954404576
 21
14.03787769028349
 72
     1
 10
128.1661954404576
 20
14.03787769028349
 11
128.1661954404576
 21
24.0378776902835
 72
     1
 10
128.1661954404576
 20
24.0378776902835
 11
152.7543439394721
 21
24.0378776902835
 97
        4
330
2DF
330
2DC
330
2E0
330
2DD
 92
        1
 93
        4
 72
     2
 10
64.25577179180982
 20
20.0000022116983
 40
20.0
 50
11.64772366707622
 51
342.6561058784662
 73
     1
 72
     1
 10
83.34642581913795
 20
14.03787769028346
 11
59.25577179180982
 21
14.03787769028349
 72
     1
 10
59.25577179180982
 20
14.03787769028349
 11
59.25577179180982
 21
24.0378776902835
 72
     1
 10
59.25577179180982
 20
24.0378776902835
 11
83.84392029082437
 21
24.0378776902835
 97
        4
330
2DE
330
2DB
330
2E1
330
2DA
 92
        1
 93
        5
 72
     1
 10
121.6418911694018
 20
40.0000022116983
 11
86.64189116940178
 21
40.0000022116983
 72
     1
 10
86.64189116940178
 20
40.0000022116983
 11
86.64189116940178
 21
0.0000022116983018
 72
     1
 10
86.64189116940178
 20
0.0000022116983018
 11
121.6418911694018
 21
0.0000022116983018
 72
     1
 10
121.6418911694018
 20
0.0000022116983018
 11
86.64189116940178
 21
20.0000022116983
 72
     1
 10
86.64189116940178
 20
20.0000022116983
 11
121.6418911694018
 21
40.0000022116983
 97
        5
330
2E2
330
2E3
330
2E5
330
2E6
330
2E4
 75
     0
 76
     1
 98
        1
 10
-2184.000002873538
 20
-16.4999977883017
  0
LINE
  5
2DA
102
{ACAD_REACTORS
330
2D9
102
}
330
2D6
100
AcDbEntity
  8
実形
370
     5
100
AcDbLine
 10
83.84392029082437
 20
24.0378776902835
 30
0.0
 11
59.25577179180982
 21
24.0378776902835
 31
0.0
  0
LINE
  5
2DB
102
{ACAD_REACTORS
330
2D9
102
}
330
2D6
100
AcDbEntity
  8
実形
370
     5
100
AcDbLine
 10
59.25577179180982
 20
14.03787769028349
 30
0.0
 11
83.34642581913795
 21
14.03787769028346
 31
0.0
  0
LINE
  5
2DC
102
{ACAD_REACTORS
330
2D9
102
}
330
2D6
100
AcDbEntity
  8
実形
370
     5
100
AcDbLine
 10
128.1661954404576
 20
14.03787769028349
 30
0.0
 11
152.2568494677857
 21
14.03787769028346
 31
0.0
  0
LINE
  5
2DD
102
{ACAD_REACTORS
330
2D9
102
}
330
2D6
100
AcDbEntity
  8
実形
370
     5
100
AcDbLine
 10
152.7543439394721
 20
24.0378776902835
 30
0.0
 11
128.1661954404576
 21
24.0378776902835
 31
0.0
  0
ARC
  5
2DE
102
{ACAD_REACTORS
330
2D9
102
}
330
2D6
100
AcDbEntity
  8
実形
370
     5
100
AcDbCircle
 10
64.25577179180982
 20
20.0000022116983
 30
0.0
 40
20.0
100
AcDbArc
 50
11.6477236670758
 51
342.6561058784691
  0
ARC
  5
2DF
102
{ACAD_REACTORS
330
2D9
102
}
330
2D6
100
AcDbEntity
  8
実形
370
     5
100
AcDbCircle
 10
133.1661954404576
 20
20.0000022116983
 30
0.0
 40
20.0
100
AcDbArc
 50
11.6477236670758
 51
342.6561058784691
  0
LINE
  5
2E0
102
{ACAD_REACTORS
330
2D9
102
}
330
2D6
100
AcDbEntity
  8
実形
370
     5
100
AcDbLine
 10
128.1661954404576
 20
24.0378776902835
 30
0.0
 11
128.1661954404576
 21
14.03787769028349
 31
0.0
  0
LINE
  5
2E1
102
{ACAD_REACTORS
330
2D9
102
}
330
2D6
100
AcDbEntity
  8
実形
370
     5
100
AcDbLine
 10
59.25577179180982
 20
24.0378776902835
 30
0.0
 11
59.25577179180982
 21
14.03787769028349
 31
0.0
  0
LINE
  5
2E2
102
{ACAD_REACTORS
330
2D9
102
}
330
2D6
100
AcDbEntity
  8
実形
370
     5
100
AcDbLine
 10
121.6418911694018
 20
40.0000022116983
 30
0.0
 11
86.64189116940178
 21
40.0000022116983
 31
0.0
  0
LINE
  5
2E3
102
{ACAD_REACTORS
330
2D9
102
}
330
2D6
100
AcDbEntity
  8
実形
370
     5
100
AcDbLine
 10
86.64189116940178
 20
40.0000022116983
 30
0.0
 11
86.64189116940178
 21
0.0000022116983018
 31
0.0
  0
LINE
  5
2E4
102
{ACAD_REACTORS
330
2D9
102
}
330
2D6
100
AcDbEntity
  8
実形
370
     5
100
AcDbLine
 10
86.64189116940178
 20
20.0000022116983
 30
0.0
 11
121.6418911694018
 21
40.0000022116983
 31
0.0
  0
LINE
  5
2E5
102
{ACAD_REACTORS
330
2D9
102
}
330
2D6
100
AcDbEntity
  8
実形
370
     5
100
AcDbLine
 10
86.64189116940178
 20
0.0000022116983018
 30
0.0
 11
121.6418911694018
 21
0.0000022116983018
 31
0.0
  0
LINE
  5
2E6
102
{ACAD_REACTORS
330
2D9
102
}
330
2D6
100
AcDbEntity
  8
実形
370
     5
100
AcDbLine
 10
121.6418911694018
 20
0.0000022116983018
 30
0.0
 11
86.64189116940178
 21
20.0000022116983
 31
0.0
  0
ENDBLK
  5
2E8
330
2D6
100
AcDbEntity
  8
0
100
AcDbBlockEnd
  0
BLOCK
  5
310
330
30D
100
AcDbEntity
  8
0
100
AcDbBlockBegin
  2
_Dot
 70
     0
 10
0.0
 20
0.0
 30
0.0
  3
_Dot
  1

  0
LWPOLYLINE
  5
30E
330
30D
100
AcDbEntity
  8
0
 62
     0
100
AcDbPolyline
 90
        2
 70
     1
 43
0.5
 10
-0.25
 20
0.0
 42
1.0
 10
0.25
 20
0.0
 42
1.0
  0
LINE
  5
30F
330
30D
100
AcDbEntity
  8
0
 62
     0
370
    -2
100
AcDbLine
 10
-0.5
 20
0.0
 30
0.0
 11
-1.0
 21
0.0
 31
0.0
  0
ENDBLK
  5
311
330
30D
100
AcDbEntity
  8
0
100
AcDbBlockEnd
  0
BLOCK
  5
3140
330
313C
100
AcDbEntity
  8
0
100
AcDbBlockBegin
  2
A$C6850087C
 70
     0
 10
0.0
 20
0.0
 30
0.0
  3
A$C6850087C
  1

  0
TEXT
  5
313D
330
313C
100
AcDbEntity
  8
実形
 62
     0
 48
20.0
100
AcDbText
 10
0.0
 20
0.0
 30
0.0
 40
40.0
  1
平面図
100
AcDbText
  0
ENDBLK
  5
3141
330
313C
100
AcDbEntity
  8
0
100
AcDbBlockEnd
  0
BLOCK
  5
384A
330
3846
100
AcDbEntity
  8
0
 62
     1
100
AcDbBlockBegin
  2
A$C71387EE1
 70
     0
 10
0.0
 20
0.0
 30
0.0
  3
A$C71387EE1
  1

  0
HATCH
  5
3847
330
3846
100
AcDbEntity
  8
実形
 62
     0
100
AcDbHatch
 10
0.0
 20
0.0
 30
0.0
210
0.0
220
0.0
230
1.0
  2
SOLID
 70
     1
 71
     0
 91
        1
 92
        7
 72
     1
 73
     1
 93
        2
 10
4.552685078746208
 20
-0.0000011660104065
 42
-1.0
 10
4.54872920619573
 20
9.101406589272301
 42
-1.0
 97
        0
 75
     0
 76
     1
 47
0.1166526434546944
 98
        1
 10
6.65106624868099
 20
3.151407247997667
  0
ENDBLK
  5
384B
330
3846
100
AcDbEntity
  8
0
 62
     1
100
AcDbBlockEnd
  0
BLOCK
  5
6B8B
330
6B87
100
AcDbEntity
  8
0
 62
     3
100
AcDbBlockBegin
  2
A$C47AF373A
 70
     0
 10
0.0
 20
0.0
 30
0.0
  3
A$C47AF373A
  1

  0
LINE
  5
6B88
330
6B87
100
AcDbEntity
  8
枠
 62
     0
100
AcDbLine
 10
-0.0000111344452307
 20
0.0000048001220421
 30
0.0
 11
-0.0000111344452307
 21
2020.000004800122
 31
0.0
  0
ENDBLK
  5
6B8C
330
6B87
100
AcDbEntity
  8
0
 62
     3
100
AcDbBlockEnd
  0
BLOCK
  5
6C04
330
6C00
100
AcDbEntity
  8
0
 62
     3
100
AcDbBlockBegin
  2
A$C2B9560D8
 70
     0
 10
0.0
 20
0.0
 30
0.0
  3
A$C2B9560D8
  1

  0
LINE
  5
6C01
330
6C00
100
AcDbEntity
  8
枠
 62
     0
100
AcDbLine
 10
-0.0000103150450741
 20
2020.000004800122
 30
0.0
 11
-0.0000103150450741
 21
0.0000048001220421
 31
0.0
  0
ENDBLK
  5
6C05
330
6C00
100
AcDbEntity
  8
0
 62
     3
100
AcDbBlockEnd
  0
BLOCK
  5
775A
330
7752
100
AcDbEntity
  8
0
 62
     3
100
AcDbBlockBegin
  2
A$C113940D1
 70
     0
 10
0.0
 20
0.0
 30
0.0
  3
A$C113940D1
  1

  0
LINE
  5
7753
330
7752
100
AcDbEntity
  8
実形
 62
     0
100
AcDbLine
 10
0.0
 20
65.0
 30
0.0
 11
720.0
 21
65.0
 31
0.0
  0
LINE
  5
7754
330
7752
100
AcDbEntity
  8
実形
 62
     0
100
AcDbLine
 10
0.0
 20
-195.0
 30
0.0
 11
0.0
 21
65.0
 31
0.0
  0
LINE
  5
7755
330
7752
100
AcDbEntity
  8
実形
 62
     0
100
AcDbLine
 10
120.0
 20
-130.0
 30
0.0
 11
120.0
 21
65.00000000000006
 31
0.0
  0
TEXT
  5
7756
330
7752
100
AcDbEntity
  8
枠
 62
     0
100
AcDbText
 10
23.83333333333334
 20
15.00000000000001
 30
0.0
 40
35.0
  1
品名
 72
     4
 11
60.0
 21
32.5
 31
0.0
100
AcDbText
  0
TEXT
  5
7757
330
7752
100
AcDbEntity
  8
実形
100
AcDbText
 10
214.0405358305962
 20
13.16420861765831
 30
0.0
 40
40.0
  1
ｱﾝﾀﾞｰｼﾝｸ
 72
     4
 11
302.0405358305961
 21
31.83087528432498
 31
0.0
100
AcDbText
  0
ENDBLK
  5
775B
330
7752
100
AcDbEntity
  8
0
 62
     3
100
AcDbBlockEnd
  0
BLOCK
  5
78F4
330
78EA
100
AcDbEntity
  8
0
 62
     3
100
AcDbBlockBegin
  2
*D11
 70
     1
 10
0.0
 20
0.0
 30
0.0
  3
*D11
  1

  0
LINE
  5
AE45
330
78EA
100
AcDbEntity
  8
実形
 62
     0
370
    18
100
AcDbLine
 10
2061.612174181921
 20
1666.889684779004
 30
0.0
 11
2109.935511322587
 21
1666.889684779004
 31
0.0
  0
LINE
  5
AE46
330
78EA
100
AcDbEntity
  8
実形
 62
     0
370
    18
100
AcDbLine
 10
2061.612174181921
 20
1206.889684779004
 30
0.0
 11
2109.935511322587
 21
1206.889684779004
 31
0.0
  0
LINE
  5
AE47
330
78EA
100
AcDbEntity
  8
実形
 62
     0
370
    18
100
AcDbLine
 10
2109.935511322587
 20
1656.889684779004
 30
0.0
 11
2109.935511322587
 21
1216.889684779005
 31
0.0
  0
INSERT
  5
AE48
330
78EA
100
AcDbEntity
  8
実形
 62
     0
370
    18
100
AcDbBlockReference
  2
_Dot
 10
2109.935511322587
 20
1666.889684779004
 30
0.0
 41
10.0
 42
10.0
 43
10.0
 50
90.0
  0
INSERT
  5
AE49
330
78EA
100
AcDbEntity
  8
実形
 62
     0
370
    18
100
AcDbBlockReference
  2
_Dot
 10
2109.935511322587
 20
1206.889684779004
 30
0.0
 41
10.0
 42
10.0
 43
10.0
 50
270.0
  0
MTEXT
  5
AE4A
330
78EA
100
AcDbEntity
  8
実形
 62
     0
100
AcDbMText
 10
2090.835511322586
 20
1436.889684779005
 30
0.0
 40
25.0
 41
0.0
 71
     5
 72
     1
  1
460
 11
0.0000000000000001
 21
1.0
 31
0.0
 73
     1
 44
1.0
1001
ACAD
1000
MTEXTBEGIN
1070
    73
1070
     1
1070
    44
1040
1.0
1070
    74
1070
     0
1000
MTEXTEND
  0
POINT
  5
AE4B
330
78EA
100
AcDbEntity
  8
Defpoints
 62
     0
100
AcDbPoint
 10
1996.612174181921
 20
1666.889684779004
 30
0.0
  0
POINT
  5
AE4C
330
78EA
100
AcDbEntity
  8
Defpoints
 62
     0
100
AcDbPoint
 10
1996.612174181921
 20
1206.889684779004
 30
0.0
  0
POINT
  5
AE4D
330
78EA
100
AcDbEntity
  8
Defpoints
 62
     0
100
AcDbPoint
 10
2109.935511322587
 20
1206.889684779004
 30
0.0
  0
ENDBLK
  5
78F5
330
78EA
100
AcDbEntity
  8
0
 62
     3
100
AcDbBlockEnd
  0
BLOCK
  5
7901
330
78F7
100
AcDbEntity
  8
0
 62
     3
100
AcDbBlockBegin
  2
*D12
 70
     1
 10
0.0
 20
0.0
 30
0.0
  3
*D12
  1

  0
LINE
  5
BC75
330
78F7
100
AcDbEntity
  8
実形
 62
     0
370
    18
100
AcDbLine
 10
2013.677738162502
 20
1681.889684779005
 30
0.0
 11
2109.935511322587
 21
1681.889684779005
 31
0.0
  0
LINE
  5
BC76
330
78F7
100
AcDbEntity
  8
実形
 62
     0
370
    18
100
AcDbLine
 10
2013.822496232561
 20
1191.889684779005
 30
0.0
 11
2109.935511322587
 21
1191.889684779005
 31
0.0
  0
LINE
  5
BC77
330
78F7
100
AcDbEntity
  8
実形
 62
     0
370
    18
100
AcDbLine
 10
2109.935511322587
 20
1671.889684779005
 30
0.0
 11
2109.935511322587
 21
1201.889684779005
 31
0.0
  0
MTEXT
  5
BC78
330
78F7
100
AcDbEntity
  8
実形
 62
     0
100
AcDbMText
 10
2088.335511322586
 20
1711.43682340528
 30
0.0
 40
25.0
 41
0.0
 71
     5
 72
     1
  1
15
 11
0.0000000000000001
 21
1.0
 31
0.0
 73
     1
 44
1.0
1001
ACAD
1000
MTEXTBEGIN
1070
    73
1070
     1
1070
    44
1040
1.0
1070
    74
1070
     0
1000
MTEXTEND
  0
INSERT
  5
BC79
330
78F7
100
AcDbEntity
  8
実形
 62
     0
370
    18
100
AcDbBlockReference
  2
_Dot
 10
2109.935511322587
 20
1681.889684779005
 30
0.0
 41
10.0
 42
10.0
 43
10.0
 50
90.0
  0
INSERT
  5
BC7A
330
78F7
100
AcDbEntity
  8
実形
 62
     0
370
    18
100
AcDbBlockReference
  2
_Dot
 10
2109.935511322587
 20
1191.889684779005
 30
0.0
 41
10.0
 42
10.0
 43
10.0
 50
270.0
  0
POINT
  5
BC7B
330
78F7
100
AcDbEntity
  8
Defpoints
 62
     0
100
AcDbPoint
 10
1948.677738162501
 20
1681.889684779005
 30
0.0
  0
POINT
  5
BC7C
330
78F7
100
AcDbEntity
  8
Defpoints
 62
     0
100
AcDbPoint
 10
1948.82249623256
 20
1191.889684779005
 30
0.0
  0
POINT
  5
BC7D
330
78F7
100
AcDbEntity
  8
Defpoints
 62
     0
100
AcDbPoint
 10
2109.935511322587
 20
1191.889684779005
 30
0.0
  0
ENDBLK
  5
7902
330
78F7
100
AcDbEntity
  8
0
 62
     3
100
AcDbBlockEnd
  0
BLOCK
  5
79A4
330
79A0
100
AcDbEntity
  8
0
 62
     3
100
AcDbBlockBegin
  2
A$C34481AC4
 70
     0
 10
0.0
 20
0.0
 30
0.0
  3
A$C34481AC4
  1

  0
TEXT
  5
79A1
330
79A0
100
AcDbEntity
  8
実形
370
    13
100
AcDbText
 10
21.66666199574517
 20
-1.666654965347788
 30
0.0
 40
25.0
  1
●
 71
     2
 72
     1
 11
9.999995329078501
 21
-1.666654965347788
 31
0.0
100
AcDbText
  0
ENDBLK
  5
79A5
330
79A0
100
AcDbEntity
  8
0
 62
     3
100
AcDbBlockEnd
  0
BLOCK
  5
7A18
330
7A0E
100
AcDbEntity
  8
0
 62
     3
100
AcDbBlockBegin
  2
*D14
 70
     1
 10
0.0
 20
0.0
 30
0.0
  3
*D14
  1

  0
LINE
  5
AB3D
330
7A0E
100
AcDbEntity
  8
実形
 62
     0
370
    18
100
AcDbLine
 10
653.5531876458917
 20
1666.889684779005
 30
0.0
 11
590.1099680540956
 21
1666.889684779005
 31
0.0
  0
LINE
  5
AB3E
330
7A0E
100
AcDbEntity
  8
実形
 62
     0
370
    18
100
AcDbLine
 10
632.5320404303583
 20
1576.889684779005
 30
0.0
 11
590.1099680540956
 21
1576.889684779005
 31
0.0
  0
LINE
  5
AB3F
330
7A0E
100
AcDbEntity
  8
実形
 62
     0
370
    18
100
AcDbLine
 10
590.1099680540956
 20
1656.889684779004
 30
0.0
 11
590.1099680540956
 21
1586.889684779005
 31
0.0
  0
INSERT
  5
AB40
330
7A0E
100
AcDbEntity
  8
実形
 62
     0
370
    18
100
AcDbBlockReference
  2
_Dot
 10
590.1099680540956
 20
1666.889684779005
 30
0.0
 41
10.0
 42
10.0
 43
10.0
 50
90.0
  0
INSERT
  5
AB41
330
7A0E
100
AcDbEntity
  8
実形
 62
     0
370
    18
100
AcDbBlockReference
  2
_Dot
 10
590.1099680540956
 20
1576.889684779005
 30
0.0
 41
10.0
 42
10.0
 43
10.0
 50
270.0
  0
MTEXT
  5
AB42
330
7A0E
100
AcDbEntity
  8
実形
 62
     0
100
AcDbMText
 10
571.0099680540953
 20
1621.889684779005
 30
0.0
 40
25.0
 41
0.0
 71
     5
 72
     1
  1
90
 11
0.0000000000000001
 21
1.0
 31
0.0
 73
     1
 44
1.0
1001
ACAD
1000
MTEXTBEGIN
1070
    73
1070
     1
1070
    44
1040
1.0
1070
    74
1070
     0
1000
MTEXTEND
  0
POINT
  5
AB43
330
7A0E
100
AcDbEntity
  8
Defpoints
 62
     0
100
AcDbPoint
 10
718.5531876458917
 20
1666.889684779005
 30
0.0
  0
POINT
  5
AB44
330
7A0E
100
AcDbEntity
  8
Defpoints
 62
     0
100
AcDbPoint
 10
697.5320404303584
 20
1576.889684779005
 30
0.0
  0
POINT
  5
AB45
330
7A0E
100
AcDbEntity
  8
Defpoints
 62
     0
100
AcDbPoint
 10
590.1099680540956
 20
1576.889684779005
 30
0.0
  0
ENDBLK
  5
7A19
330
7A0E
100
AcDbEntity
  8
0
 62
     3
100
AcDbBlockEnd
  0
BLOCK
  5
7A39
330
7A2F
100
AcDbEntity
  8
0
 62
     3
100
AcDbBlockBegin
  2
*D15
 70
     1
 10
0.0
 20
0.0
 30
0.0
  3
*D15
  1

  0
LINE
  5
AB34
330
7A2F
100
AcDbEntity
  8
実形
 62
     0
370
    18
100
AcDbLine
 10
650.4562485720925
 20
1576.889684779005
 30
0.0
 11
590.1099680540956
 21
1576.889684779005
 31
0.0
  0
LINE
  5
AB35
330
7A2F
100
AcDbEntity
  8
実形
 62
     0
370
    18
100
AcDbLine
 10
655.5764680902375
 20
1226.889684779005
 30
0.0
 11
590.1099680540954
 21
1226.889684779005
 31
0.0
  0
LINE
  5
AB36
330
7A2F
100
AcDbEntity
  8
実形
 62
     0
370
    18
100
AcDbLine
 10
590.1099680540956
 20
1566.889684779005
 30
0.0
 11
590.1099680540954
 21
1236.889684779004
 31
0.0
  0
INSERT
  5
AB37
330
7A2F
100
AcDbEntity
  8
実形
 62
     0
370
    18
100
AcDbBlockReference
  2
_Dot
 10
590.1099680540956
 20
1576.889684779005
 30
0.0
 41
10.0
 42
10.0
 43
10.0
 50
90.0
  0
INSERT
  5
AB38
330
7A2F
100
AcDbEntity
  8
実形
 62
     0
370
    18
100
AcDbBlockReference
  2
_Dot
 10
590.1099680540954
 20
1226.889684779005
 30
0.0
 41
10.0
 42
10.0
 43
10.0
 50
270.0
  0
MTEXT
  5
AB39
330
7A2F
100
AcDbEntity
  8
実形
 62
     0
100
AcDbMText
 10
571.0099680540953
 20
1401.889684779005
 30
0.0
 40
25.0
 41
0.0
 71
     5
 72
     1
  1
350
 11
0.0000000000000001
 21
1.0
 31
0.0
 73
     1
 44
1.0
1001
ACAD
1000
MTEXTBEGIN
1070
    73
1070
     1
1070
    44
1040
1.0
1070
    74
1070
     0
1000
MTEXTEND
  0
POINT
  5
AB3A
330
7A2F
100
AcDbEntity
  8
Defpoints
 62
     0
100
AcDbPoint
 10
715.4562485720926
 20
1576.889684779005
 30
0.0
  0
POINT
  5
AB3B
330
7A2F
100
AcDbEntity
  8
Defpoints
 62
     0
100
AcDbPoint
 10
720.5764680902375
 20
1226.889684779005
 30
0.0
  0
POINT
  5
AB3C
330
7A2F
100
AcDbEntity
  8
Defpoints
 62
     0
100
AcDbPoint
 10
590.1099680540954
 20
1226.889684779005
 30
0.0
  0
ENDBLK
  5
7A3A
330
7A2F
100
AcDbEntity
  8
0
 62
     3
100
AcDbBlockEnd
  0
BLOCK
  5
7A58
330
7A4E
100
AcDbEntity
  8
0
 62
     3
100
AcDbBlockBegin
  2
*D16
 70
     1
 10
0.0
 20
0.0
 30
0.0
  3
*D16
  1

  0
LINE
  5
AB2B
330
7A4E
100
AcDbEntity
  8
実形
 62
     0
370
    18
100
AcDbLine
 10
657.7767729627303
 20
1681.889684779005
 30
0.0
 11
590.1099680540956
 21
1681.889684779005
 31
0.0
  0
LINE
  5
AB2C
330
7A4E
100
AcDbEntity
  8
実形
 62
     0
370
    18
100
AcDbLine
 10
655.0460593068256
 20
1191.889684779005
 30
0.0
 11
590.1099680540954
 21
1191.889684779005
 31
0.0
  0
LINE
  5
AB2D
330
7A4E
100
AcDbEntity
  8
実形
 62
     0
370
    18
100
AcDbLine
 10
590.1099680540956
 20
1671.889684779005
 30
0.0
 11
590.1099680540954
 21
1201.889684779005
 31
0.0
  0
MTEXT
  5
AB2E
330
7A4E
100
AcDbEntity
  8
実形
 62
     0
100
AcDbMText
 10
568.5099680540953
 20
1705.594763099022
 30
0.0
 40
25.0
 41
0.0
 71
     5
 72
     1
  1
15
 11
0.0000000000000001
 21
1.0
 31
0.0
 73
     1
 44
1.0
1001
ACAD
1000
MTEXTBEGIN
1070
    73
1070
     1
1070
    44
1040
1.0
1070
    74
1070
     0
1000
MTEXTEND
  0
INSERT
  5
AB2F
330
7A4E
100
AcDbEntity
  8
実形
 62
     0
370
    18
100
AcDbBlockReference
  2
_Dot
 10
590.1099680540956
 20
1681.889684779005
 30
0.0
 41
10.0
 42
10.0
 43
10.0
 50
90.0
  0
INSERT
  5
AB30
330
7A4E
100
AcDbEntity
  8
実形
 62
     0
370
    18
100
AcDbBlockReference
  2
_Dot
 10
590.1099680540954
 20
1191.889684779005
 30
0.0
 41
10.0
 42
10.0
 43
10.0
 50
270.0
  0
POINT
  5
AB31
330
7A4E
100
AcDbEntity
  8
Defpoints
 62
     0
100
AcDbPoint
 10
722.7767729627303
 20
1681.889684779005
 30
0.0
  0
POINT
  5
AB32
330
7A4E
100
AcDbEntity
  8
Defpoints
 62
     0
100
AcDbPoint
 10
720.0460593068255
 20
1191.889684779005
 30
0.0
  0
POINT
  5
AB33
330
7A4E
100
AcDbEntity
  8
Defpoints
 62
     0
100
AcDbPoint
 10
590.1099680540954
 20
1191.889684779005
 30
0.0
  0
ENDBLK
  5
7A59
330
7A4E
100
AcDbEntity
  8
0
 62
     3
100
AcDbBlockEnd
  0
BLOCK
  5
7B59
330
7B4F
100
AcDbEntity
  8
0
 62
     3
100
AcDbBlockBegin
  2
*D17
 70
     1
 10
0.0
 20
0.0
 30
0.0
  3
*D17
  1

  0
LINE
  5
AB22
330
7B4F
100
AcDbEntity
  8
実形
 62
     0
370
    18
100
AcDbLine
 10
655.5764680902375
 20
1206.889684779004
 30
0.0
 11
590.1099680540954
 21
1206.889684779004
 31
0.0
  0
LINE
  5
AB23
330
7B4F
100
AcDbEntity
  8
実形
 62
     0
370
    18
100
AcDbLine
 10
620.1094764152331
 20
1576.889684779005
 30
0.0
 11
590.1099680540956
 21
1576.889684779005
 31
0.0
  0
LINE
  5
AB24
330
7B4F
100
AcDbEntity
  8
実形
 62
     0
370
    18
100
AcDbLine
 10
590.1099680540954
 20
1216.889684779005
 30
0.0
 11
590.1099680540956
 21
1566.889684779005
 31
0.0
  0
MTEXT
  5
AB25
330
7B4F
100
AcDbEntity
  8
実形
 62
     0
100
AcDbMText
 10
568.5279127866287
 20
1240.170939266726
 30
0.0
 40
25.0
 41
0.0
 71
     5
 72
     1
  1
20
 11
0.0000000000000001
 21
1.0
 31
0.0
 73
     1
 44
1.0
1001
ACAD
1000
MTEXTBEGIN
1070
    73
1070
     1
1070
    44
1040
1.0
1070
    74
1070
     0
1000
MTEXTEND
  0
INSERT
  5
AB26
330
7B4F
100
AcDbEntity
  8
実形
 62
     0
370
    18
100
AcDbBlockReference
  2
_Dot
 10
590.1099680540954
 20
1206.889684779004
 30
0.0
 41
10.0
 42
10.0
 43
10.0
 50
270.0
  0
INSERT
  5
AB27
330
7B4F
100
AcDbEntity
  8
実形
 62
     0
370
    18
100
AcDbBlockReference
  2
_Dot
 10
590.1099680540956
 20
1576.889684779005
 30
0.0
 41
10.0
 42
10.0
 43
10.0
 50
90.0
  0
POINT
  5
AB28
330
7B4F
100
AcDbEntity
  8
Defpoints
 62
     0
100
AcDbPoint
 10
720.5764680902375
 20
1206.889684779004
 30
0.0
  0
POINT
  5
AB29
330
7B4F
100
AcDbEntity
  8
Defpoints
 62
     0
100
AcDbPoint
 10
685.109476415233
 20
1576.889684779005
 30
0.0
  0
POINT
  5
AB2A
330
7B4F
100
AcDbEntity
  8
Defpoints
 62
     0
100
AcDbPoint
 10
590.1099680540956
 20
1576.889684779005
 30
0.0
  0
ENDBLK
  5
7B5A
330
7B4F
100
AcDbEntity
  8
0
 62
     3
100
AcDbBlockEnd
  0
BLOCK
  5
7BAF
330
7BA5
100
AcDbEntity
  8
0
 62
     3
100
AcDbBlockBegin
  2
*D18
 70
     1
 10
0.0
 20
0.0
 30
0.0
  3
*D18
  1

  0
LINE
  5
AB19
330
7BA5
100
AcDbEntity
  8
実形
 62
     0
370
    18
100
AcDbLine
 10
594.6695579384959
 20
1666.889684779005
 30
0.0
 11
534.1384115591536
 21
1666.889684779005
 31
0.0
  0
LINE
  5
AB1A
330
7BA5
100
AcDbEntity
  8
実形
 62
     0
370
    18
100
AcDbLine
 10
657.5875803660673
 20
1206.889684779004
 30
0.0
 11
534.1384115591536
 21
1206.889684779004
 31
0.0
  0
LINE
  5
AB1B
330
7BA5
100
AcDbEntity
  8
実形
 62
     0
370
    18
100
AcDbLine
 10
534.1384115591536
 20
1656.889684779004
 30
0.0
 11
534.1384115591536
 21
1216.889684779005
 31
0.0
  0
INSERT
  5
AB1C
330
7BA5
100
AcDbEntity
  8
実形
 62
     0
370
    18
100
AcDbBlockReference
  2
_Dot
 10
534.1384115591536
 20
1666.889684779005
 30
0.0
 41
10.0
 42
10.0
 43
10.0
 50
90.0
  0
INSERT
  5
AB1D
330
7BA5
100
AcDbEntity
  8
実形
 62
     0
370
    18
100
AcDbBlockReference
  2
_Dot
 10
534.1384115591536
 20
1206.889684779004
 30
0.0
 41
10.0
 42
10.0
 43
10.0
 50
270.0
  0
MTEXT
  5
AB1E
330
7BA5
100
AcDbEntity
  8
実形
 62
     0
100
AcDbMText
 10
515.0384115591534
 20
1436.889684779005
 30
0.0
 40
25.0
 41
0.0
 71
     5
 72
     1
  1
460
 11
0.0000000000000001
 21
1.0
 31
0.0
 73
     1
 44
1.0
1001
ACAD
1000
MTEXTBEGIN
1070
    73
1070
     1
1070
    44
1040
1.0
1070
    74
1070
     0
1000
MTEXTEND
  0
POINT
  5
AB1F
330
7BA5
100
AcDbEntity
  8
Defpoints
 62
     0
100
AcDbPoint
 10
659.6695579384959
 20
1666.889684779005
 30
0.0
  0
POINT
  5
AB20
330
7BA5
100
AcDbEntity
  8
Defpoints
 62
     0
100
AcDbPoint
 10
722.5875803660674
 20
1206.889684779004
 30
0.0
  0
POINT
  5
AB21
330
7BA5
100
AcDbEntity
  8
Defpoints
 62
     0
100
AcDbPoint
 10
534.1384115591536
 20
1206.889684779004
 30
0.0
  0
ENDBLK
  5
7BB0
330
7BA5
100
AcDbEntity
  8
0
 62
     3
100
AcDbBlockEnd
  0
BLOCK
  5
7BD7
330
7BCD
100
AcDbEntity
  8
0
 62
     3
100
AcDbBlockBegin
  2
*D19
 70
     1
 10
0.0
 20
0.0
 30
0.0
  3
*D19
  1

  0
LINE
  5
AB10
330
7BCD
100
AcDbEntity
  8
実形
 62
     0
370
    18
100
AcDbLine
 10
657.7767729627303
 20
1681.889684779005
 30
0.0
 11
474.6654505548778
 21
1681.889684779005
 31
0.0
  0
LINE
  5
AB11
330
7BCD
100
AcDbEntity
  8
実形
 62
     0
370
    18
100
AcDbLine
 10
658.6002719852895
 20
1191.889684779005
 30
0.0
 11
474.6654505548776
 21
1191.889684779005
 31
0.0
  0
LINE
  5
AB12
330
7BCD
100
AcDbEntity
  8
実形
 62
     0
370
    18
100
AcDbLine
 10
474.6654505548778
 20
1671.889684779005
 30
0.0
 11
474.6654505548776
 21
1201.889684779005
 31
0.0
  0
INSERT
  5
AB13
330
7BCD
100
AcDbEntity
  8
実形
 62
     0
370
    18
100
AcDbBlockReference
  2
_Dot
 10
474.6654505548778
 20
1681.889684779005
 30
0.0
 41
10.0
 42
10.0
 43
10.0
 50
90.0
  0
INSERT
  5
AB14
330
7BCD
100
AcDbEntity
  8
実形
 62
     0
370
    18
100
AcDbBlockReference
  2
_Dot
 10
474.6654505548776
 20
1191.889684779005
 30
0.0
 41
10.0
 42
10.0
 43
10.0
 50
270.0
  0
MTEXT
  5
AB15
330
7BCD
100
AcDbEntity
  8
実形
 62
     0
100
AcDbMText
 10
455.5654505548774
 20
1436.889684779005
 30
0.0
 40
25.0
 41
0.0
 71
     5
 72
     1
  1
490
 11
0.0000000000000001
 21
1.0
 31
0.0
 73
     1
 44
1.0
1001
ACAD
1000
MTEXTBEGIN
1070
    73
1070
     1
1070
    44
1040
1.0
1070
    74
1070
     0
1000
MTEXTEND
  0
POINT
  5
AB16
330
7BCD
100
AcDbEntity
  8
Defpoints
 62
     0
100
AcDbPoint
 10
722.7767729627303
 20
1681.889684779005
 30
0.0
  0
POINT
  5
AB17
330
7BCD
100
AcDbEntity
  8
Defpoints
 62
     0
100
AcDbPoint
 10
723.6002719852895
 20
1191.889684779005
 30
0.0
  0
POINT
  5
AB18
330
7BCD
100
AcDbEntity
  8
Defpoints
 62
     0
100
AcDbPoint
 10
474.6654505548776
 20
1191.889684779005
 30
0.0
  0
ENDBLK
  5
7BD8
330
7BCD
100
AcDbEntity
  8
0
 62
     3
100
AcDbBlockEnd
  0
BLOCK
  5
7F0A
330
7F09
100
AcDbEntity
  8
0
 62
     3
100
AcDbBlockBegin
  2
*D20
 70
     1
 10
0.0
 20
0.0
 30
0.0
  3
*D20
  1

  0
LINE
  5
7F0B
330
7F09
100
AcDbEntity
  8
実形
 62
     0
370
    18
100
AcDbLine
 10
862.7702104998824
 20
1104.178460662066
 30
0.0
 11
862.7702104998824
 21
1036.915758957679
 31
0.0
  0
LINE
  5
7F0C
330
7F09
100
AcDbEntity
  8
実形
 62
     0
370
    18
100
AcDbLine
 10
1622.770210499882
 20
1104.178460662066
 30
0.0
 11
1622.770210499882
 21
1036.915758957679
 31
0.0
  0
LINE
  5
7F0D
330
7F09
100
AcDbEntity
  8
実形
 62
     0
370
    18
100
AcDbLine
 10
872.7702104998824
 20
1036.915758957679
 30
0.0
 11
1612.770210499882
 21
1036.915758957679
 31
0.0
  0
INSERT
  5
7F0E
330
7F09
100
AcDbEntity
  8
実形
 62
     0
370
    18
100
AcDbBlockReference
  2
_Dot
 10
862.7702104998824
 20
1036.915758957679
 30
0.0
 41
10.0
 42
10.0
 43
10.0
 50
180.0
  0
INSERT
  5
7F0F
330
7F09
100
AcDbEntity
  8
実形
 62
     0
370
    18
100
AcDbBlockReference
  2
_Dot
 10
1622.770210499882
 20
1036.915758957679
 30
0.0
 41
10.0
 42
10.0
 43
10.0
  0
MTEXT
  5
7F10
330
7F09
100
AcDbEntity
  8
実形
 62
     0
100
AcDbMText
 10
1242.770210499882
 20
1056.015758957679
 30
0.0
 40
25.0
 41
0.0
 71
     5
 72
     1
  1
760
 73
     1
 44
1.0
1001
ACAD
1000
MTEXTBEGIN
1070
    73
1070
     1
1070
    44
1040
1.0
1070
    74
1070
     0
1000
MTEXTEND
  0
POINT
  5
7F11
330
7F09
100
AcDbEntity
  8
Defpoints
 62
     0
100
AcDbPoint
 10
862.7702104998824
 20
1169.178460662066
 30
0.0
  0
POINT
  5
7F12
330
7F09
100
AcDbEntity
  8
Defpoints
 62
     0
100
AcDbPoint
 10
1622.770210499882
 20
1169.178460662066
 30
0.0
  0
POINT
  5
7F13
330
7F09
100
AcDbEntity
  8
Defpoints
 62
     0
100
AcDbPoint
 10
1622.770210499882
 20
1036.915758957679
 30
0.0
  0
ENDBLK
  5
7F14
330
7F09
100
AcDbEntity
  8
0
 62
     3
100
AcDbBlockEnd
  0
BLOCK
  5
7F16
330
7F15
100
AcDbEntity
  8
0
 62
     3
100
AcDbBlockBegin
  2
*D21
 70
     1
 10
0.0
 20
0.0
 30
0.0
  3
*D21
  1

  0
LINE
  5
7F17
330
7F15
100
AcDbEntity
  8
実形
 62
     0
370
    18
100
AcDbLine
 10
842.7702104998825
 20
1104.178460662066
 30
0.0
 11
842.7702104998825
 21
1036.915758957679
 31
0.0
  0
LINE
  5
7F18
330
7F15
100
AcDbEntity
  8
実形
 62
     0
370
    18
100
AcDbLine
 10
1642.770210499882
 20
1104.178460662066
 30
0.0
 11
1642.770210499882
 21
1036.915758957679
 31
0.0
  0
LINE
  5
7F19
330
7F15
100
AcDbEntity
  8
実形
 62
     0
370
    18
100
AcDbLine
 10
852.7702104998825
 20
1036.915758957679
 30
0.0
 11
1632.770210499882
 21
1036.915758957679
 31
0.0
  0
MTEXT
  5
7F1A
330
7F15
100
AcDbEntity
  8
実形
 62
     0
100
AcDbMText
 10
1589.171363804602
 20
1058.515758957679
 30
0.0
 40
25.0
 41
0.0
 71
     5
 72
     1
  1
20
 73
     1
 44
1.0
1001
ACAD
1000
MTEXTBEGIN
1070
    73
1070
     1
1070
    44
1040
1.0
1070
    74
1070
     0
1000
MTEXTEND
  0
INSERT
  5
7F1B
330
7F15
100
AcDbEntity
  8
実形
 62
     0
370
    18
100
AcDbBlockReference
  2
_Dot
 10
842.7702104998825
 20
1036.915758957679
 30
0.0
 41
10.0
 42
10.0
 43
10.0
 50
180.0
  0
INSERT
  5
7F1C
330
7F15
100
AcDbEntity
  8
実形
 62
     0
370
    18
100
AcDbBlockReference
  2
_Dot
 10
1642.770210499882
 20
1036.915758957679
 30
0.0
 41
10.0
 42
10.0
 43
10.0
  0
POINT
  5
7F1D
330
7F15
100
AcDbEntity
  8
Defpoints
 62
     0
100
AcDbPoint
 10
842.7702104998825
 20
1169.178460662066
 30
0.0
  0
POINT
  5
7F1E
330
7F15
100
AcDbEntity
  8
Defpoints
 62
     0
100
AcDbPoint
 10
1642.770210499882
 20
1169.178460662066
 30
0.0
  0
POINT
  5
7F1F
330
7F15
100
AcDbEntity
  8
Defpoints
 62
     0
100
AcDbPoint
 10
1642.770210499882
 20
1036.915758957679
 30
0.0
  0
ENDBLK
  5
7F20
330
7F15
100
AcDbEntity
  8
0
 62
     3
100
AcDbBlockEnd
  0
BLOCK
  5
7F22
330
7F21
100
AcDbEntity
  8
0
 62
     3
100
AcDbBlockBegin
  2
*D22
 70
     1
 10
0.0
 20
0.0
 30
0.0
  3
*D22
  1

  0
LINE
  5
7F23
330
7F21
100
AcDbEntity
  8
実形
 62
     0
370
    18
100
AcDbLine
 10
842.7702104998825
 20
1104.178460662066
 30
0.0
 11
842.7702104998825
 21
974.5052716017053
 31
0.0
  0
LINE
  5
7F24
330
7F21
100
AcDbEntity
  8
実形
 62
     0
370
    18
100
AcDbLine
 10
1642.770210499882
 20
1104.178460662066
 30
0.0
 11
1642.770210499882
 21
974.5052716017053
 31
0.0
  0
LINE
  5
7F25
330
7F21
100
AcDbEntity
  8
実形
 62
     0
370
    18
100
AcDbLine
 10
852.7702104998825
 20
974.5052716017053
 30
0.0
 11
1632.770210499882
 21
974.5052716017053
 31
0.0
  0
INSERT
  5
7F26
330
7F21
100
AcDbEntity
  8
実形
 62
     0
370
    18
100
AcDbBlockReference
  2
_Dot
 10
842.7702104998825
 20
974.5052716017053
 30
0.0
 41
10.0
 42
10.0
 43
10.0
 50
180.0
  0
INSERT
  5
7F27
330
7F21
100
AcDbEntity
  8
実形
 62
     0
370
    18
100
AcDbBlockReference
  2
_Dot
 10
1642.770210499882
 20
974.5052716017053
 30
0.0
 41
10.0
 42
10.0
 43
10.0
  0
MTEXT
  5
7F28
330
7F21
100
AcDbEntity
  8
実形
 62
     0
100
AcDbMText
 10
1242.770210499882
 20
993.6052716017053
 30
0.0
 40
25.0
 41
0.0
 71
     5
 72
     1
  1
800
 73
     1
 44
1.0
1001
ACAD
1000
MTEXTBEGIN
1070
    73
1070
     1
1070
    44
1040
1.0
1070
    74
1070
     0
1000
MTEXTEND
  0
POINT
  5
7F29
330
7F21
100
AcDbEntity
  8
Defpoints
 62
     0
100
AcDbPoint
 10
842.7702104998825
 20
1169.178460662066
 30
0.0
  0
POINT
  5
7F2A
330
7F21
100
AcDbEntity
  8
Defpoints
 62
     0
100
AcDbPoint
 10
1642.770210499882
 20
1169.178460662066
 30
0.0
  0
POINT
  5
7F2B
330
7F21
100
AcDbEntity
  8
Defpoints
 62
     0
100
AcDbPoint
 10
1642.770210499882
 20
974.5052716017053
 30
0.0
  0
ENDBLK
  5
7F2C
330
7F21
100
AcDbEntity
  8
0
 62
     3
100
AcDbBlockEnd
  0
BLOCK
  5
7F2E
330
7F2D
100
AcDbEntity
  8
0
 62
     3
100
AcDbBlockBegin
  2
*D23
 70
     1
 10
0.0
 20
0.0
 30
0.0
  3
*D23
  1

  0
LINE
  5
7F2F
330
7F2D
100
AcDbEntity
  8
実形
 62
     0
370
    18
100
AcDbLine
 10
827.7702104998825
 20
1104.178460662066
 30
0.0
 11
827.7702104998825
 21
974.5052716017053
 31
0.0
  0
LINE
  5
7F30
330
7F2D
100
AcDbEntity
  8
実形
 62
     0
370
    18
100
AcDbLine
 10
1657.770210499882
 20
1104.178460662066
 30
0.0
 11
1657.770210499882
 21
974.5052716017053
 31
0.0
  0
LINE
  5
7F31
330
7F2D
100
AcDbEntity
  8
実形
 62
     0
370
    18
100
AcDbLine
 10
837.7702104998824
 20
974.5052716017053
 30
0.0
 11
1647.770210499882
 21
974.5052716017053
 31
0.0
  0
MTEXT
  5
7F32
330
7F2D
100
AcDbEntity
  8
実形
 62
     0
100
AcDbMText
 10
1701.559743854428
 20
996.1052716017052
 30
0.0
 40
25.0
 41
0.0
 71
     5
 72
     1
  1
15
 73
     1
 44
1.0
1001
ACAD
1000
MTEXTBEGIN
1070
    73
1070
     1
1070
    44
1040
1.0
1070
    74
1070
     0
1000
MTEXTEND
  0
INSERT
  5
7F33
330
7F2D
100
AcDbEntity
  8
実形
 62
     0
370
    18
100
AcDbBlockReference
  2
_Dot
 10
827.7702104998825
 20
974.5052716017053
 30
0.0
 41
10.0
 42
10.0
 43
10.0
 50
180.0
  0
INSERT
  5
7F34
330
7F2D
100
AcDbEntity
  8
実形
 62
     0
370
    18
100
AcDbBlockReference
  2
_Dot
 10
1657.770210499882
 20
974.5052716017053
 30
0.0
 41
10.0
 42
10.0
 43
10.0
  0
POINT
  5
7F35
330
7F2D
100
AcDbEntity
  8
Defpoints
 62
     0
100
AcDbPoint
 10
827.7702104998825
 20
1169.178460662066
 30
0.0
  0
POINT
  5
7F36
330
7F2D
100
AcDbEntity
  8
Defpoints
 62
     0
100
AcDbPoint
 10
1657.770210499882
 20
1169.178460662066
 30
0.0
  0
POINT
  5
7F37
330
7F2D
100
AcDbEntity
  8
Defpoints
 62
     0
100
AcDbPoint
 10
1657.770210499882
 20
974.5052716017053
 30
0.0
  0
ENDBLK
  5
7F38
330
7F2D
100
AcDbEntity
  8
0
 62
     3
100
AcDbBlockEnd
  0
BLOCK
  5
7F3A
330
7F39
100
AcDbEntity
  8
0
 62
     3
100
AcDbBlockBegin
  2
*D24
 70
     1
 10
0.0
 20
0.0
 30
0.0
  3
*D24
  1

  0
LINE
  5
7F3B
330
7F39
100
AcDbEntity
  8
実形
 62
     0
370
    18
100
AcDbLine
 10
827.7702104998825
 20
1104.178460662066
 30
0.0
 11
827.7702104998825
 21
901.2836911315535
 31
0.0
  0
LINE
  5
7F3C
330
7F39
100
AcDbEntity
  8
実形
 62
     0
370
    18
100
AcDbLine
 10
1657.770210499882
 20
1104.178460662066
 30
0.0
 11
1657.770210499882
 21
901.2836911315535
 31
0.0
  0
LINE
  5
7F3D
330
7F39
100
AcDbEntity
  8
実形
 62
     0
370
    18
100
AcDbLine
 10
837.7702104998824
 20
901.2836911315535
 30
0.0
 11
1647.770210499882
 21
901.2836911315535
 31
0.0
  0
INSERT
  5
7F3E
330
7F39
100
AcDbEntity
  8
実形
 62
     0
370
    18
100
AcDbBlockReference
  2
_Dot
 10
827.7702104998825
 20
901.2836911315535
 30
0.0
 41
10.0
 42
10.0
 43
10.0
 50
180.0
  0
INSERT
  5
7F3F
330
7F39
100
AcDbEntity
  8
実形
 62
     0
370
    18
100
AcDbBlockReference
  2
_Dot
 10
1657.770210499882
 20
901.2836911315535
 30
0.0
 41
10.0
 42
10.0
 43
10.0
  0
MTEXT
  5
7F40
330
7F39
100
AcDbEntity
  8
実形
 62
     0
100
AcDbMText
 10
1242.770210499882
 20
920.3836911315535
 30
0.0
 40
25.0
 41
0.0
 71
     5
 72
     1
  1
830
 73
     1
 44
1.0
1001
ACAD
1000
MTEXTBEGIN
1070
    73
1070
     1
1070
    44
1040
1.0
1070
    74
1070
     0
1000
MTEXTEND
  0
POINT
  5
7F41
330
7F39
100
AcDbEntity
  8
Defpoints
 62
     0
100
AcDbPoint
 10
827.7702104998825
 20
1169.178460662066
 30
0.0
  0
POINT
  5
7F42
330
7F39
100
AcDbEntity
  8
Defpoints
 62
     0
100
AcDbPoint
 10
1657.770210499882
 20
1169.178460662066
 30
0.0
  0
POINT
  5
7F43
330
7F39
100
AcDbEntity
  8
Defpoints
 62
     0
100
AcDbPoint
 10
1657.770210499882
 20
901.2836911315535
 30
0.0
  0
ENDBLK
  5
7F44
330
7F39
100
AcDbEntity
  8
0
 62
     3
100
AcDbBlockEnd
  0
BLOCK
  5
7F46
330
7F45
100
AcDbEntity
  8
0
 62
     3
100
AcDbBlockBegin
  2
*D25
 70
     1
 10
0.0
 20
0.0
 30
0.0
  3
*D25
  1

  0
LINE
  5
7F47
330
7F45
100
AcDbEntity
  8
実形
 62
     0
370
    18
100
AcDbLine
 10
852.0693431839134
 20
-167.3860966284574
 30
0.0
 11
797.3710940401326
 21
-167.3860966284573
 31
0.0
  0
LINE
  5
7F48
330
7F45
100
AcDbEntity
  8
実形
 62
     0
370
    18
100
AcDbLine
 10
852.0693431839132
 20
-367.3860966284573
 30
0.0
 11
797.3710940401324
 21
-367.3860966284573
 31
0.0
  0
LINE
  5
7F49
330
7F45
100
AcDbEntity
  8
実形
 62
     0
370
    18
100
AcDbLine
 10
797.3710940401326
 20
-177.3860966284573
 30
0.0
 11
797.3710940401324
 21
-357.3860966284573
 31
0.0
  0
INSERT
  5
7F4A
330
7F45
100
AcDbEntity
  8
実形
 62
     0
370
    18
100
AcDbBlockReference
  2
_Dot
 10
797.3710940401326
 20
-167.3860966284573
 30
0.0
 41
10.0
 42
10.0
 43
10.0
 50
90.0
  0
INSERT
  5
7F4B
330
7F45
100
AcDbEntity
  8
実形
 62
     0
370
    18
100
AcDbBlockReference
  2
_Dot
 10
797.3710940401324
 20
-367.3860966284573
 30
0.0
 41
10.0
 42
10.0
 43
10.0
 50
270.0
  0
MTEXT
  5
7F4C
330
7F45
100
AcDbEntity
  8
実形
 62
     0
100
AcDbMText
 10
778.2710940401325
 20
-267.3860966284572
 30
0.0
 40
25.0
 41
0.0
 71
     5
 72
     1
  1
200
 11
0.0000000000000001
 21
1.0
 31
0.0
 73
     1
 44
1.0
1001
ACAD
1000
MTEXTBEGIN
1070
    73
1070
     1
1070
    44
1040
1.0
1070
    74
1070
     0
1000
MTEXTEND
  0
POINT
  5
7F4D
330
7F45
100
AcDbEntity
  8
Defpoints
 62
     0
100
AcDbPoint
 10
917.0693431839135
 20
-167.3860966284574
 30
0.0
  0
POINT
  5
7F4E
330
7F45
100
AcDbEntity
  8
Defpoints
 62
     0
100
AcDbPoint
 10
917.0693431839133
 20
-367.3860966284574
 30
0.0
  0
POINT
  5
7F4F
330
7F45
100
AcDbEntity
  8
Defpoints
 62
     0
100
AcDbPoint
 10
797.3710940401324
 20
-367.3860966284573
 30
0.0
  0
ENDBLK
  5
7F50
330
7F45
100
AcDbEntity
  8
0
 62
     3
100
AcDbBlockEnd
  0
BLOCK
  5
7F52
330
7F51
100
AcDbEntity
  8
0
 62
     3
100
AcDbBlockBegin
  2
*D26
 70
     1
 10
0.0
 20
0.0
 30
0.0
  3
*D26
  1

  0
LINE
  5
7F53
330
7F51
100
AcDbEntity
  8
実形
 62
     0
370
    18
100
AcDbLine
 10
852.0693431839136
 20
-152.3860966284574
 30
0.0
 11
797.3710940401326
 21
-152.3860966284573
 31
0.0
  0
LINE
  5
7F54
330
7F51
100
AcDbEntity
  8
実形
 62
     0
370
    18
100
AcDbLine
 10
852.0693431839136
 20
-382.3860966284573
 30
0.0
 11
797.3710940401324
 21
-382.3860966284573
 31
0.0
  0
LINE
  5
7F55
330
7F51
100
AcDbEntity
  8
実形
 62
     0
370
    18
100
AcDbLine
 10
797.3710940401326
 20
-162.3860966284573
 30
0.0
 11
797.3710940401324
 21
-372.3860966284573
 31
0.0
  0
MTEXT
  5
7F56
330
7F51
100
AcDbEntity
  8
実形
 62
     0
100
AcDbMText
 10
775.7710940401323
 20
-176.4675834353729
 30
0.0
 40
25.0
 41
0.0
 71
     5
 72
     1
  1
15
 11
0.0000000000000001
 21
1.0
 31
0.0
 73
     1
 44
1.0
1001
ACAD
1000
MTEXTBEGIN
1070
    73
1070
     1
1070
    44
1040
1.0
1070
    74
1070
     0
1000
MTEXTEND
  0
INSERT
  5
7F57
330
7F51
100
AcDbEntity
  8
実形
 62
     0
370
    18
100
AcDbBlockReference
  2
_Dot
 10
797.3710940401326
 20
-152.3860966284573
 30
0.0
 41
10.0
 42
10.0
 43
10.0
 50
90.0
  0
INSERT
  5
7F58
330
7F51
100
AcDbEntity
  8
実形
 62
     0
370
    18
100
AcDbBlockReference
  2
_Dot
 10
797.3710940401324
 20
-382.3860966284573
 30
0.0
 41
10.0
 42
10.0
 43
10.0
 50
270.0
  0
POINT
  5
7F59
330
7F51
100
AcDbEntity
  8
Defpoints
 62
     0
100
AcDbPoint
 10
917.0693431839136
 20
-152.3860966284574
 30
0.0
  0
POINT
  5
7F5A
330
7F51
100
AcDbEntity
  8
Defpoints
 62
     0
100
AcDbPoint
 10
917.0693431839136
 20
-382.3860966284574
 30
0.0
  0
POINT
  5
7F5B
330
7F51
100
AcDbEntity
  8
Defpoints
 62
     0
100
AcDbPoint
 10
797.3710940401324
 20
-382.3860966284573
 30
0.0
  0
ENDBLK
  5
7F5C
330
7F51
100
AcDbEntity
  8
0
 62
     3
100
AcDbBlockEnd
  0
BLOCK
  5
7F5E
330
7F5D
100
AcDbEntity
  8
0
 62
     3
100
AcDbBlockBegin
  2
*D27
 70
     1
 10
0.0
 20
0.0
 30
0.0
  3
*D27
  1

  0
LINE
  5
7F5F
330
7F5D
100
AcDbEntity
  8
実形
 62
     0
370
    18
100
AcDbLine
 10
852.0693431839136
 20
-392.3860966284573
 30
0.0
 11
797.3710940401323
 21
-392.3860966284573
 31
0.0
  0
LINE
  5
7F60
330
7F5D
100
AcDbEntity
  8
実形
 62
     0
370
    18
100
AcDbLine
 10
852.0693431839136
 20
-152.3860966284574
 30
0.0
 11
797.3710940401324
 21
-152.3860966284573
 31
0.0
  0
LINE
  5
7F61
330
7F5D
100
AcDbEntity
  8
実形
 62
     0
370
    18
100
AcDbLine
 10
797.3710940401323
 20
-382.3860966284573
 30
0.0
 11
797.3710940401324
 21
-162.3860966284573
 31
0.0
  0
MTEXT
  5
7F62
330
7F5D
100
AcDbEntity
  8
実形
 62
     0
100
AcDbMText
 10
830.355261679284
 20
-411.1966776303161
 30
0.0
 40
25.0
 41
0.0
 71
     5
 72
     1
  1
8
 11
0.0000000000000001
 21
1.0
 31
0.0
 73
     1
 44
1.0
1001
ACAD
1000
MTEXTBEGIN
1070
    73
1070
     1
1070
    44
1040
1.0
1070
    74
1070
     0
1000
MTEXTEND
  0
INSERT
  5
7F63
330
7F5D
100
AcDbEntity
  8
実形
 62
     0
370
    18
100
AcDbBlockReference
  2
_Dot
 10
797.3710940401323
 20
-392.3860966284573
 30
0.0
 41
10.0
 42
10.0
 43
10.0
 50
270.0
  0
INSERT
  5
7F64
330
7F5D
100
AcDbEntity
  8
実形
 62
     0
370
    18
100
AcDbBlockReference
  2
_Dot
 10
797.3710940401324
 20
-152.3860966284573
 30
0.0
 41
10.0
 42
10.0
 43
10.0
 50
90.0
  0
POINT
  5
7F65
330
7F5D
100
AcDbEntity
  8
Defpoints
 62
     0
100
AcDbPoint
 10
917.0693431839136
 20
-392.3860966284574
 30
0.0
  0
POINT
  5
7F66
330
7F5D
100
AcDbEntity
  8
Defpoints
 62
     0
100
AcDbPoint
 10
917.0693431839136
 20
-152.3860966284574
 30
0.0
  0
POINT
  5
7F67
330
7F5D
100
AcDbEntity
  8
Defpoints
 62
     0
100
AcDbPoint
 10
797.3710940401324
 20
-152.3860966284573
 30
0.0
  0
ENDBLK
  5
7F68
330
7F5D
100
AcDbEntity
  8
0
 62
     3
100
AcDbBlockEnd
  0
BLOCK
  5
7F6A
330
7F69
100
AcDbEntity
  8
0
 62
     3
100
AcDbBlockBegin
  2
*D28
 70
     1
 10
0.0
 20
0.0
 30
0.0
  3
*D28
  1

  0
LINE
  5
7F6B
330
7F69
100
AcDbEntity
  8
実形
 62
     0
370
    18
100
AcDbLine
 10
852.0693431839136
 20
-152.3860966284574
 30
0.0
 11
727.6013470322833
 21
-152.3860966284573
 31
0.0
  0
LINE
  5
7F6C
330
7F69
100
AcDbEntity
  8
実形
 62
     0
370
    18
100
AcDbLine
 10
852.0693431839134
 20
-382.3860966284573
 30
0.0
 11
727.6013470322832
 21
-382.3860966284573
 31
0.0
  0
LINE
  5
7F6D
330
7F69
100
AcDbEntity
  8
実形
 62
     0
370
    18
100
AcDbLine
 10
727.6013470322833
 20
-162.3860966284573
 30
0.0
 11
727.6013470322832
 21
-372.3860966284573
 31
0.0
  0
INSERT
  5
7F6E
330
7F69
100
AcDbEntity
  8
実形
 62
     0
370
    18
100
AcDbBlockReference
  2
_Dot
 10
727.6013470322833
 20
-152.3860966284573
 30
0.0
 41
10.0
 42
10.0
 43
10.0
 50
90.0
  0
INSERT
  5
7F6F
330
7F69
100
AcDbEntity
  8
実形
 62
     0
370
    18
100
AcDbBlockReference
  2
_Dot
 10
727.6013470322832
 20
-382.3860966284573
 30
0.0
 41
10.0
 42
10.0
 43
10.0
 50
270.0
  0
MTEXT
  5
7F70
330
7F69
100
AcDbEntity
  8
実形
 62
     0
100
AcDbMText
 10
708.5013470322833
 20
-267.3860966284572
 30
0.0
 40
25.0
 41
0.0
 71
     5
 72
     1
  1
230
 11
0.0000000000000001
 21
1.0
 31
0.0
 73
     1
 44
1.0
1001
ACAD
1000
MTEXTBEGIN
1070
    73
1070
     1
1070
    44
1040
1.0
1070
    74
1070
     0
1000
MTEXTEND
  0
POINT
  5
7F71
330
7F69
100
AcDbEntity
  8
Defpoints
 62
     0
100
AcDbPoint
 10
917.0693431839136
 20
-152.3860966284574
 30
0.0
  0
POINT
  5
7F72
330
7F69
100
AcDbEntity
  8
Defpoints
 62
     0
100
AcDbPoint
 10
917.0693431839135
 20
-382.3860966284574
 30
0.0
  0
POINT
  5
7F73
330
7F69
100
AcDbEntity
  8
Defpoints
 62
     0
100
AcDbPoint
 10
727.6013470322832
 20
-382.3860966284573
 30
0.0
  0
ENDBLK
  5
7F74
330
7F69
100
AcDbEntity
  8
0
 62
     3
100
AcDbBlockEnd
  0
BLOCK
  5
7F76
330
7F75
100
AcDbEntity
  8
0
 62
     3
100
AcDbBlockBegin
  2
*D29
 70
     1
 10
0.0
 20
0.0
 30
0.0
  3
*D29
  1

  0
LINE
  5
7F77
330
7F75
100
AcDbEntity
  8
実形
 62
     0
370
    18
100
AcDbLine
 10
728.6814961412001
 20
-152.3860966284574
 30
0.0
 11
660.6927293655045
 21
-152.3860966284573
 31
0.0
  0
LINE
  5
7F78
330
7F75
100
AcDbEntity
  8
実形
 62
     0
370
    18
100
AcDbLine
 10
728.6814961412
 20
-392.3860966284574
 30
0.0
 11
660.6927293655044
 21
-392.3860966284574
 31
0.0
  0
LINE
  5
7F79
330
7F75
100
AcDbEntity
  8
実形
 62
     0
370
    18
100
AcDbLine
 10
660.6927293655045
 20
-162.3860966284573
 30
0.0
 11
660.6927293655044
 21
-382.3860966284574
 31
0.0
  0
INSERT
  5
7F7A
330
7F75
100
AcDbEntity
  8
実形
 62
     0
370
    18
100
AcDbBlockReference
  2
_Dot
 10
660.6927293655045
 20
-152.3860966284573
 30
0.0
 41
10.0
 42
10.0
 43
10.0
 50
90.0
  0
INSERT
  5
7F7B
330
7F75
100
AcDbEntity
  8
実形
 62
     0
370
    18
100
AcDbBlockReference
  2
_Dot
 10
660.6927293655044
 20
-392.3860966284574
 30
0.0
 41
10.0
 42
10.0
 43
10.0
 50
270.0
  0
MTEXT
  5
7F7C
330
7F75
100
AcDbEntity
  8
実形
 62
     0
100
AcDbMText
 10
641.5927293655045
 20
-272.3860966284572
 30
0.0
 40
25.0
 41
0.0
 71
     5
 72
     1
  1
238
 11
0.0000000000000001
 21
1.0
 31
0.0
 73
     1
 44
1.0
1001
ACAD
1000
MTEXTBEGIN
1070
    73
1070
     1
1070
    44
1040
1.0
1070
    74
1070
     0
1000
MTEXTEND
  0
POINT
  5
7F7D
330
7F75
100
AcDbEntity
  8
Defpoints
 62
     0
100
AcDbPoint
 10
793.6814961412001
 20
-152.3860966284574
 30
0.0
  0
POINT
  5
7F7E
330
7F75
100
AcDbEntity
  8
Defpoints
 62
     0
100
AcDbPoint
 10
793.6814961411999
 20
-392.3860966284574
 30
0.0
  0
POINT
  5
7F7F
330
7F75
100
AcDbEntity
  8
Defpoints
 62
     0
100
AcDbPoint
 10
660.6927293655044
 20
-392.3860966284574
 30
0.0
  0
ENDBLK
  5
7F80
330
7F75
100
AcDbEntity
  8
0
 62
     3
100
AcDbBlockEnd
  0
BLOCK
  5
7F82
330
7F81
100
AcDbEntity
  8
0
 62
     3
100
AcDbBlockBegin
  2
*D30
 70
     1
 10
0.0
 20
0.0
 30
0.0
  3
*D30
  1

  0
LINE
  5
7F83
330
7F81
100
AcDbEntity
  8
実形
 62
     0
370
    18
100
AcDbLine
 10
1022.069343183913
 20
-457.3860966284574
 30
0.0
 11
1022.069343183913
 21
-509.3026951643151
 31
0.0
  0
LINE
  5
7F84
330
7F81
100
AcDbEntity
  8
実形
 62
     0
370
    18
100
AcDbLine
 10
1182.069343183914
 20
-457.3860966284574
 30
0.0
 11
1182.069343183914
 21
-509.3026951643151
 31
0.0
  0
LINE
  5
7F85
330
7F81
100
AcDbEntity
  8
実形
 62
     0
370
    18
100
AcDbLine
 10
1032.069343183913
 20
-509.3026951643151
 30
0.0
 11
1172.069343183913
 21
-509.3026951643151
 31
0.0
  0
INSERT
  5
7F86
330
7F81
100
AcDbEntity
  8
実形
 62
     0
370
    18
100
AcDbBlockReference
  2
_Dot
 10
1022.069343183913
 20
-509.3026951643151
 30
0.0
 41
10.0
 42
10.0
 43
10.0
 50
180.0
  0
INSERT
  5
7F87
330
7F81
100
AcDbEntity
  8
実形
 62
     0
370
    18
100
AcDbBlockReference
  2
_Dot
 10
1182.069343183914
 20
-509.3026951643151
 30
0.0
 41
10.0
 42
10.0
 43
10.0
  0
MTEXT
  5
7F88
330
7F81
100
AcDbEntity
  8
実形
 62
     0
100
AcDbMText
 10
1102.069343183913
 20
-490.202695164315
 30
0.0
 40
25.0
 41
0.0
 71
     5
 72
     1
  1
160
 73
     1
 44
1.0
1001
ACAD
1000
MTEXTBEGIN
1070
    73
1070
     1
1070
    44
1040
1.0
1070
    74
1070
     0
1000
MTEXTEND
  0
POINT
  5
7F89
330
7F81
100
AcDbEntity
  8
Defpoints
 62
     0
100
AcDbPoint
 10
1022.069343183913
 20
-392.3860966284575
 30
0.0
  0
POINT
  5
7F8A
330
7F81
100
AcDbEntity
  8
Defpoints
 62
     0
100
AcDbPoint
 10
1182.069343183914
 20
-392.3860966284575
 30
0.0
  0
POINT
  5
7F8B
330
7F81
100
AcDbEntity
  8
Defpoints
 62
     0
100
AcDbPoint
 10
1182.069343183914
 20
-509.3026951643151
 30
0.0
  0
ENDBLK
  5
7F8C
330
7F81
100
AcDbEntity
  8
0
 62
     3
100
AcDbBlockEnd
  0
BLOCK
  5
7F8E
330
7F8D
100
AcDbEntity
  8
0
 62
     3
100
AcDbBlockBegin
  2
*D31
 70
     1
 10
0.0
 20
0.0
 30
0.0
  3
*D31
  1

  0
LINE
  5
7F8F
330
7F8D
100
AcDbEntity
  8
実形
 62
     0
370
    18
100
AcDbLine
 10
1011.569343183913
 20
-457.3860966284574
 30
0.0
 11
1011.569343183913
 21
-580.5449919795919
 31
0.0
  0
LINE
  5
7F90
330
7F8D
100
AcDbEntity
  8
実形
 62
     0
370
    18
100
AcDbLine
 10
1192.569343183913
 20
-457.3860966284616
 30
0.0
 11
1192.569343183913
 21
-580.5449919795919
 31
0.0
  0
LINE
  5
7F91
330
7F8D
100
AcDbEntity
  8
実形
 62
     0
370
    18
100
AcDbLine
 10
1021.569343183913
 20
-580.5449919795919
 30
0.0
 11
1182.569343183913
 21
-580.5449919795919
 31
0.0
  0
INSERT
  5
7F92
330
7F8D
100
AcDbEntity
  8
実形
 62
     0
370
    18
100
AcDbBlockReference
  2
_Dot
 10
1011.569343183913
 20
-580.5449919795919
 30
0.0
 41
10.0
 42
10.0
 43
10.0
 50
180.0
  0
INSERT
  5
7F93
330
7F8D
100
AcDbEntity
  8
実形
 62
     0
370
    18
100
AcDbBlockReference
  2
_Dot
 10
1192.569343183913
 20
-580.5449919795919
 30
0.0
 41
10.0
 42
10.0
 43
10.0
  0
MTEXT
  5
7F94
330
7F8D
100
AcDbEntity
  8
実形
 62
     0
100
AcDbMText
 10
1102.069343183913
 20
-561.4449919795919
 30
0.0
 40
25.0
 41
0.0
 71
     5
 72
     1
  1
181
 73
     1
 44
1.0
1001
ACAD
1000
MTEXTBEGIN
1070
    73
1070
     1
1070
    44
1040
1.0
1070
    74
1070
     0
1000
MTEXTEND
  0
POINT
  5
7F95
330
7F8D
100
AcDbEntity
  8
Defpoints
 62
     0
100
AcDbPoint
 10
1011.569343183913
 20
-392.3860966284575
 30
0.0
  0
POINT
  5
7F96
330
7F8D
100
AcDbEntity
  8
Defpoints
 62
     0
100
AcDbPoint
 10
1192.569343183913
 20
-392.3860966284617
 30
0.0
  0
POINT
  5
7F97
330
7F8D
100
AcDbEntity
  8
Defpoints
 62
     0
100
AcDbPoint
 10
1192.569343183913
 20
-580.5449919795919
 30
0.0
  0
ENDBLK
  5
7F98
330
7F8D
100
AcDbEntity
  8
0
 62
     3
100
AcDbBlockEnd
  0
BLOCK
  5
7F9A
330
7F99
100
AcDbEntity
  8
0
 62
     3
100
AcDbBlockBegin
  2
*D32
 70
     1
 10
0.0
 20
0.0
 30
0.0
  3
*D32
  1

  0
LINE
  5
7F9B
330
7F99
100
AcDbEntity
  8
実形
 62
     0
370
    18
100
AcDbLine
 10
1094.538117598124
 20
1554.178460662066
 30
0.0
 11
1043.45634594854
 21
1554.178460662066
 31
0.0
  0
LINE
  5
7F9C
330
7F99
100
AcDbEntity
  8
実形
 62
     0
370
    18
100
AcDbLine
 10
1091.209930106677
 20
1404.178460662066
 30
0.0
 11
1043.456345948539
 21
1404.178460662066
 31
0.0
  0
LINE
  5
7F9D
330
7F99
100
AcDbEntity
  8
実形
 62
     0
370
    18
100
AcDbLine
 10
1043.45634594854
 20
1544.178460662066
 30
0.0
 11
1043.456345948539
 21
1414.178460662066
 31
0.0
  0
INSERT
  5
7F9E
330
7F99
100
AcDbEntity
  8
実形
 62
     0
370
    18
100
AcDbBlockReference
  2
_Dot
 10
1043.45634594854
 20
1554.178460662066
 30
0.0
 41
10.0
 42
10.0
 43
10.0
 50
90.0
  0
INSERT
  5
7F9F
330
7F99
100
AcDbEntity
  8
実形
 62
     0
370
    18
100
AcDbBlockReference
  2
_Dot
 10
1043.456345948539
 20
1404.178460662066
 30
0.0
 41
10.0
 42
10.0
 43
10.0
 50
270.0
  0
MTEXT
  5
7FA0
330
7F99
100
AcDbEntity
  8
実形
 62
     0
100
AcDbMText
 10
1021.856345948539
 20
1479.178460662066
 30
0.0
 40
30.0
 41
0.0
 71
     5
 72
     1
  1
150
 11
0.0000000000000001
 21
1.0
 31
0.0
 73
     1
 44
1.0
1001
ACAD
1000
MTEXTBEGIN
1070
    73
1070
     1
1070
    44
1040
1.0
1070
    74
1070
     0
1000
MTEXTEND
  0
POINT
  5
7FA1
330
7F99
100
AcDbEntity
  8
Defpoints
 62
     0
100
AcDbPoint
 10
1159.538117598124
 20
1554.178460662066
 30
0.0
  0
POINT
  5
7FA2
330
7F99
100
AcDbEntity
  8
Defpoints
 62
     0
100
AcDbPoint
 10
1156.209930106677
 20
1404.178460662066
 30
0.0
  0
POINT
  5
7FA3
330
7F99
100
AcDbEntity
  8
Defpoints
 62
     0
100
AcDbPoint
 10
1043.456345948539
 20
1404.178460662066
 30
0.0
  0
ENDBLK
  5
7FA4
330
7F99
100
AcDbEntity
  8
0
 62
     3
100
AcDbBlockEnd
  0
BLOCK
  5
7FA6
330
7FA5
100
AcDbEntity
  8
0
 62
     3
100
AcDbBlockBegin
  2
*D33
 70
     1
 10
0.0
 20
0.0
 30
0.0
  3
*D33
  1

  0
LINE
  5
7FA7
330
7FA5
100
AcDbEntity
  8
実形
 62
     0
370
    18
100
AcDbLine
 10
1242.770210499882
 20
1300.740901717254
 30
0.0
 11
1242.770210499882
 21
1270.994834284402
 31
0.0
  0
LINE
  5
7FA8
330
7FA5
100
AcDbEntity
  8
実形
 62
     0
370
    18
100
AcDbLine
 10
1622.770210499882
 20
1300.740901717254
 30
0.0
 11
1622.770210499882
 21
1270.994834284402
 31
0.0
  0
LINE
  5
7FA9
330
7FA5
100
AcDbEntity
  8
実形
 62
     0
370
    18
100
AcDbLine
 10
1252.770210499882
 20
1270.994834284402
 30
0.0
 11
1612.770210499882
 21
1270.994834284402
 31
0.0
  0
INSERT
  5
7FAA
330
7FA5
100
AcDbEntity
  8
実形
 62
     0
370
    18
100
AcDbBlockReference
  2
_Dot
 10
1242.770210499882
 20
1270.994834284402
 30
0.0
 41
10.0
 42
10.0
 43
10.0
 50
180.0
  0
INSERT
  5
7FAB
330
7FA5
100
AcDbEntity
  8
実形
 62
     0
370
    18
100
AcDbBlockReference
  2
_Dot
 10
1622.770210499882
 20
1270.994834284402
 30
0.0
 41
10.0
 42
10.0
 43
10.0
  0
MTEXT
  5
7FAC
330
7FA5
100
AcDbEntity
  8
実形
 62
     0
100
AcDbMText
 10
1432.770210499882
 20
1292.594834284402
 30
0.0
 40
30.0
 41
0.0
 71
     5
 72
     1
  1
380
 73
     1
 44
1.0
1001
ACAD
1000
MTEXTBEGIN
1070
    73
1070
     1
1070
    44
1040
1.0
1070
    74
1070
     0
1000
MTEXTEND
  0
POINT
  5
7FAD
330
7FA5
100
AcDbEntity
  8
Defpoints
 62
     0
100
AcDbPoint
 10
1242.770210499882
 20
1365.740901717254
 30
0.0
  0
POINT
  5
7FAE
330
7FA5
100
AcDbEntity
  8
Defpoints
 62
     0
100
AcDbPoint
 10
1622.770210499882
 20
1365.740901717254
 30
0.0
  0
POINT
  5
7FAF
330
7FA5
100
AcDbEntity
  8
Defpoints
 62
     0
100
AcDbPoint
 10
1622.770210499882
 20
1270.994834284402
 30
0.0
  0
ENDBLK
  5
7FB0
330
7FA5
100
AcDbEntity
  8
0
 62
     3
100
AcDbBlockEnd
  0
BLOCK
  5
7FB2
330
7FB1
100
AcDbEntity
  8
0
 62
     3
100
AcDbBlockBegin
  2
*D34
 70
     1
 10
0.0
 20
0.0
 30
0.0
  3
*D34
  1

  0
LINE
  5
7FB3
330
7FB1
100
AcDbEntity
  8
実形
 62
     0
370
    18
100
AcDbLine
 10
842.7702104998823
 20
1689.178460662066
 30
0.0
 11
842.7702104998823
 21
1735.385472702717
 31
0.0
  0
LINE
  5
7FB4
330
7FB1
100
AcDbEntity
  8
実形
 62
     0
370
    18
100
AcDbLine
 10
1092.770210499882
 20
1689.178460662066
 30
0.0
 11
1092.770210499882
 21
1735.385472702717
 31
0.0
  0
LINE
  5
7FB5
330
7FB1
100
AcDbEntity
  8
実形
 62
     0
370
    18
100
AcDbLine
 10
852.7702104998823
 20
1735.385472702717
 30
0.0
 11
1082.770210499882
 21
1735.385472702717
 31
0.0
  0
INSERT
  5
7FB6
330
7FB1
100
AcDbEntity
  8
実形
 62
     0
370
    18
100
AcDbBlockReference
  2
_Dot
 10
842.7702104998823
 20
1735.385472702717
 30
0.0
 41
10.0
 42
10.0
 43
10.0
 50
180.0
  0
INSERT
  5
7FB7
330
7FB1
100
AcDbEntity
  8
実形
 62
     0
370
    18
100
AcDbBlockReference
  2
_Dot
 10
1092.770210499882
 20
1735.385472702717
 30
0.0
 41
10.0
 42
10.0
 43
10.0
  0
MTEXT
  5
7FB8
330
7FB1
100
AcDbEntity
  8
実形
 62
     0
100
AcDbMText
 10
967.7702104998825
 20
1754.485472702717
 30
0.0
 40
25.0
 41
0.0
 71
     5
 72
     1
  1
250
 73
     1
 44
1.0
1001
ACAD
1000
MTEXTBEGIN
1070
    73
1070
     1
1070
    44
1040
1.0
1070
    74
1070
     0
1000
MTEXTEND
  0
POINT
  5
7FB9
330
7FB1
100
AcDbEntity
  8
Defpoints
 62
     0
100
AcDbPoint
 10
842.7702104998823
 20
1624.178460662066
 30
0.0
  0
POINT
  5
7FBA
330
7FB1
100
AcDbEntity
  8
Defpoints
 62
     0
100
AcDbPoint
 10
1092.770210499882
 20
1624.178460662066
 30
0.0
  0
POINT
  5
7FBB
330
7FB1
100
AcDbEntity
  8
Defpoints
 62
     0
100
AcDbPoint
 10
1092.770210499882
 20
1735.385472702717
 30
0.0
  0
ENDBLK
  5
7FBC
330
7FB1
100
AcDbEntity
  8
0
 62
     3
100
AcDbBlockEnd
  0
BLOCK
  5
7FBE
330
7FBD
100
AcDbEntity
  8
0
 62
     3
100
AcDbBlockBegin
  2
*D35
 70
     1
 10
0.0
 20
0.0
 30
0.0
  3
*D35
  1

  0
LINE
  5
7FBF
330
7FBD
100
AcDbEntity
  8
実形
 62
     0
370
    18
100
AcDbLine
 10
1092.770210499882
 20
1689.178460662066
 30
0.0
 11
1092.770210499882
 21
1735.385472702717
 31
0.0
  0
LINE
  5
7FC0
330
7FBD
100
AcDbEntity
  8
実形
 62
     0
370
    18
100
AcDbLine
 10
1392.770210499882
 20
1689.178460662066
 30
0.0
 11
1392.770210499882
 21
1735.385472702717
 31
0.0
  0
LINE
  5
7FC1
330
7FBD
100
AcDbEntity
  8
実形
 62
     0
370
    18
100
AcDbLine
 10
1102.770210499882
 20
1735.385472702717
 30
0.0
 11
1382.770210499882
 21
1735.385472702717
 31
0.0
  0
INSERT
  5
7FC2
330
7FBD
100
AcDbEntity
  8
実形
 62
     0
370
    18
100
AcDbBlockReference
  2
_Dot
 10
1092.770210499882
 20
1735.385472702717
 30
0.0
 41
10.0
 42
10.0
 43
10.0
 50
180.0
  0
INSERT
  5
7FC3
330
7FBD
100
AcDbEntity
  8
実形
 62
     0
370
    18
100
AcDbBlockReference
  2
_Dot
 10
1392.770210499882
 20
1735.385472702717
 30
0.0
 41
10.0
 42
10.0
 43
10.0
  0
MTEXT
  5
7FC4
330
7FBD
100
AcDbEntity
  8
実形
 62
     0
100
AcDbMText
 10
1242.770210499882
 20
1754.485472702717
 30
0.0
 40
25.0
 41
0.0
 71
     5
 72
     1
  1
300
 73
     1
 44
1.0
1001
ACAD
1000
MTEXTBEGIN
1070
    73
1070
     1
1070
    44
1040
1.0
1070
    74
1070
     0
1000
MTEXTEND
  0
POINT
  5
7FC5
330
7FBD
100
AcDbEntity
  8
Defpoints
 62
     0
100
AcDbPoint
 10
1092.770210499882
 20
1624.178460662066
 30
0.0
  0
POINT
  5
7FC6
330
7FBD
100
AcDbEntity
  8
Defpoints
 62
     0
100
AcDbPoint
 10
1392.770210499882
 20
1624.178460662066
 30
0.0
  0
POINT
  5
7FC7
330
7FBD
100
AcDbEntity
  8
Defpoints
 62
     0
100
AcDbPoint
 10
1392.770210499882
 20
1735.385472702717
 30
0.0
  0
ENDBLK
  5
7FC8
330
7FBD
100
AcDbEntity
  8
0
 62
     3
100
AcDbBlockEnd
  0
BLOCK
  5
7FCA
330
7FC9
100
AcDbEntity
  8
0
 62
     3
100
AcDbBlockBegin
  2
*D36
 70
     1
 10
0.0
 20
0.0
 30
0.0
  3
*D36
  1

  0
LINE
  5
7FCB
330
7FC9
100
AcDbEntity
  8
実形
 62
     0
370
    18
100
AcDbLine
 10
1392.770210499883
 20
1689.178460662065
 30
0.0
 11
1392.770210499883
 21
1735.385472702717
 31
0.0
  0
LINE
  5
7FCC
330
7FC9
100
AcDbEntity
  8
実形
 62
     0
370
    18
100
AcDbLine
 10
1642.770210499882
 20
1689.178460662065
 30
0.0
 11
1642.770210499882
 21
1735.385472702717
 31
0.0
  0
LINE
  5
7FCD
330
7FC9
100
AcDbEntity
  8
実形
 62
     0
370
    18
100
AcDbLine
 10
1402.770210499882
 20
1735.385472702717
 30
0.0
 11
1632.770210499882
 21
1735.385472702717
 31
0.0
  0
INSERT
  5
7FCE
330
7FC9
100
AcDbEntity
  8
実形
 62
     0
370
    18
100
AcDbBlockReference
  2
_Dot
 10
1392.770210499883
 20
1735.385472702717
 30
0.0
 41
10.0
 42
10.0
 43
10.0
 50
180.0
  0
INSERT
  5
7FCF
330
7FC9
100
AcDbEntity
  8
実形
 62
     0
370
    18
100
AcDbBlockReference
  2
_Dot
 10
1642.770210499882
 20
1735.385472702717
 30
0.0
 41
10.0
 42
10.0
 43
10.0
  0
MTEXT
  5
7FD0
330
7FC9
100
AcDbEntity
  8
実形
 62
     0
100
AcDbMText
 10
1517.770210499882
 20
1754.485472702717
 30
0.0
 40
25.0
 41
0.0
 71
     5
 72
     1
  1
250
 73
     1
 44
1.0
1001
ACAD
1000
MTEXTBEGIN
1070
    73
1070
     1
1070
    44
1040
1.0
1070
    74
1070
     0
1000
MTEXTEND
  0
POINT
  5
7FD1
330
7FC9
100
AcDbEntity
  8
Defpoints
 62
     0
100
AcDbPoint
 10
1392.770210499883
 20
1624.178460662065
 30
0.0
  0
POINT
  5
7FD2
330
7FC9
100
AcDbEntity
  8
Defpoints
 62
     0
100
AcDbPoint
 10
1642.770210499882
 20
1624.178460662065
 30
0.0
  0
POINT
  5
7FD3
330
7FC9
100
AcDbEntity
  8
Defpoints
 62
     0
100
AcDbPoint
 10
1642.770210499882
 20
1735.385472702717
 30
0.0
  0
ENDBLK
  5
7FD4
330
7FC9
100
AcDbEntity
  8
0
 62
     3
100
AcDbBlockEnd
  0
BLOCK
  5
7FD6
330
7FD5
100
AcDbEntity
  8
0
 62
     3
100
AcDbBlockBegin
  2
*D37
 70
     1
 10
0.0
 20
0.0
 30
0.0
  3
*D37
  1

  0
LINE
  5
7FD7
330
7FD5
100
AcDbEntity
  8
実形
 62
     0
370
    18
100
AcDbLine
 10
827.7702104998825
 20
1689.806458158204
 30
0.0
 11
827.7702104998825
 21
1735.385472702717
 31
0.0
  0
LINE
  5
7FD8
330
7FD5
100
AcDbEntity
  8
実形
 62
     0
370
    18
100
AcDbLine
 10
1657.770210499882
 20
1689.161761419618
 30
0.0
 11
1657.770210499882
 21
1735.385472702717
 31
0.0
  0
LINE
  5
7FD9
330
7FD5
100
AcDbEntity
  8
実形
 62
     0
370
    18
100
AcDbLine
 10
837.7702104998824
 20
1735.385472702717
 30
0.0
 11
1647.770210499882
 21
1735.385472702717
 31
0.0
  0
MTEXT
  5
7FDA
330
7FD5
100
AcDbEntity
  8
実形
 62
     0
100
AcDbMText
 10
826.3182245476109
 20
1760.370517377699
 30
0.0
 40
25.0
 41
0.0
 71
     5
 72
     1
  1
15
 73
     1
 44
1.0
1001
ACAD
1000
MTEXTBEGIN
1070
    73
1070
     1
1070
    44
1040
1.0
1070
    74
1070
     0
1000
MTEXTEND
  0
INSERT
  5
7FDB
330
7FD5
100
AcDbEntity
  8
実形
 62
     0
370
    18
100
AcDbBlockReference
  2
_Dot
 10
827.7702104998825
 20
1735.385472702717
 30
0.0
 41
10.0
 42
10.0
 43
10.0
 50
180.0
  0
INSERT
  5
7FDC
330
7FD5
100
AcDbEntity
  8
実形
 62
     0
370
    18
100
AcDbBlockReference
  2
_Dot
 10
1657.770210499882
 20
1735.385472702717
 30
0.0
 41
10.0
 42
10.0
 43
10.0
  0
POINT
  5
7FDD
330
7FD5
100
AcDbEntity
  8
Defpoints
 62
     0
100
AcDbPoint
 10
827.7702104998825
 20
1624.806458158204
 30
0.0
  0
POINT
  5
7FDE
330
7FD5
100
AcDbEntity
  8
Defpoints
 62
     0
100
AcDbPoint
 10
1657.770210499882
 20
1624.161761419618
 30
0.0
  0
POINT
  5
7FDF
330
7FD5
100
AcDbEntity
  8
Defpoints
 62
     0
100
AcDbPoint
 10
1657.770210499882
 20
1735.385472702717
 30
0.0
  0
ENDBLK
  5
7FE0
330
7FD5
100
AcDbEntity
  8
0
 62
     3
100
AcDbBlockEnd
  0
BLOCK
  5
7FE2
330
7FE1
100
AcDbEntity
  8
0
 62
     3
100
AcDbBlockBegin
  2
*D38
 70
     1
 10
0.0
 20
0.0
 30
0.0
  3
*D38
  1

  0
LINE
  5
7FE3
330
7FE1
100
AcDbEntity
  8
実形
 62
     0
370
    18
100
AcDbLine
 10
1722.770210499882
 20
1644.178460662066
 30
0.0
 11
1771.093547640549
 21
1644.178460662066
 31
0.0
  0
LINE
  5
7FE4
330
7FE1
100
AcDbEntity
  8
実形
 62
     0
370
    18
100
AcDbLine
 10
1722.770210499882
 20
1184.178460662066
 30
0.0
 11
1771.093547640548
 21
1184.178460662066
 31
0.0
  0
LINE
  5
7FE5
330
7FE1
100
AcDbEntity
  8
実形
 62
     0
370
    18
100
AcDbLine
 10
1771.093547640549
 20
1634.178460662066
 30
0.0
 11
1771.093547640548
 21
1194.178460662066
 31
0.0
  0
INSERT
  5
7FE6
330
7FE1
100
AcDbEntity
  8
実形
 62
     0
370
    18
100
AcDbBlockReference
  2
_Dot
 10
1771.093547640549
 20
1644.178460662066
 30
0.0
 41
10.0
 42
10.0
 43
10.0
 50
90.0
  0
INSERT
  5
7FE7
330
7FE1
100
AcDbEntity
  8
実形
 62
     0
370
    18
100
AcDbBlockReference
  2
_Dot
 10
1771.093547640548
 20
1184.178460662066
 30
0.0
 41
10.0
 42
10.0
 43
10.0
 50
270.0
  0
MTEXT
  5
7FE8
330
7FE1
100
AcDbEntity
  8
実形
 62
     0
100
AcDbMText
 10
1751.993547640548
 20
1414.178460662066
 30
0.0
 40
25.0
 41
0.0
 71
     5
 72
     1
  1
460
 11
0.0000000000000001
 21
1.0
 31
0.0
 73
     1
 44
1.0
1001
ACAD
1000
MTEXTBEGIN
1070
    73
1070
     1
1070
    44
1040
1.0
1070
    74
1070
     0
1000
MTEXTEND
  0
POINT
  5
7FE9
330
7FE1
100
AcDbEntity
  8
Defpoints
 62
     0
100
AcDbPoint
 10
1657.770210499882
 20
1644.178460662066
 30
0.0
  0
POINT
  5
7FEA
330
7FE1
100
AcDbEntity
  8
Defpoints
 62
     0
100
AcDbPoint
 10
1657.770210499883
 20
1184.178460662066
 30
0.0
  0
POINT
  5
7FEB
330
7FE1
100
AcDbEntity
  8
Defpoints
 62
     0
100
AcDbPoint
 10
1771.093547640548
 20
1184.178460662066
 30
0.0
  0
ENDBLK
  5
7FEC
330
7FE1
100
AcDbEntity
  8
0
 62
     3
100
AcDbBlockEnd
  0
BLOCK
  5
7FEE
330
7FED
100
AcDbEntity
  8
0
 62
     3
100
AcDbBlockBegin
  2
*D39
 70
     1
 10
0.0
 20
0.0
 30
0.0
  3
*D39
  1

  0
LINE
  5
7FEF
330
7FED
100
AcDbEntity
  8
実形
 62
     0
370
    18
100
AcDbLine
 10
1722.770210499882
 20
1659.178460662066
 30
0.0
 11
1771.093547640549
 21
1659.178460662066
 31
0.0
  0
LINE
  5
7FF0
330
7FED
100
AcDbEntity
  8
実形
 62
     0
370
    18
100
AcDbLine
 10
1722.770210499882
 20
1169.178460662066
 30
0.0
 11
1771.093547640548
 21
1169.178460662066
 31
0.0
  0
LINE
  5
7FF1
330
7FED
100
AcDbEntity
  8
実形
 62
     0
370
    18
100
AcDbLine
 10
1771.093547640549
 20
1649.178460662066
 30
0.0
 11
1771.093547640548
 21
1179.178460662066
 31
0.0
  0
MTEXT
  5
7FF2
330
7FED
100
AcDbEntity
  8
実形
 62
     0
100
AcDbMText
 10
1749.493547640548
 20
1688.725599288342
 30
0.0
 40
25.0
 41
0.0
 71
     5
 72
     1
  1
15
 11
0.0000000000000001
 21
1.0
 31
0.0
 73
     1
 44
1.0
1001
ACAD
1000
MTEXTBEGIN
1070
    73
1070
     1
1070
    44
1040
1.0
1070
    74
1070
     0
1000
MTEXTEND
  0
INSERT
  5
7FF3
330
7FED
100
AcDbEntity
  8
実形
 62
     0
370
    18
100
AcDbBlockReference
  2
_Dot
 10
1771.093547640549
 20
1659.178460662066
 30
0.0
 41
10.0
 42
10.0
 43
10.0
 50
90.0
  0
INSERT
  5
7FF4
330
7FED
100
AcDbEntity
  8
実形
 62
     0
370
    18
100
AcDbBlockReference
  2
_Dot
 10
1771.093547640548
 20
1169.178460662066
 30
0.0
 41
10.0
 42
10.0
 43
10.0
 50
270.0
  0
POINT
  5
7FF5
330
7FED
100
AcDbEntity
  8
Defpoints
 62
     0
100
AcDbPoint
 10
1657.770210499882
 20
1659.178460662066
 30
0.0
  0
POINT
  5
7FF6
330
7FED
100
AcDbEntity
  8
Defpoints
 62
     0
100
AcDbPoint
 10
1657.770210499882
 20
1169.178460662066
 30
0.0
  0
POINT
  5
7FF7
330
7FED
100
AcDbEntity
  8
Defpoints
 62
     0
100
AcDbPoint
 10
1771.093547640548
 20
1169.178460662066
 30
0.0
  0
ENDBLK
  5
7FF8
330
7FED
100
AcDbEntity
  8
0
 62
     3
100
AcDbBlockEnd
  0
BLOCK
  5
7FFA
330
7FF9
100
AcDbEntity
  8
0
 62
     3
100
AcDbBlockBegin
  2
*D40
 70
     1
 10
0.0
 20
0.0
 30
0.0
  3
*D40
  1

  0
LINE
  5
7FFB
330
7FF9
100
AcDbEntity
  8
実形
 62
     0
370
    18
100
AcDbLine
 10
1722.770210499882
 20
1659.178460662066
 30
0.0
 11
1833.118375451033
 21
1659.178460662066
 31
0.0
  0
LINE
  5
7FFC
330
7FF9
100
AcDbEntity
  8
実形
 62
     0
370
    18
100
AcDbLine
 10
1722.770210499882
 20
1169.178460662066
 30
0.0
 11
1833.118375451033
 21
1169.178460662066
 31
0.0
  0
LINE
  5
7FFD
330
7FF9
100
AcDbEntity
  8
実形
 62
     0
370
    18
100
AcDbLine
 10
1833.118375451033
 20
1649.178460662066
 30
0.0
 11
1833.118375451033
 21
1179.178460662066
 31
0.0
  0
INSERT
  5
7FFE
330
7FF9
100
AcDbEntity
  8
実形
 62
     0
370
    18
100
AcDbBlockReference
  2
_Dot
 10
1833.118375451033
 20
1659.178460662066
 30
0.0
 41
10.0
 42
10.0
 43
10.0
 50
90.0
  0
INSERT
  5
7FFF
330
7FF9
100
AcDbEntity
  8
実形
 62
     0
370
    18
100
AcDbBlockReference
  2
_Dot
 10
1833.118375451033
 20
1169.178460662066
 30
0.0
 41
10.0
 42
10.0
 43
10.0
 50
270.0
  0
MTEXT
  5
8000
330
7FF9
100
AcDbEntity
  8
実形
 62
     0
100
AcDbMText
 10
1814.018375451033
 20
1414.178460662066
 30
0.0
 40
25.0
 41
0.0
 71
     5
 72
     1
  1
490
 11
0.0000000000000001
 21
1.0
 31
0.0
 73
     1
 44
1.0
1001
ACAD
1000
MTEXTBEGIN
1070
    73
1070
     1
1070
    44
1040
1.0
1070
    74
1070
     0
1000
MTEXTEND
  0
POINT
  5
8001
330
7FF9
100
AcDbEntity
  8
Defpoints
 62
     0
100
AcDbPoint
 10
1657.770210499882
 20
1659.178460662066
 30
0.0
  0
POINT
  5
8002
330
7FF9
100
AcDbEntity
  8
Defpoints
 62
     0
100
AcDbPoint
 10
1657.770210499882
 20
1169.178460662066
 30
0.0
  0
POINT
  5
8003
330
7FF9
100
AcDbEntity
  8
Defpoints
 62
     0
100
AcDbPoint
 10
1833.118375451033
 20
1169.178460662066
 30
0.0
  0
ENDBLK
  5
8004
330
7FF9
100
AcDbEntity
  8
0
 62
     3
100
AcDbBlockEnd
  0
BLOCK
  5
8006
330
8005
100
AcDbEntity
  8
0
 62
     3
100
AcDbBlockBegin
  2
*D41
 70
     1
 10
0.0
 20
0.0
 30
0.0
  3
*D41
  1

  0
LINE
  5
8007
330
8005
100
AcDbEntity
  8
実形
 62
     0
370
    18
100
AcDbLine
 10
767.3275276276962
 20
1554.178460662066
 30
0.0
 11
738.1482502386061
 21
1554.178460662066
 31
0.0
  0
LINE
  5
8008
330
8005
100
AcDbEntity
  8
実形
 62
     0
370
    18
100
AcDbLine
 10
767.3275276276962
 20
1644.178460662066
 30
0.0
 11
738.1482502386061
 21
1644.178460662066
 31
0.0
  0
LINE
  5
8009
330
8005
100
AcDbEntity
  8
実形
 62
     0
370
    18
100
AcDbLine
 10
738.1482502386061
 20
1564.178460662066
 30
0.0
 11
738.1482502386061
 21
1634.178460662066
 31
0.0
  0
MTEXT
  5
800A
330
8005
100
AcDbEntity
  8
実形
 62
     0
100
AcDbMText
 10
715.569680847846
 20
1589.259853472391
 30
0.0
 40
25.0
 41
0.0
 71
     5
 72
     1
  1
70
 11
0.0000000000000001
 21
1.0
 31
0.0
 73
     1
 44
1.0
1001
ACAD
1000
MTEXTBEGIN
1070
    73
1070
     1
1070
    44
1040
1.0
1070
    74
1070
     0
1000
MTEXTEND
  0
INSERT
  5
800B
330
8005
100
AcDbEntity
  8
実形
 62
     0
370
    18
100
AcDbBlockReference
  2
_Dot
 10
738.1482502386061
 20
1554.178460662066
 30
0.0
 41
10.0
 42
10.0
 43
10.0
 50
270.0
  0
INSERT
  5
800C
330
8005
100
AcDbEntity
  8
実形
 62
     0
370
    18
100
AcDbBlockReference
  2
_Dot
 10
738.1482502386061
 20
1644.178460662066
 30
0.0
 41
10.0
 42
10.0
 43
10.0
 50
90.0
  0
POINT
  5
800D
330
8005
100
AcDbEntity
  8
Defpoints
 62
     0
100
AcDbPoint
 10
832.3275276276962
 20
1554.178460662066
 30
0.0
  0
POINT
  5
800E
330
8005
100
AcDbEntity
  8
Defpoints
 62
     0
100
AcDbPoint
 10
832.3275276276962
 20
1644.178460662066
 30
0.0
  0
POINT
  5
800F
330
8005
100
AcDbEntity
  8
Defpoints
 62
     0
100
AcDbPoint
 10
738.1482502386061
 20
1644.178460662066
 30
0.0
  0
ENDBLK
  5
8010
330
8005
100
AcDbEntity
  8
0
 62
     3
100
AcDbBlockEnd
  0
BLOCK
  5
8012
330
8011
100
AcDbEntity
  8
0
 62
     3
100
AcDbBlockBegin
  2
*D42
 70
     1
 10
0.0
 20
0.0
 30
0.0
  3
*D42
  1

  0
LINE
  5
8013
330
8011
100
AcDbEntity
  8
実形
 62
     0
370
    18
100
AcDbLine
 10
767.3275276276962
 20
1554.178460662066
 30
0.0
 11
738.1482502386061
 21
1554.178460662066
 31
0.0
  0
LINE
  5
8014
330
8011
100
AcDbEntity
  8
実形
 62
     0
370
    18
100
AcDbLine
 10
773.3275276276963
 20
1624.178460662066
 30
0.0
 11
738.1482502386061
 21
1624.178460662066
 31
0.0
  0
LINE
  5
8015
330
8011
100
AcDbEntity
  8
実形
 62
     0
370
    18
100
AcDbLine
 10
738.1482502386061
 20
1564.178460662066
 30
0.0
 11
738.1482502386061
 21
1614.178460662066
 31
0.0
  0
MTEXT
  5
8016
330
8011
100
AcDbEntity
  8
実形
 62
     0
100
AcDbMText
 10
801.3626707265066
 20
1625.22842009638
 30
0.0
 40
25.0
 41
0.0
 71
     5
 72
     1
  1
20
 11
0.0000000000000001
 21
1.0
 31
0.0
 73
     1
 44
1.0
1001
ACAD
1000
MTEXTBEGIN
1070
    73
1070
     1
1070
    44
1040
1.0
1070
    74
1070
     0
1000
MTEXTEND
  0
INSERT
  5
8017
330
8011
100
AcDbEntity
  8
実形
 62
     0
370
    18
100
AcDbBlockReference
  2
_Dot
 10
738.1482502386061
 20
1554.178460662066
 30
0.0
 41
10.0
 42
10.0
 43
10.0
 50
270.0
  0
INSERT
  5
8018
330
8011
100
AcDbEntity
  8
実形
 62
     0
370
    18
100
AcDbBlockReference
  2
_Dot
 10
738.1482502386061
 20
1624.178460662066
 30
0.0
 41
10.0
 42
10.0
 43
10.0
 50
90.0
  0
POINT
  5
8019
330
8011
100
AcDbEntity
  8
Defpoints
 62
     0
100
AcDbPoint
 10
832.3275276276962
 20
1554.178460662066
 30
0.0
  0
POINT
  5
801A
330
8011
100
AcDbEntity
  8
Defpoints
 62
     0
100
AcDbPoint
 10
838.3275276276963
 20
1624.178460662066
 30
0.0
  0
POINT
  5
801B
330
8011
100
AcDbEntity
  8
Defpoints
 62
     0
100
AcDbPoint
 10
738.1482502386061
 20
1624.178460662066
 30
0.0
  0
ENDBLK
  5
801C
330
8011
100
AcDbEntity
  8
0
 62
     3
100
AcDbBlockEnd
  0
BLOCK
  5
801E
330
801D
100
AcDbEntity
  8
0
 62
     3
100
AcDbBlockBegin
  2
*D43
 70
     1
 10
0.0
 20
0.0
 30
0.0
  3
*D43
  1

  0
LINE
  5
801F
330
801D
100
AcDbEntity
  8
実形
 62
     0
370
    18
100
AcDbLine
 10
735.771238858355
 20
1644.178460662066
 30
0.0
 11
672.3280192665588
 21
1644.178460662066
 31
0.0
  0
LINE
  5
8020
330
801D
100
AcDbEntity
  8
実形
 62
     0
370
    18
100
AcDbLine
 10
714.7500916428215
 20
1554.178460662066
 30
0.0
 11
672.3280192665588
 21
1554.178460662066
 31
0.0
  0
LINE
  5
8021
330
801D
100
AcDbEntity
  8
実形
 62
     0
370
    18
100
AcDbLine
 10
672.3280192665588
 20
1634.178460662066
 30
0.0
 11
672.3280192665588
 21
1564.178460662066
 31
0.0
  0
INSERT
  5
8022
330
801D
100
AcDbEntity
  8
実形
 62
     0
370
    18
100
AcDbBlockReference
  2
_Dot
 10
672.3280192665588
 20
1644.178460662066
 30
0.0
 41
10.0
 42
10.0
 43
10.0
 50
90.0
  0
INSERT
  5
8023
330
801D
100
AcDbEntity
  8
実形
 62
     0
370
    18
100
AcDbBlockReference
  2
_Dot
 10
672.3280192665588
 20
1554.178460662066
 30
0.0
 41
10.0
 42
10.0
 43
10.0
 50
270.0
  0
MTEXT
  5
8024
330
801D
100
AcDbEntity
  8
実形
 62
     0
100
AcDbMText
 10
653.2280192665585
 20
1599.178460662066
 30
0.0
 40
25.0
 41
0.0
 71
     5
 72
     1
  1
90
 11
0.0000000000000001
 21
1.0
 31
0.0
 73
     1
 44
1.0
1001
ACAD
1000
MTEXTBEGIN
1070
    73
1070
     1
1070
    44
1040
1.0
1070
    74
1070
     0
1000
MTEXTEND
  0
POINT
  5
8025
330
801D
100
AcDbEntity
  8
Defpoints
 62
     0
100
AcDbPoint
 10
800.771238858355
 20
1644.178460662066
 30
0.0
  0
POINT
  5
8026
330
801D
100
AcDbEntity
  8
Defpoints
 62
     0
100
AcDbPoint
 10
779.7500916428215
 20
1554.178460662066
 30
0.0
  0
POINT
  5
8027
330
801D
100
AcDbEntity
  8
Defpoints
 62
     0
100
AcDbPoint
 10
672.3280192665588
 20
1554.178460662066
 30
0.0
  0
ENDBLK
  5
8028
330
801D
100
AcDbEntity
  8
0
 62
     3
100
AcDbBlockEnd
  0
BLOCK
  5
802A
330
8029
100
AcDbEntity
  8
0
 62
     3
100
AcDbBlockBegin
  2
*D44
 70
     1
 10
0.0
 20
0.0
 30
0.0
  3
*D44
  1

  0
LINE
  5
802B
330
8029
100
AcDbEntity
  8
実形
 62
     0
370
    18
100
AcDbLine
 10
732.6742997845558
 20
1554.178460662066
 30
0.0
 11
672.3280192665588
 21
1554.178460662066
 31
0.0
  0
LINE
  5
802C
330
8029
100
AcDbEntity
  8
実形
 62
     0
370
    18
100
AcDbLine
 10
737.7945193027008
 20
1204.178460662066
 30
0.0
 11
672.3280192665587
 21
1204.178460662066
 31
0.0
  0
LINE
  5
802D
330
8029
100
AcDbEntity
  8
実形
 62
     0
370
    18
100
AcDbLine
 10
672.3280192665588
 20
1544.178460662066
 30
0.0
 11
672.3280192665587
 21
1214.178460662066
 31
0.0
  0
INSERT
  5
802E
330
8029
100
AcDbEntity
  8
実形
 62
     0
370
    18
100
AcDbBlockReference
  2
_Dot
 10
672.3280192665588
 20
1554.178460662066
 30
0.0
 41
10.0
 42
10.0
 43
10.0
 50
90.0
  0
INSERT
  5
802F
330
8029
100
AcDbEntity
  8
実形
 62
     0
370
    18
100
AcDbBlockReference
  2
_Dot
 10
672.3280192665587
 20
1204.178460662066
 30
0.0
 41
10.0
 42
10.0
 43
10.0
 50
270.0
  0
MTEXT
  5
8030
330
8029
100
AcDbEntity
  8
実形
 62
     0
100
AcDbMText
 10
653.2280192665585
 20
1379.178460662066
 30
0.0
 40
25.0
 41
0.0
 71
     5
 72
     1
  1
350
 11
0.0000000000000001
 21
1.0
 31
0.0
 73
     1
 44
1.0
1001
ACAD
1000
MTEXTBEGIN
1070
    73
1070
     1
1070
    44
1040
1.0
1070
    74
1070
     0
1000
MTEXTEND
  0
POINT
  5
8031
330
8029
100
AcDbEntity
  8
Defpoints
 62
     0
100
AcDbPoint
 10
797.6742997845558
 20
1554.178460662066
 30
0.0
  0
POINT
  5
8032
330
8029
100
AcDbEntity
  8
Defpoints
 62
     0
100
AcDbPoint
 10
802.7945193027008
 20
1204.178460662066
 30
0.0
  0
POINT
  5
8033
330
8029
100
AcDbEntity
  8
Defpoints
 62
     0
100
AcDbPoint
 10
672.3280192665587
 20
1204.178460662066
 30
0.0
  0
ENDBLK
  5
8034
330
8029
100
AcDbEntity
  8
0
 62
     3
100
AcDbBlockEnd
  0
BLOCK
  5
8036
330
8035
100
AcDbEntity
  8
0
 62
     3
100
AcDbBlockBegin
  2
*D45
 70
     1
 10
0.0
 20
0.0
 30
0.0
  3
*D45
  1

  0
LINE
  5
8037
330
8035
100
AcDbEntity
  8
実形
 62
     0
370
    18
100
AcDbLine
 10
764.1539611657317
 20
1659.178460662066
 30
0.0
 11
672.3280192665588
 21
1659.178460662066
 31
0.0
  0
LINE
  5
8038
330
8035
100
AcDbEntity
  8
実形
 62
     0
370
    18
100
AcDbLine
 10
737.2641105192887
 20
1169.178460662066
 30
0.0
 11
672.3280192665587
 21
1169.178460662066
 31
0.0
  0
LINE
  5
8039
330
8035
100
AcDbEntity
  8
実形
 62
     0
370
    18
100
AcDbLine
 10
672.3280192665588
 20
1649.178460662066
 30
0.0
 11
672.3280192665587
 21
1179.178460662066
 31
0.0
  0
MTEXT
  5
803A
330
8035
100
AcDbEntity
  8
実形
 62
     0
100
AcDbMText
 10
650.7280192665586
 20
1682.883538982083
 30
0.0
 40
25.0
 41
0.0
 71
     5
 72
     1
  1
15
 11
0.0000000000000001
 21
1.0
 31
0.0
 73
     1
 44
1.0
1001
ACAD
1000
MTEXTBEGIN
1070
    73
1070
     1
1070
    44
1040
1.0
1070
    74
1070
     0
1000
MTEXTEND
  0
INSERT
  5
803B
330
8035
100
AcDbEntity
  8
実形
 62
     0
370
    18
100
AcDbBlockReference
  2
_Dot
 10
672.3280192665588
 20
1659.178460662066
 30
0.0
 41
10.0
 42
10.0
 43
10.0
 50
90.0
  0
INSERT
  5
803C
330
8035
100
AcDbEntity
  8
実形
 62
     0
370
    18
100
AcDbBlockReference
  2
_Dot
 10
672.3280192665587
 20
1169.178460662066
 30
0.0
 41
10.0
 42
10.0
 43
10.0
 50
270.0
  0
POINT
  5
803D
330
8035
100
AcDbEntity
  8
Defpoints
 62
     0
100
AcDbPoint
 10
829.1539611657317
 20
1659.178460662066
 30
0.0
  0
POINT
  5
803E
330
8035
100
AcDbEntity
  8
Defpoints
 62
     0
100
AcDbPoint
 10
802.2641105192887
 20
1169.178460662066
 30
0.0
  0
POINT
  5
803F
330
8035
100
AcDbEntity
  8
Defpoints
 62
     0
100
AcDbPoint
 10
672.3280192665587
 20
1169.178460662066
 30
0.0
  0
ENDBLK
  5
8040
330
8035
100
AcDbEntity
  8
0
 62
     3
100
AcDbBlockEnd
  0
BLOCK
  5
8042
330
8041
100
AcDbEntity
  8
0
 62
     3
100
AcDbBlockBegin
  2
*D46
 70
     1
 10
0.0
 20
0.0
 30
0.0
  3
*D46
  1

  0
LINE
  5
8043
330
8041
100
AcDbEntity
  8
実形
 62
     0
370
    18
100
AcDbLine
 10
737.7945193027008
 20
1184.178460662066
 30
0.0
 11
672.3280192665587
 21
1184.178460662066
 31
0.0
  0
LINE
  5
8044
330
8041
100
AcDbEntity
  8
実形
 62
     0
370
    18
100
AcDbLine
 10
702.3275276276962
 20
1554.178460662066
 30
0.0
 11
672.3280192665588
 21
1554.178460662066
 31
0.0
  0
LINE
  5
8045
330
8041
100
AcDbEntity
  8
実形
 62
     0
370
    18
100
AcDbLine
 10
672.3280192665587
 20
1194.178460662066
 30
0.0
 11
672.3280192665588
 21
1544.178460662066
 31
0.0
  0
MTEXT
  5
8046
330
8041
100
AcDbEntity
  8
実形
 62
     0
100
AcDbMText
 10
650.745963999092
 20
1217.459715149787
 30
0.0
 40
25.0
 41
0.0
 71
     5
 72
     1
  1
20
 11
0.0000000000000001
 21
1.0
 31
0.0
 73
     1
 44
1.0
1001
ACAD
1000
MTEXTBEGIN
1070
    73
1070
     1
1070
    44
1040
1.0
1070
    74
1070
     0
1000
MTEXTEND
  0
INSERT
  5
8047
330
8041
100
AcDbEntity
  8
実形
 62
     0
370
    18
100
AcDbBlockReference
  2
_Dot
 10
672.3280192665587
 20
1184.178460662066
 30
0.0
 41
10.0
 42
10.0
 43
10.0
 50
270.0
  0
INSERT
  5
8048
330
8041
100
AcDbEntity
  8
実形
 62
     0
370
    18
100
AcDbBlockReference
  2
_Dot
 10
672.3280192665588
 20
1554.178460662066
 30
0.0
 41
10.0
 42
10.0
 43
10.0
 50
90.0
  0
POINT
  5
8049
330
8041
100
AcDbEntity
  8
Defpoints
 62
     0
100
AcDbPoint
 10
802.7945193027008
 20
1184.178460662066
 30
0.0
  0
POINT
  5
804A
330
8041
100
AcDbEntity
  8
Defpoints
 62
     0
100
AcDbPoint
 10
767.3275276276962
 20
1554.178460662066
 30
0.0
  0
POINT
  5
804B
330
8041
100
AcDbEntity
  8
Defpoints
 62
     0
100
AcDbPoint
 10
672.3280192665588
 20
1554.178460662066
 30
0.0
  0
ENDBLK
  5
804C
330
8041
100
AcDbEntity
  8
0
 62
     3
100
AcDbBlockEnd
  0
BLOCK
  5
804E
330
804D
100
AcDbEntity
  8
0
 62
     3
100
AcDbBlockBegin
  2
*D47
 70
     1
 10
0.0
 20
0.0
 30
0.0
  3
*D47
  1

  0
LINE
  5
804F
330
804D
100
AcDbEntity
  8
実形
 62
     0
370
    18
100
AcDbLine
 10
766.726947416073
 20
1644.178460662066
 30
0.0
 11
616.3564627716169
 21
1644.178460662066
 31
0.0
  0
LINE
  5
8050
330
804D
100
AcDbEntity
  8
実形
 62
     0
370
    18
100
AcDbLine
 10
739.8056315785306
 20
1184.178460662066
 30
0.0
 11
616.3564627716168
 21
1184.178460662066
 31
0.0
  0
LINE
  5
8051
330
804D
100
AcDbEntity
  8
実形
 62
     0
370
    18
100
AcDbLine
 10
616.3564627716169
 20
1634.178460662066
 30
0.0
 11
616.3564627716168
 21
1194.178460662066
 31
0.0
  0
INSERT
  5
8052
330
804D
100
AcDbEntity
  8
実形
 62
     0
370
    18
100
AcDbBlockReference
  2
_Dot
 10
616.3564627716169
 20
1644.178460662066
 30
0.0
 41
10.0
 42
10.0
 43
10.0
 50
90.0
  0
INSERT
  5
8053
330
804D
100
AcDbEntity
  8
実形
 62
     0
370
    18
100
AcDbBlockReference
  2
_Dot
 10
616.3564627716168
 20
1184.178460662066
 30
0.0
 41
10.0
 42
10.0
 43
10.0
 50
270.0
  0
MTEXT
  5
8054
330
804D
100
AcDbEntity
  8
実形
 62
     0
100
AcDbMText
 10
597.2564627716167
 20
1414.178460662066
 30
0.0
 40
25.0
 41
0.0
 71
     5
 72
     1
  1
460
 11
0.0000000000000001
 21
1.0
 31
0.0
 73
     1
 44
1.0
1001
ACAD
1000
MTEXTBEGIN
1070
    73
1070
     1
1070
    44
1040
1.0
1070
    74
1070
     0
1000
MTEXTEND
  0
POINT
  5
8055
330
804D
100
AcDbEntity
  8
Defpoints
 62
     0
100
AcDbPoint
 10
831.7269474160729
 20
1644.178460662066
 30
0.0
  0
POINT
  5
8056
330
804D
100
AcDbEntity
  8
Defpoints
 62
     0
100
AcDbPoint
 10
804.8056315785306
 20
1184.178460662066
 30
0.0
  0
POINT
  5
8057
330
804D
100
AcDbEntity
  8
Defpoints
 62
     0
100
AcDbPoint
 10
616.3564627716168
 20
1184.178460662066
 30
0.0
  0
ENDBLK
  5
8058
330
804D
100
AcDbEntity
  8
0
 62
     3
100
AcDbBlockEnd
  0
BLOCK
  5
805A
330
8059
100
AcDbEntity
  8
0
 62
     3
100
AcDbBlockBegin
  2
*D48
 70
     1
 10
0.0
 20
0.0
 30
0.0
  3
*D48
  1

  0
LINE
  5
805B
330
8059
100
AcDbEntity
  8
実形
 62
     0
370
    18
100
AcDbLine
 10
762.7702104998824
 20
1659.178460662066
 30
0.0
 11
556.883501767341
 21
1659.178460662066
 31
0.0
  0
LINE
  5
805C
330
8059
100
AcDbEntity
  8
実形
 62
     0
370
    18
100
AcDbLine
 10
740.8183231977528
 20
1169.178460662066
 30
0.0
 11
556.8835017673409
 21
1169.178460662066
 31
0.0
  0
LINE
  5
805D
330
8059
100
AcDbEntity
  8
実形
 62
     0
370
    18
100
AcDbLine
 10
556.883501767341
 20
1649.178460662066
 30
0.0
 11
556.8835017673409
 21
1179.178460662066
 31
0.0
  0
INSERT
  5
805E
330
8059
100
AcDbEntity
  8
実形
 62
     0
370
    18
100
AcDbBlockReference
  2
_Dot
 10
556.883501767341
 20
1659.178460662066
 30
0.0
 41
10.0
 42
10.0
 43
10.0
 50
90.0
  0
INSERT
  5
805F
330
8059
100
AcDbEntity
  8
実形
 62
     0
370
    18
100
AcDbBlockReference
  2
_Dot
 10
556.8835017673409
 20
1169.178460662066
 30
0.0
 41
10.0
 42
10.0
 43
10.0
 50
270.0
  0
MTEXT
  5
8060
330
8059
100
AcDbEntity
  8
実形
 62
     0
100
AcDbMText
 10
535.2835017673408
 20
1414.178460662066
 30
0.0
 40
30.0
 41
0.0
 71
     5
 72
     1
  1
490
 11
0.0000000000000001
 21
1.0
 31
0.0
 73
     1
 44
1.0
1001
ACAD
1000
MTEXTBEGIN
1070
    73
1070
     1
1070
    44
1040
1.0
1070
    74
1070
     0
1000
MTEXTEND
  0
POINT
  5
8061
330
8059
100
AcDbEntity
  8
Defpoints
 62
     0
100
AcDbPoint
 10
827.7702104998825
 20
1659.178460662066
 30
0.0
  0
POINT
  5
8062
330
8059
100
AcDbEntity
  8
Defpoints
 62
     0
100
AcDbPoint
 10
805.8183231977528
 20
1169.178460662066
 30
0.0
  0
POINT
  5
8063
330
8059
100
AcDbEntity
  8
Defpoints
 62
     0
100
AcDbPoint
 10
556.8835017673409
 20
1169.178460662066
 30
0.0
  0
ENDBLK
  5
8064
330
8059
100
AcDbEntity
  8
0
 62
     3
100
AcDbBlockEnd
  0
BLOCK
  5
8100
330
8065
100
AcDbEntity
  8
0
 62
     3
100
AcDbBlockBegin
  2
RAS800-510GRM
 70
     0
 10
0.0
 20
0.0
 30
0.0
  3
RAS800-510GRM
  1

  0
LINE
  5
8066
330
8065
100
AcDbEntity
  8
枠
 62
     0
100
AcDbLine
 10
174.0
 20
3.99999999999909
 30
0.0
 11
2834.0
 21
3.99999999999909
 31
0.0
  0
LINE
  5
8067
330
8065
100
AcDbEntity
  8
枠
 62
     3
100
AcDbLine
 10
4.0
 20
2024.0
 30
0.0
 11
4.0
 21
4.0
 31
0.0
  0
LINE
  5
8068
330
8065
100
AcDbEntity
  8
枠
 62
     0
100
AcDbLine
 10
2834.0
 20
2023.999999999999
 30
0.0
 11
174.0
 21
2023.999999999999
 31
0.0
  0
LINE
  5
8069
330
8065
100
AcDbEntity
  8
枠
 62
     0
100
AcDbLine
 10
2234.0
 20
133.9999999999991
 30
0.0
 11
2234.0
 21
198.9999999999991
 31
0.0
  0
LINE
  5
806A
330
8065
100
AcDbEntity
  8
枠
 62
     0
100
AcDbLine
 10
1944.0
 20
2023.999999999999
 30
0.0
 11
2834.0
 21
2023.999999999999
 31
0.0
  0
LINE
  5
806B
330
8065
100
AcDbEntity
  8
枠
 62
     0
100
AcDbLine
 10
2114.0
 20
68.99999999999909
 30
0.0
 11
2834.0
 21
68.99999999999909
 31
0.0
  0
LINE
  5
806C
330
8065
100
AcDbEntity
  8
枠
 62
     0
100
AcDbLine
 10
2114.0
 20
198.9999999999991
 30
0.0
 11
2834.0
 21
198.9999999999991
 31
0.0
  0
LINE
  5
806D
330
8065
100
AcDbEntity
  8
枠
 62
     0
100
AcDbLine
 10
2114.0
 20
133.9999999999991
 30
0.0
 11
2834.0
 21
133.9999999999991
 31
0.0
  0
LINE
  5
806E
330
8065
100
AcDbEntity
  8
枠
 62
     0
100
AcDbLine
 10
2114.0
 20
3.99999999999909
 30
0.0
 11
2114.0
 21
198.9999999999991
 31
0.0
  0
TEXT
  5
806F
330
8065
100
AcDbEntity
  8
枠
 62
     0
100
AcDbText
 10
2350.255774665348
 20
16.49999999999908
 30
0.0
 40
40.0
  1
中外交易株式会社
 72
     4
 11
2538.255774665348
 21
36.49999999999909
 31
0.0
100
AcDbText
  0
LINE
  5
8070
330
8065
100
AcDbEntity
  8
枠
 62
     0
100
AcDbLine
 10
2234.0
 20
68.99999999999909
 30
0.0
 11
2834.0
 21
68.99999999999909
 31
0.0
  0
LINE
  5
8071
102
{ACAD_REACTORS
330
807E
102
}
330
8065
100
AcDbEntity
  8
枠
 62
     0
370
     5
100
AcDbLine
 10
2257.843923164362
 20
40.53787547858428
 30
0.0
 11
2233.255774665348
 21
40.53787547858428
 31
0.0
  0
LINE
  5
8072
102
{ACAD_REACTORS
330
807E
102
}
330
8065
100
AcDbEntity
  8
枠
 62
     0
370
     5
100
AcDbLine
 10
2233.255774665348
 20
40.53787547858428
 30
0.0
 11
2233.255774665348
 21
30.53787547858429
 31
0.0
  0
LINE
  5
8073
102
{ACAD_REACTORS
330
807E
102
}
330
8065
100
AcDbEntity
  8
枠
 62
     0
370
     5
100
AcDbLine
 10
2233.255774665348
 20
30.53787547858429
 30
0.0
 11
2257.346428692676
 21
30.53787547858429
 31
0.0
  0
LINE
  5
8074
102
{ACAD_REACTORS
330
807E
102
}
330
8065
100
AcDbEntity
  8
枠
 62
     0
370
     5
100
AcDbLine
 10
2260.641894042939
 20
56.49999999999909
 30
0.0
 11
2260.641894042939
 21
16.49999999999909
 31
0.0
  0
LINE
  5
8075
102
{ACAD_REACTORS
330
807E
102
}
330
8065
100
AcDbEntity
  8
枠
 62
     0
370
     5
100
AcDbLine
 10
2260.641894042939
 20
16.49999999999909
 30
0.0
 11
2295.641894042939
 21
16.49999999999909
 31
0.0
  0
LINE
  5
8076
102
{ACAD_REACTORS
330
807E
102
}
330
8065
100
AcDbEntity
  8
枠
 62
     0
370
     5
100
AcDbLine
 10
2295.641894042939
 20
16.49999999999909
 30
0.0
 11
2260.641894042939
 21
36.49999999999909
 31
0.0
  0
LINE
  5
8077
102
{ACAD_REACTORS
330
807E
102
}
330
8065
100
AcDbEntity
  8
枠
 62
     0
370
     5
100
AcDbLine
 10
2260.641894042939
 20
36.49999999999909
 30
0.0
 11
2295.641894042939
 21
56.49999999999909
 31
0.0
  0
LINE
  5
8078
102
{ACAD_REACTORS
330
807E
102
}
330
8065
100
AcDbEntity
  8
枠
 62
     0
370
     5
100
AcDbLine
 10
2295.641894042939
 20
56.49999999999909
 30
0.0
 11
2260.641894042939
 21
56.49999999999909
 31
0.0
  0
LINE
  5
8079
102
{ACAD_REACTORS
330
807E
102
}
330
8065
100
AcDbEntity
  8
枠
 62
     0
370
     5
100
AcDbLine
 10
2326.75434681301
 20
40.53787547858428
 30
0.0
 11
2302.166198313996
 21
40.53787547858428
 31
0.0
  0
LINE
  5
807A
102
{ACAD_REACTORS
330
807E
102
}
330
8065
100
AcDbEntity
  8
枠
 62
     0
370
     5
100
AcDbLine
 10
2302.166198313996
 20
40.53787547858428
 30
0.0
 11
2302.166198313996
 21
30.53787547858429
 31
0.0
  0
LINE
  5
807B
102
{ACAD_REACTORS
330
807E
102
}
330
8065
100
AcDbEntity
  8
枠
 62
     0
370
     5
100
AcDbLine
 10
2302.166198313996
 20
30.53787547858429
 30
0.0
 11
2326.256852341323
 21
30.53787547858429
 31
0.0
  0
ARC
  5
807C
102
{ACAD_REACTORS
330
807E
102
}
330
8065
100
AcDbEntity
  8
枠
 62
     0
370
     5
100
AcDbCircle
 10
2238.255774665347
 20
36.49999999999909
 30
0.0
 40
20.0
100
AcDbArc
 50
11.64772366708617
 51
342.6561058784773
  0
ARC
  5
807D
102
{ACAD_REACTORS
330
807E
102
}
330
8065
100
AcDbEntity
  8
枠
 62
     0
370
     5
100
AcDbCircle
 10
2307.166198313995
 20
36.49999999999909
 30
0.0
 40
20.0
100
AcDbArc
 50
11.64772366708617
 51
342.6561058784773
  0
HATCH
  5
807E
330
8065
100
AcDbEntity
  8
枠
 62
     0
100
AcDbHatch
 10
0.0
 20
0.0
 30
0.0
210
0.0
220
0.0
230
1.0
  2
SOLID
 70
     1
 71
     1
 91
        3
 92
        1
 93
        4
 72
     2
 10
2307.166198313995
 20
36.49999999999909
 40
20.0
 50
11.64772366708617
 51
342.6561058784773
 73
     1
 72
     1
 10
2326.256852341323
 20
30.53787547858429
 11
2302.166198313996
 21
30.53787547858429
 72
     1
 10
2302.166198313996
 20
30.53787547858429
 11
2302.166198313996
 21
40.53787547858428
 72
     1
 10
2302.166198313996
 20
40.53787547858428
 11
2326.75434681301
 21
40.53787547858428
 97
        4
330
807D
330
807B
330
807A
330
8079
 92
        1
 93
        4
 72
     2
 10
2238.255774665347
 20
36.49999999999909
 40
20.0
 50
11.64772366708617
 51
342.6561058784773
 73
     1
 72
     1
 10
2257.346428692676
 20
30.53787547858429
 11
2233.255774665348
 21
30.53787547858429
 72
     1
 10
2233.255774665348
 20
30.53787547858429
 11
2233.255774665348
 21
40.53787547858428
 72
     1
 10
2233.255774665348
 20
40.53787547858428
 11
2257.843923164362
 21
40.53787547858428
 97
        4
330
807C
330
8073
330
8072
330
8071
 92
        1
 93
        5
 72
     1
 10
2295.641894042939
 20
56.49999999999909
 11
2260.641894042939
 21
56.49999999999909
 72
     1
 10
2260.641894042939
 20
56.49999999999909
 11
2260.641894042939
 21
16.49999999999909
 72
     1
 10
2260.641894042939
 20
16.49999999999909
 11
2295.641894042939
 21
16.49999999999909
 72
     1
 10
2295.641894042939
 20
16.49999999999909
 11
2260.641894042939
 21
36.49999999999909
 72
     1
 10
2260.641894042939
 20
36.49999999999909
 11
2295.641894042939
 21
56.49999999999909
 97
        5
330
8078
330
8074
330
8075
330
8076
330
8077
 75
     0
 76
     1
 98
        1
 10
-10.0
 20
-0.0000000000009095
  0
LINE
  5
807F
330
8065
100
AcDbEntity
  8
枠
 62
     0
100
AcDbLine
 10
2234.0
 20
68.99999999999909
 30
0.0
 11
2234.0
 21
198.9999999999991
 31
0.0
  0
LINE
  5
8080
330
8065
100
AcDbEntity
  8
実形
 62
     1
100
AcDbLine
 10
118.6742333375914
 20
5211.047041924394
 30
0.0
 11
2476.842860629935
 21
5211.047041924394
 31
0.0
  0
TEXT
  5
8081
330
8065
100
AcDbEntity
  8
実形
100
AcDbText
 10
271.4746615155927
 20
60.08511374856698
 30
0.0
 40
30.0
  1
※実寸には製造上の誤差が多少生ずる場合があります。シンクの穴あけ加工は現物合わせにてお願いします。
 72
     4
 11
1141.474661515593
 21
75.08511374856698
 31
0.0
100
AcDbText
  0
TEXT
  5
8082
330
8065
100
AcDbEntity
  8
枠
 62
     0
100
AcDbText
 10
2136.666666666667
 20
83.99999999999909
 30
0.0
 40
35.0
  1
尺度
 72
     4
 11
2174.0
 21
101.4999999999991
 31
0.0
100
AcDbText
  0
TEXT
  5
8083
330
8065
100
AcDbEntity
  8
枠
 62
     0
100
AcDbText
 10
2136.666666666667
 20
148.9999999999991
 30
0.0
 40
35.0
  1
品番
 72
     4
 11
2174.0
 21
166.4999999999991
 31
0.0
100
AcDbText
  0
TEXT
  5
8084
330
8065
100
AcDbEntity
  8
実形
100
AcDbText
 10
2446.588586518341
 20
81.78238670760313
 30
0.0
 40
40.0
  1
1：10
 72
     4
 11
2507.255253185007
 21
101.7823867076031
 31
0.0
100
AcDbText
  0
TEXT
  5
8085
330
8065
100
AcDbEntity
  8
実形
100
AcDbText
 10
2321.533637209673
 20
150.830875284324
 30
0.0
 40
30.0
  1
RAS800-460GRM
 72
     4
 11
2504.033637209673
 21
165.830875284324
 31
0.0
100
AcDbText
  0
LINE
  5
8086
330
8065
100
AcDbEntity
  8
実形
 62
     3
100
AcDbLine
 10
2856.314199910736
 20
2024.000000000001
 30
0.0
 11
2856.314199910736
 21
4.0
 31
0.0
  0
LINE
  5
8087
330
8065
100
AcDbEntity
  8
実形
 62
     0
100
AcDbLine
 10
2844.0
 20
4.0
 30
0.0
 11
2844.0
 21
2024.0
 31
0.0
  0
LINE
  5
8088
330
8065
100
AcDbEntity
  8
実形
 62
     0
100
AcDbLine
 10
2834.0
 20
4.0
 30
0.0
 11
2834.0
 21
2024.0
 31
0.0
  0
LINE
  5
8089
330
8065
100
AcDbEntity
  8
実形
 62
     0
100
AcDbLine
 10
174.0
 20
2024.0
 30
0.0
 11
174.0
 21
4.0
 31
0.0
  0
LINE
  5
808A
330
8065
100
AcDbEntity
  8
実形
100
AcDbLine
 10
827.7702104998825
 20
1659.178460662066
 30
0.0
 11
1657.770210499882
 21
1659.178460662066
 31
0.0
  0
LINE
  5
808B
330
8065
100
AcDbEntity
  8
実形
100
AcDbLine
 10
1657.770210499882
 20
1659.178460662066
 30
0.0
 11
1657.770210499882
 21
1169.178460662066
 31
0.0
  0
LINE
  5
808C
330
8065
100
AcDbEntity
  8
実形
100
AcDbLine
 10
1657.770210499882
 20
1169.178460662066
 30
0.0
 11
827.7702104998825
 21
1169.178460662066
 31
0.0
  0
LINE
  5
808D
330
8065
100
AcDbEntity
  8
実形
100
AcDbLine
 10
827.7702104998825
 20
1169.178460662066
 30
0.0
 11
827.7702104998825
 21
1659.178460662066
 31
0.0
  0
LINE
  5
808E
330
8065
100
AcDbEntity
  8
実形
100
AcDbLine
 10
848.7702104998824
 20
1644.178460662066
 30
0.0
 11
1636.770210499882
 21
1644.178460662066
 31
0.0
  0
LINE
  5
808F
330
8065
100
AcDbEntity
  8
実形
100
AcDbLine
 10
1642.770210499882
 20
1638.178460662065
 30
0.0
 11
1642.770210499882
 21
1190.178460662066
 31
0.0
  0
LINE
  5
8090
330
8065
100
AcDbEntity
  8
実形
100
AcDbLine
 10
1636.770210499882
 20
1184.178460662066
 30
0.0
 11
848.7702104998826
 21
1184.178460662066
 31
0.0
  0
LINE
  5
8091
330
8065
100
AcDbEntity
  8
実形
100
AcDbLine
 10
842.7702104998825
 20
1190.178460662066
 30
0.0
 11
842.7702104998823
 21
1638.178460662066
 31
0.0
  0
LINE
  5
8092
330
8065
100
AcDbEntity
  8
実形
100
AcDbLine
 10
862.7702104998824
 20
1210.178460662066
 30
0.0
 11
862.7702104998821
 21
1548.178460662066
 31
0.0
  0
LINE
  5
8093
330
8065
100
AcDbEntity
  8
実形
100
AcDbLine
 10
1092.770210499882
 20
1624.178460662066
 30
0.0
 11
1392.770210499882
 21
1624.178460662066
 31
0.0
  0
LINE
  5
8094
330
8065
100
AcDbEntity
  8
実形
100
AcDbLine
 10
1622.770210499882
 20
1548.178460662066
 30
0.0
 11
1622.770210499882
 21
1210.178460662066
 31
0.0
  0
LINE
  5
8095
330
8065
100
AcDbEntity
  8
実形
100
AcDbLine
 10
1616.770210499882
 20
1204.178460662066
 30
0.0
 11
868.7702104998823
 21
1204.178460662066
 31
0.0
  0
DIMENSION
  5
8096
330
8065
100
AcDbEntity
  8
実形
100
AcDbDimension
  2
*D20
 10
1622.770210499882
 20
1036.915758957679
 30
0.0
 11
1242.770210499882
 21
1056.015758957679
 31
0.0
 70
    32
 71
     5
 42
759.9999999999997
  3
ISO-25
100
AcDbAlignedDimension
 13
862.7702104998824
 23
1169.178460662066
 33
0.0
 14
1622.770210499882
 24
1169.178460662066
 34
0.0
100
AcDbRotatedDimension
1001
ACAD
1000
DSTYLE
1002
{
1070
    41
1040
10.0
1070
   140
1040
25.0
1070
   147
1040
6.599999999999998
1070
   279
1070
     2
1070
   342
1005
30D
1070
   371
1070
    18
1070
   372
1070
    18
1002
}
  0
DIMENSION
  5
8097
330
8065
100
AcDbEntity
  8
実形
100
AcDbDimension
  2
*D21
 10
1642.770210499882
 20
1036.915758957679
 30
0.0
 11
1589.171363804602
 21
1058.515758957679
 31
0.0
 70
   160
  1
20
 71
     5
 42
799.9999999999998
  3
ISO-25
100
AcDbAlignedDimension
 13
842.7702104998825
 23
1169.178460662066
 33
0.0
 14
1642.770210499882
 24
1169.178460662066
 34
0.0
100
AcDbRotatedDimension
1001
ACAD
1000
DSTYLE
1002
{
1070
    41
1040
10.0
1070
   140
1040
25.0
1070
   147
1040
6.599999999999998
1070
   279
1070
     2
1070
   342
1005
30D
1070
   371
1070
    18
1070
   372
1070
    18
1002
}
  0
TEXT
  5
8098
330
8065
100
AcDbEntity
  8
実形
 48
20.0
100
AcDbText
 10
877.7699109105341
 20
1047.974708017131
 30
0.0
 40
25.0
  1
20
100
AcDbText
  0
DIMENSION
  5
8099
330
8065
100
AcDbEntity
  8
実形
100
AcDbDimension
  2
*D22
 10
1642.770210499882
 20
974.5052716017053
 30
0.0
 11
1242.770210499882
 21
993.6052716017053
 31
0.0
 70
    32
 71
     5
 42
799.9999999999998
  3
ISO-25
100
AcDbAlignedDimension
 13
842.7702104998825
 23
1169.178460662066
 33
0.0
 14
1642.770210499882
 24
1169.178460662066
 34
0.0
100
AcDbRotatedDimension
1001
ACAD
1000
DSTYLE
1002
{
1070
    41
1040
10.0
1070
   140
1040
25.0
1070
   147
1040
6.599999999999998
1070
   279
1070
     2
1070
   342
1005
30D
1070
   371
1070
    18
1070
   372
1070
    18
1002
}
  0
DIMENSION
  5
809A
330
8065
100
AcDbEntity
  8
実形
100
AcDbDimension
  2
*D23
 10
1657.770210499882
 20
974.5052716017053
 30
0.0
 11
1701.559743854428
 21
996.1052716017052
 31
0.0
 70
   160
  1
15
 71
     5
 42
830.0
  3
ISO-25
100
AcDbAlignedDimension
 13
827.7702104998825
 23
1169.178460662066
 33
0.0
 14
1657.770210499882
 24
1169.178460662066
 34
0.0
100
AcDbRotatedDimension
1001
ACAD
1000
DSTYLE
1002
{
1070
    41
1040
10.0
1070
   140
1040
25.0
1070
   147
1040
6.599999999999998
1070
   279
1070
     2
1070
   342
1005
30D
1070
   371
1070
    18
1070
   372
1070
    18
1002
}
  0
TEXT
  5
809B
330
8065
100
AcDbEntity
  8
実形
 48
20.0
100
AcDbText
 10
770.7109889092589
 20
985.3423772939986
 30
0.0
 40
25.0
  1
15
100
AcDbText
  0
DIMENSION
  5
809C
330
8065
100
AcDbEntity
  8
実形
100
AcDbDimension
  2
*D24
 10
1657.770210499882
 20
901.2836911315535
 30
0.0
 11
1242.770210499882
 21
920.3836911315535
 31
0.0
 70
    32
 71
     5
 42
830.0
  3
ISO-25
100
AcDbAlignedDimension
 13
827.7702104998825
 23
1169.178460662066
 33
0.0
 14
1657.770210499882
 24
1169.178460662066
 34
0.0
100
AcDbRotatedDimension
1001
ACAD
1000
DSTYLE
1002
{
1070
    41
1040
10.0
1070
   140
1040
25.0
1070
   147
1040
6.599999999999998
1070
   279
1070
     2
1070
   342
1005
30D
1070
   371
1070
    18
1070
   372
1070
    18
1002
}
  0
LINE
  5
809D
330
8065
100
AcDbEntity
  8
実形
  6
ACAD_ISO08W100
 48
0.5
100
AcDbLine
 10
1384.469907606381
 20
1404.178460662066
 30
0.0
 11
1109.442023008436
 21
1404.178460662066
 31
0.0
  0
CIRCLE
  5
809E
330
8065
100
AcDbEntity
  8
実形
100
AcDbCircle
 10
1242.770210499882
 20
1404.178460662066
 30
0.0
 40
80.0
  0
CIRCLE
  5
809F
330
8065
100
AcDbEntity
  8
実形
100
AcDbCircle
 10
1242.770210499882
 20
1404.178460662066
 30
0.0
 40
90.5
  0
LINE
  5
80A0
330
8065
100
AcDbEntity
  8
実形
100
AcDbLine
 10
862.7702104998824
 20
1659.178460662066
 30
0.0
 11
1012.770210499882
 21
1659.178460662066
 31
0.0
  0
LINE
  5
80A1
330
8065
100
AcDbEntity
  8
実形
 62
     3
100
AcDbLine
 10
917.0693431839136
 20
-152.3860966284574
 30
0.0
 11
1747.069343183913
 21
-152.3860966284574
 31
0.0
  0
LINE
  5
80A2
330
8065
100
AcDbEntity
  8
実形
 62
     3
100
AcDbLine
 10
932.0693431839137
 20
-152.3860966284574
 30
0.0
 11
932.0693431839139
 21
-167.3860966284574
 31
0.0
  0
LINE
  5
80A3
330
8065
100
AcDbEntity
  8
実形
 62
     3
100
AcDbLine
 10
1732.069343183914
 20
-152.3860966284574
 30
0.0
 11
1732.069343183914
 21
-167.3860966284574
 31
0.0
  0
LINE
  5
80A4
330
8065
100
AcDbEntity
  8
実形
 62
     3
100
AcDbLine
 10
932.0693431839139
 20
-167.3860966284574
 30
0.0
 11
1732.069343183914
 21
-167.3860966284574
 31
0.0
  0
LINE
  5
80A5
330
8065
100
AcDbEntity
  8
実形
 62
     3
100
AcDbLine
 10
952.0693431839136
 20
-167.3860966284576
 30
0.0
 11
952.0693431839134
 21
-362.7109739766329
 31
0.0
  0
LINE
  5
80A6
330
8065
100
AcDbEntity
  8
実形
 62
     3
100
AcDbLine
 10
1712.069343183914
 20
-167.3860966284574
 30
0.0
 11
1712.069343183913
 21
-361.5568395436162
 31
0.0
  0
LINE
  5
80A7
330
8065
100
AcDbEntity
  8
実形
 62
     3
100
AcDbLine
 10
1011.569343183913
 20
-382.3860966284574
 30
0.0
 11
1192.569343183913
 21
-382.3860966284574
 31
0.0
  0
LINE
  5
80A8
330
8065
100
AcDbEntity
  8
実形
 62
     3
100
AcDbLine
 10
1011.569343183913
 20
-392.3860966284574
 30
0.0
 11
1192.569343183913
 21
-392.3860966284574
 31
0.0
  0
DIMENSION
  5
80A9
330
8065
100
AcDbEntity
  8
実形
 62
     3
100
AcDbDimension
  2
*D25
 10
797.3710940401324
 20
-367.3860966284573
 30
0.0
 11
778.2710940401325
 21
-267.3860966284572
 31
0.0
 70
    32
 71
     5
 42
200.0
  3
ISO-25
100
AcDbAlignedDimension
 13
917.0693431839135
 23
-167.3860966284574
 33
0.0
 14
917.0693431839133
 24
-367.3860966284574
 34
0.0
 50
90.0
100
AcDbRotatedDimension
1001
ACAD
1000
DSTYLE
1002
{
1070
    41
1040
10.0
1070
   140
1040
25.0
1070
   147
1040
6.599999999999998
1070
   279
1070
     2
1070
   342
1005
30D
1070
   371
1070
    18
1070
   372
1070
    18
1002
}
  0
DIMENSION
  5
80AA
330
8065
100
AcDbEntity
  8
実形
 62
     3
100
AcDbDimension
  2
*D26
 10
797.3710940401324
 20
-382.3860966284573
 30
0.0
 11
775.7710940401323
 21
-176.4675834353729
 31
0.0
 70
   160
  1
15
 71
     5
 42
230.0
  3
ISO-25
100
AcDbAlignedDimension
 13
917.0693431839136
 23
-152.3860966284574
 33
0.0
 14
917.0693431839136
 24
-382.3860966284574
 34
0.0
 50
90.0
100
AcDbRotatedDimension
1001
ACAD
1000
DSTYLE
1002
{
1070
    41
1040
10.0
1070
   140
1040
25.0
1070
   147
1040
6.599999999999998
1070
   279
1070
     2
1070
   342
1005
30D
1070
   371
1070
    18
1070
   372
1070
    18
1002
}
  0
TEXT
  5
80AB
330
8065
100
AcDbEntity
  8
実形
 62
     3
 48
20.0
100
AcDbText
 10
790.6030498610107
 20
-377.9124245682397
 30
0.0
 40
25.0
  1
15
 50
90.0
100
AcDbText
  0
LINE
  5
80AC
330
8065
100
AcDbEntity
  8
実形
 62
     3
100
AcDbLine
 10
797.3710940401324
 20
-382.3860966284574
 30
0.0
 11
797.3710940401326
 21
-392.3860966284574
 31
0.0
  0
DIMENSION
  5
80AD
330
8065
100
AcDbEntity
  8
実形
 62
     3
100
AcDbDimension
  2
*D27
 10
797.3710940401324
 20
-152.3860966284573
 30
0.0
 11
830.355261679284
 21
-411.1966776303161
 31
0.0
 70
   160
  1
8
 71
     5
 42
240.0
  3
ISO-25
100
AcDbAlignedDimension
 13
917.0693431839136
 23
-392.3860966284574
 33
0.0
 14
917.0693431839136
 24
-152.3860966284574
 34
0.0
 50
90.0
100
AcDbRotatedDimension
1001
ACAD
1000
DSTYLE
1002
{
1070
    41
1040
10.0
1070
   140
1040
25.0
1070
   147
1040
6.599999999999998
1070
   279
1070
     2
1070
   342
1005
30D
1070
   371
1070
    18
1070
   372
1070
    18
1002
}
  0
DIMENSION
  5
80AE
330
8065
100
AcDbEntity
  8
実形
 62
     3
100
AcDbDimension
  2
*D28
 10
727.6013470322832
 20
-382.3860966284573
 30
0.0
 11
708.5013470322833
 21
-267.3860966284572
 31
0.0
 70
    32
 71
     5
 42
230.0
  3
ISO-25
100
AcDbAlignedDimension
 13
917.0693431839136
 23
-152.3860966284574
 33
0.0
 14
917.0693431839135
 24
-382.3860966284574
 34
0.0
 50
90.0
100
AcDbRotatedDimension
1001
ACAD
1000
DSTYLE
1002
{
1070
    41
1040
10.0
1070
   140
1040
25.0
1070
   147
1040
6.599999999999998
1070
   279
1070
     2
1070
   342
1005
30D
1070
   371
1070
    18
1070
   372
1070
    18
1002
}
  0
DIMENSION
  5
80AF
330
8065
100
AcDbEntity
  8
実形
 62
     3
100
AcDbDimension
  2
*D29
 10
660.6927293655044
 20
-392.3860966284574
 30
0.0
 11
641.5927293655045
 21
-272.3860966284572
 31
0.0
 70
    32
  1
238
 71
     5
 42
240.0
  3
ISO-25
100
AcDbAlignedDimension
 13
793.6814961412001
 23
-152.3860966284574
 33
0.0
 14
793.6814961411999
 24
-392.3860966284574
 34
0.0
 50
90.0
100
AcDbRotatedDimension
1001
ACAD
1000
DSTYLE
1002
{
1070
    41
1040
10.0
1070
   140
1040
25.0
1070
   147
1040
6.599999999999998
1070
   279
1070
     2
1070
   342
1005
30D
1070
   371
1070
    18
1070
   372
1070
    18
1002
}
  0
TEXT
  5
80B0
330
8065
100
AcDbEntity
  8
実形
100
AcDbText
 10
1509.52663925932
 20
1464.605228875251
 30
0.0
 40
25.0
  1
6R
 72
     2
 11
1551.193305925987
 21
1461.271895541917
 31
0.0
100
AcDbText
 73
     1
  0
LEADER
  5
80B1
330
8065
100
AcDbEntity
  8
実形
100
AcDbLeader
  3
ISO-25
 76
     2
 10
1612.401069036485
 20
1543.199935987015
 30
0.0
 10
1558.344122906441
 20
1494.303693113559
 30
0.0
1001
ACAD
1000
DSTYLE
1002
{
1070
    77
1070
     0
1070
    41
1040
10.0
1070
   140
1040
30.0
1070
   147
1040
6.599999999999998
1070
   279
1070
     2
1070
   342
1005
30D
1070
   371
1070
    18
1070
   372
1070
    18
1002
}
  0
TEXT
  5
80B2
330
8065
100
AcDbEntity
  8
実形
100
AcDbText
 10
1508.340509182852
 20
1215.174767916627
 30
0.0
 40
25.0
  1
6R
 72
     2
 11
1550.007175849518
 21
1211.841434583294
 31
0.0
100
AcDbText
 73
     1
  0
LEADER
  5
80B3
330
8065
100
AcDbEntity
  8
実形
100
AcDbLeader
  3
ISO-25
 76
     2
 10
1633.74014683896
 20
1191.262627398048
 30
0.0
 10
1565.498924722882
 20
1220.187379926308
 30
0.0
1001
ACAD
1000
DSTYLE
1002
{
1070
    77
1070
     0
1070
    41
1040
10.0
1070
   140
1040
30.0
1070
   147
1040
6.599999999999998
1070
   279
1070
     2
1070
   342
1005
30D
1070
   371
1070
    18
1070
   372
1070
    18
1002
}
  0
LINE
  5
80B4
330
8065
100
AcDbEntity
  8
実形
  6
ACAD_ISO08W100
 62
     3
 48
0.5
100
AcDbLine
 10
1102.069343183913
 20
-287.5334204559203
 30
0.0
 11
1102.069343183913
 21
-444.2147007915264
 31
0.0
  0
LINE
  5
80B5
330
8065
100
AcDbEntity
  8
実形
 62
     3
100
AcDbLine
 10
1011.569343183913
 20
-382.3860966284574
 30
0.0
 11
1011.569343183913
 21
-392.3860966284574
 31
0.0
  0
LINE
  5
80B6
330
8065
100
AcDbEntity
  8
実形
 62
     3
100
AcDbLine
 10
1192.569343183913
 20
-382.3860966284574
 30
0.0
 11
1192.569343183913
 21
-392.3860966284574
 31
0.0
  0
LINE
  5
80B7
330
8065
100
AcDbEntity
  8
実形
 62
     3
100
AcDbLine
 10
1011.569343183913
 20
-382.3860966284574
 30
0.0
 11
956.6026286319571
 21
-368.528941699393
 31
0.0
  0
ARC
  5
80B8
330
8065
100
AcDbEntity
  8
実形
 62
     3
100
AcDbCircle
 10
958.0693431839135
 20
-362.7109739766327
 30
0.0
 40
6.0
100
AcDbArc
 50
180.0
 51
255.8505239136548
  0
LINE
  5
80B9
330
8065
100
AcDbEntity
  8
実形
 62
     3
100
AcDbLine
 10
1192.569343183913
 20
-382.3860966284574
 30
0.0
 11
1706.242514515584
 21
-367.5543399971291
 31
0.0
  0
ARC
  5
80BA
330
8065
100
AcDbEntity
  8
実形
 62
     3
100
AcDbCircle
 10
1706.069343183914
 20
-361.5568395436162
 30
0.0
 40
6.0
100
AcDbArc
 50
271.6538940784474
 51
360.0
  0
DIMENSION
  5
80BB
330
8065
100
AcDbEntity
  8
実形
 62
     3
100
AcDbDimension
  2
*D30
 10
1182.069343183914
 20
-509.3026951643151
 30
0.0
 11
1102.069343183913
 21
-490.202695164315
 31
0.0
 70
    32
 71
     5
 42
160.0000000000002
  3
ISO-25
100
AcDbAlignedDimension
 13
1022.069343183913
 23
-392.3860966284575
 33
0.0
 14
1182.069343183914
 24
-392.3860966284575
 34
0.0
100
AcDbRotatedDimension
1001
ACAD
1000
DSTYLE
1002
{
1070
    41
1040
10.0
1070
   140
1040
25.0
1070
   147
1040
6.599999999999998
1070
   279
1070
     2
1070
   342
1005
30D
1070
   371
1070
    18
1070
   372
1070
    18
1002
}
  0
DIMENSION
  5
80BC
330
8065
100
AcDbEntity
  8
実形
 62
     3
100
AcDbDimension
  2
*D31
 10
1192.569343183913
 20
-580.5449919795919
 30
0.0
 11
1102.069343183913
 21
-561.4449919795919
 31
0.0
 70
    32
 71
     5
 42
180.9999999999995
  3
ISO-25
100
AcDbAlignedDimension
 13
1011.569343183913
 23
-392.3860966284575
 33
0.0
 14
1192.569343183913
 24
-392.3860966284617
 34
0.0
100
AcDbRotatedDimension
1001
ACAD
1000
DSTYLE
1002
{
1070
    41
1040
10.0
1070
   140
1040
25.0
1070
   147
1040
6.599999999999998
1070
   279
1070
     2
1070
   342
1005
30D
1070
   371
1070
    18
1070
   372
1070
    18
1002
}
  0
ARC
  5
80BD
330
8065
100
AcDbEntity
  8
実形
 62
     3
100
AcDbCircle
 10
1706.069343183913
 20
-361.5568395436162
 30
0.0
 40
6.0
100
AcDbArc
 50
271.6538940784474
 51
360.0
  0
ARC
  5
80BE
330
8065
100
AcDbEntity
  8
実形
 62
     3
100
AcDbCircle
 10
958.0693431839135
 20
-362.7109739766329
 30
0.0
 40
6.0
100
AcDbArc
 50
180.0
 51
255.8505239136549
  0
TEXT
  5
80BF
330
8065
100
AcDbEntity
  8
実形
 62
     3
100
AcDbText
 10
1042.683555881774
 20
-304.5623972451655
 30
0.0
 40
25.0
  1
6R
 72
     2
 11
1084.350222548441
 21
-307.8957305784988
 31
0.0
100
AcDbText
 73
     1
  0
TEXT
  5
80C0
330
8065
100
AcDbEntity
  8
実形
 62
     3
100
AcDbText
 10
1595.621696234116
 20
-306.4700963227503
 30
0.0
 40
25.0
  1
6R
 72
     2
 11
1637.288362900783
 21
-309.8034296560836
 31
0.0
100
AcDbText
 73
     1
  0
LEADER
  5
80C1
330
8065
100
AcDbEntity
  8
実形
 62
     3
100
AcDbLeader
  3
ISO-25
 76
     2
 10
965.4503650180505
 20
-356.9510230277229
 30
0.0
 10
1027.920188021731
 20
-309.3670608013253
 30
0.0
1001
ACAD
1000
DSTYLE
1002
{
1070
    77
1070
     0
1070
    41
1040
10.0
1070
   140
1040
30.0
1070
   147
1040
6.599999999999998
1070
   279
1070
     2
1070
   342
1005
30D
1070
   371
1070
    18
1070
   372
1070
    18
1002
}
  0
ARC
  5
80C2
330
8065
100
AcDbEntity
  8
実形
100
AcDbCircle
 10
1636.770210499882
 20
1638.178460662065
 30
0.0
 40
6.0
100
AcDbArc
 50
0.0
 51
90.0
  0
ARC
  5
80C3
330
8065
100
AcDbEntity
  8
実形
100
AcDbCircle
 10
1616.770210499882
 20
1210.178460662066
 30
0.0
 40
6.0
100
AcDbArc
 50
270.0
 51
0.0
  0
ARC
  5
80C4
330
8065
100
AcDbEntity
  8
実形
100
AcDbCircle
 10
1636.770210499882
 20
1190.178460662066
 30
0.0
 40
6.0
100
AcDbArc
 50
270.0
 51
0.0
  0
ARC
  5
80C5
330
8065
100
AcDbEntity
  8
実形
100
AcDbCircle
 10
848.7702104998824
 20
1638.178460662066
 30
0.0
 40
6.0
100
AcDbArc
 50
89.99999999999998
 51
180.0
  0
ARC
  5
80C6
330
8065
100
AcDbEntity
  8
実形
100
AcDbCircle
 10
868.7702104998823
 20
1210.178460662066
 30
0.0
 40
6.0
100
AcDbArc
 50
180.0
 51
270.0
  0
ARC
  5
80C7
330
8065
100
AcDbEntity
  8
実形
100
AcDbCircle
 10
848.7702104998826
 20
1190.178460662066
 30
0.0
 40
6.0
100
AcDbArc
 50
180.0
 51
270.0
  0
LEADER
  5
80C8
330
8065
100
AcDbEntity
  8
実形
 62
     3
100
AcDbLeader
  3
ISO-25
 76
     2
 10
1698.688321349777
 20
-356.9510230277229
 30
0.0
 10
1650.738809508872
 20
-308.106533025717
 30
0.0
211
-1.0
221
0.0
231
0.0
1001
ACAD
1000
DSTYLE
1002
{
1070
    77
1070
     0
1070
    41
1040
10.0
1070
   140
1040
30.0
1070
   147
1040
6.599999999999998
1070
   279
1070
     2
1070
   342
1005
30D
1070
   371
1070
    18
1070
   372
1070
    18
1002
}
  0
LINE
  5
80C9
330
8065
100
AcDbEntity
  8
実形
 62
     0
100
AcDbLine
 10
2114.0
 20
263.9999999999991
 30
0.0
 11
2834.0
 21
263.9999999999991
 31
0.0
  0
LINE
  5
80CA
330
8065
100
AcDbEntity
  8
実形
 62
     0
100
AcDbLine
 10
2114.0
 20
3.99999999999909
 30
0.0
 11
2114.0
 21
263.9999999999991
 31
0.0
  0
LINE
  5
80CB
330
8065
100
AcDbEntity
  8
実形
 62
     0
100
AcDbLine
 10
2234.0
 20
68.99999999999909
 30
0.0
 11
2234.0
 21
263.9999999999992
 31
0.0
  0
TEXT
  5
80CC
330
8065
100
AcDbEntity
  8
枠
 62
     0
100
AcDbText
 10
2137.833333333333
 20
213.9999999999991
 30
0.0
 40
35.0
  1
品名
 72
     4
 11
2174.0
 21
231.4999999999991
 31
0.0
100
AcDbText
  0
TEXT
  5
80CD
330
8065
100
AcDbEntity
  8
実形
100
AcDbText
 10
2323.374698073251
 20
213.2308752843241
 30
0.0
 40
35.0
  1
ｱﾝﾀﾞｰｼﾝｸ
  7
ms明朝
 72
     4
 11
2425.774698073251
 21
230.8308752843241
 31
0.0
100
AcDbText
  0
LINE
  5
80CE
330
8065
100
AcDbEntity
  8
枠
100
AcDbLine
 10
2834.0
 20
1958.999999999999
 30
0.0
 11
2114.0
 21
1958.999999999999
 31
0.0
  0
LINE
  5
80CF
330
8065
100
AcDbEntity
  8
枠
100
AcDbLine
 10
2834.0
 20
1893.999999999998
 30
0.0
 11
2114.0
 21
1893.999999999998
 31
0.0
  0
LINE
  5
80D0
330
8065
100
AcDbEntity
  8
枠
100
AcDbLine
 10
2114.0
 20
1893.999999999998
 30
0.0
 11
2114.0
 21
2023.999999999999
 31
0.0
  0
TEXT
  5
80D1
330
8065
100
AcDbEntity
  8
枠
100
AcDbText
 10
2671.5
 20
1976.499999999999
 30
0.0
 40
30.0
  1
仕上げ
 72
     4
 11
2721.5
 21
1991.499999999999
 31
0.0
100
AcDbText
  0
LINE
  5
80D2
330
8065
100
AcDbEntity
  8
枠
100
AcDbLine
 10
2592.81684247519
 20
1893.999999999998
 30
0.0
 11
2592.81684247519
 21
2023.999999999999
 31
0.0
  0
LINE
  5
80D3
330
8065
100
AcDbEntity
  8
枠
100
AcDbLine
 10
2367.816842475189
 20
1893.999999999998
 30
0.0
 11
2367.816842475189
 21
2023.999999999999
 31
0.0
  0
TEXT
  5
80D4
330
8065
100
AcDbEntity
  8
実形
100
AcDbText
 10
2641.5
 20
1911.5
 30
0.0
 40
30.0
  1
HL仕上げ
 72
     4
 11
2721.5
 21
1926.5
 31
0.0
100
AcDbText
  0
TEXT
  5
80D5
330
8065
100
AcDbEntity
  8
枠
100
AcDbText
 10
2194.5
 20
1976.499999999999
 30
0.0
 40
30.0
  1
材質
 72
     4
 11
2226.5
 21
1991.499999999999
 31
0.0
100
AcDbText
  0
TEXT
  5
80D6
330
8065
100
AcDbEntity
  8
実形
100
AcDbText
 10
2150.567741091872
 20
1909.802712155305
 30
0.0
 40
30.0
  1
SUS304
 72
     4
 11
2233.067741091872
 21
1924.802712155305
 31
0.0
100
AcDbText
  0
TEXT
  5
80D7
330
8065
100
AcDbEntity
  8
枠
100
AcDbText
 10
2445.771452399255
 20
1977.499999999999
 30
0.0
 40
30.0
  1
厚み
 72
     4
 11
2476.771452399255
 21
1991.499999999999
 31
0.0
100
AcDbText
  0
TEXT
  5
80D8
330
8065
100
AcDbEntity
  8
実形
100
AcDbText
 10
2418.271452399255
 20
1911.5
 30
0.0
 40
30.0
  1
1.0ｍｍ
 72
     4
 11
2476.771452399255
 21
1926.5
 31
0.0
100
AcDbText
  0
LINE
  5
80D9
330
8065
100
AcDbEntity
  8
実形
100
AcDbLine
 10
868.770210499882
 20
1554.178460662066
 30
0.0
 11
1092.770210499882
 21
1554.178460662066
 31
0.0
  0
DIMENSION
  5
80DA
330
8065
100
AcDbEntity
  8
実形
100
AcDbDimension
  2
*D32
 10
1043.456345948539
 20
1404.178460662066
 30
0.0
 11
1021.856345948539
 21
1479.178460662066
 31
0.0
 70
    32
 71
     5
 42
150.0000000000002
  3
ISO-25
100
AcDbAlignedDimension
 13
1159.538117598124
 23
1554.178460662066
 33
0.0
 14
1156.209930106677
 24
1404.178460662066
 34
0.0
 50
90.0
100
AcDbRotatedDimension
1001
ACAD
1000
DSTYLE
1002
{
1070
    41
1040
10.0
1070
   140
1040
30.0
1070
   147
1040
6.599999999999998
1070
   279
1070
     2
1070
   342
1005
30D
1070
   371
1070
    18
1070
   372
1070
    18
1002
}
  0
DIMENSION
  5
80DB
330
8065
100
AcDbEntity
  8
実形
100
AcDbDimension
  2
*D33
 10
1622.770210499882
 20
1270.994834284402
 30
0.0
 11
1432.770210499882
 21
1292.594834284402
 31
0.0
 70
    32
 71
     5
 42
380.0
  3
ISO-25
100
AcDbAlignedDimension
 13
1242.770210499882
 23
1365.740901717254
 33
0.0
 14
1622.770210499882
 24
1365.740901717254
 34
0.0
100
AcDbRotatedDimension
1001
ACAD
1000
DSTYLE
1002
{
1070
    41
1040
10.0
1070
   140
1040
30.0
1070
   147
1040
6.599999999999998
1070
   279
1070
     2
1070
   342
1005
30D
1070
   371
1070
    18
1070
   372
1070
    18
1002
}
  0
LINE
  5
80DC
330
8065
100
AcDbEntity
  8
実形
100
AcDbLine
 10
1092.770210499882
 20
1554.178460662066
 30
0.0
 11
1092.770210499882
 21
1624.178460662066
 31
0.0
  0
LINE
  5
80DD
330
8065
100
AcDbEntity
  8
実形
100
AcDbLine
 10
1392.770210499882
 20
1554.178460662066
 30
0.0
 11
1392.770210499882
 21
1624.178460662066
 31
0.0
  0
DIMENSION
  5
80DE
330
8065
100
AcDbEntity
  8
実形
100
AcDbDimension
  2
*D34
 10
1092.770210499882
 20
1735.385472702717
 30
0.0
 11
967.7702104998825
 21
1754.485472702717
 31
0.0
 70
    32
 71
     5
 42
250.0000000000001
  3
ISO-25
100
AcDbAlignedDimension
 13
842.7702104998823
 23
1624.178460662066
 33
0.0
 14
1092.770210499882
 24
1624.178460662066
 34
0.0
100
AcDbRotatedDimension
1001
ACAD
1000
DSTYLE
1002
{
1070
    41
1040
10.0
1070
   140
1040
25.0
1070
   147
1040
6.599999999999998
1070
   279
1070
     2
1070
   342
1005
30D
1070
   371
1070
    18
1070
   372
1070
    18
1002
}
  0
DIMENSION
  5
80DF
330
8065
100
AcDbEntity
  8
実形
100
AcDbDimension
  2
*D35
 10
1392.770210499882
 20
1735.385472702717
 30
0.0
 11
1242.770210499882
 21
1754.485472702717
 31
0.0
 70
    32
 71
     5
 42
300.0
  3
ISO-25
100
AcDbAlignedDimension
 13
1092.770210499882
 23
1624.178460662066
 33
0.0
 14
1392.770210499882
 24
1624.178460662066
 34
0.0
100
AcDbRotatedDimension
1001
ACAD
1000
DSTYLE
1002
{
1070
    41
1040
10.0
1070
   140
1040
25.0
1070
   147
1040
6.599999999999998
1070
   279
1070
     2
1070
   342
1005
30D
1070
   371
1070
    18
1070
   372
1070
    18
1002
}
  0
DIMENSION
  5
80E0
330
8065
100
AcDbEntity
  8
実形
100
AcDbDimension
  2
*D36
 10
1642.770210499882
 20
1735.385472702717
 30
0.0
 11
1517.770210499882
 21
1754.485472702717
 31
0.0
 70
    32
 71
     5
 42
249.9999999999998
  3
ISO-25
100
AcDbAlignedDimension
 13
1392.770210499883
 23
1624.178460662065
 33
0.0
 14
1642.770210499882
 24
1624.178460662065
 34
0.0
100
AcDbRotatedDimension
1001
ACAD
1000
DSTYLE
1002
{
1070
    41
1040
10.0
1070
   140
1040
25.0
1070
   147
1040
6.599999999999998
1070
   279
1070
     2
1070
   342
1005
30D
1070
   371
1070
    18
1070
   372
1070
    18
1002
}
  0
DIMENSION
  5
80E1
330
8065
100
AcDbEntity
  8
実形
100
AcDbDimension
  2
*D37
 10
1657.770210499882
 20
1735.385472702717
 30
0.0
 11
826.3182245476109
 21
1760.370517377699
 31
0.0
 70
   160
  1
15
 71
     5
 42
830.0
  3
ISO-25
100
AcDbAlignedDimension
 13
827.7702104998825
 23
1624.806458158204
 33
0.0
 14
1657.770210499882
 24
1624.161761419618
 34
0.0
100
AcDbRotatedDimension
1001
ACAD
1000
DSTYLE
1002
{
1070
    41
1040
10.0
1070
   140
1040
25.0
1070
   147
1040
6.599999999999998
1070
   279
1070
     2
1070
   342
1005
30D
1070
   371
1070
    18
1070
   372
1070
    18
1002
}
  0
TEXT
  5
80E2
330
8065
100
AcDbEntity
  8
実形
 48
20.0
100
AcDbText
 10
1644.285264478984
 20
1745.579848299247
 30
0.0
 40
25.0
  1
15
100
AcDbText
  0
DIMENSION
  5
80E3
330
8065
100
AcDbEntity
  8
実形
100
AcDbDimension
  2
*D38
 10
1771.093547640548
 20
1184.178460662066
 30
0.0
 11
1751.993547640548
 21
1414.178460662066
 31
0.0
 70
    32
 71
     5
 42
459.9999999999997
  3
ISO-25
100
AcDbAlignedDimension
 13
1657.770210499882
 23
1644.178460662066
 33
0.0
 14
1657.770210499883
 24
1184.178460662066
 34
0.0
 50
90.0
100
AcDbRotatedDimension
1001
ACAD
1000
DSTYLE
1002
{
1070
    41
1040
10.0
1070
   140
1040
25.0
1070
   147
1040
6.599999999999998
1070
   279
1070
     2
1070
   342
1005
30D
1070
   371
1070
    18
1070
   372
1070
    18
1002
}
  0
DIMENSION
  5
80E4
330
8065
100
AcDbEntity
  8
実形
100
AcDbDimension
  2
*D39
 10
1771.093547640548
 20
1169.178460662066
 30
0.0
 11
1749.493547640548
 21
1688.725599288342
 31
0.0
 70
   160
  1
15
 71
     5
 42
490.0
  3
ISO-25
100
AcDbAlignedDimension
 13
1657.770210499882
 23
1659.178460662066
 33
0.0
 14
1657.770210499882
 24
1169.178460662066
 34
0.0
 50
90.0
100
AcDbRotatedDimension
1001
ACAD
1000
DSTYLE
1002
{
1070
    41
1040
10.0
1070
   140
1040
25.0
1070
   147
1040
6.599999999999998
1070
   279
1070
     2
1070
   342
1005
30D
1070
   371
1070
    18
1070
   372
1070
    18
1002
}
  0
TEXT
  5
80E5
330
8065
100
AcDbEntity
  8
実形
 48
20.0
100
AcDbText
 10
1763.371050332344
 20
1117.528641274333
 30
0.0
 40
25.0
  1
15
 50
90.0
100
AcDbText
  0
DIMENSION
  5
80E6
330
8065
100
AcDbEntity
  8
実形
100
AcDbDimension
  2
*D40
 10
1833.118375451033
 20
1169.178460662066
 30
0.0
 11
1814.018375451033
 21
1414.178460662066
 31
0.0
 70
    32
 71
     5
 42
490.0
  3
ISO-25
100
AcDbAlignedDimension
 13
1657.770210499882
 23
1659.178460662066
 33
0.0
 14
1657.770210499882
 24
1169.178460662066
 34
0.0
 50
90.0
100
AcDbRotatedDimension
1001
ACAD
1000
DSTYLE
1002
{
1070
    41
1040
10.0
1070
   140
1040
25.0
1070
   147
1040
6.599999999999998
1070
   279
1070
     2
1070
   342
1005
30D
1070
   371
1070
    18
1070
   372
1070
    18
1002
}
  0
LINE
  5
80E7
330
8065
100
AcDbEntity
  8
実形
100
AcDbLine
 10
773.3275276276962
 20
1644.178460662066
 30
0.0
 11
738.1482502386061
 21
1644.178460662066
 31
0.0
  0
LINE
  5
80E8
330
8065
100
AcDbEntity
  8
実形
100
AcDbLine
 10
738.1482502386061
 20
1644.178460662066
 30
0.0
 11
738.1482502386061
 21
1624.178460662066
 31
0.0
  0
LINE
  5
80E9
330
8065
100
AcDbEntity
  8
実形
100
AcDbLine
 10
738.1482502386061
 20
1624.178460662066
 30
0.0
 11
773.3275276276963
 21
1624.178460662066
 31
0.0
  0
DIMENSION
  5
80EA
330
8065
100
AcDbEntity
  8
実形
100
AcDbDimension
  2
*D41
 10
738.1482502386061
 20
1644.178460662066
 30
0.0
 11
715.569680847846
 21
1589.259853472391
 31
0.0
 70
   160
  1
70
 71
     5
 42
89.99999999999955
  3
ISO-25
100
AcDbAlignedDimension
 13
832.3275276276962
 23
1554.178460662066
 33
0.0
 14
832.3275276276962
 24
1644.178460662066
 34
0.0
 50
90.0
100
AcDbRotatedDimension
1001
ACAD
1000
DSTYLE
1002
{
1070
    41
1040
10.0
1070
   140
1040
25.0
1070
   147
1040
6.599999999999998
1070
   279
1070
     2
1070
   342
1005
30D
1070
   371
1070
    18
1070
   372
1070
    18
1002
}
  0
DIMENSION
  5
80EB
330
8065
100
AcDbEntity
  8
実形
100
AcDbDimension
  2
*D42
 10
738.1482502386061
 20
1624.178460662066
 30
0.0
 11
801.3626707265066
 21
1625.22842009638
 31
0.0
 70
   160
  1
20
 71
     5
 42
69.99999999999977
  3
ISO-25
100
AcDbAlignedDimension
 13
832.3275276276962
 23
1554.178460662066
 33
0.0
 14
838.3275276276963
 24
1624.178460662066
 34
0.0
 50
90.0
100
AcDbRotatedDimension
1001
ACAD
1000
DSTYLE
1002
{
1070
    41
1040
10.0
1070
   140
1040
25.0
1070
   147
1040
6.599999999999998
1070
   279
1070
     2
1070
   342
1005
30D
1070
   371
1070
    18
1070
   372
1070
    18
1002
}
  0
TEXT
  5
80EC
330
8065
100
AcDbEntity
  8
実形
 48
20.0
100
AcDbText
 10
797.0821669850392
 20
2333.361271294907
 30
0.0
 40
8.0
  1
●
 50
90.0
100
AcDbText
  0
DIMENSION
  5
80ED
330
8065
100
AcDbEntity
  8
実形
100
AcDbDimension
  2
*D43
 10
672.3280192665588
 20
1554.178460662066
 30
0.0
 11
653.2280192665585
 21
1599.178460662066
 31
0.0
 70
    32
 71
     5
 42
89.99999999999955
  3
ISO-25
100
AcDbAlignedDimension
 13
800.771238858355
 23
1644.178460662066
 33
0.0
 14
779.7500916428215
 24
1554.178460662066
 34
0.0
 50
90.0
100
AcDbRotatedDimension
1001
ACAD
1000
DSTYLE
1002
{
1070
    41
1040
10.0
1070
   140
1040
25.0
1070
   147
1040
6.599999999999998
1070
   279
1070
     2
1070
   342
1005
30D
1070
   371
1070
    18
1070
   372
1070
    18
1002
}
  0
DIMENSION
  5
80EE
330
8065
100
AcDbEntity
  8
実形
100
AcDbDimension
  2
*D44
 10
672.3280192665587
 20
1204.178460662066
 30
0.0
 11
653.2280192665585
 21
1379.178460662066
 31
0.0
 70
    32
 71
     5
 42
350.0000000000004
  3
ISO-25
100
AcDbAlignedDimension
 13
797.6742997845558
 23
1554.178460662066
 33
0.0
 14
802.7945193027008
 24
1204.178460662066
 34
0.0
 50
90.0
100
AcDbRotatedDimension
1001
ACAD
1000
DSTYLE
1002
{
1070
    41
1040
10.0
1070
   140
1040
25.0
1070
   147
1040
6.599999999999998
1070
   279
1070
     2
1070
   342
1005
30D
1070
   371
1070
    18
1070
   372
1070
    18
1002
}
  0
DIMENSION
  5
80EF
330
8065
100
AcDbEntity
  8
実形
100
AcDbDimension
  2
*D45
 10
672.3280192665587
 20
1169.178460662066
 30
0.0
 11
650.7280192665586
 21
1682.883538982083
 31
0.0
 70
   160
  1
15
 71
     5
 42
490.0
  3
ISO-25
100
AcDbAlignedDimension
 13
829.1539611657317
 23
1659.178460662066
 33
0.0
 14
802.2641105192887
 24
1169.178460662066
 34
0.0
 50
90.0
100
AcDbRotatedDimension
1001
ACAD
1000
DSTYLE
1002
{
1070
    41
1040
10.0
1070
   140
1040
25.0
1070
   147
1040
6.599999999999998
1070
   279
1070
     2
1070
   342
1005
30D
1070
   371
1070
    18
1070
   372
1070
    18
1002
}
  0
DIMENSION
  5
80F0
330
8065
100
AcDbEntity
  8
実形
100
AcDbDimension
  2
*D46
 10
672.3280192665588
 20
1554.178460662066
 30
0.0
 11
650.745963999092
 21
1217.459715149787
 31
0.0
 70
   160
  1
20
 71
     5
 42
370.0000000000005
  3
ISO-25
100
AcDbAlignedDimension
 13
802.7945193027008
 23
1184.178460662066
 33
0.0
 14
767.3275276276962
 24
1554.178460662066
 34
0.0
 50
90.0
100
AcDbRotatedDimension
1001
ACAD
1000
DSTYLE
1002
{
1070
    41
1040
10.0
1070
   140
1040
25.0
1070
   147
1040
6.599999999999998
1070
   279
1070
     2
1070
   342
1005
30D
1070
   371
1070
    18
1070
   372
1070
    18
1002
}
  0
TEXT
  5
80F1
330
8065
100
AcDbEntity
  8
実形
 48
20.0
100
AcDbText
 10
662.9803565113634
 20
1130.061801922893
 30
0.0
 40
25.0
  1
15
 50
90.0
100
AcDbText
  0
DIMENSION
  5
80F2
330
8065
100
AcDbEntity
  8
実形
100
AcDbDimension
  2
*D47
 10
616.3564627716168
 20
1184.178460662066
 30
0.0
 11
597.2564627716167
 21
1414.178460662066
 31
0.0
 70
    32
 71
     5
 42
460.0
  3
ISO-25
100
AcDbAlignedDimension
 13
831.7269474160729
 23
1644.178460662066
 33
0.0
 14
804.8056315785306
 24
1184.178460662066
 34
0.0
 50
90.0
100
AcDbRotatedDimension
1001
ACAD
1000
DSTYLE
1002
{
1070
    41
1040
10.0
1070
   140
1040
25.0
1070
   147
1040
6.599999999999998
1070
   279
1070
     2
1070
   342
1005
30D
1070
   371
1070
    18
1070
   372
1070
    18
1002
}
  0
DIMENSION
  5
80F3
330
8065
100
AcDbEntity
  8
実形
100
AcDbDimension
  2
*D48
 10
556.8835017673409
 20
1169.178460662066
 30
0.0
 11
535.2835017673408
 21
1414.178460662066
 31
0.0
 70
    32
 71
     5
 42
490.0
  3
ISO-25
100
AcDbAlignedDimension
 13
827.7702104998825
 23
1659.178460662066
 33
0.0
 14
805.8183231977528
 24
1169.178460662066
 34
0.0
 50
90.0
100
AcDbRotatedDimension
1001
ACAD
1000
DSTYLE
1002
{
1070
    41
1040
10.0
1070
   140
1040
30.0
1070
   147
1040
6.599999999999998
1070
   279
1070
     2
1070
   342
1005
30D
1070
   371
1070
    18
1070
   372
1070
    18
1002
}
  0
LINE
  5
80F4
330
8065
100
AcDbEntity
  8
実形
100
AcDbLine
 10
1392.770210499882
 20
1554.178460662066
 30
0.0
 11
1616.770210499882
 21
1554.178460662066
 31
0.0
  0
ARC
  5
80F5
330
8065
100
AcDbEntity
  8
実形
100
AcDbCircle
 10
868.770210499882
 20
1548.178460662066
 30
0.0
 40
6.0
100
AcDbArc
 50
89.99999999999994
 51
180.0
  0
ARC
  5
80F6
330
8065
100
AcDbEntity
  8
実形
100
AcDbCircle
 10
1616.770210499882
 20
1548.178460662066
 30
0.0
 40
6.0
100
AcDbArc
 50
0.0
 51
89.99999999999994
  0
LINE
  5
80F7
330
8065
100
AcDbEntity
  8
実形
  6
ACAD_ISO08W100
 48
0.5
100
AcDbLine
 10
1242.770210499882
 20
1300.740901717254
 30
0.0
 11
1242.770210499882
 21
1599.683968216935
 31
0.0
  0
ENDBLK
  5
8101
330
8065
100
AcDbEntity
  8
0
 62
     3
100
AcDbBlockEnd
  0
BLOCK
  5
81DE
330
81D4
100
AcDbEntity
  8
0
 62
     3
100
AcDbBlockBegin
  2
*D50
 70
     1
 10
0.0
 20
0.0
 30
0.0
  3
*D50
  1

  0
LINE
  5
AE9E
330
81D4
100
AcDbEntity
  8
実形
 62
     0
370
    18
100
AcDbLine
 10
1460.0606249965
 20
424.0001671234739
 30
0.0
 11
1460.0606249965
 21
372.0835685876163
 31
0.0
  0
LINE
  5
AE9F
330
81D4
100
AcDbEntity
  8
実形
 62
     0
370
    18
100
AcDbLine
 10
1620.0606249965
 20
424.0001671234739
 30
0.0
 11
1620.0606249965
 21
372.0835685876163
 31
0.0
  0
LINE
  5
AEA0
330
81D4
100
AcDbEntity
  8
実形
 62
     0
370
    18
100
AcDbLine
 10
1470.0606249965
 20
372.0835685876163
 30
0.0
 11
1610.0606249965
 21
372.0835685876163
 31
0.0
  0
INSERT
  5
AEA1
330
81D4
100
AcDbEntity
  8
実形
 62
     0
370
    18
100
AcDbBlockReference
  2
_Dot
 10
1460.0606249965
 20
372.0835685876163
 30
0.0
 41
10.0
 42
10.0
 43
10.0
 50
180.0
  0
INSERT
  5
AEA2
330
81D4
100
AcDbEntity
  8
実形
 62
     0
370
    18
100
AcDbBlockReference
  2
_Dot
 10
1620.0606249965
 20
372.0835685876163
 30
0.0
 41
10.0
 42
10.0
 43
10.0
  0
MTEXT
  5
AEA3
330
81D4
100
AcDbEntity
  8
実形
 62
     0
100
AcDbMText
 10
1540.0606249965
 20
391.1835685876164
 30
0.0
 40
25.0
 41
0.0
 71
     5
 72
     1
  1
160
 73
     1
 44
1.0
1001
ACAD
1000
MTEXTBEGIN
1070
    73
1070
     1
1070
    44
1040
1.0
1070
    74
1070
     0
1000
MTEXTEND
  0
POINT
  5
AEA4
330
81D4
100
AcDbEntity
  8
Defpoints
 62
     0
100
AcDbPoint
 10
1460.0606249965
 20
489.0001671234739
 30
0.0
  0
POINT
  5
AEA5
330
81D4
100
AcDbEntity
  8
Defpoints
 62
     0
100
AcDbPoint
 10
1620.0606249965
 20
489.0001671234739
 30
0.0
  0
POINT
  5
AEA6
330
81D4
100
AcDbEntity
  8
Defpoints
 62
     0
100
AcDbPoint
 10
1620.0606249965
 20
372.0835685876163
 30
0.0
  0
ENDBLK
  5
81DF
330
81D4
100
AcDbEntity
  8
0
 62
     3
100
AcDbBlockEnd
  0
BLOCK
  5
81EA
330
81E0
100
AcDbEntity
  8
0
 62
     3
100
AcDbBlockBegin
  2
*D51
 70
     1
 10
0.0
 20
0.0
 30
0.0
  3
*D51
  1

  0
LINE
  5
AE95
330
81E0
100
AcDbEntity
  8
実形
 62
     0
370
    18
100
AcDbLine
 10
1449.5606249965
 20
424.000167123474
 30
0.0
 11
1449.5606249965
 21
300.8412717723395
 31
0.0
  0
LINE
  5
AE96
330
81E0
100
AcDbEntity
  8
実形
 62
     0
370
    18
100
AcDbLine
 10
1630.5606249965
 20
424.0001671234698
 30
0.0
 11
1630.5606249965
 21
300.8412717723395
 31
0.0
  0
LINE
  5
AE97
330
81E0
100
AcDbEntity
  8
実形
 62
     0
370
    18
100
AcDbLine
 10
1459.5606249965
 20
300.8412717723395
 30
0.0
 11
1620.5606249965
 21
300.8412717723395
 31
0.0
  0
INSERT
  5
AE98
330
81E0
100
AcDbEntity
  8
実形
 62
     0
370
    18
100
AcDbBlockReference
  2
_Dot
 10
1449.5606249965
 20
300.8412717723395
 30
0.0
 41
10.0
 42
10.0
 43
10.0
 50
180.0
  0
INSERT
  5
AE99
330
81E0
100
AcDbEntity
  8
実形
 62
     0
370
    18
100
AcDbBlockReference
  2
_Dot
 10
1630.5606249965
 20
300.8412717723395
 30
0.0
 41
10.0
 42
10.0
 43
10.0
  0
MTEXT
  5
AE9A
330
81E0
100
AcDbEntity
  8
実形
 62
     0
100
AcDbMText
 10
1540.0606249965
 20
319.9412717723395
 30
0.0
 40
25.0
 41
0.0
 71
     5
 72
     1
  1
181
 73
     1
 44
1.0
1001
ACAD
1000
MTEXTBEGIN
1070
    73
1070
     1
1070
    44
1040
1.0
1070
    74
1070
     0
1000
MTEXTEND
  0
POINT
  5
AE9B
330
81E0
100
AcDbEntity
  8
Defpoints
 62
     0
100
AcDbPoint
 10
1449.5606249965
 20
489.000167123474
 30
0.0
  0
POINT
  5
AE9C
330
81E0
100
AcDbEntity
  8
Defpoints
 62
     0
100
AcDbPoint
 10
1630.5606249965
 20
489.0001671234697
 30
0.0
  0
POINT
  5
AE9D
330
81E0
100
AcDbEntity
  8
Defpoints
 62
     0
100
AcDbPoint
 10
1630.5606249965
 20
300.8412717723395
 30
0.0
  0
ENDBLK
  5
81EB
330
81E0
100
AcDbEntity
  8
0
 62
     3
100
AcDbBlockEnd
  0
BLOCK
  5
8286
330
827C
100
AcDbEntity
  8
0
 62
     3
100
AcDbBlockBegin
  2
*D52
 70
     1
 10
0.0
 20
0.0
 30
0.0
  3
*D52
  1

  0
LINE
  5
AE57
330
827C
100
AcDbEntity
  8
実形
 62
     0
370
    18
100
AcDbLine
 10
2526.073111491172
 20
1356.889684779005
 30
0.0
 11
2577.98971002703
 21
1356.889684779005
 31
0.0
  0
LINE
  5
AE58
330
827C
100
AcDbEntity
  8
実形
 62
     0
370
    18
100
AcDbLine
 10
2526.073111491172
 20
1516.889684779005
 30
0.0
 11
2577.98971002703
 21
1516.889684779005
 31
0.0
  0
LINE
  5
AE59
330
827C
100
AcDbEntity
  8
実形
 62
     0
370
    18
100
AcDbLine
 10
2577.98971002703
 20
1366.889684779005
 30
0.0
 11
2577.98971002703
 21
1506.889684779005
 31
0.0
  0
INSERT
  5
AE5A
330
827C
100
AcDbEntity
  8
実形
 62
     0
370
    18
100
AcDbBlockReference
  2
_Dot
 10
2577.98971002703
 20
1356.889684779005
 30
0.0
 41
10.0
 42
10.0
 43
10.0
 50
270.0
  0
INSERT
  5
AE5B
330
827C
100
AcDbEntity
  8
実形
 62
     0
370
    18
100
AcDbBlockReference
  2
_Dot
 10
2577.98971002703
 20
1516.889684779005
 30
0.0
 41
10.0
 42
10.0
 43
10.0
 50
90.0
  0
MTEXT
  5
AE5C
330
827C
100
AcDbEntity
  8
実形
 62
     0
100
AcDbMText
 10
2558.88971002703
 20
1436.889684779005
 30
0.0
 40
25.0
 41
0.0
 71
     5
 72
     1
  1
160
 11
0.0000000000000001
 21
1.0
 31
0.0
 73
     1
 44
1.0
1001
ACAD
1000
MTEXTBEGIN
1070
    73
1070
     1
1070
    44
1040
1.0
1070
    74
1070
     0
1000
MTEXTEND
  0
POINT
  5
AE5D
330
827C
100
AcDbEntity
  8
Defpoints
 62
     0
100
AcDbPoint
 10
2461.073111491173
 20
1356.889684779005
 30
0.0
  0
POINT
  5
AE5E
330
827C
100
AcDbEntity
  8
Defpoints
 62
     0
100
AcDbPoint
 10
2461.073111491173
 20
1516.889684779005
 30
0.0
  0
POINT
  5
AE5F
330
827C
100
AcDbEntity
  8
Defpoints
 62
     0
100
AcDbPoint
 10
2577.98971002703
 20
1516.889684779005
 30
0.0
  0
ENDBLK
  5
8287
330
827C
100
AcDbEntity
  8
0
 62
     3
100
AcDbBlockEnd
  0
BLOCK
  5
8292
330
8288
100
AcDbEntity
  8
0
 62
     3
100
AcDbBlockBegin
  2
*D53
 70
     1
 10
0.0
 20
0.0
 30
0.0
  3
*D53
  1

  0
LINE
  5
AE4E
330
8288
100
AcDbEntity
  8
実形
 62
     0
370
    18
100
AcDbLine
 10
2526.073111491172
 20
1346.389684779005
 30
0.0
 11
2649.232006842307
 21
1346.389684779005
 31
0.0
  0
LINE
  5
AE4F
330
8288
100
AcDbEntity
  8
実形
 62
     0
370
    18
100
AcDbLine
 10
2526.073111491177
 20
1527.389684779004
 30
0.0
 11
2649.232006842307
 21
1527.389684779004
 31
0.0
  0
LINE
  5
AE50
330
8288
100
AcDbEntity
  8
実形
 62
     0
370
    18
100
AcDbLine
 10
2649.232006842307
 20
1356.389684779005
 30
0.0
 11
2649.232006842307
 21
1517.389684779004
 31
0.0
  0
INSERT
  5
AE51
330
8288
100
AcDbEntity
  8
実形
 62
     0
370
    18
100
AcDbBlockReference
  2
_Dot
 10
2649.232006842307
 20
1346.389684779005
 30
0.0
 41
10.0
 42
10.0
 43
10.0
 50
270.0
  0
INSERT
  5
AE52
330
8288
100
AcDbEntity
  8
実形
 62
     0
370
    18
100
AcDbBlockReference
  2
_Dot
 10
2649.232006842307
 20
1527.389684779004
 30
0.0
 41
10.0
 42
10.0
 43
10.0
 50
90.0
  0
MTEXT
  5
AE53
330
8288
100
AcDbEntity
  8
実形
 62
     0
100
AcDbMText
 10
2630.132006842307
 20
1436.889684779005
 30
0.0
 40
25.0
 41
0.0
 71
     5
 72
     1
  1
181
 11
0.0000000000000001
 21
1.0
 31
0.0
 73
     1
 44
1.0
1001
ACAD
1000
MTEXTBEGIN
1070
    73
1070
     1
1070
    44
1040
1.0
1070
    74
1070
     0
1000
MTEXTEND
  0
POINT
  5
AE54
330
8288
100
AcDbEntity
  8
Defpoints
 62
     0
100
AcDbPoint
 10
2461.073111491173
 20
1346.389684779005
 30
0.0
  0
POINT
  5
AE55
330
8288
100
AcDbEntity
  8
Defpoints
 62
     0
100
AcDbPoint
 10
2461.073111491177
 20
1527.389684779004
 30
0.0
  0
POINT
  5
AE56
330
8288
100
AcDbEntity
  8
Defpoints
 62
     0
100
AcDbPoint
 10
2649.232006842307
 20
1527.389684779004
 30
0.0
  0
ENDBLK
  5
8293
330
8288
100
AcDbEntity
  8
0
 62
     3
100
AcDbBlockEnd
  0
BLOCK
  5
8C58
330
8C4E
100
AcDbEntity
  8
0
 62
     3
100
AcDbBlockBegin
  2
*D54
 70
     1
 10
0.0
 20
0.0
 30
0.0
  3
*D54
  1

  0
LINE
  5
ADD0
330
8C4E
100
AcDbEntity
  8
実形
 62
     0
370
    18
100
AcDbLine
 10
1540.0606249965
 20
1592.389684779005
 30
0.0
 11
1540.0606249965
 21
1588.806236375271
 31
0.0
  0
LINE
  5
ADD1
330
8C4E
100
AcDbEntity
  8
実形
 62
     0
370
    18
100
AcDbLine
 10
1390.060624996501
 20
1592.389684779005
 30
0.0
 11
1390.060624996501
 21
1588.806236375271
 31
0.0
  0
LINE
  5
ADD2
330
8C4E
100
AcDbEntity
  8
実形
 62
     0
370
    18
100
AcDbLine
 10
1530.0606249965
 20
1588.806236375271
 30
0.0
 11
1400.0606249965
 21
1588.806236375271
 31
0.0
  0
INSERT
  5
ADD3
330
8C4E
100
AcDbEntity
  8
実形
 62
     0
370
    18
100
AcDbBlockReference
  2
_Dot
 10
1540.0606249965
 20
1588.806236375271
 30
0.0
 41
10.0
 42
10.0
 43
10.0
  0
INSERT
  5
ADD4
330
8C4E
100
AcDbEntity
  8
実形
 62
     0
370
    18
100
AcDbBlockReference
  2
_Dot
 10
1390.060624996501
 20
1588.806236375271
 30
0.0
 41
10.0
 42
10.0
 43
10.0
 50
180.0
  0
MTEXT
  5
ADD5
330
8C4E
100
AcDbEntity
  8
実形
 62
     0
100
AcDbMText
 10
1465.0606249965
 20
1607.906236375271
 30
0.0
 40
25.0
 41
0.0
 71
     5
 72
     1
  1
150
 73
     1
 44
1.0
1001
ACAD
1000
MTEXTBEGIN
1070
    73
1070
     1
1070
    44
1040
1.0
1070
    74
1070
     0
1000
MTEXTEND
  0
POINT
  5
ADD6
330
8C4E
100
AcDbEntity
  8
Defpoints
 62
     0
100
AcDbPoint
 10
1540.0606249965
 20
1527.389684779004
 30
0.0
  0
POINT
  5
ADD7
330
8C4E
100
AcDbEntity
  8
Defpoints
 62
     0
100
AcDbPoint
 10
1390.060624996501
 20
1527.389684779005
 30
0.0
  0
POINT
  5
ADD8
330
8C4E
100
AcDbEntity
  8
Defpoints
 62
     0
100
AcDbPoint
 10
1390.060624996501
 20
1588.806236375271
 30
0.0
  0
ENDBLK
  5
8C59
330
8C4E
100
AcDbEntity
  8
0
 62
     3
100
AcDbBlockEnd
  0
BLOCK
  5
8C7B
330
8C71
100
AcDbEntity
  8
0
 62
     3
100
AcDbBlockBegin
  2
*D55
 70
     1
 10
0.0
 20
0.0
 30
0.0
  3
*D55
  1

  0
LINE
  5
AD1C
330
8C71
100
AcDbEntity
  8
実形
 62
     0
370
    18
100
AcDbLine
 10
1653.745074090377
 20
1436.889684779005
 30
0.0
 11
1702.137194305222
 21
1436.889684779005
 31
0.0
  0
LINE
  5
AD1D
330
8C71
100
AcDbEntity
  8
実形
 62
     0
370
    18
100
AcDbLine
 10
1653.745074090377
 20
1226.889684779004
 30
0.0
 11
1702.137194305222
 21
1226.889684779004
 31
0.0
  0
LINE
  5
AD1E
330
8C71
100
AcDbEntity
  8
実形
 62
     0
370
    18
100
AcDbLine
 10
1702.137194305222
 20
1426.889684779005
 30
0.0
 11
1702.137194305222
 21
1236.889684779004
 31
0.0
  0
INSERT
  5
AD1F
330
8C71
100
AcDbEntity
  8
実形
 62
     0
370
    18
100
AcDbBlockReference
  2
_Dot
 10
1702.137194305222
 20
1436.889684779005
 30
0.0
 41
10.0
 42
10.0
 43
10.0
 50
90.0
  0
INSERT
  5
AD20
330
8C71
100
AcDbEntity
  8
実形
 62
     0
370
    18
100
AcDbBlockReference
  2
_Dot
 10
1702.137194305222
 20
1226.889684779004
 30
0.0
 41
10.0
 42
10.0
 43
10.0
 50
270.0
  0
MTEXT
  5
AD21
330
8C71
100
AcDbEntity
  8
実形
 62
     0
100
AcDbMText
 10
1683.037194305222
 20
1331.889684779005
 30
0.0
 40
25.0
 41
0.0
 71
     5
 72
     1
  1
210
 11
0.0000000000000001
 21
1.0
 31
0.0
 73
     1
 44
1.0
1001
ACAD
1000
MTEXTBEGIN
1070
    73
1070
     1
1070
    44
1040
1.0
1070
    74
1070
     0
1000
MTEXTEND
  0
POINT
  5
AD22
330
8C71
100
AcDbEntity
  8
Defpoints
 62
     0
100
AcDbPoint
 10
1588.745074090377
 20
1436.889684779005
 30
0.0
  0
POINT
  5
AD23
330
8C71
100
AcDbEntity
  8
Defpoints
 62
     0
100
AcDbPoint
 10
1588.745074090377
 20
1226.889684779004
 30
0.0
  0
POINT
  5
AD24
330
8C71
100
AcDbEntity
  8
Defpoints
 62
     0
100
AcDbPoint
 10
1702.137194305222
 20
1226.889684779004
 30
0.0
  0
ENDBLK
  5
8C7C
330
8C71
100
AcDbEntity
  8
0
 62
     3
100
AcDbBlockEnd
  0
BLOCK
  5
8E11
330
8E07
100
AcDbEntity
  8
0
 62
     3
100
AcDbBlockBegin
  2
*D56
 70
     1
 10
0.0
 20
0.0
 30
0.0
  3
*D56
  1

  0
LINE
  5
AD14
330
8E07
100
AcDbEntity
  8
実形
 62
     0
370
    18
100
AcDbLine
 10
1119.0606249965
 20
1126.889684779005
 30
0.0
 11
1119.0606249965
 21
1000.143741069399
 31
0.0
  0
LINE
  5
AD15
330
8E07
100
AcDbEntity
  8
実形
 62
     0
370
    18
100
AcDbLine
 10
1949.0606249965
 20
1126.889684779005
 30
0.0
 11
1949.0606249965
 21
1000.143741069399
 31
0.0
  0
LINE
  5
AD16
330
8E07
100
AcDbEntity
  8
実形
 62
     0
370
    18
100
AcDbLine
 10
1129.0606249965
 20
1000.143741069399
 30
0.0
 11
1939.0606249965
 21
1000.143741069399
 31
0.0
  0
INSERT
  5
AD17
330
8E07
100
AcDbEntity
  8
実形
 62
     0
370
    18
100
AcDbBlockReference
  2
_Dot
 10
1119.0606249965
 20
1000.143741069399
 30
0.0
 41
10.0
 42
10.0
 43
10.0
 50
180.0
  0
INSERT
  5
AD18
330
8E07
100
AcDbEntity
  8
実形
 62
     0
370
    18
100
AcDbBlockReference
  2
_Dot
 10
1949.0606249965
 20
1000.143741069399
 30
0.0
 41
10.0
 42
10.0
 43
10.0
  0
POINT
  5
AD19
330
8E07
100
AcDbEntity
  8
Defpoints
 62
     0
100
AcDbPoint
 10
1119.0606249965
 20
1191.889684779005
 30
0.0
  0
POINT
  5
AD1A
330
8E07
100
AcDbEntity
  8
Defpoints
 62
     0
100
AcDbPoint
 10
1949.0606249965
 20
1191.889684779005
 30
0.0
  0
POINT
  5
AD1B
330
8E07
100
AcDbEntity
  8
Defpoints
 62
     0
100
AcDbPoint
 10
1949.0606249965
 20
1000.143741069399
 30
0.0
  0
ENDBLK
  5
8E12
330
8E07
100
AcDbEntity
  8
0
 62
     3
100
AcDbBlockEnd
  0
BLOCK
  5
8E1E
330
8E14
100
AcDbEntity
  8
0
 62
     3
100
AcDbBlockBegin
  2
*D57
 70
     1
 10
0.0
 20
0.0
 30
0.0
  3
*D57
  1

  0
LINE
  5
AD0B
330
8E14
100
AcDbEntity
  8
実形
 62
     0
370
    18
100
AcDbLine
 10
1154.0606249965
 20
1126.889684779005
 30
0.0
 11
1154.0606249965
 21
1061.233427810558
 31
0.0
  0
LINE
  5
AD0C
330
8E14
100
AcDbEntity
  8
実形
 62
     0
370
    18
100
AcDbLine
 10
1934.0606249965
 20
1126.889684779005
 30
0.0
 11
1934.0606249965
 21
1061.233427810558
 31
0.0
  0
LINE
  5
AD0D
330
8E14
100
AcDbEntity
  8
実形
 62
     0
370
    18
100
AcDbLine
 10
1164.0606249965
 20
1061.233427810558
 30
0.0
 11
1924.0606249965
 21
1061.233427810558
 31
0.0
  0
MTEXT
  5
AD0E
330
8E14
100
AcDbEntity
  8
実形
 62
     0
100
AcDbMText
 10
1988.774850194033
 20
1032.078803864072
 30
0.0
 40
25.0
 41
0.0
 71
     5
 72
     1
  1
15
 73
     1
 44
1.0
1001
ACAD
1000
MTEXTBEGIN
1070
    73
1070
     1
1070
    44
1040
1.0
1070
    74
1070
     0
1000
MTEXTEND
  0
INSERT
  5
AD0F
330
8E14
100
AcDbEntity
  8
実形
 62
     0
370
    18
100
AcDbBlockReference
  2
_Dot
 10
1154.0606249965
 20
1061.233427810558
 30
0.0
 41
10.0
 42
10.0
 43
10.0
 50
180.0
  0
INSERT
  5
AD10
330
8E14
100
AcDbEntity
  8
実形
 62
     0
370
    18
100
AcDbBlockReference
  2
_Dot
 10
1934.0606249965
 20
1061.233427810558
 30
0.0
 41
10.0
 42
10.0
 43
10.0
  0
POINT
  5
AD11
330
8E14
100
AcDbEntity
  8
Defpoints
 62
     0
100
AcDbPoint
 10
1154.0606249965
 20
1191.889684779005
 30
0.0
  0
POINT
  5
AD12
330
8E14
100
AcDbEntity
  8
Defpoints
 62
     0
100
AcDbPoint
 10
1934.0606249965
 20
1191.889684779005
 30
0.0
  0
POINT
  5
AD13
330
8E14
100
AcDbEntity
  8
Defpoints
 62
     0
100
AcDbPoint
 10
1934.0606249965
 20
1061.233427810558
 30
0.0
  0
ENDBLK
  5
8E1F
330
8E14
100
AcDbEntity
  8
0
 62
     3
100
AcDbBlockEnd
  0
BLOCK
  5
8E34
330
8E2A
100
AcDbEntity
  8
0
 62
     3
100
AcDbBlockBegin
  2
*D58
 70
     1
 10
0.0
 20
0.0
 30
0.0
  3
*D58
  1

  0
LINE
  5
ADBE
330
8E2A
100
AcDbEntity
  8
実形
 62
     0
370
    18
100
AcDbLine
 10
1154.0606249965
 20
1126.889684779005
 30
0.0
 11
1154.0606249965
 21
1061.233427810558
 31
0.0
  0
LINE
  5
ADBF
330
8E2A
100
AcDbEntity
  8
実形
 62
     0
370
    18
100
AcDbLine
 10
1370.0606249965
 20
1126.889684779005
 30
0.0
 11
1370.0606249965
 21
1061.233427810558
 31
0.0
  0
LINE
  5
ADC0
330
8E2A
100
AcDbEntity
  8
実形
 62
     0
370
    18
100
AcDbLine
 10
1164.0606249965
 20
1061.233427810558
 30
0.0
 11
1360.0606249965
 21
1061.233427810558
 31
0.0
  0
INSERT
  5
ADC1
330
8E2A
100
AcDbEntity
  8
実形
 62
     0
370
    18
100
AcDbBlockReference
  2
_Dot
 10
1154.0606249965
 20
1061.233427810558
 30
0.0
 41
10.0
 42
10.0
 43
10.0
 50
180.0
  0
INSERT
  5
ADC2
330
8E2A
100
AcDbEntity
  8
実形
 62
     0
370
    18
100
AcDbBlockReference
  2
_Dot
 10
1370.0606249965
 20
1061.233427810558
 30
0.0
 41
10.0
 42
10.0
 43
10.0
  0
MTEXT
  5
ADC3
330
8E2A
100
AcDbEntity
  8
実形
 62
     0
100
AcDbMText
 10
1262.0606249965
 20
1080.333427810558
 30
0.0
 40
25.0
 41
0.0
 71
     5
 72
     1
  1
216
 73
     1
 44
1.0
1001
ACAD
1000
MTEXTBEGIN
1070
    73
1070
     1
1070
    44
1040
1.0
1070
    74
1070
     0
1000
MTEXTEND
  0
POINT
  5
ADC4
330
8E2A
100
AcDbEntity
  8
Defpoints
 62
     0
100
AcDbPoint
 10
1154.0606249965
 20
1191.889684779005
 30
0.0
  0
POINT
  5
ADC5
330
8E2A
100
AcDbEntity
  8
Defpoints
 62
     0
100
AcDbPoint
 10
1370.0606249965
 20
1191.889684779005
 30
0.0
  0
POINT
  5
ADC6
330
8E2A
100
AcDbEntity
  8
Defpoints
 62
     0
100
AcDbPoint
 10
1370.0606249965
 20
1061.233427810558
 30
0.0
  0
ENDBLK
  5
8E35
330
8E2A
100
AcDbEntity
  8
0
 62
     3
100
AcDbBlockEnd
  0
BLOCK
  5
8E4A
330
8E40
100
AcDbEntity
  8
0
 62
     3
100
AcDbBlockBegin
  2
*D59
 70
     1
 10
0.0
 20
0.0
 30
0.0
  3
*D59
  1

  0
LINE
  5
B72A
330
8E40
100
AcDbEntity
  8
実形
 62
     0
370
    18
100
AcDbLine
 10
1134.0606249965
 20
1126.889684779005
 30
0.0
 11
1134.0606249965
 21
1061.233427810558
 31
0.0
  0
LINE
  5
B72B
330
8E40
100
AcDbEntity
  8
実形
 62
     0
370
    18
100
AcDbLine
 10
1390.0606249965
 20
1126.889684779005
 30
0.0
 11
1390.0606249965
 21
1061.233427810558
 31
0.0
  0
LINE
  5
B72C
330
8E40
100
AcDbEntity
  8
実形
 62
     0
370
    18
100
AcDbLine
 10
1144.0606249965
 20
1061.233427810558
 30
0.0
 11
1380.0606249965
 21
1061.233427810558
 31
0.0
  0
MTEXT
  5
B72D
330
8E40
100
AcDbEntity
  8
実形
 62
     0
100
AcDbMText
 10
1085.750617675065
 20
1027.208236284476
 30
0.0
 40
25.0
 41
0.0
 71
     5
 72
     1
  1
15
 73
     1
 44
1.0
1001
ACAD
1000
MTEXTBEGIN
1070
    73
1070
     1
1070
    44
1040
1.0
1070
    74
1070
     0
1000
MTEXTEND
  0
INSERT
  5
B72E
330
8E40
100
AcDbEntity
  8
実形
 62
     0
370
    18
100
AcDbBlockReference
  2
_Dot
 10
1134.0606249965
 20
1061.233427810558
 30
0.0
 41
10.0
 42
10.0
 43
10.0
 50
180.0
  0
INSERT
  5
B72F
330
8E40
100
AcDbEntity
  8
実形
 62
     0
370
    18
100
AcDbBlockReference
  2
_Dot
 10
1390.0606249965
 20
1061.233427810558
 30
0.0
 41
10.0
 42
10.0
 43
10.0
  0
POINT
  5
B730
330
8E40
100
AcDbEntity
  8
Defpoints
 62
     0
100
AcDbPoint
 10
1134.0606249965
 20
1191.889684779005
 30
0.0
  0
POINT
  5
B731
330
8E40
100
AcDbEntity
  8
Defpoints
 62
     0
100
AcDbPoint
 10
1390.0606249965
 20
1191.889684779005
 30
0.0
  0
POINT
  5
B732
330
8E40
100
AcDbEntity
  8
Defpoints
 62
     0
100
AcDbPoint
 10
1390.0606249965
 20
1061.233427810558
 30
0.0
  0
ENDBLK
  5
8E4B
330
8E40
100
AcDbEntity
  8
0
 62
     3
100
AcDbBlockEnd
  0
BLOCK
  5
8E8C
330
8E82
100
AcDbEntity
  8
0
 62
     3
100
AcDbBlockBegin
  2
*D60
 70
     1
 10
0.0
 20
0.0
 30
0.0
  3
*D60
  1

  0
LINE
  5
AD02
330
8E82
100
AcDbEntity
  8
実形
 62
     0
370
    18
100
AcDbLine
 10
1390.0606249965
 20
1126.889684779005
 30
0.0
 11
1390.0606249965
 21
1061.233427810558
 31
0.0
  0
LINE
  5
AD03
330
8E82
100
AcDbEntity
  8
実形
 62
     0
370
    18
100
AcDbLine
 10
1914.0606249965
 20
1126.889684779005
 30
0.0
 11
1914.0606249965
 21
1061.233427810558
 31
0.0
  0
LINE
  5
AD04
330
8E82
100
AcDbEntity
  8
実形
 62
     0
370
    18
100
AcDbLine
 10
1400.0606249965
 20
1061.233427810558
 30
0.0
 11
1904.0606249965
 21
1061.233427810558
 31
0.0
  0
INSERT
  5
AD05
330
8E82
100
AcDbEntity
  8
実形
 62
     0
370
    18
100
AcDbBlockReference
  2
_Dot
 10
1390.0606249965
 20
1061.233427810558
 30
0.0
 41
10.0
 42
10.0
 43
10.0
 50
180.0
  0
INSERT
  5
AD06
330
8E82
100
AcDbEntity
  8
実形
 62
     0
370
    18
100
AcDbBlockReference
  2
_Dot
 10
1914.0606249965
 20
1061.233427810558
 30
0.0
 41
10.0
 42
10.0
 43
10.0
  0
MTEXT
  5
AD07
330
8E82
100
AcDbEntity
  8
実形
 62
     0
100
AcDbMText
 10
1652.0606249965
 20
1080.333427810558
 30
0.0
 40
25.0
 41
0.0
 71
     5
 72
     1
  1
524
 73
     1
 44
1.0
1001
ACAD
1000
MTEXTBEGIN
1070
    73
1070
     1
1070
    44
1040
1.0
1070
    74
1070
     0
1000
MTEXTEND
  0
POINT
  5
AD08
330
8E82
100
AcDbEntity
  8
Defpoints
 62
     0
100
AcDbPoint
 10
1390.0606249965
 20
1191.889684779005
 30
0.0
  0
POINT
  5
AD09
330
8E82
100
AcDbEntity
  8
Defpoints
 62
     0
100
AcDbPoint
 10
1914.0606249965
 20
1191.889684779005
 30
0.0
  0
POINT
  5
AD0A
330
8E82
100
AcDbEntity
  8
Defpoints
 62
     0
100
AcDbPoint
 10
1914.0606249965
 20
1061.233427810558
 30
0.0
  0
ENDBLK
  5
8E8D
330
8E82
100
AcDbEntity
  8
0
 62
     3
100
AcDbBlockEnd
  0
BLOCK
  5
8EAC
330
8EA8
100
AcDbEntity
  8
0
 62
     3
100
AcDbBlockBegin
  2
A$C02AA3AB7
 70
     0
 10
0.0
 20
0.0
 30
0.0
  3
A$C02AA3AB7
  1

  0
TEXT
  5
8EA9
330
8EA8
100
AcDbEntity
  8
実形
 62
     1
 48
20.0
100
AcDbText
 10
0.0000027465193853
 20
-0.0000023566917662
 30
0.0
 40
25.0
  1
20
100
AcDbText
  0
ENDBLK
  5
8EAD
330
8EA8
100
AcDbEntity
  8
0
 62
     3
100
AcDbBlockEnd
  0
BLOCK
  5
8ED3
330
8EC9
100
AcDbEntity
  8
0
 62
     3
100
AcDbBlockBegin
  2
*D62
 70
     1
 10
0.0
 20
0.0
 30
0.0
  3
*D62
  1

  0
LINE
  5
ACF9
330
8EC9
100
AcDbEntity
  8
実形
 62
     0
370
    18
100
AcDbLine
 10
1134.0606249965
 20
1061.889684779004
 30
0.0
 11
1134.0606249965
 21
1000.143741069399
 31
0.0
  0
LINE
  5
ACFA
330
8EC9
100
AcDbEntity
  8
実形
 62
     0
370
    18
100
AcDbLine
 10
1934.0606249965
 20
1061.889684779004
 30
0.0
 11
1934.0606249965
 21
1000.143741069399
 31
0.0
  0
LINE
  5
ACFB
330
8EC9
100
AcDbEntity
  8
実形
 62
     0
370
    18
100
AcDbLine
 10
1144.0606249965
 20
1000.143741069399
 30
0.0
 11
1924.0606249965
 21
1000.143741069399
 31
0.0
  0
INSERT
  5
ACFC
330
8EC9
100
AcDbEntity
  8
実形
 62
     0
370
    18
100
AcDbBlockReference
  2
_Dot
 10
1134.0606249965
 20
1000.143741069399
 30
0.0
 41
10.0
 42
10.0
 43
10.0
 50
180.0
  0
INSERT
  5
ACFD
330
8EC9
100
AcDbEntity
  8
実形
 62
     0
370
    18
100
AcDbBlockReference
  2
_Dot
 10
1934.0606249965
 20
1000.143741069399
 30
0.0
 41
10.0
 42
10.0
 43
10.0
  0
MTEXT
  5
ACFE
330
8EC9
100
AcDbEntity
  8
実形
 62
     0
100
AcDbMText
 10
1534.0606249965
 20
1019.243741069399
 30
0.0
 40
25.0
 41
0.0
 71
     5
 72
     1
  1
800
 73
     1
 44
1.0
1001
ACAD
1000
MTEXTBEGIN
1070
    73
1070
     1
1070
    44
1040
1.0
1070
    74
1070
     0
1000
MTEXTEND
  0
POINT
  5
ACFF
330
8EC9
100
AcDbEntity
  8
Defpoints
 62
     0
100
AcDbPoint
 10
1134.0606249965
 20
1126.889684779005
 30
0.0
  0
POINT
  5
AD00
330
8EC9
100
AcDbEntity
  8
Defpoints
 62
     0
100
AcDbPoint
 10
1934.0606249965
 20
1126.889684779005
 30
0.0
  0
POINT
  5
AD01
330
8EC9
100
AcDbEntity
  8
Defpoints
 62
     0
100
AcDbPoint
 10
1934.0606249965
 20
1000.143741069399
 30
0.0
  0
ENDBLK
  5
8ED4
330
8EC9
100
AcDbEntity
  8
0
 62
     3
100
AcDbBlockEnd
  0
BLOCK
  5
8EF2
330
8EE8
100
AcDbEntity
  8
0
 62
     3
100
AcDbBlockBegin
  2
*D63
 70
     1
 10
0.0
 20
0.0
 30
0.0
  3
*D63
  1

  0
LINE
  5
ACF0
330
8EE8
100
AcDbEntity
  8
実形
 62
     0
370
    18
100
AcDbLine
 10
1119.0606249965
 20
1061.889684779004
 30
0.0
 11
1119.0606249965
 21
938.0903796525936
 31
0.0
  0
LINE
  5
ACF1
330
8EE8
100
AcDbEntity
  8
実形
 62
     0
370
    18
100
AcDbLine
 10
1949.0606249965
 20
1061.889684779004
 30
0.0
 11
1949.0606249965
 21
938.0903796525936
 31
0.0
  0
LINE
  5
ACF2
330
8EE8
100
AcDbEntity
  8
実形
 62
     0
370
    18
100
AcDbLine
 10
1129.0606249965
 20
938.0903796525936
 30
0.0
 11
1939.0606249965
 21
938.0903796525936
 31
0.0
  0
INSERT
  5
ACF3
330
8EE8
100
AcDbEntity
  8
実形
 62
     0
370
    18
100
AcDbBlockReference
  2
_Dot
 10
1119.0606249965
 20
938.0903796525936
 30
0.0
 41
10.0
 42
10.0
 43
10.0
 50
180.0
  0
INSERT
  5
ACF4
330
8EE8
100
AcDbEntity
  8
実形
 62
     0
370
    18
100
AcDbBlockReference
  2
_Dot
 10
1949.0606249965
 20
938.0903796525936
 30
0.0
 41
10.0
 42
10.0
 43
10.0
  0
MTEXT
  5
ACF5
330
8EE8
100
AcDbEntity
  8
実形
 62
     0
100
AcDbMText
 10
1534.0606249965
 20
957.1903796525935
 30
0.0
 40
25.0
 41
0.0
 71
     5
 72
     1
  1
830
 73
     1
 44
1.0
1001
ACAD
1000
MTEXTBEGIN
1070
    73
1070
     1
1070
    44
1040
1.0
1070
    74
1070
     0
1000
MTEXTEND
  0
POINT
  5
ACF6
330
8EE8
100
AcDbEntity
  8
Defpoints
 62
     0
100
AcDbPoint
 10
1119.0606249965
 20
1126.889684779005
 30
0.0
  0
POINT
  5
ACF7
330
8EE8
100
AcDbEntity
  8
Defpoints
 62
     0
100
AcDbPoint
 10
1949.0606249965
 20
1126.889684779005
 30
0.0
  0
POINT
  5
ACF8
330
8EE8
100
AcDbEntity
  8
Defpoints
 62
     0
100
AcDbPoint
 10
1949.0606249965
 20
938.0903796525936
 30
0.0
  0
ENDBLK
  5
8EF3
330
8EE8
100
AcDbEntity
  8
0
 62
     3
100
AcDbBlockEnd
  0
BLOCK
  5
90BE
330
90B4
100
AcDbEntity
  8
0
 62
     3
100
AcDbBlockBegin
  2
*D64
 70
     1
 10
0.0
 20
0.0
 30
0.0
  3
*D64
  1

  0
LINE
  5
AE33
330
90B4
100
AcDbEntity
  8
実形
 62
     0
370
    18
100
AcDbLine
 10
2014.0606249965
 20
1646.889684779004
 30
0.0
 11
2064.073118116577
 21
1646.889684779004
 31
0.0
  0
LINE
  5
AE34
330
90B4
100
AcDbEntity
  8
実形
 62
     0
370
    18
100
AcDbLine
 10
2014.0606249965
 20
1226.889684779005
 30
0.0
 11
2064.073118116577
 21
1226.889684779005
 31
0.0
  0
LINE
  5
AE35
330
90B4
100
AcDbEntity
  8
実形
 62
     0
370
    18
100
AcDbLine
 10
2064.073118116577
 20
1636.889684779004
 30
0.0
 11
2064.073118116577
 21
1236.889684779005
 31
0.0
  0
INSERT
  5
AE36
330
90B4
100
AcDbEntity
  8
実形
 62
     0
370
    18
100
AcDbBlockReference
  2
_Dot
 10
2064.073118116577
 20
1646.889684779004
 30
0.0
 41
10.0
 42
10.0
 43
10.0
 50
90.0
  0
INSERT
  5
AE37
330
90B4
100
AcDbEntity
  8
実形
 62
     0
370
    18
100
AcDbBlockReference
  2
_Dot
 10
2064.073118116577
 20
1226.889684779005
 30
0.0
 41
10.0
 42
10.0
 43
10.0
 50
270.0
  0
MTEXT
  5
AE38
330
90B4
100
AcDbEntity
  8
実形
 62
     0
100
AcDbMText
 10
2044.973118116576
 20
1436.889684779005
 30
0.0
 40
25.0
 41
0.0
 71
     5
 72
     1
  1
420
 11
0.0000000000000001
 21
1.0
 31
0.0
 73
     1
 44
1.0
1001
ACAD
1000
MTEXTBEGIN
1070
    73
1070
     1
1070
    44
1040
1.0
1070
    74
1070
     0
1000
MTEXTEND
  0
POINT
  5
AE39
330
90B4
100
AcDbEntity
  8
Defpoints
 62
     0
100
AcDbPoint
 10
1949.0606249965
 20
1646.889684779004
 30
0.0
  0
POINT
  5
AE3A
330
90B4
100
AcDbEntity
  8
Defpoints
 62
     0
100
AcDbPoint
 10
1949.0606249965
 20
1226.889684779005
 30
0.0
  0
POINT
  5
AE3B
330
90B4
100
AcDbEntity
  8
Defpoints
 62
     0
100
AcDbPoint
 10
2064.073118116577
 20
1226.889684779005
 30
0.0
  0
ENDBLK
  5
90BF
330
90B4
100
AcDbEntity
  8
0
 62
     3
100
AcDbBlockEnd
  0
BLOCK
  5
90CB
330
90C1
100
AcDbEntity
  8
0
 62
     3
100
AcDbBlockBegin
  2
*D65
 70
     1
 10
0.0
 20
0.0
 30
0.0
  3
*D65
  1

  0
LINE
  5
AE2A
330
90C1
100
AcDbEntity
  8
実形
 62
     0
370
    18
100
AcDbLine
 10
2014.0606249965
 20
1666.889684779004
 30
0.0
 11
2064.073118116577
 21
1666.889684779004
 31
0.0
  0
LINE
  5
AE2B
330
90C1
100
AcDbEntity
  8
実形
 62
     0
370
    18
100
AcDbLine
 10
2014.0606249965
 20
1206.889684779005
 30
0.0
 11
2064.073118116577
 21
1206.889684779005
 31
0.0
  0
LINE
  5
AE2C
330
90C1
100
AcDbEntity
  8
実形
 62
     0
370
    18
100
AcDbLine
 10
2064.073118116577
 20
1656.889684779004
 30
0.0
 11
2064.073118116577
 21
1216.889684779005
 31
0.0
  0
MTEXT
  5
AE2D
330
90C1
100
AcDbEntity
  8
実形
 62
     0
100
AcDbMText
 10
1989.019860429541
 20
1640.192023921524
 30
0.0
 40
25.0
 41
0.0
 71
     5
 72
     1
  1
20
 11
0.0000000000000001
 21
1.0
 31
0.0
 73
     1
 44
1.0
1001
ACAD
1000
MTEXTBEGIN
1070
    73
1070
     1
1070
    44
1040
1.0
1070
    74
1070
     0
1000
MTEXTEND
  0
INSERT
  5
AE2E
330
90C1
100
AcDbEntity
  8
実形
 62
     0
370
    18
100
AcDbBlockReference
  2
_Dot
 10
2064.073118116577
 20
1666.889684779004
 30
0.0
 41
10.0
 42
10.0
 43
10.0
 50
90.0
  0
INSERT
  5
AE2F
330
90C1
100
AcDbEntity
  8
実形
 62
     0
370
    18
100
AcDbBlockReference
  2
_Dot
 10
2064.073118116577
 20
1206.889684779005
 30
0.0
 41
10.0
 42
10.0
 43
10.0
 50
270.0
  0
POINT
  5
AE30
330
90C1
100
AcDbEntity
  8
Defpoints
 62
     0
100
AcDbPoint
 10
1949.0606249965
 20
1666.889684779004
 30
0.0
  0
POINT
  5
AE31
330
90C1
100
AcDbEntity
  8
Defpoints
 62
     0
100
AcDbPoint
 10
1949.0606249965
 20
1206.889684779005
 30
0.0
  0
POINT
  5
AE32
330
90C1
100
AcDbEntity
  8
Defpoints
 62
     0
100
AcDbPoint
 10
2064.073118116577
 20
1206.889684779005
 30
0.0
  0
ENDBLK
  5
90CC
330
90C1
100
AcDbEntity
  8
0
 62
     3
100
AcDbBlockEnd
  0
BLOCK
  5
920D
330
9203
100
AcDbEntity
  8
0
 62
     3
100
AcDbBlockBegin
  2
*D66
 70
     1
 10
0.0
 20
0.0
 30
0.0
  3
*D66
  1

  0
LINE
  5
BEB4
330
9203
100
AcDbEntity
  8
実形
 62
     0
370
    18
100
AcDbLine
 10
1215.0606249965
 20
424.0001671234741
 30
0.0
 11
1215.0606249965
 21
372.0835685876163
 31
0.0
  0
LINE
  5
BEB5
330
9203
100
AcDbEntity
  8
実形
 62
     0
370
    18
100
AcDbLine
 10
1309.0606249965
 20
424.0001671234741
 30
0.0
 11
1309.0606249965
 21
372.0835685876163
 31
0.0
  0
LINE
  5
BEB6
330
9203
100
AcDbEntity
  8
実形
 62
     0
370
    18
100
AcDbLine
 10
1225.0606249965
 20
372.0835685876163
 30
0.0
 11
1299.0606249965
 21
372.0835685876163
 31
0.0
  0
INSERT
  5
BEB7
330
9203
100
AcDbEntity
  8
実形
 62
     0
370
    18
100
AcDbBlockReference
  2
_Dot
 10
1215.0606249965
 20
372.0835685876163
 30
0.0
 41
10.0
 42
10.0
 43
10.0
 50
180.0
  0
INSERT
  5
BEB8
330
9203
100
AcDbEntity
  8
実形
 62
     0
370
    18
100
AcDbBlockReference
  2
_Dot
 10
1309.0606249965
 20
372.0835685876163
 30
0.0
 41
10.0
 42
10.0
 43
10.0
  0
MTEXT
  5
BEB9
330
9203
100
AcDbEntity
  8
実形
 62
     0
100
AcDbMText
 10
1262.0606249965
 20
391.1835685876164
 30
0.0
 40
25.0
 41
0.0
 71
     5
 72
     1
  1
94
 73
     1
 44
1.0
1001
ACAD
1000
MTEXTBEGIN
1070
    73
1070
     1
1070
    44
1040
1.0
1070
    74
1070
     0
1000
MTEXTEND
  0
POINT
  5
BEBA
330
9203
100
AcDbEntity
  8
Defpoints
 62
     0
100
AcDbPoint
 10
1215.0606249965
 20
489.0001671234741
 30
0.0
  0
POINT
  5
BEBB
330
9203
100
AcDbEntity
  8
Defpoints
 62
     0
100
AcDbPoint
 10
1309.0606249965
 20
489.0001671234741
 30
0.0
  0
POINT
  5
BEBC
330
9203
100
AcDbEntity
  8
Defpoints
 62
     0
100
AcDbPoint
 10
1309.0606249965
 20
372.0835685876163
 30
0.0
  0
ENDBLK
  5
920E
330
9203
100
AcDbEntity
  8
0
 62
     3
100
AcDbBlockEnd
  0
BLOCK
  5
9219
330
920F
100
AcDbEntity
  8
0
 62
     3
100
AcDbBlockBegin
  2
*D67
 70
     1
 10
0.0
 20
0.0
 30
0.0
  3
*D67
  1

  0
LINE
  5
BEC8
330
920F
100
AcDbEntity
  8
実形
 62
     0
370
    18
100
AcDbLine
 10
1204.5606249965
 20
424.0001671234739
 30
0.0
 11
1204.5606249965
 21
300.8412717723395
 31
0.0
  0
LINE
  5
BEC9
330
920F
100
AcDbEntity
  8
実形
 62
     0
370
    18
100
AcDbLine
 10
1319.560624996499
 20
424.0001671234699
 30
0.0
 11
1319.560624996499
 21
300.8412717723395
 31
0.0
  0
LINE
  5
BECA
330
920F
100
AcDbEntity
  8
実形
 62
     0
370
    18
100
AcDbLine
 10
1214.5606249965
 20
300.8412717723395
 30
0.0
 11
1309.560624996499
 21
300.8412717723395
 31
0.0
  0
INSERT
  5
BECB
330
920F
100
AcDbEntity
  8
実形
 62
     0
370
    18
100
AcDbBlockReference
  2
_Dot
 10
1204.5606249965
 20
300.8412717723395
 30
0.0
 41
10.0
 42
10.0
 43
10.0
 50
180.0
  0
INSERT
  5
BECC
330
920F
100
AcDbEntity
  8
実形
 62
     0
370
    18
100
AcDbBlockReference
  2
_Dot
 10
1319.560624996499
 20
300.8412717723395
 30
0.0
 41
10.0
 42
10.0
 43
10.0
  0
MTEXT
  5
BECD
330
920F
100
AcDbEntity
  8
実形
 62
     0
100
AcDbMText
 10
1262.0606249965
 20
319.9412717723395
 30
0.0
 40
25.0
 41
0.0
 71
     5
 72
     1
  1
115
 73
     1
 44
1.0
1001
ACAD
1000
MTEXTBEGIN
1070
    73
1070
     1
1070
    44
1040
1.0
1070
    74
1070
     0
1000
MTEXTEND
  0
POINT
  5
BECE
330
920F
100
AcDbEntity
  8
Defpoints
 62
     0
100
AcDbPoint
 10
1204.5606249965
 20
489.0001671234739
 30
0.0
  0
POINT
  5
BECF
330
920F
100
AcDbEntity
  8
Defpoints
 62
     0
100
AcDbPoint
 10
1319.560624996499
 20
489.0001671234698
 30
0.0
  0
POINT
  5
BED0
330
920F
100
AcDbEntity
  8
Defpoints
 62
     0
100
AcDbPoint
 10
1319.560624996499
 20
300.8412717723395
 30
0.0
  0
ENDBLK
  5
921A
330
920F
100
AcDbEntity
  8
0
 62
     3
100
AcDbBlockEnd
  0
BLOCK
  5
9BE7
330
9BE3
100
AcDbEntity
  8
0
 62
     3
100
AcDbBlockBegin
  2
A$C30365A2B
 70
     0
 10
0.0
 20
0.0
 30
0.0
  3
A$C30365A2B
  1

  0
TEXT
  5
9BE4
330
9BE3
100
AcDbEntity
  8
実形
370
    13
100
AcDbText
 10
15.21370690703088
 20
26.52856165055869
 30
0.0
 40
65.0
  1
中外交易株式会社
  7
ms明朝
 72
     4
 11
395.556564049888
 21
59.95713307913011
 31
0.0
100
AcDbText
  0
ENDBLK
  5
9BE8
330
9BE3
100
AcDbEntity
  8
0
 62
     3
100
AcDbBlockEnd
  0
BLOCK
  5
9D3E
330
9D34
100
AcDbEntity
  8
0
 62
     3
100
AcDbBlockBegin
  2
*D69
 70
     1
 10
0.0
 20
0.0
 30
0.0
  3
*D69
  1

  0
LINE
  5
ADAC
330
9D34
100
AcDbEntity
  8
実形
 62
     0
370
    18
100
AcDbLine
 10
1262.0606249965
 20
1387.740540305789
 30
0.0
 11
1262.0606249965
 21
1356.582347171062
 31
0.0
  0
LINE
  5
ADAD
330
9D34
100
AcDbEntity
  8
実形
 62
     0
370
    18
100
AcDbLine
 10
1154.0606249965
 20
1382.313720876297
 30
0.0
 11
1154.0606249965
 21
1356.582347171062
 31
0.0
  0
LINE
  5
ADAE
330
9D34
100
AcDbEntity
  8
実形
 62
     0
370
    18
100
AcDbLine
 10
1252.0606249965
 20
1356.582347171062
 30
0.0
 11
1164.0606249965
 21
1356.582347171062
 31
0.0
  0
INSERT
  5
ADAF
330
9D34
100
AcDbEntity
  8
実形
 62
     0
370
    18
100
AcDbBlockReference
  2
_Dot
 10
1262.0606249965
 20
1356.582347171062
 30
0.0
 41
10.0
 42
10.0
 43
10.0
  0
INSERT
  5
ADB0
330
9D34
100
AcDbEntity
  8
実形
 62
     0
370
    18
100
AcDbBlockReference
  2
_Dot
 10
1154.0606249965
 20
1356.582347171062
 30
0.0
 41
10.0
 42
10.0
 43
10.0
 50
180.0
  0
MTEXT
  5
ADB1
330
9D34
100
AcDbEntity
  8
実形
 62
     0
100
AcDbMText
 10
1208.0606249965
 20
1378.182347171062
 30
0.0
 40
30.0
 41
0.0
 71
     5
 72
     1
  1
108
 73
     1
 44
1.0
1001
ACAD
1000
MTEXTBEGIN
1070
    73
1070
     1
1070
    44
1040
1.0
1070
    74
1070
     0
1000
MTEXTEND
  0
POINT
  5
ADB2
330
9D34
100
AcDbEntity
  8
Defpoints
 62
     0
100
AcDbPoint
 10
1262.0606249965
 20
1452.740540305789
 30
0.0
  0
POINT
  5
ADB3
330
9D34
100
AcDbEntity
  8
Defpoints
 62
     0
100
AcDbPoint
 10
1154.0606249965
 20
1447.313720876296
 30
0.0
  0
POINT
  5
ADB4
330
9D34
100
AcDbEntity
  8
Defpoints
 62
     0
100
AcDbPoint
 10
1154.0606249965
 20
1356.582347171062
 30
0.0
  0
ENDBLK
  5
9D3F
330
9D34
100
AcDbEntity
  8
0
 62
     3
100
AcDbBlockEnd
  0
BLOCK
  5
9D68
330
9D5E
100
AcDbEntity
  8
0
 62
     3
100
AcDbBlockBegin
  2
*D70
 70
     1
 10
0.0
 20
0.0
 30
0.0
  3
*D70
  1

  0
LINE
  5
ADC7
330
9D5E
100
AcDbEntity
  8
実形
 62
     0
370
    18
100
AcDbLine
 10
1256.578017852757
 20
1486.889684779005
 30
0.0
 11
1196.580083045317
 21
1486.889684779005
 31
0.0
  0
LINE
  5
ADC8
330
9D5E
100
AcDbEntity
  8
実形
 62
     0
370
    18
100
AcDbLine
 10
1256.578017852757
 20
1576.889684779005
 30
0.0
 11
1196.580083045317
 21
1576.889684779005
 31
0.0
  0
LINE
  5
ADC9
330
9D5E
100
AcDbEntity
  8
実形
 62
     0
370
    18
100
AcDbLine
 10
1196.580083045317
 20
1496.889684779005
 30
0.0
 11
1196.580083045317
 21
1566.889684779005
 31
0.0
  0
INSERT
  5
ADCA
330
9D5E
100
AcDbEntity
  8
実形
 62
     0
370
    18
100
AcDbBlockReference
  2
_Dot
 10
1196.580083045317
 20
1486.889684779005
 30
0.0
 41
10.0
 42
10.0
 43
10.0
 50
270.0
  0
INSERT
  5
ADCB
330
9D5E
100
AcDbEntity
  8
実形
 62
     0
370
    18
100
AcDbBlockReference
  2
_Dot
 10
1196.580083045317
 20
1576.889684779005
 30
0.0
 41
10.0
 42
10.0
 43
10.0
 50
90.0
  0
MTEXT
  5
ADCC
330
9D5E
100
AcDbEntity
  8
実形
 62
     0
100
AcDbMText
 10
1177.480083045317
 20
1531.889684779005
 30
0.0
 40
25.0
 41
0.0
 71
     5
 72
     1
  1
90
 11
0.0000000000000001
 21
1.0
 31
0.0
 73
     1
 44
1.0
1001
ACAD
1000
MTEXTBEGIN
1070
    73
1070
     1
1070
    44
1040
1.0
1070
    74
1070
     0
1000
MTEXTEND
  0
POINT
  5
ADCD
330
9D5E
100
AcDbEntity
  8
Defpoints
 62
     0
100
AcDbPoint
 10
1191.578017852756
 20
1486.889684779005
 30
0.0
  0
POINT
  5
ADCE
330
9D5E
100
AcDbEntity
  8
Defpoints
 62
     0
100
AcDbPoint
 10
1191.578017852757
 20
1576.889684779005
 30
0.0
  0
POINT
  5
ADCF
330
9D5E
100
AcDbEntity
  8
Defpoints
 62
     0
100
AcDbPoint
 10
1196.580083045317
 20
1576.889684779005
 30
0.0
  0
ENDBLK
  5
9D69
330
9D5E
100
AcDbEntity
  8
0
 62
     3
100
AcDbBlockEnd
  0
BLOCK
  5
A625
330
A61B
100
AcDbEntity
  8
0
 62
     3
100
AcDbBlockBegin
  2
*D71
 70
     1
 10
0.0
 20
0.0
 30
0.0
  3
*D71
  1

  0
LINE
  5
BEDC
330
A61B
100
AcDbEntity
  8
実形
 62
     0
370
    18
100
AcDbLine
 10
791.8434635317022
 20
1533.889684779005
 30
0.0
 11
748.8434635317023
 21
1533.889684779005
 31
0.0
  0
LINE
  5
BEDD
330
A61B
100
AcDbEntity
  8
実形
 62
     0
370
    18
100
AcDbLine
 10
791.8434635317018
 20
1439.889684779005
 30
0.0
 11
748.8434635317023
 21
1439.889684779005
 31
0.0
  0
LINE
  5
BEDE
330
A61B
100
AcDbEntity
  8
実形
 62
     0
370
    18
100
AcDbLine
 10
748.8434635317023
 20
1523.889684779005
 30
0.0
 11
748.8434635317023
 21
1449.889684779004
 31
0.0
  0
INSERT
  5
BEDF
330
A61B
100
AcDbEntity
  8
実形
 62
     0
370
    18
100
AcDbBlockReference
  2
_Dot
 10
748.8434635317023
 20
1533.889684779005
 30
0.0
 41
10.0
 42
10.0
 43
10.0
 50
90.0
  0
INSERT
  5
BEE0
330
A61B
100
AcDbEntity
  8
実形
 62
     0
370
    18
100
AcDbBlockReference
  2
_Dot
 10
748.8434635317023
 20
1439.889684779005
 30
0.0
 41
10.0
 42
10.0
 43
10.0
 50
270.0
  0
MTEXT
  5
BEE1
330
A61B
100
AcDbEntity
  8
実形
 62
     0
100
AcDbMText
 10
727.243463531702
 20
1486.889684779005
 30
0.0
 40
30.0
 41
0.0
 71
     5
 72
     1
  1
94
 11
0.0000000000000001
 21
1.0
 31
0.0
 73
     1
 44
1.0
1001
ACAD
1000
MTEXTBEGIN
1070
    73
1070
     1
1070
    44
1040
1.0
1070
    74
1070
     0
1000
MTEXTEND
  0
POINT
  5
BEE2
330
A61B
100
AcDbEntity
  8
Defpoints
 62
     0
100
AcDbPoint
 10
856.8434635317021
 20
1533.889684779005
 30
0.0
  0
POINT
  5
BEE3
330
A61B
100
AcDbEntity
  8
Defpoints
 62
     0
100
AcDbPoint
 10
856.8434635317018
 20
1439.889684779005
 30
0.0
  0
POINT
  5
BEE4
330
A61B
100
AcDbEntity
  8
Defpoints
 62
     0
100
AcDbPoint
 10
748.8434635317023
 20
1439.889684779005
 30
0.0
  0
ENDBLK
  5
A626
330
A61B
100
AcDbEntity
  8
0
 62
     3
100
AcDbBlockEnd
  0
BLOCK
  5
A63B
330
A631
100
AcDbEntity
  8
0
 62
     3
100
AcDbBlockBegin
  2
*D72
 70
     1
 10
0.0
 20
0.0
 30
0.0
  3
*D72
  1

  0
LINE
  5
BF03
330
A631
100
AcDbEntity
  8
実形
 62
     0
370
    18
100
AcDbLine
 10
792.0193946791441
 20
1544.389684779005
 30
0.0
 11
698.1363926135218
 21
1544.389684779005
 31
0.0
  0
LINE
  5
BF04
330
A631
100
AcDbEntity
  8
実形
 62
     0
370
    18
100
AcDbLine
 10
791.3413063695188
 20
1429.389684779005
 30
0.0
 11
698.1363926135218
 21
1429.389684779005
 31
0.0
  0
LINE
  5
BF05
330
A631
100
AcDbEntity
  8
実形
 62
     0
370
    18
100
AcDbLine
 10
698.1363926135218
 20
1534.389684779005
 30
0.0
 11
698.1363926135218
 21
1439.389684779005
 31
0.0
  0
INSERT
  5
BF06
330
A631
100
AcDbEntity
  8
実形
 62
     0
370
    18
100
AcDbBlockReference
  2
_Dot
 10
698.1363926135218
 20
1544.389684779005
 30
0.0
 41
10.0
 42
10.0
 43
10.0
 50
90.0
  0
INSERT
  5
BF07
330
A631
100
AcDbEntity
  8
実形
 62
     0
370
    18
100
AcDbBlockReference
  2
_Dot
 10
698.1363926135218
 20
1429.389684779005
 30
0.0
 41
10.0
 42
10.0
 43
10.0
 50
270.0
  0
MTEXT
  5
BF08
330
A631
100
AcDbEntity
  8
実形
 62
     0
100
AcDbMText
 10
676.5363926135215
 20
1486.889684779005
 30
0.0
 40
30.0
 41
0.0
 71
     5
 72
     1
  1
115
 11
0.0000000000000001
 21
1.0
 31
0.0
 73
     1
 44
1.0
1001
ACAD
1000
MTEXTBEGIN
1070
    73
1070
     1
1070
    44
1040
1.0
1070
    74
1070
     0
1000
MTEXTEND
  0
POINT
  5
BF09
330
A631
100
AcDbEntity
  8
Defpoints
 62
     0
100
AcDbPoint
 10
857.0193946791441
 20
1544.389684779005
 30
0.0
  0
POINT
  5
BF0A
330
A631
100
AcDbEntity
  8
Defpoints
 62
     0
100
AcDbPoint
 10
856.3413063695188
 20
1429.389684779005
 30
0.0
  0
POINT
  5
BF0B
330
A631
100
AcDbEntity
  8
Defpoints
 62
     0
100
AcDbPoint
 10
698.1363926135218
 20
1429.389684779005
 30
0.0
  0
ENDBLK
  5
A63C
330
A631
100
AcDbEntity
  8
0
 62
     3
100
AcDbBlockEnd
  0
BLOCK
  5
AC37
330
AC33
100
AcDbEntity
  8
0
 62
     3
100
AcDbBlockBegin
  2
A$C390A10C6
 70
     0
 10
0.0
 20
0.0
 30
0.0
  3
A$C390A10C6
  1

  0
TEXT
  5
AC34
330
AC33
100
AcDbEntity
  8
実形
 48
20.0
100
AcDbText
 10
-11.46520198592407
 20
725.6166892802075
 30
0.0
 40
8.0
  1
●
 50
270.0
 71
     2
100
AcDbText
  0
ENDBLK
  5
AC38
330
AC33
100
AcDbEntity
  8
0
 62
     3
100
AcDbBlockEnd
  0
BLOCK
  5
AF1F
330
AF15
100
AcDbEntity
  8
0
 62
     3
100
AcDbBlockBegin
  2
*D74
 70
     1
 10
0.0
 20
0.0
 30
0.0
  3
*D74
  1

  0
LINE
  5
B9CE
330
AF15
100
AcDbEntity
  8
実形
 62
     0
370
    18
100
AcDbLine
 10
2246.073111491172
 20
1181.50294495389
 30
0.0
 11
2246.073111491172
 21
1126.680026795735
 31
0.0
  0
LINE
  5
B9CF
330
AF15
100
AcDbEntity
  8
実形
 62
     0
370
    18
100
AcDbLine
 10
2436.073111491172
 20
1158.409575562806
 30
0.0
 11
2436.073111491172
 21
1126.680026795735
 31
0.0
  0
LINE
  5
B9D0
330
AF15
100
AcDbEntity
  8
実形
 62
     0
370
    18
100
AcDbLine
 10
2256.073111491172
 20
1126.680026795735
 30
0.0
 11
2426.073111491171
 21
1126.680026795735
 31
0.0
  0
MTEXT
  5
B9D1
330
AF15
100
AcDbEntity
  8
実形
 62
     0
100
AcDbMText
 10
2207.508504765505
 20
1148.280026795735
 30
0.0
 40
25.0
 41
0.0
 71
     5
 72
     1
  1
15
 73
     1
 44
1.0
1001
ACAD
1000
MTEXTBEGIN
1070
    73
1070
     1
1070
    44
1040
1.0
1070
    74
1070
     0
1000
MTEXTEND
  0
INSERT
  5
B9D2
330
AF15
100
AcDbEntity
  8
実形
 62
     0
370
    18
100
AcDbBlockReference
  2
_Dot
 10
2246.073111491172
 20
1126.680026795735
 30
0.0
 41
10.0
 42
10.0
 43
10.0
 50
180.0
  0
INSERT
  5
B9D3
330
AF15
100
AcDbEntity
  8
実形
 62
     0
370
    18
100
AcDbBlockReference
  2
_Dot
 10
2436.073111491172
 20
1126.680026795735
 30
0.0
 41
10.0
 42
10.0
 43
10.0
  0
POINT
  5
B9D4
330
AF15
100
AcDbEntity
  8
Defpoints
 62
     0
100
AcDbPoint
 10
2246.073111491172
 20
1246.50294495389
 30
0.0
  0
POINT
  5
B9D5
330
AF15
100
AcDbEntity
  8
Defpoints
 62
     0
100
AcDbPoint
 10
2436.073111491172
 20
1223.409575562806
 30
0.0
  0
POINT
  5
B9D6
330
AF15
100
AcDbEntity
  8
Defpoints
 62
     0
100
AcDbPoint
 10
2436.073111491172
 20
1126.680026795735
 30
0.0
  0
ENDBLK
  5
AF20
330
AF15
100
AcDbEntity
  8
0
 62
     3
100
AcDbBlockEnd
  0
BLOCK
  5
AF2C
330
AF22
100
AcDbEntity
  8
0
 62
     3
100
AcDbBlockBegin
  2
*D75
 70
     1
 10
0.0
 20
0.0
 30
0.0
  3
*D75
  1

  0
LINE
  5
B9D7
330
AF22
100
AcDbEntity
  8
実形
 62
     0
370
    18
100
AcDbLine
 10
2261.073111491172
 20
1183.180513711191
 30
0.0
 11
2261.073111491172
 21
1126.680026795735
 31
0.0
  0
LINE
  5
B9D8
330
AF22
100
AcDbEntity
  8
実形
 62
     0
370
    18
100
AcDbLine
 10
2436.073111491172
 20
1182.341734060192
 30
0.0
 11
2436.073111491172
 21
1126.680026795735
 31
0.0
  0
LINE
  5
B9D9
330
AF22
100
AcDbEntity
  8
実形
 62
     0
370
    18
100
AcDbLine
 10
2271.073111491172
 20
1126.680026795735
 30
0.0
 11
2426.073111491171
 21
1126.680026795735
 31
0.0
  0
MTEXT
  5
B9DA
330
AF22
100
AcDbEntity
  8
実形
 62
     0
100
AcDbMText
 10
2345.109797968806
 20
1148.365404306629
 30
0.0
 40
25.0
 41
0.0
 71
     5
 72
     1
  1
175
 73
     1
 44
1.0
1001
ACAD
1000
MTEXTBEGIN
1070
    73
1070
     1
1070
    44
1040
1.0
1070
    74
1070
     0
1000
MTEXTEND
  0
INSERT
  5
B9DB
330
AF22
100
AcDbEntity
  8
実形
 62
     0
370
    18
100
AcDbBlockReference
  2
_Dot
 10
2261.073111491172
 20
1126.680026795735
 30
0.0
 41
10.0
 42
10.0
 43
10.0
 50
180.0
  0
INSERT
  5
B9DC
330
AF22
100
AcDbEntity
  8
実形
 62
     0
370
    18
100
AcDbBlockReference
  2
_Dot
 10
2436.073111491172
 20
1126.680026795735
 30
0.0
 41
10.0
 42
10.0
 43
10.0
  0
POINT
  5
B9DD
330
AF22
100
AcDbEntity
  8
Defpoints
 62
     0
100
AcDbPoint
 10
2261.073111491172
 20
1248.180513711191
 30
0.0
  0
POINT
  5
B9DE
330
AF22
100
AcDbEntity
  8
Defpoints
 62
     0
100
AcDbPoint
 10
2436.073111491172
 20
1247.341734060191
 30
0.0
  0
POINT
  5
B9DF
330
AF22
100
AcDbEntity
  8
Defpoints
 62
     0
100
AcDbPoint
 10
2436.073111491172
 20
1126.680026795735
 30
0.0
  0
ENDBLK
  5
AF2D
330
AF22
100
AcDbEntity
  8
0
 62
     3
100
AcDbBlockEnd
  0
BLOCK
  5
AF7C
330
AF72
100
AcDbEntity
  8
0
 62
     3
100
AcDbBlockBegin
  2
*D76
 70
     1
 10
0.0
 20
0.0
 30
0.0
  3
*D76
  1

  0
LINE
  5
B9E0
330
AF72
100
AcDbEntity
  8
実形
 62
     0
370
    18
100
AcDbLine
 10
2246.073111491172
 20
1119.484991540668
 30
0.0
 11
2246.073111491172
 21
1074.669537556405
 31
0.0
  0
LINE
  5
B9E1
330
AF72
100
AcDbEntity
  8
実形
 62
     0
370
    18
100
AcDbLine
 10
2436.073111491172
 20
1119.484991540668
 30
0.0
 11
2436.073111491172
 21
1074.669537556405
 31
0.0
  0
LINE
  5
B9E2
330
AF72
100
AcDbEntity
  8
実形
 62
     0
370
    18
100
AcDbLine
 10
2256.073111491172
 20
1074.669537556405
 30
0.0
 11
2426.073111491172
 21
1074.669537556405
 31
0.0
  0
MTEXT
  5
B9E3
330
AF72
100
AcDbEntity
  8
実形
 62
     0
100
AcDbMText
 10
2345.948793791824
 20
1096.269537556405
 30
0.0
 40
25.0
 41
0.0
 71
     5
 72
     1
  1
190
 73
     1
 44
1.0
1001
ACAD
1000
MTEXTBEGIN
1070
    73
1070
     1
1070
    44
1040
1.0
1070
    74
1070
     0
1000
MTEXTEND
  0
INSERT
  5
B9E4
330
AF72
100
AcDbEntity
  8
実形
 62
     0
370
    18
100
AcDbBlockReference
  2
_Dot
 10
2246.073111491172
 20
1074.669537556405
 30
0.0
 41
10.0
 42
10.0
 43
10.0
 50
180.0
  0
INSERT
  5
B9E5
330
AF72
100
AcDbEntity
  8
実形
 62
     0
370
    18
100
AcDbBlockReference
  2
_Dot
 10
2436.073111491172
 20
1074.669537556405
 30
0.0
 41
10.0
 42
10.0
 43
10.0
  0
POINT
  5
B9E6
330
AF72
100
AcDbEntity
  8
Defpoints
 62
     0
100
AcDbPoint
 10
2246.073111491172
 20
1184.484991540668
 30
0.0
  0
POINT
  5
B9E7
330
AF72
100
AcDbEntity
  8
Defpoints
 62
     0
100
AcDbPoint
 10
2436.073111491172
 20
1184.484991540668
 30
0.0
  0
POINT
  5
B9E8
330
AF72
100
AcDbEntity
  8
Defpoints
 62
     0
100
AcDbPoint
 10
2436.073111491172
 20
1074.669537556405
 30
0.0
  0
ENDBLK
  5
AF7D
330
AF72
100
AcDbEntity
  8
0
 62
     3
100
AcDbBlockEnd
  0
BLOCK
  5
AF89
330
AF7F
100
AcDbEntity
  8
0
 62
     3
100
AcDbBlockBegin
  2
*D77
 70
     1
 10
0.0
 20
0.0
 30
0.0
  3
*D77
  1

  0
LINE
  5
BA9D
330
AF7F
100
AcDbEntity
  8
実形
 62
     0
370
    18
100
AcDbLine
 10
2246.073111491172
 20
1119.484991540668
 30
0.0
 11
2246.073111491172
 21
1074.669537556405
 31
0.0
  0
LINE
  5
BA9E
330
AF7F
100
AcDbEntity
  8
実形
 62
     0
370
    18
100
AcDbLine
 10
2451.073111491172
 20
1182.086336955544
 30
0.0
 11
2451.073111491172
 21
1074.669537556405
 31
0.0
  0
LINE
  5
BA9F
330
AF7F
100
AcDbEntity
  8
実形
 62
     0
370
    18
100
AcDbLine
 10
2256.073111491172
 20
1074.669537556405
 30
0.0
 11
2441.073111491172
 21
1074.669537556405
 31
0.0
  0
MTEXT
  5
BAA0
330
AF7F
100
AcDbEntity
  8
実形
 62
     0
100
AcDbMText
 10
2486.061062403023
 20
1096.269537556405
 30
0.0
 40
25.0
 41
0.0
 71
     5
 72
     1
  1
15
 73
     1
 44
1.0
1001
ACAD
1000
MTEXTBEGIN
1070
    73
1070
     1
1070
    44
1040
1.0
1070
    74
1070
     0
1000
MTEXTEND
  0
INSERT
  5
BAA1
330
AF7F
100
AcDbEntity
  8
実形
 62
     0
370
    18
100
AcDbBlockReference
  2
_Dot
 10
2246.073111491172
 20
1074.669537556405
 30
0.0
 41
10.0
 42
10.0
 43
10.0
 50
180.0
  0
INSERT
  5
BAA2
330
AF7F
100
AcDbEntity
  8
実形
 62
     0
370
    18
100
AcDbBlockReference
  2
_Dot
 10
2451.073111491172
 20
1074.669537556405
 30
0.0
 41
10.0
 42
10.0
 43
10.0
  0
POINT
  5
BAA3
330
AF7F
100
AcDbEntity
  8
Defpoints
 62
     0
100
AcDbPoint
 10
2246.073111491172
 20
1184.484991540668
 30
0.0
  0
POINT
  5
BAA4
330
AF7F
100
AcDbEntity
  8
Defpoints
 62
     0
100
AcDbPoint
 10
2451.073111491172
 20
1247.086336955544
 30
0.0
  0
POINT
  5
BAA5
330
AF7F
100
AcDbEntity
  8
Defpoints
 62
     0
100
AcDbPoint
 10
2451.073111491172
 20
1074.669537556405
 30
0.0
  0
ENDBLK
  5
AF8A
330
AF7F
100
AcDbEntity
  8
0
 62
     3
100
AcDbBlockEnd
  0
BLOCK
  5
AFFA
330
AFF0
100
AcDbEntity
  8
0
 62
     3
100
AcDbBlockBegin
  2
*D78
 70
     1
 10
0.0
 20
0.0
 30
0.0
  3
*D78
  1

  0
LINE
  5
B9FB
330
AFF0
100
AcDbEntity
  8
実形
 62
     0
370
    18
100
AcDbLine
 10
2246.59484715209
 20
1087.538099095201
 30
0.0
 11
2246.59484715209
 21
1021.399253991519
 31
0.0
  0
LINE
  5
B9FC
330
AFF0
100
AcDbEntity
  8
実形
 62
     0
370
    18
100
AcDbLine
 10
2451.073111491172
 20
1087.538099095201
 30
0.0
 11
2451.073111491172
 21
1021.399253991519
 31
0.0
  0
LINE
  5
B9FD
330
AFF0
100
AcDbEntity
  8
実形
 62
     0
370
    18
100
AcDbLine
 10
2256.59484715209
 20
1021.399253991519
 30
0.0
 11
2441.073111491172
 21
1021.399253991519
 31
0.0
  0
INSERT
  5
B9FE
330
AFF0
100
AcDbEntity
  8
実形
 62
     0
370
    18
100
AcDbBlockReference
  2
_Dot
 10
2246.59484715209
 20
1021.399253991519
 30
0.0
 41
10.0
 42
10.0
 43
10.0
 50
180.0
  0
INSERT
  5
B9FF
330
AFF0
100
AcDbEntity
  8
実形
 62
     0
370
    18
100
AcDbBlockReference
  2
_Dot
 10
2451.073111491172
 20
1021.399253991519
 30
0.0
 41
10.0
 42
10.0
 43
10.0
  0
MTEXT
  5
BA00
330
AFF0
100
AcDbEntity
  8
実形
 62
     0
100
AcDbMText
 10
2348.833979321631
 20
1040.499253991519
 30
0.0
 40
25.0
 41
0.0
 71
     5
 72
     1
  1
205
 73
     1
 44
1.0
1001
ACAD
1000
MTEXTBEGIN
1070
    73
1070
     1
1070
    44
1040
1.0
1070
    74
1070
     0
1000
MTEXTEND
  0
POINT
  5
BA01
330
AFF0
100
AcDbEntity
  8
Defpoints
 62
     0
100
AcDbPoint
 10
2246.59484715209
 20
1152.538099095202
 30
0.0
  0
POINT
  5
BA02
330
AFF0
100
AcDbEntity
  8
Defpoints
 62
     0
100
AcDbPoint
 10
2451.073111491172
 20
1152.538099095202
 30
0.0
  0
POINT
  5
BA03
330
AFF0
100
AcDbEntity
  8
Defpoints
 62
     0
100
AcDbPoint
 10
2451.073111491172
 20
1021.399253991519
 30
0.0
  0
ENDBLK
  5
AFFB
330
AFF0
100
AcDbEntity
  8
0
 62
     3
100
AcDbBlockEnd
  0
BLOCK
  5
B011
330
B007
100
AcDbEntity
  8
0
 62
     3
100
AcDbBlockBegin
  2
*D79
 70
     1
 10
0.0
 20
0.0
 30
0.0
  3
*D79
  1

  0
LINE
  5
B9F2
330
B007
100
AcDbEntity
  8
実形
 62
     0
370
    18
100
AcDbLine
 10
2246.073111491172
 20
1152.538099095202
 30
0.0
 11
2246.073111491172
 21
1021.399253991519
 31
0.0
  0
LINE
  5
B9F3
330
B007
100
AcDbEntity
  8
実形
 62
     0
370
    18
100
AcDbLine
 10
2461.073111491173
 20
1070.308168259109
 30
0.0
 11
2461.073111491173
 21
1021.399253991519
 31
0.0
  0
LINE
  5
B9F4
330
B007
100
AcDbEntity
  8
実形
 62
     0
370
    18
100
AcDbLine
 10
2256.073111491172
 20
1021.399253991519
 30
0.0
 11
2451.073111491173
 21
1021.399253991519
 31
0.0
  0
MTEXT
  5
B9F5
330
B007
100
AcDbEntity
  8
実形
 62
     0
100
AcDbMText
 10
2484.868435984088
 20
1042.99925399152
 30
0.0
 40
25.0
 41
0.0
 71
     5
 72
     1
  1
8
 73
     1
 44
1.0
1001
ACAD
1000
MTEXTBEGIN
1070
    73
1070
     1
1070
    44
1040
1.0
1070
    74
1070
     0
1000
MTEXTEND
  0
INSERT
  5
B9F6
330
B007
100
AcDbEntity
  8
実形
 62
     0
370
    18
100
AcDbBlockReference
  2
_Dot
 10
2246.073111491172
 20
1021.399253991519
 30
0.0
 41
10.0
 42
10.0
 43
10.0
 50
180.0
  0
INSERT
  5
B9F7
330
B007
100
AcDbEntity
  8
実形
 62
     0
370
    18
100
AcDbBlockReference
  2
_Dot
 10
2461.073111491173
 20
1021.399253991519
 30
0.0
 41
10.0
 42
10.0
 43
10.0
  0
POINT
  5
B9F8
330
B007
100
AcDbEntity
  8
Defpoints
 62
     0
100
AcDbPoint
 10
2246.073111491172
 20
1217.538099095202
 30
0.0
  0
POINT
  5
B9F9
330
B007
100
AcDbEntity
  8
Defpoints
 62
     0
100
AcDbPoint
 10
2461.073111491173
 20
1135.308168259109
 30
0.0
  0
POINT
  5
B9FA
330
B007
100
AcDbEntity
  8
Defpoints
 62
     0
100
AcDbPoint
 10
2461.073111491173
 20
1021.399253991519
 30
0.0
  0
ENDBLK
  5
B012
330
B007
100
AcDbEntity
  8
0
 62
     3
100
AcDbBlockEnd
  0
BLOCK
  5
B04B
330
B041
100
AcDbEntity
  8
0
 62
     3
100
AcDbBlockBegin
  2
*D80
 70
     1
 10
0.0
 20
0.0
 30
0.0
  3
*D80
  1

  0
LINE
  5
B9C5
330
B041
100
AcDbEntity
  8
実形
 62
     0
370
    18
100
AcDbLine
 10
2246.073111491172
 20
1087.538099095201
 30
0.0
 11
2246.073111491172
 21
966.6932425940922
 31
0.0
  0
LINE
  5
B9C6
330
B041
100
AcDbEntity
  8
実形
 62
     0
370
    18
100
AcDbLine
 10
2461.073111491173
 20
1023.470685842398
 30
0.0
 11
2461.073111491173
 21
966.6932425940922
 31
0.0
  0
LINE
  5
B9C7
330
B041
100
AcDbEntity
  8
実形
 62
     0
370
    18
100
AcDbLine
 10
2256.073111491172
 20
966.6932425940922
 30
0.0
 11
2451.073111491173
 21
966.6932425940922
 31
0.0
  0
MTEXT
  5
B9C8
330
B041
100
AcDbEntity
  8
実形
 62
     0
100
AcDbMText
 10
2348.465781260872
 20
988.2932425940921
 30
0.0
 40
25.0
 41
0.0
 71
     5
 72
     1
  1
213
 73
     1
 44
1.0
1001
ACAD
1000
MTEXTBEGIN
1070
    73
1070
     1
1070
    44
1040
1.0
1070
    74
1070
     0
1000
MTEXTEND
  0
INSERT
  5
B9C9
330
B041
100
AcDbEntity
  8
実形
 62
     0
370
    18
100
AcDbBlockReference
  2
_Dot
 10
2246.073111491172
 20
966.6932425940922
 30
0.0
 41
10.0
 42
10.0
 43
10.0
 50
180.0
  0
INSERT
  5
B9CA
330
B041
100
AcDbEntity
  8
実形
 62
     0
370
    18
100
AcDbBlockReference
  2
_Dot
 10
2461.073111491173
 20
966.6932425940922
 30
0.0
 41
10.0
 42
10.0
 43
10.0
  0
POINT
  5
B9CB
330
B041
100
AcDbEntity
  8
Defpoints
 62
     0
100
AcDbPoint
 10
2246.073111491172
 20
1152.538099095202
 30
0.0
  0
POINT
  5
B9CC
330
B041
100
AcDbEntity
  8
Defpoints
 62
     0
100
AcDbPoint
 10
2461.073111491173
 20
1088.470685842398
 30
0.0
  0
POINT
  5
B9CD
330
B041
100
AcDbEntity
  8
Defpoints
 62
     0
100
AcDbPoint
 10
2461.073111491173
 20
966.6932425940922
 30
0.0
  0
ENDBLK
  5
B04C
330
B041
100
AcDbEntity
  8
0
 62
     3
100
AcDbBlockEnd
  0
BLOCK
  5
B175
330
B16B
100
AcDbEntity
  8
0
 62
     3
100
AcDbBlockBegin
  2
*D81
 70
     1
 10
0.0
 20
0.0
 30
0.0
  3
*D81
  1

  0
LINE
  5
BA3A
330
B16B
100
AcDbEntity
  8
実形
 62
     0
370
    18
100
AcDbLine
 10
1990.17692762124
 20
704.0001671234741
 30
0.0
 11
2049.433687459692
 21
704.0001671234741
 31
0.0
  0
LINE
  5
BA3B
330
B16B
100
AcDbEntity
  8
実形
 62
     0
370
    18
100
AcDbLine
 10
1990.17692762124
 20
514.000167123474
 30
0.0
 11
2049.433687459692
 21
514.000167123474
 31
0.0
  0
LINE
  5
BA3C
330
B16B
100
AcDbEntity
  8
実形
 62
     0
370
    18
100
AcDbLine
 10
2049.433687459692
 20
694.0001671234742
 30
0.0
 11
2049.433687459692
 21
524.0001671234741
 31
0.0
  0
MTEXT
  5
BA3D
330
B16B
100
AcDbEntity
  8
実形
 62
     0
100
AcDbMText
 10
2027.833687459692
 20
733.5053032626165
 30
0.0
 40
25.0
 41
0.0
 71
     5
 72
     1
  1
15
 11
0.0000000000000001
 21
1.0
 31
0.0
 73
     1
 44
1.0
1001
ACAD
1000
MTEXTBEGIN
1070
    73
1070
     1
1070
    44
1040
1.0
1070
    74
1070
     0
1000
MTEXTEND
  0
INSERT
  5
BA3E
330
B16B
100
AcDbEntity
  8
実形
 62
     0
370
    18
100
AcDbBlockReference
  2
_Dot
 10
2049.433687459692
 20
704.0001671234741
 30
0.0
 41
10.0
 42
10.0
 43
10.0
 50
90.0
  0
INSERT
  5
BA3F
330
B16B
100
AcDbEntity
  8
実形
 62
     0
370
    18
100
AcDbBlockReference
  2
_Dot
 10
2049.433687459692
 20
514.000167123474
 30
0.0
 41
10.0
 42
10.0
 43
10.0
 50
270.0
  0
POINT
  5
BA40
330
B16B
100
AcDbEntity
  8
Defpoints
 62
     0
100
AcDbPoint
 10
1925.17692762124
 20
704.0001671234741
 30
0.0
  0
POINT
  5
BA41
330
B16B
100
AcDbEntity
  8
Defpoints
 62
     0
100
AcDbPoint
 10
1925.17692762124
 20
514.000167123474
 30
0.0
  0
POINT
  5
BA42
330
B16B
100
AcDbEntity
  8
Defpoints
 62
     0
100
AcDbPoint
 10
2049.433687459692
 20
514.000167123474
 30
0.0
  0
ENDBLK
  5
B176
330
B16B
100
AcDbEntity
  8
0
 62
     3
100
AcDbBlockEnd
  0
BLOCK
  5
B194
330
B18A
100
AcDbEntity
  8
0
 62
     3
100
AcDbBlockBegin
  2
*D82
 70
     1
 10
0.0
 20
0.0
 30
0.0
  3
*D82
  1

  0
LINE
  5
BA31
330
B18A
100
AcDbEntity
  8
実形
 62
     0
370
    18
100
AcDbLine
 10
1990.17692762124
 20
689.000167123474
 30
0.0
 11
2049.433687459692
 21
689.000167123474
 31
0.0
  0
LINE
  5
BA32
330
B18A
100
AcDbEntity
  8
実形
 62
     0
370
    18
100
AcDbLine
 10
1990.17692762124
 20
514.000167123474
 30
0.0
 11
2049.433687459692
 21
514.000167123474
 31
0.0
  0
LINE
  5
BA33
330
B18A
100
AcDbEntity
  8
実形
 62
     0
370
    18
100
AcDbLine
 10
2049.433687459692
 20
679.000167123474
 30
0.0
 11
2049.433687459692
 21
524.0001671234741
 31
0.0
  0
INSERT
  5
BA34
330
B18A
100
AcDbEntity
  8
実形
 62
     0
370
    18
100
AcDbBlockReference
  2
_Dot
 10
2049.433687459692
 20
689.000167123474
 30
0.0
 41
10.0
 42
10.0
 43
10.0
 50
90.0
  0
INSERT
  5
BA35
330
B18A
100
AcDbEntity
  8
実形
 62
     0
370
    18
100
AcDbBlockReference
  2
_Dot
 10
2049.433687459692
 20
514.000167123474
 30
0.0
 41
10.0
 42
10.0
 43
10.0
 50
270.0
  0
MTEXT
  5
BA36
330
B18A
100
AcDbEntity
  8
実形
 62
     0
100
AcDbMText
 10
2030.333687459692
 20
601.5001671234744
 30
0.0
 40
25.0
 41
0.0
 71
     5
 72
     1
  1
175
 11
0.0000000000000001
 21
1.0
 31
0.0
 73
     1
 44
1.0
1001
ACAD
1000
MTEXTBEGIN
1070
    73
1070
     1
1070
    44
1040
1.0
1070
    74
1070
     0
1000
MTEXTEND
  0
POINT
  5
BA37
330
B18A
100
AcDbEntity
  8
Defpoints
 62
     0
100
AcDbPoint
 10
1925.17692762124
 20
689.000167123474
 30
0.0
  0
POINT
  5
BA38
330
B18A
100
AcDbEntity
  8
Defpoints
 62
     0
100
AcDbPoint
 10
1925.17692762124
 20
514.000167123474
 30
0.0
  0
POINT
  5
BA39
330
B18A
100
AcDbEntity
  8
Defpoints
 62
     0
100
AcDbPoint
 10
2049.433687459692
 20
514.000167123474
 30
0.0
  0
ENDBLK
  5
B195
330
B18A
100
AcDbEntity
  8
0
 62
     3
100
AcDbBlockEnd
  0
BLOCK
  5
B1A1
330
B197
100
AcDbEntity
  8
0
 62
     3
100
AcDbBlockBegin
  2
*D83
 70
     1
 10
0.0
 20
0.0
 30
0.0
  3
*D83
  1

  0
LINE
  5
BA0D
330
B197
100
AcDbEntity
  8
実形
 62
     0
370
    18
100
AcDbLine
 10
2055.17692762124
 20
704.0001671234741
 30
0.0
 11
2112.606628050362
 21
704.0001671234741
 31
0.0
  0
LINE
  5
BA0E
330
B197
100
AcDbEntity
  8
実形
 62
     0
370
    18
100
AcDbLine
 10
2055.17692762124
 20
514.000167123474
 30
0.0
 11
2112.606628050362
 21
514.000167123474
 31
0.0
  0
LINE
  5
BA0F
330
B197
100
AcDbEntity
  8
実形
 62
     0
370
    18
100
AcDbLine
 10
2112.606628050362
 20
694.0001671234742
 30
0.0
 11
2112.606628050362
 21
524.0001671234741
 31
0.0
  0
MTEXT
  5
BA10
330
B197
100
AcDbEntity
  8
実形
 62
     0
100
AcDbMText
 10
2091.006628050362
 20
600.0838243720427
 30
0.0
 40
25.0
 41
0.0
 71
     5
 72
     1
  1
190
 11
0.0000000000000001
 21
1.0
 31
0.0
 73
     1
 44
1.0
1001
ACAD
1000
MTEXTBEGIN
1070
    73
1070
     1
1070
    44
1040
1.0
1070
    74
1070
     0
1000
MTEXTEND
  0
INSERT
  5
BA11
330
B197
100
AcDbEntity
  8
実形
 62
     0
370
    18
100
AcDbBlockReference
  2
_Dot
 10
2112.606628050362
 20
704.0001671234741
 30
0.0
 41
10.0
 42
10.0
 43
10.0
 50
90.0
  0
INSERT
  5
BA12
330
B197
100
AcDbEntity
  8
実形
 62
     0
370
    18
100
AcDbBlockReference
  2
_Dot
 10
2112.606628050362
 20
514.000167123474
 30
0.0
 41
10.0
 42
10.0
 43
10.0
 50
270.0
  0
POINT
  5
BA13
330
B197
100
AcDbEntity
  8
Defpoints
 62
     0
100
AcDbPoint
 10
1990.17692762124
 20
704.0001671234741
 30
0.0
  0
POINT
  5
BA14
330
B197
100
AcDbEntity
  8
Defpoints
 62
     0
100
AcDbPoint
 10
1990.17692762124
 20
514.000167123474
 30
0.0
  0
POINT
  5
BA15
330
B197
100
AcDbEntity
  8
Defpoints
 62
     0
100
AcDbPoint
 10
2112.606628050362
 20
514.000167123474
 30
0.0
  0
ENDBLK
  5
B1A2
330
B197
100
AcDbEntity
  8
0
 62
     3
100
AcDbBlockEnd
  0
BLOCK
  5
B1AE
330
B1A4
100
AcDbEntity
  8
0
 62
     3
100
AcDbBlockBegin
  2
*D84
 70
     1
 10
0.0
 20
0.0
 30
0.0
  3
*D84
  1

  0
LINE
  5
BC37
330
B1A4
100
AcDbEntity
  8
実形
 62
     0
370
    18
100
AcDbLine
 10
1991.426104097874
 20
499.0001671234741
 30
0.0
 11
2112.606628050362
 21
499.0001671234741
 31
0.0
  0
LINE
  5
BC38
330
B1A4
100
AcDbEntity
  8
実形
 62
     0
370
    18
100
AcDbLine
 10
1990.17692762124
 20
704.0001671234741
 30
0.0
 11
2112.606628050362
 21
704.0001671234741
 31
0.0
  0
LINE
  5
BC39
330
B1A4
100
AcDbEntity
  8
実形
 62
     0
370
    18
100
AcDbLine
 10
2112.606628050362
 20
509.000167123474
 30
0.0
 11
2112.606628050362
 21
694.0001671234742
 31
0.0
  0
MTEXT
  5
BC3A
330
B1A4
100
AcDbEntity
  8
実形
 62
     0
100
AcDbMText
 10
2091.006628050362
 20
471.0681901059688
 30
0.0
 40
25.0
 41
0.0
 71
     5
 72
     1
  1
15
 11
0.0000000000000001
 21
1.0
 31
0.0
 73
     1
 44
1.0
1001
ACAD
1000
MTEXTBEGIN
1070
    73
1070
     1
1070
    44
1040
1.0
1070
    74
1070
     0
1000
MTEXTEND
  0
INSERT
  5
BC3B
330
B1A4
100
AcDbEntity
  8
実形
 62
     0
370
    18
100
AcDbBlockReference
  2
_Dot
 10
2112.606628050362
 20
499.0001671234741
 30
0.0
 41
10.0
 42
10.0
 43
10.0
 50
270.0
  0
INSERT
  5
BC3C
330
B1A4
100
AcDbEntity
  8
実形
 62
     0
370
    18
100
AcDbBlockReference
  2
_Dot
 10
2112.606628050362
 20
704.0001671234741
 30
0.0
 41
10.0
 42
10.0
 43
10.0
 50
90.0
  0
POINT
  5
BC3D
330
B1A4
100
AcDbEntity
  8
Defpoints
 62
     0
100
AcDbPoint
 10
1926.426104097874
 20
499.0001671234741
 30
0.0
  0
POINT
  5
BC3E
330
B1A4
100
AcDbEntity
  8
Defpoints
 62
     0
100
AcDbPoint
 10
1925.17692762124
 20
704.0001671234741
 30
0.0
  0
POINT
  5
BC3F
330
B1A4
100
AcDbEntity
  8
Defpoints
 62
     0
100
AcDbPoint
 10
2112.606628050362
 20
704.0001671234741
 30
0.0
  0
ENDBLK
  5
B1AF
330
B1A4
100
AcDbEntity
  8
0
 62
     3
100
AcDbBlockEnd
  0
BLOCK
  5
B1E8
330
B1DE
100
AcDbEntity
  8
0
 62
     3
100
AcDbBlockBegin
  2
*D85
 70
     1
 10
0.0
 20
0.0
 30
0.0
  3
*D85
  1

  0
LINE
  5
BA1F
330
B1DE
100
AcDbEntity
  8
実形
 62
     0
370
    18
100
AcDbLine
 10
2114.433687459692
 20
704.0001671234741
 30
0.0
 11
2172.948307512656
 21
704.0001671234741
 31
0.0
  0
LINE
  5
BA20
330
B1DE
100
AcDbEntity
  8
実形
 62
     0
370
    18
100
AcDbLine
 10
2114.433687459692
 20
499.0001671234741
 30
0.0
 11
2172.948307512656
 21
499.0001671234741
 31
0.0
  0
LINE
  5
BA21
330
B1DE
100
AcDbEntity
  8
実形
 62
     0
370
    18
100
AcDbLine
 10
2172.948307512656
 20
694.0001671234742
 30
0.0
 11
2172.948307512656
 21
509.000167123474
 31
0.0
  0
INSERT
  5
BA22
330
B1DE
100
AcDbEntity
  8
実形
 62
     0
370
    18
100
AcDbBlockReference
  2
_Dot
 10
2172.948307512656
 20
704.0001671234741
 30
0.0
 41
10.0
 42
10.0
 43
10.0
 50
90.0
  0
INSERT
  5
BA23
330
B1DE
100
AcDbEntity
  8
実形
 62
     0
370
    18
100
AcDbBlockReference
  2
_Dot
 10
2172.948307512656
 20
499.0001671234741
 30
0.0
 41
10.0
 42
10.0
 43
10.0
 50
270.0
  0
MTEXT
  5
BA24
330
B1DE
100
AcDbEntity
  8
実形
 62
     0
100
AcDbMText
 10
2153.848307512656
 20
601.5001671234744
 30
0.0
 40
25.0
 41
0.0
 71
     5
 72
     1
  1
205
 11
0.0000000000000001
 21
1.0
 31
0.0
 73
     1
 44
1.0
1001
ACAD
1000
MTEXTBEGIN
1070
    73
1070
     1
1070
    44
1040
1.0
1070
    74
1070
     0
1000
MTEXTEND
  0
POINT
  5
BA25
330
B1DE
100
AcDbEntity
  8
Defpoints
 62
     0
100
AcDbPoint
 10
2049.433687459692
 20
704.0001671234741
 30
0.0
  0
POINT
  5
BA26
330
B1DE
100
AcDbEntity
  8
Defpoints
 62
     0
100
AcDbPoint
 10
2049.433687459692
 20
499.0001671234741
 30
0.0
  0
POINT
  5
BA27
330
B1DE
100
AcDbEntity
  8
Defpoints
 62
     0
100
AcDbPoint
 10
2172.948307512656
 20
499.0001671234741
 30
0.0
  0
ENDBLK
  5
B1E9
330
B1DE
100
AcDbEntity
  8
0
 62
     3
100
AcDbBlockEnd
  0
BLOCK
  5
B1F5
330
B1EB
100
AcDbEntity
  8
0
 62
     3
100
AcDbBlockBegin
  2
*D86
 70
     1
 10
0.0
 20
0.0
 30
0.0
  3
*D86
  1

  0
LINE
  5
BA16
330
B1EB
100
AcDbEntity
  8
実形
 62
     0
370
    18
100
AcDbLine
 10
2119.515612017556
 20
489.000167123474
 30
0.0
 11
2172.948307512656
 21
489.000167123474
 31
0.0
  0
LINE
  5
BA17
330
B1EB
100
AcDbEntity
  8
実形
 62
     0
370
    18
100
AcDbLine
 10
2114.433687459692
 20
704.0001671234741
 30
0.0
 11
2172.948307512656
 21
704.0001671234741
 31
0.0
  0
LINE
  5
BA18
330
B1EB
100
AcDbEntity
  8
実形
 62
     0
370
    18
100
AcDbLine
 10
2172.948307512656
 20
499.0001671234741
 30
0.0
 11
2172.948307512656
 21
694.0001671234742
 31
0.0
  0
MTEXT
  5
BA19
330
B1EB
100
AcDbEntity
  8
実形
 62
     0
100
AcDbMText
 10
2151.348307512655
 20
468.5337892196021
 30
0.0
 40
25.0
 41
0.0
 71
     5
 72
     1
  1
8
 11
0.0000000000000001
 21
1.0
 31
0.0
 73
     1
 44
1.0
1001
ACAD
1000
MTEXTBEGIN
1070
    73
1070
     1
1070
    44
1040
1.0
1070
    74
1070
     0
1000
MTEXTEND
  0
INSERT
  5
BA1A
330
B1EB
100
AcDbEntity
  8
実形
 62
     0
370
    18
100
AcDbBlockReference
  2
_Dot
 10
2172.948307512656
 20
489.000167123474
 30
0.0
 41
10.0
 42
10.0
 43
10.0
 50
270.0
  0
INSERT
  5
BA1B
330
B1EB
100
AcDbEntity
  8
実形
 62
     0
370
    18
100
AcDbBlockReference
  2
_Dot
 10
2172.948307512656
 20
704.0001671234741
 30
0.0
 41
10.0
 42
10.0
 43
10.0
 50
90.0
  0
POINT
  5
BA1C
330
B1EB
100
AcDbEntity
  8
Defpoints
 62
     0
100
AcDbPoint
 10
2054.515612017556
 20
489.000167123474
 30
0.0
  0
POINT
  5
BA1D
330
B1EB
100
AcDbEntity
  8
Defpoints
 62
     0
100
AcDbPoint
 10
2049.433687459692
 20
704.0001671234741
 30
0.0
  0
POINT
  5
BA1E
330
B1EB
100
AcDbEntity
  8
Defpoints
 62
     0
100
AcDbPoint
 10
2172.948307512656
 20
704.0001671234741
 30
0.0
  0
ENDBLK
  5
B1F6
330
B1EB
100
AcDbEntity
  8
0
 62
     3
100
AcDbBlockEnd
  0
BLOCK
  5
B226
330
B21C
100
AcDbEntity
  8
0
 62
     3
100
AcDbBlockBegin
  2
*D87
 70
     1
 10
0.0
 20
0.0
 30
0.0
  3
*D87
  1

  0
LINE
  5
BA04
330
B21C
100
AcDbEntity
  8
実形
 62
     0
370
    18
100
AcDbLine
 10
2177.606628050362
 20
704.0001671234741
 30
0.0
 11
2239.402692400821
 21
704.0001671234741
 31
0.0
  0
LINE
  5
BA05
330
B21C
100
AcDbEntity
  8
実形
 62
     0
370
    18
100
AcDbLine
 10
2167.314604348543
 20
489.000167123474
 30
0.0
 11
2239.402692400821
 21
489.0001671234739
 31
0.0
  0
LINE
  5
BA06
330
B21C
100
AcDbEntity
  8
実形
 62
     0
370
    18
100
AcDbLine
 10
2239.402692400821
 20
694.0001671234742
 30
0.0
 11
2239.402692400821
 21
499.0001671234739
 31
0.0
  0
MTEXT
  5
BA07
330
B21C
100
AcDbEntity
  8
実形
 62
     0
100
AcDbMText
 10
2217.802692400821
 20
602.7134283621253
 30
0.0
 40
25.0
 41
0.0
 71
     5
 72
     1
  1
213
 11
0.0000000000000001
 21
1.0
 31
0.0
 73
     1
 44
1.0
1001
ACAD
1000
MTEXTBEGIN
1070
    73
1070
     1
1070
    44
1040
1.0
1070
    74
1070
     0
1000
MTEXTEND
  0
INSERT
  5
BA08
330
B21C
100
AcDbEntity
  8
実形
 62
     0
370
    18
100
AcDbBlockReference
  2
_Dot
 10
2239.402692400821
 20
704.0001671234741
 30
0.0
 41
10.0
 42
10.0
 43
10.0
 50
90.0
  0
INSERT
  5
BA09
330
B21C
100
AcDbEntity
  8
実形
 62
     0
370
    18
100
AcDbBlockReference
  2
_Dot
 10
2239.402692400821
 20
489.0001671234739
 30
0.0
 41
10.0
 42
10.0
 43
10.0
 50
270.0
  0
POINT
  5
BA0A
330
B21C
100
AcDbEntity
  8
Defpoints
 62
     0
100
AcDbPoint
 10
2112.606628050362
 20
704.0001671234741
 30
0.0
  0
POINT
  5
BA0B
330
B21C
100
AcDbEntity
  8
Defpoints
 62
     0
100
AcDbPoint
 10
2102.314604348543
 20
489.000167123474
 30
0.0
  0
POINT
  5
BA0C
330
B21C
100
AcDbEntity
  8
Defpoints
 62
     0
100
AcDbPoint
 10
2239.402692400821
 20
489.0001671234739
 30
0.0
  0
ENDBLK
  5
B227
330
B21C
100
AcDbEntity
  8
0
 62
     3
100
AcDbBlockEnd
  0
BLOCK
  5
B31F
330
B315
100
AcDbEntity
  8
0
 62
     3
100
AcDbBlockBegin
  2
*D88
 70
     1
 10
0.0
 20
0.0
 30
0.0
  3
*D88
  1

  0
LINE
  5
BBE2
330
B315
100
AcDbEntity
  8
実形
 62
     0
370
    18
100
AcDbLine
 10
1081.778583891149
 20
704.000167123474
 30
0.0
 11
1028.158124430463
 21
704.000167123474
 31
0.0
  0
LINE
  5
BBE3
330
B315
100
AcDbEntity
  8
実形
 62
     0
370
    18
100
AcDbLine
 10
1081.778583891149
 20
511.6797121772306
 30
0.0
 11
1028.158124430463
 21
511.6797121772306
 31
0.0
  0
LINE
  5
BBE4
330
B315
100
AcDbEntity
  8
実形
 62
     0
370
    18
100
AcDbLine
 10
1028.158124430463
 20
694.000167123474
 30
0.0
 11
1028.158124430463
 21
521.6797121772307
 31
0.0
  0
MTEXT
  5
BBE5
330
B315
100
AcDbEntity
  8
実形
 62
     0
100
AcDbMText
 10
1006.896607780165
 20
594.2848038673036
 30
0.0
 40
25.0
 41
0.0
 71
     5
 72
     1
  1
180
 11
0.0000000000000001
 21
1.0
 31
0.0
 73
     1
 44
1.0
1001
ACAD
1000
MTEXTBEGIN
1070
    73
1070
     1
1070
    44
1040
1.0
1070
    74
1070
     0
1000
MTEXTEND
  0
INSERT
  5
BBE6
330
B315
100
AcDbEntity
  8
実形
 62
     0
370
    18
100
AcDbBlockReference
  2
_Dot
 10
1028.158124430463
 20
704.000167123474
 30
0.0
 41
10.0
 42
10.0
 43
10.0
 50
90.0
  0
INSERT
  5
BBE7
330
B315
100
AcDbEntity
  8
実形
 62
     0
370
    18
100
AcDbBlockReference
  2
_Dot
 10
1028.158124430463
 20
511.6797121772306
 30
0.0
 41
10.0
 42
10.0
 43
10.0
 50
270.0
  0
POINT
  5
BBE8
330
B315
100
AcDbEntity
  8
Defpoints
 62
     0
100
AcDbPoint
 10
1146.778583891149
 20
704.000167123474
 30
0.0
  0
POINT
  5
BBE9
330
B315
100
AcDbEntity
  8
Defpoints
 62
     0
100
AcDbPoint
 10
1146.778583891149
 20
511.6797121772306
 30
0.0
  0
POINT
  5
BBEA
330
B315
100
AcDbEntity
  8
Defpoints
 62
     0
100
AcDbPoint
 10
1028.158124430463
 20
511.6797121772306
 30
0.0
  0
ENDBLK
  5
B320
330
B315
100
AcDbEntity
  8
0
 62
     3
100
AcDbBlockEnd
  0
BLOCK
  5
B335
330
B32B
100
AcDbEntity
  8
0
 62
     3
100
AcDbBlockBegin
  2
*D89
 70
     1
 10
0.0
 20
0.0
 30
0.0
  3
*D89
  1

  0
LINE
  5
BBEB
330
B32B
100
AcDbEntity
  8
実形
 62
     0
370
    18
100
AcDbLine
 10
1081.778583891149
 20
689.000167123474
 30
0.0
 11
1028.158124430463
 21
689.000167123474
 31
0.0
  0
LINE
  5
BBEC
330
B32B
100
AcDbEntity
  8
実形
 62
     0
370
    18
100
AcDbLine
 10
1081.778583891149
 20
511.6797121772306
 30
0.0
 11
1028.158124430463
 21
511.6797121772306
 31
0.0
  0
LINE
  5
BBED
330
B32B
100
AcDbEntity
  8
実形
 62
     0
370
    18
100
AcDbLine
 10
1028.158124430463
 20
679.000167123474
 30
0.0
 11
1028.158124430463
 21
521.6797121772307
 31
0.0
  0
MTEXT
  5
BBEE
330
B32B
100
AcDbEntity
  8
実形
 62
     0
100
AcDbMText
 10
1006.558124430463
 20
679.6621833501303
 30
0.0
 40
25.0
 41
0.0
 71
     5
 72
     1
  1
15
 11
0.0000000000000001
 21
1.0
 31
0.0
 73
     1
 44
1.0
1001
ACAD
1000
MTEXTBEGIN
1070
    73
1070
     1
1070
    44
1040
1.0
1070
    74
1070
     0
1000
MTEXTEND
  0
INSERT
  5
BBEF
330
B32B
100
AcDbEntity
  8
実形
 62
     0
370
    18
100
AcDbBlockReference
  2
_Dot
 10
1028.158124430463
 20
689.000167123474
 30
0.0
 41
10.0
 42
10.0
 43
10.0
 50
90.0
  0
INSERT
  5
BBF0
330
B32B
100
AcDbEntity
  8
実形
 62
     0
370
    18
100
AcDbBlockReference
  2
_Dot
 10
1028.158124430463
 20
511.6797121772306
 30
0.0
 41
10.0
 42
10.0
 43
10.0
 50
270.0
  0
POINT
  5
BBF1
330
B32B
100
AcDbEntity
  8
Defpoints
 62
     0
100
AcDbPoint
 10
1146.778583891149
 20
689.000167123474
 30
0.0
  0
POINT
  5
BBF2
330
B32B
100
AcDbEntity
  8
Defpoints
 62
     0
100
AcDbPoint
 10
1146.778583891149
 20
511.6797121772306
 30
0.0
  0
POINT
  5
BBF3
330
B32B
100
AcDbEntity
  8
Defpoints
 62
     0
100
AcDbPoint
 10
1028.158124430463
 20
511.6797121772306
 30
0.0
  0
ENDBLK
  5
B336
330
B32B
100
AcDbEntity
  8
0
 62
     3
100
AcDbBlockEnd
  0
BLOCK
  5
B390
330
B386
100
AcDbEntity
  8
0
 62
     3
100
AcDbBlockBegin
  2
*D90
 70
     1
 10
0.0
 20
0.0
 30
0.0
  3
*D90
  1

  0
LINE
  5
BBD9
330
B386
100
AcDbEntity
  8
実形
 62
     0
370
    18
100
AcDbLine
 10
1028.122437781998
 20
704.000167123474
 30
0.0
 11
963.457252010952
 21
704.000167123474
 31
0.0
  0
LINE
  5
BBDA
330
B386
100
AcDbEntity
  8
実形
 62
     0
370
    18
100
AcDbLine
 10
1027.515753729847
 20
511.6797121772306
 30
0.0
 11
963.457252010952
 21
511.6797121772306
 31
0.0
  0
LINE
  5
BBDB
330
B386
100
AcDbEntity
  8
実形
 62
     0
370
    18
100
AcDbLine
 10
963.457252010952
 20
694.000167123474
 30
0.0
 11
963.457252010952
 21
521.6797121772307
 31
0.0
  0
MTEXT
  5
BBDC
330
B386
100
AcDbEntity
  8
実形
 62
     0
100
AcDbMText
 10
942.95675928337
 20
594.2848038673036
 30
0.0
 40
25.0
 41
0.0
 71
     5
 72
     1
  1
195
 11
0.0000000000000001
 21
1.0
 31
0.0
 73
     1
 44
1.0
1001
ACAD
1000
MTEXTBEGIN
1070
    73
1070
     1
1070
    44
1040
1.0
1070
    74
1070
     0
1000
MTEXTEND
  0
INSERT
  5
BBDD
330
B386
100
AcDbEntity
  8
実形
 62
     0
370
    18
100
AcDbBlockReference
  2
_Dot
 10
963.457252010952
 20
704.000167123474
 30
0.0
 41
10.0
 42
10.0
 43
10.0
 50
90.0
  0
INSERT
  5
BBDE
330
B386
100
AcDbEntity
  8
実形
 62
     0
370
    18
100
AcDbBlockReference
  2
_Dot
 10
963.457252010952
 20
511.6797121772306
 30
0.0
 41
10.0
 42
10.0
 43
10.0
 50
270.0
  0
POINT
  5
BBDF
330
B386
100
AcDbEntity
  8
Defpoints
 62
     0
100
AcDbPoint
 10
1093.122437781998
 20
704.000167123474
 30
0.0
  0
POINT
  5
BBE0
330
B386
100
AcDbEntity
  8
Defpoints
 62
     0
100
AcDbPoint
 10
1092.515753729847
 20
511.6797121772306
 30
0.0
  0
POINT
  5
BBE1
330
B386
100
AcDbEntity
  8
Defpoints
 62
     0
100
AcDbPoint
 10
963.457252010952
 20
511.6797121772306
 30
0.0
  0
ENDBLK
  5
B391
330
B386
100
AcDbEntity
  8
0
 62
     3
100
AcDbBlockEnd
  0
BLOCK
  5
B3EE
330
B3E4
100
AcDbEntity
  8
0
 62
     3
100
AcDbBlockBegin
  2
*D91
 70
     1
 10
0.0
 20
0.0
 30
0.0
  3
*D91
  1

  0
LINE
  5
BC20
330
B3E4
100
AcDbEntity
  8
実形
 62
     0
370
    18
100
AcDbLine
 10
1009.674160039563
 20
704.000167123474
 30
0.0
 11
963.457252010952
 21
704.000167123474
 31
0.0
  0
LINE
  5
BC21
330
B3E4
100
AcDbEntity
  8
実形
 62
     0
370
    18
100
AcDbLine
 10
1081.365517132921
 20
499.0001671234741
 30
0.0
 11
963.457252010952
 21
499.0001671234741
 31
0.0
  0
LINE
  5
BC22
330
B3E4
100
AcDbEntity
  8
実形
 62
     0
370
    18
100
AcDbLine
 10
963.457252010952
 20
694.000167123474
 30
0.0
 11
963.457252010952
 21
509.000167123474
 31
0.0
  0
MTEXT
  5
BC23
330
B3E4
100
AcDbEntity
  8
実形
 62
     0
100
AcDbMText
 10
941.3306498114453
 20
520.5949990430763
 30
0.0
 40
25.0
 41
0.0
 71
     5
 72
     1
  1
10
 11
0.0000000000000001
 21
1.0
 31
0.0
 73
     1
 44
1.0
1001
ACAD
1000
MTEXTBEGIN
1070
    73
1070
     1
1070
    44
1040
1.0
1070
    74
1070
     0
1000
MTEXTEND
  0
INSERT
  5
BC24
330
B3E4
100
AcDbEntity
  8
実形
 62
     0
370
    18
100
AcDbBlockReference
  2
_Dot
 10
963.457252010952
 20
704.000167123474
 30
0.0
 41
10.0
 42
10.0
 43
10.0
 50
90.0
  0
INSERT
  5
BC25
330
B3E4
100
AcDbEntity
  8
実形
 62
     0
370
    18
100
AcDbBlockReference
  2
_Dot
 10
963.457252010952
 20
499.0001671234741
 30
0.0
 41
10.0
 42
10.0
 43
10.0
 50
270.0
  0
POINT
  5
BC26
330
B3E4
100
AcDbEntity
  8
Defpoints
 62
     0
100
AcDbPoint
 10
1074.674160039563
 20
704.000167123474
 30
0.0
  0
POINT
  5
BC27
330
B3E4
100
AcDbEntity
  8
Defpoints
 62
     0
100
AcDbPoint
 10
1146.365517132921
 20
499.0001671234741
 30
0.0
  0
POINT
  5
BC28
330
B3E4
100
AcDbEntity
  8
Defpoints
 62
     0
100
AcDbPoint
 10
963.457252010952
 20
499.0001671234741
 30
0.0
  0
ENDBLK
  5
B3EF
330
B3E4
100
AcDbEntity
  8
0
 62
     3
100
AcDbBlockEnd
  0
BLOCK
  5
B40D
330
B403
100
AcDbEntity
  8
0
 62
     3
100
AcDbBlockBegin
  2
*D92
 70
     1
 10
0.0
 20
0.0
 30
0.0
  3
*D92
  1

  0
LINE
  5
BBBE
330
B403
100
AcDbEntity
  8
実形
 62
     0
370
    18
100
AcDbLine
 10
1009.674160039563
 20
704.000167123474
 30
0.0
 11
900.3928866407877
 21
704.000167123474
 31
0.0
  0
LINE
  5
BBBF
330
B403
100
AcDbEntity
  8
実形
 62
     0
370
    18
100
AcDbLine
 10
1009.674160039564
 20
499.0001671234741
 30
0.0
 11
900.3928866407877
 21
499.0001671234741
 31
0.0
  0
LINE
  5
BBC0
330
B403
100
AcDbEntity
  8
実形
 62
     0
370
    18
100
AcDbLine
 10
900.3928866407877
 20
694.000167123474
 30
0.0
 11
900.3928866407877
 21
509.000167123474
 31
0.0
  0
MTEXT
  5
BBC1
330
B403
100
AcDbEntity
  8
実形
 62
     0
100
AcDbMText
 10
878.7928866407876
 20
595.9870131360512
 30
0.0
 40
25.0
 41
0.0
 71
     5
 72
     1
  1
205
 11
0.0000000000000001
 21
1.0
 31
0.0
 73
     1
 44
1.0
1001
ACAD
1000
MTEXTBEGIN
1070
    73
1070
     1
1070
    44
1040
1.0
1070
    74
1070
     0
1000
MTEXTEND
  0
INSERT
  5
BBC2
330
B403
100
AcDbEntity
  8
実形
 62
     0
370
    18
100
AcDbBlockReference
  2
_Dot
 10
900.3928866407877
 20
704.000167123474
 30
0.0
 41
10.0
 42
10.0
 43
10.0
 50
90.0
  0
INSERT
  5
BBC3
330
B403
100
AcDbEntity
  8
実形
 62
     0
370
    18
100
AcDbBlockReference
  2
_Dot
 10
900.3928866407877
 20
499.0001671234741
 30
0.0
 41
10.0
 42
10.0
 43
10.0
 50
270.0
  0
POINT
  5
BBC4
330
B403
100
AcDbEntity
  8
Defpoints
 62
     0
100
AcDbPoint
 10
1074.674160039563
 20
704.000167123474
 30
0.0
  0
POINT
  5
BBC5
330
B403
100
AcDbEntity
  8
Defpoints
 62
     0
100
AcDbPoint
 10
1074.674160039563
 20
499.0001671234741
 30
0.0
  0
POINT
  5
BBC6
330
B403
100
AcDbEntity
  8
Defpoints
 62
     0
100
AcDbPoint
 10
900.3928866407877
 20
499.0001671234741
 30
0.0
  0
ENDBLK
  5
B40E
330
B403
100
AcDbEntity
  8
0
 62
     3
100
AcDbBlockEnd
  0
BLOCK
  5
B41A
330
B410
100
AcDbEntity
  8
0
 62
     3
100
AcDbBlockBegin
  2
*D93
 70
     1
 10
0.0
 20
0.0
 30
0.0
  3
*D93
  1

  0
LINE
  5
BD15
330
B410
100
AcDbEntity
  8
実形
 62
     0
370
    18
100
AcDbLine
 10
964.1301289011481
 20
489.000167123474
 30
0.0
 11
900.3928866407877
 21
489.000167123474
 31
0.0
  0
LINE
  5
BD16
330
B410
100
AcDbEntity
  8
実形
 62
     0
370
    18
100
AcDbLine
 10
1009.674160039563
 20
704.000167123474
 30
0.0
 11
900.3928866407877
 21
704.000167123474
 31
0.0
  0
LINE
  5
BD17
330
B410
100
AcDbEntity
  8
実形
 62
     0
370
    18
100
AcDbLine
 10
900.3928866407877
 20
499.0001671234741
 30
0.0
 11
900.3928866407877
 21
694.000167123474
 31
0.0
  0
MTEXT
  5
BD18
330
B410
100
AcDbEntity
  8
実形
 62
     0
100
AcDbMText
 10
878.7928866407876
 20
507.1562140838832
 30
0.0
 40
25.0
 41
0.0
 71
     5
 72
     1
  1
10
 11
0.0000000000000001
 21
1.0
 31
0.0
 73
     1
 44
1.0
1001
ACAD
1000
MTEXTBEGIN
1070
    73
1070
     1
1070
    44
1040
1.0
1070
    74
1070
     0
1000
MTEXTEND
  0
INSERT
  5
BD19
330
B410
100
AcDbEntity
  8
実形
 62
     0
370
    18
100
AcDbBlockReference
  2
_Dot
 10
900.3928866407877
 20
489.000167123474
 30
0.0
 41
10.0
 42
10.0
 43
10.0
 50
270.0
  0
INSERT
  5
BD1A
330
B410
100
AcDbEntity
  8
実形
 62
     0
370
    18
100
AcDbBlockReference
  2
_Dot
 10
900.3928866407877
 20
704.000167123474
 30
0.0
 41
10.0
 42
10.0
 43
10.0
 50
90.0
  0
POINT
  5
BD1B
330
B410
100
AcDbEntity
  8
Defpoints
 62
     0
100
AcDbPoint
 10
1029.130128901148
 20
489.000167123474
 30
0.0
  0
POINT
  5
BD1C
330
B410
100
AcDbEntity
  8
Defpoints
 62
     0
100
AcDbPoint
 10
1074.674160039563
 20
704.000167123474
 30
0.0
  0
POINT
  5
BD1D
330
B410
100
AcDbEntity
  8
Defpoints
 62
     0
100
AcDbPoint
 10
900.3928866407877
 20
704.000167123474
 30
0.0
  0
ENDBLK
  5
B41B
330
B410
100
AcDbEntity
  8
0
 62
     3
100
AcDbBlockEnd
  0
BLOCK
  5
B478
330
B46E
100
AcDbEntity
  8
0
 62
     3
100
AcDbBlockBegin
  2
*D94
 70
     1
 10
0.0
 20
0.0
 30
0.0
  3
*D94
  1

  0
LINE
  5
BD0C
330
B46E
100
AcDbEntity
  8
実形
 62
     0
370
    18
100
AcDbLine
 10
1009.674160039563
 20
704.000167123474
 30
0.0
 11
838.7955345751397
 21
704.000167123474
 31
0.0
  0
LINE
  5
BD0D
330
B46E
100
AcDbEntity
  8
実形
 62
     0
370
    18
100
AcDbLine
 10
893.7414376739361
 20
489.0001671234741
 30
0.0
 11
838.7955345751397
 21
489.0001671234741
 31
0.0
  0
LINE
  5
BD0E
330
B46E
100
AcDbEntity
  8
実形
 62
     0
370
    18
100
AcDbLine
 10
838.7955345751397
 20
694.000167123474
 30
0.0
 11
838.7955345751397
 21
499.0001671234741
 31
0.0
  0
INSERT
  5
BD0F
330
B46E
100
AcDbEntity
  8
実形
 62
     0
370
    18
100
AcDbBlockReference
  2
_Dot
 10
838.7955345751397
 20
704.000167123474
 30
0.0
 41
10.0
 42
10.0
 43
10.0
 50
90.0
  0
INSERT
  5
BD10
330
B46E
100
AcDbEntity
  8
実形
 62
     0
370
    18
100
AcDbBlockReference
  2
_Dot
 10
838.7955345751397
 20
489.0001671234741
 30
0.0
 41
10.0
 42
10.0
 43
10.0
 50
270.0
  0
MTEXT
  5
BD11
330
B46E
100
AcDbEntity
  8
実形
 62
     0
100
AcDbMText
 10
819.6955345751396
 20
596.5001671234743
 30
0.0
 40
25.0
 41
0.0
 71
     5
 72
     1
  1
215
 11
0.0000000000000001
 21
1.0
 31
0.0
 73
     1
 44
1.0
1001
ACAD
1000
MTEXTBEGIN
1070
    73
1070
     1
1070
    44
1040
1.0
1070
    74
1070
     0
1000
MTEXTEND
  0
POINT
  5
BD12
330
B46E
100
AcDbEntity
  8
Defpoints
 62
     0
100
AcDbPoint
 10
1074.674160039563
 20
704.000167123474
 30
0.0
  0
POINT
  5
BD13
330
B46E
100
AcDbEntity
  8
Defpoints
 62
     0
100
AcDbPoint
 10
958.7414376739362
 20
489.0001671234741
 30
0.0
  0
POINT
  5
BD14
330
B46E
100
AcDbEntity
  8
Defpoints
 62
     0
100
AcDbPoint
 10
838.7955345751397
 20
489.0001671234741
 30
0.0
  0
ENDBLK
  5
B479
330
B46E
100
AcDbEntity
  8
0
 62
     3
100
AcDbBlockEnd
  0
BLOCK
  5
B5DD
330
B5D3
100
AcDbEntity
  8
0
 62
     3
100
AcDbBlockBegin
  2
*D95
 70
     1
 10
0.0
 20
0.0
 30
0.0
  3
*D95
  1

  0
LINE
  5
BB3C
330
B5D3
100
AcDbEntity
  8
実形
 62
     0
370
    18
100
AcDbLine
 10
844.7671868131296
 20
1160.007020403607
 30
0.0
 11
844.7671868131296
 21
1102.831715328229
 31
0.0
  0
LINE
  5
BB3D
330
B5D3
100
AcDbEntity
  8
実形
 62
     0
370
    18
100
AcDbLine
 10
1025.049530060688
 20
1161.032806975332
 30
0.0
 11
1025.049530060688
 21
1102.831715328229
 31
0.0
  0
LINE
  5
BB3E
330
B5D3
100
AcDbEntity
  8
実形
 62
     0
370
    18
100
AcDbLine
 10
854.7671868131297
 20
1102.831715328229
 30
0.0
 11
1015.049530060688
 21
1102.831715328229
 31
0.0
  0
MTEXT
  5
BB3F
330
B5D3
100
AcDbEntity
  8
実形
 62
     0
100
AcDbMText
 10
928.1009593463059
 20
1123.817100943412
 30
0.0
 40
25.0
 41
0.0
 71
     5
 72
     1
  1
180
 73
     1
 44
1.0
1001
ACAD
1000
MTEXTBEGIN
1070
    73
1070
     1
1070
    44
1040
1.0
1070
    74
1070
     0
1000
MTEXTEND
  0
INSERT
  5
BB40
330
B5D3
100
AcDbEntity
  8
実形
 62
     0
370
    18
100
AcDbBlockReference
  2
_Dot
 10
844.7671868131296
 20
1102.831715328229
 30
0.0
 41
10.0
 42
10.0
 43
10.0
 50
180.0
  0
INSERT
  5
BB41
330
B5D3
100
AcDbEntity
  8
実形
 62
     0
370
    18
100
AcDbBlockReference
  2
_Dot
 10
1025.049530060688
 20
1102.831715328229
 30
0.0
 41
10.0
 42
10.0
 43
10.0
  0
POINT
  5
BB42
330
B5D3
100
AcDbEntity
  8
Defpoints
 62
     0
100
AcDbPoint
 10
844.7671868131296
 20
1225.007020403607
 30
0.0
  0
POINT
  5
BB43
330
B5D3
100
AcDbEntity
  8
Defpoints
 62
     0
100
AcDbPoint
 10
1025.049530060688
 20
1226.032806975332
 30
0.0
  0
POINT
  5
BB44
330
B5D3
100
AcDbEntity
  8
Defpoints
 62
     0
100
AcDbPoint
 10
1025.049530060688
 20
1102.831715328229
 30
0.0
  0
ENDBLK
  5
B5DE
330
B5D3
100
AcDbEntity
  8
0
 62
     3
100
AcDbBlockEnd
  0
BLOCK
  5
B5F3
330
B5E9
100
AcDbEntity
  8
0
 62
     3
100
AcDbBlockBegin
  2
*D96
 70
     1
 10
0.0
 20
0.0
 30
0.0
  3
*D96
  1

  0
LINE
  5
BA70
330
B5E9
100
AcDbEntity
  8
実形
 62
     0
370
    18
100
AcDbLine
 10
844.7671868131296
 20
1143.455110745327
 30
0.0
 11
844.7671868131296
 21
1102.831715328229
 31
0.0
  0
LINE
  5
BA71
330
B5E9
100
AcDbEntity
  8
実形
 62
     0
370
    18
100
AcDbLine
 10
1040.049530060689
 20
1143.455110745327
 30
0.0
 11
1040.049530060689
 21
1102.831715328229
 31
0.0
  0
LINE
  5
BA72
330
B5E9
100
AcDbEntity
  8
実形
 62
     0
370
    18
100
AcDbLine
 10
854.7671868131297
 20
1102.831715328229
 30
0.0
 11
1030.049530060689
 21
1102.831715328229
 31
0.0
  0
MTEXT
  5
BA73
330
B5E9
100
AcDbEntity
  8
実形
 62
     0
100
AcDbMText
 10
996.9452299900659
 20
1124.431715328229
 30
0.0
 40
25.0
 41
0.0
 71
     5
 72
     1
  1
15
 73
     1
 44
1.0
1001
ACAD
1000
MTEXTBEGIN
1070
    73
1070
     1
1070
    44
1040
1.0
1070
    74
1070
     0
1000
MTEXTEND
  0
INSERT
  5
BA74
330
B5E9
100
AcDbEntity
  8
実形
 62
     0
370
    18
100
AcDbBlockReference
  2
_Dot
 10
844.7671868131296
 20
1102.831715328229
 30
0.0
 41
10.0
 42
10.0
 43
10.0
 50
180.0
  0
INSERT
  5
BA75
330
B5E9
100
AcDbEntity
  8
実形
 62
     0
370
    18
100
AcDbBlockReference
  2
_Dot
 10
1040.049530060689
 20
1102.831715328229
 30
0.0
 41
10.0
 42
10.0
 43
10.0
  0
POINT
  5
BA76
330
B5E9
100
AcDbEntity
  8
Defpoints
 62
     0
100
AcDbPoint
 10
844.7671868131296
 20
1208.455110745327
 30
0.0
  0
POINT
  5
BA77
330
B5E9
100
AcDbEntity
  8
Defpoints
 62
     0
100
AcDbPoint
 10
1040.049530060689
 20
1208.455110745327
 30
0.0
  0
POINT
  5
BA78
330
B5E9
100
AcDbEntity
  8
Defpoints
 62
     0
100
AcDbPoint
 10
1040.049530060689
 20
1102.831715328229
 30
0.0
  0
ENDBLK
  5
B5F4
330
B5E9
100
AcDbEntity
  8
0
 62
     3
100
AcDbBlockEnd
  0
BLOCK
  5
B625
330
B61B
100
AcDbEntity
  8
0
 62
     3
100
AcDbBlockBegin
  2
*D97
 70
     1
 10
0.0
 20
0.0
 30
0.0
  3
*D97
  1

  0
LINE
  5
BADF
330
B61B
100
AcDbEntity
  8
実形
 62
     0
370
    18
100
AcDbLine
 10
844.7671868131296
 20
1140.02973926333
 30
0.0
 11
844.7671868131296
 21
1048.163455056094
 31
0.0
  0
LINE
  5
BAE0
330
B61B
100
AcDbEntity
  8
実形
 62
     0
370
    18
100
AcDbLine
 10
1040.049530060689
 20
1140.02973926333
 30
0.0
 11
1040.049530060689
 21
1048.163455056094
 31
0.0
  0
LINE
  5
BAE1
330
B61B
100
AcDbEntity
  8
実形
 62
     0
370
    18
100
AcDbLine
 10
854.7671868131297
 20
1048.163455056094
 30
0.0
 11
890.8774202160492
 21
1048.163455056094
 31
0.0
  0
LINE
  5
BAE2
330
B61B
100
AcDbEntity
  8
実形
 62
     0
370
    18
100
AcDbLine
 10
1030.049530060689
 20
1048.163455056094
 30
0.0
 11
962.4107535493823
 21
1048.163455056094
 31
0.0
  0
MTEXT
  5
BAE3
330
B61B
100
AcDbEntity
  8
実形
 62
     0
100
AcDbMText
 10
926.6440868827158
 20
1066.839984000016
 30
0.0
 40
25.0
 41
0.0
 71
     5
 72
     1
  1
195
 73
     1
 44
1.0
1001
ACAD
1000
MTEXTBEGIN
1070
    73
1070
     1
1070
    44
1040
1.0
1070
    74
1070
     0
1000
MTEXTEND
  0
INSERT
  5
BAE4
330
B61B
100
AcDbEntity
  8
実形
 62
     0
370
    18
100
AcDbBlockReference
  2
_Dot
 10
844.7671868131296
 20
1048.163455056094
 30
0.0
 41
10.0
 42
10.0
 43
10.0
 50
180.0
  0
INSERT
  5
BAE5
330
B61B
100
AcDbEntity
  8
実形
 62
     0
370
    18
100
AcDbBlockReference
  2
_Dot
 10
1040.049530060689
 20
1048.163455056094
 30
0.0
 41
10.0
 42
10.0
 43
10.0
  0
POINT
  5
BAE6
330
B61B
100
AcDbEntity
  8
Defpoints
 62
     0
100
AcDbPoint
 10
844.7671868131296
 20
1205.02973926333
 30
0.0
  0
POINT
  5
BAE7
330
B61B
100
AcDbEntity
  8
Defpoints
 62
     0
100
AcDbPoint
 10
1040.049530060689
 20
1205.02973926333
 30
0.0
  0
POINT
  5
BAE8
330
B61B
100
AcDbEntity
  8
Defpoints
 62
     0
100
AcDbPoint
 10
1040.049530060689
 20
1048.163455056094
 30
0.0
  0
ENDBLK
  5
B626
330
B61B
100
AcDbEntity
  8
0
 62
     3
100
AcDbBlockEnd
  0
BLOCK
  5
B63B
330
B631
100
AcDbEntity
  8
0
 62
     3
100
AcDbBlockBegin
  2
*D98
 70
     1
 10
0.0
 20
0.0
 30
0.0
  3
*D98
  1

  0
LINE
  5
BB32
330
B631
100
AcDbEntity
  8
実形
 62
     0
370
    18
100
AcDbLine
 10
835.049530060689
 20
1160.468429581708
 30
0.0
 11
835.049530060689
 21
1048.163455056094
 31
0.0
  0
LINE
  5
BB33
330
B631
100
AcDbEntity
  8
実形
 62
     0
370
    18
100
AcDbLine
 10
1040.049530060689
 20
1140.02973926333
 30
0.0
 11
1040.049530060689
 21
1048.163455056094
 31
0.0
  0
LINE
  5
BB34
330
B631
100
AcDbEntity
  8
実形
 62
     0
370
    18
100
AcDbLine
 10
845.049530060689
 20
1048.163455056094
 30
0.0
 11
1030.049530060689
 21
1048.163455056094
 31
0.0
  0
MTEXT
  5
BB35
330
B631
100
AcDbEntity
  8
実形
 62
     0
100
AcDbMText
 10
806.3291183147958
 20
1069.763455056094
 30
0.0
 40
25.0
 41
0.0
 71
     5
 72
     1
  1
10
 73
     1
 44
1.0
1001
ACAD
1000
MTEXTBEGIN
1070
    73
1070
     1
1070
    44
1040
1.0
1070
    74
1070
     0
1000
MTEXTEND
  0
INSERT
  5
BB36
330
B631
100
AcDbEntity
  8
実形
 62
     0
370
    18
100
AcDbBlockReference
  2
_Dot
 10
835.049530060689
 20
1048.163455056094
 30
0.0
 41
10.0
 42
10.0
 43
10.0
 50
180.0
  0
INSERT
  5
BB37
330
B631
100
AcDbEntity
  8
実形
 62
     0
370
    18
100
AcDbBlockReference
  2
_Dot
 10
1040.049530060689
 20
1048.163455056094
 30
0.0
 41
10.0
 42
10.0
 43
10.0
  0
POINT
  5
BB38
330
B631
100
AcDbEntity
  8
Defpoints
 62
     0
100
AcDbPoint
 10
835.049530060689
 20
1225.468429581708
 30
0.0
  0
POINT
  5
BB39
330
B631
100
AcDbEntity
  8
Defpoints
 62
     0
100
AcDbPoint
 10
1040.049530060689
 20
1205.02973926333
 30
0.0
  0
POINT
  5
BB3A
330
B631
100
AcDbEntity
  8
Defpoints
 62
     0
100
AcDbPoint
 10
1040.049530060689
 20
1048.163455056094
 30
0.0
  0
ENDBLK
  5
B63C
330
B631
100
AcDbEntity
  8
0
 62
     3
100
AcDbBlockEnd
  0
BLOCK
  5
B67E
330
B674
100
AcDbEntity
  8
0
 62
     3
100
AcDbBlockBegin
  2
*D99
 70
     1
 10
0.0
 20
0.0
 30
0.0
  3
*D99
  1

  0
LINE
  5
BAF2
330
B674
100
AcDbEntity
  8
実形
 62
     0
370
    18
100
AcDbLine
 10
835.049530060689
 20
1054.514130823023
 30
0.0
 11
835.049530060689
 21
993.7438109687882
 31
0.0
  0
LINE
  5
BAF3
330
B674
100
AcDbEntity
  8
実形
 62
     0
370
    18
100
AcDbLine
 10
1040.049530060689
 20
1075.02973926333
 30
0.0
 11
1040.049530060689
 21
993.7438109687882
 31
0.0
  0
LINE
  5
BAF4
330
B674
100
AcDbEntity
  8
実形
 62
     0
370
    18
100
AcDbLine
 10
845.049530060689
 20
993.7438109687882
 30
0.0
 11
1030.049530060689
 21
993.7438109687882
 31
0.0
  0
MTEXT
  5
BAF5
330
B674
100
AcDbEntity
  8
実形
 62
     0
100
AcDbMText
 10
926.6440868827158
 20
1012.843810968788
 30
0.0
 40
25.0
 41
0.0
 71
     5
 72
     1
  1
205
 73
     1
 44
1.0
1001
ACAD
1000
MTEXTBEGIN
1070
    73
1070
     1
1070
    44
1040
1.0
1070
    74
1070
     0
1000
MTEXTEND
  0
INSERT
  5
BAF6
330
B674
100
AcDbEntity
  8
実形
 62
     0
370
    18
100
AcDbBlockReference
  2
_Dot
 10
835.049530060689
 20
993.7438109687882
 30
0.0
 41
10.0
 42
10.0
 43
10.0
 50
180.0
  0
INSERT
  5
BAF7
330
B674
100
AcDbEntity
  8
実形
 62
     0
370
    18
100
AcDbBlockReference
  2
_Dot
 10
1040.049530060689
 20
993.7438109687882
 30
0.0
 41
10.0
 42
10.0
 43
10.0
  0
POINT
  5
BAF8
330
B674
100
AcDbEntity
  8
Defpoints
 62
     0
100
AcDbPoint
 10
835.049530060689
 20
1119.514130823023
 30
0.0
  0
POINT
  5
BAF9
330
B674
100
AcDbEntity
  8
Defpoints
 62
     0
100
AcDbPoint
 10
1040.049530060689
 20
1140.02973926333
 30
0.0
  0
POINT
  5
BAFA
330
B674
100
AcDbEntity
  8
Defpoints
 62
     0
100
AcDbPoint
 10
1040.049530060689
 20
993.7438109687882
 30
0.0
  0
ENDBLK
  5
B67F
330
B674
100
AcDbEntity
  8
0
 62
     3
100
AcDbBlockEnd
  0
BLOCK
  5
B694
330
B68A
100
AcDbEntity
  8
0
 62
     3
100
AcDbBlockBegin
  2
*D100
 70
     1
 10
0.0
 20
0.0
 30
0.0
  3
*D100
  1

  0
LINE
  5
BD43
330
B68A
100
AcDbEntity
  8
実形
 62
     0
370
    18
100
AcDbLine
 10
825.0495300606887
 20
1044.485281935058
 30
0.0
 11
825.0495300606887
 21
993.7438109687882
 31
0.0
  0
LINE
  5
BD44
330
B68A
100
AcDbEntity
  8
実形
 62
     0
370
    18
100
AcDbLine
 10
1040.049530060689
 20
1161.032806975332
 30
0.0
 11
1040.049530060689
 21
993.7438109687882
 31
0.0
  0
LINE
  5
BD45
330
B68A
100
AcDbEntity
  8
実形
 62
     0
370
    18
100
AcDbLine
 10
835.0495300606887
 20
993.7438109687882
 30
0.0
 11
1030.049530060689
 21
993.7438109687882
 31
0.0
  0
MTEXT
  5
BD46
330
B68A
100
AcDbEntity
  8
実形
 62
     0
100
AcDbMText
 10
802.1588823752608
 20
1015.343810968788
 30
0.0
 40
25.0
 41
0.0
 71
     5
 72
     1
  1
10
 73
     1
 44
1.0
1001
ACAD
1000
MTEXTBEGIN
1070
    73
1070
     1
1070
    44
1040
1.0
1070
    74
1070
     0
1000
MTEXTEND
  0
INSERT
  5
BD47
330
B68A
100
AcDbEntity
  8
実形
 62
     0
370
    18
100
AcDbBlockReference
  2
_Dot
 10
825.0495300606887
 20
993.7438109687882
 30
0.0
 41
10.0
 42
10.0
 43
10.0
 50
180.0
  0
INSERT
  5
BD48
330
B68A
100
AcDbEntity
  8
実形
 62
     0
370
    18
100
AcDbBlockReference
  2
_Dot
 10
1040.049530060689
 20
993.7438109687882
 30
0.0
 41
10.0
 42
10.0
 43
10.0
  0
POINT
  5
BD49
330
B68A
100
AcDbEntity
  8
Defpoints
 62
     0
100
AcDbPoint
 10
825.0495300606887
 20
1109.485281935058
 30
0.0
  0
POINT
  5
BD4A
330
B68A
100
AcDbEntity
  8
Defpoints
 62
     0
100
AcDbPoint
 10
1040.049530060689
 20
1226.032806975332
 30
0.0
  0
POINT
  5
BD4B
330
B68A
100
AcDbEntity
  8
Defpoints
 62
     0
100
AcDbPoint
 10
1040.049530060689
 20
993.7438109687882
 30
0.0
  0
ENDBLK
  5
B695
330
B68A
100
AcDbEntity
  8
0
 62
     3
100
AcDbBlockEnd
  0
BLOCK
  5
B6C5
330
B6BB
100
AcDbEntity
  8
0
 62
     3
100
AcDbBlockBegin
  2
*D101
 70
     1
 10
0.0
 20
0.0
 30
0.0
  3
*D101
  1

  0
LINE
  5
BD4C
330
B6BB
100
AcDbEntity
  8
実形
 62
     0
370
    18
100
AcDbLine
 10
825.0495300606887
 20
1013.018773242103
 30
0.0
 11
825.0495300606887
 21
934.757986241626
 31
0.0
  0
LINE
  5
BD4D
330
B6BB
100
AcDbEntity
  8
実形
 62
     0
370
    18
100
AcDbLine
 10
1040.049530060689
 20
985.6634550560938
 30
0.0
 11
1040.049530060689
 21
934.757986241626
 31
0.0
  0
LINE
  5
BD4E
330
B6BB
100
AcDbEntity
  8
実形
 62
     0
370
    18
100
AcDbLine
 10
835.0495300606887
 20
934.757986241626
 30
0.0
 11
1030.049530060689
 21
934.757986241626
 31
0.0
  0
MTEXT
  5
BD4F
330
B6BB
100
AcDbEntity
  8
実形
 62
     0
100
AcDbMText
 10
926.6440868827158
 20
953.8579862416259
 30
0.0
 40
25.0
 41
0.0
 71
     5
 72
     1
  1
215
 73
     1
 44
1.0
1001
ACAD
1000
MTEXTBEGIN
1070
    73
1070
     1
1070
    44
1040
1.0
1070
    74
1070
     0
1000
MTEXTEND
  0
INSERT
  5
BD50
330
B6BB
100
AcDbEntity
  8
実形
 62
     0
370
    18
100
AcDbBlockReference
  2
_Dot
 10
825.0495300606887
 20
934.757986241626
 30
0.0
 41
10.0
 42
10.0
 43
10.0
 50
180.0
  0
INSERT
  5
BD51
330
B6BB
100
AcDbEntity
  8
実形
 62
     0
370
    18
100
AcDbBlockReference
  2
_Dot
 10
1040.049530060689
 20
934.757986241626
 30
0.0
 41
10.0
 42
10.0
 43
10.0
  0
POINT
  5
BD52
330
B6BB
100
AcDbEntity
  8
Defpoints
 62
     0
100
AcDbPoint
 10
825.0495300606887
 20
1078.018773242104
 30
0.0
  0
POINT
  5
BD53
330
B6BB
100
AcDbEntity
  8
Defpoints
 62
     0
100
AcDbPoint
 10
1040.049530060689
 20
1050.663455056094
 30
0.0
  0
POINT
  5
BD54
330
B6BB
100
AcDbEntity
  8
Defpoints
 62
     0
100
AcDbPoint
 10
1040.049530060689
 20
934.757986241626
 30
0.0
  0
ENDBLK
  5
B6C6
330
B6BB
100
AcDbEntity
  8
0
 62
     3
100
AcDbBlockEnd
  0
ENDSEC
  0
SECTION
  2
ENTITIES
  0
LINE
  5
9C
330
1F
100
AcDbEntity
  8
実形
 62
     0
100
AcDbLine
 10
174.0
 20
3.99999999999909
 30
0.0
 11
2834.0
 21
3.99999999999909
 31
0.0
  0
LINE
  5
A0
330
1F
100
AcDbEntity
  8
枠
 62
     0
100
AcDbLine
 10
2834.0
 20
2023.999999999999
 30
0.0
 11
174.0
 21
2023.999999999999
 31
0.0
  0
LINE
  5
272
330
1F
100
AcDbEntity
  8
実形
 62
     0
100
AcDbLine
 10
2234.0
 20
133.9999999999991
 30
0.0
 11
2234.0
 21
198.9999999999991
 31
0.0
  0
LINE
  5
1B73
330
1F
100
AcDbEntity
  8
枠
 62
     0
100
AcDbLine
 10
1944.0
 20
2023.999999999999
 30
0.0
 11
2834.0
 21
2023.999999999999
 31
0.0
  0
LINE
  5
1B84
330
1F
100
AcDbEntity
  8
実形
 62
     0
100
AcDbLine
 10
2114.0
 20
68.99999999999909
 30
0.0
 11
2834.0
 21
68.99999999999909
 31
0.0
  0
LINE
  5
1B85
330
1F
100
AcDbEntity
  8
実形
 62
     0
100
AcDbLine
 10
2114.0
 20
198.9999999999991
 30
0.0
 11
2834.0
 21
198.9999999999991
 31
0.0
  0
LINE
  5
1B86
330
1F
100
AcDbEntity
  8
実形
 62
     0
100
AcDbLine
 10
2114.0
 20
133.9999999999991
 30
0.0
 11
2834.0
 21
133.9999999999991
 31
0.0
  0
LINE
  5
1B87
330
1F
100
AcDbEntity
  8
実形
 62
     0
100
AcDbLine
 10
2114.0
 20
3.99999999999909
 30
0.0
 11
2114.0
 21
198.9999999999991
 31
0.0
  0
TEXT
  5
1B88
330
1F
100
AcDbEntity
  8
実形
 62
     0
100
AcDbText
 10
2351.409532720431
 20
20.68973922356418
 30
0.0
 40
35.0
  1
中外交易株式会社
  7
ms明朝
 72
     4
 11
2556.209532720431
 21
38.68973922356417
 31
0.0
100
AcDbText
  0
LINE
  5
1B8A
330
1F
100
AcDbEntity
  8
実形
 62
     0
100
AcDbLine
 10
2234.0
 20
68.99999999999909
 30
0.0
 11
2834.0
 21
68.99999999999909
 31
0.0
  0
LINE
  5
1B8B
102
{ACAD_REACTORS
330
1B98
102
}
330
1F
100
AcDbEntity
  8
実形
 62
     0
370
     5
100
AcDbLine
 10
2257.843923164362
 20
40.53787547858428
 30
0.0
 11
2233.255774665348
 21
40.53787547858428
 31
0.0
  0
LINE
  5
1B8C
102
{ACAD_REACTORS
330
1B98
102
}
330
1F
100
AcDbEntity
  8
実形
 62
     0
370
     5
100
AcDbLine
 10
2233.255774665348
 20
40.53787547858428
 30
0.0
 11
2233.255774665348
 21
30.53787547858429
 31
0.0
  0
LINE
  5
1B8D
102
{ACAD_REACTORS
330
1B98
102
}
330
1F
100
AcDbEntity
  8
実形
 62
     0
370
     5
100
AcDbLine
 10
2233.255774665348
 20
30.53787547858429
 30
0.0
 11
2257.346428692676
 21
30.53787547858429
 31
0.0
  0
LINE
  5
1B8E
102
{ACAD_REACTORS
330
1B98
102
}
330
1F
100
AcDbEntity
  8
実形
 62
     0
370
     5
100
AcDbLine
 10
2260.641894042939
 20
56.49999999999909
 30
0.0
 11
2260.641894042939
 21
16.49999999999909
 31
0.0
  0
LINE
  5
1B8F
102
{ACAD_REACTORS
330
1B98
102
}
330
1F
100
AcDbEntity
  8
実形
 62
     0
370
     5
100
AcDbLine
 10
2260.641894042939
 20
16.49999999999909
 30
0.0
 11
2295.641894042939
 21
16.49999999999909
 31
0.0
  0
LINE
  5
1B90
102
{ACAD_REACTORS
330
1B98
102
}
330
1F
100
AcDbEntity
  8
実形
 62
     0
370
     5
100
AcDbLine
 10
2295.641894042939
 20
16.49999999999909
 30
0.0
 11
2260.641894042939
 21
36.49999999999909
 31
0.0
  0
LINE
  5
1B91
102
{ACAD_REACTORS
330
1B98
102
}
330
1F
100
AcDbEntity
  8
実形
 62
     0
370
     5
100
AcDbLine
 10
2260.641894042939
 20
36.49999999999909
 30
0.0
 11
2295.641894042939
 21
56.49999999999909
 31
0.0
  0
LINE
  5
1B92
102
{ACAD_REACTORS
330
1B98
102
}
330
1F
100
AcDbEntity
  8
実形
 62
     0
370
     5
100
AcDbLine
 10
2295.641894042939
 20
56.49999999999909
 30
0.0
 11
2260.641894042939
 21
56.49999999999909
 31
0.0
  0
LINE
  5
1B93
102
{ACAD_REACTORS
330
1B98
102
}
330
1F
100
AcDbEntity
  8
実形
 62
     0
370
     5
100
AcDbLine
 10
2326.75434681301
 20
40.53787547858428
 30
0.0
 11
2302.166198313996
 21
40.53787547858428
 31
0.0
  0
LINE
  5
1B94
102
{ACAD_REACTORS
330
1B98
102
}
330
1F
100
AcDbEntity
  8
実形
 62
     0
370
     5
100
AcDbLine
 10
2302.166198313996
 20
40.53787547858428
 30
0.0
 11
2302.166198313996
 21
30.53787547858429
 31
0.0
  0
LINE
  5
1B95
102
{ACAD_REACTORS
330
1B98
102
}
330
1F
100
AcDbEntity
  8
実形
 62
     0
370
     5
100
AcDbLine
 10
2302.166198313996
 20
30.53787547858429
 30
0.0
 11
2326.256852341323
 21
30.53787547858429
 31
0.0
  0
ARC
  5
1B96
102
{ACAD_REACTORS
330
1B98
102
}
330
1F
100
AcDbEntity
  8
実形
 62
     0
370
     5
100
AcDbCircle
 10
2238.255774665347
 20
36.49999999999909
 30
0.0
 40
20.0
100
AcDbArc
 50
11.64772366708617
 51
342.6561058784773
  0
ARC
  5
1B97
102
{ACAD_REACTORS
330
1B98
102
}
330
1F
100
AcDbEntity
  8
実形
 62
     0
370
     5
100
AcDbCircle
 10
2307.166198313995
 20
36.49999999999909
 30
0.0
 40
20.0
100
AcDbArc
 50
11.64772366708617
 51
342.6561058784773
  0
HATCH
  5
1B98
330
1F
100
AcDbEntity
  8
実形
 62
     0
100
AcDbHatch
 10
0.0
 20
0.0
 30
0.0
210
0.0
220
0.0
230
1.0
  2
SOLID
 70
     1
 71
     1
 91
        3
 92
        1
 93
        4
 72
     2
 10
2307.166198313995
 20
36.49999999999909
 40
20.0
 50
11.64772366708617
 51
342.6561058784773
 73
     1
 72
     1
 10
2326.256852341323
 20
30.53787547858429
 11
2302.166198313996
 21
30.53787547858429
 72
     1
 10
2302.166198313996
 20
30.53787547858429
 11
2302.166198313996
 21
40.53787547858428
 72
     1
 10
2302.166198313996
 20
40.53787547858428
 11
2326.75434681301
 21
40.53787547858428
 97
        4
330
1B97
330
1B95
330
1B94
330
1B93
 92
        1
 93
        4
 72
     2
 10
2238.255774665347
 20
36.49999999999909
 40
20.0
 50
11.64772366708617
 51
342.6561058784773
 73
     1
 72
     1
 10
2257.346428692676
 20
30.53787547858429
 11
2233.255774665348
 21
30.53787547858429
 72
     1
 10
2233.255774665348
 20
30.53787547858429
 11
2233.255774665348
 21
40.53787547858428
 72
     1
 10
2233.255774665348
 20
40.53787547858428
 11
2257.843923164362
 21
40.53787547858428
 97
        4
330
1B96
330
1B8D
330
1B8C
330
1B8B
 92
        1
 93
        5
 72
     1
 10
2295.641894042939
 20
56.49999999999909
 11
2260.641894042939
 21
56.49999999999909
 72
     1
 10
2260.641894042939
 20
56.49999999999909
 11
2260.641894042939
 21
16.49999999999909
 72
     1
 10
2260.641894042939
 20
16.49999999999909
 11
2295.641894042939
 21
16.49999999999909
 72
     1
 10
2295.641894042939
 20
16.49999999999909
 11
2260.641894042939
 21
36.49999999999909
 72
     1
 10
2260.641894042939
 20
36.49999999999909
 11
2295.641894042939
 21
56.49999999999909
 97
        5
330
1B92
330
1B8E
330
1B8F
330
1B90
330
1B91
 75
     0
 76
     1
 98
        1
 10
-10.0
 20
-0.0000000000009095
  0
LINE
  5
1B99
330
1F
100
AcDbEntity
  8
実形
 62
     0
100
AcDbLine
 10
2234.0
 20
68.99999999999909
 30
0.0
 11
2234.0
 21
198.9999999999991
 31
0.0
  0
TEXT
  5
5E5F
330
1F
100
AcDbEntity
  8
実形
 62
     0
100
AcDbText
 10
2136.666666666667
 20
83.99999999999909
 30
0.0
 40
35.0
  1
尺度
 72
     4
 11
2174.0
 21
101.4999999999991
 31
0.0
100
AcDbText
  0
TEXT
  5
5E68
330
1F
100
AcDbEntity
  8
実形
 62
     0
100
AcDbText
 10
2136.666666666667
 20
148.9999999999991
 30
0.0
 40
35.0
  1
品番
 72
     4
 11
2174.0
 21
166.4999999999991
 31
0.0
100
AcDbText
  0
TEXT
  5
68BC
330
1F
100
AcDbEntity
  8
実形
100
AcDbText
 10
2452.398110327865
 20
87.12524385046025
 30
0.0
 40
30.0
  1
1：10
  7
ms明朝
 72
     4
 11
2507.255253185007
 21
101.7823867076031
 31
0.0
100
AcDbText
  0
TEXT
  5
68D6
330
1F
100
AcDbEntity
  8
実形
100
AcDbText
 10
2295.57649435253
 20
151.1737324271812
 30
0.0
 40
30.0
  1
RaS216-524-460DAN-L
  7
ms明朝
 72
     4
 11
2504.033637209673
 21
165.830875284324
 31
0.0
100
AcDbText
  0
LINE
  5
6D9B
330
1F
100
AcDbEntity
  8
実形
 62
     0
100
AcDbLine
 10
2834.0
 20
4.0
 30
0.0
 11
2834.0
 21
2024.0
 31
0.0
  0
LINE
  5
6E31
330
1F
100
AcDbEntity
  8
実形
 62
     0
100
AcDbLine
 10
174.0
 20
2024.0
 30
0.0
 11
174.0
 21
4.0
 31
0.0
  0
LINE
  5
7026
330
1F
100
AcDbEntity
  8
実形
100
AcDbLine
 10
1119.0606249965
 20
1681.889684779005
 30
0.0
 11
1949.0606249965
 21
1681.889684779005
 31
0.0
  0
LINE
  5
7027
330
1F
100
AcDbEntity
  8
実形
100
AcDbLine
 10
1949.0606249965
 20
1681.889684779005
 30
0.0
 11
1949.0606249965
 21
1191.889684779005
 31
0.0
  0
LINE
  5
7028
330
1F
100
AcDbEntity
  8
実形
100
AcDbLine
 10
1949.0606249965
 20
1191.889684779005
 30
0.0
 11
1119.0606249965
 21
1191.889684779005
 31
0.0
  0
LINE
  5
7029
330
1F
100
AcDbEntity
  8
実形
100
AcDbLine
 10
1119.0606249965
 20
1191.889684779005
 30
0.0
 11
1119.0606249965
 21
1681.889684779005
 31
0.0
  0
LINE
  5
702A
330
1F
100
AcDbEntity
  8
実形
100
AcDbLine
 10
1140.0606249965
 20
1666.889684779005
 30
0.0
 11
1928.0606249965
 21
1666.889684779004
 31
0.0
  0
LINE
  5
702B
330
1F
100
AcDbEntity
  8
実形
100
AcDbLine
 10
1934.0606249965
 20
1660.889684779004
 30
0.0
 11
1934.0606249965
 21
1212.889684779004
 31
0.0
  0
LINE
  5
702C
330
1F
100
AcDbEntity
  8
実形
100
AcDbLine
 10
1928.0606249965
 20
1206.889684779004
 30
0.0
 11
1140.0606249965
 21
1206.889684779004
 31
0.0
  0
LINE
  5
702D
330
1F
100
AcDbEntity
  8
実形
100
AcDbLine
 10
1134.0606249965
 20
1212.889684779004
 30
0.0
 11
1134.0606249965
 21
1660.889684779004
 31
0.0
  0
LINE
  5
702E
330
1F
100
AcDbEntity
  8
実形
100
AcDbLine
 10
1154.0606249965
 20
1232.889684779005
 30
0.0
 11
1154.0606249965
 21
1570.889684779005
 31
0.0
  0
LINE
  5
702F
330
1F
100
AcDbEntity
  8
実形
100
AcDbLine
 10
1396.0606249965
 20
1646.889684779005
 30
0.0
 11
1908.0606249965
 21
1646.889684779004
 31
0.0
  0
LINE
  5
7030
330
1F
100
AcDbEntity
  8
実形
100
AcDbLine
 10
1914.0606249965
 20
1640.889684779004
 30
0.0
 11
1914.0606249965
 21
1232.889684779005
 31
0.0
  0
LINE
  5
7031
330
1F
100
AcDbEntity
  8
実形
100
AcDbLine
 10
1364.0606249965
 20
1226.889684779005
 30
0.0
 11
1160.0606249965
 21
1226.889684779005
 31
0.0
  0
LINE
  5
7180
330
1F
100
AcDbEntity
  8
実形
  6
ACAD_ISO08W100
 48
0.5
100
AcDbLine
 10
1681.760322102999
 20
1436.889684779005
 30
0.0
 11
1406.732437505054
 21
1436.889684779005
 31
0.0
  0
CIRCLE
  5
7183
330
1F
100
AcDbEntity
  8
実形
100
AcDbCircle
 10
1540.0606249965
 20
1436.889684779005
 30
0.0
 40
80.0
  0
CIRCLE
  5
7184
330
1F
100
AcDbEntity
  8
実形
100
AcDbCircle
 10
1540.0606249965
 20
1436.889684779005
 30
0.0
 40
90.5
  0
LINE
  5
7185
330
1F
100
AcDbEntity
  8
実形
100
AcDbLine
 10
1154.0606249965
 20
1681.889684779005
 30
0.0
 11
1304.0606249965
 21
1681.889684779005
 31
0.0
  0
LINE
  5
72ED
330
1F
100
AcDbEntity
  8
実形
 62
     3
100
AcDbLine
 10
797.3710940401324
 20
-382.3860966284574
 30
0.0
 11
797.3710940401326
 21
-392.3860966284574
 31
0.0
  0
TEXT
  5
734A
330
1F
100
AcDbEntity
  8
実形
100
AcDbText
 10
1800.817053755938
 20
1553.88358897353
 30
0.0
 40
25.0
  1
6R
 72
     2
 11
1842.483720422604
 21
1550.550255640197
 31
0.0
100
AcDbText
 73
     1
  0
LEADER
  5
734B
330
1F
100
AcDbEntity
  8
実形
100
AcDbLeader
  3
ISO-25
 76
     2
 10
1903.691483533103
 20
1632.478296085294
 30
0.0
 10
1849.634537403059
 20
1583.582053211839
 30
0.0
1001
ACAD
1000
DSTYLE
1002
{
1070
    77
1070
     0
1070
    41
1040
10.0
1070
   140
1040
30.0
1070
   147
1040
6.599999999999998
1070
   279
1070
     2
1070
   342
1005
30D
1070
   371
1070
    18
1070
   372
1070
    18
1002
}
  0
TEXT
  5
73F5
330
1F
100
AcDbEntity
  8
実形
100
AcDbText
 10
1799.63092367947
 20
1237.885992033566
 30
0.0
 40
25.0
  1
6R
 72
     2
 11
1841.297590346136
 21
1234.552658700233
 31
0.0
100
AcDbText
 73
     1
  0
LEADER
  5
73F6
330
1F
100
AcDbEntity
  8
実形
100
AcDbLeader
  3
ISO-25
 76
     2
 10
1925.030561335578
 20
1213.973851514986
 30
0.0
 10
1856.7893392195
 20
1242.898604043247
 30
0.0
1001
ACAD
1000
DSTYLE
1002
{
1070
    77
1070
     0
1070
    41
1040
10.0
1070
   140
1040
30.0
1070
   147
1040
6.599999999999998
1070
   279
1070
     2
1070
   342
1005
30D
1070
   371
1070
    18
1070
   372
1070
    18
1002
}
  0
ARC
  5
7548
330
1F
100
AcDbEntity
  8
実形
100
AcDbCircle
 10
1928.0606249965
 20
1660.889684779004
 30
0.0
 40
6.0
100
AcDbArc
 50
0.0
 51
90.0
  0
ARC
  5
7549
330
1F
100
AcDbEntity
  8
実形
100
AcDbCircle
 10
1908.0606249965
 20
1232.889684779005
 30
0.0
 40
6.0
100
AcDbArc
 50
270.0
 51
0.0
  0
ARC
  5
754A
330
1F
100
AcDbEntity
  8
実形
100
AcDbCircle
 10
1928.0606249965
 20
1212.889684779004
 30
0.0
 40
6.0
100
AcDbArc
 50
270.0
 51
0.0
  0
ARC
  5
754C
330
1F
100
AcDbEntity
  8
実形
100
AcDbCircle
 10
1140.0606249965
 20
1660.889684779004
 30
0.0
 40
6.0
100
AcDbArc
 50
89.99999999999998
 51
180.0
  0
ARC
  5
754D
330
1F
100
AcDbEntity
  8
実形
100
AcDbCircle
 10
1160.0606249965
 20
1232.889684779005
 30
0.0
 40
6.0
100
AcDbArc
 50
180.0
 51
270.0
  0
ARC
  5
754E
330
1F
100
AcDbEntity
  8
実形
100
AcDbCircle
 10
1140.0606249965
 20
1212.889684779004
 30
0.0
 40
6.0
100
AcDbArc
 50
180.0
 51
270.0
  0
LINE
  5
774D
330
1F
100
AcDbEntity
  8
実形
 62
     0
100
AcDbLine
 10
2114.0
 20
263.9999999999991
 30
0.0
 11
2834.0
 21
263.9999999999991
 31
0.0
  0
LINE
  5
774E
330
1F
100
AcDbEntity
  8
実形
 62
     0
100
AcDbLine
 10
2114.0
 20
3.99999999999909
 30
0.0
 11
2114.0
 21
263.9999999999991
 31
0.0
  0
LINE
  5
774F
330
1F
100
AcDbEntity
  8
実形
 62
     0
100
AcDbLine
 10
2234.0
 20
68.99999999999909
 30
0.0
 11
2234.0
 21
263.9999999999992
 31
0.0
  0
TEXT
  5
7750
330
1F
100
AcDbEntity
  8
実形
 62
     0
100
AcDbText
 10
2137.833333333333
 20
213.9999999999991
 30
0.0
 40
35.0
  1
品名
 72
     4
 11
2174.0
 21
231.4999999999991
 31
0.0
100
AcDbText
  0
TEXT
  5
7751
330
1F
100
AcDbEntity
  8
実形
100
AcDbText
 10
2299.662479203207
 20
214.131433055466
 30
0.0
 40
35.0
  1
ｱﾝﾀﾞｰｼﾝｸ
  7
ms明朝
 72
     4
 11
2402.062479203208
 21
231.731433055466
 31
0.0
100
AcDbText
  0
LINE
  5
7796
330
1F
100
AcDbEntity
  8
実形
100
AcDbLine
 10
1160.0606249965
 20
1576.889684779005
 30
0.0
 11
1364.060624996499
 21
1576.889684779004
 31
0.0
  0
DIMENSION
  5
78E9
330
1F
100
AcDbEntity
  8
実形
100
AcDbDimension
  2
*D11
 10
2109.935511322587
 20
1206.889684779004
 30
0.0
 11
2090.835511322586
 21
1436.889684779005
 31
0.0
 70
    32
 71
     5
 42
459.9999999999997
  3
ISO-25
100
AcDbAlignedDimension
 13
1996.612174181921
 23
1666.889684779004
 33
0.0
 14
1996.612174181921
 24
1206.889684779004
 34
0.0
 50
90.0
100
AcDbRotatedDimension
1001
ACAD
1000
DSTYLE
1002
{
1070
    41
1040
10.0
1070
   140
1040
25.0
1070
   147
1040
6.599999999999998
1070
   279
1070
     2
1070
   342
1005
30D
1070
   371
1070
    18
1070
   372
1070
    18
1002
}
  0
DIMENSION
  5
78F6
330
1F
100
AcDbEntity
  8
実形
100
AcDbDimension
  2
*D12
 10
2109.935511322587
 20
1191.889684779005
 30
0.0
 11
2088.335511322586
 21
1711.43682340528
 31
0.0
 70
   160
  1
15
 71
     5
 42
490.0
  3
ISO-25
100
AcDbAlignedDimension
 13
1948.677738162501
 23
1681.889684779005
 33
0.0
 14
1948.82249623256
 24
1191.889684779005
 34
0.0
 50
90.0
100
AcDbRotatedDimension
1001
ACAD
1000
DSTYLE
1002
{
1070
    41
1040
10.0
1070
   140
1040
25.0
1070
   147
1040
6.599999999999998
1070
   279
1070
     2
1070
   342
1005
30D
1070
   371
1070
    18
1070
   372
1070
    18
1002
}
  0
TEXT
  5
7938
330
1F
100
AcDbEntity
  8
実形
 48
20.0
100
AcDbText
 10
2102.213014014382
 20
1140.239865391272
 30
0.0
 40
25.0
  1
15
 50
90.0
100
AcDbText
  0
DIMENSION
  5
7A0D
330
1F
100
AcDbEntity
  8
実形
100
AcDbDimension
  2
*D14
 10
590.1099680540956
 20
1576.889684779005
 30
0.0
 11
571.0099680540953
 21
1621.889684779005
 31
0.0
 70
    32
 71
     5
 42
89.99999999999955
  3
ISO-25
100
AcDbAlignedDimension
 13
718.5531876458917
 23
1666.889684779005
 33
0.0
 14
697.5320404303584
 24
1576.889684779005
 34
0.0
 50
90.0
100
AcDbRotatedDimension
1001
ACAD
1000
DSTYLE
1002
{
1070
    41
1040
10.0
1070
   140
1040
25.0
1070
   147
1040
6.599999999999998
1070
   279
1070
     2
1070
   342
1005
30D
1070
   371
1070
    18
1070
   372
1070
    18
1002
}
  0
DIMENSION
  5
7A2E
330
1F
100
AcDbEntity
  8
実形
100
AcDbDimension
  2
*D15
 10
590.1099680540954
 20
1226.889684779005
 30
0.0
 11
571.0099680540953
 21
1401.889684779005
 31
0.0
 70
    32
 71
     5
 42
350.0000000000004
  3
ISO-25
100
AcDbAlignedDimension
 13
715.4562485720926
 23
1576.889684779005
 33
0.0
 14
720.5764680902375
 24
1226.889684779005
 34
0.0
 50
90.0
100
AcDbRotatedDimension
1001
ACAD
1000
DSTYLE
1002
{
1070
    41
1040
10.0
1070
   140
1040
25.0
1070
   147
1040
6.599999999999998
1070
   279
1070
     2
1070
   342
1005
30D
1070
   371
1070
    18
1070
   372
1070
    18
1002
}
  0
DIMENSION
  5
7A4D
330
1F
100
AcDbEntity
  8
実形
100
AcDbDimension
  2
*D16
 10
590.1099680540954
 20
1191.889684779005
 30
0.0
 11
568.5099680540953
 21
1705.594763099022
 31
0.0
 70
   160
  1
15
 71
     5
 42
490.0
  3
ISO-25
100
AcDbAlignedDimension
 13
722.7767729627303
 23
1681.889684779005
 33
0.0
 14
720.0460593068255
 24
1191.889684779005
 34
0.0
 50
90.0
100
AcDbRotatedDimension
1001
ACAD
1000
DSTYLE
1002
{
1070
    41
1040
10.0
1070
   140
1040
25.0
1070
   147
1040
6.599999999999998
1070
   279
1070
     2
1070
   342
1005
30D
1070
   371
1070
    18
1070
   372
1070
    18
1002
}
  0
DIMENSION
  5
7B4E
330
1F
100
AcDbEntity
  8
実形
100
AcDbDimension
  2
*D17
 10
590.1099680540956
 20
1576.889684779005
 30
0.0
 11
568.5279127866287
 21
1240.170939266726
 31
0.0
 70
   160
  1
20
 71
     5
 42
370.0000000000005
  3
ISO-25
100
AcDbAlignedDimension
 13
720.5764680902375
 23
1206.889684779004
 33
0.0
 14
685.109476415233
 24
1576.889684779005
 34
0.0
 50
90.0
100
AcDbRotatedDimension
1001
ACAD
1000
DSTYLE
1002
{
1070
    41
1040
10.0
1070
   140
1040
25.0
1070
   147
1040
6.599999999999998
1070
   279
1070
     2
1070
   342
1005
30D
1070
   371
1070
    18
1070
   372
1070
    18
1002
}
  0
TEXT
  5
7BA3
330
1F
100
AcDbEntity
  8
実形
 48
20.0
100
AcDbText
 10
580.7623052989002
 20
1152.773026039832
 30
0.0
 40
25.0
  1
15
 50
90.0
100
AcDbText
  0
DIMENSION
  5
7BA4
330
1F
100
AcDbEntity
  8
実形
100
AcDbDimension
  2
*D18
 10
534.1384115591536
 20
1206.889684779004
 30
0.0
 11
515.0384115591534
 21
1436.889684779005
 31
0.0
 70
    32
 71
     5
 42
460.0
  3
ISO-25
100
AcDbAlignedDimension
 13
659.6695579384959
 23
1666.889684779005
 33
0.0
 14
722.5875803660674
 24
1206.889684779004
 34
0.0
 50
90.0
100
AcDbRotatedDimension
1001
ACAD
1000
DSTYLE
1002
{
1070
    41
1040
10.0
1070
   140
1040
25.0
1070
   147
1040
6.599999999999998
1070
   279
1070
     2
1070
   342
1005
30D
1070
   371
1070
    18
1070
   372
1070
    18
1002
}
  0
DIMENSION
  5
7BCC
330
1F
100
AcDbEntity
  8
実形
100
AcDbDimension
  2
*D19
 10
474.6654505548776
 20
1191.889684779005
 30
0.0
 11
455.5654505548774
 21
1436.889684779005
 31
0.0
 70
    32
 71
     5
 42
490.0
  3
ISO-25
100
AcDbAlignedDimension
 13
722.7767729627303
 23
1681.889684779005
 33
0.0
 14
723.6002719852895
 24
1191.889684779005
 34
0.0
 50
90.0
100
AcDbRotatedDimension
1001
ACAD
1000
DSTYLE
1002
{
1070
    41
1040
10.0
1070
   140
1040
25.0
1070
   147
1040
6.599999999999998
1070
   279
1070
     2
1070
   342
1005
30D
1070
   371
1070
    18
1070
   372
1070
    18
1002
}
  0
ARC
  5
7C3E
330
1F
100
AcDbEntity
  8
実形
100
AcDbCircle
 10
1160.0606249965
 20
1570.889684779005
 30
0.0
 40
6.0
100
AcDbArc
 50
89.99999999999994
 51
180.0
  0
LINE
  5
7C40
330
1F
100
AcDbEntity
  8
実形
  6
ACAD_ISO08W100
 48
0.5
100
AcDbLine
 10
1540.0606249965
 20
1333.452125834193
 30
0.0
 11
1540.0606249965
 21
1586.880684357283
 31
0.0
  0
LINE
  5
817A
330
1F
100
AcDbEntity
  8
実形
100
AcDbLine
 10
1134.0606249965
 20
704.000167123474
 30
0.0
 11
1134.0606249965
 21
689.000167123474
 31
0.0
  0
LINE
  5
817B
330
1F
100
AcDbEntity
  8
実形
100
AcDbLine
 10
1154.0606249965
 20
689.0001671234738
 30
0.0
 11
1154.0606249965
 21
519.6973348037374
 31
0.0
  0
LINE
  5
817E
330
1F
100
AcDbEntity
  8
実形
100
AcDbLine
 10
1934.0606249965
 20
704.000167123474
 30
0.0
 11
1934.0606249965
 21
689.000167123474
 31
0.0
  0
LINE
  5
817F
330
1F
100
AcDbEntity
  8
実形
100
AcDbLine
 10
1914.060624996501
 20
689.000167123474
 30
0.0
 11
1914.0606249965
 21
519.6973348037374
 31
0.0
  0
LINE
  5
8182
330
1F
100
AcDbEntity
  8
実形
100
AcDbLine
 10
1119.0606249965
 20
704.000167123474
 30
0.0
 11
1949.0606249965
 21
704.000167123474
 31
0.0
  0
LINE
  5
8184
330
1F
100
AcDbEntity
  8
実形
100
AcDbLine
 10
1449.5606249965
 20
489.000167123474
 30
0.0
 11
1630.5606249965
 21
489.000167123474
 31
0.0
  0
LINE
  5
8185
330
1F
100
AcDbEntity
  8
実形
100
AcDbLine
 10
1134.0606249965
 20
689.000167123474
 30
0.0
 11
1934.0606249965
 21
689.000167123474
 31
0.0
  0
LINE
  5
818D
330
1F
100
AcDbEntity
  8
実形
  6
ACAD_ISO08W100
 48
0.5
100
AcDbLine
 10
1540.0606249965
 20
593.852843296011
 30
0.0
 11
1540.0606249965
 21
437.171562960405
 31
0.0
  0
LINE
  5
818E
330
1F
100
AcDbEntity
  8
実形
100
AcDbLine
 10
1630.5606249965
 20
499.0001671234741
 30
0.0
 11
1630.5606249965
 21
489.000167123474
 31
0.0
  0
LINE
  5
818F
330
1F
100
AcDbEntity
  8
実形
100
AcDbLine
 10
1449.5606249965
 20
499.0001671234741
 30
0.0
 11
1449.5606249965
 21
489.000167123474
 31
0.0
  0
DIMENSION
  5
8192
330
1F
100
AcDbEntity
  8
実形
100
AcDbDimension
  2
*D50
 10
1620.0606249965
 20
372.0835685876163
 30
0.0
 11
1540.0606249965
 21
391.1835685876164
 31
0.0
 70
    32
 71
     5
 42
160.0000000000002
  3
ISO-25
100
AcDbAlignedDimension
 13
1460.0606249965
 23
489.0001671234739
 33
0.0
 14
1620.0606249965
 24
489.0001671234739
 34
0.0
100
AcDbRotatedDimension
1001
ACAD
1000
DSTYLE
1002
{
1070
    41
1040
10.0
1070
   140
1040
25.0
1070
   147
1040
6.599999999999998
1070
   279
1070
     2
1070
   342
1005
30D
1070
   371
1070
    18
1070
   372
1070
    18
1002
}
  0
DIMENSION
  5
8193
330
1F
100
AcDbEntity
  8
実形
100
AcDbDimension
  2
*D51
 10
1630.5606249965
 20
300.8412717723395
 30
0.0
 11
1540.0606249965
 21
319.9412717723395
 31
0.0
 70
    32
 71
     5
 42
180.9999999999995
  3
ISO-25
100
AcDbAlignedDimension
 13
1449.5606249965
 23
489.000167123474
 33
0.0
 14
1630.5606249965
 24
489.0001671234697
 34
0.0
100
AcDbRotatedDimension
1001
ACAD
1000
DSTYLE
1002
{
1070
    41
1040
10.0
1070
   140
1040
25.0
1070
   147
1040
6.599999999999998
1070
   279
1070
     2
1070
   342
1005
30D
1070
   371
1070
    18
1070
   372
1070
    18
1002
}
  0
TEXT
  5
8194
330
1F
100
AcDbEntity
  8
実形
100
AcDbText
 10
1244.674837694361
 20
576.8238665067659
 30
0.0
 40
25.0
  1
6R
 72
     2
 11
1286.341504361028
 21
573.4905331734325
 31
0.0
100
AcDbText
 73
     1
  0
TEXT
  5
8195
330
1F
100
AcDbEntity
  8
実形
100
AcDbText
 10
1797.612978046703
 20
574.9161674291811
 30
0.0
 40
25.0
  1
6R
 72
     2
 11
1839.27964471337
 21
571.5828340958478
 31
0.0
100
AcDbText
 73
     1
  0
LEADER
  5
8196
330
1F
100
AcDbEntity
  8
実形
100
AcDbLeader
  3
ISO-25
 76
     2
 10
1167.441646830637
 20
524.4352407242086
 30
0.0
 10
1229.911469834318
 20
572.019202950606
 30
0.0
1001
ACAD
1000
DSTYLE
1002
{
1070
    77
1070
     0
1070
    41
1040
10.0
1070
   140
1040
30.0
1070
   147
1040
6.599999999999998
1070
   279
1070
     2
1070
   342
1005
30D
1070
   371
1070
    18
1070
   372
1070
    18
1002
}
  0
LEADER
  5
8197
330
1F
100
AcDbEntity
  8
実形
100
AcDbLeader
  3
ISO-25
 76
     2
 10
1900.679603162364
 20
524.4352407242086
 30
0.0
 10
1852.730091321458
 20
573.2797307262144
 30
0.0
211
-1.0
221
0.0
231
0.0
1001
ACAD
1000
DSTYLE
1002
{
1070
    77
1070
     0
1070
    41
1040
10.0
1070
   140
1040
30.0
1070
   147
1040
6.599999999999998
1070
   279
1070
     2
1070
   342
1005
30D
1070
   371
1070
    18
1070
   372
1070
    18
1002
}
  0
LINE
  5
822B
330
1F
100
AcDbEntity
  8
実形
  6
ACAD_ISO08W100
 48
0.5
100
AcDbLine
 10
1540.0606249965
 20
587.7600031529154
 30
0.0
 11
1540.0606249965
 21
443.4229711118269
 31
0.0
  0
LINE
  5
823F
330
1F
100
AcDbEntity
  8
実形
100
AcDbLine
 10
1449.5606249965
 20
499.0001671234741
 30
0.0
 11
1624.5606249965
 21
499.0001671234741
 31
0.0
  0
LINE
  5
824A
330
1F
100
AcDbEntity
  8
実形
100
AcDbLine
 10
2246.073111491172
 20
1681.889684779005
 30
0.0
 11
2246.073111491172
 21
1191.889684779005
 31
0.0
  0
LINE
  5
824B
330
1F
100
AcDbEntity
  8
実形
100
AcDbLine
 10
2261.073111491172
 20
1666.889684779004
 30
0.0
 11
2261.073111491172
 21
1206.889684779004
 31
0.0
  0
LINE
  5
824C
330
1F
100
AcDbEntity
  8
実形
100
AcDbLine
 10
2261.073111491172
 20
1226.889684779004
 30
0.0
 11
2430.073111491172
 21
1226.889684779004
 31
0.0
  0
LINE
  5
824F
330
1F
100
AcDbEntity
  8
実形
100
AcDbLine
 10
2451.073111491173
 20
1527.389684779005
 30
0.0
 11
2451.073111491173
 21
1346.389684779005
 31
0.0
  0
LINE
  5
8276
330
1F
100
AcDbEntity
  8
実形
100
AcDbLine
 10
2461.073111491173
 20
1346.389684779005
 30
0.0
 11
2461.073111491173
 21
1527.389684779005
 31
0.0
  0
LINE
  5
8277
330
1F
100
AcDbEntity
  8
実形
100
AcDbLine
 10
2451.073111491173
 20
1527.389684779004
 30
0.0
 11
2461.073111491173
 21
1527.389684779004
 31
0.0
  0
DIMENSION
  5
8279
330
1F
100
AcDbEntity
  8
実形
100
AcDbDimension
  2
*D52
 10
2577.98971002703
 20
1516.889684779005
 30
0.0
 11
2558.88971002703
 21
1436.889684779005
 31
0.0
 70
    32
 71
     5
 42
160.0
  3
ISO-25
100
AcDbAlignedDimension
 13
2461.073111491173
 23
1356.889684779005
 33
0.0
 14
2461.073111491173
 24
1516.889684779005
 34
0.0
 50
90.0
100
AcDbRotatedDimension
1001
ACAD
1000
DSTYLE
1002
{
1070
    41
1040
10.0
1070
   140
1040
25.0
1070
   147
1040
6.599999999999998
1070
   279
1070
     2
1070
   342
1005
30D
1070
   371
1070
    18
1070
   372
1070
    18
1002
}
  0
DIMENSION
  5
827A
330
1F
100
AcDbEntity
  8
実形
100
AcDbDimension
  2
*D53
 10
2649.232006842307
 20
1527.389684779004
 30
0.0
 11
2630.132006842307
 21
1436.889684779005
 31
0.0
 70
    32
 71
     5
 42
180.9999999999995
  3
ISO-25
100
AcDbAlignedDimension
 13
2461.073111491173
 23
1346.389684779005
 33
0.0
 14
2461.073111491177
 24
1527.389684779004
 34
0.0
 50
90.0
100
AcDbRotatedDimension
1001
ACAD
1000
DSTYLE
1002
{
1070
    41
1040
10.0
1070
   140
1040
25.0
1070
   147
1040
6.599999999999998
1070
   279
1070
     2
1070
   342
1005
30D
1070
   371
1070
    18
1070
   372
1070
    18
1002
}
  0
LINE
  5
827B
330
1F
100
AcDbEntity
  8
実形
  6
ACAD_ISO08W100
 48
0.5
100
AcDbLine
 10
2366.517719072049
 20
1436.889684779005
 30
0.0
 11
2516.085151705309
 21
1436.889684779005
 31
0.0
  0
LINE
  5
82EE
330
1F
100
AcDbEntity
  8
実形
100
AcDbLine
 10
2461.073111491173
 20
1527.389684779005
 30
0.0
 11
2461.073111491173
 21
1346.389684779005
 31
0.0
  0
LINE
  5
8344
330
1F
100
AcDbEntity
  8
実形
100
AcDbLine
 10
2246.073111491172
 20
1666.889684779004
 30
0.0
 11
2261.073111491172
 21
1666.889684779004
 31
0.0
  0
LINE
  5
8345
330
1F
100
AcDbEntity
  8
実形
100
AcDbLine
 10
2246.073111491172
 20
1206.889684779004
 30
0.0
 11
2261.073111491172
 21
1206.889684779004
 31
0.0
  0
TEXT
  5
8351
330
1F
100
AcDbEntity
  8
実形
100
AcDbText
 10
2315.866187571529
 20
1291.829677495085
 30
0.0
 40
25.0
  1
6R
 72
     2
 11
2357.532854238195
 21
1288.496344161752
 31
0.0
100
AcDbText
 73
     1
  0
LEADER
  5
835C
330
1F
100
AcDbEntity
  8
実形
100
AcDbLeader
  3
ISO-25
 76
     2
 10
2425.015336547231
 20
1235.982827338991
 30
0.0
 10
2356.774114431153
 20
1280.170305919228
 30
0.0
1001
ACAD
1000
DSTYLE
1002
{
1070
    77
1070
     0
1070
    41
1040
10.0
1070
   140
1040
30.0
1070
   147
1040
6.599999999999998
1070
   279
1070
     2
1070
   342
1005
30D
1070
   371
1070
    18
1070
   372
1070
    18
1002
}
  0
LINE
  5
86F3
330
1F
100
AcDbEntity
  8
実形
100
AcDbLine
 10
2246.073111491172
 20
1681.889684779005
 30
0.0
 11
2246.073111491172
 21
1191.889684779005
 31
0.0
  0
ARC
  5
8A83
330
1F
100
AcDbEntity
  8
実形
100
AcDbCircle
 10
1908.0606249965
 20
1640.889684779004
 30
0.0
 40
6.0
100
AcDbArc
 50
0.0
 51
89.99999999999994
  0
LINE
  5
8A84
330
1F
100
AcDbEntity
  8
実形
100
AcDbLine
 10
1370.0606249965
 20
1232.889684779005
 30
0.0
 11
1370.060624996499
 21
1570.889684779004
 31
0.0
  0
LINE
  5
8A86
330
1F
100
AcDbEntity
  8
実形
100
AcDbLine
 10
1390.0606249965
 20
1640.889684779005
 30
0.0
 11
1390.0606249965
 21
1232.889684779004
 31
0.0
  0
LINE
  5
8C49
330
1F
100
AcDbEntity
  8
実形
100
AcDbLine
 10
1908.0606249965
 20
1226.889684779005
 30
0.0
 11
1396.0606249965
 21
1226.889684779004
 31
0.0
  0
LINE
  5
8C4A
330
1F
100
AcDbEntity
  8
実形
100
AcDbLine
 10
1364.0606249965
 20
1226.889684779004
 30
0.0
 11
1160.0606249965
 21
1226.889684779005
 31
0.0
  0
DIMENSION
  5
8C4D
330
1F
100
AcDbEntity
  8
実形
100
AcDbDimension
  2
*D54
 10
1390.060624996501
 20
1588.806236375271
 30
0.0
 11
1465.0606249965
 21
1607.906236375271
 31
0.0
 70
    32
 71
     5
 42
149.9999999999998
  3
ISO-25
100
AcDbAlignedDimension
 13
1540.0606249965
 23
1527.389684779004
 33
0.0
 14
1390.060624996501
 24
1527.389684779005
 34
0.0
100
AcDbRotatedDimension
1001
ACAD
1000
DSTYLE
1002
{
1070
    41
1040
10.0
1070
   140
1040
25.0
1070
   147
1040
6.599999999999998
1070
   279
1070
     2
1070
   342
1005
30D
1070
   371
1070
    18
1070
   372
1070
    18
1002
}
  0
DIMENSION
  5
8C70
330
1F
100
AcDbEntity
  8
実形
100
AcDbDimension
  2
*D55
 10
1702.137194305222
 20
1226.889684779004
 30
0.0
 11
1683.037194305222
 21
1331.889684779005
 31
0.0
 70
    32
 71
     5
 42
210.0000000000002
  3
ISO-25
100
AcDbAlignedDimension
 13
1588.745074090377
 23
1436.889684779005
 33
0.0
 14
1588.745074090377
 24
1226.889684779004
 34
0.0
 50
90.0
100
AcDbRotatedDimension
1001
ACAD
1000
DSTYLE
1002
{
1070
    41
1040
10.0
1070
   140
1040
25.0
1070
   147
1040
6.599999999999998
1070
   279
1070
     2
1070
   342
1005
30D
1070
   371
1070
    18
1070
   372
1070
    18
1002
}
  0
LINE
  5
8E00
330
1F
100
AcDbEntity
  8
実形
100
AcDbLine
 10
1154.0606249965
 20
689.000167123474
 30
0.0
 11
1154.0606249965
 21
517.6689412500252
 31
0.0
  0
LINE
  5
8E03
330
1F
100
AcDbEntity
  8
実形
100
AcDbLine
 10
1390.0606249965
 20
689.000167123474
 30
0.0
 11
1390.060624996501
 21
507.7052678542056
 31
0.0
  0
LINE
  5
8E04
330
1F
100
AcDbEntity
  8
実形
100
AcDbLine
 10
1914.060624996501
 20
689.0001671234742
 30
0.0
 11
1914.0606249965
 21
519.6910993575338
 31
0.0
  0
DIMENSION
  5
8E06
330
1F
100
AcDbEntity
  8
実形
100
AcDbDimension
  2
*D56
 10
1949.0606249965
 20
1000.143741069399
 30
0.0
 11
1534.0606249965
 21
1000.143741069399
 31
0.0
 70
    32
  1
 
 71
     5
 42
830.0
  3
ISO-25
100
AcDbAlignedDimension
 13
1119.0606249965
 23
1191.889684779005
 33
0.0
 14
1949.0606249965
 24
1191.889684779005
 34
0.0
100
AcDbRotatedDimension
1001
ACAD
1000
DSTYLE
1002
{
1070
    41
1040
10.0
1070
   140
1040
25.0
1070
   147
1040
6.599999999999998
1070
   279
1070
     2
1070
   342
1005
30D
1070
   371
1070
    18
1070
   372
1070
    18
1002
}
  0
DIMENSION
  5
8E13
330
1F
100
AcDbEntity
  8
実形
100
AcDbDimension
  2
*D57
 10
1934.0606249965
 20
1061.233427810558
 30
0.0
 11
1988.774850194033
 21
1032.078803864072
 31
0.0
 70
   160
  1
15
 71
     5
 42
779.9999999999998
  3
ISO-25
100
AcDbAlignedDimension
 13
1154.0606249965
 23
1191.889684779005
 33
0.0
 14
1934.0606249965
 24
1191.889684779005
 34
0.0
100
AcDbRotatedDimension
1001
ACAD
1000
DSTYLE
1002
{
1070
    41
1040
10.0
1070
   140
1040
25.0
1070
   147
1040
6.599999999999998
1070
   279
1070
     2
1070
   342
1005
30D
1070
   371
1070
    18
1070
   372
1070
    18
1002
}
  0
DIMENSION
  5
8E29
330
1F
100
AcDbEntity
  8
実形
100
AcDbDimension
  2
*D58
 10
1370.0606249965
 20
1061.233427810558
 30
0.0
 11
1262.0606249965
 21
1080.333427810558
 31
0.0
 70
    32
 71
     5
 42
215.9999999999998
  3
ISO-25
100
AcDbAlignedDimension
 13
1154.0606249965
 23
1191.889684779005
 33
0.0
 14
1370.0606249965
 24
1191.889684779005
 34
0.0
100
AcDbRotatedDimension
1001
ACAD
1000
DSTYLE
1002
{
1070
    41
1040
10.0
1070
   140
1040
25.0
1070
   147
1040
6.599999999999998
1070
   279
1070
     2
1070
   342
1005
30D
1070
   371
1070
    18
1070
   372
1070
    18
1002
}
  0
DIMENSION
  5
8E3F
330
1F
100
AcDbEntity
  8
実形
100
AcDbDimension
  2
*D59
 10
1390.0606249965
 20
1061.233427810558
 30
0.0
 11
1085.750617675065
 21
1027.208236284476
 31
0.0
 70
   160
  1
15
 71
     5
 42
256.0
  3
ISO-25
100
AcDbAlignedDimension
 13
1134.0606249965
 23
1191.889684779005
 33
0.0
 14
1390.0606249965
 24
1191.889684779005
 34
0.0
100
AcDbRotatedDimension
1001
ACAD
1000
DSTYLE
1002
{
1070
    41
1040
10.0
1070
   140
1040
25.0
1070
   147
1040
6.599999999999998
1070
   279
1070
     2
1070
   342
1005
30D
1070
   371
1070
    18
1070
   372
1070
    18
1002
}
  0
TEXT
  5
8E78
330
1F
100
AcDbEntity
  8
実形
 48
20.0
100
AcDbText
 10
1128.350463226685
 20
1135.885273004483
 30
0.0
 40
25.0
  1
20
100
AcDbText
  0
TEXT
  5
8E80
330
1F
100
AcDbEntity
  8
実形
 48
20.0
100
AcDbText
 10
1360.170698753893
 20
1134.193588922532
 30
0.0
 40
25.0
  1
20
100
AcDbText
  0
DIMENSION
  5
8E81
330
1F
100
AcDbEntity
  8
実形
100
AcDbDimension
  2
*D60
 10
1914.0606249965
 20
1061.233427810558
 30
0.0
 11
1652.0606249965
 21
1080.333427810558
 31
0.0
 70
    32
 71
     5
 42
524.0
  3
ISO-25
100
AcDbAlignedDimension
 13
1390.0606249965
 23
1191.889684779005
 33
0.0
 14
1914.0606249965
 24
1191.889684779005
 34
0.0
100
AcDbRotatedDimension
1001
ACAD
1000
DSTYLE
1002
{
1070
    41
1040
10.0
1070
   140
1040
25.0
1070
   147
1040
6.599999999999998
1070
   279
1070
     2
1070
   342
1005
30D
1070
   371
1070
    18
1070
   372
1070
    18
1002
}
  0
TEXT
  5
8E9F
330
1F
100
AcDbEntity
  8
実形
 48
20.0
100
AcDbText
 10
1894.566433235291
 20
1134.42524819526
 30
0.0
 40
25.0
  1
20
100
AcDbText
  0
DIMENSION
  5
8EC8
330
1F
100
AcDbEntity
  8
実形
100
AcDbDimension
  2
*D62
 10
1934.0606249965
 20
1000.143741069399
 30
0.0
 11
1534.0606249965
 21
1019.243741069399
 31
0.0
 70
    32
 71
     5
 42
799.9999999999998
  3
ISO-25
100
AcDbAlignedDimension
 13
1134.0606249965
 23
1126.889684779005
 33
0.0
 14
1934.0606249965
 24
1126.889684779005
 34
0.0
100
AcDbRotatedDimension
1001
ACAD
1000
DSTYLE
1002
{
1070
    41
1040
10.0
1070
   140
1040
25.0
1070
   147
1040
6.599999999999998
1070
   279
1070
     2
1070
   342
1005
30D
1070
   371
1070
    18
1070
   372
1070
    18
1002
}
  0
DIMENSION
  5
8EE7
330
1F
100
AcDbEntity
  8
実形
100
AcDbDimension
  2
*D63
 10
1949.0606249965
 20
938.0903796525936
 30
0.0
 11
1534.0606249965
 21
957.1903796525935
 31
0.0
 70
    32
 71
     5
 42
830.0
  3
ISO-25
100
AcDbAlignedDimension
 13
1119.0606249965
 23
1126.889684779005
 33
0.0
 14
1949.0606249965
 24
1126.889684779005
 34
0.0
100
AcDbRotatedDimension
1001
ACAD
1000
DSTYLE
1002
{
1070
    41
1040
10.0
1070
   140
1040
25.0
1070
   147
1040
6.599999999999998
1070
   279
1070
     2
1070
   342
1005
30D
1070
   371
1070
    18
1070
   372
1070
    18
1002
}
  0
LINE
  5
8F3D
330
1F
100
AcDbEntity
  8
実形
  6
ACAD_ISO08W100
 48
0.5
100
AcDbLine
 10
1191.578017852756
 20
1486.889684779005
 30
0.0
 11
1334.029394322146
 21
1486.889684779004
 31
0.0
  0
LINE
  5
8F4D
330
1F
100
AcDbEntity
  8
実形
  6
ACAD_ISO08W100
 48
0.5
100
AcDbLine
 10
1262.0606249965
 20
1407.316504208497
 30
0.0
 11
1262.0606249965
 21
1565.277206922884
 31
0.0
  0
CIRCLE
  5
8F83
330
1F
100
AcDbEntity
  8
実形
100
AcDbCircle
 10
1262.0606249965
 20
1486.889684779004
 30
0.0
 40
47.0
  0
CIRCLE
  5
8F84
330
1F
100
AcDbEntity
  8
実形
100
AcDbCircle
 10
1262.0606249965
 20
1486.889684779004
 30
0.0
 40
57.5
  0
DIMENSION
  5
90B3
330
1F
100
AcDbEntity
  8
実形
100
AcDbDimension
  2
*D64
 10
2064.073118116577
 20
1226.889684779005
 30
0.0
 11
2044.973118116576
 21
1436.889684779005
 31
0.0
 70
    32
 71
     5
 42
419.9999999999993
  3
ISO-25
100
AcDbAlignedDimension
 13
1949.0606249965
 23
1646.889684779004
 33
0.0
 14
1949.0606249965
 24
1226.889684779005
 34
0.0
 50
90.0
100
AcDbRotatedDimension
1001
ACAD
1000
DSTYLE
1002
{
1070
    41
1040
10.0
1070
   140
1040
25.0
1070
   147
1040
6.599999999999998
1070
   279
1070
     2
1070
   342
1005
30D
1070
   371
1070
    18
1070
   372
1070
    18
1002
}
  0
DIMENSION
  5
90C0
330
1F
100
AcDbEntity
  8
実形
100
AcDbDimension
  2
*D65
 10
2064.073118116577
 20
1206.889684779005
 30
0.0
 11
1989.019860429541
 21
1640.192023921524
 31
0.0
 70
   160
  1
20
 71
     5
 42
459.9999999999995
  3
ISO-25
100
AcDbAlignedDimension
 13
1949.0606249965
 23
1666.889684779004
 33
0.0
 14
1949.0606249965
 24
1206.889684779005
 34
0.0
 50
90.0
100
AcDbRotatedDimension
1001
ACAD
1000
DSTYLE
1002
{
1070
    41
1040
10.0
1070
   140
1040
25.0
1070
   147
1040
6.599999999999998
1070
   279
1070
     2
1070
   342
1005
30D
1070
   371
1070
    18
1070
   372
1070
    18
1002
}
  0
TEXT
  5
90F9
330
1F
100
AcDbEntity
  8
実形
 48
20.0
100
AcDbText
 10
2001.135332844558
 20
1213.042002139198
 30
0.0
 40
25.0
  1
20
 50
90.0
100
AcDbText
  0
LINE
  5
91D5
330
1F
100
AcDbEntity
  8
実形
100
AcDbLine
 10
1540.0606249965
 20
499.0001671234761
 30
0.0
 11
1540.0606249965
 21
489.000167123476
 31
0.0
  0
LINE
  5
91D7
330
1F
100
AcDbEntity
  8
実形
100
AcDbLine
 10
1630.5606249965
 20
499.0001671234741
 30
0.0
 11
1449.5606249965
 21
499.0001671234741
 31
0.0
  0
LINE
  5
91DD
330
1F
100
AcDbEntity
  8
実形
100
AcDbLine
 10
1320.0606249965
 20
499.0001671234741
 30
0.0
 11
1204.0606249965
 21
499.0001671234741
 31
0.0
  0
DIMENSION
  5
9201
330
1F
100
AcDbEntity
  8
実形
100
AcDbDimension
  2
*D66
 10
1309.0606249965
 20
372.0835685876163
 30
0.0
 11
1262.0606249965
 21
391.1835685876164
 31
0.0
 70
    32
 71
     5
 42
94.0
  3
ISO-25
100
AcDbAlignedDimension
 13
1215.0606249965
 23
489.0001671234741
 33
0.0
 14
1309.0606249965
 24
489.0001671234741
 34
0.0
100
AcDbRotatedDimension
1001
ACAD
1000
DSTYLE
1002
{
1070
    41
1040
10.0
1070
   140
1040
25.0
1070
   147
1040
6.599999999999998
1070
   279
1070
     2
1070
   342
1005
30D
1070
   371
1070
    18
1070
   372
1070
    18
1002
}
  0
DIMENSION
  5
9202
330
1F
100
AcDbEntity
  8
実形
100
AcDbDimension
  2
*D67
 10
1319.560624996499
 20
300.8412717723395
 30
0.0
 11
1262.0606249965
 21
319.9412717723395
 31
0.0
 70
    32
 71
     5
 42
114.9999999999997
  3
ISO-25
100
AcDbAlignedDimension
 13
1204.5606249965
 23
489.0001671234739
 33
0.0
 14
1319.560624996499
 24
489.0001671234698
 34
0.0
100
AcDbRotatedDimension
1001
ACAD
1000
DSTYLE
1002
{
1070
    41
1040
10.0
1070
   140
1040
25.0
1070
   147
1040
6.599999999999998
1070
   279
1070
     2
1070
   342
1005
30D
1070
   371
1070
    18
1070
   372
1070
    18
1002
}
  0
LINE
  5
9249
330
1F
100
AcDbEntity
  8
実形
100
AcDbLine
 10
1630.5606249965
 20
499.0001671234741
 30
0.0
 11
1908.377641883867
 21
513.6994801862977
 31
0.0
  0
ARC
  5
924A
330
1F
100
AcDbEntity
  8
実形
100
AcDbCircle
 10
1908.0606249965
 20
519.6910993575338
 30
0.0
 40
6.0
100
AcDbArc
 50
273.0286985783406
 51
0.0
  0
LINE
  5
924F
330
1F
100
AcDbEntity
  8
実形
  6
ACAD_ISO08W100
 48
0.5
100
AcDbLine
 10
1262.0606249965
 20
446.3656856341867
 30
0.0
 11
1262.0606249965
 21
551.2351875170025
 31
0.0
  0
LEADER
  5
9250
330
1F
100
AcDbEntity
  8
実形
100
AcDbLeader
  3
ISO-25
 76
     2
 10
1353.109729588855
 20
526.8413383179713
 30
0.0
 10
1285.235741748863
 20
565.9103648592381
 30
0.0
1001
ACAD
1000
DSTYLE
1002
{
1070
    77
1070
     0
1070
    41
1040
10.0
1070
   140
1040
30.0
1070
   147
1040
6.599999999999998
1070
   279
1070
     2
1070
   342
1005
30D
1070
   371
1070
    18
1070
   372
1070
    18
1002
}
  0
TEXT
  5
9259
330
1F
100
AcDbEntity
  8
実形
100
AcDbText
 10
1455.960547971396
 20
582.7045215570418
 30
0.0
 40
25.0
  1
6R
 72
     2
 11
1497.627214638063
 21
579.3711882237085
 31
0.0
100
AcDbText
 73
     1
  0
LEADER
  5
925A
330
1F
100
AcDbEntity
  8
実形
100
AcDbLeader
  3
ISO-25
 76
     2
 10
1403.077494571395
 20
522.5425459255729
 30
0.0
 10
1455.960548791057
 20
571.7659798988433
 30
0.0
1001
ACAD
1000
DSTYLE
1002
{
1070
    77
1070
     0
1070
    41
1040
10.0
1070
   140
1040
30.0
1070
   147
1040
6.599999999999998
1070
   279
1070
     2
1070
   342
1005
30D
1070
   371
1070
    18
1070
   372
1070
    18
1002
}
  0
ARC
  5
9714
330
1F
100
AcDbEntity
  8
実形
100
AcDbCircle
 10
1364.0606249965
 20
1232.889684779005
 30
0.0
 40
6.0
100
AcDbArc
 50
270.0
 51
0.0000000000001145
  0
ARC
  5
9715
330
1F
100
AcDbEntity
  8
実形
100
AcDbCircle
 10
1364.060624996499
 20
1570.889684779004
 30
0.0
 40
6.0
100
AcDbArc
 50
0.0000000000001018
 51
89.99999999999987
  0
ARC
  5
9716
330
1F
100
AcDbEntity
  8
実形
100
AcDbCircle
 10
1396.0606249965
 20
1232.889684779004
 30
0.0
 40
6.0
100
AcDbArc
 50
180.0
 51
270.0
  0
ARC
  5
9717
330
1F
100
AcDbEntity
  8
実形
100
AcDbCircle
 10
1396.0606249965
 20
1640.889684779005
 30
0.0
 40
6.0
100
AcDbArc
 50
89.99999999999994
 51
180.0
  0
TEXT
  5
9BE1
330
1F
100
AcDbEntity
  8
実形
100
AcDbText
 10
1270.473847823648
 20
1279.082266222455
 30
0.0
 40
25.0
  1
6R
 72
     2
 11
1312.140514490315
 21
1275.748932889122
 31
0.0
100
AcDbText
 73
     1
  0
LEADER
  5
9BE2
330
1F
100
AcDbEntity
  8
実形
100
AcDbLeader
  3
ISO-25
 76
     2
 10
1358.802861221922
 20
1241.570384027627
 30
0.0
 10
1324.815214981387
 20
1276.495234550713
 30
0.0
1001
ACAD
1000
DSTYLE
1002
{
1070
    77
1070
     0
1070
    41
1040
10.0
1070
   140
1040
30.0
1070
   147
1040
6.599999999999998
1070
   279
1070
     2
1070
   342
1005
30D
1070
   371
1070
    18
1070
   372
1070
    18
1002
}
  0
DIMENSION
  5
9D33
330
1F
100
AcDbEntity
  8
実形
100
AcDbDimension
  2
*D69
 10
1154.0606249965
 20
1356.582347171062
 30
0.0
 11
1208.0606249965
 21
1378.182347171062
 31
0.0
 70
    32
 71
     5
 42
108.0000000000002
  3
ISO-25
100
AcDbAlignedDimension
 13
1262.0606249965
 23
1452.740540305789
 33
0.0
 14
1154.0606249965
 24
1447.313720876296
 34
0.0
100
AcDbRotatedDimension
1001
ACAD
1000
DSTYLE
1002
{
1070
    41
1040
10.0
1070
   140
1040
30.0
1070
   147
1040
6.599999999999998
1070
   279
1070
     2
1070
   342
1005
30D
1070
   371
1070
    18
1070
   372
1070
    18
1002
}
  0
DIMENSION
  5
9D5D
330
1F
100
AcDbEntity
  8
実形
100
AcDbDimension
  2
*D70
 10
1196.580083045317
 20
1576.889684779005
 30
0.0
 11
1177.480083045317
 21
1531.889684779005
 31
0.0
 70
    32
 71
     5
 42
90.0
  3
ISO-25
100
AcDbAlignedDimension
 13
1191.578017852756
 23
1486.889684779005
 33
0.0
 14
1191.578017852757
 24
1576.889684779005
 34
0.0
 50
90.0
100
AcDbRotatedDimension
1001
ACAD
1000
DSTYLE
1002
{
1070
    41
1040
10.0
1070
   140
1040
25.0
1070
   147
1040
6.599999999999998
1070
   279
1070
     2
1070
   342
1005
30D
1070
   371
1070
    18
1070
   372
1070
    18
1002
}
  0
LINE
  5
A2B0
330
1F
100
AcDbEntity
  8
実形
100
AcDbLine
 10
1040.049530060689
 20
1666.889684779004
 30
0.0
 11
1025.049530060689
 21
1666.889684779004
 31
0.0
  0
LINE
  5
A2B3
330
1F
100
AcDbEntity
  8
実形
100
AcDbLine
 10
1040.049530060689
 20
1206.889684779004
 30
0.0
 11
1025.049530060689
 21
1206.889684779004
 31
0.0
  0
LINE
  5
A2B4
330
1F
100
AcDbEntity
  8
実形
100
AcDbLine
 10
1025.049530060689
 20
1226.889684779004
 30
0.0
 11
850.7598480790052
 21
1226.889684779004
 31
0.0
  0
LINE
  5
A2B5
330
1F
100
AcDbEntity
  8
実形
100
AcDbLine
 10
1040.049530060689
 20
1681.889684779005
 30
0.0
 11
1040.049530060689
 21
1191.889684779005
 31
0.0
  0
LINE
  5
A2B6
330
1F
100
AcDbEntity
  8
実形
100
AcDbLine
 10
1025.049530060689
 20
1666.889684779004
 30
0.0
 11
1025.049530060689
 21
1206.889684779004
 31
0.0
  0
LEADER
  5
A2C3
330
1F
100
AcDbEntity
  8
実形
100
AcDbLeader
  3
ISO-25
 76
     2
 10
856.1803983107948
 20
1238.268578391497
 30
0.0
 10
898.102108581701
 20
1276.454206180797
 30
0.0
211
-1.0
221
0.0
231
0.0
1001
ACAD
1000
DSTYLE
1002
{
1070
    77
1070
     0
1070
    41
1040
10.0
1070
   140
1040
30.0
1070
   147
1040
6.599999999999998
1070
   279
1070
     2
1070
   342
1005
30D
1070
   371
1070
    18
1070
   372
1070
    18
1002
}
  0
LINE
  5
A2CA
330
1F
100
AcDbEntity
  8
実形
100
AcDbLine
 10
1040.049530060689
 20
1681.889684779005
 30
0.0
 11
1040.049530060689
 21
1191.889684779005
 31
0.0
  0
LINE
  5
A383
330
1F
100
AcDbEntity
  8
実形
100
AcDbLine
 10
1025.049530060689
 20
1576.889684779005
 30
0.0
 11
843.5133395656846
 21
1576.889684779005
 31
0.0
  0
LINE
  5
A3C6
330
1F
100
AcDbEntity
  8
実形
100
AcDbLine
 10
835.049530060689
 20
1544.889684779004
 30
0.0
 11
835.049530060689
 21
1428.889684779005
 31
0.0
  0
LINE
  5
A578
330
1F
100
AcDbEntity
  8
実形
100
AcDbLine
 10
2430.838995210695
 20
1226.889684779004
 30
0.0
 11
2442.221848680843
 21
1226.889684779004
 31
0.0
  0
LINE
  5
A57A
330
1F
100
AcDbEntity
  8
実形
100
AcDbLine
 10
2451.073111491173
 20
1346.389684779005
 30
0.0
 11
2448.21995885088
 21
1232.739104607371
 31
0.0
  0
LINE
  5
A5A9
330
1F
100
AcDbEntity
  8
実形
100
AcDbLine
 10
2451.073111491173
 20
1346.389684779005
 30
0.0
 11
2461.073111491172
 21
1346.389684779004
 31
0.0
  0
ARC
  5
A604
330
1F
100
AcDbEntity
  8
実形
100
AcDbCircle
 10
2442.221848680843
 20
1232.889684779004
 30
0.0
 40
6.0
100
AcDbArc
 50
270.0
 51
358.5619142925962
  0
LINE
  5
A606
330
1F
100
AcDbEntity
  8
実形
100
AcDbLine
 10
2261.073111491173
 20
1646.889684779006
 30
0.0
 11
2430.073111491174
 21
1646.889684779006
 31
0.0
  0
LINE
  5
A608
330
1F
100
AcDbEntity
  8
実形
100
AcDbLine
 10
2451.073111491173
 20
1527.389684779005
 30
0.0
 11
2448.219958850881
 21
1641.040264950639
 31
0.0
  0
ARC
  5
A609
330
1F
100
AcDbEntity
  8
実形
100
AcDbCircle
 10
2442.221848680843
 20
1640.889684779006
 30
0.0
 40
6.0
100
AcDbArc
 50
1.438085707403695
 51
89.99999999999984
  0
LINE
  5
A60A
330
1F
100
AcDbEntity
  8
実形
  6
ACAD_ISO08W100
100
AcDbLine
 10
2436.073111491174
 20
1640.889684779005
 30
0.0
 11
2436.073111491172
 21
1232.889684779004
 31
0.0
  0
LINE
  5
A619
330
1F
100
AcDbEntity
  8
実形
100
AcDbLine
 10
825.0495300606889
 20
1544.389684779005
 30
0.0
 11
825.0495300606887
 21
1429.389684779005
 31
0.0
  0
DIMENSION
  5
A61A
330
1F
100
AcDbEntity
  8
実形
100
AcDbDimension
  2
*D71
 10
748.8434635317023
 20
1439.889684779005
 30
0.0
 11
727.243463531702
 21
1486.889684779005
 31
0.0
 70
    32
 71
     5
 42
94.00000000000023
  3
ISO-25
100
AcDbAlignedDimension
 13
856.8434635317021
 23
1533.889684779005
 33
0.0
 14
856.8434635317018
 24
1439.889684779005
 34
0.0
 50
90.0
100
AcDbRotatedDimension
1001
ACAD
1000
DSTYLE
1002
{
1070
    41
1040
10.0
1070
   140
1040
30.0
1070
   147
1040
6.599999999999998
1070
   279
1070
     2
1070
   342
1005
30D
1070
   371
1070
    18
1070
   372
1070
    18
1002
}
  0
DIMENSION
  5
A630
330
1F
100
AcDbEntity
  8
実形
100
AcDbDimension
  2
*D72
 10
698.1363926135218
 20
1429.389684779005
 30
0.0
 11
676.5363926135215
 21
1486.889684779005
 31
0.0
 70
    32
 71
     5
 42
114.9999999999997
  3
ISO-25
100
AcDbAlignedDimension
 13
857.0193946791441
 23
1544.389684779005
 33
0.0
 14
856.3413063695188
 24
1429.389684779005
 34
0.0
 50
90.0
100
AcDbRotatedDimension
1001
ACAD
1000
DSTYLE
1002
{
1070
    41
1040
10.0
1070
   140
1040
30.0
1070
   147
1040
6.599999999999998
1070
   279
1070
     2
1070
   342
1005
30D
1070
   371
1070
    18
1070
   372
1070
    18
1002
}
  0
LINE
  5
A661
330
1F
100
AcDbEntity
  8
実形
100
AcDbLine
 10
844.7671868131296
 20
1232.593018379703
 30
0.0
 11
835.049530060689
 21
1428.889684779005
 31
0.0
  0
LINE
  5
A663
330
1F
100
AcDbEntity
  8
実形
100
AcDbLine
 10
835.049530060689
 20
1544.889684779005
 30
0.0
 11
837.5395342093289
 21
1571.449729031163
 31
0.0
  0
LINE
  5
A80A
330
1F
100
AcDbEntity
  8
実形
  6
ACAD_ISO08W100
 48
0.5
100
AcDbLine
 10
919.0764312270513
 20
1486.889684779005
 30
0.0
 11
769.508998593792
 21
1486.889684779004
 31
0.0
  0
ARC
  5
A972
330
1F
100
AcDbEntity
  8
実形
100
AcDbCircle
 10
843.5133395656846
 20
1570.889684779005
 30
0.0
 40
6.0
100
AcDbArc
 50
90.00000000000005
 51
174.6441749571448
  0
ARC
  5
A973
330
1F
100
AcDbEntity
  8
実形
100
AcDbCircle
 10
850.7598480790052
 20
1232.889684779004
 30
0.0
 40
6.0
100
AcDbArc
 50
182.8341110163065
 51
270.0
  0
TEXT
  5
AA1B
330
1F
100
AcDbEntity
  8
実形
100
AcDbText
 10
914.8228602465842
 20
1277.051248018385
 30
0.0
 40
25.0
  1
6R
 72
     2
 11
956.4895269132508
 21
1273.717914685052
 31
0.0
100
AcDbText
 73
     1
  0
LINE
  5
AB9A
330
1F
100
AcDbEntity
  8
実形
100
AcDbLine
 10
1204.060624996499
 20
499.000167123474
 30
0.0
 11
1320.0606249965
 21
499.000167123474
 31
0.0
  0
LINE
  5
AC4C
330
1F
100
AcDbEntity
  8
実形
100
AcDbLine
 10
1204.0606249965
 20
499.000167123474
 30
0.0
 11
1159.701271252132
 21
501.661728348136
 31
0.0
  0
ARC
  5
AC4E
330
1F
100
AcDbEntity
  8
実形
100
AcDbCircle
 10
1160.0606249965
 20
507.6509574209307
 30
0.0
 40
6.0
100
AcDbArc
 50
180.0
 51
266.5663696375494
  0
LINE
  5
AC9F
330
1F
100
AcDbEntity
  8
実形
100
AcDbLine
 10
1370.060624996499
 20
689.000167123474
 30
0.0
 11
1370.060624996499
 21
517.6689412500252
 31
0.0
  0
ARC
  5
ACA0
330
1F
100
AcDbEntity
  8
実形
100
AcDbCircle
 10
1364.060624996499
 20
507.6509574209307
 30
0.0
 40
6.0
100
AcDbArc
 50
273.4336303624506
 51
0.000000000000007
  0
LINE
  5
ACA2
330
1F
100
AcDbEntity
  8
実形
100
AcDbLine
 10
1320.0606249965
 20
499.000167123474
 30
0.0
 11
1364.419978740867
 21
501.661728348136
 31
0.0
  0
LINE
  5
ACA3
330
1F
100
AcDbEntity
  8
実形
100
AcDbLine
 10
1204.5606249965
 20
489.0001671234739
 30
0.0
 11
1319.5606249965
 21
489.0001671234713
 31
0.0
  0
ARC
  5
AE8E
330
1F
100
AcDbEntity
  8
実形
100
AcDbCircle
 10
2430.073111491172
 20
1232.889684779004
 30
0.0
 40
6.0
100
AcDbArc
 50
270.0
 51
359.9999999999999
  0
ARC
  5
AE8F
330
1F
100
AcDbEntity
  8
実形
100
AcDbCircle
 10
2430.073111491174
 20
1640.889684779005
 30
0.0
 40
6.0
100
AcDbArc
 50
359.9999999999999
 51
89.99999999999976
  0
LINE
  5
AE90
330
1F
100
AcDbEntity
  8
実形
100
AcDbLine
 10
2430.073111491174
 20
1646.889684779006
 30
0.0
 11
2442.221848680843
 21
1646.889684779006
 31
0.0
  0
LINE
  5
AE93
330
1F
100
AcDbEntity
  8
実形
100
AcDbLine
 10
1449.5606249965
 20
499.0001671234741
 30
0.0
 11
1395.758487789926
 21
501.7128799238057
 31
0.0
  0
ARC
  5
AE94
330
1F
100
AcDbEntity
  8
実形
100
AcDbCircle
 10
1396.0606249965
 20
507.7052678542056
 30
0.0
 40
6.0
100
AcDbArc
 50
180.0
 51
267.1135814561354
  0
DIMENSION
  5
AF14
330
1F
100
AcDbEntity
  8
実形
100
AcDbDimension
  2
*D74
 10
2436.073111491172
 20
1126.680026795735
 30
0.0
 11
2207.508504765505
 21
1148.280026795735
 31
0.0
 70
   160
  1
15
 71
     5
 42
189.9999999999991
  3
ISO-25
100
AcDbAlignedDimension
 13
2246.073111491172
 23
1246.50294495389
 33
0.0
 14
2436.073111491172
 24
1223.409575562806
 34
0.0
100
AcDbRotatedDimension
1001
ACAD
1000
DSTYLE
1002
{
1070
    41
1040
10.0
1070
   140
1040
25.0
1070
   147
1040
6.599999999999998
1070
   279
1070
     2
1070
   342
1005
30D
1070
   371
1070
    18
1070
   372
1070
    18
1002
}
  0
DIMENSION
  5
AF21
330
1F
100
AcDbEntity
  8
実形
100
AcDbDimension
  2
*D75
 10
2436.073111491172
 20
1126.680026795735
 30
0.0
 11
2345.109797968806
 21
1148.365404306629
 31
0.0
 70
   160
 71
     5
 42
174.9999999999995
  3
ISO-25
100
AcDbAlignedDimension
 13
2261.073111491172
 23
1248.180513711191
 33
0.0
 14
2436.073111491172
 24
1247.341734060191
 34
0.0
100
AcDbRotatedDimension
1001
ACAD
1000
DSTYLE
1002
{
1070
    41
1040
10.0
1070
   140
1040
25.0
1070
   147
1040
6.599999999999998
1070
   279
1070
     2
1070
   342
1005
30D
1070
   371
1070
    18
1070
   372
1070
    18
1002
}
  0
DIMENSION
  5
AF71
330
1F
100
AcDbEntity
  8
実形
100
AcDbDimension
  2
*D76
 10
2436.073111491172
 20
1074.669537556405
 30
0.0
 11
2345.948793791824
 21
1096.269537556405
 31
0.0
 70
   160
 71
     5
 42
189.9999999999995
  3
ISO-25
100
AcDbAlignedDimension
 13
2246.073111491172
 23
1184.484991540668
 33
0.0
 14
2436.073111491172
 24
1184.484991540668
 34
0.0
100
AcDbRotatedDimension
1001
ACAD
1000
DSTYLE
1002
{
1070
    41
1040
10.0
1070
   140
1040
25.0
1070
   147
1040
6.599999999999998
1070
   279
1070
     2
1070
   342
1005
30D
1070
   371
1070
    18
1070
   372
1070
    18
1002
}
  0
DIMENSION
  5
AF7E
330
1F
100
AcDbEntity
  8
実形
100
AcDbDimension
  2
*D77
 10
2451.073111491172
 20
1074.669537556405
 30
0.0
 11
2486.061062403023
 21
1096.269537556405
 31
0.0
 70
   160
  1
15
 71
     5
 42
204.9999999999995
  3
ISO-25
100
AcDbAlignedDimension
 13
2246.073111491172
 23
1184.484991540668
 33
0.0
 14
2451.073111491172
 24
1247.086336955544
 34
0.0
100
AcDbRotatedDimension
1001
ACAD
1000
DSTYLE
1002
{
1070
    41
1040
10.0
1070
   140
1040
25.0
1070
   147
1040
6.599999999999998
1070
   279
1070
     2
1070
   342
1005
30D
1070
   371
1070
    18
1070
   372
1070
    18
1002
}
  0
DIMENSION
  5
AFEF
330
1F
100
AcDbEntity
  8
実形
100
AcDbDimension
  2
*D78
 10
2451.073111491172
 20
1021.399253991519
 30
0.0
 11
2348.833979321631
 21
1040.499253991519
 31
0.0
 70
    32
  1
205
 71
     5
 42
204.4782643390822
  3
ISO-25
100
AcDbAlignedDimension
 13
2246.59484715209
 23
1152.538099095202
 33
0.0
 14
2451.073111491172
 24
1152.538099095202
 34
0.0
100
AcDbRotatedDimension
1001
ACAD
1000
DSTYLE
1002
{
1070
    41
1040
10.0
1070
   140
1040
25.0
1070
   147
1040
6.599999999999998
1070
   279
1070
     2
1070
   342
1005
30D
1070
   371
1070
    18
1070
   372
1070
    18
1002
}
  0
DIMENSION
  5
B006
330
1F
100
AcDbEntity
  8
実形
100
AcDbDimension
  2
*D79
 10
2461.073111491173
 20
1021.399253991519
 30
0.0
 11
2484.868435984088
 21
1042.99925399152
 31
0.0
 70
   160
  1
8
 71
     5
 42
215.0
  3
ISO-25
100
AcDbAlignedDimension
 13
2246.073111491172
 23
1217.538099095202
 33
0.0
 14
2461.073111491173
 24
1135.308168259109
 34
0.0
100
AcDbRotatedDimension
1001
ACAD
1000
DSTYLE
1002
{
1070
    41
1040
10.0
1070
   140
1040
25.0
1070
   147
1040
6.599999999999998
1070
   279
1070
     2
1070
   342
1005
30D
1070
   371
1070
    18
1070
   372
1070
    18
1002
}
  0
DIMENSION
  5
B040
330
1F
100
AcDbEntity
  8
実形
100
AcDbDimension
  2
*D80
 10
2461.073111491173
 20
966.6932425940922
 30
0.0
 11
2348.465781260872
 21
988.2932425940921
 31
0.0
 70
   160
  1
213
 71
     5
 42
215.0
  3
ISO-25
100
AcDbAlignedDimension
 13
2246.073111491172
 23
1152.538099095202
 33
0.0
 14
2461.073111491173
 24
1088.470685842398
 34
0.0
100
AcDbRotatedDimension
1001
ACAD
1000
DSTYLE
1002
{
1070
    41
1040
10.0
1070
   140
1040
25.0
1070
   147
1040
6.599999999999998
1070
   279
1070
     2
1070
   342
1005
30D
1070
   371
1070
    18
1070
   372
1070
    18
1002
}
  0
DIMENSION
  5
B16A
330
1F
100
AcDbEntity
  8
実形
100
AcDbDimension
  2
*D81
 10
2049.433687459692
 20
514.000167123474
 30
0.0
 11
2027.833687459692
 21
733.5053032626165
 31
0.0
 70
   160
  1
15
 71
     5
 42
190.0000000000001
  3
ISO-25
100
AcDbAlignedDimension
 13
1925.17692762124
 23
704.0001671234741
 33
0.0
 14
1925.17692762124
 24
514.000167123474
 34
0.0
 50
90.0
100
AcDbRotatedDimension
1001
ACAD
1000
DSTYLE
1002
{
1070
    41
1040
10.0
1070
   140
1040
25.0
1070
   147
1040
6.599999999999998
1070
   279
1070
     2
1070
   342
1005
30D
1070
   371
1070
    18
1070
   372
1070
    18
1002
}
  0
DIMENSION
  5
B189
330
1F
100
AcDbEntity
  8
実形
100
AcDbDimension
  2
*D82
 10
2049.433687459692
 20
514.000167123474
 30
0.0
 11
2030.333687459692
 21
601.5001671234744
 31
0.0
 70
    32
 71
     5
 42
175.0
  3
ISO-25
100
AcDbAlignedDimension
 13
1925.17692762124
 23
689.000167123474
 33
0.0
 14
1925.17692762124
 24
514.000167123474
 34
0.0
 50
90.0
100
AcDbRotatedDimension
1001
ACAD
1000
DSTYLE
1002
{
1070
    41
1040
10.0
1070
   140
1040
25.0
1070
   147
1040
6.599999999999998
1070
   279
1070
     2
1070
   342
1005
30D
1070
   371
1070
    18
1070
   372
1070
    18
1002
}
  0
DIMENSION
  5
B196
330
1F
100
AcDbEntity
  8
実形
100
AcDbDimension
  2
*D83
 10
2112.606628050362
 20
514.000167123474
 30
0.0
 11
2091.006628050362
 21
600.0838243720427
 31
0.0
 70
   160
 71
     5
 42
190.0000000000001
  3
ISO-25
100
AcDbAlignedDimension
 13
1990.17692762124
 23
704.0001671234741
 33
0.0
 14
1990.17692762124
 24
514.000167123474
 34
0.0
 50
90.0
100
AcDbRotatedDimension
1001
ACAD
1000
DSTYLE
1002
{
1070
    41
1040
10.0
1070
   140
1040
25.0
1070
   147
1040
6.599999999999998
1070
   279
1070
     2
1070
   342
1005
30D
1070
   371
1070
    18
1070
   372
1070
    18
1002
}
  0
DIMENSION
  5
B1A3
330
1F
100
AcDbEntity
  8
実形
100
AcDbDimension
  2
*D84
 10
2112.606628050362
 20
704.0001671234741
 30
0.0
 11
2091.006628050362
 21
471.0681901059688
 31
0.0
 70
   160
  1
15
 71
     5
 42
205.0000000000001
  3
ISO-25
100
AcDbAlignedDimension
 13
1926.426104097874
 23
499.0001671234741
 33
0.0
 14
1925.17692762124
 24
704.0001671234741
 34
0.0
 50
90.0
100
AcDbRotatedDimension
1001
ACAD
1000
DSTYLE
1002
{
1070
    41
1040
10.0
1070
   140
1040
25.0
1070
   147
1040
6.599999999999998
1070
   279
1070
     2
1070
   342
1005
30D
1070
   371
1070
    18
1070
   372
1070
    18
1002
}
  0
DIMENSION
  5
B1DD
330
1F
100
AcDbEntity
  8
実形
100
AcDbDimension
  2
*D85
 10
2172.948307512656
 20
499.0001671234741
 30
0.0
 11
2153.848307512656
 21
601.5001671234744
 31
0.0
 70
    32
 71
     5
 42
205.0000000000001
  3
ISO-25
100
AcDbAlignedDimension
 13
2049.433687459692
 23
704.0001671234741
 33
0.0
 14
2049.433687459692
 24
499.0001671234741
 34
0.0
 50
90.0
100
AcDbRotatedDimension
1001
ACAD
1000
DSTYLE
1002
{
1070
    41
1040
10.0
1070
   140
1040
25.0
1070
   147
1040
6.599999999999998
1070
   279
1070
     2
1070
   342
1005
30D
1070
   371
1070
    18
1070
   372
1070
    18
1002
}
  0
DIMENSION
  5
B1EA
330
1F
100
AcDbEntity
  8
実形
100
AcDbDimension
  2
*D86
 10
2172.948307512656
 20
704.0001671234741
 30
0.0
 11
2151.348307512655
 21
468.5337892196021
 31
0.0
 70
   160
  1
8
 71
     5
 42
215.0000000000001
  3
ISO-25
100
AcDbAlignedDimension
 13
2054.515612017556
 23
489.000167123474
 33
0.0
 14
2049.433687459692
 24
704.0001671234741
 34
0.0
 50
90.0
100
AcDbRotatedDimension
1001
ACAD
1000
DSTYLE
1002
{
1070
    41
1040
10.0
1070
   140
1040
25.0
1070
   147
1040
6.599999999999998
1070
   279
1070
     2
1070
   342
1005
30D
1070
   371
1070
    18
1070
   372
1070
    18
1002
}
  0
DIMENSION
  5
B21B
330
1F
100
AcDbEntity
  8
実形
100
AcDbDimension
  2
*D87
 10
2239.402692400821
 20
489.0001671234739
 30
0.0
 11
2217.802692400821
 21
602.7134283621253
 31
0.0
 70
   160
  1
213
 71
     5
 42
215.0000000000002
  3
ISO-25
100
AcDbAlignedDimension
 13
2112.606628050362
 23
704.0001671234741
 33
0.0
 14
2102.314604348543
 24
489.000167123474
 34
0.0
 50
90.0
100
AcDbRotatedDimension
1001
ACAD
1000
DSTYLE
1002
{
1070
    41
1040
10.0
1070
   140
1040
25.0
1070
   147
1040
6.599999999999998
1070
   279
1070
     2
1070
   342
1005
30D
1070
   371
1070
    18
1070
   372
1070
    18
1002
}
  0
LINE
  5
B2C2
330
1F
100
AcDbEntity
  8
実形
100
AcDbLine
 10
1320.0606249965
 20
509.000167123474
 30
0.0
 11
1285.430357665089
 21
509.0001671234741
 31
0.0
  0
LINE
  5
B2C3
330
1F
100
AcDbEntity
  8
実形
100
AcDbLine
 10
1319.46170208922
 20
508.9822155781318
 30
0.0
 11
1364.419978740867
 21
511.6797121772306
 31
0.0
  0
LINE
  5
B2C4
330
1F
100
AcDbEntity
  8
実形
100
AcDbLine
 10
1204.659547903779
 20
508.9822155781318
 30
0.0
 11
1159.701271252132
 21
511.6797121772306
 31
0.0
  0
ARC
  5
B2C5
330
1F
100
AcDbEntity
  8
実形
100
AcDbCircle
 10
1364.060624996499
 20
517.6689412500252
 30
0.0
 40
6.0
100
AcDbArc
 50
273.4336303624506
 51
0.0
  0
ARC
  5
B2C6
330
1F
100
AcDbEntity
  8
実形
100
AcDbCircle
 10
1160.0606249965
 20
517.6689412500252
 30
0.0
 40
6.0
100
AcDbArc
 50
180.0
 51
266.5663696375495
  0
LINE
  5
B2C7
330
1F
100
AcDbEntity
  8
実形
100
AcDbLine
 10
1154.0606249965
 20
519.6973348037374
 30
0.0
 11
1154.0606249965
 21
507.6509574209307
 31
0.0
  0
LINE
  5
B2C8
330
1F
100
AcDbEntity
  8
実形
100
AcDbLine
 10
1370.060624996499
 20
517.6689412500252
 30
0.0
 11
1370.060624996499
 21
507.6509574209307
 31
0.0
  0
LINE
  5
B2F9
330
1F
100
AcDbEntity
  8
実形
100
AcDbLine
 10
1243.223819029794
 20
509.000167123474
 30
0.0
 11
1204.0606249965
 21
509.000167123474
 31
0.0
  0
LINE
  5
B2FA
330
1F
100
AcDbEntity
  8
実形
100
AcDbLine
 10
1276.285620919148
 20
509.0001671234741
 30
0.0
 11
1253.775461663641
 21
509.000167123474
 31
0.0
  0
DIMENSION
  5
B314
330
1F
100
AcDbEntity
  8
実形
100
AcDbDimension
  2
*D88
 10
1028.158124430463
 20
511.6797121772306
 30
0.0
 11
1006.896607780165
 21
594.2848038673036
 31
0.0
 70
   160
  1
180
 71
     5
 42
192.3204549462433
  3
ISO-25
100
AcDbAlignedDimension
 13
1146.778583891149
 23
704.000167123474
 33
0.0
 14
1146.778583891149
 24
511.6797121772306
 34
0.0
 50
90.0
100
AcDbRotatedDimension
1001
ACAD
1000
DSTYLE
1002
{
1070
    41
1040
10.0
1070
   140
1040
25.0
1070
   147
1040
6.599999999999998
1070
   279
1070
     2
1070
   342
1005
30D
1070
   371
1070
    18
1070
   372
1070
    18
1002
}
  0
DIMENSION
  5
B32A
330
1F
100
AcDbEntity
  8
実形
100
AcDbDimension
  2
*D89
 10
1028.158124430463
 20
511.6797121772306
 30
0.0
 11
1006.558124430463
 21
679.6621833501303
 31
0.0
 70
   160
  1
15
 71
     5
 42
177.3204549462433
  3
ISO-25
100
AcDbAlignedDimension
 13
1146.778583891149
 23
689.000167123474
 33
0.0
 14
1146.778583891149
 24
511.6797121772306
 34
0.0
 50
90.0
100
AcDbRotatedDimension
1001
ACAD
1000
DSTYLE
1002
{
1070
    41
1040
10.0
1070
   140
1040
25.0
1070
   147
1040
6.599999999999998
1070
   279
1070
     2
1070
   342
1005
30D
1070
   371
1070
    18
1070
   372
1070
    18
1002
}
  0
DIMENSION
  5
B385
330
1F
100
AcDbEntity
  8
実形
100
AcDbDimension
  2
*D90
 10
963.457252010952
 20
511.6797121772306
 30
0.0
 11
942.95675928337
 21
594.2848038673036
 31
0.0
 70
   160
  1
195
 71
     5
 42
192.3204549462433
  3
ISO-25
100
AcDbAlignedDimension
 13
1093.122437781998
 23
704.000167123474
 33
0.0
 14
1092.515753729847
 24
511.6797121772306
 34
0.0
 50
90.0
100
AcDbRotatedDimension
1001
ACAD
1000
DSTYLE
1002
{
1070
    41
1040
10.0
1070
   140
1040
25.0
1070
   147
1040
6.599999999999998
1070
   279
1070
     2
1070
   342
1005
30D
1070
   371
1070
    18
1070
   372
1070
    18
1002
}
  0
DIMENSION
  5
B3E3
330
1F
100
AcDbEntity
  8
実形
100
AcDbDimension
  2
*D91
 10
963.457252010952
 20
499.0001671234741
 30
0.0
 11
941.3306498114453
 21
520.5949990430763
 31
0.0
 70
   160
  1
10
 71
     5
 42
205.0
  3
ISO-25
100
AcDbAlignedDimension
 13
1074.674160039563
 23
704.000167123474
 33
0.0
 14
1146.365517132921
 24
499.0001671234741
 34
0.0
 50
90.0
100
AcDbRotatedDimension
1001
ACAD
1000
DSTYLE
1002
{
1070
    41
1040
10.0
1070
   140
1040
25.0
1070
   147
1040
6.599999999999998
1070
   279
1070
     2
1070
   342
1005
30D
1070
   371
1070
    18
1070
   372
1070
    18
1002
}
  0
DIMENSION
  5
B402
330
1F
100
AcDbEntity
  8
実形
100
AcDbDimension
  2
*D92
 10
900.3928866407877
 20
499.0001671234741
 30
0.0
 11
878.7928866407876
 21
595.9870131360512
 31
0.0
 70
   160
 71
     5
 42
205.0
  3
ISO-25
100
AcDbAlignedDimension
 13
1074.674160039563
 23
704.000167123474
 33
0.0
 14
1074.674160039563
 24
499.0001671234741
 34
0.0
 50
90.0
100
AcDbRotatedDimension
1001
ACAD
1000
DSTYLE
1002
{
1070
    41
1040
10.0
1070
   140
1040
25.0
1070
   147
1040
6.599999999999998
1070
   279
1070
     2
1070
   342
1005
30D
1070
   371
1070
    18
1070
   372
1070
    18
1002
}
  0
DIMENSION
  5
B40F
330
1F
100
AcDbEntity
  8
実形
100
AcDbDimension
  2
*D93
 10
900.3928866407877
 20
704.000167123474
 30
0.0
 11
878.7928866407876
 21
507.1562140838832
 31
0.0
 70
   160
  1
10
 71
     5
 42
215.0
  3
ISO-25
100
AcDbAlignedDimension
 13
1029.130128901148
 23
489.000167123474
 33
0.0
 14
1074.674160039563
 24
704.000167123474
 34
0.0
 50
90.0
100
AcDbRotatedDimension
1001
ACAD
1000
DSTYLE
1002
{
1070
    41
1040
10.0
1070
   140
1040
25.0
1070
   147
1040
6.599999999999998
1070
   279
1070
     2
1070
   342
1005
30D
1070
   371
1070
    18
1070
   372
1070
    18
1002
}
  0
DIMENSION
  5
B46D
330
1F
100
AcDbEntity
  8
実形
100
AcDbDimension
  2
*D94
 10
838.7955345751397
 20
489.0001671234741
 30
0.0
 11
819.6955345751396
 21
596.5001671234743
 31
0.0
 70
    32
  1
215
 71
     5
 42
214.9999999999999
  3
ISO-25
100
AcDbAlignedDimension
 13
1074.674160039563
 23
704.000167123474
 33
0.0
 14
958.7414376739362
 24
489.0001671234741
 34
0.0
 50
90.0
100
AcDbRotatedDimension
1001
ACAD
1000
DSTYLE
1002
{
1070
    41
1040
10.0
1070
   140
1040
25.0
1070
   147
1040
6.599999999999998
1070
   279
1070
     2
1070
   342
1005
30D
1070
   371
1070
    18
1070
   372
1070
    18
1002
}
  0
DIMENSION
  5
B5D2
330
1F
100
AcDbEntity
  8
実形
100
AcDbDimension
  2
*D95
 10
1025.049530060688
 20
1102.831715328229
 30
0.0
 11
928.1009593463059
 21
1123.817100943412
 31
0.0
 70
   160
  1
180
 71
     5
 42
180.2823432475591
  3
ISO-25
100
AcDbAlignedDimension
 13
844.7671868131296
 23
1225.007020403607
 33
0.0
 14
1025.049530060688
 24
1226.032806975332
 34
0.0
100
AcDbRotatedDimension
1001
ACAD
1000
DSTYLE
1002
{
1070
    41
1040
10.0
1070
   140
1040
25.0
1070
   147
1040
6.599999999999998
1070
   279
1070
     2
1070
   342
1005
30D
1070
   371
1070
    18
1070
   372
1070
    18
1002
}
  0
DIMENSION
  5
B5E8
330
1F
100
AcDbEntity
  8
実形
100
AcDbDimension
  2
*D96
 10
1040.049530060689
 20
1102.831715328229
 30
0.0
 11
996.9452299900659
 21
1124.431715328229
 31
0.0
 70
   160
  1
15
 71
     5
 42
195.2823432475593
  3
ISO-25
100
AcDbAlignedDimension
 13
844.7671868131296
 23
1208.455110745327
 33
0.0
 14
1040.049530060689
 24
1208.455110745327
 34
0.0
100
AcDbRotatedDimension
1001
ACAD
1000
DSTYLE
1002
{
1070
    41
1040
10.0
1070
   140
1040
25.0
1070
   147
1040
6.599999999999998
1070
   279
1070
     2
1070
   342
1005
30D
1070
   371
1070
    18
1070
   372
1070
    18
1002
}
  0
DIMENSION
  5
B61A
330
1F
100
AcDbEntity
  8
実形
100
AcDbDimension
  2
*D97
 10
1040.049530060689
 20
1048.163455056094
 30
0.0
 11
926.6440868827158
 21
1066.839984000016
 31
0.0
 70
   160
  1
195
 71
     5
 42
195.2823432475593
  3
ISO-25
100
AcDbAlignedDimension
 13
844.7671868131296
 23
1205.02973926333
 33
0.0
 14
1040.049530060689
 24
1205.02973926333
 34
0.0
100
AcDbRotatedDimension
1001
ACAD
1000
DSTYLE
1002
{
1070
    41
1040
10.0
1070
   140
1040
25.0
1070
   147
1040
6.599999999999998
1070
   279
1070
     2
1070
   342
1005
30D
1070
   371
1070
    18
1070
   372
1070
    18
1002
}
  0
DIMENSION
  5
B630
330
1F
100
AcDbEntity
  8
実形
100
AcDbDimension
  2
*D98
 10
1040.049530060689
 20
1048.163455056094
 30
0.0
 11
806.3291183147958
 21
1069.763455056094
 31
0.0
 70
   160
  1
10
 71
     5
 42
204.9999999999999
  3
ISO-25
100
AcDbAlignedDimension
 13
835.049530060689
 23
1225.468429581708
 33
0.0
 14
1040.049530060689
 24
1205.02973926333
 34
0.0
100
AcDbRotatedDimension
1001
ACAD
1000
DSTYLE
1002
{
1070
    41
1040
10.0
1070
   140
1040
25.0
1070
   147
1040
6.599999999999998
1070
   279
1070
     2
1070
   342
1005
30D
1070
   371
1070
    18
1070
   372
1070
    18
1002
}
  0
DIMENSION
  5
B673
330
1F
100
AcDbEntity
  8
実形
100
AcDbDimension
  2
*D99
 10
1040.049530060689
 20
993.7438109687882
 30
0.0
 11
926.6440868827158
 21
1012.843810968788
 31
0.0
 70
   160
 71
     5
 42
204.9999999999999
  3
ISO-25
100
AcDbAlignedDimension
 13
835.049530060689
 23
1119.514130823023
 33
0.0
 14
1040.049530060689
 24
1140.02973926333
 34
0.0
100
AcDbRotatedDimension
1001
ACAD
1000
DSTYLE
1002
{
1070
    41
1040
10.0
1070
   140
1040
25.0
1070
   147
1040
6.599999999999998
1070
   279
1070
     2
1070
   342
1005
30D
1070
   371
1070
    18
1070
   372
1070
    18
1002
}
  0
DIMENSION
  5
B689
330
1F
100
AcDbEntity
  8
実形
100
AcDbDimension
  2
*D100
 10
1040.049530060689
 20
993.7438109687882
 30
0.0
 11
802.1588823752608
 21
1015.343810968788
 31
0.0
 70
   160
  1
10
 71
     5
 42
215.0000000000002
  3
ISO-25
100
AcDbAlignedDimension
 13
825.0495300606887
 23
1109.485281935058
 33
0.0
 14
1040.049530060689
 24
1226.032806975332
 34
0.0
100
AcDbRotatedDimension
1001
ACAD
1000
DSTYLE
1002
{
1070
    41
1040
10.0
1070
   140
1040
25.0
1070
   147
1040
6.599999999999998
1070
   279
1070
     2
1070
   342
1005
30D
1070
   371
1070
    18
1070
   372
1070
    18
1002
}
  0
DIMENSION
  5
B6BA
330
1F
100
AcDbEntity
  8
実形
100
AcDbDimension
  2
*D101
 10
1040.049530060689
 20
934.757986241626
 30
0.0
 11
926.6440868827158
 21
953.8579862416259
 31
0.0
 70
   160
  1
215
 71
     5
 42
215.0000000000002
  3
ISO-25
100
AcDbAlignedDimension
 13
825.0495300606887
 23
1078.018773242104
 33
0.0
 14
1040.049530060689
 24
1050.663455056094
 34
0.0
100
AcDbRotatedDimension
1001
ACAD
1000
DSTYLE
1002
{
1070
    41
1040
10.0
1070
   140
1040
25.0
1070
   147
1040
6.599999999999998
1070
   279
1070
     2
1070
   342
1005
30D
1070
   371
1070
    18
1070
   372
1070
    18
1002
}
  0
TEXT
  5
BCC5
330
1F
100
AcDbEntity
  8
実形
100
AcDbText
 10
234.9784467214322
 20
55.07438486928823
 30
0.0
 40
30.0
  1
※実寸には製造上の誤差が多少生ずる場合があります。シンクの穴あけ加工は現物合わせにてお願いします。
 72
     4
 11
1104.978446721432
 21
70.07438486928823
 31
0.0
100
AcDbText
  0
TEXT
  5
BCEF
330
1F
100
AcDbEntity
  8
実形
100
AcDbText
 10
234.6212219700337
 20
117.5456368237064
 30
0.0
 40
30.0
  1
※排水口外周W35ｍｍ,H3ｍｍラウンドテーパ－有り。
 72
     4
 11
688.1212219700337
 21
130.0456368237064
 31
0.0
100
AcDbText
  0
LINE
  5
BE4B
330
1F
100
AcDbEntity
  8
補助
 62
     0
100
AcDbLine
 10
2834.0
 20
1959.0
 30
0.0
 11
2069.387286519283
 21
1959.000000000001
 31
0.0
  0
LINE
  5
BE4C
330
1F
100
AcDbEntity
  8
補助
 62
     0
100
AcDbLine
 10
2834.0
 20
1894.0
 30
0.0
 11
2069.387286519283
 21
1894.0
 31
0.0
  0
LINE
  5
BE4D
330
1F
100
AcDbEntity
  8
補助
 62
     0
100
AcDbLine
 10
2252.547653420926
 20
1894.0
 30
0.0
 11
2252.547653420926
 21
2024.0
 31
0.0
  0
LINE
  5
BE4E
330
1F
100
AcDbEntity
  8
補助
 62
     0
100
AcDbLine
 10
2069.387286519283
 20
1894.0
 30
0.0
 11
2069.387286519283
 21
2024.0
 31
0.0
  0
TEXT
  5
BE4F
330
1F
100
AcDbEntity
  8
補助
 62
     0
100
AcDbText
 10
2100.295698850121
 20
1976.328571428572
 30
0.0
 40
30.0
  1
部品名
  7
明朝
 72
     4
 11
2166.124270278692
 21
1991.5
 31
0.0
100
AcDbText
  0
TEXT
  5
BE50
330
1F
100
AcDbEntity
  8
補助
 62
     0
100
AcDbText
 10
2677.614285714286
 20
1976.071428571429
 30
0.0
 40
30.0
  1
厚さ
  7
明朝
 72
     4
 11
2721.5
 21
1991.5
 31
0.0
100
AcDbText
  0
LINE
  5
BE51
330
1F
100
AcDbEntity
  8
補助
 62
     0
100
AcDbLine
 10
2609.0
 20
1894.0
 30
0.0
 11
2609.0
 21
2024.0
 31
0.0
  0
TEXT
  5
BE52
330
1F
100
AcDbEntity
  8
補助
 62
     0
100
AcDbText
 10
2388.490869919937
 20
1975.947979478155
 30
0.0
 40
30.0
  1
材質
  7
明朝
 72
     4
 11
2432.376584205651
 21
1991.119408049583
 31
0.0
100
AcDbText
  0
TEXT
  5
BE53
330
1F
100
AcDbEntity
  8
実形
 62
     0
100
AcDbText
 10
2098.227810657788
 20
1910.557142857143
 30
0.0
 40
30.0
  1
ボウル
  7
明朝
 72
     4
 11
2164.056382086359
 21
1926.5
 31
0.0
100
AcDbText
  0
TEXT
  5
BE54
330
1F
100
AcDbEntity
  8
実形
 62
     0
100
AcDbText
 10
2644.700000000001
 20
1911.842857142857
 30
0.0
 40
30.0
  1
1.0ｍｍ
  7
明朝
 72
     4
 11
2721.500000000001
 21
1926.5
 31
0.0
100
AcDbText
  0
TEXT
  5
BE55
330
1F
100
AcDbEntity
  8
実形
 62
     0
100
AcDbText
 10
2311.016869107866
 20
1910.728571428572
 30
0.0
 40
30.0
  1
SUS304（HL）
  7
明朝
 72
     4
 11
2442.674011965009
 21
1926.5
 31
0.0
100
AcDbText
  0
LINE
  5
BEBD
330
1F
100
AcDbEntity
  8
実形
100
AcDbLine
 10
1319.5606249965
 20
499.000167123474
 30
0.0
 11
1319.5606249965
 21
489.000167123474
 31
0.0
  0
LINE
  5
BEBE
330
1F
100
AcDbEntity
  8
実形
100
AcDbLine
 10
1204.560624996499
 20
499.000167123474
 30
0.0
 11
1204.5606249965
 21
489.000167123474
 31
0.0
  0
LINE
  5
BEE6
330
1F
100
AcDbEntity
  8
実形
100
AcDbLine
 10
835.0495300606889
 20
1429.389684779005
 30
0.0
 11
825.0495300606889
 21
1429.389684779005
 31
0.0
  0
LINE
  5
BEE7
330
1F
100
AcDbEntity
  8
実形
100
AcDbLine
 10
835.0495300606889
 20
1544.389684779005
 30
0.0
 11
825.0495300606889
 21
1544.389684779005
 31
0.0
  0
VIEWPORT
  5
2E
102
{ACAD_XDICTIONARY
360
BF55
102
}
330
1B
100
AcDbEntity
 67
     1
  8
0
100
AcDbViewport
 10
144.7270812988281
 20
101.2295806407928
 30
0.0
 40
411.6736216682419
 41
222.1517806396485
 68
     1
 69
     1
 12
144.7270812988281
 22
101.2295806407928
 13
0.0
 23
0.0
 14
10.0
 24
10.0
 15
10.0
 25
10.0
 16
0.0
 26
0.0
 36
1.0
 17
0.0
 27
0.0
 37
0.0
 42
50.0
 43
0.0
 44
0.0
 45
222.1517806396485
 50
0.0
 51
0.0
 72
   100
 90
    32800
  1

281
     0
 71
     1
 74
     0
110
0.0
120
0.0
130
0.0
111
1.0
121
0.0
131
0.0
112
0.0
122
1.0
132
0.0
 79
     0
146
0.0
  0
VIEWPORT
  5
30
102
{ACAD_XDICTIONARY
360
BF57
102
}
330
1B
100
AcDbEntity
 67
     1
  8
0
100
AcDbViewport
 10
139.2237563133239
 20
101.2295821905136
 30
0.0
 40
222.7580101013184
 41
161.9673315048218
 68
     2
 69
     2
 12
210.0
 22
148.5
 13
0.0
 23
0.0
 14
10.0
 24
10.0
 15
10.0
 25
10.0
 16
0.0
 26
0.0
 36
1.0
 17
0.0
 27
0.0
 37
0.0
 42
50.0
 43
0.0
 44
0.0
 45
309.0686705647124
 50
0.0
 51
0.0
 72
   100
 90
    32864
  1

281
     0
 71
     1
 74
     0
110
0.0
120
0.0
130
0.0
111
1.0
121
0.0
131
0.0
112
0.0
122
1.0
132
0.0
 79
     0
146
0.0
  0
ENDSEC
  0
SECTION
  2
OBJECTS
  0
DICTIONARY
  5
C
330
0
100
AcDbDictionary
281
     1
  3
ACAD_COLOR
350
22AD
  3
ACAD_GROUP
350
D
  3
ACAD_LAYOUT
350
1A
  3
ACAD_MATERIAL
350
22AC
  3
ACAD_MLINESTYLE
350
17
  3
ACAD_PLOTSETTINGS
350
19
  3
ACAD_PLOTSTYLENAME
350
E
  3
ACAD_TABLESTYLE
350
22AE
  3
AcadDim
350
124
  3
ACDBHEADERROUNDTRIPXREC
350
BF4E
  3
AcDbVariableDictionary
350
1589
  3
DWGPROPS
350
BF4D
  0
DICTIONARY
  5
24C4
330
2
100
AcDbDictionary
280
     1
281
     1
  3
ACAD_LAYERFILTERS
360
6C37
  3
ACAD_LAYERSTATES
360
24C5
  3
ACLYDICTIONARY
360
6C36
  0
DICTIONARY
  5
2396
330
1F
100
AcDbDictionary
280
     1
281
     1
  3
ACAD_SORTENTS
360
2397
  0
DICTIONARY
  5
313E
330
313C
100
AcDbDictionary
280
     1
281
     1
  3
ACAD_SORTENTS
360
80F9
  0
DICTIONARY
  5
3848
330
3846
100
AcDbDictionary
280
     1
281
     1
  3
ACAD_SORTENTS
360
80FA
  0
DICTIONARY
  5
6B89
330
6B87
100
AcDbDictionary
280
     1
281
     1
  3
ACAD_SORTENTS
360
80FB
  0
DICTIONARY
  5
6C02
330
6C00
100
AcDbDictionary
280
     1
281
     1
  3
ACAD_SORTENTS
360
80FC
  0
DICTIONARY
  5
7758
330
7752
100
AcDbDictionary
280
     1
281
     1
  3
ACAD_SORTENTS
360
80FD
  0
DICTIONARY
  5
79A2
330
79A0
100
AcDbDictionary
280
     1
281
     1
  3
ACAD_SORTENTS
360
80FE
  0
DICTIONARY
  5
80F8
330
8065
100
AcDbDictionary
280
     1
281
     1
  3
ACAD_SORTENTS
360
80FF
  0
DICTIONARY
  5
8EAA
330
8EA8
100
AcDbDictionary
280
     1
281
     1
  3
ACAD_SORTENTS
360
8EAB
  0
DICTIONARY
  5
9BE5
330
9BE3
100
AcDbDictionary
280
     1
281
     1
  3
ACAD_SORTENTS
360
9BE6
  0
DICTIONARY
  5
AC35
330
AC33
100
AcDbDictionary
280
     1
281
     1
  3
ACAD_SORTENTS
360
AC36
  0
DICTIONARY
  5
BF55
330
2E
100
AcDbDictionary
280
     1
281
     1
  3
ACAD_XREC_ROUNDTRIP
360
BF56
  0
DICTIONARY
  5
BF57
330
30
100
AcDbDictionary
280
     1
281
     1
  3
ACAD_XREC_ROUNDTRIP
360
BF58
  0
DICTIONARY
  5
22AD
102
{ACAD_REACTORS
330
C
102
}
330
C
100
AcDbDictionary
281
     1
  0
DICTIONARY
  5
D
102
{ACAD_REACTORS
330
C
102
}
330
C
100
AcDbDictionary
281
     1
  0
DICTIONARY
  5
1A
102
{ACAD_REACTORS
330
C
102
}
330
C
100
AcDbDictionary
281
     1
  3
Model
350
22
  3
ﾚｲｱｳﾄ1
350
1E
  3
ﾚｲｱｳﾄ2
350
26
  0
DICTIONARY
  5
22AC
102
{ACAD_REACTORS
330
C
102
}
330
C
100
AcDbDictionary
281
     1
  0
DICTIONARY
  5
17
102
{ACAD_REACTORS
330
C
102
}
330
C
100
AcDbDictionary
281
     1
  3
Standard
350
18
  0
DICTIONARY
  5
19
102
{ACAD_REACTORS
330
C
102
}
330
C
100
AcDbDictionary
281
     1
  0
ACDBDICTIONARYWDFLT
  5
E
102
{ACAD_REACTORS
330
C
102
}
330
C
100
AcDbDictionary
281
     1
  3
Normal
350
F
100
AcDbDictionaryWithDefault
340
F
  0
DICTIONARY
  5
22AE
102
{ACAD_REACTORS
330
C
102
}
330
C
100
AcDbDictionary
281
     1
  3
Standard
350
22AF
  0
XRECORD
  5
124
102
{ACAD_REACTORS
330
C
102
}
330
C
100
AcDbXrecord
280
     1
 90
   990106
  3

 60
     0
 61
     0
 62
     1
 63
     3
 64
     0
 65
     0
 66
     0
 67
     3
 68
     1
 69
     0
 70
     0
 71
     0
 72
     0
 40
30.0
170
     0
  0
DICTIONARY
  5
BF4E
102
{ACAD_REACTORS
330
C
102
}
330
C
100
AcDbDictionary
281
     1
  0
DICTIONARY
  5
1589
102
{ACAD_REACTORS
330
C
102
}
330
C
100
AcDbDictionary
281
     1
  3
CTABLESTYLE
350
22B5
  3
DIMASSOC
350
BF4A
  3
PROJECTNAME
350
BF4B
  3
SORTENTS
350
158A
  0
XRECORD
  5
BF4D
102
{ACAD_REACTORS
330
C
102
}
330
C
100
AcDbXrecord
280
     1
  1
DWGPROPS COOKIE
  2

  3

  4

  6

  7

  8

  9

300
=
301
=
302
=
303
=
304
=
305
=
306
=
307
=
308
=
309
=
 40
3.61310142361111
 41
2451673.575802199
 42
2458808.782347592
  1

 90
        0
  0
DICTIONARY
  5
6C37
102
{ACAD_REACTORS
330
24C4
102
}
330
24C4
100
AcDbDictionary
281
     1
  0
DICTIONARY
  5
24C5
102
{ACAD_REACTORS
330
24C4
102
}
330
24C4
100
AcDbDictionary
281
     1
  0
DICTIONARY
  5
6C36
102
{ACAD_REACTORS
330
24C4
102
}
330
24C4
100
AcDbDictionary
281
     1
1001
ACAD
1000
<All
  0
SORTENTSTABLE
  5
2397
102
{ACAD_REACTORS
330
2396
102
}
330
2396
100
AcDbSortentsTable
330
1F
331
7183
  5
7775
331
BCEF
  5
BE52
331
734B
  5
7798
331
B196
  5
B32A
331
B2C5
  5
B040
331
BE4E
  5
BEA9
331
ACA0
  5
B16A
331
A80A
  5
AF14
331
8E29
  5
9201
331
8C4A
  5
7183
331
8EC8
  5
924C
331
8185
  5
8244
331
824C
  5
83CE
331
818D
  5
824F
331
1B87
  5
1B91
331
702C
  5
7180
331
1B8F
  5
1B98
331
1B97
  5
1BA7
331
7C3E
  5
7032
331
BEBE
  5
A662
331
A2B4
  5
A3C8
331
A972
  5
A4B3
331
9715
  5
7772
331
8195
  5
8343
331
86F3
  5
8EC8
331
8E81
  5
924A
331
8A83
  5
702F
331
7184
  5
7776
331
AF21
  5
B2C4
331
B2C6
  5
8F84
331
BEE6
  5
A6DE
331
AF71
  5
B2C5
331
B385
  5
B630
331
A0
  5
1B74
331
BE4F
  5
BEAA
331
9D5D
  5
A3C3
331
A663
  5
AEA7
331
817E
  5
8192
331
818E
  5
8276
331
8344
  5
835C
331
754C
  5
7028
331
1B88
  5
1B92
331
B5E8
  5
BE4B
331
702D
  5
72AC
331
68D6
  5
6E28
331
1B90
  5
1B99
331
B040
  5
B2F9
331
A2B5
  5
A3CC
331
91D7
  5
9714
331
A604
  5
A6DC
331
A973
  5
A3CA
331
9716
  5
7132
331
AA1B
  5
AF21
331
AB9A
  5
8197
331
8E03
  5
90B1
331
8196
  5
8344
331
8E13
  5
91DD
331
835C
  5
8E04
331
8A84
  5
7771
331
1B98
  5
1BA8
331
7185
  5
7777
331
72ED
  5
7796
331
272
  5
1B7F
331
B630
  5
BE4D
331
5E5F
  5
634E
331
B2C7
  5
B46D
331
B46D
  5
BCC5
331
BEE7
  5
AC4B
331
BE50
  5
BEBD
331
90C0
  5
94E2
331
924F
  5
9E9C
331
ACA2
  5
B1A3
331
817F
  5
8193
331
8345
  5
83CD
331
818F
  5
827B
331
73F5
  5
77A4
331
7026
  5
7026
331
754D
  5
7774
331
702E
  5
7316
331
1B91
  5
1B9B
331
774D
  5
77AF
331
7C40
  5
818C
331
AE93
  5
B2C2
331
A2B6
  5
A4A7
331
9717
  5
702A
331
8E04
  5
90B3
331
8276
  5
854B
331
8197
  5
8347
331
1B99
  5
37FF
331
B189
  5
B314
331
B2C8
  5
B5D2
331
BE51
  5
BEBE
331
A3C6
  5
A4AF
331
9250
  5
9EB2
331
90F9
  5
94E3
331
ACA3
  5
B1EA
331
8C4D
  5
8F3E
331
82EE
  5
84CE
331
823F
  5
8353
331
824F
  5
83D3
331
5E68
  5
634F
331
B5D2
  5
BCEF
331
73F6
  5
77A5
331
7027
  5
703F
331
1B8A
  5
1B93
331
754E
  5
72EE
331
B689
  5
BE4F
331
702F
  5
7029
331
1B92
  5
1B9C
331
774E
  5
77BC
331
7A0D
  5
8182
331
AE94
  5
90B2
331
B16A
  5
B2FA
331
AF14
  5
B2C3
331
B40F
  5
B6BA
331
A606
  5
A6E0
331
9201
  5
9D33
331
8277
  5
86F3
331
8A86
  5
7102
331
B61A
  5
BE4C
331
7796
  5
7031
331
78F6
  5
7BEB
331
BE52
  5
BED1
331
9249
  5
9E9B
331
AC4C
  5
AF49
331
1B73
  5
1B86
331
7028
  5
717F
331
1B8B
  5
1B94
331
7030
  5
70DF
331
1B93
  5
1B9D
331
774F
  5
77E0
331
B2F9
  5
9BE2
331
B1EA
  5
B402
331
A2B0
  5
A3C4
331
9259
  5
A2CA
331
9BE1
  5
A2CC
331
8F83
  5
93A5
331
9202
  5
9D5D
331
90B3
  5
93A7
331
8E06
  5
91DB
331
7180
  5
729D
331
B6BA
  5
BE50
331
7BA3
  5
8188
331
7A2E
  5
8185
331
B2C2
  5
9717
331
9C
  5
9C
331
B1A3
  5
B385
331
AE8E
  5
8F3D
331
BE4B
  5
BE53
331
BE53
  5
BED2
331
924A
  5
91D8
331
A578
  5
A6DA
331
817A
  5
818E
331
8182
  5
8194
331
6E31
  5
1B73
331
B673
  5
BE4E
331
7548
  5
70D5
331
1B84
  5
1B8E
331
7029
  5
72AB
331
1B8C
  5
1B95
331
7031
  5
729C
331
1B94
  5
1BA1
331
7750
  5
7844
331
B2FA
  5
9BE1
331
925A
  5
A2CB
331
B21B
  5
B40F
331
A608
  5
A6E2
331
9BE2
  5
A2CD
331
8F84
  5
93A6
331
8192
  5
82EE
331
8279
  5
86F5
331
BCC5
  5
BE51
331
7BA4
  5
8189
331
7BCC
  5
818B
331
B32A
  5
B61A
331
B2C3
  5
B1DD
331
AE8F
  5
A6E1
331
BE4C
  5
BE54
331
A630
  5
ACA4
331
BE54
  5
BEE6
331
AC4E
  5
90AF
331
A5A9
  5
A6DF
331
817B
  5
818F
331
8C70
  5
8F4E
331
824A
  5
83D1
331
8E3F
  5
9202
331
7A4D
  5
8186
331
7938
  5
7C3E
331
7549
  5
7168
331
1B85
  5
1B8F
331
702A
  5
7027
331
1B8D
  5
1B96
331
7751
  5
7845
331
1B95
  5
1BA2
331
AF7E
  5
B2C6
331
B402
  5
B689
331
8F3D
  5
925A
331
8F4D
  5
754C
331
A609
  5
A7D3
331
A2CA
  5
A4A9
331
A619
  5
A4B1
331
8E00
  5
8F6D
331
8351
  5
8E03
331
8193
  5
82EF
331
827A
  5
8DFF
331
78E9
  5
7BCC
331
734A
  5
7797
331
6D9B
  5
1B7B
331
B006
  5
B2C8
331
B2C4
  5
AF7E
331
BE4D
  5
BE55
331
9D33
  5
A2CE
331
BE55
  5
BEE7
331
A57A
  5
A6DB
331
A661
  5
AE8E
331
AC9F
  5
AFEF
331
8C49
  5
7181
331
822B
  5
8351
331
8E9F
  5
924B
331
8184
  5
8242
331
824B
  5
83D2
331
754A
  5
7086
331
1B86
  5
1B90
331
68BC
  5
6D9A
331
702B
  5
7078
331
1B8E
  5
1B97
331
7B4E
  5
8187
331
1B96
  5
1BA6
331
AE90
  5
B21B
331
B1DD
  5
B3E3
331
B3E3
  5
B673
331
B314
  5
B5E8
331
BEBD
  5
B196
331
AFEF
  5
B2C7
331
A2B3
  5
A3C6
331
91D5
  5
827A
331
A2C3
  5
A4A8
331
91DD
  5
9715
331
9714
  5
7773
331
A60A
  5
8EE7
331
A61A
  5
AC4D
331
A383
  5
A4B2
331
8194
  5
8302
331
827B
  5
8E00
331
8E78
  5
9248
331
8EE7
  5
9259
331
8E80
  5
9249
  0
SORTENTSTABLE
  5
80F9
102
{ACAD_REACTORS
330
313E
102
}
330
313E
100
AcDbSortentsTable
330
313C
  0
SORTENTSTABLE
  5
80FA
102
{ACAD_REACTORS
330
3848
102
}
330
3848
100
AcDbSortentsTable
330
3846
  0
SORTENTSTABLE
  5
80FB
102
{ACAD_REACTORS
330
6B89
102
}
330
6B89
100
AcDbSortentsTable
330
6B87
  0
SORTENTSTABLE
  5
80FC
102
{ACAD_REACTORS
330
6C02
102
}
330
6C02
100
AcDbSortentsTable
330
6C00
  0
SORTENTSTABLE
  5
80FD
102
{ACAD_REACTORS
330
7758
102
}
330
7758
100
AcDbSortentsTable
330
7752
  0
SORTENTSTABLE
  5
80FE
102
{ACAD_REACTORS
330
79A2
102
}
330
79A2
100
AcDbSortentsTable
330
79A0
  0
SORTENTSTABLE
  5
80FF
102
{ACAD_REACTORS
330
80F8
102
}
330
80F8
100
AcDbSortentsTable
330
8065
331
8077
  5
807A
331
807F
  5
8082
331
8087
  5
806B
331
80CE
  5
80D4
331
808F
  5
8093
331
80D6
  5
80DC
331
8097
  5
80A4
331
80DE
  5
80E1
331
809F
  5
80AB
331
80E6
  5
80E9
331
80A7
  5
80B6
331
8068
  5
8069
331
80EE
  5
80F1
331
80AF
  5
80BF
331
80F6
  5
808F
331
80B7
  5
80C7
331
80BF
  5
80CB
331
80C7
  5
809E
331
8070
  5
8073
331
8078
  5
807B
331
8080
  5
8083
331
8088
  5
806A
331
80CF
  5
80D5
331
8090
  5
8099
331
80D7
  5
80DD
331
8098
  5
80A5
331
80DF
  5
80E2
331
80A0
  5
80AC
331
80E7
  5
80EA
331
8069
  5
806C
331
80A8
  5
80B7
331
80EF
  5
80F2
331
80B0
  5
80C0
331
80B8
  5
80B0
331
80C0
  5
80CC
331
8071
  5
8074
331
8079
  5
807C
331
8081
  5
8084
331
80C8
  5
80CE
331
8089
  5
8068
331
80D0
  5
80D6
331
8091
  5
809D
331
80D8
  5
80DE
331
8099
  5
80A6
331
80E0
  5
80E3
331
80A1
  5
80B5
331
806A
  5
806D
331
80E8
  5
80EB
331
80A9
  5
80B9
331
80F0
  5
80F3
331
80B1
  5
80C1
331
80B9
  5
80C8
331
80C1
  5
80CD
331
8072
  5
8075
331
807A
  5
807D
331
8082
  5
8085
331
80C9
  5
80CF
331
80D1
  5
80D7
331
8092
  5
809F
331
80D9
  5
8090
331
809A
  5
80A7
331
80E1
  5
80E4
331
80A2
  5
80AD
331
806B
  5
806E
331
80E9
  5
80EC
331
80AA
  5
80BA
331
80F1
  5
80F4
331
80B2
  5
80C2
331
80BA
  5
80B4
331
80C2
  5
8095
331
8073
  5
8076
331
807B
  5
807E
331
8083
  5
8086
331
80CA
  5
80D0
331
808B
  5
8092
331
80D2
  5
80D8
331
8093
  5
808D
331
80DA
  5
80DF
331
809B
  5
80A8
331
80E2
  5
80E5
331
80A3
  5
80B1
331
806C
  5
806F
331
80EA
  5
80ED
331
80AB
  5
80BB
331
80F2
  5
80F5
331
80B3
  5
80C3
331
80BB
  5
80C9
331
80C3
  5
8097
331
8074
  5
8077
331
807C
  5
807F
331
8084
  5
8087
331
80CB
  5
80D1
331
808C
  5
8098
331
80D3
  5
80D9
331
8094
  5
8096
331
80DB
  5
80E0
331
809C
  5
80A9
331
80E3
  5
80E6
331
80A4
  5
80B8
331
806D
  5
8070
331
80EB
  5
80EE
331
80AC
  5
80BC
331
80F3
  5
80F6
331
80B4
  5
80C4
331
80BC
  5
80CA
331
80C4
  5
8094
331
8075
  5
8078
331
807D
  5
8080
331
8085
  5
8088
331
80CC
  5
80D2
331
808D
  5
809C
331
80D4
  5
80DA
331
8095
  5
809A
331
80DC
  5
80A0
331
809D
  5
809B
331
80E4
  5
80E7
331
80A5
  5
80AE
331
806E
  5
8071
331
80EC
  5
80EF
331
80AD
  5
80BD
331
80F4
  5
808E
331
80B5
  5
80C6
331
80BD
  5
80B3
331
80C5
  5
808C
331
8076
  5
8079
331
807E
  5
8081
331
8086
  5
8089
331
80CD
  5
80D3
331
808E
  5
808B
331
80D5
  5
80DB
331
8096
  5
80A3
331
80DD
  5
80A1
331
809E
  5
80AA
331
80E5
  5
80E8
331
80A6
  5
80B2
331
806F
  5
8072
331
80ED
  5
80F0
331
80AE
  5
80BE
331
80F5
  5
8091
331
80B6
  5
80C5
331
80BE
  5
80AF
331
80C6
  5
80A2
  0
SORTENTSTABLE
  5
8EAB
102
{ACAD_REACTORS
330
8EAA
102
}
330
8EAA
100
AcDbSortentsTable
330
8EA8
  0
SORTENTSTABLE
  5
9BE6
102
{ACAD_REACTORS
330
9BE5
102
}
330
9BE5
100
AcDbSortentsTable
330
9BE3
  0
SORTENTSTABLE
  5
AC36
102
{ACAD_REACTORS
330
AC35
102
}
330
AC35
100
AcDbSortentsTable
330
AC33
  0
XRECORD
  5
BF56
102
{ACAD_REACTORS
330
BF55
102
}
330
BF55
100
AcDbXrecord
280
     1
102
SHADEPLOT
 70
     0
  0
XRECORD
  5
BF58
102
{ACAD_REACTORS
330
BF57
102
}
330
BF57
100
AcDbXrecord
280
     1
102
SHADEPLOT
 70
     0
  0
LAYOUT
  5
22
102
{ACAD_XDICTIONARY
360
BF51
102
}
102
{ACAD_REACTORS
330
1A
102
}
330
1A
100
AcDbPlotSettings
  1

  2
EPSON PM-800C
  4
A4
  6

 40
3.757083177566528
 41
14.7637300491333
 42
3.757080078125
 43
3.757080078125
 44
209.9733276367187
 45
296.9683227539062
 46
0.0
 47
0.0
 48
0.0
 49
0.0
140
0.0
141
0.0
142
1.0
143
10.0
 70
 11952
 72
     1
 73
     1
 74
     2
  7

 75
    20
147
0.1
148
0.0
149
0.0
100
AcDbLayout
  1
Model
 70
     1
 71
     0
 10
0.0
 20
0.0
 11
12.0
 21
9.0
 12
0.0
 22
0.0
 32
0.0
 14
0.0
 24
0.0
 34
0.0
 15
0.0
 25
0.0
 35
0.0
146
0.0
 13
0.0
 23
0.0
 33
0.0
 16
1.0
 26
0.0
 36
0.0
 17
0.0
 27
1.0
 37
0.0
 76
     0
330
1F
  0
LAYOUT
  5
1E
102
{ACAD_XDICTIONARY
360
BF4F
102
}
102
{ACAD_REACTORS
330
1A
102
}
330
1A
100
AcDbPlotSettings
  1

  2
EPSON PM-800C
  4
A4
  6

 40
3.757083177566528
 41
14.7637300491333
 42
3.757080078125
 43
3.757080078125
 44
209.9733276367187
 45
296.9683227539062
 46
0.0
 47
0.0
 48
0.0
 49
0.0
140
0.0
141
0.0
142
1.0
143
1.0
 70
   688
 72
     1
 73
     1
 74
     5
  7

 75
    16
147
1.0
148
0.0
149
0.0
100
AcDbLayout
  1
ﾚｲｱｳﾄ1
 70
     1
 71
     1
 10
-3.757080078125
 20
-3.757083177566528
 11
293.2112426757813
 21
206.2162444591522
 12
0.0
 22
0.0
 32
0.0
 14
27.8447512626648
 24
20.24591643810271
 34
0.0
 15
250.6027613639831
 25
182.2132479429245
 35
0.0
146
0.0
 13
0.0
 23
0.0
 33
0.0
 16
1.0
 26
0.0
 36
0.0
 17
0.0
 27
1.0
 37
0.0
 76
     0
330
1B
331
2E
  0
LAYOUT
  5
26
102
{ACAD_XDICTIONARY
360
BF53
102
}
102
{ACAD_REACTORS
330
1A
102
}
330
1A
100
AcDbPlotSettings
  1

  2
EPSON PM-800C
  4

  6

 40
0.0
 41
0.0
 42
0.0
 43
0.0
 44
0.0
 45
0.0
 46
0.0
 47
0.0
 48
0.0
 49
0.0
140
0.0
141
0.0
142
1.0
143
1.0
 70
   688
 72
     0
 73
     0
 74
     5
  7

 75
    16
147
1.0
148
0.0
149
0.0
100
AcDbLayout
  1
ﾚｲｱｳﾄ2
 70
     1
 71
     2
 10
0.0
 20
0.0
 11
12.0
 21
9.0
 12
0.0
 22
0.0
 32
0.0
 14
0.0
 24
0.0
 34
0.0
 15
0.0
 25
0.0
 35
0.0
146
0.0
 13
0.0
 23
0.0
 33
0.0
 16
1.0
 26
0.0
 36
0.0
 17
0.0
 27
1.0
 37
0.0
 76
     0
330
23
  0
MLINESTYLE
  5
18
102
{ACAD_REACTORS
330
17
102
}
330
17
100
AcDbMlineStyle
  2
STANDARD
 70
     0
  3

 62
   256
 51
90.0
 52
90.0
 71
     2
 49
0.5
 62
   256
  6
BYLAYER
 49
-0.5
 62
   256
  6
BYLAYER
  0
ACDBPLACEHOLDER
  5
F
102
{ACAD_REACTORS
330
E
102
}
330
E
  0
TABLESTYLE
  5
22AF
102
{ACAD_REACTORS
330
22AE
102
}
330
22AE
100
AcDbTableStyle
  3
Standard
 70
     0
 71
     0
 40
1.5
 41
1.5
280
     0
281
     0
  7
Standard
140
4.5
170
     2
 62
     0
 63
     7
283
     0
274
    -2
284
     1
 64
     0
275
    -2
285
     1
 65
     0
276
    -2
286
     1
 66
     0
277
    -2
287
     1
 67
     0
278
    -2
288
     1
 68
     0
279
    -2
289
     1
 69
     0
  7
Standard
140
6.0
170
     5
 62
     0
 63
     7
283
     0
274
    -2
284
     1
 64
     0
275
    -2
285
     1
 65
     0
276
    -2
286
     1
 66
     0
277
    -2
287
     1
 67
     0
278
    -2
288
     1
 68
     0
279
    -2
289
     1
 69
     0
  7
Standard
140
4.5
170
     5
 62
     0
 63
     7
283
     0
274
    -2
284
     1
 64
     0
275
    -2
285
     1
 65
     0
276
    -2
286
     1
 66
     0
277
    -2
287
     1
 67
     0
278
    -2
288
     1
 68
     0
279
    -2
289
     1
 69
     0
  0
DICTIONARYVAR
  5
22B5
102
{ACAD_REACTORS
330
1589
102
}
330
1589
100
DictionaryVariables
280
     0
  1
STANDARD
  0
DICTIONARYVAR
  5
BF4A
102
{ACAD_REACTORS
330
1589
102
}
330
1589
100
DictionaryVariables
280
     0
  1
1
  0
DICTIONARYVAR
  5
BF4B
102
{ACAD_REACTORS
330
1589
102
}
330
1589
100
DictionaryVariables
280
     0
  1

  0
DICTIONARYVAR
  5
158A
102
{ACAD_REACTORS
330
1589
102
}
330
1589
100
DictionaryVariables
280
     0
  1
96
  0
DICTIONARY
  5
BF51
330
22
100
AcDbDictionary
280
     1
281
     1
  3
ACAD_XREC_ROUNDTRIP
360
BF52
  0
DICTIONARY
  5
BF4F
330
1E
100
AcDbDictionary
280
     1
281
     1
  3
ACAD_XREC_ROUNDTRIP
360
BF50
  0
DICTIONARY
  5
BF53
330
26
100
AcDbDictionary
280
     1
281
     1
  3
ACAD_XREC_ROUNDTRIP
360
BF54
  0
XRECORD
  5
BF52
102
{ACAD_REACTORS
330
BF51
102
}
330
BF51
100
AcDbXrecord
280
     1
102
SHADEPLOT
 70
     0
102
SHADEPLOTRESLEVEL
 70
     2
102
SHADEPLOTCUSTOMDPI
 70
   300
  0
XRECORD
  5
BF50
102
{ACAD_REACTORS
330
BF4F
102
}
330
BF4F
100
AcDbXrecord
280
     1
102
SHADEPLOT
 70
     0
102
SHADEPLOTRESLEVEL
 70
     2
102
SHADEPLOTCUSTOMDPI
 70
   300
  0
XRECORD
  5
BF54
102
{ACAD_REACTORS
330
BF53
102
}
330
BF53
100
AcDbXrecord
280
     1
102
SHADEPLOT
 70
     0
102
SHADEPLOTRESLEVEL
 70
     2
102
SHADEPLOTCUSTOMDPI
 70
   300
  0
ENDSEC
  0
EOF
