  0
SECTION
  2
HEADER
  9
$ACADVER
  1
AC1015
  9
$ACADMAINTVER
 70
    20
  9
$DWGCODEPAGE
  3
ANSI_932
  9
$INSBASE
 10
0.0
 20
0.0
 30
0.0
  9
$EXTMIN
 10
174.0
 20
-392.3860966284574
 30
0.0
  9
$EXTMAX
 10
2834.0
 20
2024.0
 30
0.0
  9
$LIMMIN
 10
54.0
 20
4.0
  9
$LIMMAX
 10
2834.0
 20
2024.0
  9
$ORTHOMODE
 70
     1
  9
$REGENMODE
 70
     1
  9
$FILLMODE
 70
     1
  9
$QTEXTMODE
 70
     0
  9
$MIRRTEXT
 70
     1
  9
$LTSCALE
 40
4.0
  9
$ATTMODE
 70
     1
  9
$TEXTSIZE
 40
30.0
  9
$TRACEWID
 40
1.0
  9
$TEXTSTYLE
  7
Standard
  9
$CLAYER
  8
実形
  9
$CELTYPE
  6
ByLayer
  9
$CECOLOR
 62
     3
  9
$CELTSCALE
 40
1.0
  9
$DISPSILH
 70
     0
  9
$DIMSCALE
 40
1.0
  9
$DIMASZ
 40
10.0
  9
$DIMEXO
 40
65.0
  9
$DIMDLI
 40
3.75
  9
$DIMRND
 40
0.0
  9
$DIMDLE
 40
0.0
  9
$DIMEXE
 40
0.0
  9
$DIMTP
 40
0.0
  9
$DIMTM
 40
0.0
  9
$DIMTXT
 40
30.0
  9
$DIMCEN
 40
2.5
  9
$DIMTSZ
 40
0.0
  9
$DIMTOL
 70
     0
  9
$DIMLIM
 70
     0
  9
$DIMTIH
 70
     0
  9
$DIMTOH
 70
     0
  9
$DIMSE1
 70
     0
  9
$DIMSE2
 70
     0
  9
$DIMTAD
 70
     1
  9
$DIMZIN
 70
     8
  9
$DIMBLK
  1
Dot
  9
$DIMASO
 70
     1
  9
$DIMSHO
 70
     1
  9
$DIMPOST
  1

  9
$DIMAPOST
  1

  9
$DIMALT
 70
     0
  9
$DIMALTD
 70
     3
  9
$DIMALTF
 40
0.03937007874016
  9
$DIMLFAC
 40
1.0
  9
$DIMTOFL
 70
     1
  9
$DIMTVP
 40
0.0
  9
$DIMTIX
 70
     0
  9
$DIMSOXD
 70
     0
  9
$DIMSAH
 70
     0
  9
$DIMBLK1
  1

  9
$DIMBLK2
  1

  9
$DIMSTYLE
  2
ISO-25
  9
$DIMCLRD
 70
     0
  9
$DIMCLRE
 70
     0
  9
$DIMCLRT
 70
     0
  9
$DIMTFAC
 40
1.0
  9
$DIMGAP
 40
6.599999999999998
  9
$DIMJUST
 70
     0
  9
$DIMSD1
 70
     0
  9
$DIMSD2
 70
     0
  9
$DIMTOLJ
 70
     0
  9
$DIMTZIN
 70
     8
  9
$DIMALTZ
 70
     0
  9
$DIMALTTZ
 70
     0
  9
$DIMUPT
 70
     0
  9
$DIMDEC
 70
     2
  9
$DIMTDEC
 70
     2
  9
$DIMALTU
 70
     2
  9
$DIMALTTD
 70
     3
  9
$DIMTXSTY
  7
Standard
  9
$DIMAUNIT
 70
     0
  9
$DIMADEC
 70
     0
  9
$DIMALTRND
 40
0.0
  9
$DIMAZIN
 70
     0
  9
$DIMDSEP
 70
    46
  9
$DIMATFIT
 70
     3
  9
$DIMFRAC
 70
     0
  9
$DIMLDRBLK
  1
Open30
  9
$DIMLUNIT
 70
     2
  9
$DIMLWD
 70
    18
  9
$DIMLWE
 70
    18
  9
$DIMTMOVE
 70
     2
  9
$LUNITS
 70
     2
  9
$LUPREC
 70
     2
  9
$SKETCHINC
 40
1.0
  9
$FILLETRAD
 40
0.0
  9
$AUNITS
 70
     0
  9
$AUPREC
 70
     0
  9
$MENU
  1
.
  9
$ELEVATION
 40
0.0
  9
$PELEVATION
 40
0.0
  9
$THICKNESS
 40
0.0
  9
$LIMCHECK
 70
     1
  9
$CHAMFERA
 40
10.0
  9
$CHAMFERB
 40
10.0
  9
$CHAMFERC
 40
20.0
  9
$CHAMFERD
 40
0.0
  9
$SKPOLY
 70
     0
  9
$TDCREATE
 40
2451673.575802199
  9
$TDUCREATE
 40
2451673.200802199
  9
$TDUPDATE
 40
2458808.783624549
  9
$TDUUPDATE
 40
2458808.408624548
  9
$TDINDWG
 40
2.9987558449
  9
$TDUSRTIMER
 40
2.9987551505
  9
$USRTIMER
 70
     1
  9
$ANGBASE
 50
0.0
  9
$ANGDIR
 70
     0
  9
$PDMODE
 70
     0
  9
$PDSIZE
 40
0.0
  9
$PLINEWID
 40
0.0
  9
$SPLFRAME
 70
     0
  9
$SPLINETYPE
 70
     6
  9
$SPLINESEGS
 70
     8
  9
$HANDSEED
  5
A958
  9
$SURFTAB1
 70
     6
  9
$SURFTAB2
 70
     6
  9
$SURFTYPE
 70
     6
  9
$SURFU
 70
     6
  9
$SURFV
 70
     6
  9
$UCSBASE
  2

  9
$UCSNAME
  2

  9
$UCSORG
 10
0.0
 20
0.0
 30
0.0
  9
$UCSXDIR
 10
1.0
 20
0.0
 30
0.0
  9
$UCSYDIR
 10
0.0
 20
1.0
 30
0.0
  9
$UCSORTHOREF
  2

  9
$UCSORTHOVIEW
 70
     0
  9
$UCSORGTOP
 10
0.0
 20
0.0
 30
0.0
  9
$UCSORGBOTTOM
 10
0.0
 20
0.0
 30
0.0
  9
$UCSORGLEFT
 10
0.0
 20
0.0
 30
0.0
  9
$UCSORGRIGHT
 10
0.0
 20
0.0
 30
0.0
  9
$UCSORGFRONT
 10
0.0
 20
0.0
 30
0.0
  9
$UCSORGBACK
 10
0.0
 20
0.0
 30
0.0
  9
$PUCSBASE
  2

  9
$PUCSNAME
  2

  9
$PUCSORG
 10
0.0
 20
0.0
 30
0.0
  9
$PUCSXDIR
 10
1.0
 20
0.0
 30
0.0
  9
$PUCSYDIR
 10
0.0
 20
1.0
 30
0.0
  9
$PUCSORTHOREF
  2

  9
$PUCSORTHOVIEW
 70
     0
  9
$PUCSORGTOP
 10
0.0
 20
0.0
 30
0.0
  9
$PUCSORGBOTTOM
 10
0.0
 20
0.0
 30
0.0
  9
$PUCSORGLEFT
 10
0.0
 20
0.0
 30
0.0
  9
$PUCSORGRIGHT
 10
0.0
 20
0.0
 30
0.0
  9
$PUCSORGFRONT
 10
0.0
 20
0.0
 30
0.0
  9
$PUCSORGBACK
 10
0.0
 20
0.0
 30
0.0
  9
$USERI1
 70
     0
  9
$USERI2
 70
     0
  9
$USERI3
 70
     0
  9
$USERI4
 70
     0
  9
$USERI5
 70
     0
  9
$USERR1
 40
0.0
  9
$USERR2
 40
0.0
  9
$USERR3
 40
0.0
  9
$USERR4
 40
0.0
  9
$USERR5
 40
0.0
  9
$WORLDVIEW
 70
     1
  9
$SHADEDGE
 70
     3
  9
$SHADEDIF
 70
    70
  9
$TILEMODE
 70
     1
  9
$MAXACTVP
 70
    64
  9
$PINSBASE
 10
0.0
 20
0.0
 30
0.0
  9
$PLIMCHECK
 70
     0
  9
$PEXTMIN
 10
27.8447512626648
 20
20.24591643810271
 30
0.0
  9
$PEXTMAX
 10
250.6027613639831
 20
182.2132479429245
 30
0.0
  9
$PLIMMIN
 10
-3.757080078125
 20
-3.757083177566528
  9
$PLIMMAX
 10
293.2112426757813
 20
206.2162444591522
  9
$UNITMODE
 70
     0
  9
$VISRETAIN
 70
     1
  9
$PLINEGEN
 70
     0
  9
$PSLTSCALE
 70
     1
  9
$TREEDEPTH
 70
  3020
  9
$CMLSTYLE
  2
Standard
  9
$CMLJUST
 70
     0
  9
$CMLSCALE
 40
20.0
  9
$PROXYGRAPHICS
 70
     1
  9
$MEASUREMENT
 70
     1
  9
$CELWEIGHT
370
    -1
  9
$ENDCAPS
280
     0
  9
$JOINSTYLE
280
     0
  9
$LWDISPLAY
290
     0
  9
$INSUNITS
 70
     4
  9
$HYPERLINKBASE
  1

  9
$STYLESHEET
  1

  9
$XEDIT
290
     1
  9
$CEPSNTYPE
380
     0
  9
$PSTYLEMODE
290
     1
  9
$FINGERPRINTGUID
  2
{C8EA1F16-24C9-11D4-9416-CE0A3B32152F}
  9
$VERSIONGUID
  2
{21D9C1F1-9165-4538-8A3C-6A6779D6408B}
  9
$EXTNAMES
290
     1
  9
$PSVPSCALE
 40
0.0
  9
$OLESTARTUP
290
     0
  0
ENDSEC
  0
SECTION
  2
CLASSES
  0
CLASS
  1
ACDBDICTIONARYWDFLT
  2
AcDbDictionaryWithDefault
  3
ObjectDBX Classes
 90
        0
280
     0
281
     0
  0
CLASS
  1
ACDBPLACEHOLDER
  2
AcDbPlaceHolder
  3
ObjectDBX Classes
 90
        0
280
     0
281
     0
  0
CLASS
  1
LAYOUT
  2
AcDbLayout
  3
ObjectDBX Classes
 90
        0
280
     0
281
     0
  0
CLASS
  1
DICTIONARYVAR
  2
AcDbDictionaryVar
  3
ObjectDBX Classes
 90
        0
280
     0
281
     0
  0
CLASS
  1
TABLESTYLE
  2
AcDbTableStyle
  3
ObjectDBX Classes
 90
     2047
280
     0
281
     0
  0
CLASS
  1
SORTENTSTABLE
  2
AcDbSortentsTable
  3
ObjectDBX Classes
 90
        0
280
     0
281
     0
  0
ENDSEC
  0
SECTION
  2
TABLES
  0
TABLE
  2
VPORT
  5
8
330
0
100
AcDbSymbolTable
 70
     2
  0
VPORT
  5
A94B
330
8
100
AcDbSymbolTableRecord
100
AcDbViewportTableRecord
  2
*Active
 70
     0
 10
0.0
 20
0.0
 11
1.0
 21
1.0
 12
1666.535982794549
 22
1042.743881269045
 13
0.0
 23
0.0
 14
10.0
 24
10.0
 15
10.0
 25
10.0
 16
0.0
 26
0.0
 36
1.0
 17
0.0
 27
0.0
 37
0.0
 40
2494.48241912055
 41
1.29038112522686
 42
50.0
 43
0.0
 44
0.0
 50
0.0
 51
0.0
 71
     0
 72
   100
 73
     1
 74
     3
 75
     0
 76
     0
 77
     0
 78
     0
281
     0
 65
     1
110
0.0
120
0.0
130
0.0
111
1.0
121
0.0
131
0.0
112
0.0
122
1.0
132
0.0
 79
     0
146
0.0
  0
ENDTAB
  0
TABLE
  2
LTYPE
  5
5
330
0
100
AcDbSymbolTable
 70
    46
  0
LTYPE
  5
14
330
5
100
AcDbSymbolTableRecord
100
AcDbLinetypeTableRecord
  2
ByBlock
 70
     0
  3

 72
    65
 73
     0
 40
0.0
  0
LTYPE
  5
15
330
5
100
AcDbSymbolTableRecord
100
AcDbLinetypeTableRecord
  2
ByLayer
 70
     0
  3

 72
    65
 73
     0
 40
0.0
  0
LTYPE
  5
16
330
5
100
AcDbSymbolTableRecord
100
AcDbLinetypeTableRecord
  2
Continuous
 70
     0
  3
Solid line
 72
    65
 73
     0
 40
0.0
  0
LTYPE
  5
34
330
5
100
AcDbSymbolTableRecord
100
AcDbLinetypeTableRecord
  2
ACAD_ISO02W100
 70
     0
  3
ISO dash __ __ __ __ __ __ __ __ __ __ __ __ __
 72
    65
 73
     2
 40
15.0
 49
12.0
 74
     0
 49
-3.0
 74
     0
  0
LTYPE
  5
35
330
5
100
AcDbSymbolTableRecord
100
AcDbLinetypeTableRecord
  2
ACAD_ISO03W100
 70
     0
  3
ISO dash space __    __    __    __    __    __
 72
    65
 73
     2
 40
30.0
 49
12.0
 74
     0
 49
-18.0
 74
     0
  0
LTYPE
  5
36
330
5
100
AcDbSymbolTableRecord
100
AcDbLinetypeTableRecord
  2
ACAD_ISO04W100
 70
     0
  3
ISO long-dash dot ____ . ____ . ____ . ____ . _
 72
    65
 73
     4
 40
30.0
 49
24.0
 74
     0
 49
-3.0
 74
     0
 49
0.0
 74
     0
 49
-3.0
 74
     0
  0
LTYPE
  5
37
330
5
100
AcDbSymbolTableRecord
100
AcDbLinetypeTableRecord
  2
ACAD_ISO05W100
 70
     0
  3
ISO long-dash double-dot ____ .. ____ .. ____ .
 72
    65
 73
     6
 40
34.0
 49
24.0
 74
     0
 49
-3.0
 74
     0
 49
0.5
 74
     0
 49
-3.0
 74
     0
 49
0.5
 74
     0
 49
-3.0
 74
     0
  0
LTYPE
  5
38
330
5
100
AcDbSymbolTableRecord
100
AcDbLinetypeTableRecord
  2
ACAD_ISO06W100
 70
     0
  3
ISO long-dash triple-dot ____ ... ____ ... ____
 72
    65
 73
     8
 40
37.5
 49
24.0
 74
     0
 49
-3.0
 74
     0
 49
0.5
 74
     0
 49
-3.0
 74
     0
 49
0.5
 74
     0
 49
-3.0
 74
     0
 49
0.5
 74
     0
 49
-3.0
 74
     0
  0
LTYPE
  5
39
330
5
100
AcDbSymbolTableRecord
100
AcDbLinetypeTableRecord
  2
ACAD_ISO07W100
 70
     0
  3
ISO dot . . . . . . . . . . . . . . . . . . . .
 72
    65
 73
     2
 40
3.0
 49
0.0
 74
     0
 49
-3.0
 74
     0
  0
LTYPE
  5
3A
330
5
100
AcDbSymbolTableRecord
100
AcDbLinetypeTableRecord
  2
ACAD_ISO08W100
 70
     0
  3
ISO long-dash short-dash ____ __ ____ __ ____ _
 72
    65
 73
     4
 40
36.0
 49
24.0
 74
     0
 49
-3.0
 74
     0
 49
6.0
 74
     0
 49
-3.0
 74
     0
  0
LTYPE
  5
3B
330
5
100
AcDbSymbolTableRecord
100
AcDbLinetypeTableRecord
  2
ACAD_ISO09W100
 70
     0
  3
ISO long-dash double-short-dash ____ __ __ ____
 72
    65
 73
     6
 40
45.0
 49
24.0
 74
     0
 49
-3.0
 74
     0
 49
6.0
 74
     0
 49
-3.0
 74
     0
 49
6.0
 74
     0
 49
-3.0
 74
     0
  0
LTYPE
  5
3C
330
5
100
AcDbSymbolTableRecord
100
AcDbLinetypeTableRecord
  2
ACAD_ISO10W100
 70
     0
  3
ISO dash dot __ . __ . __ . __ . __ . __ . __ .
 72
    65
 73
     4
 40
18.0
 49
12.0
 74
     0
 49
-3.0
 74
     0
 49
0.0
 74
     0
 49
-3.0
 74
     0
  0
LTYPE
  5
3D
330
5
100
AcDbSymbolTableRecord
100
AcDbLinetypeTableRecord
  2
ACAD_ISO11W100
 70
     0
  3
ISO double-dash dot __ __ . __ __ . __ __ . __ 
 72
    65
 73
     6
 40
33.0
 49
12.0
 74
     0
 49
-3.0
 74
     0
 49
12.0
 74
     0
 49
-3.0
 74
     0
 49
0.0
 74
     0
 49
-3.0
 74
     0
  0
LTYPE
  5
3E
330
5
100
AcDbSymbolTableRecord
100
AcDbLinetypeTableRecord
  2
ACAD_ISO12W100
 70
     0
  3
ISO dash double-dot __ . . __ . . __ . . __ . .
 72
    65
 73
     6
 40
21.0
 49
12.0
 74
     0
 49
-3.0
 74
     0
 49
0.0
 74
     0
 49
-3.0
 74
     0
 49
0.0
 74
     0
 49
-3.0
 74
     0
  0
LTYPE
  5
3F
330
5
100
AcDbSymbolTableRecord
100
AcDbLinetypeTableRecord
  2
ACAD_ISO13W100
 70
     0
  3
ISO double-dash double-dot __ __ . . __ __ . . 
 72
    65
 73
     8
 40
36.0
 49
12.0
 74
     0
 49
-3.0
 74
     0
 49
12.0
 74
     0
 49
-3.0
 74
     0
 49
0.0
 74
     0
 49
-3.0
 74
     0
 49
0.0
 74
     0
 49
-3.0
 74
     0
  0
LTYPE
  5
40
330
5
100
AcDbSymbolTableRecord
100
AcDbLinetypeTableRecord
  2
ACAD_ISO14W100
 70
     0
  3
ISO dash triple-dot __ . . . __ . . . __ . . . 
 72
    65
 73
     8
 40
24.0
 49
12.0
 74
     0
 49
-3.0
 74
     0
 49
0.0
 74
     0
 49
-3.0
 74
     0
 49
0.0
 74
     0
 49
-3.0
 74
     0
 49
0.0
 74
     0
 49
-3.0
 74
     0
  0
LTYPE
  5
41
330
5
100
AcDbSymbolTableRecord
100
AcDbLinetypeTableRecord
  2
ACAD_ISO15W100
 70
     0
  3
ISO double-dash triple-dot __ __ . . . __ __ . 
 72
    65
 73
    10
 40
39.0
 49
12.0
 74
     0
 49
-3.0
 74
     0
 49
12.0
 74
     0
 49
-3.0
 74
     0
 49
0.0
 74
     0
 49
-3.0
 74
     0
 49
0.0
 74
     0
 49
-3.0
 74
     0
 49
0.0
 74
     0
 49
-3.0
 74
     0
  0
LTYPE
  5
42
330
5
100
AcDbSymbolTableRecord
100
AcDbLinetypeTableRecord
  2
BATTING
 70
     0
  3
Batting SSSSSSSSSSSSSSSSSSSSSSSSSSSSSSSSSSSSSSS
 72
    65
 73
     4
 40
10.16254
 49
0.00254
 74
     0
 49
-2.54
 74
     4
 75
   134
340
33
 46
2.54
 50
0.0
 44
-2.54
 45
0.0
 49
-5.08
 74
     4
 75
   134
340
33
 46
2.54
 50
180.0
 44
2.54
 45
0.0
 49
-2.54
 74
     0
  0
LTYPE
  5
43
330
5
100
AcDbSymbolTableRecord
100
AcDbLinetypeTableRecord
  2
BORDER
 70
     0
  3
Border __ __ . __ __ . __ __ . __ __ . __ __ .
 72
    65
 73
     6
 40
44.45
 49
12.7
 74
     0
 49
-6.349999999999999
 74
     0
 49
12.7
 74
     0
 49
-6.349999999999999
 74
     0
 49
0.0
 74
     0
 49
-6.349999999999999
 74
     0
  0
LTYPE
  5
44
330
5
100
AcDbSymbolTableRecord
100
AcDbLinetypeTableRecord
  2
BORDER2
 70
     0
  3
Border (.5x) __.__.__.__.__.__.__.__.__.__.__.
 72
    65
 73
     6
 40
22.225
 49
6.349999999999999
 74
     0
 49
-3.174999999999999
 74
     0
 49
6.349999999999999
 74
     0
 49
-3.174999999999999
 74
     0
 49
0.0
 74
     0
 49
-3.174999999999999
 74
     0
  0
LTYPE
  5
45
330
5
100
AcDbSymbolTableRecord
100
AcDbLinetypeTableRecord
  2
BORDERX2
 70
     0
  3
Border (2x) ____  ____  .  ____  ____  .  ___
 72
    65
 73
     6
 40
88.9
 49
25.4
 74
     0
 49
-12.7
 74
     0
 49
25.4
 74
     0
 49
-12.7
 74
     0
 49
0.0
 74
     0
 49
-12.7
 74
     0
  0
LTYPE
  5
46
330
5
100
AcDbSymbolTableRecord
100
AcDbLinetypeTableRecord
  2
CENTER
 70
     0
  3
Center ____ _ ____ _ ____ _ ____ _ ____ _ ____
 72
    65
 73
     4
 40
50.8
 49
31.75
 74
     0
 49
-6.349999999999999
 74
     0
 49
6.349999999999999
 74
     0
 49
-6.349999999999999
 74
     0
  0
LTYPE
  5
47
330
5
100
AcDbSymbolTableRecord
100
AcDbLinetypeTableRecord
  2
CENTER2
 70
     0
  3
Center (.5x) ___ _ ___ _ ___ _ ___ _ ___ _ ___
 72
    65
 73
     4
 40
28.575
 49
19.05
 74
     0
 49
-3.174999999999999
 74
     0
 49
3.174999999999999
 74
     0
 49
-3.174999999999999
 74
     0
  0
LTYPE
  5
48
330
5
100
AcDbSymbolTableRecord
100
AcDbLinetypeTableRecord
  2
CENTERX2
 70
     0
  3
Center (2x) ________  __  ________  __  _____
 72
    65
 73
     4
 40
101.6
 49
63.5
 74
     0
 49
-12.7
 74
     0
 49
12.7
 74
     0
 49
-12.7
 74
     0
  0
LTYPE
  5
49
330
5
100
AcDbSymbolTableRecord
100
AcDbLinetypeTableRecord
  2
DASHDOT
 70
     0
  3
Dash dot __ . __ . __ . __ . __ . __ . __ . __
 72
    65
 73
     4
 40
25.4
 49
12.7
 74
     0
 49
-6.349999999999999
 74
     0
 49
0.0
 74
     0
 49
-6.349999999999999
 74
     0
  0
LTYPE
  5
4A
330
5
100
AcDbSymbolTableRecord
100
AcDbLinetypeTableRecord
  2
DASHDOT2
 70
     0
  3
Dash dot (.5x) _._._._._._._._._._._._._._._.
 72
    65
 73
     4
 40
12.7
 49
6.349999999999999
 74
     0
 49
-3.174999999999999
 74
     0
 49
0.0
 74
     0
 49
-3.174999999999999
 74
     0
  0
LTYPE
  5
4B
330
5
100
AcDbSymbolTableRecord
100
AcDbLinetypeTableRecord
  2
DASHDOTX2
 70
     0
  3
Dash dot (2x) ____  .  ____  .  ____  .  ___
 72
    65
 73
     4
 40
50.8
 49
25.4
 74
     0
 49
-12.7
 74
     0
 49
0.0
 74
     0
 49
-12.7
 74
     0
  0
LTYPE
  5
4C
330
5
100
AcDbSymbolTableRecord
100
AcDbLinetypeTableRecord
  2
DASHED
 70
     0
  3
Dashed __ __ __ __ __ __ __ __ __ __ __ __ __ _
 72
    65
 73
     2
 40
19.05
 49
12.7
 74
     0
 49
-6.349999999999999
 74
     0
  0
LTYPE
  5
4D
330
5
100
AcDbSymbolTableRecord
100
AcDbLinetypeTableRecord
  2
DASHED2
 70
     0
  3
Dashed (.5x) _ _ _ _ _ _ _ _ _ _ _ _ _ _ _ _ _
 72
    65
 73
     2
 40
9.524999999999998
 49
6.349999999999999
 74
     0
 49
-3.174999999999999
 74
     0
  0
LTYPE
  5
4E
330
5
100
AcDbSymbolTableRecord
100
AcDbLinetypeTableRecord
  2
DASHEDX2
 70
     0
  3
Dashed (2x) ____  ____  ____  ____  ____  ___
 72
    65
 73
     2
 40
38.1
 49
25.4
 74
     0
 49
-12.7
 74
     0
  0
LTYPE
  5
4F
330
5
100
AcDbSymbolTableRecord
100
AcDbLinetypeTableRecord
  2
DIVIDE
 70
     0
  3
Divide ____ . . ____ . . ____ . . ____ . . ____
 72
    65
 73
     6
 40
31.75
 49
12.7
 74
     0
 49
-6.349999999999999
 74
     0
 49
0.0
 74
     0
 49
-6.349999999999999
 74
     0
 49
0.0
 74
     0
 49
-6.349999999999999
 74
     0
  0
LTYPE
  5
50
330
5
100
AcDbSymbolTableRecord
100
AcDbLinetypeTableRecord
  2
DIVIDE2
 70
     0
  3
Divide (.5x) __..__..__..__..__..__..__..__.._
 72
    65
 73
     6
 40
15.875
 49
6.349999999999999
 74
     0
 49
-3.174999999999999
 74
     0
 49
0.0
 74
     0
 49
-3.174999999999999
 74
     0
 49
0.0
 74
     0
 49
-3.174999999999999
 74
     0
  0
LTYPE
  5
51
330
5
100
AcDbSymbolTableRecord
100
AcDbLinetypeTableRecord
  2
DIVIDEX2
 70
     0
  3
Divide (2x) ________  .  .  ________  .  .  _
 72
    65
 73
     6
 40
63.49999999999999
 49
25.4
 74
     0
 49
-12.7
 74
     0
 49
0.0
 74
     0
 49
-12.7
 74
     0
 49
0.0
 74
     0
 49
-12.7
 74
     0
  0
LTYPE
  5
52
330
5
100
AcDbSymbolTableRecord
100
AcDbLinetypeTableRecord
  2
DOT
 70
     0
  3
Dot . . . . . . . . . . . . . . . . . . . . . .
 72
    65
 73
     2
 40
6.349999999999999
 49
0.0
 74
     0
 49
-6.349999999999999
 74
     0
  0
LTYPE
  5
53
330
5
100
AcDbSymbolTableRecord
100
AcDbLinetypeTableRecord
  2
DOT2
 70
     0
  3
Dot (.5x) .....................................
 72
    65
 73
     2
 40
3.174999999999999
 49
0.0
 74
     0
 49
-3.174999999999999
 74
     0
  0
LTYPE
  5
54
330
5
100
AcDbSymbolTableRecord
100
AcDbLinetypeTableRecord
  2
DOTX2
 70
     0
  3
Dot (2x) .  .  .  .  .  .  .  .  .  .  .  .  . 
 72
    65
 73
     2
 40
12.7
 49
0.0
 74
     0
 49
-12.7
 74
     0
  0
LTYPE
  5
55
330
5
100
AcDbSymbolTableRecord
100
AcDbLinetypeTableRecord
  2
FENCELINE1
 70
     0
  3
Fenceline circle ----0-----0----0-----0----0---
 72
    65
 73
     4
 40
36.83
 49
6.349999999999999
 74
     0
 49
-2.54
 74
     4
 75
   133
340
33
 46
2.54
 50
0.0
 44
-2.54
 45
0.0
 49
-2.54
 74
     0
 49
25.4
 74
     0
  0
LTYPE
  5
56
330
5
100
AcDbSymbolTableRecord
100
AcDbLinetypeTableRecord
  2
FENCELINE2
 70
     0
  3
Fenceline square ----[]-----[]----[]-----[]----
 72
    65
 73
     4
 40
36.83
 49
6.349999999999999
 74
     0
 49
-2.54
 74
     4
 75
   132
340
33
 46
2.54
 50
0.0
 44
-2.54
 45
0.0
 49
-2.54
 74
     0
 49
25.4
 74
     0
  0
LTYPE
  5
57
330
5
100
AcDbSymbolTableRecord
100
AcDbLinetypeTableRecord
  2
GAS_LINE
 70
     0
  3
Gas line ----GAS----GAS----GAS----GAS----GAS---
 72
    65
 73
     3
 40
24.13
 49
12.7
 74
     0
 49
-5.08
 74
     2
 75
     0
340
11
 46
2.54
 50
0.0
 44
-2.54
 45
-1.27
  9
GAS
 49
-6.349999999999999
 74
     0
  0
LTYPE
  5
58
330
5
100
AcDbSymbolTableRecord
100
AcDbLinetypeTableRecord
  2
HIDDEN
 70
     0
  3
Hidden __ __ __ __ __ __ __ __ __ __ __ __ __ _
 72
    65
 73
     2
 40
9.524999999999998
 49
6.349999999999999
 74
     0
 49
-3.174999999999999
 74
     0
  0
LTYPE
  5
59
330
5
100
AcDbSymbolTableRecord
100
AcDbLinetypeTableRecord
  2
HIDDEN2
 70
     0
  3
Hidden (.5x) _ _ _ _ _ _ _ _ _ _ _ _ _ _ _ _ _
 72
    65
 73
     2
 40
4.762499999999999
 49
3.174999999999999
 74
     0
 49
-1.587499999999999
 74
     0
  0
LTYPE
  5
5A
330
5
100
AcDbSymbolTableRecord
100
AcDbLinetypeTableRecord
  2
HIDDENX2
 70
     0
  3
Hidden (2x) ____ ____ ____ ____ ____ ____ ____
 72
    65
 73
     2
 40
19.05
 49
12.7
 74
     0
 49
-6.349999999999999
 74
     0
  0
LTYPE
  5
5B
330
5
100
AcDbSymbolTableRecord
100
AcDbLinetypeTableRecord
  2
HOT_WATER_SUPPLY
 70
     0
  3
Hot water supply ---- HW ---- HW ---- HW ----
 72
    65
 73
     3
 40
22.86
 49
12.7
 74
     0
 49
-5.08
 74
     2
 75
     0
340
11
 46
2.54
 50
0.0
 44
-2.54
 45
-1.27
  9
HW
 49
-5.08
 74
     0
  0
LTYPE
  5
5C
330
5
100
AcDbSymbolTableRecord
100
AcDbLinetypeTableRecord
  2
PHANTOM
 70
     0
  3
Phantom ______  __  __  ______  __  __  ______
 72
    65
 73
     6
 40
63.5
 49
31.75
 74
     0
 49
-6.349999999999999
 74
     0
 49
6.349999999999999
 74
     0
 49
-6.349999999999999
 74
     0
 49
6.349999999999999
 74
     0
 49
-6.349999999999999
 74
     0
  0
LTYPE
  5
5D
330
5
100
AcDbSymbolTableRecord
100
AcDbLinetypeTableRecord
  2
PHANTOM2
 70
     0
  3
Phantom (.5x) ___ _ _ ___ _ _ ___ _ _ ___ _ _
 72
    65
 73
     6
 40
31.75
 49
15.875
 74
     0
 49
-3.174999999999999
 74
     0
 49
3.174999999999999
 74
     0
 49
-3.174999999999999
 74
     0
 49
3.174999999999999
 74
     0
 49
-3.174999999999999
 74
     0
  0
LTYPE
  5
5E
330
5
100
AcDbSymbolTableRecord
100
AcDbLinetypeTableRecord
  2
PHANTOMX2
 70
     0
  3
Phantom (2x) ____________    ____    ____   _
 72
    65
 73
     6
 40
127.0
 49
63.5
 74
     0
 49
-12.7
 74
     0
 49
12.7
 74
     0
 49
-12.7
 74
     0
 49
12.7
 74
     0
 49
-12.7
 74
     0
  0
LTYPE
  5
5F
330
5
100
AcDbSymbolTableRecord
100
AcDbLinetypeTableRecord
  2
TRACKS
 70
     0
  3
Tracks -|-|-|-|-|-|-|-|-|-|-|-|-|-|-|-|-|-|-|-|
 72
    65
 73
     2
 40
7.62
 49
3.81
 74
     4
 75
   130
340
33
 46
6.349999999999999
 50
0.0
 44
0.0
 45
0.0
 49
3.81
 74
     0
  0
LTYPE
  5
60
330
5
100
AcDbSymbolTableRecord
100
AcDbLinetypeTableRecord
  2
ZIGZAG
 70
     0
  3
Zig zag /\/\/\/\/\/\/\/\/\/\/\/\/\/\/\/\/\/\/\/
 72
    65
 73
     4
 40
20.32254
 49
0.00254
 74
     0
 49
-5.08
 74
     4
 75
   131
340
33
 46
5.08
 50
0.0
 44
-5.08
 45
0.0
 49
-10.16
 74
     4
 75
   131
340
33
 46
5.08
 50
180.0
 44
5.08
 45
0.0
 49
-5.08
 74
     0
  0
ENDTAB
  0
TABLE
  2
LAYER
  5
2
102
{ACAD_XDICTIONARY
360
24C4
102
}
330
0
100
AcDbSymbolTable
 70
     9
  0
LAYER
  5
10
330
2
100
AcDbSymbolTableRecord
100
AcDbLayerTableRecord
  2
0
 70
     0
 62
     7
  6
Continuous
290
     0
370
    -3
390
F
  0
LAYER
  5
C3
330
2
100
AcDbSymbolTableRecord
100
AcDbLayerTableRecord
  2
Defpoints
 70
     0
 62
     7
  6
Continuous
290
     0
370
    -3
390
F
  0
LAYER
  5
256
330
2
100
AcDbSymbolTableRecord
100
AcDbLayerTableRecord
  2
センター
 70
     0
 62
     7
  6
CENTER2
370
    18
390
F
  0
LAYER
  5
268
330
2
100
AcDbSymbolTableRecord
100
AcDbLayerTableRecord
  2
実形
 70
     0
 62
     7
  6
Continuous
370
    -3
390
F
  0
LAYER
  5
269
330
2
100
AcDbSymbolTableRecord
100
AcDbLayerTableRecord
  2
補助
 70
     0
 62
     4
  6
Continuous
370
    -3
390
F
  0
LAYER
  5
26A
330
2
100
AcDbSymbolTableRecord
100
AcDbLayerTableRecord
  2
寸法
 70
     0
 62
     7
  6
Continuous
370
    18
390
F
  0
LAYER
  5
26B
330
2
100
AcDbSymbolTableRecord
100
AcDbLayerTableRecord
  2
ハッチング
 70
     0
 62
     7
  6
Continuous
370
    18
390
F
  0
LAYER
  5
26D
330
2
100
AcDbSymbolTableRecord
100
AcDbLayerTableRecord
  2
枠
 70
     0
 62
     7
  6
Continuous
370
    -3
390
F
  0
LAYER
  5
1B3D
330
2
100
AcDbSymbolTableRecord
100
AcDbLayerTableRecord
  2
Cen
 70
     0
 62
     7
  6
CENTER2
290
     0
370
    15
390
F
  0
ENDTAB
  0
TABLE
  2
STYLE
  5
3
330
0
100
AcDbSymbolTable
 70
     5
  0
STYLE
  5
11
330
3
100
AcDbSymbolTableRecord
100
AcDbTextStyleTableRecord
  2
Standard
 70
     0
 40
0.0
 41
1.0
 50
0.0
 71
     0
 42
30.0
  3
txt.shx
  4
bigfont.shx
  0
STYLE
  5
33
330
3
100
AcDbSymbolTableRecord
100
AcDbTextStyleTableRecord
  2

 70
     1
 40
0.0
 41
1.0
 50
0.0
 71
     0
 42
2.5
  3
ltypeshp.shx
  4

  0
STYLE
  5
35E2
330
3
100
AcDbSymbolTableRecord
100
AcDbTextStyleTableRecord
  2
ms明朝
 70
     0
 40
0.0
 41
1.0
 50
0.0
 71
     0
 42
25.0
  3
MS Mincho.ttf
  4

1001
ACAD
1000
MS Mincho
1071
    32785
  0
STYLE
  5
A854
330
3
100
AcDbSymbolTableRecord
100
AcDbTextStyleTableRecord
  2
ｍｓ明朝1
 70
     0
 40
0.0
 41
1.0
 50
0.0
 71
     0
 42
25.0
  3
MS Mincho.ttf
  4

1001
ACAD
1000
MS Mincho
1071
    32785
  0
STYLE
  5
A855
330
3
100
AcDbSymbolTableRecord
100
AcDbTextStyleTableRecord
  2
明朝
 70
     0
 40
0.0
 41
1.0
 50
0.0
 71
     0
 42
25.0
  3
MS Mincho.ttf
  4

1001
ACAD
1000
MS Mincho
1071
    32785
  0
ENDTAB
  0
TABLE
  2
VIEW
  5
6
330
0
100
AcDbSymbolTable
 70
     0
  0
ENDTAB
  0
TABLE
  2
UCS
  5
7
330
0
100
AcDbSymbolTable
 70
     0
  0
ENDTAB
  0
TABLE
  2
APPID
  5
9
330
0
100
AcDbSymbolTable
 70
     2
  0
APPID
  5
12
330
9
100
AcDbSymbolTableRecord
100
AcDbRegAppTableRecord
  2
ACAD
 70
     0
  0
APPID
  5
24C3
330
9
100
AcDbSymbolTableRecord
100
AcDbRegAppTableRecord
  2
ACAD_PSEXT
 70
     0
  0
ENDTAB
  0
TABLE
  2
DIMSTYLE
  5
A
330
0
100
AcDbSymbolTable
 70
     1
100
AcDbDimStyleTable
 71
     1
340
27
  0
DIMSTYLE
105
27
102
{ACAD_REACTORS
330
78E9
330
78F6
330
7A0D
330
7A2E
330
7A4D
330
7B4E
330
7BA4
330
7BCC
330
8C4D
330
8C70
330
8E06
330
8E13
330
8E29
330
8E3F
330
8E81
330
8EC8
330
8EE7
330
8F4E
330
90B3
330
90C0
330
9C62
330
9DAE
330
9DAF
330
9DC2
330
9DC3
330
9DD5
330
9DD6
330
9DD7
330
9DD8
330
9DD9
330
9DDA
330
9DDB
330
9DDE
330
9DDF
330
9DE0
330
9DE1
330
9DE2
330
9DE3
330
9DE4
330
A33D
330
A33E
330
A34E
330
A34F
330
A350
330
A351
330
A352
330
A353
330
A354
330
A5AB
330
A5AC
330
A5B1
330
A5B2
330
A5B3
330
A5B4
330
A5B5
330
A5B6
330
A5B7
102
}
330
A
100
AcDbSymbolTableRecord
100
AcDbDimStyleTableRecord
  2
ISO-25
 70
     0
 41
35.0
 42
65.0
 43
3.75
 44
0.0
 73
     0
 74
     0
 77
     1
 78
     8
140
25.0
141
2.5
143
0.03937007874016
147
6.25
171
     3
172
     1
271
     2
272
     2
274
     3
283
     0
284
     8
340
11
341
DA
342
D0
371
    15
372
    15
  0
ENDTAB
  0
TABLE
  2
BLOCK_RECORD
  5
1
330
0
100
AcDbSymbolTable
 70
   101
  0
BLOCK_RECORD
  5
1F
102
{ACAD_XDICTIONARY
360
2396
102
}
330
1
100
AcDbSymbolTableRecord
100
AcDbBlockTableRecord
  2
*Model_Space
340
22
  0
BLOCK_RECORD
  5
1B
330
1
100
AcDbSymbolTableRecord
100
AcDbBlockTableRecord
  2
*Paper_Space
340
1E
  0
BLOCK_RECORD
  5
23
330
1
100
AcDbSymbolTableRecord
100
AcDbBlockTableRecord
  2
*Paper_Space0
340
26
  0
BLOCK_RECORD
  5
D0
330
1
100
AcDbSymbolTableRecord
100
AcDbBlockTableRecord
  2
_DotSmall
340
0
  0
BLOCK_RECORD
  5
D4
330
1
100
AcDbSymbolTableRecord
100
AcDbBlockTableRecord
  2
_Origin2
340
0
  0
BLOCK_RECORD
  5
DA
330
1
100
AcDbSymbolTableRecord
100
AcDbBlockTableRecord
  2
_Open30
340
0
  0
BLOCK_RECORD
  5
2D6
330
1
100
AcDbSymbolTableRecord
100
AcDbBlockTableRecord
  2
A$C6CAC4411
340
0
  0
BLOCK_RECORD
  5
30D
330
1
100
AcDbSymbolTableRecord
100
AcDbBlockTableRecord
  2
_Dot
340
0
102
{BLKREFS
331
7F4A
331
7F4B
331
7F57
331
7F58
331
7F63
331
7F64
331
7F6E
331
7F6F
331
7F7A
331
7F7B
331
7F86
331
7F87
331
7F92
331
7F93
331
7F0E
331
7F0F
331
7F1B
331
7F1C
331
7F26
331
7F27
331
7F33
331
7F34
331
7F3E
331
7F3F
331
7F9E
331
7F9F
331
7FAA
331
7FAB
331
7FB6
331
7FB7
331
7FC2
331
7FC3
331
7FCE
331
7FCF
331
7FDB
331
7FDC
331
7FE6
331
7FE7
331
7FF3
331
7FF4
331
7FFE
331
7FFF
331
800B
331
800C
331
8017
331
8018
331
8022
331
8023
331
802E
331
802F
331
803B
331
803C
331
8052
331
8053
331
805E
331
805F
331
8047
331
8048
331
A0EC
331
A0ED
331
A0F5
331
A0F6
331
A111
331
A112
331
A119
331
A11A
331
A123
331
A124
331
A12C
331
A12D
331
A134
331
A135
331
A13E
331
A13F
331
A147
331
A148
331
A150
331
A151
331
A159
331
A15A
331
A162
331
A163
331
A16B
331
A16C
331
A174
331
A175
331
A1C4
331
A1C5
331
A226
331
A227
331
A22F
331
A230
331
A241
331
A242
331
A24B
331
A24C
331
A253
331
A254
331
A435
331
A436
331
A43E
331
A43F
331
A446
331
A447
331
A450
331
A451
331
A459
331
A45A
331
A462
331
A463
331
A46B
331
A46C
331
A473
331
A474
331
A47C
331
A47D
331
A4CD
331
A4CE
331
A4D6
331
A4D7
331
A4E0
331
A4E1
331
A4E8
331
A4E9
331
A4F1
331
A4F2
331
A4F9
331
A4FA
331
A503
331
A504
331
A63B
331
A63C
331
A644
331
A645
331
A64E
331
A64F
331
A657
331
A658
331
A660
331
A661
331
A6E6
331
A6E7
331
A6EF
331
A6F0
331
A6F9
331
A6FA
331
A702
331
A703
331
A70A
331
A70B
331
A713
331
A714
331
A746
331
A747
331
A7B9
331
A7BA
331
A7C1
331
A7C2
331
A7E7
331
A7E8
331
A7F0
331
A7F1
331
A8DC
331
A8DD
331
A8F1
331
A8F2
331
A907
331
A908
331
A91B
331
A91C
331
A930
331
A931
102
}
  0
BLOCK_RECORD
  5
313C
102
{ACAD_XDICTIONARY
360
313E
102
}
330
1
100
AcDbSymbolTableRecord
100
AcDbBlockTableRecord
  2
A$C6850087C
340
0
  0
BLOCK_RECORD
  5
3846
102
{ACAD_XDICTIONARY
360
3848
102
}
330
1
100
AcDbSymbolTableRecord
100
AcDbBlockTableRecord
  2
A$C71387EE1
340
0
  0
BLOCK_RECORD
  5
6B87
102
{ACAD_XDICTIONARY
360
6B89
102
}
330
1
100
AcDbSymbolTableRecord
100
AcDbBlockTableRecord
  2
A$C47AF373A
340
0
  0
BLOCK_RECORD
  5
6C00
102
{ACAD_XDICTIONARY
360
6C02
102
}
330
1
100
AcDbSymbolTableRecord
100
AcDbBlockTableRecord
  2
A$C2B9560D8
340
0
  0
BLOCK_RECORD
  5
7752
102
{ACAD_XDICTIONARY
360
7758
102
}
330
1
100
AcDbSymbolTableRecord
100
AcDbBlockTableRecord
  2
A$C113940D1
340
0
  0
BLOCK_RECORD
  5
78EA
330
1
100
AcDbSymbolTableRecord
100
AcDbBlockTableRecord
  2
*D11
340
0
  0
BLOCK_RECORD
  5
78F7
330
1
100
AcDbSymbolTableRecord
100
AcDbBlockTableRecord
  2
*D12
340
0
  0
BLOCK_RECORD
  5
79A0
102
{ACAD_XDICTIONARY
360
79A2
102
}
330
1
100
AcDbSymbolTableRecord
100
AcDbBlockTableRecord
  2
A$C34481AC4
340
0
  0
BLOCK_RECORD
  5
7A0E
330
1
100
AcDbSymbolTableRecord
100
AcDbBlockTableRecord
  2
*D14
340
0
  0
BLOCK_RECORD
  5
7A2F
330
1
100
AcDbSymbolTableRecord
100
AcDbBlockTableRecord
  2
*D15
340
0
  0
BLOCK_RECORD
  5
7A4E
330
1
100
AcDbSymbolTableRecord
100
AcDbBlockTableRecord
  2
*D16
340
0
  0
BLOCK_RECORD
  5
7B4F
330
1
100
AcDbSymbolTableRecord
100
AcDbBlockTableRecord
  2
*D17
340
0
  0
BLOCK_RECORD
  5
7BA5
330
1
100
AcDbSymbolTableRecord
100
AcDbBlockTableRecord
  2
*D18
340
0
  0
BLOCK_RECORD
  5
7BCD
330
1
100
AcDbSymbolTableRecord
100
AcDbBlockTableRecord
  2
*D19
340
0
  0
BLOCK_RECORD
  5
7F09
330
1
100
AcDbSymbolTableRecord
100
AcDbBlockTableRecord
  2
*D20
340
0
  0
BLOCK_RECORD
  5
7F15
330
1
100
AcDbSymbolTableRecord
100
AcDbBlockTableRecord
  2
*D21
340
0
  0
BLOCK_RECORD
  5
7F21
330
1
100
AcDbSymbolTableRecord
100
AcDbBlockTableRecord
  2
*D22
340
0
  0
BLOCK_RECORD
  5
7F2D
330
1
100
AcDbSymbolTableRecord
100
AcDbBlockTableRecord
  2
*D23
340
0
  0
BLOCK_RECORD
  5
7F39
330
1
100
AcDbSymbolTableRecord
100
AcDbBlockTableRecord
  2
*D24
340
0
  0
BLOCK_RECORD
  5
7F45
330
1
100
AcDbSymbolTableRecord
100
AcDbBlockTableRecord
  2
*D25
340
0
  0
BLOCK_RECORD
  5
7F51
330
1
100
AcDbSymbolTableRecord
100
AcDbBlockTableRecord
  2
*D26
340
0
  0
BLOCK_RECORD
  5
7F5D
330
1
100
AcDbSymbolTableRecord
100
AcDbBlockTableRecord
  2
*D27
340
0
  0
BLOCK_RECORD
  5
7F69
330
1
100
AcDbSymbolTableRecord
100
AcDbBlockTableRecord
  2
*D28
340
0
  0
BLOCK_RECORD
  5
7F75
330
1
100
AcDbSymbolTableRecord
100
AcDbBlockTableRecord
  2
*D29
340
0
  0
BLOCK_RECORD
  5
7F81
330
1
100
AcDbSymbolTableRecord
100
AcDbBlockTableRecord
  2
*D30
340
0
  0
BLOCK_RECORD
  5
7F8D
330
1
100
AcDbSymbolTableRecord
100
AcDbBlockTableRecord
  2
*D31
340
0
  0
BLOCK_RECORD
  5
7F99
330
1
100
AcDbSymbolTableRecord
100
AcDbBlockTableRecord
  2
*D32
340
0
  0
BLOCK_RECORD
  5
7FA5
330
1
100
AcDbSymbolTableRecord
100
AcDbBlockTableRecord
  2
*D33
340
0
  0
BLOCK_RECORD
  5
7FB1
330
1
100
AcDbSymbolTableRecord
100
AcDbBlockTableRecord
  2
*D34
340
0
  0
BLOCK_RECORD
  5
7FBD
330
1
100
AcDbSymbolTableRecord
100
AcDbBlockTableRecord
  2
*D35
340
0
  0
BLOCK_RECORD
  5
7FC9
330
1
100
AcDbSymbolTableRecord
100
AcDbBlockTableRecord
  2
*D36
340
0
  0
BLOCK_RECORD
  5
7FD5
330
1
100
AcDbSymbolTableRecord
100
AcDbBlockTableRecord
  2
*D37
340
0
  0
BLOCK_RECORD
  5
7FE1
330
1
100
AcDbSymbolTableRecord
100
AcDbBlockTableRecord
  2
*D38
340
0
  0
BLOCK_RECORD
  5
7FED
330
1
100
AcDbSymbolTableRecord
100
AcDbBlockTableRecord
  2
*D39
340
0
  0
BLOCK_RECORD
  5
7FF9
330
1
100
AcDbSymbolTableRecord
100
AcDbBlockTableRecord
  2
*D40
340
0
  0
BLOCK_RECORD
  5
8005
330
1
100
AcDbSymbolTableRecord
100
AcDbBlockTableRecord
  2
*D41
340
0
  0
BLOCK_RECORD
  5
8011
330
1
100
AcDbSymbolTableRecord
100
AcDbBlockTableRecord
  2
*D42
340
0
  0
BLOCK_RECORD
  5
801D
330
1
100
AcDbSymbolTableRecord
100
AcDbBlockTableRecord
  2
*D43
340
0
  0
BLOCK_RECORD
  5
8029
330
1
100
AcDbSymbolTableRecord
100
AcDbBlockTableRecord
  2
*D44
340
0
  0
BLOCK_RECORD
  5
8035
330
1
100
AcDbSymbolTableRecord
100
AcDbBlockTableRecord
  2
*D45
340
0
  0
BLOCK_RECORD
  5
8041
330
1
100
AcDbSymbolTableRecord
100
AcDbBlockTableRecord
  2
*D46
340
0
  0
BLOCK_RECORD
  5
804D
330
1
100
AcDbSymbolTableRecord
100
AcDbBlockTableRecord
  2
*D47
340
0
  0
BLOCK_RECORD
  5
8059
330
1
100
AcDbSymbolTableRecord
100
AcDbBlockTableRecord
  2
*D48
340
0
  0
BLOCK_RECORD
  5
8065
102
{ACAD_XDICTIONARY
360
80F8
102
}
330
1
100
AcDbSymbolTableRecord
100
AcDbBlockTableRecord
  2
RAS800-510GRM
340
0
  0
BLOCK_RECORD
  5
8C4E
330
1
100
AcDbSymbolTableRecord
100
AcDbBlockTableRecord
  2
*D50
340
0
  0
BLOCK_RECORD
  5
8C71
330
1
100
AcDbSymbolTableRecord
100
AcDbBlockTableRecord
  2
*D51
340
0
  0
BLOCK_RECORD
  5
8E07
330
1
100
AcDbSymbolTableRecord
100
AcDbBlockTableRecord
  2
*D52
340
0
  0
BLOCK_RECORD
  5
8E14
330
1
100
AcDbSymbolTableRecord
100
AcDbBlockTableRecord
  2
*D53
340
0
  0
BLOCK_RECORD
  5
8E2A
330
1
100
AcDbSymbolTableRecord
100
AcDbBlockTableRecord
  2
*D54
340
0
  0
BLOCK_RECORD
  5
8E40
330
1
100
AcDbSymbolTableRecord
100
AcDbBlockTableRecord
  2
*D55
340
0
  0
BLOCK_RECORD
  5
8E82
330
1
100
AcDbSymbolTableRecord
100
AcDbBlockTableRecord
  2
*D56
340
0
  0
BLOCK_RECORD
  5
8EA8
102
{ACAD_XDICTIONARY
360
8EAA
102
}
330
1
100
AcDbSymbolTableRecord
100
AcDbBlockTableRecord
  2
A$C02AA3AB7
340
0
  0
BLOCK_RECORD
  5
8EC9
330
1
100
AcDbSymbolTableRecord
100
AcDbBlockTableRecord
  2
*D58
340
0
  0
BLOCK_RECORD
  5
8EE8
330
1
100
AcDbSymbolTableRecord
100
AcDbBlockTableRecord
  2
*D59
340
0
  0
BLOCK_RECORD
  5
8F4F
330
1
100
AcDbSymbolTableRecord
100
AcDbBlockTableRecord
  2
*D60
340
0
  0
BLOCK_RECORD
  5
90B4
330
1
100
AcDbSymbolTableRecord
100
AcDbBlockTableRecord
  2
*D61
340
0
  0
BLOCK_RECORD
  5
90C1
330
1
100
AcDbSymbolTableRecord
100
AcDbBlockTableRecord
  2
*D62
340
0
  0
BLOCK_RECORD
  5
9C63
330
1
100
AcDbSymbolTableRecord
100
AcDbBlockTableRecord
  2
*D63
340
0
  0
BLOCK_RECORD
  5
9DE5
330
1
100
AcDbSymbolTableRecord
100
AcDbBlockTableRecord
  2
*D64
340
0
  0
BLOCK_RECORD
  5
9DF1
330
1
100
AcDbSymbolTableRecord
100
AcDbBlockTableRecord
  2
*D65
340
0
  0
BLOCK_RECORD
  5
9DFD
330
1
100
AcDbSymbolTableRecord
100
AcDbBlockTableRecord
  2
*D66
340
0
  0
BLOCK_RECORD
  5
9E09
330
1
100
AcDbSymbolTableRecord
100
AcDbBlockTableRecord
  2
*D67
340
0
  0
BLOCK_RECORD
  5
9E15
330
1
100
AcDbSymbolTableRecord
100
AcDbBlockTableRecord
  2
*D68
340
0
  0
BLOCK_RECORD
  5
9E21
330
1
100
AcDbSymbolTableRecord
100
AcDbBlockTableRecord
  2
*D69
340
0
  0
BLOCK_RECORD
  5
9E2D
330
1
100
AcDbSymbolTableRecord
100
AcDbBlockTableRecord
  2
*D70
340
0
  0
BLOCK_RECORD
  5
9E39
330
1
100
AcDbSymbolTableRecord
100
AcDbBlockTableRecord
  2
*D71
340
0
  0
BLOCK_RECORD
  5
9E45
330
1
100
AcDbSymbolTableRecord
100
AcDbBlockTableRecord
  2
*D72
340
0
  0
BLOCK_RECORD
  5
9E51
330
1
100
AcDbSymbolTableRecord
100
AcDbBlockTableRecord
  2
*D73
340
0
  0
BLOCK_RECORD
  5
9E5D
330
1
100
AcDbSymbolTableRecord
100
AcDbBlockTableRecord
  2
*D74
340
0
  0
BLOCK_RECORD
  5
9E69
330
1
100
AcDbSymbolTableRecord
100
AcDbBlockTableRecord
  2
*D75
340
0
  0
BLOCK_RECORD
  5
9E75
330
1
100
AcDbSymbolTableRecord
100
AcDbBlockTableRecord
  2
*D76
340
0
  0
BLOCK_RECORD
  5
9E81
330
1
100
AcDbSymbolTableRecord
100
AcDbBlockTableRecord
  2
*D77
340
0
  0
BLOCK_RECORD
  5
9E8D
330
1
100
AcDbSymbolTableRecord
100
AcDbBlockTableRecord
  2
*D78
340
0
  0
BLOCK_RECORD
  5
9E99
330
1
100
AcDbSymbolTableRecord
100
AcDbBlockTableRecord
  2
*D79
340
0
  0
BLOCK_RECORD
  5
9EA5
330
1
100
AcDbSymbolTableRecord
100
AcDbBlockTableRecord
  2
*D80
340
0
  0
BLOCK_RECORD
  5
9EB1
330
1
100
AcDbSymbolTableRecord
100
AcDbBlockTableRecord
  2
*D81
340
0
  0
BLOCK_RECORD
  5
A355
330
1
100
AcDbSymbolTableRecord
100
AcDbBlockTableRecord
  2
*D82
340
0
  0
BLOCK_RECORD
  5
A361
330
1
100
AcDbSymbolTableRecord
100
AcDbBlockTableRecord
  2
*D83
340
0
  0
BLOCK_RECORD
  5
A36D
330
1
100
AcDbSymbolTableRecord
100
AcDbBlockTableRecord
  2
*D84
340
0
  0
BLOCK_RECORD
  5
A379
330
1
100
AcDbSymbolTableRecord
100
AcDbBlockTableRecord
  2
*D85
340
0
  0
BLOCK_RECORD
  5
A385
330
1
100
AcDbSymbolTableRecord
100
AcDbBlockTableRecord
  2
*D86
340
0
  0
BLOCK_RECORD
  5
A391
330
1
100
AcDbSymbolTableRecord
100
AcDbBlockTableRecord
  2
*D87
340
0
  0
BLOCK_RECORD
  5
A39D
330
1
100
AcDbSymbolTableRecord
100
AcDbBlockTableRecord
  2
*D88
340
0
  0
BLOCK_RECORD
  5
A3A9
330
1
100
AcDbSymbolTableRecord
100
AcDbBlockTableRecord
  2
*D89
340
0
  0
BLOCK_RECORD
  5
A3B5
330
1
100
AcDbSymbolTableRecord
100
AcDbBlockTableRecord
  2
*D90
340
0
  0
BLOCK_RECORD
  5
A5B8
330
1
100
AcDbSymbolTableRecord
100
AcDbBlockTableRecord
  2
*D91
340
0
  0
BLOCK_RECORD
  5
A5C4
330
1
100
AcDbSymbolTableRecord
100
AcDbBlockTableRecord
  2
*D92
340
0
  0
BLOCK_RECORD
  5
A5D0
330
1
100
AcDbSymbolTableRecord
100
AcDbBlockTableRecord
  2
*D93
340
0
  0
BLOCK_RECORD
  5
A5DC
330
1
100
AcDbSymbolTableRecord
100
AcDbBlockTableRecord
  2
*D94
340
0
  0
BLOCK_RECORD
  5
A5E8
330
1
100
AcDbSymbolTableRecord
100
AcDbBlockTableRecord
  2
*D95
340
0
  0
BLOCK_RECORD
  5
A5F5
330
1
100
AcDbSymbolTableRecord
100
AcDbBlockTableRecord
  2
*D96
340
0
  0
BLOCK_RECORD
  5
A601
330
1
100
AcDbSymbolTableRecord
100
AcDbBlockTableRecord
  2
*D97
340
0
  0
BLOCK_RECORD
  5
A60D
330
1
100
AcDbSymbolTableRecord
100
AcDbBlockTableRecord
  2
*D98
340
0
  0
BLOCK_RECORD
  5
A619
330
1
100
AcDbSymbolTableRecord
100
AcDbBlockTableRecord
  2
*D99
340
0
  0
BLOCK_RECORD
  5
A856
102
{ACAD_XDICTIONARY
360
A862
102
}
330
1
100
AcDbSymbolTableRecord
100
AcDbBlockTableRecord
  2
A$C60495DE3
340
0
  0
ENDTAB
  0
ENDSEC
  0
SECTION
  2
BLOCKS
  0
BLOCK
  5
20
330
1F
100
AcDbEntity
  8
0
100
AcDbBlockBegin
  2
*Model_Space
 70
     0
 10
0.0
 20
0.0
 30
0.0
  3
*Model_Space
  1

  0
ENDBLK
  5
21
330
1F
100
AcDbEntity
  8
0
100
AcDbBlockEnd
  0
BLOCK
  5
1C
330
1B
100
AcDbEntity
 67
     1
  8
0
100
AcDbBlockBegin
  2
*Paper_Space
 70
     0
 10
0.0
 20
0.0
 30
0.0
  3
*Paper_Space
  1

  0
ENDBLK
  5
1D
330
1B
100
AcDbEntity
 67
     1
  8
0
100
AcDbBlockEnd
  0
BLOCK
  5
24
330
23
100
AcDbEntity
  8
0
100
AcDbBlockBegin
  2
*Paper_Space0
 70
     0
 10
0.0
 20
0.0
 30
0.0
  3
*Paper_Space0
  1

  0
ENDBLK
  5
25
330
23
100
AcDbEntity
  8
0
100
AcDbBlockEnd
  0
BLOCK
  5
D2
330
D0
100
AcDbEntity
  8
0
100
AcDbBlockBegin
  2
_DotSmall
 70
     0
 10
0.0
 20
0.0
 30
0.0
  3
_DotSmall
  1

  0
LWPOLYLINE
  5
D1
330
D0
100
AcDbEntity
  8
0
 62
     0
100
AcDbPolyline
 90
        2
 70
     1
 43
0.5
 10
-0.0625
 20
0.0
 42
1.0
 10
0.0625
 20
0.0
 42
1.0
  0
ENDBLK
  5
D3
330
D0
100
AcDbEntity
  8
0
100
AcDbBlockEnd
  0
BLOCK
  5
D8
330
D4
100
AcDbEntity
  8
0
100
AcDbBlockBegin
  2
_Origin2
 70
     0
 10
0.0
 20
0.0
 30
0.0
  3
_Origin2
  1

  0
CIRCLE
  5
D5
330
D4
100
AcDbEntity
  8
0
 62
     0
370
    -2
100
AcDbCircle
 10
0.0
 20
0.0
 30
0.0
 40
0.5
  0
CIRCLE
  5
D6
330
D4
100
AcDbEntity
  8
0
 62
     0
370
    -2
100
AcDbCircle
 10
0.0
 20
0.0
 30
0.0
 40
0.25
  0
LINE
  5
D7
330
D4
100
AcDbEntity
  8
0
 62
     0
370
    -2
100
AcDbLine
 10
-0.5
 20
0.0
 30
0.0
 11
-1.0
 21
0.0
 31
0.0
  0
ENDBLK
  5
D9
330
D4
100
AcDbEntity
  8
0
100
AcDbBlockEnd
  0
BLOCK
  5
DE
330
DA
100
AcDbEntity
  8
0
100
AcDbBlockBegin
  2
_Open30
 70
     0
 10
0.0
 20
0.0
 30
0.0
  3
_Open30
  1

  0
LINE
  5
DB
330
DA
100
AcDbEntity
  8
0
 62
     0
370
    -2
100
AcDbLine
 10
-1.0
 20
0.26794919
 30
0.0
 11
0.0
 21
0.0
 31
0.0
  0
LINE
  5
DC
330
DA
100
AcDbEntity
  8
0
 62
     0
370
    -2
100
AcDbLine
 10
0.0
 20
0.0
 30
0.0
 11
-1.0
 21
-0.26794919
 31
0.0
  0
LINE
  5
DD
330
DA
100
AcDbEntity
  8
0
 62
     0
370
    -2
100
AcDbLine
 10
0.0
 20
0.0
 30
0.0
 11
-1.0
 21
0.0
 31
0.0
  0
ENDBLK
  5
DF
330
DA
100
AcDbEntity
  8
0
100
AcDbBlockEnd
  0
BLOCK
  5
2E7
330
2D6
100
AcDbEntity
  8
0
100
AcDbBlockBegin
  2
A$C6CAC4411
 70
     0
 10
0.0
 20
0.0
 30
0.0
  3
A$C6CAC4411
  1

  0
TEXT
  5
2D7
330
2D6
100
AcDbEntity
  8
0
100
AcDbText
 10
176.2557717918098
 20
0.0000022116982912
 30
0.0
 40
40.0
  1
中外交易株式会社
 72
     4
 11
364.2557717918098
 21
20.0000022116983
 31
0.0
100
AcDbText
  0
LINE
  5
2D8
330
2D6
100
AcDbEntity
  8
0
100
AcDbLine
 10
-0.0000028735375963
 20
52.5000022116983
 30
0.0
 11
599.9999971264624
 21
52.5000022116983
 31
0.0
  0
HATCH
  5
2D9
330
2D6
100
AcDbEntity
  8
実形
100
AcDbHatch
 10
0.0
 20
0.0
 30
0.0
210
0.0
220
0.0
230
1.0
  2
SOLID
 70
     1
 71
     1
 91
        3
 92
        1
 93
        4
 72
     2
 10
133.1661954404576
 20
20.0000022116983
 40
20.0
 50
11.64772366707622
 51
342.6561058784662
 73
     1
 72
     1
 10
152.2568494677857
 20
14.03787769028346
 11
128.1661954404576
 21
14.03787769028349
 72
     1
 10
128.1661954404576
 20
14.03787769028349
 11
128.1661954404576
 21
24.0378776902835
 72
     1
 10
128.1661954404576
 20
24.0378776902835
 11
152.7543439394721
 21
24.0378776902835
 97
        4
330
2DF
330
2DC
330
2E0
330
2DD
 92
        1
 93
        4
 72
     2
 10
64.25577179180982
 20
20.0000022116983
 40
20.0
 50
11.64772366707622
 51
342.6561058784662
 73
     1
 72
     1
 10
83.34642581913795
 20
14.03787769028346
 11
59.25577179180982
 21
14.03787769028349
 72
     1
 10
59.25577179180982
 20
14.03787769028349
 11
59.25577179180982
 21
24.0378776902835
 72
     1
 10
59.25577179180982
 20
24.0378776902835
 11
83.84392029082437
 21
24.0378776902835
 97
        4
330
2DE
330
2DB
330
2E1
330
2DA
 92
        1
 93
        5
 72
     1
 10
121.6418911694018
 20
40.0000022116983
 11
86.64189116940178
 21
40.0000022116983
 72
     1
 10
86.64189116940178
 20
40.0000022116983
 11
86.64189116940178
 21
0.0000022116983018
 72
     1
 10
86.64189116940178
 20
0.0000022116983018
 11
121.6418911694018
 21
0.0000022116983018
 72
     1
 10
121.6418911694018
 20
0.0000022116983018
 11
86.64189116940178
 21
20.0000022116983
 72
     1
 10
86.64189116940178
 20
20.0000022116983
 11
121.6418911694018
 21
40.0000022116983
 97
        5
330
2E2
330
2E3
330
2E5
330
2E6
330
2E4
 75
     0
 76
     1
 98
        1
 10
-2184.000002873538
 20
-16.4999977883017
  0
LINE
  5
2DA
102
{ACAD_REACTORS
330
2D9
102
}
330
2D6
100
AcDbEntity
  8
実形
370
     5
100
AcDbLine
 10
83.84392029082437
 20
24.0378776902835
 30
0.0
 11
59.25577179180982
 21
24.0378776902835
 31
0.0
  0
LINE
  5
2DB
102
{ACAD_REACTORS
330
2D9
102
}
330
2D6
100
AcDbEntity
  8
実形
370
     5
100
AcDbLine
 10
59.25577179180982
 20
14.03787769028349
 30
0.0
 11
83.34642581913795
 21
14.03787769028346
 31
0.0
  0
LINE
  5
2DC
102
{ACAD_REACTORS
330
2D9
102
}
330
2D6
100
AcDbEntity
  8
実形
370
     5
100
AcDbLine
 10
128.1661954404576
 20
14.03787769028349
 30
0.0
 11
152.2568494677857
 21
14.03787769028346
 31
0.0
  0
LINE
  5
2DD
102
{ACAD_REACTORS
330
2D9
102
}
330
2D6
100
AcDbEntity
  8
実形
370
     5
100
AcDbLine
 10
152.7543439394721
 20
24.0378776902835
 30
0.0
 11
128.1661954404576
 21
24.0378776902835
 31
0.0
  0
ARC
  5
2DE
102
{ACAD_REACTORS
330
2D9
102
}
330
2D6
100
AcDbEntity
  8
実形
370
     5
100
AcDbCircle
 10
64.25577179180982
 20
20.0000022116983
 30
0.0
 40
20.0
100
AcDbArc
 50
11.6477236670758
 51
342.6561058784691
  0
ARC
  5
2DF
102
{ACAD_REACTORS
330
2D9
102
}
330
2D6
100
AcDbEntity
  8
実形
370
     5
100
AcDbCircle
 10
133.1661954404576
 20
20.0000022116983
 30
0.0
 40
20.0
100
AcDbArc
 50
11.6477236670758
 51
342.6561058784691
  0
LINE
  5
2E0
102
{ACAD_REACTORS
330
2D9
102
}
330
2D6
100
AcDbEntity
  8
実形
370
     5
100
AcDbLine
 10
128.1661954404576
 20
24.0378776902835
 30
0.0
 11
128.1661954404576
 21
14.03787769028349
 31
0.0
  0
LINE
  5
2E1
102
{ACAD_REACTORS
330
2D9
102
}
330
2D6
100
AcDbEntity
  8
実形
370
     5
100
AcDbLine
 10
59.25577179180982
 20
24.0378776902835
 30
0.0
 11
59.25577179180982
 21
14.03787769028349
 31
0.0
  0
LINE
  5
2E2
102
{ACAD_REACTORS
330
2D9
102
}
330
2D6
100
AcDbEntity
  8
実形
370
     5
100
AcDbLine
 10
121.6418911694018
 20
40.0000022116983
 30
0.0
 11
86.64189116940178
 21
40.0000022116983
 31
0.0
  0
LINE
  5
2E3
102
{ACAD_REACTORS
330
2D9
102
}
330
2D6
100
AcDbEntity
  8
実形
370
     5
100
AcDbLine
 10
86.64189116940178
 20
40.0000022116983
 30
0.0
 11
86.64189116940178
 21
0.0000022116983018
 31
0.0
  0
LINE
  5
2E4
102
{ACAD_REACTORS
330
2D9
102
}
330
2D6
100
AcDbEntity
  8
実形
370
     5
100
AcDbLine
 10
86.64189116940178
 20
20.0000022116983
 30
0.0
 11
121.6418911694018
 21
40.0000022116983
 31
0.0
  0
LINE
  5
2E5
102
{ACAD_REACTORS
330
2D9
102
}
330
2D6
100
AcDbEntity
  8
実形
370
     5
100
AcDbLine
 10
86.64189116940178
 20
0.0000022116983018
 30
0.0
 11
121.6418911694018
 21
0.0000022116983018
 31
0.0
  0
LINE
  5
2E6
102
{ACAD_REACTORS
330
2D9
102
}
330
2D6
100
AcDbEntity
  8
実形
370
     5
100
AcDbLine
 10
121.6418911694018
 20
0.0000022116983018
 30
0.0
 11
86.64189116940178
 21
20.0000022116983
 31
0.0
  0
ENDBLK
  5
2E8
330
2D6
100
AcDbEntity
  8
0
100
AcDbBlockEnd
  0
BLOCK
  5
310
330
30D
100
AcDbEntity
  8
0
100
AcDbBlockBegin
  2
_Dot
 70
     0
 10
0.0
 20
0.0
 30
0.0
  3
_Dot
  1

  0
LWPOLYLINE
  5
30E
330
30D
100
AcDbEntity
  8
0
 62
     0
100
AcDbPolyline
 90
        2
 70
     1
 43
0.5
 10
-0.25
 20
0.0
 42
1.0
 10
0.25
 20
0.0
 42
1.0
  0
LINE
  5
30F
330
30D
100
AcDbEntity
  8
0
 62
     0
370
    -2
100
AcDbLine
 10
-0.5
 20
0.0
 30
0.0
 11
-1.0
 21
0.0
 31
0.0
  0
ENDBLK
  5
311
330
30D
100
AcDbEntity
  8
0
100
AcDbBlockEnd
  0
BLOCK
  5
3140
330
313C
100
AcDbEntity
  8
0
100
AcDbBlockBegin
  2
A$C6850087C
 70
     0
 10
0.0
 20
0.0
 30
0.0
  3
A$C6850087C
  1

  0
TEXT
  5
313D
330
313C
100
AcDbEntity
  8
実形
 62
     0
 48
20.0
100
AcDbText
 10
0.0
 20
0.0
 30
0.0
 40
40.0
  1
平面図
100
AcDbText
  0
ENDBLK
  5
3141
330
313C
100
AcDbEntity
  8
0
100
AcDbBlockEnd
  0
BLOCK
  5
384A
330
3846
100
AcDbEntity
  8
0
 62
     1
100
AcDbBlockBegin
  2
A$C71387EE1
 70
     0
 10
0.0
 20
0.0
 30
0.0
  3
A$C71387EE1
  1

  0
HATCH
  5
3847
330
3846
100
AcDbEntity
  8
実形
 62
     0
100
AcDbHatch
 10
0.0
 20
0.0
 30
0.0
210
0.0
220
0.0
230
1.0
  2
SOLID
 70
     1
 71
     0
 91
        1
 92
        7
 72
     1
 73
     1
 93
        2
 10
4.552685078746208
 20
-0.0000011660104065
 42
-1.0
 10
4.54872920619573
 20
9.101406589272301
 42
-1.0
 97
        0
 75
     0
 76
     1
 47
0.1166526434546944
 98
        1
 10
6.65106624868099
 20
3.151407247997667
  0
ENDBLK
  5
384B
330
3846
100
AcDbEntity
  8
0
 62
     1
100
AcDbBlockEnd
  0
BLOCK
  5
6B8B
330
6B87
100
AcDbEntity
  8
0
 62
     3
100
AcDbBlockBegin
  2
A$C47AF373A
 70
     0
 10
0.0
 20
0.0
 30
0.0
  3
A$C47AF373A
  1

  0
LINE
  5
6B88
330
6B87
100
AcDbEntity
  8
枠
 62
     0
100
AcDbLine
 10
-0.0000111344452307
 20
0.0000048001220421
 30
0.0
 11
-0.0000111344452307
 21
2020.000004800122
 31
0.0
  0
ENDBLK
  5
6B8C
330
6B87
100
AcDbEntity
  8
0
 62
     3
100
AcDbBlockEnd
  0
BLOCK
  5
6C04
330
6C00
100
AcDbEntity
  8
0
 62
     3
100
AcDbBlockBegin
  2
A$C2B9560D8
 70
     0
 10
0.0
 20
0.0
 30
0.0
  3
A$C2B9560D8
  1

  0
LINE
  5
6C01
330
6C00
100
AcDbEntity
  8
枠
 62
     0
100
AcDbLine
 10
-0.0000103150450741
 20
2020.000004800122
 30
0.0
 11
-0.0000103150450741
 21
0.0000048001220421
 31
0.0
  0
ENDBLK
  5
6C05
330
6C00
100
AcDbEntity
  8
0
 62
     3
100
AcDbBlockEnd
  0
BLOCK
  5
775A
330
7752
100
AcDbEntity
  8
0
 62
     3
100
AcDbBlockBegin
  2
A$C113940D1
 70
     0
 10
0.0
 20
0.0
 30
0.0
  3
A$C113940D1
  1

  0
LINE
  5
7753
330
7752
100
AcDbEntity
  8
実形
 62
     0
100
AcDbLine
 10
0.0
 20
65.0
 30
0.0
 11
720.0
 21
65.0
 31
0.0
  0
LINE
  5
7754
330
7752
100
AcDbEntity
  8
実形
 62
     0
100
AcDbLine
 10
0.0
 20
-195.0
 30
0.0
 11
0.0
 21
65.0
 31
0.0
  0
LINE
  5
7755
330
7752
100
AcDbEntity
  8
実形
 62
     0
100
AcDbLine
 10
120.0
 20
-130.0
 30
0.0
 11
120.0
 21
65.00000000000006
 31
0.0
  0
TEXT
  5
7756
330
7752
100
AcDbEntity
  8
枠
 62
     0
100
AcDbText
 10
23.83333333333334
 20
15.00000000000001
 30
0.0
 40
35.0
  1
品名
 72
     4
 11
60.0
 21
32.5
 31
0.0
100
AcDbText
  0
TEXT
  5
7757
330
7752
100
AcDbEntity
  8
実形
100
AcDbText
 10
214.0405358305962
 20
13.16420861765831
 30
0.0
 40
40.0
  1
ｱﾝﾀﾞｰｼﾝｸ
 72
     4
 11
302.0405358305961
 21
31.83087528432498
 31
0.0
100
AcDbText
  0
ENDBLK
  5
775B
330
7752
100
AcDbEntity
  8
0
 62
     3
100
AcDbBlockEnd
  0
BLOCK
  5
78F4
330
78EA
100
AcDbEntity
  8
0
 62
     3
100
AcDbBlockBegin
  2
*D11
 70
     1
 10
0.0
 20
0.0
 30
0.0
  3
*D11
  1

  0
LINE
  5
A23E
330
78EA
100
AcDbEntity
  8
実形
 62
     0
370
    18
100
AcDbLine
 10
2086.564269093708
 20
1703.547590588581
 30
0.0
 11
2134.887606234373
 21
1703.547590588581
 31
0.0
  0
LINE
  5
A23F
330
78EA
100
AcDbEntity
  8
実形
 62
     0
370
    18
100
AcDbLine
 10
2086.564269093708
 20
1193.547590588581
 30
0.0
 11
2134.887606234373
 21
1193.547590588581
 31
0.0
  0
LINE
  5
A240
330
78EA
100
AcDbEntity
  8
実形
 62
     0
370
    18
100
AcDbLine
 10
2134.887606234373
 20
1693.547590588581
 30
0.0
 11
2134.887606234373
 21
1203.547590588581
 31
0.0
  0
INSERT
  5
A241
330
78EA
100
AcDbEntity
  8
実形
 62
     0
370
    18
100
AcDbBlockReference
  2
_Dot
 10
2134.887606234373
 20
1703.547590588581
 30
0.0
 41
10.0
 42
10.0
 43
10.0
 50
90.0
  0
INSERT
  5
A242
330
78EA
100
AcDbEntity
  8
実形
 62
     0
370
    18
100
AcDbBlockReference
  2
_Dot
 10
2134.887606234373
 20
1193.547590588581
 30
0.0
 41
10.0
 42
10.0
 43
10.0
 50
270.0
  0
MTEXT
  5
A243
330
78EA
100
AcDbEntity
  8
実形
 62
     0
100
AcDbMText
 10
2115.787606234373
 20
1448.547590588582
 30
0.0
 40
25.0
 41
0.0
 71
     5
 72
     1
  1
510
 11
0.0000000000000001
 21
1.0
 31
0.0
 73
     1
 44
1.0
1001
ACAD
1000
MTEXTBEGIN
1070
    73
1070
     1
1070
    44
1040
1.0
1070
    74
1070
     0
1000
MTEXTEND
  0
POINT
  5
A244
330
78EA
100
AcDbEntity
  8
Defpoints
 62
     0
100
AcDbPoint
 10
2021.564269093707
 20
1703.547590588581
 30
0.0
  0
POINT
  5
A245
330
78EA
100
AcDbEntity
  8
Defpoints
 62
     0
100
AcDbPoint
 10
2021.564269093708
 20
1193.547590588581
 30
0.0
  0
POINT
  5
A246
330
78EA
100
AcDbEntity
  8
Defpoints
 62
     0
100
AcDbPoint
 10
2134.887606234373
 20
1193.547590588581
 30
0.0
  0
ENDBLK
  5
78F5
330
78EA
100
AcDbEntity
  8
0
 62
     3
100
AcDbBlockEnd
  0
BLOCK
  5
7901
330
78F7
100
AcDbEntity
  8
0
 62
     3
100
AcDbBlockBegin
  2
*D12
 70
     1
 10
0.0
 20
0.0
 30
0.0
  3
*D12
  1

  0
LINE
  5
A742
330
78F7
100
AcDbEntity
  8
実形
 62
     0
370
    18
100
AcDbLine
 10
2038.005949436618
 20
1718.547590588581
 30
0.0
 11
2134.887606234373
 21
1718.547590588581
 31
0.0
  0
LINE
  5
A743
330
78F7
100
AcDbEntity
  8
実形
 62
     0
370
    18
100
AcDbLine
 10
2040.878208169175
 20
1178.547590588581
 30
0.0
 11
2134.887606234373
 21
1178.547590588581
 31
0.0
  0
LINE
  5
A744
330
78F7
100
AcDbEntity
  8
実形
 62
     0
370
    18
100
AcDbLine
 10
2134.887606234373
 20
1708.547590588581
 30
0.0
 11
2134.887606234373
 21
1188.547590588581
 31
0.0
  0
MTEXT
  5
A745
330
78F7
100
AcDbEntity
  8
実形
 62
     0
100
AcDbMText
 10
2113.287606234373
 20
1748.094729214858
 30
0.0
 40
25.0
 41
0.0
 71
     5
 72
     1
  1
15
 11
0.0000000000000001
 21
1.0
 31
0.0
 73
     1
 44
1.0
1001
ACAD
1000
MTEXTBEGIN
1070
    73
1070
     1
1070
    44
1040
1.0
1070
    74
1070
     0
1000
MTEXTEND
  0
INSERT
  5
A746
330
78F7
100
AcDbEntity
  8
実形
 62
     0
370
    18
100
AcDbBlockReference
  2
_Dot
 10
2134.887606234373
 20
1718.547590588581
 30
0.0
 41
10.0
 42
10.0
 43
10.0
 50
90.0
  0
INSERT
  5
A747
330
78F7
100
AcDbEntity
  8
実形
 62
     0
370
    18
100
AcDbBlockReference
  2
_Dot
 10
2134.887606234373
 20
1178.547590588581
 30
0.0
 41
10.0
 42
10.0
 43
10.0
 50
270.0
  0
POINT
  5
A748
330
78F7
100
AcDbEntity
  8
Defpoints
 62
     0
100
AcDbPoint
 10
1973.005949436618
 20
1718.547590588581
 30
0.0
  0
POINT
  5
A749
330
78F7
100
AcDbEntity
  8
Defpoints
 62
     0
100
AcDbPoint
 10
1975.878208169175
 20
1178.547590588581
 30
0.0
  0
POINT
  5
A74A
330
78F7
100
AcDbEntity
  8
Defpoints
 62
     0
100
AcDbPoint
 10
2134.887606234373
 20
1178.547590588581
 30
0.0
  0
ENDBLK
  5
7902
330
78F7
100
AcDbEntity
  8
0
 62
     3
100
AcDbBlockEnd
  0
BLOCK
  5
79A4
330
79A0
100
AcDbEntity
  8
0
 62
     3
100
AcDbBlockBegin
  2
A$C34481AC4
 70
     0
 10
0.0
 20
0.0
 30
0.0
  3
A$C34481AC4
  1

  0
TEXT
  5
79A1
330
79A0
100
AcDbEntity
  8
実形
370
    13
100
AcDbText
 10
21.66666199574517
 20
-1.666654965347788
 30
0.0
 40
25.0
  1
●
 71
     2
 72
     1
 11
9.999995329078501
 21
-1.666654965347788
 31
0.0
100
AcDbText
  0
ENDBLK
  5
79A5
330
79A0
100
AcDbEntity
  8
0
 62
     3
100
AcDbBlockEnd
  0
BLOCK
  5
7A18
330
7A0E
100
AcDbEntity
  8
0
 62
     3
100
AcDbBlockBegin
  2
*D14
 70
     1
 10
0.0
 20
0.0
 30
0.0
  3
*D14
  1

  0
LINE
  5
A6E3
330
7A0E
100
AcDbEntity
  8
実形
 62
     0
370
    18
100
AcDbLine
 10
673.4229535701579
 20
1703.547590588581
 30
0.0
 11
609.9797339783617
 21
1703.547590588581
 31
0.0
  0
LINE
  5
A6E4
330
7A0E
100
AcDbEntity
  8
実形
 62
     0
370
    18
100
AcDbLine
 10
652.4018063546245
 20
1613.547590588582
 30
0.0
 11
609.9797339783617
 21
1613.547590588582
 31
0.0
  0
LINE
  5
A6E5
330
7A0E
100
AcDbEntity
  8
実形
 62
     0
370
    18
100
AcDbLine
 10
609.9797339783617
 20
1693.547590588581
 30
0.0
 11
609.9797339783617
 21
1623.547590588582
 31
0.0
  0
INSERT
  5
A6E6
330
7A0E
100
AcDbEntity
  8
実形
 62
     0
370
    18
100
AcDbBlockReference
  2
_Dot
 10
609.9797339783617
 20
1703.547590588581
 30
0.0
 41
10.0
 42
10.0
 43
10.0
 50
90.0
  0
INSERT
  5
A6E7
330
7A0E
100
AcDbEntity
  8
実形
 62
     0
370
    18
100
AcDbBlockReference
  2
_Dot
 10
609.9797339783617
 20
1613.547590588582
 30
0.0
 41
10.0
 42
10.0
 43
10.0
 50
270.0
  0
MTEXT
  5
A6E8
330
7A0E
100
AcDbEntity
  8
実形
 62
     0
100
AcDbMText
 10
590.8797339783615
 20
1658.547590588582
 30
0.0
 40
25.0
 41
0.0
 71
     5
 72
     1
  1
90
 11
0.0000000000000001
 21
1.0
 31
0.0
 73
     1
 44
1.0
1001
ACAD
1000
MTEXTBEGIN
1070
    73
1070
     1
1070
    44
1040
1.0
1070
    74
1070
     0
1000
MTEXTEND
  0
POINT
  5
A6E9
330
7A0E
100
AcDbEntity
  8
Defpoints
 62
     0
100
AcDbPoint
 10
738.4229535701579
 20
1703.547590588581
 30
0.0
  0
POINT
  5
A6EA
330
7A0E
100
AcDbEntity
  8
Defpoints
 62
     0
100
AcDbPoint
 10
717.4018063546245
 20
1613.547590588582
 30
0.0
  0
POINT
  5
A6EB
330
7A0E
100
AcDbEntity
  8
Defpoints
 62
     0
100
AcDbPoint
 10
609.9797339783617
 20
1613.547590588582
 30
0.0
  0
ENDBLK
  5
7A19
330
7A0E
100
AcDbEntity
  8
0
 62
     3
100
AcDbBlockEnd
  0
BLOCK
  5
7A39
330
7A2F
100
AcDbEntity
  8
0
 62
     3
100
AcDbBlockBegin
  2
*D15
 70
     1
 10
0.0
 20
0.0
 30
0.0
  3
*D15
  1

  0
LINE
  5
A6EC
330
7A2F
100
AcDbEntity
  8
実形
 62
     0
370
    18
100
AcDbLine
 10
670.3260144963588
 20
1613.547590588582
 30
0.0
 11
609.9797339783617
 21
1613.547590588582
 31
0.0
  0
LINE
  5
A6ED
330
7A2F
100
AcDbEntity
  8
実形
 62
     0
370
    18
100
AcDbLine
 10
675.4462340145037
 20
1213.547590588581
 30
0.0
 11
609.9797339783616
 21
1213.547590588581
 31
0.0
  0
LINE
  5
A6EE
330
7A2F
100
AcDbEntity
  8
実形
 62
     0
370
    18
100
AcDbLine
 10
609.9797339783617
 20
1603.547590588582
 30
0.0
 11
609.9797339783616
 21
1223.547590588581
 31
0.0
  0
INSERT
  5
A6EF
330
7A2F
100
AcDbEntity
  8
実形
 62
     0
370
    18
100
AcDbBlockReference
  2
_Dot
 10
609.9797339783617
 20
1613.547590588582
 30
0.0
 41
10.0
 42
10.0
 43
10.0
 50
90.0
  0
INSERT
  5
A6F0
330
7A2F
100
AcDbEntity
  8
実形
 62
     0
370
    18
100
AcDbBlockReference
  2
_Dot
 10
609.9797339783616
 20
1213.547590588581
 30
0.0
 41
10.0
 42
10.0
 43
10.0
 50
270.0
  0
MTEXT
  5
A6F1
330
7A2F
100
AcDbEntity
  8
実形
 62
     0
100
AcDbMText
 10
590.8797339783615
 20
1413.547590588582
 30
0.0
 40
25.0
 41
0.0
 71
     5
 72
     1
  1
400
 11
0.0000000000000001
 21
1.0
 31
0.0
 73
     1
 44
1.0
1001
ACAD
1000
MTEXTBEGIN
1070
    73
1070
     1
1070
    44
1040
1.0
1070
    74
1070
     0
1000
MTEXTEND
  0
POINT
  5
A6F2
330
7A2F
100
AcDbEntity
  8
Defpoints
 62
     0
100
AcDbPoint
 10
735.3260144963587
 20
1613.547590588582
 30
0.0
  0
POINT
  5
A6F3
330
7A2F
100
AcDbEntity
  8
Defpoints
 62
     0
100
AcDbPoint
 10
740.4462340145037
 20
1213.547590588581
 30
0.0
  0
POINT
  5
A6F4
330
7A2F
100
AcDbEntity
  8
Defpoints
 62
     0
100
AcDbPoint
 10
609.9797339783616
 20
1213.547590588581
 30
0.0
  0
ENDBLK
  5
7A3A
330
7A2F
100
AcDbEntity
  8
0
 62
     3
100
AcDbBlockEnd
  0
BLOCK
  5
7A58
330
7A4E
100
AcDbEntity
  8
0
 62
     3
100
AcDbBlockBegin
  2
*D16
 70
     1
 10
0.0
 20
0.0
 30
0.0
  3
*D16
  1

  0
LINE
  5
A6F5
330
7A4E
100
AcDbEntity
  8
実形
 62
     0
370
    18
100
AcDbLine
 10
677.6768413542595
 20
1718.547590588581
 30
0.0
 11
609.9797339783617
 21
1718.547590588581
 31
0.0
  0
LINE
  5
A6F6
330
7A4E
100
AcDbEntity
  8
実形
 62
     0
370
    18
100
AcDbLine
 10
674.9158252310917
 20
1178.547590588581
 30
0.0
 11
609.9797339783616
 21
1178.547590588581
 31
0.0
  0
LINE
  5
A6F7
330
7A4E
100
AcDbEntity
  8
実形
 62
     0
370
    18
100
AcDbLine
 10
609.9797339783617
 20
1708.547590588581
 30
0.0
 11
609.9797339783616
 21
1188.547590588581
 31
0.0
  0
MTEXT
  5
A6F8
330
7A4E
100
AcDbEntity
  8
実形
 62
     0
100
AcDbMText
 10
588.3797339783614
 20
1742.252668908599
 30
0.0
 40
25.0
 41
0.0
 71
     5
 72
     1
  1
15
 11
0.0000000000000001
 21
1.0
 31
0.0
 73
     1
 44
1.0
1001
ACAD
1000
MTEXTBEGIN
1070
    73
1070
     1
1070
    44
1040
1.0
1070
    74
1070
     0
1000
MTEXTEND
  0
INSERT
  5
A6F9
330
7A4E
100
AcDbEntity
  8
実形
 62
     0
370
    18
100
AcDbBlockReference
  2
_Dot
 10
609.9797339783617
 20
1718.547590588581
 30
0.0
 41
10.0
 42
10.0
 43
10.0
 50
90.0
  0
INSERT
  5
A6FA
330
7A4E
100
AcDbEntity
  8
実形
 62
     0
370
    18
100
AcDbBlockReference
  2
_Dot
 10
609.9797339783616
 20
1178.547590588581
 30
0.0
 41
10.0
 42
10.0
 43
10.0
 50
270.0
  0
POINT
  5
A6FB
330
7A4E
100
AcDbEntity
  8
Defpoints
 62
     0
100
AcDbPoint
 10
742.6768413542595
 20
1718.547590588581
 30
0.0
  0
POINT
  5
A6FC
330
7A4E
100
AcDbEntity
  8
Defpoints
 62
     0
100
AcDbPoint
 10
739.9158252310917
 20
1178.547590588581
 30
0.0
  0
POINT
  5
A6FD
330
7A4E
100
AcDbEntity
  8
Defpoints
 62
     0
100
AcDbPoint
 10
609.9797339783616
 20
1178.547590588581
 30
0.0
  0
ENDBLK
  5
7A59
330
7A4E
100
AcDbEntity
  8
0
 62
     3
100
AcDbBlockEnd
  0
BLOCK
  5
7B59
330
7B4F
100
AcDbEntity
  8
0
 62
     3
100
AcDbBlockBegin
  2
*D17
 70
     1
 10
0.0
 20
0.0
 30
0.0
  3
*D17
  1

  0
LINE
  5
A6FE
330
7B4F
100
AcDbEntity
  8
実形
 62
     0
370
    18
100
AcDbLine
 10
675.4462340145037
 20
1193.547590588581
 30
0.0
 11
609.9797339783616
 21
1193.547590588581
 31
0.0
  0
LINE
  5
A6FF
330
7B4F
100
AcDbEntity
  8
実形
 62
     0
370
    18
100
AcDbLine
 10
639.9792423394992
 20
1613.547590588582
 30
0.0
 11
609.9797339783617
 21
1613.547590588582
 31
0.0
  0
LINE
  5
A700
330
7B4F
100
AcDbEntity
  8
実形
 62
     0
370
    18
100
AcDbLine
 10
609.9797339783616
 20
1203.547590588581
 30
0.0
 11
609.9797339783617
 21
1603.547590588582
 31
0.0
  0
MTEXT
  5
A701
330
7B4F
100
AcDbEntity
  8
実形
 62
     0
100
AcDbMText
 10
588.397678710895
 20
1226.828845076303
 30
0.0
 40
25.0
 41
0.0
 71
     5
 72
     1
  1
20
 11
0.0000000000000001
 21
1.0
 31
0.0
 73
     1
 44
1.0
1001
ACAD
1000
MTEXTBEGIN
1070
    73
1070
     1
1070
    44
1040
1.0
1070
    74
1070
     0
1000
MTEXTEND
  0
INSERT
  5
A702
330
7B4F
100
AcDbEntity
  8
実形
 62
     0
370
    18
100
AcDbBlockReference
  2
_Dot
 10
609.9797339783616
 20
1193.547590588581
 30
0.0
 41
10.0
 42
10.0
 43
10.0
 50
270.0
  0
INSERT
  5
A703
330
7B4F
100
AcDbEntity
  8
実形
 62
     0
370
    18
100
AcDbBlockReference
  2
_Dot
 10
609.9797339783617
 20
1613.547590588582
 30
0.0
 41
10.0
 42
10.0
 43
10.0
 50
90.0
  0
POINT
  5
A704
330
7B4F
100
AcDbEntity
  8
Defpoints
 62
     0
100
AcDbPoint
 10
740.4462340145037
 20
1193.547590588581
 30
0.0
  0
POINT
  5
A705
330
7B4F
100
AcDbEntity
  8
Defpoints
 62
     0
100
AcDbPoint
 10
704.9792423394992
 20
1613.547590588582
 30
0.0
  0
POINT
  5
A706
330
7B4F
100
AcDbEntity
  8
Defpoints
 62
     0
100
AcDbPoint
 10
609.9797339783617
 20
1613.547590588582
 30
0.0
  0
ENDBLK
  5
7B5A
330
7B4F
100
AcDbEntity
  8
0
 62
     3
100
AcDbBlockEnd
  0
BLOCK
  5
7BAF
330
7BA5
100
AcDbEntity
  8
0
 62
     3
100
AcDbBlockBegin
  2
*D18
 70
     1
 10
0.0
 20
0.0
 30
0.0
  3
*D18
  1

  0
LINE
  5
A707
330
7BA5
100
AcDbEntity
  8
実形
 62
     0
370
    18
100
AcDbLine
 10
679.1272311080247
 20
1703.547590588581
 30
0.0
 11
554.0081774834199
 21
1703.547590588581
 31
0.0
  0
LINE
  5
A708
330
7BA5
100
AcDbEntity
  8
実形
 62
     0
370
    18
100
AcDbLine
 10
677.4573462903336
 20
1193.547590588581
 30
0.0
 11
554.0081774834198
 21
1193.547590588581
 31
0.0
  0
LINE
  5
A709
330
7BA5
100
AcDbEntity
  8
実形
 62
     0
370
    18
100
AcDbLine
 10
554.0081774834199
 20
1693.547590588581
 30
0.0
 11
554.0081774834198
 21
1203.547590588581
 31
0.0
  0
INSERT
  5
A70A
330
7BA5
100
AcDbEntity
  8
実形
 62
     0
370
    18
100
AcDbBlockReference
  2
_Dot
 10
554.0081774834199
 20
1703.547590588581
 30
0.0
 41
10.0
 42
10.0
 43
10.0
 50
90.0
  0
INSERT
  5
A70B
330
7BA5
100
AcDbEntity
  8
実形
 62
     0
370
    18
100
AcDbBlockReference
  2
_Dot
 10
554.0081774834198
 20
1193.547590588581
 30
0.0
 41
10.0
 42
10.0
 43
10.0
 50
270.0
  0
MTEXT
  5
A70C
330
7BA5
100
AcDbEntity
  8
実形
 62
     0
100
AcDbMText
 10
534.9081774834196
 20
1448.547590588582
 30
0.0
 40
25.0
 41
0.0
 71
     5
 72
     1
  1
510
 11
0.0000000000000001
 21
1.0
 31
0.0
 73
     1
 44
1.0
1001
ACAD
1000
MTEXTBEGIN
1070
    73
1070
     1
1070
    44
1040
1.0
1070
    74
1070
     0
1000
MTEXTEND
  0
POINT
  5
A70D
330
7BA5
100
AcDbEntity
  8
Defpoints
 62
     0
100
AcDbPoint
 10
744.1272311080247
 20
1703.547590588581
 30
0.0
  0
POINT
  5
A70E
330
7BA5
100
AcDbEntity
  8
Defpoints
 62
     0
100
AcDbPoint
 10
742.4573462903335
 20
1193.547590588581
 30
0.0
  0
POINT
  5
A70F
330
7BA5
100
AcDbEntity
  8
Defpoints
 62
     0
100
AcDbPoint
 10
554.0081774834198
 20
1193.547590588581
 30
0.0
  0
ENDBLK
  5
7BB0
330
7BA5
100
AcDbEntity
  8
0
 62
     3
100
AcDbBlockEnd
  0
BLOCK
  5
7BD7
330
7BCD
100
AcDbEntity
  8
0
 62
     3
100
AcDbBlockBegin
  2
*D19
 70
     1
 10
0.0
 20
0.0
 30
0.0
  3
*D19
  1

  0
LINE
  5
A710
330
7BCD
100
AcDbEntity
  8
実形
 62
     0
370
    18
100
AcDbLine
 10
678.4020419230073
 20
1718.547590588581
 30
0.0
 11
494.5352164791439
 21
1718.547590588581
 31
0.0
  0
LINE
  5
A711
330
7BCD
100
AcDbEntity
  8
実形
 62
     0
370
    18
100
AcDbLine
 10
678.4700379095556
 20
1178.547590588581
 30
0.0
 11
494.5352164791438
 21
1178.547590588581
 31
0.0
  0
LINE
  5
A712
330
7BCD
100
AcDbEntity
  8
実形
 62
     0
370
    18
100
AcDbLine
 10
494.5352164791439
 20
1708.547590588582
 30
0.0
 11
494.5352164791438
 21
1188.547590588582
 31
0.0
  0
INSERT
  5
A713
330
7BCD
100
AcDbEntity
  8
実形
 62
     0
370
    18
100
AcDbBlockReference
  2
_Dot
 10
494.5352164791439
 20
1718.547590588581
 30
0.0
 41
10.0
 42
10.0
 43
10.0
 50
90.0
  0
INSERT
  5
A714
330
7BCD
100
AcDbEntity
  8
実形
 62
     0
370
    18
100
AcDbBlockReference
  2
_Dot
 10
494.5352164791438
 20
1178.547590588581
 30
0.0
 41
10.0
 42
10.0
 43
10.0
 50
270.0
  0
MTEXT
  5
A715
330
7BCD
100
AcDbEntity
  8
実形
 62
     0
100
AcDbMText
 10
475.4352164791436
 20
1448.547590588582
 30
0.0
 40
25.0
 41
0.0
 71
     5
 72
     1
  1
540
 11
0.0000000000000001
 21
1.0
 31
0.0
 73
     1
 44
1.0
1001
ACAD
1000
MTEXTBEGIN
1070
    73
1070
     1
1070
    44
1040
1.0
1070
    74
1070
     0
1000
MTEXTEND
  0
POINT
  5
A716
330
7BCD
100
AcDbEntity
  8
Defpoints
 62
     0
100
AcDbPoint
 10
743.4020419230073
 20
1718.547590588581
 30
0.0
  0
POINT
  5
A717
330
7BCD
100
AcDbEntity
  8
Defpoints
 62
     0
100
AcDbPoint
 10
743.4700379095557
 20
1178.547590588581
 30
0.0
  0
POINT
  5
A718
330
7BCD
100
AcDbEntity
  8
Defpoints
 62
     0
100
AcDbPoint
 10
494.5352164791438
 20
1178.547590588581
 30
0.0
  0
ENDBLK
  5
7BD8
330
7BCD
100
AcDbEntity
  8
0
 62
     3
100
AcDbBlockEnd
  0
BLOCK
  5
7F0A
330
7F09
100
AcDbEntity
  8
0
 62
     3
100
AcDbBlockBegin
  2
*D20
 70
     1
 10
0.0
 20
0.0
 30
0.0
  3
*D20
  1

  0
LINE
  5
7F0B
330
7F09
100
AcDbEntity
  8
実形
 62
     0
370
    18
100
AcDbLine
 10
862.7702104998824
 20
1104.178460662066
 30
0.0
 11
862.7702104998824
 21
1036.915758957679
 31
0.0
  0
LINE
  5
7F0C
330
7F09
100
AcDbEntity
  8
実形
 62
     0
370
    18
100
AcDbLine
 10
1622.770210499882
 20
1104.178460662066
 30
0.0
 11
1622.770210499882
 21
1036.915758957679
 31
0.0
  0
LINE
  5
7F0D
330
7F09
100
AcDbEntity
  8
実形
 62
     0
370
    18
100
AcDbLine
 10
872.7702104998824
 20
1036.915758957679
 30
0.0
 11
1612.770210499882
 21
1036.915758957679
 31
0.0
  0
INSERT
  5
7F0E
330
7F09
100
AcDbEntity
  8
実形
 62
     0
370
    18
100
AcDbBlockReference
  2
_Dot
 10
862.7702104998824
 20
1036.915758957679
 30
0.0
 41
10.0
 42
10.0
 43
10.0
 50
180.0
  0
INSERT
  5
7F0F
330
7F09
100
AcDbEntity
  8
実形
 62
     0
370
    18
100
AcDbBlockReference
  2
_Dot
 10
1622.770210499882
 20
1036.915758957679
 30
0.0
 41
10.0
 42
10.0
 43
10.0
  0
MTEXT
  5
7F10
330
7F09
100
AcDbEntity
  8
実形
 62
     0
100
AcDbMText
 10
1242.770210499882
 20
1056.015758957679
 30
0.0
 40
25.0
 41
0.0
 71
     5
 72
     1
  1
760
 73
     1
 44
1.0
1001
ACAD
1000
MTEXTBEGIN
1070
    73
1070
     1
1070
    44
1040
1.0
1070
    74
1070
     0
1000
MTEXTEND
  0
POINT
  5
7F11
330
7F09
100
AcDbEntity
  8
Defpoints
 62
     0
100
AcDbPoint
 10
862.7702104998824
 20
1169.178460662066
 30
0.0
  0
POINT
  5
7F12
330
7F09
100
AcDbEntity
  8
Defpoints
 62
     0
100
AcDbPoint
 10
1622.770210499882
 20
1169.178460662066
 30
0.0
  0
POINT
  5
7F13
330
7F09
100
AcDbEntity
  8
Defpoints
 62
     0
100
AcDbPoint
 10
1622.770210499882
 20
1036.915758957679
 30
0.0
  0
ENDBLK
  5
7F14
330
7F09
100
AcDbEntity
  8
0
 62
     3
100
AcDbBlockEnd
  0
BLOCK
  5
7F16
330
7F15
100
AcDbEntity
  8
0
 62
     3
100
AcDbBlockBegin
  2
*D21
 70
     1
 10
0.0
 20
0.0
 30
0.0
  3
*D21
  1

  0
LINE
  5
7F17
330
7F15
100
AcDbEntity
  8
実形
 62
     0
370
    18
100
AcDbLine
 10
842.7702104998825
 20
1104.178460662066
 30
0.0
 11
842.7702104998825
 21
1036.915758957679
 31
0.0
  0
LINE
  5
7F18
330
7F15
100
AcDbEntity
  8
実形
 62
     0
370
    18
100
AcDbLine
 10
1642.770210499882
 20
1104.178460662066
 30
0.0
 11
1642.770210499882
 21
1036.915758957679
 31
0.0
  0
LINE
  5
7F19
330
7F15
100
AcDbEntity
  8
実形
 62
     0
370
    18
100
AcDbLine
 10
852.7702104998825
 20
1036.915758957679
 30
0.0
 11
1632.770210499882
 21
1036.915758957679
 31
0.0
  0
MTEXT
  5
7F1A
330
7F15
100
AcDbEntity
  8
実形
 62
     0
100
AcDbMText
 10
1589.171363804602
 20
1058.515758957679
 30
0.0
 40
25.0
 41
0.0
 71
     5
 72
     1
  1
20
 73
     1
 44
1.0
1001
ACAD
1000
MTEXTBEGIN
1070
    73
1070
     1
1070
    44
1040
1.0
1070
    74
1070
     0
1000
MTEXTEND
  0
INSERT
  5
7F1B
330
7F15
100
AcDbEntity
  8
実形
 62
     0
370
    18
100
AcDbBlockReference
  2
_Dot
 10
842.7702104998825
 20
1036.915758957679
 30
0.0
 41
10.0
 42
10.0
 43
10.0
 50
180.0
  0
INSERT
  5
7F1C
330
7F15
100
AcDbEntity
  8
実形
 62
     0
370
    18
100
AcDbBlockReference
  2
_Dot
 10
1642.770210499882
 20
1036.915758957679
 30
0.0
 41
10.0
 42
10.0
 43
10.0
  0
POINT
  5
7F1D
330
7F15
100
AcDbEntity
  8
Defpoints
 62
     0
100
AcDbPoint
 10
842.7702104998825
 20
1169.178460662066
 30
0.0
  0
POINT
  5
7F1E
330
7F15
100
AcDbEntity
  8
Defpoints
 62
     0
100
AcDbPoint
 10
1642.770210499882
 20
1169.178460662066
 30
0.0
  0
POINT
  5
7F1F
330
7F15
100
AcDbEntity
  8
Defpoints
 62
     0
100
AcDbPoint
 10
1642.770210499882
 20
1036.915758957679
 30
0.0
  0
ENDBLK
  5
7F20
330
7F15
100
AcDbEntity
  8
0
 62
     3
100
AcDbBlockEnd
  0
BLOCK
  5
7F22
330
7F21
100
AcDbEntity
  8
0
 62
     3
100
AcDbBlockBegin
  2
*D22
 70
     1
 10
0.0
 20
0.0
 30
0.0
  3
*D22
  1

  0
LINE
  5
7F23
330
7F21
100
AcDbEntity
  8
実形
 62
     0
370
    18
100
AcDbLine
 10
842.7702104998825
 20
1104.178460662066
 30
0.0
 11
842.7702104998825
 21
974.5052716017053
 31
0.0
  0
LINE
  5
7F24
330
7F21
100
AcDbEntity
  8
実形
 62
     0
370
    18
100
AcDbLine
 10
1642.770210499882
 20
1104.178460662066
 30
0.0
 11
1642.770210499882
 21
974.5052716017053
 31
0.0
  0
LINE
  5
7F25
330
7F21
100
AcDbEntity
  8
実形
 62
     0
370
    18
100
AcDbLine
 10
852.7702104998825
 20
974.5052716017053
 30
0.0
 11
1632.770210499882
 21
974.5052716017053
 31
0.0
  0
INSERT
  5
7F26
330
7F21
100
AcDbEntity
  8
実形
 62
     0
370
    18
100
AcDbBlockReference
  2
_Dot
 10
842.7702104998825
 20
974.5052716017053
 30
0.0
 41
10.0
 42
10.0
 43
10.0
 50
180.0
  0
INSERT
  5
7F27
330
7F21
100
AcDbEntity
  8
実形
 62
     0
370
    18
100
AcDbBlockReference
  2
_Dot
 10
1642.770210499882
 20
974.5052716017053
 30
0.0
 41
10.0
 42
10.0
 43
10.0
  0
MTEXT
  5
7F28
330
7F21
100
AcDbEntity
  8
実形
 62
     0
100
AcDbMText
 10
1242.770210499882
 20
993.6052716017053
 30
0.0
 40
25.0
 41
0.0
 71
     5
 72
     1
  1
800
 73
     1
 44
1.0
1001
ACAD
1000
MTEXTBEGIN
1070
    73
1070
     1
1070
    44
1040
1.0
1070
    74
1070
     0
1000
MTEXTEND
  0
POINT
  5
7F29
330
7F21
100
AcDbEntity
  8
Defpoints
 62
     0
100
AcDbPoint
 10
842.7702104998825
 20
1169.178460662066
 30
0.0
  0
POINT
  5
7F2A
330
7F21
100
AcDbEntity
  8
Defpoints
 62
     0
100
AcDbPoint
 10
1642.770210499882
 20
1169.178460662066
 30
0.0
  0
POINT
  5
7F2B
330
7F21
100
AcDbEntity
  8
Defpoints
 62
     0
100
AcDbPoint
 10
1642.770210499882
 20
974.5052716017053
 30
0.0
  0
ENDBLK
  5
7F2C
330
7F21
100
AcDbEntity
  8
0
 62
     3
100
AcDbBlockEnd
  0
BLOCK
  5
7F2E
330
7F2D
100
AcDbEntity
  8
0
 62
     3
100
AcDbBlockBegin
  2
*D23
 70
     1
 10
0.0
 20
0.0
 30
0.0
  3
*D23
  1

  0
LINE
  5
7F2F
330
7F2D
100
AcDbEntity
  8
実形
 62
     0
370
    18
100
AcDbLine
 10
827.7702104998825
 20
1104.178460662066
 30
0.0
 11
827.7702104998825
 21
974.5052716017053
 31
0.0
  0
LINE
  5
7F30
330
7F2D
100
AcDbEntity
  8
実形
 62
     0
370
    18
100
AcDbLine
 10
1657.770210499882
 20
1104.178460662066
 30
0.0
 11
1657.770210499882
 21
974.5052716017053
 31
0.0
  0
LINE
  5
7F31
330
7F2D
100
AcDbEntity
  8
実形
 62
     0
370
    18
100
AcDbLine
 10
837.7702104998824
 20
974.5052716017053
 30
0.0
 11
1647.770210499882
 21
974.5052716017053
 31
0.0
  0
MTEXT
  5
7F32
330
7F2D
100
AcDbEntity
  8
実形
 62
     0
100
AcDbMText
 10
1701.559743854428
 20
996.1052716017052
 30
0.0
 40
25.0
 41
0.0
 71
     5
 72
     1
  1
15
 73
     1
 44
1.0
1001
ACAD
1000
MTEXTBEGIN
1070
    73
1070
     1
1070
    44
1040
1.0
1070
    74
1070
     0
1000
MTEXTEND
  0
INSERT
  5
7F33
330
7F2D
100
AcDbEntity
  8
実形
 62
     0
370
    18
100
AcDbBlockReference
  2
_Dot
 10
827.7702104998825
 20
974.5052716017053
 30
0.0
 41
10.0
 42
10.0
 43
10.0
 50
180.0
  0
INSERT
  5
7F34
330
7F2D
100
AcDbEntity
  8
実形
 62
     0
370
    18
100
AcDbBlockReference
  2
_Dot
 10
1657.770210499882
 20
974.5052716017053
 30
0.0
 41
10.0
 42
10.0
 43
10.0
  0
POINT
  5
7F35
330
7F2D
100
AcDbEntity
  8
Defpoints
 62
     0
100
AcDbPoint
 10
827.7702104998825
 20
1169.178460662066
 30
0.0
  0
POINT
  5
7F36
330
7F2D
100
AcDbEntity
  8
Defpoints
 62
     0
100
AcDbPoint
 10
1657.770210499882
 20
1169.178460662066
 30
0.0
  0
POINT
  5
7F37
330
7F2D
100
AcDbEntity
  8
Defpoints
 62
     0
100
AcDbPoint
 10
1657.770210499882
 20
974.5052716017053
 30
0.0
  0
ENDBLK
  5
7F38
330
7F2D
100
AcDbEntity
  8
0
 62
     3
100
AcDbBlockEnd
  0
BLOCK
  5
7F3A
330
7F39
100
AcDbEntity
  8
0
 62
     3
100
AcDbBlockBegin
  2
*D24
 70
     1
 10
0.0
 20
0.0
 30
0.0
  3
*D24
  1

  0
LINE
  5
7F3B
330
7F39
100
AcDbEntity
  8
実形
 62
     0
370
    18
100
AcDbLine
 10
827.7702104998825
 20
1104.178460662066
 30
0.0
 11
827.7702104998825
 21
901.2836911315535
 31
0.0
  0
LINE
  5
7F3C
330
7F39
100
AcDbEntity
  8
実形
 62
     0
370
    18
100
AcDbLine
 10
1657.770210499882
 20
1104.178460662066
 30
0.0
 11
1657.770210499882
 21
901.2836911315535
 31
0.0
  0
LINE
  5
7F3D
330
7F39
100
AcDbEntity
  8
実形
 62
     0
370
    18
100
AcDbLine
 10
837.7702104998824
 20
901.2836911315535
 30
0.0
 11
1647.770210499882
 21
901.2836911315535
 31
0.0
  0
INSERT
  5
7F3E
330
7F39
100
AcDbEntity
  8
実形
 62
     0
370
    18
100
AcDbBlockReference
  2
_Dot
 10
827.7702104998825
 20
901.2836911315535
 30
0.0
 41
10.0
 42
10.0
 43
10.0
 50
180.0
  0
INSERT
  5
7F3F
330
7F39
100
AcDbEntity
  8
実形
 62
     0
370
    18
100
AcDbBlockReference
  2
_Dot
 10
1657.770210499882
 20
901.2836911315535
 30
0.0
 41
10.0
 42
10.0
 43
10.0
  0
MTEXT
  5
7F40
330
7F39
100
AcDbEntity
  8
実形
 62
     0
100
AcDbMText
 10
1242.770210499882
 20
920.3836911315535
 30
0.0
 40
25.0
 41
0.0
 71
     5
 72
     1
  1
830
 73
     1
 44
1.0
1001
ACAD
1000
MTEXTBEGIN
1070
    73
1070
     1
1070
    44
1040
1.0
1070
    74
1070
     0
1000
MTEXTEND
  0
POINT
  5
7F41
330
7F39
100
AcDbEntity
  8
Defpoints
 62
     0
100
AcDbPoint
 10
827.7702104998825
 20
1169.178460662066
 30
0.0
  0
POINT
  5
7F42
330
7F39
100
AcDbEntity
  8
Defpoints
 62
     0
100
AcDbPoint
 10
1657.770210499882
 20
1169.178460662066
 30
0.0
  0
POINT
  5
7F43
330
7F39
100
AcDbEntity
  8
Defpoints
 62
     0
100
AcDbPoint
 10
1657.770210499882
 20
901.2836911315535
 30
0.0
  0
ENDBLK
  5
7F44
330
7F39
100
AcDbEntity
  8
0
 62
     3
100
AcDbBlockEnd
  0
BLOCK
  5
7F46
330
7F45
100
AcDbEntity
  8
0
 62
     3
100
AcDbBlockBegin
  2
*D25
 70
     1
 10
0.0
 20
0.0
 30
0.0
  3
*D25
  1

  0
LINE
  5
7F47
330
7F45
100
AcDbEntity
  8
実形
 62
     0
370
    18
100
AcDbLine
 10
852.0693431839134
 20
-167.3860966284574
 30
0.0
 11
797.3710940401326
 21
-167.3860966284573
 31
0.0
  0
LINE
  5
7F48
330
7F45
100
AcDbEntity
  8
実形
 62
     0
370
    18
100
AcDbLine
 10
852.0693431839132
 20
-367.3860966284573
 30
0.0
 11
797.3710940401324
 21
-367.3860966284573
 31
0.0
  0
LINE
  5
7F49
330
7F45
100
AcDbEntity
  8
実形
 62
     0
370
    18
100
AcDbLine
 10
797.3710940401326
 20
-177.3860966284573
 30
0.0
 11
797.3710940401324
 21
-357.3860966284573
 31
0.0
  0
INSERT
  5
7F4A
330
7F45
100
AcDbEntity
  8
実形
 62
     0
370
    18
100
AcDbBlockReference
  2
_Dot
 10
797.3710940401326
 20
-167.3860966284573
 30
0.0
 41
10.0
 42
10.0
 43
10.0
 50
90.0
  0
INSERT
  5
7F4B
330
7F45
100
AcDbEntity
  8
実形
 62
     0
370
    18
100
AcDbBlockReference
  2
_Dot
 10
797.3710940401324
 20
-367.3860966284573
 30
0.0
 41
10.0
 42
10.0
 43
10.0
 50
270.0
  0
MTEXT
  5
7F4C
330
7F45
100
AcDbEntity
  8
実形
 62
     0
100
AcDbMText
 10
778.2710940401325
 20
-267.3860966284572
 30
0.0
 40
25.0
 41
0.0
 71
     5
 72
     1
  1
200
 11
0.0000000000000001
 21
1.0
 31
0.0
 73
     1
 44
1.0
1001
ACAD
1000
MTEXTBEGIN
1070
    73
1070
     1
1070
    44
1040
1.0
1070
    74
1070
     0
1000
MTEXTEND
  0
POINT
  5
7F4D
330
7F45
100
AcDbEntity
  8
Defpoints
 62
     0
100
AcDbPoint
 10
917.0693431839135
 20
-167.3860966284574
 30
0.0
  0
POINT
  5
7F4E
330
7F45
100
AcDbEntity
  8
Defpoints
 62
     0
100
AcDbPoint
 10
917.0693431839133
 20
-367.3860966284574
 30
0.0
  0
POINT
  5
7F4F
330
7F45
100
AcDbEntity
  8
Defpoints
 62
     0
100
AcDbPoint
 10
797.3710940401324
 20
-367.3860966284573
 30
0.0
  0
ENDBLK
  5
7F50
330
7F45
100
AcDbEntity
  8
0
 62
     3
100
AcDbBlockEnd
  0
BLOCK
  5
7F52
330
7F51
100
AcDbEntity
  8
0
 62
     3
100
AcDbBlockBegin
  2
*D26
 70
     1
 10
0.0
 20
0.0
 30
0.0
  3
*D26
  1

  0
LINE
  5
7F53
330
7F51
100
AcDbEntity
  8
実形
 62
     0
370
    18
100
AcDbLine
 10
852.0693431839136
 20
-152.3860966284574
 30
0.0
 11
797.3710940401326
 21
-152.3860966284573
 31
0.0
  0
LINE
  5
7F54
330
7F51
100
AcDbEntity
  8
実形
 62
     0
370
    18
100
AcDbLine
 10
852.0693431839136
 20
-382.3860966284573
 30
0.0
 11
797.3710940401324
 21
-382.3860966284573
 31
0.0
  0
LINE
  5
7F55
330
7F51
100
AcDbEntity
  8
実形
 62
     0
370
    18
100
AcDbLine
 10
797.3710940401326
 20
-162.3860966284573
 30
0.0
 11
797.3710940401324
 21
-372.3860966284573
 31
0.0
  0
MTEXT
  5
7F56
330
7F51
100
AcDbEntity
  8
実形
 62
     0
100
AcDbMText
 10
775.7710940401323
 20
-176.4675834353729
 30
0.0
 40
25.0
 41
0.0
 71
     5
 72
     1
  1
15
 11
0.0000000000000001
 21
1.0
 31
0.0
 73
     1
 44
1.0
1001
ACAD
1000
MTEXTBEGIN
1070
    73
1070
     1
1070
    44
1040
1.0
1070
    74
1070
     0
1000
MTEXTEND
  0
INSERT
  5
7F57
330
7F51
100
AcDbEntity
  8
実形
 62
     0
370
    18
100
AcDbBlockReference
  2
_Dot
 10
797.3710940401326
 20
-152.3860966284573
 30
0.0
 41
10.0
 42
10.0
 43
10.0
 50
90.0
  0
INSERT
  5
7F58
330
7F51
100
AcDbEntity
  8
実形
 62
     0
370
    18
100
AcDbBlockReference
  2
_Dot
 10
797.3710940401324
 20
-382.3860966284573
 30
0.0
 41
10.0
 42
10.0
 43
10.0
 50
270.0
  0
POINT
  5
7F59
330
7F51
100
AcDbEntity
  8
Defpoints
 62
     0
100
AcDbPoint
 10
917.0693431839136
 20
-152.3860966284574
 30
0.0
  0
POINT
  5
7F5A
330
7F51
100
AcDbEntity
  8
Defpoints
 62
     0
100
AcDbPoint
 10
917.0693431839136
 20
-382.3860966284574
 30
0.0
  0
POINT
  5
7F5B
330
7F51
100
AcDbEntity
  8
Defpoints
 62
     0
100
AcDbPoint
 10
797.3710940401324
 20
-382.3860966284573
 30
0.0
  0
ENDBLK
  5
7F5C
330
7F51
100
AcDbEntity
  8
0
 62
     3
100
AcDbBlockEnd
  0
BLOCK
  5
7F5E
330
7F5D
100
AcDbEntity
  8
0
 62
     3
100
AcDbBlockBegin
  2
*D27
 70
     1
 10
0.0
 20
0.0
 30
0.0
  3
*D27
  1

  0
LINE
  5
7F5F
330
7F5D
100
AcDbEntity
  8
実形
 62
     0
370
    18
100
AcDbLine
 10
852.0693431839136
 20
-392.3860966284573
 30
0.0
 11
797.3710940401323
 21
-392.3860966284573
 31
0.0
  0
LINE
  5
7F60
330
7F5D
100
AcDbEntity
  8
実形
 62
     0
370
    18
100
AcDbLine
 10
852.0693431839136
 20
-152.3860966284574
 30
0.0
 11
797.3710940401324
 21
-152.3860966284573
 31
0.0
  0
LINE
  5
7F61
330
7F5D
100
AcDbEntity
  8
実形
 62
     0
370
    18
100
AcDbLine
 10
797.3710940401323
 20
-382.3860966284573
 30
0.0
 11
797.3710940401324
 21
-162.3860966284573
 31
0.0
  0
MTEXT
  5
7F62
330
7F5D
100
AcDbEntity
  8
実形
 62
     0
100
AcDbMText
 10
830.355261679284
 20
-411.1966776303161
 30
0.0
 40
25.0
 41
0.0
 71
     5
 72
     1
  1
8
 11
0.0000000000000001
 21
1.0
 31
0.0
 73
     1
 44
1.0
1001
ACAD
1000
MTEXTBEGIN
1070
    73
1070
     1
1070
    44
1040
1.0
1070
    74
1070
     0
1000
MTEXTEND
  0
INSERT
  5
7F63
330
7F5D
100
AcDbEntity
  8
実形
 62
     0
370
    18
100
AcDbBlockReference
  2
_Dot
 10
797.3710940401323
 20
-392.3860966284573
 30
0.0
 41
10.0
 42
10.0
 43
10.0
 50
270.0
  0
INSERT
  5
7F64
330
7F5D
100
AcDbEntity
  8
実形
 62
     0
370
    18
100
AcDbBlockReference
  2
_Dot
 10
797.3710940401324
 20
-152.3860966284573
 30
0.0
 41
10.0
 42
10.0
 43
10.0
 50
90.0
  0
POINT
  5
7F65
330
7F5D
100
AcDbEntity
  8
Defpoints
 62
     0
100
AcDbPoint
 10
917.0693431839136
 20
-392.3860966284574
 30
0.0
  0
POINT
  5
7F66
330
7F5D
100
AcDbEntity
  8
Defpoints
 62
     0
100
AcDbPoint
 10
917.0693431839136
 20
-152.3860966284574
 30
0.0
  0
POINT
  5
7F67
330
7F5D
100
AcDbEntity
  8
Defpoints
 62
     0
100
AcDbPoint
 10
797.3710940401324
 20
-152.3860966284573
 30
0.0
  0
ENDBLK
  5
7F68
330
7F5D
100
AcDbEntity
  8
0
 62
     3
100
AcDbBlockEnd
  0
BLOCK
  5
7F6A
330
7F69
100
AcDbEntity
  8
0
 62
     3
100
AcDbBlockBegin
  2
*D28
 70
     1
 10
0.0
 20
0.0
 30
0.0
  3
*D28
  1

  0
LINE
  5
7F6B
330
7F69
100
AcDbEntity
  8
実形
 62
     0
370
    18
100
AcDbLine
 10
852.0693431839136
 20
-152.3860966284574
 30
0.0
 11
727.6013470322833
 21
-152.3860966284573
 31
0.0
  0
LINE
  5
7F6C
330
7F69
100
AcDbEntity
  8
実形
 62
     0
370
    18
100
AcDbLine
 10
852.0693431839134
 20
-382.3860966284573
 30
0.0
 11
727.6013470322832
 21
-382.3860966284573
 31
0.0
  0
LINE
  5
7F6D
330
7F69
100
AcDbEntity
  8
実形
 62
     0
370
    18
100
AcDbLine
 10
727.6013470322833
 20
-162.3860966284573
 30
0.0
 11
727.6013470322832
 21
-372.3860966284573
 31
0.0
  0
INSERT
  5
7F6E
330
7F69
100
AcDbEntity
  8
実形
 62
     0
370
    18
100
AcDbBlockReference
  2
_Dot
 10
727.6013470322833
 20
-152.3860966284573
 30
0.0
 41
10.0
 42
10.0
 43
10.0
 50
90.0
  0
INSERT
  5
7F6F
330
7F69
100
AcDbEntity
  8
実形
 62
     0
370
    18
100
AcDbBlockReference
  2
_Dot
 10
727.6013470322832
 20
-382.3860966284573
 30
0.0
 41
10.0
 42
10.0
 43
10.0
 50
270.0
  0
MTEXT
  5
7F70
330
7F69
100
AcDbEntity
  8
実形
 62
     0
100
AcDbMText
 10
708.5013470322833
 20
-267.3860966284572
 30
0.0
 40
25.0
 41
0.0
 71
     5
 72
     1
  1
230
 11
0.0000000000000001
 21
1.0
 31
0.0
 73
     1
 44
1.0
1001
ACAD
1000
MTEXTBEGIN
1070
    73
1070
     1
1070
    44
1040
1.0
1070
    74
1070
     0
1000
MTEXTEND
  0
POINT
  5
7F71
330
7F69
100
AcDbEntity
  8
Defpoints
 62
     0
100
AcDbPoint
 10
917.0693431839136
 20
-152.3860966284574
 30
0.0
  0
POINT
  5
7F72
330
7F69
100
AcDbEntity
  8
Defpoints
 62
     0
100
AcDbPoint
 10
917.0693431839135
 20
-382.3860966284574
 30
0.0
  0
POINT
  5
7F73
330
7F69
100
AcDbEntity
  8
Defpoints
 62
     0
100
AcDbPoint
 10
727.6013470322832
 20
-382.3860966284573
 30
0.0
  0
ENDBLK
  5
7F74
330
7F69
100
AcDbEntity
  8
0
 62
     3
100
AcDbBlockEnd
  0
BLOCK
  5
7F76
330
7F75
100
AcDbEntity
  8
0
 62
     3
100
AcDbBlockBegin
  2
*D29
 70
     1
 10
0.0
 20
0.0
 30
0.0
  3
*D29
  1

  0
LINE
  5
7F77
330
7F75
100
AcDbEntity
  8
実形
 62
     0
370
    18
100
AcDbLine
 10
728.6814961412001
 20
-152.3860966284574
 30
0.0
 11
660.6927293655045
 21
-152.3860966284573
 31
0.0
  0
LINE
  5
7F78
330
7F75
100
AcDbEntity
  8
実形
 62
     0
370
    18
100
AcDbLine
 10
728.6814961412
 20
-392.3860966284574
 30
0.0
 11
660.6927293655044
 21
-392.3860966284574
 31
0.0
  0
LINE
  5
7F79
330
7F75
100
AcDbEntity
  8
実形
 62
     0
370
    18
100
AcDbLine
 10
660.6927293655045
 20
-162.3860966284573
 30
0.0
 11
660.6927293655044
 21
-382.3860966284574
 31
0.0
  0
INSERT
  5
7F7A
330
7F75
100
AcDbEntity
  8
実形
 62
     0
370
    18
100
AcDbBlockReference
  2
_Dot
 10
660.6927293655045
 20
-152.3860966284573
 30
0.0
 41
10.0
 42
10.0
 43
10.0
 50
90.0
  0
INSERT
  5
7F7B
330
7F75
100
AcDbEntity
  8
実形
 62
     0
370
    18
100
AcDbBlockReference
  2
_Dot
 10
660.6927293655044
 20
-392.3860966284574
 30
0.0
 41
10.0
 42
10.0
 43
10.0
 50
270.0
  0
MTEXT
  5
7F7C
330
7F75
100
AcDbEntity
  8
実形
 62
     0
100
AcDbMText
 10
641.5927293655045
 20
-272.3860966284572
 30
0.0
 40
25.0
 41
0.0
 71
     5
 72
     1
  1
238
 11
0.0000000000000001
 21
1.0
 31
0.0
 73
     1
 44
1.0
1001
ACAD
1000
MTEXTBEGIN
1070
    73
1070
     1
1070
    44
1040
1.0
1070
    74
1070
     0
1000
MTEXTEND
  0
POINT
  5
7F7D
330
7F75
100
AcDbEntity
  8
Defpoints
 62
     0
100
AcDbPoint
 10
793.6814961412001
 20
-152.3860966284574
 30
0.0
  0
POINT
  5
7F7E
330
7F75
100
AcDbEntity
  8
Defpoints
 62
     0
100
AcDbPoint
 10
793.6814961411999
 20
-392.3860966284574
 30
0.0
  0
POINT
  5
7F7F
330
7F75
100
AcDbEntity
  8
Defpoints
 62
     0
100
AcDbPoint
 10
660.6927293655044
 20
-392.3860966284574
 30
0.0
  0
ENDBLK
  5
7F80
330
7F75
100
AcDbEntity
  8
0
 62
     3
100
AcDbBlockEnd
  0
BLOCK
  5
7F82
330
7F81
100
AcDbEntity
  8
0
 62
     3
100
AcDbBlockBegin
  2
*D30
 70
     1
 10
0.0
 20
0.0
 30
0.0
  3
*D30
  1

  0
LINE
  5
7F83
330
7F81
100
AcDbEntity
  8
実形
 62
     0
370
    18
100
AcDbLine
 10
1022.069343183913
 20
-457.3860966284574
 30
0.0
 11
1022.069343183913
 21
-509.3026951643151
 31
0.0
  0
LINE
  5
7F84
330
7F81
100
AcDbEntity
  8
実形
 62
     0
370
    18
100
AcDbLine
 10
1182.069343183914
 20
-457.3860966284574
 30
0.0
 11
1182.069343183914
 21
-509.3026951643151
 31
0.0
  0
LINE
  5
7F85
330
7F81
100
AcDbEntity
  8
実形
 62
     0
370
    18
100
AcDbLine
 10
1032.069343183913
 20
-509.3026951643151
 30
0.0
 11
1172.069343183913
 21
-509.3026951643151
 31
0.0
  0
INSERT
  5
7F86
330
7F81
100
AcDbEntity
  8
実形
 62
     0
370
    18
100
AcDbBlockReference
  2
_Dot
 10
1022.069343183913
 20
-509.3026951643151
 30
0.0
 41
10.0
 42
10.0
 43
10.0
 50
180.0
  0
INSERT
  5
7F87
330
7F81
100
AcDbEntity
  8
実形
 62
     0
370
    18
100
AcDbBlockReference
  2
_Dot
 10
1182.069343183914
 20
-509.3026951643151
 30
0.0
 41
10.0
 42
10.0
 43
10.0
  0
MTEXT
  5
7F88
330
7F81
100
AcDbEntity
  8
実形
 62
     0
100
AcDbMText
 10
1102.069343183913
 20
-490.202695164315
 30
0.0
 40
25.0
 41
0.0
 71
     5
 72
     1
  1
160
 73
     1
 44
1.0
1001
ACAD
1000
MTEXTBEGIN
1070
    73
1070
     1
1070
    44
1040
1.0
1070
    74
1070
     0
1000
MTEXTEND
  0
POINT
  5
7F89
330
7F81
100
AcDbEntity
  8
Defpoints
 62
     0
100
AcDbPoint
 10
1022.069343183913
 20
-392.3860966284575
 30
0.0
  0
POINT
  5
7F8A
330
7F81
100
AcDbEntity
  8
Defpoints
 62
     0
100
AcDbPoint
 10
1182.069343183914
 20
-392.3860966284575
 30
0.0
  0
POINT
  5
7F8B
330
7F81
100
AcDbEntity
  8
Defpoints
 62
     0
100
AcDbPoint
 10
1182.069343183914
 20
-509.3026951643151
 30
0.0
  0
ENDBLK
  5
7F8C
330
7F81
100
AcDbEntity
  8
0
 62
     3
100
AcDbBlockEnd
  0
BLOCK
  5
7F8E
330
7F8D
100
AcDbEntity
  8
0
 62
     3
100
AcDbBlockBegin
  2
*D31
 70
     1
 10
0.0
 20
0.0
 30
0.0
  3
*D31
  1

  0
LINE
  5
7F8F
330
7F8D
100
AcDbEntity
  8
実形
 62
     0
370
    18
100
AcDbLine
 10
1011.569343183913
 20
-457.3860966284574
 30
0.0
 11
1011.569343183913
 21
-580.5449919795919
 31
0.0
  0
LINE
  5
7F90
330
7F8D
100
AcDbEntity
  8
実形
 62
     0
370
    18
100
AcDbLine
 10
1192.569343183913
 20
-457.3860966284616
 30
0.0
 11
1192.569343183913
 21
-580.5449919795919
 31
0.0
  0
LINE
  5
7F91
330
7F8D
100
AcDbEntity
  8
実形
 62
     0
370
    18
100
AcDbLine
 10
1021.569343183913
 20
-580.5449919795919
 30
0.0
 11
1182.569343183913
 21
-580.5449919795919
 31
0.0
  0
INSERT
  5
7F92
330
7F8D
100
AcDbEntity
  8
実形
 62
     0
370
    18
100
AcDbBlockReference
  2
_Dot
 10
1011.569343183913
 20
-580.5449919795919
 30
0.0
 41
10.0
 42
10.0
 43
10.0
 50
180.0
  0
INSERT
  5
7F93
330
7F8D
100
AcDbEntity
  8
実形
 62
     0
370
    18
100
AcDbBlockReference
  2
_Dot
 10
1192.569343183913
 20
-580.5449919795919
 30
0.0
 41
10.0
 42
10.0
 43
10.0
  0
MTEXT
  5
7F94
330
7F8D
100
AcDbEntity
  8
実形
 62
     0
100
AcDbMText
 10
1102.069343183913
 20
-561.4449919795919
 30
0.0
 40
25.0
 41
0.0
 71
     5
 72
     1
  1
181
 73
     1
 44
1.0
1001
ACAD
1000
MTEXTBEGIN
1070
    73
1070
     1
1070
    44
1040
1.0
1070
    74
1070
     0
1000
MTEXTEND
  0
POINT
  5
7F95
330
7F8D
100
AcDbEntity
  8
Defpoints
 62
     0
100
AcDbPoint
 10
1011.569343183913
 20
-392.3860966284575
 30
0.0
  0
POINT
  5
7F96
330
7F8D
100
AcDbEntity
  8
Defpoints
 62
     0
100
AcDbPoint
 10
1192.569343183913
 20
-392.3860966284617
 30
0.0
  0
POINT
  5
7F97
330
7F8D
100
AcDbEntity
  8
Defpoints
 62
     0
100
AcDbPoint
 10
1192.569343183913
 20
-580.5449919795919
 30
0.0
  0
ENDBLK
  5
7F98
330
7F8D
100
AcDbEntity
  8
0
 62
     3
100
AcDbBlockEnd
  0
BLOCK
  5
7F9A
330
7F99
100
AcDbEntity
  8
0
 62
     3
100
AcDbBlockBegin
  2
*D32
 70
     1
 10
0.0
 20
0.0
 30
0.0
  3
*D32
  1

  0
LINE
  5
7F9B
330
7F99
100
AcDbEntity
  8
実形
 62
     0
370
    18
100
AcDbLine
 10
1094.538117598124
 20
1554.178460662066
 30
0.0
 11
1043.45634594854
 21
1554.178460662066
 31
0.0
  0
LINE
  5
7F9C
330
7F99
100
AcDbEntity
  8
実形
 62
     0
370
    18
100
AcDbLine
 10
1091.209930106677
 20
1404.178460662066
 30
0.0
 11
1043.456345948539
 21
1404.178460662066
 31
0.0
  0
LINE
  5
7F9D
330
7F99
100
AcDbEntity
  8
実形
 62
     0
370
    18
100
AcDbLine
 10
1043.45634594854
 20
1544.178460662066
 30
0.0
 11
1043.456345948539
 21
1414.178460662066
 31
0.0
  0
INSERT
  5
7F9E
330
7F99
100
AcDbEntity
  8
実形
 62
     0
370
    18
100
AcDbBlockReference
  2
_Dot
 10
1043.45634594854
 20
1554.178460662066
 30
0.0
 41
10.0
 42
10.0
 43
10.0
 50
90.0
  0
INSERT
  5
7F9F
330
7F99
100
AcDbEntity
  8
実形
 62
     0
370
    18
100
AcDbBlockReference
  2
_Dot
 10
1043.456345948539
 20
1404.178460662066
 30
0.0
 41
10.0
 42
10.0
 43
10.0
 50
270.0
  0
MTEXT
  5
7FA0
330
7F99
100
AcDbEntity
  8
実形
 62
     0
100
AcDbMText
 10
1021.856345948539
 20
1479.178460662066
 30
0.0
 40
30.0
 41
0.0
 71
     5
 72
     1
  1
150
 11
0.0000000000000001
 21
1.0
 31
0.0
 73
     1
 44
1.0
1001
ACAD
1000
MTEXTBEGIN
1070
    73
1070
     1
1070
    44
1040
1.0
1070
    74
1070
     0
1000
MTEXTEND
  0
POINT
  5
7FA1
330
7F99
100
AcDbEntity
  8
Defpoints
 62
     0
100
AcDbPoint
 10
1159.538117598124
 20
1554.178460662066
 30
0.0
  0
POINT
  5
7FA2
330
7F99
100
AcDbEntity
  8
Defpoints
 62
     0
100
AcDbPoint
 10
1156.209930106677
 20
1404.178460662066
 30
0.0
  0
POINT
  5
7FA3
330
7F99
100
AcDbEntity
  8
Defpoints
 62
     0
100
AcDbPoint
 10
1043.456345948539
 20
1404.178460662066
 30
0.0
  0
ENDBLK
  5
7FA4
330
7F99
100
AcDbEntity
  8
0
 62
     3
100
AcDbBlockEnd
  0
BLOCK
  5
7FA6
330
7FA5
100
AcDbEntity
  8
0
 62
     3
100
AcDbBlockBegin
  2
*D33
 70
     1
 10
0.0
 20
0.0
 30
0.0
  3
*D33
  1

  0
LINE
  5
7FA7
330
7FA5
100
AcDbEntity
  8
実形
 62
     0
370
    18
100
AcDbLine
 10
1242.770210499882
 20
1300.740901717254
 30
0.0
 11
1242.770210499882
 21
1270.994834284402
 31
0.0
  0
LINE
  5
7FA8
330
7FA5
100
AcDbEntity
  8
実形
 62
     0
370
    18
100
AcDbLine
 10
1622.770210499882
 20
1300.740901717254
 30
0.0
 11
1622.770210499882
 21
1270.994834284402
 31
0.0
  0
LINE
  5
7FA9
330
7FA5
100
AcDbEntity
  8
実形
 62
     0
370
    18
100
AcDbLine
 10
1252.770210499882
 20
1270.994834284402
 30
0.0
 11
1612.770210499882
 21
1270.994834284402
 31
0.0
  0
INSERT
  5
7FAA
330
7FA5
100
AcDbEntity
  8
実形
 62
     0
370
    18
100
AcDbBlockReference
  2
_Dot
 10
1242.770210499882
 20
1270.994834284402
 30
0.0
 41
10.0
 42
10.0
 43
10.0
 50
180.0
  0
INSERT
  5
7FAB
330
7FA5
100
AcDbEntity
  8
実形
 62
     0
370
    18
100
AcDbBlockReference
  2
_Dot
 10
1622.770210499882
 20
1270.994834284402
 30
0.0
 41
10.0
 42
10.0
 43
10.0
  0
MTEXT
  5
7FAC
330
7FA5
100
AcDbEntity
  8
実形
 62
     0
100
AcDbMText
 10
1432.770210499882
 20
1292.594834284402
 30
0.0
 40
30.0
 41
0.0
 71
     5
 72
     1
  1
380
 73
     1
 44
1.0
1001
ACAD
1000
MTEXTBEGIN
1070
    73
1070
     1
1070
    44
1040
1.0
1070
    74
1070
     0
1000
MTEXTEND
  0
POINT
  5
7FAD
330
7FA5
100
AcDbEntity
  8
Defpoints
 62
     0
100
AcDbPoint
 10
1242.770210499882
 20
1365.740901717254
 30
0.0
  0
POINT
  5
7FAE
330
7FA5
100
AcDbEntity
  8
Defpoints
 62
     0
100
AcDbPoint
 10
1622.770210499882
 20
1365.740901717254
 30
0.0
  0
POINT
  5
7FAF
330
7FA5
100
AcDbEntity
  8
Defpoints
 62
     0
100
AcDbPoint
 10
1622.770210499882
 20
1270.994834284402
 30
0.0
  0
ENDBLK
  5
7FB0
330
7FA5
100
AcDbEntity
  8
0
 62
     3
100
AcDbBlockEnd
  0
BLOCK
  5
7FB2
330
7FB1
100
AcDbEntity
  8
0
 62
     3
100
AcDbBlockBegin
  2
*D34
 70
     1
 10
0.0
 20
0.0
 30
0.0
  3
*D34
  1

  0
LINE
  5
7FB3
330
7FB1
100
AcDbEntity
  8
実形
 62
     0
370
    18
100
AcDbLine
 10
842.7702104998823
 20
1689.178460662066
 30
0.0
 11
842.7702104998823
 21
1735.385472702717
 31
0.0
  0
LINE
  5
7FB4
330
7FB1
100
AcDbEntity
  8
実形
 62
     0
370
    18
100
AcDbLine
 10
1092.770210499882
 20
1689.178460662066
 30
0.0
 11
1092.770210499882
 21
1735.385472702717
 31
0.0
  0
LINE
  5
7FB5
330
7FB1
100
AcDbEntity
  8
実形
 62
     0
370
    18
100
AcDbLine
 10
852.7702104998823
 20
1735.385472702717
 30
0.0
 11
1082.770210499882
 21
1735.385472702717
 31
0.0
  0
INSERT
  5
7FB6
330
7FB1
100
AcDbEntity
  8
実形
 62
     0
370
    18
100
AcDbBlockReference
  2
_Dot
 10
842.7702104998823
 20
1735.385472702717
 30
0.0
 41
10.0
 42
10.0
 43
10.0
 50
180.0
  0
INSERT
  5
7FB7
330
7FB1
100
AcDbEntity
  8
実形
 62
     0
370
    18
100
AcDbBlockReference
  2
_Dot
 10
1092.770210499882
 20
1735.385472702717
 30
0.0
 41
10.0
 42
10.0
 43
10.0
  0
MTEXT
  5
7FB8
330
7FB1
100
AcDbEntity
  8
実形
 62
     0
100
AcDbMText
 10
967.7702104998825
 20
1754.485472702717
 30
0.0
 40
25.0
 41
0.0
 71
     5
 72
     1
  1
250
 73
     1
 44
1.0
1001
ACAD
1000
MTEXTBEGIN
1070
    73
1070
     1
1070
    44
1040
1.0
1070
    74
1070
     0
1000
MTEXTEND
  0
POINT
  5
7FB9
330
7FB1
100
AcDbEntity
  8
Defpoints
 62
     0
100
AcDbPoint
 10
842.7702104998823
 20
1624.178460662066
 30
0.0
  0
POINT
  5
7FBA
330
7FB1
100
AcDbEntity
  8
Defpoints
 62
     0
100
AcDbPoint
 10
1092.770210499882
 20
1624.178460662066
 30
0.0
  0
POINT
  5
7FBB
330
7FB1
100
AcDbEntity
  8
Defpoints
 62
     0
100
AcDbPoint
 10
1092.770210499882
 20
1735.385472702717
 30
0.0
  0
ENDBLK
  5
7FBC
330
7FB1
100
AcDbEntity
  8
0
 62
     3
100
AcDbBlockEnd
  0
BLOCK
  5
7FBE
330
7FBD
100
AcDbEntity
  8
0
 62
     3
100
AcDbBlockBegin
  2
*D35
 70
     1
 10
0.0
 20
0.0
 30
0.0
  3
*D35
  1

  0
LINE
  5
7FBF
330
7FBD
100
AcDbEntity
  8
実形
 62
     0
370
    18
100
AcDbLine
 10
1092.770210499882
 20
1689.178460662066
 30
0.0
 11
1092.770210499882
 21
1735.385472702717
 31
0.0
  0
LINE
  5
7FC0
330
7FBD
100
AcDbEntity
  8
実形
 62
     0
370
    18
100
AcDbLine
 10
1392.770210499882
 20
1689.178460662066
 30
0.0
 11
1392.770210499882
 21
1735.385472702717
 31
0.0
  0
LINE
  5
7FC1
330
7FBD
100
AcDbEntity
  8
実形
 62
     0
370
    18
100
AcDbLine
 10
1102.770210499882
 20
1735.385472702717
 30
0.0
 11
1382.770210499882
 21
1735.385472702717
 31
0.0
  0
INSERT
  5
7FC2
330
7FBD
100
AcDbEntity
  8
実形
 62
     0
370
    18
100
AcDbBlockReference
  2
_Dot
 10
1092.770210499882
 20
1735.385472702717
 30
0.0
 41
10.0
 42
10.0
 43
10.0
 50
180.0
  0
INSERT
  5
7FC3
330
7FBD
100
AcDbEntity
  8
実形
 62
     0
370
    18
100
AcDbBlockReference
  2
_Dot
 10
1392.770210499882
 20
1735.385472702717
 30
0.0
 41
10.0
 42
10.0
 43
10.0
  0
MTEXT
  5
7FC4
330
7FBD
100
AcDbEntity
  8
実形
 62
     0
100
AcDbMText
 10
1242.770210499882
 20
1754.485472702717
 30
0.0
 40
25.0
 41
0.0
 71
     5
 72
     1
  1
300
 73
     1
 44
1.0
1001
ACAD
1000
MTEXTBEGIN
1070
    73
1070
     1
1070
    44
1040
1.0
1070
    74
1070
     0
1000
MTEXTEND
  0
POINT
  5
7FC5
330
7FBD
100
AcDbEntity
  8
Defpoints
 62
     0
100
AcDbPoint
 10
1092.770210499882
 20
1624.178460662066
 30
0.0
  0
POINT
  5
7FC6
330
7FBD
100
AcDbEntity
  8
Defpoints
 62
     0
100
AcDbPoint
 10
1392.770210499882
 20
1624.178460662066
 30
0.0
  0
POINT
  5
7FC7
330
7FBD
100
AcDbEntity
  8
Defpoints
 62
     0
100
AcDbPoint
 10
1392.770210499882
 20
1735.385472702717
 30
0.0
  0
ENDBLK
  5
7FC8
330
7FBD
100
AcDbEntity
  8
0
 62
     3
100
AcDbBlockEnd
  0
BLOCK
  5
7FCA
330
7FC9
100
AcDbEntity
  8
0
 62
     3
100
AcDbBlockBegin
  2
*D36
 70
     1
 10
0.0
 20
0.0
 30
0.0
  3
*D36
  1

  0
LINE
  5
7FCB
330
7FC9
100
AcDbEntity
  8
実形
 62
     0
370
    18
100
AcDbLine
 10
1392.770210499883
 20
1689.178460662065
 30
0.0
 11
1392.770210499883
 21
1735.385472702717
 31
0.0
  0
LINE
  5
7FCC
330
7FC9
100
AcDbEntity
  8
実形
 62
     0
370
    18
100
AcDbLine
 10
1642.770210499882
 20
1689.178460662065
 30
0.0
 11
1642.770210499882
 21
1735.385472702717
 31
0.0
  0
LINE
  5
7FCD
330
7FC9
100
AcDbEntity
  8
実形
 62
     0
370
    18
100
AcDbLine
 10
1402.770210499882
 20
1735.385472702717
 30
0.0
 11
1632.770210499882
 21
1735.385472702717
 31
0.0
  0
INSERT
  5
7FCE
330
7FC9
100
AcDbEntity
  8
実形
 62
     0
370
    18
100
AcDbBlockReference
  2
_Dot
 10
1392.770210499883
 20
1735.385472702717
 30
0.0
 41
10.0
 42
10.0
 43
10.0
 50
180.0
  0
INSERT
  5
7FCF
330
7FC9
100
AcDbEntity
  8
実形
 62
     0
370
    18
100
AcDbBlockReference
  2
_Dot
 10
1642.770210499882
 20
1735.385472702717
 30
0.0
 41
10.0
 42
10.0
 43
10.0
  0
MTEXT
  5
7FD0
330
7FC9
100
AcDbEntity
  8
実形
 62
     0
100
AcDbMText
 10
1517.770210499882
 20
1754.485472702717
 30
0.0
 40
25.0
 41
0.0
 71
     5
 72
     1
  1
250
 73
     1
 44
1.0
1001
ACAD
1000
MTEXTBEGIN
1070
    73
1070
     1
1070
    44
1040
1.0
1070
    74
1070
     0
1000
MTEXTEND
  0
POINT
  5
7FD1
330
7FC9
100
AcDbEntity
  8
Defpoints
 62
     0
100
AcDbPoint
 10
1392.770210499883
 20
1624.178460662065
 30
0.0
  0
POINT
  5
7FD2
330
7FC9
100
AcDbEntity
  8
Defpoints
 62
     0
100
AcDbPoint
 10
1642.770210499882
 20
1624.178460662065
 30
0.0
  0
POINT
  5
7FD3
330
7FC9
100
AcDbEntity
  8
Defpoints
 62
     0
100
AcDbPoint
 10
1642.770210499882
 20
1735.385472702717
 30
0.0
  0
ENDBLK
  5
7FD4
330
7FC9
100
AcDbEntity
  8
0
 62
     3
100
AcDbBlockEnd
  0
BLOCK
  5
7FD6
330
7FD5
100
AcDbEntity
  8
0
 62
     3
100
AcDbBlockBegin
  2
*D37
 70
     1
 10
0.0
 20
0.0
 30
0.0
  3
*D37
  1

  0
LINE
  5
7FD7
330
7FD5
100
AcDbEntity
  8
実形
 62
     0
370
    18
100
AcDbLine
 10
827.7702104998825
 20
1689.806458158204
 30
0.0
 11
827.7702104998825
 21
1735.385472702717
 31
0.0
  0
LINE
  5
7FD8
330
7FD5
100
AcDbEntity
  8
実形
 62
     0
370
    18
100
AcDbLine
 10
1657.770210499882
 20
1689.161761419618
 30
0.0
 11
1657.770210499882
 21
1735.385472702717
 31
0.0
  0
LINE
  5
7FD9
330
7FD5
100
AcDbEntity
  8
実形
 62
     0
370
    18
100
AcDbLine
 10
837.7702104998824
 20
1735.385472702717
 30
0.0
 11
1647.770210499882
 21
1735.385472702717
 31
0.0
  0
MTEXT
  5
7FDA
330
7FD5
100
AcDbEntity
  8
実形
 62
     0
100
AcDbMText
 10
826.3182245476109
 20
1760.370517377699
 30
0.0
 40
25.0
 41
0.0
 71
     5
 72
     1
  1
15
 73
     1
 44
1.0
1001
ACAD
1000
MTEXTBEGIN
1070
    73
1070
     1
1070
    44
1040
1.0
1070
    74
1070
     0
1000
MTEXTEND
  0
INSERT
  5
7FDB
330
7FD5
100
AcDbEntity
  8
実形
 62
     0
370
    18
100
AcDbBlockReference
  2
_Dot
 10
827.7702104998825
 20
1735.385472702717
 30
0.0
 41
10.0
 42
10.0
 43
10.0
 50
180.0
  0
INSERT
  5
7FDC
330
7FD5
100
AcDbEntity
  8
実形
 62
     0
370
    18
100
AcDbBlockReference
  2
_Dot
 10
1657.770210499882
 20
1735.385472702717
 30
0.0
 41
10.0
 42
10.0
 43
10.0
  0
POINT
  5
7FDD
330
7FD5
100
AcDbEntity
  8
Defpoints
 62
     0
100
AcDbPoint
 10
827.7702104998825
 20
1624.806458158204
 30
0.0
  0
POINT
  5
7FDE
330
7FD5
100
AcDbEntity
  8
Defpoints
 62
     0
100
AcDbPoint
 10
1657.770210499882
 20
1624.161761419618
 30
0.0
  0
POINT
  5
7FDF
330
7FD5
100
AcDbEntity
  8
Defpoints
 62
     0
100
AcDbPoint
 10
1657.770210499882
 20
1735.385472702717
 30
0.0
  0
ENDBLK
  5
7FE0
330
7FD5
100
AcDbEntity
  8
0
 62
     3
100
AcDbBlockEnd
  0
BLOCK
  5
7FE2
330
7FE1
100
AcDbEntity
  8
0
 62
     3
100
AcDbBlockBegin
  2
*D38
 70
     1
 10
0.0
 20
0.0
 30
0.0
  3
*D38
  1

  0
LINE
  5
7FE3
330
7FE1
100
AcDbEntity
  8
実形
 62
     0
370
    18
100
AcDbLine
 10
1722.770210499882
 20
1644.178460662066
 30
0.0
 11
1771.093547640549
 21
1644.178460662066
 31
0.0
  0
LINE
  5
7FE4
330
7FE1
100
AcDbEntity
  8
実形
 62
     0
370
    18
100
AcDbLine
 10
1722.770210499882
 20
1184.178460662066
 30
0.0
 11
1771.093547640548
 21
1184.178460662066
 31
0.0
  0
LINE
  5
7FE5
330
7FE1
100
AcDbEntity
  8
実形
 62
     0
370
    18
100
AcDbLine
 10
1771.093547640549
 20
1634.178460662066
 30
0.0
 11
1771.093547640548
 21
1194.178460662066
 31
0.0
  0
INSERT
  5
7FE6
330
7FE1
100
AcDbEntity
  8
実形
 62
     0
370
    18
100
AcDbBlockReference
  2
_Dot
 10
1771.093547640549
 20
1644.178460662066
 30
0.0
 41
10.0
 42
10.0
 43
10.0
 50
90.0
  0
INSERT
  5
7FE7
330
7FE1
100
AcDbEntity
  8
実形
 62
     0
370
    18
100
AcDbBlockReference
  2
_Dot
 10
1771.093547640548
 20
1184.178460662066
 30
0.0
 41
10.0
 42
10.0
 43
10.0
 50
270.0
  0
MTEXT
  5
7FE8
330
7FE1
100
AcDbEntity
  8
実形
 62
     0
100
AcDbMText
 10
1751.993547640548
 20
1414.178460662066
 30
0.0
 40
25.0
 41
0.0
 71
     5
 72
     1
  1
460
 11
0.0000000000000001
 21
1.0
 31
0.0
 73
     1
 44
1.0
1001
ACAD
1000
MTEXTBEGIN
1070
    73
1070
     1
1070
    44
1040
1.0
1070
    74
1070
     0
1000
MTEXTEND
  0
POINT
  5
7FE9
330
7FE1
100
AcDbEntity
  8
Defpoints
 62
     0
100
AcDbPoint
 10
1657.770210499882
 20
1644.178460662066
 30
0.0
  0
POINT
  5
7FEA
330
7FE1
100
AcDbEntity
  8
Defpoints
 62
     0
100
AcDbPoint
 10
1657.770210499883
 20
1184.178460662066
 30
0.0
  0
POINT
  5
7FEB
330
7FE1
100
AcDbEntity
  8
Defpoints
 62
     0
100
AcDbPoint
 10
1771.093547640548
 20
1184.178460662066
 30
0.0
  0
ENDBLK
  5
7FEC
330
7FE1
100
AcDbEntity
  8
0
 62
     3
100
AcDbBlockEnd
  0
BLOCK
  5
7FEE
330
7FED
100
AcDbEntity
  8
0
 62
     3
100
AcDbBlockBegin
  2
*D39
 70
     1
 10
0.0
 20
0.0
 30
0.0
  3
*D39
  1

  0
LINE
  5
7FEF
330
7FED
100
AcDbEntity
  8
実形
 62
     0
370
    18
100
AcDbLine
 10
1722.770210499882
 20
1659.178460662066
 30
0.0
 11
1771.093547640549
 21
1659.178460662066
 31
0.0
  0
LINE
  5
7FF0
330
7FED
100
AcDbEntity
  8
実形
 62
     0
370
    18
100
AcDbLine
 10
1722.770210499882
 20
1169.178460662066
 30
0.0
 11
1771.093547640548
 21
1169.178460662066
 31
0.0
  0
LINE
  5
7FF1
330
7FED
100
AcDbEntity
  8
実形
 62
     0
370
    18
100
AcDbLine
 10
1771.093547640549
 20
1649.178460662066
 30
0.0
 11
1771.093547640548
 21
1179.178460662066
 31
0.0
  0
MTEXT
  5
7FF2
330
7FED
100
AcDbEntity
  8
実形
 62
     0
100
AcDbMText
 10
1749.493547640548
 20
1688.725599288342
 30
0.0
 40
25.0
 41
0.0
 71
     5
 72
     1
  1
15
 11
0.0000000000000001
 21
1.0
 31
0.0
 73
     1
 44
1.0
1001
ACAD
1000
MTEXTBEGIN
1070
    73
1070
     1
1070
    44
1040
1.0
1070
    74
1070
     0
1000
MTEXTEND
  0
INSERT
  5
7FF3
330
7FED
100
AcDbEntity
  8
実形
 62
     0
370
    18
100
AcDbBlockReference
  2
_Dot
 10
1771.093547640549
 20
1659.178460662066
 30
0.0
 41
10.0
 42
10.0
 43
10.0
 50
90.0
  0
INSERT
  5
7FF4
330
7FED
100
AcDbEntity
  8
実形
 62
     0
370
    18
100
AcDbBlockReference
  2
_Dot
 10
1771.093547640548
 20
1169.178460662066
 30
0.0
 41
10.0
 42
10.0
 43
10.0
 50
270.0
  0
POINT
  5
7FF5
330
7FED
100
AcDbEntity
  8
Defpoints
 62
     0
100
AcDbPoint
 10
1657.770210499882
 20
1659.178460662066
 30
0.0
  0
POINT
  5
7FF6
330
7FED
100
AcDbEntity
  8
Defpoints
 62
     0
100
AcDbPoint
 10
1657.770210499882
 20
1169.178460662066
 30
0.0
  0
POINT
  5
7FF7
330
7FED
100
AcDbEntity
  8
Defpoints
 62
     0
100
AcDbPoint
 10
1771.093547640548
 20
1169.178460662066
 30
0.0
  0
ENDBLK
  5
7FF8
330
7FED
100
AcDbEntity
  8
0
 62
     3
100
AcDbBlockEnd
  0
BLOCK
  5
7FFA
330
7FF9
100
AcDbEntity
  8
0
 62
     3
100
AcDbBlockBegin
  2
*D40
 70
     1
 10
0.0
 20
0.0
 30
0.0
  3
*D40
  1

  0
LINE
  5
7FFB
330
7FF9
100
AcDbEntity
  8
実形
 62
     0
370
    18
100
AcDbLine
 10
1722.770210499882
 20
1659.178460662066
 30
0.0
 11
1833.118375451033
 21
1659.178460662066
 31
0.0
  0
LINE
  5
7FFC
330
7FF9
100
AcDbEntity
  8
実形
 62
     0
370
    18
100
AcDbLine
 10
1722.770210499882
 20
1169.178460662066
 30
0.0
 11
1833.118375451033
 21
1169.178460662066
 31
0.0
  0
LINE
  5
7FFD
330
7FF9
100
AcDbEntity
  8
実形
 62
     0
370
    18
100
AcDbLine
 10
1833.118375451033
 20
1649.178460662066
 30
0.0
 11
1833.118375451033
 21
1179.178460662066
 31
0.0
  0
INSERT
  5
7FFE
330
7FF9
100
AcDbEntity
  8
実形
 62
     0
370
    18
100
AcDbBlockReference
  2
_Dot
 10
1833.118375451033
 20
1659.178460662066
 30
0.0
 41
10.0
 42
10.0
 43
10.0
 50
90.0
  0
INSERT
  5
7FFF
330
7FF9
100
AcDbEntity
  8
実形
 62
     0
370
    18
100
AcDbBlockReference
  2
_Dot
 10
1833.118375451033
 20
1169.178460662066
 30
0.0
 41
10.0
 42
10.0
 43
10.0
 50
270.0
  0
MTEXT
  5
8000
330
7FF9
100
AcDbEntity
  8
実形
 62
     0
100
AcDbMText
 10
1814.018375451033
 20
1414.178460662066
 30
0.0
 40
25.0
 41
0.0
 71
     5
 72
     1
  1
490
 11
0.0000000000000001
 21
1.0
 31
0.0
 73
     1
 44
1.0
1001
ACAD
1000
MTEXTBEGIN
1070
    73
1070
     1
1070
    44
1040
1.0
1070
    74
1070
     0
1000
MTEXTEND
  0
POINT
  5
8001
330
7FF9
100
AcDbEntity
  8
Defpoints
 62
     0
100
AcDbPoint
 10
1657.770210499882
 20
1659.178460662066
 30
0.0
  0
POINT
  5
8002
330
7FF9
100
AcDbEntity
  8
Defpoints
 62
     0
100
AcDbPoint
 10
1657.770210499882
 20
1169.178460662066
 30
0.0
  0
POINT
  5
8003
330
7FF9
100
AcDbEntity
  8
Defpoints
 62
     0
100
AcDbPoint
 10
1833.118375451033
 20
1169.178460662066
 30
0.0
  0
ENDBLK
  5
8004
330
7FF9
100
AcDbEntity
  8
0
 62
     3
100
AcDbBlockEnd
  0
BLOCK
  5
8006
330
8005
100
AcDbEntity
  8
0
 62
     3
100
AcDbBlockBegin
  2
*D41
 70
     1
 10
0.0
 20
0.0
 30
0.0
  3
*D41
  1

  0
LINE
  5
8007
330
8005
100
AcDbEntity
  8
実形
 62
     0
370
    18
100
AcDbLine
 10
767.3275276276962
 20
1554.178460662066
 30
0.0
 11
738.1482502386061
 21
1554.178460662066
 31
0.0
  0
LINE
  5
8008
330
8005
100
AcDbEntity
  8
実形
 62
     0
370
    18
100
AcDbLine
 10
767.3275276276962
 20
1644.178460662066
 30
0.0
 11
738.1482502386061
 21
1644.178460662066
 31
0.0
  0
LINE
  5
8009
330
8005
100
AcDbEntity
  8
実形
 62
     0
370
    18
100
AcDbLine
 10
738.1482502386061
 20
1564.178460662066
 30
0.0
 11
738.1482502386061
 21
1634.178460662066
 31
0.0
  0
MTEXT
  5
800A
330
8005
100
AcDbEntity
  8
実形
 62
     0
100
AcDbMText
 10
715.569680847846
 20
1589.259853472391
 30
0.0
 40
25.0
 41
0.0
 71
     5
 72
     1
  1
70
 11
0.0000000000000001
 21
1.0
 31
0.0
 73
     1
 44
1.0
1001
ACAD
1000
MTEXTBEGIN
1070
    73
1070
     1
1070
    44
1040
1.0
1070
    74
1070
     0
1000
MTEXTEND
  0
INSERT
  5
800B
330
8005
100
AcDbEntity
  8
実形
 62
     0
370
    18
100
AcDbBlockReference
  2
_Dot
 10
738.1482502386061
 20
1554.178460662066
 30
0.0
 41
10.0
 42
10.0
 43
10.0
 50
270.0
  0
INSERT
  5
800C
330
8005
100
AcDbEntity
  8
実形
 62
     0
370
    18
100
AcDbBlockReference
  2
_Dot
 10
738.1482502386061
 20
1644.178460662066
 30
0.0
 41
10.0
 42
10.0
 43
10.0
 50
90.0
  0
POINT
  5
800D
330
8005
100
AcDbEntity
  8
Defpoints
 62
     0
100
AcDbPoint
 10
832.3275276276962
 20
1554.178460662066
 30
0.0
  0
POINT
  5
800E
330
8005
100
AcDbEntity
  8
Defpoints
 62
     0
100
AcDbPoint
 10
832.3275276276962
 20
1644.178460662066
 30
0.0
  0
POINT
  5
800F
330
8005
100
AcDbEntity
  8
Defpoints
 62
     0
100
AcDbPoint
 10
738.1482502386061
 20
1644.178460662066
 30
0.0
  0
ENDBLK
  5
8010
330
8005
100
AcDbEntity
  8
0
 62
     3
100
AcDbBlockEnd
  0
BLOCK
  5
8012
330
8011
100
AcDbEntity
  8
0
 62
     3
100
AcDbBlockBegin
  2
*D42
 70
     1
 10
0.0
 20
0.0
 30
0.0
  3
*D42
  1

  0
LINE
  5
8013
330
8011
100
AcDbEntity
  8
実形
 62
     0
370
    18
100
AcDbLine
 10
767.3275276276962
 20
1554.178460662066
 30
0.0
 11
738.1482502386061
 21
1554.178460662066
 31
0.0
  0
LINE
  5
8014
330
8011
100
AcDbEntity
  8
実形
 62
     0
370
    18
100
AcDbLine
 10
773.3275276276963
 20
1624.178460662066
 30
0.0
 11
738.1482502386061
 21
1624.178460662066
 31
0.0
  0
LINE
  5
8015
330
8011
100
AcDbEntity
  8
実形
 62
     0
370
    18
100
AcDbLine
 10
738.1482502386061
 20
1564.178460662066
 30
0.0
 11
738.1482502386061
 21
1614.178460662066
 31
0.0
  0
MTEXT
  5
8016
330
8011
100
AcDbEntity
  8
実形
 62
     0
100
AcDbMText
 10
801.3626707265066
 20
1625.22842009638
 30
0.0
 40
25.0
 41
0.0
 71
     5
 72
     1
  1
20
 11
0.0000000000000001
 21
1.0
 31
0.0
 73
     1
 44
1.0
1001
ACAD
1000
MTEXTBEGIN
1070
    73
1070
     1
1070
    44
1040
1.0
1070
    74
1070
     0
1000
MTEXTEND
  0
INSERT
  5
8017
330
8011
100
AcDbEntity
  8
実形
 62
     0
370
    18
100
AcDbBlockReference
  2
_Dot
 10
738.1482502386061
 20
1554.178460662066
 30
0.0
 41
10.0
 42
10.0
 43
10.0
 50
270.0
  0
INSERT
  5
8018
330
8011
100
AcDbEntity
  8
実形
 62
     0
370
    18
100
AcDbBlockReference
  2
_Dot
 10
738.1482502386061
 20
1624.178460662066
 30
0.0
 41
10.0
 42
10.0
 43
10.0
 50
90.0
  0
POINT
  5
8019
330
8011
100
AcDbEntity
  8
Defpoints
 62
     0
100
AcDbPoint
 10
832.3275276276962
 20
1554.178460662066
 30
0.0
  0
POINT
  5
801A
330
8011
100
AcDbEntity
  8
Defpoints
 62
     0
100
AcDbPoint
 10
838.3275276276963
 20
1624.178460662066
 30
0.0
  0
POINT
  5
801B
330
8011
100
AcDbEntity
  8
Defpoints
 62
     0
100
AcDbPoint
 10
738.1482502386061
 20
1624.178460662066
 30
0.0
  0
ENDBLK
  5
801C
330
8011
100
AcDbEntity
  8
0
 62
     3
100
AcDbBlockEnd
  0
BLOCK
  5
801E
330
801D
100
AcDbEntity
  8
0
 62
     3
100
AcDbBlockBegin
  2
*D43
 70
     1
 10
0.0
 20
0.0
 30
0.0
  3
*D43
  1

  0
LINE
  5
801F
330
801D
100
AcDbEntity
  8
実形
 62
     0
370
    18
100
AcDbLine
 10
735.771238858355
 20
1644.178460662066
 30
0.0
 11
672.3280192665588
 21
1644.178460662066
 31
0.0
  0
LINE
  5
8020
330
801D
100
AcDbEntity
  8
実形
 62
     0
370
    18
100
AcDbLine
 10
714.7500916428215
 20
1554.178460662066
 30
0.0
 11
672.3280192665588
 21
1554.178460662066
 31
0.0
  0
LINE
  5
8021
330
801D
100
AcDbEntity
  8
実形
 62
     0
370
    18
100
AcDbLine
 10
672.3280192665588
 20
1634.178460662066
 30
0.0
 11
672.3280192665588
 21
1564.178460662066
 31
0.0
  0
INSERT
  5
8022
330
801D
100
AcDbEntity
  8
実形
 62
     0
370
    18
100
AcDbBlockReference
  2
_Dot
 10
672.3280192665588
 20
1644.178460662066
 30
0.0
 41
10.0
 42
10.0
 43
10.0
 50
90.0
  0
INSERT
  5
8023
330
801D
100
AcDbEntity
  8
実形
 62
     0
370
    18
100
AcDbBlockReference
  2
_Dot
 10
672.3280192665588
 20
1554.178460662066
 30
0.0
 41
10.0
 42
10.0
 43
10.0
 50
270.0
  0
MTEXT
  5
8024
330
801D
100
AcDbEntity
  8
実形
 62
     0
100
AcDbMText
 10
653.2280192665585
 20
1599.178460662066
 30
0.0
 40
25.0
 41
0.0
 71
     5
 72
     1
  1
90
 11
0.0000000000000001
 21
1.0
 31
0.0
 73
     1
 44
1.0
1001
ACAD
1000
MTEXTBEGIN
1070
    73
1070
     1
1070
    44
1040
1.0
1070
    74
1070
     0
1000
MTEXTEND
  0
POINT
  5
8025
330
801D
100
AcDbEntity
  8
Defpoints
 62
     0
100
AcDbPoint
 10
800.771238858355
 20
1644.178460662066
 30
0.0
  0
POINT
  5
8026
330
801D
100
AcDbEntity
  8
Defpoints
 62
     0
100
AcDbPoint
 10
779.7500916428215
 20
1554.178460662066
 30
0.0
  0
POINT
  5
8027
330
801D
100
AcDbEntity
  8
Defpoints
 62
     0
100
AcDbPoint
 10
672.3280192665588
 20
1554.178460662066
 30
0.0
  0
ENDBLK
  5
8028
330
801D
100
AcDbEntity
  8
0
 62
     3
100
AcDbBlockEnd
  0
BLOCK
  5
802A
330
8029
100
AcDbEntity
  8
0
 62
     3
100
AcDbBlockBegin
  2
*D44
 70
     1
 10
0.0
 20
0.0
 30
0.0
  3
*D44
  1

  0
LINE
  5
802B
330
8029
100
AcDbEntity
  8
実形
 62
     0
370
    18
100
AcDbLine
 10
732.6742997845558
 20
1554.178460662066
 30
0.0
 11
672.3280192665588
 21
1554.178460662066
 31
0.0
  0
LINE
  5
802C
330
8029
100
AcDbEntity
  8
実形
 62
     0
370
    18
100
AcDbLine
 10
737.7945193027008
 20
1204.178460662066
 30
0.0
 11
672.3280192665587
 21
1204.178460662066
 31
0.0
  0
LINE
  5
802D
330
8029
100
AcDbEntity
  8
実形
 62
     0
370
    18
100
AcDbLine
 10
672.3280192665588
 20
1544.178460662066
 30
0.0
 11
672.3280192665587
 21
1214.178460662066
 31
0.0
  0
INSERT
  5
802E
330
8029
100
AcDbEntity
  8
実形
 62
     0
370
    18
100
AcDbBlockReference
  2
_Dot
 10
672.3280192665588
 20
1554.178460662066
 30
0.0
 41
10.0
 42
10.0
 43
10.0
 50
90.0
  0
INSERT
  5
802F
330
8029
100
AcDbEntity
  8
実形
 62
     0
370
    18
100
AcDbBlockReference
  2
_Dot
 10
672.3280192665587
 20
1204.178460662066
 30
0.0
 41
10.0
 42
10.0
 43
10.0
 50
270.0
  0
MTEXT
  5
8030
330
8029
100
AcDbEntity
  8
実形
 62
     0
100
AcDbMText
 10
653.2280192665585
 20
1379.178460662066
 30
0.0
 40
25.0
 41
0.0
 71
     5
 72
     1
  1
350
 11
0.0000000000000001
 21
1.0
 31
0.0
 73
     1
 44
1.0
1001
ACAD
1000
MTEXTBEGIN
1070
    73
1070
     1
1070
    44
1040
1.0
1070
    74
1070
     0
1000
MTEXTEND
  0
POINT
  5
8031
330
8029
100
AcDbEntity
  8
Defpoints
 62
     0
100
AcDbPoint
 10
797.6742997845558
 20
1554.178460662066
 30
0.0
  0
POINT
  5
8032
330
8029
100
AcDbEntity
  8
Defpoints
 62
     0
100
AcDbPoint
 10
802.7945193027008
 20
1204.178460662066
 30
0.0
  0
POINT
  5
8033
330
8029
100
AcDbEntity
  8
Defpoints
 62
     0
100
AcDbPoint
 10
672.3280192665587
 20
1204.178460662066
 30
0.0
  0
ENDBLK
  5
8034
330
8029
100
AcDbEntity
  8
0
 62
     3
100
AcDbBlockEnd
  0
BLOCK
  5
8036
330
8035
100
AcDbEntity
  8
0
 62
     3
100
AcDbBlockBegin
  2
*D45
 70
     1
 10
0.0
 20
0.0
 30
0.0
  3
*D45
  1

  0
LINE
  5
8037
330
8035
100
AcDbEntity
  8
実形
 62
     0
370
    18
100
AcDbLine
 10
764.1539611657317
 20
1659.178460662066
 30
0.0
 11
672.3280192665588
 21
1659.178460662066
 31
0.0
  0
LINE
  5
8038
330
8035
100
AcDbEntity
  8
実形
 62
     0
370
    18
100
AcDbLine
 10
737.2641105192887
 20
1169.178460662066
 30
0.0
 11
672.3280192665587
 21
1169.178460662066
 31
0.0
  0
LINE
  5
8039
330
8035
100
AcDbEntity
  8
実形
 62
     0
370
    18
100
AcDbLine
 10
672.3280192665588
 20
1649.178460662066
 30
0.0
 11
672.3280192665587
 21
1179.178460662066
 31
0.0
  0
MTEXT
  5
803A
330
8035
100
AcDbEntity
  8
実形
 62
     0
100
AcDbMText
 10
650.7280192665586
 20
1682.883538982083
 30
0.0
 40
25.0
 41
0.0
 71
     5
 72
     1
  1
15
 11
0.0000000000000001
 21
1.0
 31
0.0
 73
     1
 44
1.0
1001
ACAD
1000
MTEXTBEGIN
1070
    73
1070
     1
1070
    44
1040
1.0
1070
    74
1070
     0
1000
MTEXTEND
  0
INSERT
  5
803B
330
8035
100
AcDbEntity
  8
実形
 62
     0
370
    18
100
AcDbBlockReference
  2
_Dot
 10
672.3280192665588
 20
1659.178460662066
 30
0.0
 41
10.0
 42
10.0
 43
10.0
 50
90.0
  0
INSERT
  5
803C
330
8035
100
AcDbEntity
  8
実形
 62
     0
370
    18
100
AcDbBlockReference
  2
_Dot
 10
672.3280192665587
 20
1169.178460662066
 30
0.0
 41
10.0
 42
10.0
 43
10.0
 50
270.0
  0
POINT
  5
803D
330
8035
100
AcDbEntity
  8
Defpoints
 62
     0
100
AcDbPoint
 10
829.1539611657317
 20
1659.178460662066
 30
0.0
  0
POINT
  5
803E
330
8035
100
AcDbEntity
  8
Defpoints
 62
     0
100
AcDbPoint
 10
802.2641105192887
 20
1169.178460662066
 30
0.0
  0
POINT
  5
803F
330
8035
100
AcDbEntity
  8
Defpoints
 62
     0
100
AcDbPoint
 10
672.3280192665587
 20
1169.178460662066
 30
0.0
  0
ENDBLK
  5
8040
330
8035
100
AcDbEntity
  8
0
 62
     3
100
AcDbBlockEnd
  0
BLOCK
  5
8042
330
8041
100
AcDbEntity
  8
0
 62
     3
100
AcDbBlockBegin
  2
*D46
 70
     1
 10
0.0
 20
0.0
 30
0.0
  3
*D46
  1

  0
LINE
  5
8043
330
8041
100
AcDbEntity
  8
実形
 62
     0
370
    18
100
AcDbLine
 10
737.7945193027008
 20
1184.178460662066
 30
0.0
 11
672.3280192665587
 21
1184.178460662066
 31
0.0
  0
LINE
  5
8044
330
8041
100
AcDbEntity
  8
実形
 62
     0
370
    18
100
AcDbLine
 10
702.3275276276962
 20
1554.178460662066
 30
0.0
 11
672.3280192665588
 21
1554.178460662066
 31
0.0
  0
LINE
  5
8045
330
8041
100
AcDbEntity
  8
実形
 62
     0
370
    18
100
AcDbLine
 10
672.3280192665587
 20
1194.178460662066
 30
0.0
 11
672.3280192665588
 21
1544.178460662066
 31
0.0
  0
MTEXT
  5
8046
330
8041
100
AcDbEntity
  8
実形
 62
     0
100
AcDbMText
 10
650.745963999092
 20
1217.459715149787
 30
0.0
 40
25.0
 41
0.0
 71
     5
 72
     1
  1
20
 11
0.0000000000000001
 21
1.0
 31
0.0
 73
     1
 44
1.0
1001
ACAD
1000
MTEXTBEGIN
1070
    73
1070
     1
1070
    44
1040
1.0
1070
    74
1070
     0
1000
MTEXTEND
  0
INSERT
  5
8047
330
8041
100
AcDbEntity
  8
実形
 62
     0
370
    18
100
AcDbBlockReference
  2
_Dot
 10
672.3280192665587
 20
1184.178460662066
 30
0.0
 41
10.0
 42
10.0
 43
10.0
 50
270.0
  0
INSERT
  5
8048
330
8041
100
AcDbEntity
  8
実形
 62
     0
370
    18
100
AcDbBlockReference
  2
_Dot
 10
672.3280192665588
 20
1554.178460662066
 30
0.0
 41
10.0
 42
10.0
 43
10.0
 50
90.0
  0
POINT
  5
8049
330
8041
100
AcDbEntity
  8
Defpoints
 62
     0
100
AcDbPoint
 10
802.7945193027008
 20
1184.178460662066
 30
0.0
  0
POINT
  5
804A
330
8041
100
AcDbEntity
  8
Defpoints
 62
     0
100
AcDbPoint
 10
767.3275276276962
 20
1554.178460662066
 30
0.0
  0
POINT
  5
804B
330
8041
100
AcDbEntity
  8
Defpoints
 62
     0
100
AcDbPoint
 10
672.3280192665588
 20
1554.178460662066
 30
0.0
  0
ENDBLK
  5
804C
330
8041
100
AcDbEntity
  8
0
 62
     3
100
AcDbBlockEnd
  0
BLOCK
  5
804E
330
804D
100
AcDbEntity
  8
0
 62
     3
100
AcDbBlockBegin
  2
*D47
 70
     1
 10
0.0
 20
0.0
 30
0.0
  3
*D47
  1

  0
LINE
  5
804F
330
804D
100
AcDbEntity
  8
実形
 62
     0
370
    18
100
AcDbLine
 10
766.726947416073
 20
1644.178460662066
 30
0.0
 11
616.3564627716169
 21
1644.178460662066
 31
0.0
  0
LINE
  5
8050
330
804D
100
AcDbEntity
  8
実形
 62
     0
370
    18
100
AcDbLine
 10
739.8056315785306
 20
1184.178460662066
 30
0.0
 11
616.3564627716168
 21
1184.178460662066
 31
0.0
  0
LINE
  5
8051
330
804D
100
AcDbEntity
  8
実形
 62
     0
370
    18
100
AcDbLine
 10
616.3564627716169
 20
1634.178460662066
 30
0.0
 11
616.3564627716168
 21
1194.178460662066
 31
0.0
  0
INSERT
  5
8052
330
804D
100
AcDbEntity
  8
実形
 62
     0
370
    18
100
AcDbBlockReference
  2
_Dot
 10
616.3564627716169
 20
1644.178460662066
 30
0.0
 41
10.0
 42
10.0
 43
10.0
 50
90.0
  0
INSERT
  5
8053
330
804D
100
AcDbEntity
  8
実形
 62
     0
370
    18
100
AcDbBlockReference
  2
_Dot
 10
616.3564627716168
 20
1184.178460662066
 30
0.0
 41
10.0
 42
10.0
 43
10.0
 50
270.0
  0
MTEXT
  5
8054
330
804D
100
AcDbEntity
  8
実形
 62
     0
100
AcDbMText
 10
597.2564627716167
 20
1414.178460662066
 30
0.0
 40
25.0
 41
0.0
 71
     5
 72
     1
  1
460
 11
0.0000000000000001
 21
1.0
 31
0.0
 73
     1
 44
1.0
1001
ACAD
1000
MTEXTBEGIN
1070
    73
1070
     1
1070
    44
1040
1.0
1070
    74
1070
     0
1000
MTEXTEND
  0
POINT
  5
8055
330
804D
100
AcDbEntity
  8
Defpoints
 62
     0
100
AcDbPoint
 10
831.7269474160729
 20
1644.178460662066
 30
0.0
  0
POINT
  5
8056
330
804D
100
AcDbEntity
  8
Defpoints
 62
     0
100
AcDbPoint
 10
804.8056315785306
 20
1184.178460662066
 30
0.0
  0
POINT
  5
8057
330
804D
100
AcDbEntity
  8
Defpoints
 62
     0
100
AcDbPoint
 10
616.3564627716168
 20
1184.178460662066
 30
0.0
  0
ENDBLK
  5
8058
330
804D
100
AcDbEntity
  8
0
 62
     3
100
AcDbBlockEnd
  0
BLOCK
  5
805A
330
8059
100
AcDbEntity
  8
0
 62
     3
100
AcDbBlockBegin
  2
*D48
 70
     1
 10
0.0
 20
0.0
 30
0.0
  3
*D48
  1

  0
LINE
  5
805B
330
8059
100
AcDbEntity
  8
実形
 62
     0
370
    18
100
AcDbLine
 10
762.7702104998824
 20
1659.178460662066
 30
0.0
 11
556.883501767341
 21
1659.178460662066
 31
0.0
  0
LINE
  5
805C
330
8059
100
AcDbEntity
  8
実形
 62
     0
370
    18
100
AcDbLine
 10
740.8183231977528
 20
1169.178460662066
 30
0.0
 11
556.8835017673409
 21
1169.178460662066
 31
0.0
  0
LINE
  5
805D
330
8059
100
AcDbEntity
  8
実形
 62
     0
370
    18
100
AcDbLine
 10
556.883501767341
 20
1649.178460662066
 30
0.0
 11
556.8835017673409
 21
1179.178460662066
 31
0.0
  0
INSERT
  5
805E
330
8059
100
AcDbEntity
  8
実形
 62
     0
370
    18
100
AcDbBlockReference
  2
_Dot
 10
556.883501767341
 20
1659.178460662066
 30
0.0
 41
10.0
 42
10.0
 43
10.0
 50
90.0
  0
INSERT
  5
805F
330
8059
100
AcDbEntity
  8
実形
 62
     0
370
    18
100
AcDbBlockReference
  2
_Dot
 10
556.8835017673409
 20
1169.178460662066
 30
0.0
 41
10.0
 42
10.0
 43
10.0
 50
270.0
  0
MTEXT
  5
8060
330
8059
100
AcDbEntity
  8
実形
 62
     0
100
AcDbMText
 10
535.2835017673408
 20
1414.178460662066
 30
0.0
 40
30.0
 41
0.0
 71
     5
 72
     1
  1
490
 11
0.0000000000000001
 21
1.0
 31
0.0
 73
     1
 44
1.0
1001
ACAD
1000
MTEXTBEGIN
1070
    73
1070
     1
1070
    44
1040
1.0
1070
    74
1070
     0
1000
MTEXTEND
  0
POINT
  5
8061
330
8059
100
AcDbEntity
  8
Defpoints
 62
     0
100
AcDbPoint
 10
827.7702104998825
 20
1659.178460662066
 30
0.0
  0
POINT
  5
8062
330
8059
100
AcDbEntity
  8
Defpoints
 62
     0
100
AcDbPoint
 10
805.8183231977528
 20
1169.178460662066
 30
0.0
  0
POINT
  5
8063
330
8059
100
AcDbEntity
  8
Defpoints
 62
     0
100
AcDbPoint
 10
556.8835017673409
 20
1169.178460662066
 30
0.0
  0
ENDBLK
  5
8064
330
8059
100
AcDbEntity
  8
0
 62
     3
100
AcDbBlockEnd
  0
BLOCK
  5
8100
330
8065
100
AcDbEntity
  8
0
 62
     3
100
AcDbBlockBegin
  2
RAS800-510GRM
 70
     0
 10
0.0
 20
0.0
 30
0.0
  3
RAS800-510GRM
  1

  0
LINE
  5
8066
330
8065
100
AcDbEntity
  8
枠
 62
     0
100
AcDbLine
 10
174.0
 20
3.99999999999909
 30
0.0
 11
2834.0
 21
3.99999999999909
 31
0.0
  0
LINE
  5
8067
330
8065
100
AcDbEntity
  8
枠
 62
     3
100
AcDbLine
 10
4.0
 20
2024.0
 30
0.0
 11
4.0
 21
4.0
 31
0.0
  0
LINE
  5
8068
330
8065
100
AcDbEntity
  8
枠
 62
     0
100
AcDbLine
 10
2834.0
 20
2023.999999999999
 30
0.0
 11
174.0
 21
2023.999999999999
 31
0.0
  0
LINE
  5
8069
330
8065
100
AcDbEntity
  8
枠
 62
     0
100
AcDbLine
 10
2234.0
 20
133.9999999999991
 30
0.0
 11
2234.0
 21
198.9999999999991
 31
0.0
  0
LINE
  5
806A
330
8065
100
AcDbEntity
  8
枠
 62
     0
100
AcDbLine
 10
1944.0
 20
2023.999999999999
 30
0.0
 11
2834.0
 21
2023.999999999999
 31
0.0
  0
LINE
  5
806B
330
8065
100
AcDbEntity
  8
枠
 62
     0
100
AcDbLine
 10
2114.0
 20
68.99999999999909
 30
0.0
 11
2834.0
 21
68.99999999999909
 31
0.0
  0
LINE
  5
806C
330
8065
100
AcDbEntity
  8
枠
 62
     0
100
AcDbLine
 10
2114.0
 20
198.9999999999991
 30
0.0
 11
2834.0
 21
198.9999999999991
 31
0.0
  0
LINE
  5
806D
330
8065
100
AcDbEntity
  8
枠
 62
     0
100
AcDbLine
 10
2114.0
 20
133.9999999999991
 30
0.0
 11
2834.0
 21
133.9999999999991
 31
0.0
  0
LINE
  5
806E
330
8065
100
AcDbEntity
  8
枠
 62
     0
100
AcDbLine
 10
2114.0
 20
3.99999999999909
 30
0.0
 11
2114.0
 21
198.9999999999991
 31
0.0
  0
TEXT
  5
806F
330
8065
100
AcDbEntity
  8
枠
 62
     0
100
AcDbText
 10
2350.255774665348
 20
16.49999999999908
 30
0.0
 40
40.0
  1
中外交易株式会社
 72
     4
 11
2538.255774665348
 21
36.49999999999909
 31
0.0
100
AcDbText
  0
LINE
  5
8070
330
8065
100
AcDbEntity
  8
枠
 62
     0
100
AcDbLine
 10
2234.0
 20
68.99999999999909
 30
0.0
 11
2834.0
 21
68.99999999999909
 31
0.0
  0
LINE
  5
8071
102
{ACAD_REACTORS
330
807E
102
}
330
8065
100
AcDbEntity
  8
枠
 62
     0
370
     5
100
AcDbLine
 10
2257.843923164362
 20
40.53787547858428
 30
0.0
 11
2233.255774665348
 21
40.53787547858428
 31
0.0
  0
LINE
  5
8072
102
{ACAD_REACTORS
330
807E
102
}
330
8065
100
AcDbEntity
  8
枠
 62
     0
370
     5
100
AcDbLine
 10
2233.255774665348
 20
40.53787547858428
 30
0.0
 11
2233.255774665348
 21
30.53787547858429
 31
0.0
  0
LINE
  5
8073
102
{ACAD_REACTORS
330
807E
102
}
330
8065
100
AcDbEntity
  8
枠
 62
     0
370
     5
100
AcDbLine
 10
2233.255774665348
 20
30.53787547858429
 30
0.0
 11
2257.346428692676
 21
30.53787547858429
 31
0.0
  0
LINE
  5
8074
102
{ACAD_REACTORS
330
807E
102
}
330
8065
100
AcDbEntity
  8
枠
 62
     0
370
     5
100
AcDbLine
 10
2260.641894042939
 20
56.49999999999909
 30
0.0
 11
2260.641894042939
 21
16.49999999999909
 31
0.0
  0
LINE
  5
8075
102
{ACAD_REACTORS
330
807E
102
}
330
8065
100
AcDbEntity
  8
枠
 62
     0
370
     5
100
AcDbLine
 10
2260.641894042939
 20
16.49999999999909
 30
0.0
 11
2295.641894042939
 21
16.49999999999909
 31
0.0
  0
LINE
  5
8076
102
{ACAD_REACTORS
330
807E
102
}
330
8065
100
AcDbEntity
  8
枠
 62
     0
370
     5
100
AcDbLine
 10
2295.641894042939
 20
16.49999999999909
 30
0.0
 11
2260.641894042939
 21
36.49999999999909
 31
0.0
  0
LINE
  5
8077
102
{ACAD_REACTORS
330
807E
102
}
330
8065
100
AcDbEntity
  8
枠
 62
     0
370
     5
100
AcDbLine
 10
2260.641894042939
 20
36.49999999999909
 30
0.0
 11
2295.641894042939
 21
56.49999999999909
 31
0.0
  0
LINE
  5
8078
102
{ACAD_REACTORS
330
807E
102
}
330
8065
100
AcDbEntity
  8
枠
 62
     0
370
     5
100
AcDbLine
 10
2295.641894042939
 20
56.49999999999909
 30
0.0
 11
2260.641894042939
 21
56.49999999999909
 31
0.0
  0
LINE
  5
8079
102
{ACAD_REACTORS
330
807E
102
}
330
8065
100
AcDbEntity
  8
枠
 62
     0
370
     5
100
AcDbLine
 10
2326.75434681301
 20
40.53787547858428
 30
0.0
 11
2302.166198313996
 21
40.53787547858428
 31
0.0
  0
LINE
  5
807A
102
{ACAD_REACTORS
330
807E
102
}
330
8065
100
AcDbEntity
  8
枠
 62
     0
370
     5
100
AcDbLine
 10
2302.166198313996
 20
40.53787547858428
 30
0.0
 11
2302.166198313996
 21
30.53787547858429
 31
0.0
  0
LINE
  5
807B
102
{ACAD_REACTORS
330
807E
102
}
330
8065
100
AcDbEntity
  8
枠
 62
     0
370
     5
100
AcDbLine
 10
2302.166198313996
 20
30.53787547858429
 30
0.0
 11
2326.256852341323
 21
30.53787547858429
 31
0.0
  0
ARC
  5
807C
102
{ACAD_REACTORS
330
807E
102
}
330
8065
100
AcDbEntity
  8
枠
 62
     0
370
     5
100
AcDbCircle
 10
2238.255774665347
 20
36.49999999999909
 30
0.0
 40
20.0
100
AcDbArc
 50
11.64772366708617
 51
342.6561058784773
  0
ARC
  5
807D
102
{ACAD_REACTORS
330
807E
102
}
330
8065
100
AcDbEntity
  8
枠
 62
     0
370
     5
100
AcDbCircle
 10
2307.166198313995
 20
36.49999999999909
 30
0.0
 40
20.0
100
AcDbArc
 50
11.64772366708617
 51
342.6561058784773
  0
HATCH
  5
807E
330
8065
100
AcDbEntity
  8
枠
 62
     0
100
AcDbHatch
 10
0.0
 20
0.0
 30
0.0
210
0.0
220
0.0
230
1.0
  2
SOLID
 70
     1
 71
     1
 91
        3
 92
        1
 93
        4
 72
     2
 10
2307.166198313995
 20
36.49999999999909
 40
20.0
 50
11.64772366708617
 51
342.6561058784773
 73
     1
 72
     1
 10
2326.256852341323
 20
30.53787547858429
 11
2302.166198313996
 21
30.53787547858429
 72
     1
 10
2302.166198313996
 20
30.53787547858429
 11
2302.166198313996
 21
40.53787547858428
 72
     1
 10
2302.166198313996
 20
40.53787547858428
 11
2326.75434681301
 21
40.53787547858428
 97
        4
330
807D
330
807B
330
807A
330
8079
 92
        1
 93
        4
 72
     2
 10
2238.255774665347
 20
36.49999999999909
 40
20.0
 50
11.64772366708617
 51
342.6561058784773
 73
     1
 72
     1
 10
2257.346428692676
 20
30.53787547858429
 11
2233.255774665348
 21
30.53787547858429
 72
     1
 10
2233.255774665348
 20
30.53787547858429
 11
2233.255774665348
 21
40.53787547858428
 72
     1
 10
2233.255774665348
 20
40.53787547858428
 11
2257.843923164362
 21
40.53787547858428
 97
        4
330
807C
330
8073
330
8072
330
8071
 92
        1
 93
        5
 72
     1
 10
2295.641894042939
 20
56.49999999999909
 11
2260.641894042939
 21
56.49999999999909
 72
     1
 10
2260.641894042939
 20
56.49999999999909
 11
2260.641894042939
 21
16.49999999999909
 72
     1
 10
2260.641894042939
 20
16.49999999999909
 11
2295.641894042939
 21
16.49999999999909
 72
     1
 10
2295.641894042939
 20
16.49999999999909
 11
2260.641894042939
 21
36.49999999999909
 72
     1
 10
2260.641894042939
 20
36.49999999999909
 11
2295.641894042939
 21
56.49999999999909
 97
        5
330
8078
330
8074
330
8075
330
8076
330
8077
 75
     0
 76
     1
 98
        1
 10
-10.0
 20
-0.0000000000009095
  0
LINE
  5
807F
330
8065
100
AcDbEntity
  8
枠
 62
     0
100
AcDbLine
 10
2234.0
 20
68.99999999999909
 30
0.0
 11
2234.0
 21
198.9999999999991
 31
0.0
  0
LINE
  5
8080
330
8065
100
AcDbEntity
  8
実形
 62
     1
100
AcDbLine
 10
118.6742333375914
 20
5211.047041924394
 30
0.0
 11
2476.842860629935
 21
5211.047041924394
 31
0.0
  0
TEXT
  5
8081
330
8065
100
AcDbEntity
  8
実形
100
AcDbText
 10
271.4746615155927
 20
60.08511374856698
 30
0.0
 40
30.0
  1
※実寸には製造上の誤差が多少生ずる場合があります。シンクの穴あけ加工は現物合わせにてお願いします。
 72
     4
 11
1141.474661515593
 21
75.08511374856698
 31
0.0
100
AcDbText
  0
TEXT
  5
8082
330
8065
100
AcDbEntity
  8
枠
 62
     0
100
AcDbText
 10
2136.666666666667
 20
83.99999999999909
 30
0.0
 40
35.0
  1
尺度
 72
     4
 11
2174.0
 21
101.4999999999991
 31
0.0
100
AcDbText
  0
TEXT
  5
8083
330
8065
100
AcDbEntity
  8
枠
 62
     0
100
AcDbText
 10
2136.666666666667
 20
148.9999999999991
 30
0.0
 40
35.0
  1
品番
 72
     4
 11
2174.0
 21
166.4999999999991
 31
0.0
100
AcDbText
  0
TEXT
  5
8084
330
8065
100
AcDbEntity
  8
実形
100
AcDbText
 10
2446.588586518341
 20
81.78238670760313
 30
0.0
 40
40.0
  1
1：10
 72
     4
 11
2507.255253185007
 21
101.7823867076031
 31
0.0
100
AcDbText
  0
TEXT
  5
8085
330
8065
100
AcDbEntity
  8
実形
100
AcDbText
 10
2321.533637209673
 20
150.830875284324
 30
0.0
 40
30.0
  1
RAS800-460GRM
 72
     4
 11
2504.033637209673
 21
165.830875284324
 31
0.0
100
AcDbText
  0
LINE
  5
8086
330
8065
100
AcDbEntity
  8
実形
 62
     3
100
AcDbLine
 10
2856.314199910736
 20
2024.000000000001
 30
0.0
 11
2856.314199910736
 21
4.0
 31
0.0
  0
LINE
  5
8087
330
8065
100
AcDbEntity
  8
実形
 62
     0
100
AcDbLine
 10
2844.0
 20
4.0
 30
0.0
 11
2844.0
 21
2024.0
 31
0.0
  0
LINE
  5
8088
330
8065
100
AcDbEntity
  8
実形
 62
     0
100
AcDbLine
 10
2834.0
 20
4.0
 30
0.0
 11
2834.0
 21
2024.0
 31
0.0
  0
LINE
  5
8089
330
8065
100
AcDbEntity
  8
実形
 62
     0
100
AcDbLine
 10
174.0
 20
2024.0
 30
0.0
 11
174.0
 21
4.0
 31
0.0
  0
LINE
  5
808A
330
8065
100
AcDbEntity
  8
実形
100
AcDbLine
 10
827.7702104998825
 20
1659.178460662066
 30
0.0
 11
1657.770210499882
 21
1659.178460662066
 31
0.0
  0
LINE
  5
808B
330
8065
100
AcDbEntity
  8
実形
100
AcDbLine
 10
1657.770210499882
 20
1659.178460662066
 30
0.0
 11
1657.770210499882
 21
1169.178460662066
 31
0.0
  0
LINE
  5
808C
330
8065
100
AcDbEntity
  8
実形
100
AcDbLine
 10
1657.770210499882
 20
1169.178460662066
 30
0.0
 11
827.7702104998825
 21
1169.178460662066
 31
0.0
  0
LINE
  5
808D
330
8065
100
AcDbEntity
  8
実形
100
AcDbLine
 10
827.7702104998825
 20
1169.178460662066
 30
0.0
 11
827.7702104998825
 21
1659.178460662066
 31
0.0
  0
LINE
  5
808E
330
8065
100
AcDbEntity
  8
実形
100
AcDbLine
 10
848.7702104998824
 20
1644.178460662066
 30
0.0
 11
1636.770210499882
 21
1644.178460662066
 31
0.0
  0
LINE
  5
808F
330
8065
100
AcDbEntity
  8
実形
100
AcDbLine
 10
1642.770210499882
 20
1638.178460662065
 30
0.0
 11
1642.770210499882
 21
1190.178460662066
 31
0.0
  0
LINE
  5
8090
330
8065
100
AcDbEntity
  8
実形
100
AcDbLine
 10
1636.770210499882
 20
1184.178460662066
 30
0.0
 11
848.7702104998826
 21
1184.178460662066
 31
0.0
  0
LINE
  5
8091
330
8065
100
AcDbEntity
  8
実形
100
AcDbLine
 10
842.7702104998825
 20
1190.178460662066
 30
0.0
 11
842.7702104998823
 21
1638.178460662066
 31
0.0
  0
LINE
  5
8092
330
8065
100
AcDbEntity
  8
実形
100
AcDbLine
 10
862.7702104998824
 20
1210.178460662066
 30
0.0
 11
862.7702104998821
 21
1548.178460662066
 31
0.0
  0
LINE
  5
8093
330
8065
100
AcDbEntity
  8
実形
100
AcDbLine
 10
1092.770210499882
 20
1624.178460662066
 30
0.0
 11
1392.770210499882
 21
1624.178460662066
 31
0.0
  0
LINE
  5
8094
330
8065
100
AcDbEntity
  8
実形
100
AcDbLine
 10
1622.770210499882
 20
1548.178460662066
 30
0.0
 11
1622.770210499882
 21
1210.178460662066
 31
0.0
  0
LINE
  5
8095
330
8065
100
AcDbEntity
  8
実形
100
AcDbLine
 10
1616.770210499882
 20
1204.178460662066
 30
0.0
 11
868.7702104998823
 21
1204.178460662066
 31
0.0
  0
DIMENSION
  5
8096
330
8065
100
AcDbEntity
  8
実形
100
AcDbDimension
  2
*D20
 10
1622.770210499882
 20
1036.915758957679
 30
0.0
 11
1242.770210499882
 21
1056.015758957679
 31
0.0
 70
    32
 71
     5
 42
759.9999999999997
  3
ISO-25
100
AcDbAlignedDimension
 13
862.7702104998824
 23
1169.178460662066
 33
0.0
 14
1622.770210499882
 24
1169.178460662066
 34
0.0
100
AcDbRotatedDimension
1001
ACAD
1000
DSTYLE
1002
{
1070
    41
1040
10.0
1070
   140
1040
25.0
1070
   147
1040
6.599999999999998
1070
   279
1070
     2
1070
   342
1005
30D
1070
   371
1070
    18
1070
   372
1070
    18
1002
}
  0
DIMENSION
  5
8097
330
8065
100
AcDbEntity
  8
実形
100
AcDbDimension
  2
*D21
 10
1642.770210499882
 20
1036.915758957679
 30
0.0
 11
1589.171363804602
 21
1058.515758957679
 31
0.0
 70
   160
  1
20
 71
     5
 42
799.9999999999998
  3
ISO-25
100
AcDbAlignedDimension
 13
842.7702104998825
 23
1169.178460662066
 33
0.0
 14
1642.770210499882
 24
1169.178460662066
 34
0.0
100
AcDbRotatedDimension
1001
ACAD
1000
DSTYLE
1002
{
1070
    41
1040
10.0
1070
   140
1040
25.0
1070
   147
1040
6.599999999999998
1070
   279
1070
     2
1070
   342
1005
30D
1070
   371
1070
    18
1070
   372
1070
    18
1002
}
  0
TEXT
  5
8098
330
8065
100
AcDbEntity
  8
実形
 48
20.0
100
AcDbText
 10
877.7699109105341
 20
1047.974708017131
 30
0.0
 40
25.0
  1
20
100
AcDbText
  0
DIMENSION
  5
8099
330
8065
100
AcDbEntity
  8
実形
100
AcDbDimension
  2
*D22
 10
1642.770210499882
 20
974.5052716017053
 30
0.0
 11
1242.770210499882
 21
993.6052716017053
 31
0.0
 70
    32
 71
     5
 42
799.9999999999998
  3
ISO-25
100
AcDbAlignedDimension
 13
842.7702104998825
 23
1169.178460662066
 33
0.0
 14
1642.770210499882
 24
1169.178460662066
 34
0.0
100
AcDbRotatedDimension
1001
ACAD
1000
DSTYLE
1002
{
1070
    41
1040
10.0
1070
   140
1040
25.0
1070
   147
1040
6.599999999999998
1070
   279
1070
     2
1070
   342
1005
30D
1070
   371
1070
    18
1070
   372
1070
    18
1002
}
  0
DIMENSION
  5
809A
330
8065
100
AcDbEntity
  8
実形
100
AcDbDimension
  2
*D23
 10
1657.770210499882
 20
974.5052716017053
 30
0.0
 11
1701.559743854428
 21
996.1052716017052
 31
0.0
 70
   160
  1
15
 71
     5
 42
830.0
  3
ISO-25
100
AcDbAlignedDimension
 13
827.7702104998825
 23
1169.178460662066
 33
0.0
 14
1657.770210499882
 24
1169.178460662066
 34
0.0
100
AcDbRotatedDimension
1001
ACAD
1000
DSTYLE
1002
{
1070
    41
1040
10.0
1070
   140
1040
25.0
1070
   147
1040
6.599999999999998
1070
   279
1070
     2
1070
   342
1005
30D
1070
   371
1070
    18
1070
   372
1070
    18
1002
}
  0
TEXT
  5
809B
330
8065
100
AcDbEntity
  8
実形
 48
20.0
100
AcDbText
 10
770.7109889092589
 20
985.3423772939986
 30
0.0
 40
25.0
  1
15
100
AcDbText
  0
DIMENSION
  5
809C
330
8065
100
AcDbEntity
  8
実形
100
AcDbDimension
  2
*D24
 10
1657.770210499882
 20
901.2836911315535
 30
0.0
 11
1242.770210499882
 21
920.3836911315535
 31
0.0
 70
    32
 71
     5
 42
830.0
  3
ISO-25
100
AcDbAlignedDimension
 13
827.7702104998825
 23
1169.178460662066
 33
0.0
 14
1657.770210499882
 24
1169.178460662066
 34
0.0
100
AcDbRotatedDimension
1001
ACAD
1000
DSTYLE
1002
{
1070
    41
1040
10.0
1070
   140
1040
25.0
1070
   147
1040
6.599999999999998
1070
   279
1070
     2
1070
   342
1005
30D
1070
   371
1070
    18
1070
   372
1070
    18
1002
}
  0
LINE
  5
809D
330
8065
100
AcDbEntity
  8
実形
  6
ACAD_ISO08W100
 48
0.5
100
AcDbLine
 10
1384.469907606381
 20
1404.178460662066
 30
0.0
 11
1109.442023008436
 21
1404.178460662066
 31
0.0
  0
CIRCLE
  5
809E
330
8065
100
AcDbEntity
  8
実形
100
AcDbCircle
 10
1242.770210499882
 20
1404.178460662066
 30
0.0
 40
80.0
  0
CIRCLE
  5
809F
330
8065
100
AcDbEntity
  8
実形
100
AcDbCircle
 10
1242.770210499882
 20
1404.178460662066
 30
0.0
 40
90.5
  0
LINE
  5
80A0
330
8065
100
AcDbEntity
  8
実形
100
AcDbLine
 10
862.7702104998824
 20
1659.178460662066
 30
0.0
 11
1012.770210499882
 21
1659.178460662066
 31
0.0
  0
LINE
  5
80A1
330
8065
100
AcDbEntity
  8
実形
 62
     3
100
AcDbLine
 10
917.0693431839136
 20
-152.3860966284574
 30
0.0
 11
1747.069343183913
 21
-152.3860966284574
 31
0.0
  0
LINE
  5
80A2
330
8065
100
AcDbEntity
  8
実形
 62
     3
100
AcDbLine
 10
932.0693431839137
 20
-152.3860966284574
 30
0.0
 11
932.0693431839139
 21
-167.3860966284574
 31
0.0
  0
LINE
  5
80A3
330
8065
100
AcDbEntity
  8
実形
 62
     3
100
AcDbLine
 10
1732.069343183914
 20
-152.3860966284574
 30
0.0
 11
1732.069343183914
 21
-167.3860966284574
 31
0.0
  0
LINE
  5
80A4
330
8065
100
AcDbEntity
  8
実形
 62
     3
100
AcDbLine
 10
932.0693431839139
 20
-167.3860966284574
 30
0.0
 11
1732.069343183914
 21
-167.3860966284574
 31
0.0
  0
LINE
  5
80A5
330
8065
100
AcDbEntity
  8
実形
 62
     3
100
AcDbLine
 10
952.0693431839136
 20
-167.3860966284576
 30
0.0
 11
952.0693431839134
 21
-362.7109739766329
 31
0.0
  0
LINE
  5
80A6
330
8065
100
AcDbEntity
  8
実形
 62
     3
100
AcDbLine
 10
1712.069343183914
 20
-167.3860966284574
 30
0.0
 11
1712.069343183913
 21
-361.5568395436162
 31
0.0
  0
LINE
  5
80A7
330
8065
100
AcDbEntity
  8
実形
 62
     3
100
AcDbLine
 10
1011.569343183913
 20
-382.3860966284574
 30
0.0
 11
1192.569343183913
 21
-382.3860966284574
 31
0.0
  0
LINE
  5
80A8
330
8065
100
AcDbEntity
  8
実形
 62
     3
100
AcDbLine
 10
1011.569343183913
 20
-392.3860966284574
 30
0.0
 11
1192.569343183913
 21
-392.3860966284574
 31
0.0
  0
DIMENSION
  5
80A9
330
8065
100
AcDbEntity
  8
実形
 62
     3
100
AcDbDimension
  2
*D25
 10
797.3710940401324
 20
-367.3860966284573
 30
0.0
 11
778.2710940401325
 21
-267.3860966284572
 31
0.0
 70
    32
 71
     5
 42
200.0
  3
ISO-25
100
AcDbAlignedDimension
 13
917.0693431839135
 23
-167.3860966284574
 33
0.0
 14
917.0693431839133
 24
-367.3860966284574
 34
0.0
 50
90.0
100
AcDbRotatedDimension
1001
ACAD
1000
DSTYLE
1002
{
1070
    41
1040
10.0
1070
   140
1040
25.0
1070
   147
1040
6.599999999999998
1070
   279
1070
     2
1070
   342
1005
30D
1070
   371
1070
    18
1070
   372
1070
    18
1002
}
  0
DIMENSION
  5
80AA
330
8065
100
AcDbEntity
  8
実形
 62
     3
100
AcDbDimension
  2
*D26
 10
797.3710940401324
 20
-382.3860966284573
 30
0.0
 11
775.7710940401323
 21
-176.4675834353729
 31
0.0
 70
   160
  1
15
 71
     5
 42
230.0
  3
ISO-25
100
AcDbAlignedDimension
 13
917.0693431839136
 23
-152.3860966284574
 33
0.0
 14
917.0693431839136
 24
-382.3860966284574
 34
0.0
 50
90.0
100
AcDbRotatedDimension
1001
ACAD
1000
DSTYLE
1002
{
1070
    41
1040
10.0
1070
   140
1040
25.0
1070
   147
1040
6.599999999999998
1070
   279
1070
     2
1070
   342
1005
30D
1070
   371
1070
    18
1070
   372
1070
    18
1002
}
  0
TEXT
  5
80AB
330
8065
100
AcDbEntity
  8
実形
 62
     3
 48
20.0
100
AcDbText
 10
790.6030498610107
 20
-377.9124245682397
 30
0.0
 40
25.0
  1
15
 50
90.0
100
AcDbText
  0
LINE
  5
80AC
330
8065
100
AcDbEntity
  8
実形
 62
     3
100
AcDbLine
 10
797.3710940401324
 20
-382.3860966284574
 30
0.0
 11
797.3710940401326
 21
-392.3860966284574
 31
0.0
  0
DIMENSION
  5
80AD
330
8065
100
AcDbEntity
  8
実形
 62
     3
100
AcDbDimension
  2
*D27
 10
797.3710940401324
 20
-152.3860966284573
 30
0.0
 11
830.355261679284
 21
-411.1966776303161
 31
0.0
 70
   160
  1
8
 71
     5
 42
240.0
  3
ISO-25
100
AcDbAlignedDimension
 13
917.0693431839136
 23
-392.3860966284574
 33
0.0
 14
917.0693431839136
 24
-152.3860966284574
 34
0.0
 50
90.0
100
AcDbRotatedDimension
1001
ACAD
1000
DSTYLE
1002
{
1070
    41
1040
10.0
1070
   140
1040
25.0
1070
   147
1040
6.599999999999998
1070
   279
1070
     2
1070
   342
1005
30D
1070
   371
1070
    18
1070
   372
1070
    18
1002
}
  0
DIMENSION
  5
80AE
330
8065
100
AcDbEntity
  8
実形
 62
     3
100
AcDbDimension
  2
*D28
 10
727.6013470322832
 20
-382.3860966284573
 30
0.0
 11
708.5013470322833
 21
-267.3860966284572
 31
0.0
 70
    32
 71
     5
 42
230.0
  3
ISO-25
100
AcDbAlignedDimension
 13
917.0693431839136
 23
-152.3860966284574
 33
0.0
 14
917.0693431839135
 24
-382.3860966284574
 34
0.0
 50
90.0
100
AcDbRotatedDimension
1001
ACAD
1000
DSTYLE
1002
{
1070
    41
1040
10.0
1070
   140
1040
25.0
1070
   147
1040
6.599999999999998
1070
   279
1070
     2
1070
   342
1005
30D
1070
   371
1070
    18
1070
   372
1070
    18
1002
}
  0
DIMENSION
  5
80AF
330
8065
100
AcDbEntity
  8
実形
 62
     3
100
AcDbDimension
  2
*D29
 10
660.6927293655044
 20
-392.3860966284574
 30
0.0
 11
641.5927293655045
 21
-272.3860966284572
 31
0.0
 70
    32
  1
238
 71
     5
 42
240.0
  3
ISO-25
100
AcDbAlignedDimension
 13
793.6814961412001
 23
-152.3860966284574
 33
0.0
 14
793.6814961411999
 24
-392.3860966284574
 34
0.0
 50
90.0
100
AcDbRotatedDimension
1001
ACAD
1000
DSTYLE
1002
{
1070
    41
1040
10.0
1070
   140
1040
25.0
1070
   147
1040
6.599999999999998
1070
   279
1070
     2
1070
   342
1005
30D
1070
   371
1070
    18
1070
   372
1070
    18
1002
}
  0
TEXT
  5
80B0
330
8065
100
AcDbEntity
  8
実形
100
AcDbText
 10
1509.52663925932
 20
1464.605228875251
 30
0.0
 40
25.0
  1
6R
 72
     2
 11
1551.193305925987
 21
1461.271895541917
 31
0.0
100
AcDbText
 73
     1
  0
LEADER
  5
80B1
330
8065
100
AcDbEntity
  8
実形
100
AcDbLeader
  3
ISO-25
 76
     2
 10
1612.401069036485
 20
1543.199935987015
 30
0.0
 10
1558.344122906441
 20
1494.303693113559
 30
0.0
1001
ACAD
1000
DSTYLE
1002
{
1070
    77
1070
     0
1070
    41
1040
10.0
1070
   140
1040
30.0
1070
   147
1040
6.599999999999998
1070
   279
1070
     2
1070
   342
1005
30D
1070
   371
1070
    18
1070
   372
1070
    18
1002
}
  0
TEXT
  5
80B2
330
8065
100
AcDbEntity
  8
実形
100
AcDbText
 10
1508.340509182852
 20
1215.174767916627
 30
0.0
 40
25.0
  1
6R
 72
     2
 11
1550.007175849518
 21
1211.841434583294
 31
0.0
100
AcDbText
 73
     1
  0
LEADER
  5
80B3
330
8065
100
AcDbEntity
  8
実形
100
AcDbLeader
  3
ISO-25
 76
     2
 10
1633.74014683896
 20
1191.262627398048
 30
0.0
 10
1565.498924722882
 20
1220.187379926308
 30
0.0
1001
ACAD
1000
DSTYLE
1002
{
1070
    77
1070
     0
1070
    41
1040
10.0
1070
   140
1040
30.0
1070
   147
1040
6.599999999999998
1070
   279
1070
     2
1070
   342
1005
30D
1070
   371
1070
    18
1070
   372
1070
    18
1002
}
  0
LINE
  5
80B4
330
8065
100
AcDbEntity
  8
実形
  6
ACAD_ISO08W100
 62
     3
 48
0.5
100
AcDbLine
 10
1102.069343183913
 20
-287.5334204559203
 30
0.0
 11
1102.069343183913
 21
-444.2147007915264
 31
0.0
  0
LINE
  5
80B5
330
8065
100
AcDbEntity
  8
実形
 62
     3
100
AcDbLine
 10
1011.569343183913
 20
-382.3860966284574
 30
0.0
 11
1011.569343183913
 21
-392.3860966284574
 31
0.0
  0
LINE
  5
80B6
330
8065
100
AcDbEntity
  8
実形
 62
     3
100
AcDbLine
 10
1192.569343183913
 20
-382.3860966284574
 30
0.0
 11
1192.569343183913
 21
-392.3860966284574
 31
0.0
  0
LINE
  5
80B7
330
8065
100
AcDbEntity
  8
実形
 62
     3
100
AcDbLine
 10
1011.569343183913
 20
-382.3860966284574
 30
0.0
 11
956.6026286319571
 21
-368.528941699393
 31
0.0
  0
ARC
  5
80B8
330
8065
100
AcDbEntity
  8
実形
 62
     3
100
AcDbCircle
 10
958.0693431839135
 20
-362.7109739766327
 30
0.0
 40
6.0
100
AcDbArc
 50
180.0
 51
255.8505239136548
  0
LINE
  5
80B9
330
8065
100
AcDbEntity
  8
実形
 62
     3
100
AcDbLine
 10
1192.569343183913
 20
-382.3860966284574
 30
0.0
 11
1706.242514515584
 21
-367.5543399971291
 31
0.0
  0
ARC
  5
80BA
330
8065
100
AcDbEntity
  8
実形
 62
     3
100
AcDbCircle
 10
1706.069343183914
 20
-361.5568395436162
 30
0.0
 40
6.0
100
AcDbArc
 50
271.6538940784474
 51
360.0
  0
DIMENSION
  5
80BB
330
8065
100
AcDbEntity
  8
実形
 62
     3
100
AcDbDimension
  2
*D30
 10
1182.069343183914
 20
-509.3026951643151
 30
0.0
 11
1102.069343183913
 21
-490.202695164315
 31
0.0
 70
    32
 71
     5
 42
160.0000000000002
  3
ISO-25
100
AcDbAlignedDimension
 13
1022.069343183913
 23
-392.3860966284575
 33
0.0
 14
1182.069343183914
 24
-392.3860966284575
 34
0.0
100
AcDbRotatedDimension
1001
ACAD
1000
DSTYLE
1002
{
1070
    41
1040
10.0
1070
   140
1040
25.0
1070
   147
1040
6.599999999999998
1070
   279
1070
     2
1070
   342
1005
30D
1070
   371
1070
    18
1070
   372
1070
    18
1002
}
  0
DIMENSION
  5
80BC
330
8065
100
AcDbEntity
  8
実形
 62
     3
100
AcDbDimension
  2
*D31
 10
1192.569343183913
 20
-580.5449919795919
 30
0.0
 11
1102.069343183913
 21
-561.4449919795919
 31
0.0
 70
    32
 71
     5
 42
180.9999999999995
  3
ISO-25
100
AcDbAlignedDimension
 13
1011.569343183913
 23
-392.3860966284575
 33
0.0
 14
1192.569343183913
 24
-392.3860966284617
 34
0.0
100
AcDbRotatedDimension
1001
ACAD
1000
DSTYLE
1002
{
1070
    41
1040
10.0
1070
   140
1040
25.0
1070
   147
1040
6.599999999999998
1070
   279
1070
     2
1070
   342
1005
30D
1070
   371
1070
    18
1070
   372
1070
    18
1002
}
  0
ARC
  5
80BD
330
8065
100
AcDbEntity
  8
実形
 62
     3
100
AcDbCircle
 10
1706.069343183913
 20
-361.5568395436162
 30
0.0
 40
6.0
100
AcDbArc
 50
271.6538940784474
 51
360.0
  0
ARC
  5
80BE
330
8065
100
AcDbEntity
  8
実形
 62
     3
100
AcDbCircle
 10
958.0693431839135
 20
-362.7109739766329
 30
0.0
 40
6.0
100
AcDbArc
 50
180.0
 51
255.8505239136549
  0
TEXT
  5
80BF
330
8065
100
AcDbEntity
  8
実形
 62
     3
100
AcDbText
 10
1042.683555881774
 20
-304.5623972451655
 30
0.0
 40
25.0
  1
6R
 72
     2
 11
1084.350222548441
 21
-307.8957305784988
 31
0.0
100
AcDbText
 73
     1
  0
TEXT
  5
80C0
330
8065
100
AcDbEntity
  8
実形
 62
     3
100
AcDbText
 10
1595.621696234116
 20
-306.4700963227503
 30
0.0
 40
25.0
  1
6R
 72
     2
 11
1637.288362900783
 21
-309.8034296560836
 31
0.0
100
AcDbText
 73
     1
  0
LEADER
  5
80C1
330
8065
100
AcDbEntity
  8
実形
 62
     3
100
AcDbLeader
  3
ISO-25
 76
     2
 10
965.4503650180505
 20
-356.9510230277229
 30
0.0
 10
1027.920188021731
 20
-309.3670608013253
 30
0.0
1001
ACAD
1000
DSTYLE
1002
{
1070
    77
1070
     0
1070
    41
1040
10.0
1070
   140
1040
30.0
1070
   147
1040
6.599999999999998
1070
   279
1070
     2
1070
   342
1005
30D
1070
   371
1070
    18
1070
   372
1070
    18
1002
}
  0
ARC
  5
80C2
330
8065
100
AcDbEntity
  8
実形
100
AcDbCircle
 10
1636.770210499882
 20
1638.178460662065
 30
0.0
 40
6.0
100
AcDbArc
 50
0.0
 51
90.0
  0
ARC
  5
80C3
330
8065
100
AcDbEntity
  8
実形
100
AcDbCircle
 10
1616.770210499882
 20
1210.178460662066
 30
0.0
 40
6.0
100
AcDbArc
 50
270.0
 51
0.0
  0
ARC
  5
80C4
330
8065
100
AcDbEntity
  8
実形
100
AcDbCircle
 10
1636.770210499882
 20
1190.178460662066
 30
0.0
 40
6.0
100
AcDbArc
 50
270.0
 51
0.0
  0
ARC
  5
80C5
330
8065
100
AcDbEntity
  8
実形
100
AcDbCircle
 10
848.7702104998824
 20
1638.178460662066
 30
0.0
 40
6.0
100
AcDbArc
 50
89.99999999999998
 51
180.0
  0
ARC
  5
80C6
330
8065
100
AcDbEntity
  8
実形
100
AcDbCircle
 10
868.7702104998823
 20
1210.178460662066
 30
0.0
 40
6.0
100
AcDbArc
 50
180.0
 51
270.0
  0
ARC
  5
80C7
330
8065
100
AcDbEntity
  8
実形
100
AcDbCircle
 10
848.7702104998826
 20
1190.178460662066
 30
0.0
 40
6.0
100
AcDbArc
 50
180.0
 51
270.0
  0
LEADER
  5
80C8
330
8065
100
AcDbEntity
  8
実形
 62
     3
100
AcDbLeader
  3
ISO-25
 76
     2
 10
1698.688321349777
 20
-356.9510230277229
 30
0.0
 10
1650.738809508872
 20
-308.106533025717
 30
0.0
211
-1.0
221
0.0
231
0.0
1001
ACAD
1000
DSTYLE
1002
{
1070
    77
1070
     0
1070
    41
1040
10.0
1070
   140
1040
30.0
1070
   147
1040
6.599999999999998
1070
   279
1070
     2
1070
   342
1005
30D
1070
   371
1070
    18
1070
   372
1070
    18
1002
}
  0
LINE
  5
80C9
330
8065
100
AcDbEntity
  8
実形
 62
     0
100
AcDbLine
 10
2114.0
 20
263.9999999999991
 30
0.0
 11
2834.0
 21
263.9999999999991
 31
0.0
  0
LINE
  5
80CA
330
8065
100
AcDbEntity
  8
実形
 62
     0
100
AcDbLine
 10
2114.0
 20
3.99999999999909
 30
0.0
 11
2114.0
 21
263.9999999999991
 31
0.0
  0
LINE
  5
80CB
330
8065
100
AcDbEntity
  8
実形
 62
     0
100
AcDbLine
 10
2234.0
 20
68.99999999999909
 30
0.0
 11
2234.0
 21
263.9999999999992
 31
0.0
  0
TEXT
  5
80CC
330
8065
100
AcDbEntity
  8
枠
 62
     0
100
AcDbText
 10
2137.833333333333
 20
213.9999999999991
 30
0.0
 40
35.0
  1
品名
 72
     4
 11
2174.0
 21
231.4999999999991
 31
0.0
100
AcDbText
  0
TEXT
  5
80CD
330
8065
100
AcDbEntity
  8
実形
100
AcDbText
 10
2323.374698073251
 20
213.2308752843241
 30
0.0
 40
35.0
  1
ｱﾝﾀﾞｰｼﾝｸ
  7
ms明朝
 72
     4
 11
2425.774698073251
 21
230.8308752843241
 31
0.0
100
AcDbText
  0
LINE
  5
80CE
330
8065
100
AcDbEntity
  8
枠
100
AcDbLine
 10
2834.0
 20
1958.999999999999
 30
0.0
 11
2114.0
 21
1958.999999999999
 31
0.0
  0
LINE
  5
80CF
330
8065
100
AcDbEntity
  8
枠
100
AcDbLine
 10
2834.0
 20
1893.999999999998
 30
0.0
 11
2114.0
 21
1893.999999999998
 31
0.0
  0
LINE
  5
80D0
330
8065
100
AcDbEntity
  8
枠
100
AcDbLine
 10
2114.0
 20
1893.999999999998
 30
0.0
 11
2114.0
 21
2023.999999999999
 31
0.0
  0
TEXT
  5
80D1
330
8065
100
AcDbEntity
  8
枠
100
AcDbText
 10
2671.5
 20
1976.499999999999
 30
0.0
 40
30.0
  1
仕上げ
 72
     4
 11
2721.5
 21
1991.499999999999
 31
0.0
100
AcDbText
  0
LINE
  5
80D2
330
8065
100
AcDbEntity
  8
枠
100
AcDbLine
 10
2592.81684247519
 20
1893.999999999998
 30
0.0
 11
2592.81684247519
 21
2023.999999999999
 31
0.0
  0
LINE
  5
80D3
330
8065
100
AcDbEntity
  8
枠
100
AcDbLine
 10
2367.816842475189
 20
1893.999999999998
 30
0.0
 11
2367.816842475189
 21
2023.999999999999
 31
0.0
  0
TEXT
  5
80D4
330
8065
100
AcDbEntity
  8
実形
100
AcDbText
 10
2641.5
 20
1911.5
 30
0.0
 40
30.0
  1
HL仕上げ
 72
     4
 11
2721.5
 21
1926.5
 31
0.0
100
AcDbText
  0
TEXT
  5
80D5
330
8065
100
AcDbEntity
  8
枠
100
AcDbText
 10
2194.5
 20
1976.499999999999
 30
0.0
 40
30.0
  1
材質
 72
     4
 11
2226.5
 21
1991.499999999999
 31
0.0
100
AcDbText
  0
TEXT
  5
80D6
330
8065
100
AcDbEntity
  8
実形
100
AcDbText
 10
2150.567741091872
 20
1909.802712155305
 30
0.0
 40
30.0
  1
SUS304
 72
     4
 11
2233.067741091872
 21
1924.802712155305
 31
0.0
100
AcDbText
  0
TEXT
  5
80D7
330
8065
100
AcDbEntity
  8
枠
100
AcDbText
 10
2445.771452399255
 20
1977.499999999999
 30
0.0
 40
30.0
  1
厚み
 72
     4
 11
2476.771452399255
 21
1991.499999999999
 31
0.0
100
AcDbText
  0
TEXT
  5
80D8
330
8065
100
AcDbEntity
  8
実形
100
AcDbText
 10
2418.271452399255
 20
1911.5
 30
0.0
 40
30.0
  1
1.0ｍｍ
 72
     4
 11
2476.771452399255
 21
1926.5
 31
0.0
100
AcDbText
  0
LINE
  5
80D9
330
8065
100
AcDbEntity
  8
実形
100
AcDbLine
 10
868.770210499882
 20
1554.178460662066
 30
0.0
 11
1092.770210499882
 21
1554.178460662066
 31
0.0
  0
DIMENSION
  5
80DA
330
8065
100
AcDbEntity
  8
実形
100
AcDbDimension
  2
*D32
 10
1043.456345948539
 20
1404.178460662066
 30
0.0
 11
1021.856345948539
 21
1479.178460662066
 31
0.0
 70
    32
 71
     5
 42
150.0000000000002
  3
ISO-25
100
AcDbAlignedDimension
 13
1159.538117598124
 23
1554.178460662066
 33
0.0
 14
1156.209930106677
 24
1404.178460662066
 34
0.0
 50
90.0
100
AcDbRotatedDimension
1001
ACAD
1000
DSTYLE
1002
{
1070
    41
1040
10.0
1070
   140
1040
30.0
1070
   147
1040
6.599999999999998
1070
   279
1070
     2
1070
   342
1005
30D
1070
   371
1070
    18
1070
   372
1070
    18
1002
}
  0
DIMENSION
  5
80DB
330
8065
100
AcDbEntity
  8
実形
100
AcDbDimension
  2
*D33
 10
1622.770210499882
 20
1270.994834284402
 30
0.0
 11
1432.770210499882
 21
1292.594834284402
 31
0.0
 70
    32
 71
     5
 42
380.0
  3
ISO-25
100
AcDbAlignedDimension
 13
1242.770210499882
 23
1365.740901717254
 33
0.0
 14
1622.770210499882
 24
1365.740901717254
 34
0.0
100
AcDbRotatedDimension
1001
ACAD
1000
DSTYLE
1002
{
1070
    41
1040
10.0
1070
   140
1040
30.0
1070
   147
1040
6.599999999999998
1070
   279
1070
     2
1070
   342
1005
30D
1070
   371
1070
    18
1070
   372
1070
    18
1002
}
  0
LINE
  5
80DC
330
8065
100
AcDbEntity
  8
実形
100
AcDbLine
 10
1092.770210499882
 20
1554.178460662066
 30
0.0
 11
1092.770210499882
 21
1624.178460662066
 31
0.0
  0
LINE
  5
80DD
330
8065
100
AcDbEntity
  8
実形
100
AcDbLine
 10
1392.770210499882
 20
1554.178460662066
 30
0.0
 11
1392.770210499882
 21
1624.178460662066
 31
0.0
  0
DIMENSION
  5
80DE
330
8065
100
AcDbEntity
  8
実形
100
AcDbDimension
  2
*D34
 10
1092.770210499882
 20
1735.385472702717
 30
0.0
 11
967.7702104998825
 21
1754.485472702717
 31
0.0
 70
    32
 71
     5
 42
250.0000000000001
  3
ISO-25
100
AcDbAlignedDimension
 13
842.7702104998823
 23
1624.178460662066
 33
0.0
 14
1092.770210499882
 24
1624.178460662066
 34
0.0
100
AcDbRotatedDimension
1001
ACAD
1000
DSTYLE
1002
{
1070
    41
1040
10.0
1070
   140
1040
25.0
1070
   147
1040
6.599999999999998
1070
   279
1070
     2
1070
   342
1005
30D
1070
   371
1070
    18
1070
   372
1070
    18
1002
}
  0
DIMENSION
  5
80DF
330
8065
100
AcDbEntity
  8
実形
100
AcDbDimension
  2
*D35
 10
1392.770210499882
 20
1735.385472702717
 30
0.0
 11
1242.770210499882
 21
1754.485472702717
 31
0.0
 70
    32
 71
     5
 42
300.0
  3
ISO-25
100
AcDbAlignedDimension
 13
1092.770210499882
 23
1624.178460662066
 33
0.0
 14
1392.770210499882
 24
1624.178460662066
 34
0.0
100
AcDbRotatedDimension
1001
ACAD
1000
DSTYLE
1002
{
1070
    41
1040
10.0
1070
   140
1040
25.0
1070
   147
1040
6.599999999999998
1070
   279
1070
     2
1070
   342
1005
30D
1070
   371
1070
    18
1070
   372
1070
    18
1002
}
  0
DIMENSION
  5
80E0
330
8065
100
AcDbEntity
  8
実形
100
AcDbDimension
  2
*D36
 10
1642.770210499882
 20
1735.385472702717
 30
0.0
 11
1517.770210499882
 21
1754.485472702717
 31
0.0
 70
    32
 71
     5
 42
249.9999999999998
  3
ISO-25
100
AcDbAlignedDimension
 13
1392.770210499883
 23
1624.178460662065
 33
0.0
 14
1642.770210499882
 24
1624.178460662065
 34
0.0
100
AcDbRotatedDimension
1001
ACAD
1000
DSTYLE
1002
{
1070
    41
1040
10.0
1070
   140
1040
25.0
1070
   147
1040
6.599999999999998
1070
   279
1070
     2
1070
   342
1005
30D
1070
   371
1070
    18
1070
   372
1070
    18
1002
}
  0
DIMENSION
  5
80E1
330
8065
100
AcDbEntity
  8
実形
100
AcDbDimension
  2
*D37
 10
1657.770210499882
 20
1735.385472702717
 30
0.0
 11
826.3182245476109
 21
1760.370517377699
 31
0.0
 70
   160
  1
15
 71
     5
 42
830.0
  3
ISO-25
100
AcDbAlignedDimension
 13
827.7702104998825
 23
1624.806458158204
 33
0.0
 14
1657.770210499882
 24
1624.161761419618
 34
0.0
100
AcDbRotatedDimension
1001
ACAD
1000
DSTYLE
1002
{
1070
    41
1040
10.0
1070
   140
1040
25.0
1070
   147
1040
6.599999999999998
1070
   279
1070
     2
1070
   342
1005
30D
1070
   371
1070
    18
1070
   372
1070
    18
1002
}
  0
TEXT
  5
80E2
330
8065
100
AcDbEntity
  8
実形
 48
20.0
100
AcDbText
 10
1644.285264478984
 20
1745.579848299247
 30
0.0
 40
25.0
  1
15
100
AcDbText
  0
DIMENSION
  5
80E3
330
8065
100
AcDbEntity
  8
実形
100
AcDbDimension
  2
*D38
 10
1771.093547640548
 20
1184.178460662066
 30
0.0
 11
1751.993547640548
 21
1414.178460662066
 31
0.0
 70
    32
 71
     5
 42
459.9999999999997
  3
ISO-25
100
AcDbAlignedDimension
 13
1657.770210499882
 23
1644.178460662066
 33
0.0
 14
1657.770210499883
 24
1184.178460662066
 34
0.0
 50
90.0
100
AcDbRotatedDimension
1001
ACAD
1000
DSTYLE
1002
{
1070
    41
1040
10.0
1070
   140
1040
25.0
1070
   147
1040
6.599999999999998
1070
   279
1070
     2
1070
   342
1005
30D
1070
   371
1070
    18
1070
   372
1070
    18
1002
}
  0
DIMENSION
  5
80E4
330
8065
100
AcDbEntity
  8
実形
100
AcDbDimension
  2
*D39
 10
1771.093547640548
 20
1169.178460662066
 30
0.0
 11
1749.493547640548
 21
1688.725599288342
 31
0.0
 70
   160
  1
15
 71
     5
 42
490.0
  3
ISO-25
100
AcDbAlignedDimension
 13
1657.770210499882
 23
1659.178460662066
 33
0.0
 14
1657.770210499882
 24
1169.178460662066
 34
0.0
 50
90.0
100
AcDbRotatedDimension
1001
ACAD
1000
DSTYLE
1002
{
1070
    41
1040
10.0
1070
   140
1040
25.0
1070
   147
1040
6.599999999999998
1070
   279
1070
     2
1070
   342
1005
30D
1070
   371
1070
    18
1070
   372
1070
    18
1002
}
  0
TEXT
  5
80E5
330
8065
100
AcDbEntity
  8
実形
 48
20.0
100
AcDbText
 10
1763.371050332344
 20
1117.528641274333
 30
0.0
 40
25.0
  1
15
 50
90.0
100
AcDbText
  0
DIMENSION
  5
80E6
330
8065
100
AcDbEntity
  8
実形
100
AcDbDimension
  2
*D40
 10
1833.118375451033
 20
1169.178460662066
 30
0.0
 11
1814.018375451033
 21
1414.178460662066
 31
0.0
 70
    32
 71
     5
 42
490.0
  3
ISO-25
100
AcDbAlignedDimension
 13
1657.770210499882
 23
1659.178460662066
 33
0.0
 14
1657.770210499882
 24
1169.178460662066
 34
0.0
 50
90.0
100
AcDbRotatedDimension
1001
ACAD
1000
DSTYLE
1002
{
1070
    41
1040
10.0
1070
   140
1040
25.0
1070
   147
1040
6.599999999999998
1070
   279
1070
     2
1070
   342
1005
30D
1070
   371
1070
    18
1070
   372
1070
    18
1002
}
  0
LINE
  5
80E7
330
8065
100
AcDbEntity
  8
実形
100
AcDbLine
 10
773.3275276276962
 20
1644.178460662066
 30
0.0
 11
738.1482502386061
 21
1644.178460662066
 31
0.0
  0
LINE
  5
80E8
330
8065
100
AcDbEntity
  8
実形
100
AcDbLine
 10
738.1482502386061
 20
1644.178460662066
 30
0.0
 11
738.1482502386061
 21
1624.178460662066
 31
0.0
  0
LINE
  5
80E9
330
8065
100
AcDbEntity
  8
実形
100
AcDbLine
 10
738.1482502386061
 20
1624.178460662066
 30
0.0
 11
773.3275276276963
 21
1624.178460662066
 31
0.0
  0
DIMENSION
  5
80EA
330
8065
100
AcDbEntity
  8
実形
100
AcDbDimension
  2
*D41
 10
738.1482502386061
 20
1644.178460662066
 30
0.0
 11
715.569680847846
 21
1589.259853472391
 31
0.0
 70
   160
  1
70
 71
     5
 42
89.99999999999955
  3
ISO-25
100
AcDbAlignedDimension
 13
832.3275276276962
 23
1554.178460662066
 33
0.0
 14
832.3275276276962
 24
1644.178460662066
 34
0.0
 50
90.0
100
AcDbRotatedDimension
1001
ACAD
1000
DSTYLE
1002
{
1070
    41
1040
10.0
1070
   140
1040
25.0
1070
   147
1040
6.599999999999998
1070
   279
1070
     2
1070
   342
1005
30D
1070
   371
1070
    18
1070
   372
1070
    18
1002
}
  0
DIMENSION
  5
80EB
330
8065
100
AcDbEntity
  8
実形
100
AcDbDimension
  2
*D42
 10
738.1482502386061
 20
1624.178460662066
 30
0.0
 11
801.3626707265066
 21
1625.22842009638
 31
0.0
 70
   160
  1
20
 71
     5
 42
69.99999999999977
  3
ISO-25
100
AcDbAlignedDimension
 13
832.3275276276962
 23
1554.178460662066
 33
0.0
 14
838.3275276276963
 24
1624.178460662066
 34
0.0
 50
90.0
100
AcDbRotatedDimension
1001
ACAD
1000
DSTYLE
1002
{
1070
    41
1040
10.0
1070
   140
1040
25.0
1070
   147
1040
6.599999999999998
1070
   279
1070
     2
1070
   342
1005
30D
1070
   371
1070
    18
1070
   372
1070
    18
1002
}
  0
TEXT
  5
80EC
330
8065
100
AcDbEntity
  8
実形
 48
20.0
100
AcDbText
 10
797.0821669850392
 20
2333.361271294907
 30
0.0
 40
8.0
  1
●
 50
90.0
100
AcDbText
  0
DIMENSION
  5
80ED
330
8065
100
AcDbEntity
  8
実形
100
AcDbDimension
  2
*D43
 10
672.3280192665588
 20
1554.178460662066
 30
0.0
 11
653.2280192665585
 21
1599.178460662066
 31
0.0
 70
    32
 71
     5
 42
89.99999999999955
  3
ISO-25
100
AcDbAlignedDimension
 13
800.771238858355
 23
1644.178460662066
 33
0.0
 14
779.7500916428215
 24
1554.178460662066
 34
0.0
 50
90.0
100
AcDbRotatedDimension
1001
ACAD
1000
DSTYLE
1002
{
1070
    41
1040
10.0
1070
   140
1040
25.0
1070
   147
1040
6.599999999999998
1070
   279
1070
     2
1070
   342
1005
30D
1070
   371
1070
    18
1070
   372
1070
    18
1002
}
  0
DIMENSION
  5
80EE
330
8065
100
AcDbEntity
  8
実形
100
AcDbDimension
  2
*D44
 10
672.3280192665587
 20
1204.178460662066
 30
0.0
 11
653.2280192665585
 21
1379.178460662066
 31
0.0
 70
    32
 71
     5
 42
350.0000000000004
  3
ISO-25
100
AcDbAlignedDimension
 13
797.6742997845558
 23
1554.178460662066
 33
0.0
 14
802.7945193027008
 24
1204.178460662066
 34
0.0
 50
90.0
100
AcDbRotatedDimension
1001
ACAD
1000
DSTYLE
1002
{
1070
    41
1040
10.0
1070
   140
1040
25.0
1070
   147
1040
6.599999999999998
1070
   279
1070
     2
1070
   342
1005
30D
1070
   371
1070
    18
1070
   372
1070
    18
1002
}
  0
DIMENSION
  5
80EF
330
8065
100
AcDbEntity
  8
実形
100
AcDbDimension
  2
*D45
 10
672.3280192665587
 20
1169.178460662066
 30
0.0
 11
650.7280192665586
 21
1682.883538982083
 31
0.0
 70
   160
  1
15
 71
     5
 42
490.0
  3
ISO-25
100
AcDbAlignedDimension
 13
829.1539611657317
 23
1659.178460662066
 33
0.0
 14
802.2641105192887
 24
1169.178460662066
 34
0.0
 50
90.0
100
AcDbRotatedDimension
1001
ACAD
1000
DSTYLE
1002
{
1070
    41
1040
10.0
1070
   140
1040
25.0
1070
   147
1040
6.599999999999998
1070
   279
1070
     2
1070
   342
1005
30D
1070
   371
1070
    18
1070
   372
1070
    18
1002
}
  0
DIMENSION
  5
80F0
330
8065
100
AcDbEntity
  8
実形
100
AcDbDimension
  2
*D46
 10
672.3280192665588
 20
1554.178460662066
 30
0.0
 11
650.745963999092
 21
1217.459715149787
 31
0.0
 70
   160
  1
20
 71
     5
 42
370.0000000000005
  3
ISO-25
100
AcDbAlignedDimension
 13
802.7945193027008
 23
1184.178460662066
 33
0.0
 14
767.3275276276962
 24
1554.178460662066
 34
0.0
 50
90.0
100
AcDbRotatedDimension
1001
ACAD
1000
DSTYLE
1002
{
1070
    41
1040
10.0
1070
   140
1040
25.0
1070
   147
1040
6.599999999999998
1070
   279
1070
     2
1070
   342
1005
30D
1070
   371
1070
    18
1070
   372
1070
    18
1002
}
  0
TEXT
  5
80F1
330
8065
100
AcDbEntity
  8
実形
 48
20.0
100
AcDbText
 10
662.9803565113634
 20
1130.061801922893
 30
0.0
 40
25.0
  1
15
 50
90.0
100
AcDbText
  0
DIMENSION
  5
80F2
330
8065
100
AcDbEntity
  8
実形
100
AcDbDimension
  2
*D47
 10
616.3564627716168
 20
1184.178460662066
 30
0.0
 11
597.2564627716167
 21
1414.178460662066
 31
0.0
 70
    32
 71
     5
 42
460.0
  3
ISO-25
100
AcDbAlignedDimension
 13
831.7269474160729
 23
1644.178460662066
 33
0.0
 14
804.8056315785306
 24
1184.178460662066
 34
0.0
 50
90.0
100
AcDbRotatedDimension
1001
ACAD
1000
DSTYLE
1002
{
1070
    41
1040
10.0
1070
   140
1040
25.0
1070
   147
1040
6.599999999999998
1070
   279
1070
     2
1070
   342
1005
30D
1070
   371
1070
    18
1070
   372
1070
    18
1002
}
  0
DIMENSION
  5
80F3
330
8065
100
AcDbEntity
  8
実形
100
AcDbDimension
  2
*D48
 10
556.8835017673409
 20
1169.178460662066
 30
0.0
 11
535.2835017673408
 21
1414.178460662066
 31
0.0
 70
    32
 71
     5
 42
490.0
  3
ISO-25
100
AcDbAlignedDimension
 13
827.7702104998825
 23
1659.178460662066
 33
0.0
 14
805.8183231977528
 24
1169.178460662066
 34
0.0
 50
90.0
100
AcDbRotatedDimension
1001
ACAD
1000
DSTYLE
1002
{
1070
    41
1040
10.0
1070
   140
1040
30.0
1070
   147
1040
6.599999999999998
1070
   279
1070
     2
1070
   342
1005
30D
1070
   371
1070
    18
1070
   372
1070
    18
1002
}
  0
LINE
  5
80F4
330
8065
100
AcDbEntity
  8
実形
100
AcDbLine
 10
1392.770210499882
 20
1554.178460662066
 30
0.0
 11
1616.770210499882
 21
1554.178460662066
 31
0.0
  0
ARC
  5
80F5
330
8065
100
AcDbEntity
  8
実形
100
AcDbCircle
 10
868.770210499882
 20
1548.178460662066
 30
0.0
 40
6.0
100
AcDbArc
 50
89.99999999999994
 51
180.0
  0
ARC
  5
80F6
330
8065
100
AcDbEntity
  8
実形
100
AcDbCircle
 10
1616.770210499882
 20
1548.178460662066
 30
0.0
 40
6.0
100
AcDbArc
 50
0.0
 51
89.99999999999994
  0
LINE
  5
80F7
330
8065
100
AcDbEntity
  8
実形
  6
ACAD_ISO08W100
 48
0.5
100
AcDbLine
 10
1242.770210499882
 20
1300.740901717254
 30
0.0
 11
1242.770210499882
 21
1599.683968216935
 31
0.0
  0
ENDBLK
  5
8101
330
8065
100
AcDbEntity
  8
0
 62
     3
100
AcDbBlockEnd
  0
BLOCK
  5
8C58
330
8C4E
100
AcDbEntity
  8
0
 62
     3
100
AcDbBlockBegin
  2
*D50
 70
     1
 10
0.0
 20
0.0
 30
0.0
  3
*D50
  1

  0
LINE
  5
A22C
330
8C4E
100
AcDbEntity
  8
実形
 62
     0
370
    18
100
AcDbLine
 10
1565.012719908287
 20
1629.047590588581
 30
0.0
 11
1565.012719908287
 21
1625.464142184848
 31
0.0
  0
LINE
  5
A22D
330
8C4E
100
AcDbEntity
  8
実形
 62
     0
370
    18
100
AcDbLine
 10
1415.012719908287
 20
1629.047590588581
 30
0.0
 11
1415.012719908287
 21
1625.464142184848
 31
0.0
  0
LINE
  5
A22E
330
8C4E
100
AcDbEntity
  8
実形
 62
     0
370
    18
100
AcDbLine
 10
1555.012719908287
 20
1625.464142184848
 30
0.0
 11
1425.012719908287
 21
1625.464142184848
 31
0.0
  0
INSERT
  5
A22F
330
8C4E
100
AcDbEntity
  8
実形
 62
     0
370
    18
100
AcDbBlockReference
  2
_Dot
 10
1565.012719908287
 20
1625.464142184848
 30
0.0
 41
10.0
 42
10.0
 43
10.0
  0
INSERT
  5
A230
330
8C4E
100
AcDbEntity
  8
実形
 62
     0
370
    18
100
AcDbBlockReference
  2
_Dot
 10
1415.012719908287
 20
1625.464142184848
 30
0.0
 41
10.0
 42
10.0
 43
10.0
 50
180.0
  0
MTEXT
  5
A231
330
8C4E
100
AcDbEntity
  8
実形
 62
     0
100
AcDbMText
 10
1490.012719908287
 20
1644.564142184848
 30
0.0
 40
25.0
 41
0.0
 71
     5
 72
     1
  1
150
 73
     1
 44
1.0
1001
ACAD
1000
MTEXTBEGIN
1070
    73
1070
     1
1070
    44
1040
1.0
1070
    74
1070
     0
1000
MTEXTEND
  0
POINT
  5
A232
330
8C4E
100
AcDbEntity
  8
Defpoints
 62
     0
100
AcDbPoint
 10
1565.012719908287
 20
1564.047590588581
 30
0.0
  0
POINT
  5
A233
330
8C4E
100
AcDbEntity
  8
Defpoints
 62
     0
100
AcDbPoint
 10
1415.012719908287
 20
1564.047590588582
 30
0.0
  0
POINT
  5
A234
330
8C4E
100
AcDbEntity
  8
Defpoints
 62
     0
100
AcDbPoint
 10
1415.012719908287
 20
1625.464142184848
 30
0.0
  0
ENDBLK
  5
8C59
330
8C4E
100
AcDbEntity
  8
0
 62
     3
100
AcDbBlockEnd
  0
BLOCK
  5
8C7B
330
8C71
100
AcDbEntity
  8
0
 62
     3
100
AcDbBlockBegin
  2
*D51
 70
     1
 10
0.0
 20
0.0
 30
0.0
  3
*D51
  1

  0
LINE
  5
A223
330
8C71
100
AcDbEntity
  8
実形
 62
     0
370
    18
100
AcDbLine
 10
1678.697169002164
 20
1448.547590588581
 30
0.0
 11
1727.089289217008
 21
1448.547590588581
 31
0.0
  0
LINE
  5
A224
330
8C71
100
AcDbEntity
  8
実形
 62
     0
370
    18
100
AcDbLine
 10
1678.697169002164
 20
1213.547590588581
 30
0.0
 11
1727.089289217008
 21
1213.547590588581
 31
0.0
  0
LINE
  5
A225
330
8C71
100
AcDbEntity
  8
実形
 62
     0
370
    18
100
AcDbLine
 10
1727.089289217008
 20
1438.547590588581
 30
0.0
 11
1727.089289217008
 21
1223.547590588581
 31
0.0
  0
INSERT
  5
A226
330
8C71
100
AcDbEntity
  8
実形
 62
     0
370
    18
100
AcDbBlockReference
  2
_Dot
 10
1727.089289217008
 20
1448.547590588581
 30
0.0
 41
10.0
 42
10.0
 43
10.0
 50
90.0
  0
INSERT
  5
A227
330
8C71
100
AcDbEntity
  8
実形
 62
     0
370
    18
100
AcDbBlockReference
  2
_Dot
 10
1727.089289217008
 20
1213.547590588581
 30
0.0
 41
10.0
 42
10.0
 43
10.0
 50
270.0
  0
MTEXT
  5
A228
330
8C71
100
AcDbEntity
  8
実形
 62
     0
100
AcDbMText
 10
1707.989289217008
 20
1331.047590588582
 30
0.0
 40
25.0
 41
0.0
 71
     5
 72
     1
  1
235
 11
0.0000000000000001
 21
1.0
 31
0.0
 73
     1
 44
1.0
1001
ACAD
1000
MTEXTBEGIN
1070
    73
1070
     1
1070
    44
1040
1.0
1070
    74
1070
     0
1000
MTEXTEND
  0
POINT
  5
A229
330
8C71
100
AcDbEntity
  8
Defpoints
 62
     0
100
AcDbPoint
 10
1613.697169002164
 20
1448.547590588581
 30
0.0
  0
POINT
  5
A22A
330
8C71
100
AcDbEntity
  8
Defpoints
 62
     0
100
AcDbPoint
 10
1613.697169002164
 20
1213.547590588581
 30
0.0
  0
POINT
  5
A22B
330
8C71
100
AcDbEntity
  8
Defpoints
 62
     0
100
AcDbPoint
 10
1727.089289217008
 20
1213.547590588581
 30
0.0
  0
ENDBLK
  5
8C7C
330
8C71
100
AcDbEntity
  8
0
 62
     3
100
AcDbBlockEnd
  0
BLOCK
  5
8E11
330
8E07
100
AcDbEntity
  8
0
 62
     3
100
AcDbBlockBegin
  2
*D52
 70
     1
 10
0.0
 20
0.0
 30
0.0
  3
*D52
  1

  0
LINE
  5
A4E5
330
8E07
100
AcDbEntity
  8
実形
 62
     0
370
    18
100
AcDbLine
 10
1144.012719908287
 20
1113.547590588581
 30
0.0
 11
1144.012719908287
 21
986.8016468789756
 31
0.0
  0
LINE
  5
A4E6
330
8E07
100
AcDbEntity
  8
実形
 62
     0
370
    18
100
AcDbLine
 10
1974.012719908287
 20
1113.547590588581
 30
0.0
 11
1974.012719908287
 21
986.8016468789756
 31
0.0
  0
LINE
  5
A4E7
330
8E07
100
AcDbEntity
  8
実形
 62
     0
370
    18
100
AcDbLine
 10
1154.012719908287
 20
986.8016468789756
 30
0.0
 11
1964.012719908287
 21
986.8016468789756
 31
0.0
  0
INSERT
  5
A4E8
330
8E07
100
AcDbEntity
  8
実形
 62
     0
370
    18
100
AcDbBlockReference
  2
_Dot
 10
1144.012719908287
 20
986.8016468789756
 30
0.0
 41
10.0
 42
10.0
 43
10.0
 50
180.0
  0
INSERT
  5
A4E9
330
8E07
100
AcDbEntity
  8
実形
 62
     0
370
    18
100
AcDbBlockReference
  2
_Dot
 10
1974.012719908287
 20
986.8016468789756
 30
0.0
 41
10.0
 42
10.0
 43
10.0
  0
POINT
  5
A4EA
330
8E07
100
AcDbEntity
  8
Defpoints
 62
     0
100
AcDbPoint
 10
1144.012719908287
 20
1178.547590588581
 30
0.0
  0
POINT
  5
A4EB
330
8E07
100
AcDbEntity
  8
Defpoints
 62
     0
100
AcDbPoint
 10
1974.012719908287
 20
1178.547590588581
 30
0.0
  0
POINT
  5
A4EC
330
8E07
100
AcDbEntity
  8
Defpoints
 62
     0
100
AcDbPoint
 10
1974.012719908287
 20
986.8016468789756
 30
0.0
  0
ENDBLK
  5
8E12
330
8E07
100
AcDbEntity
  8
0
 62
     3
100
AcDbBlockEnd
  0
BLOCK
  5
8E1E
330
8E14
100
AcDbEntity
  8
0
 62
     3
100
AcDbBlockBegin
  2
*D53
 70
     1
 10
0.0
 20
0.0
 30
0.0
  3
*D53
  1

  0
LINE
  5
A4DC
330
8E14
100
AcDbEntity
  8
実形
 62
     0
370
    18
100
AcDbLine
 10
1179.012719908287
 20
1113.547590588581
 30
0.0
 11
1179.012719908287
 21
1047.891333620135
 31
0.0
  0
LINE
  5
A4DD
330
8E14
100
AcDbEntity
  8
実形
 62
     0
370
    18
100
AcDbLine
 10
1959.012719908287
 20
1113.547590588581
 30
0.0
 11
1959.012719908287
 21
1047.891333620135
 31
0.0
  0
LINE
  5
A4DE
330
8E14
100
AcDbEntity
  8
実形
 62
     0
370
    18
100
AcDbLine
 10
1189.012719908287
 20
1047.891333620135
 30
0.0
 11
1949.012719908287
 21
1047.891333620135
 31
0.0
  0
MTEXT
  5
A4DF
330
8E14
100
AcDbEntity
  8
実形
 62
     0
100
AcDbMText
 10
2013.72694510582
 20
1018.736709673649
 30
0.0
 40
25.0
 41
0.0
 71
     5
 72
     1
  1
15
 73
     1
 44
1.0
1001
ACAD
1000
MTEXTBEGIN
1070
    73
1070
     1
1070
    44
1040
1.0
1070
    74
1070
     0
1000
MTEXTEND
  0
INSERT
  5
A4E0
330
8E14
100
AcDbEntity
  8
実形
 62
     0
370
    18
100
AcDbBlockReference
  2
_Dot
 10
1179.012719908287
 20
1047.891333620135
 30
0.0
 41
10.0
 42
10.0
 43
10.0
 50
180.0
  0
INSERT
  5
A4E1
330
8E14
100
AcDbEntity
  8
実形
 62
     0
370
    18
100
AcDbBlockReference
  2
_Dot
 10
1959.012719908287
 20
1047.891333620135
 30
0.0
 41
10.0
 42
10.0
 43
10.0
  0
POINT
  5
A4E2
330
8E14
100
AcDbEntity
  8
Defpoints
 62
     0
100
AcDbPoint
 10
1179.012719908287
 20
1178.547590588581
 30
0.0
  0
POINT
  5
A4E3
330
8E14
100
AcDbEntity
  8
Defpoints
 62
     0
100
AcDbPoint
 10
1959.012719908287
 20
1178.547590588581
 30
0.0
  0
POINT
  5
A4E4
330
8E14
100
AcDbEntity
  8
Defpoints
 62
     0
100
AcDbPoint
 10
1959.012719908287
 20
1047.891333620135
 30
0.0
  0
ENDBLK
  5
8E1F
330
8E14
100
AcDbEntity
  8
0
 62
     3
100
AcDbBlockEnd
  0
BLOCK
  5
8E34
330
8E2A
100
AcDbEntity
  8
0
 62
     3
100
AcDbBlockBegin
  2
*D54
 70
     1
 10
0.0
 20
0.0
 30
0.0
  3
*D54
  1

  0
LINE
  5
A4F6
330
8E2A
100
AcDbEntity
  8
実形
 62
     0
370
    18
100
AcDbLine
 10
1179.012719908287
 20
1113.547590588581
 30
0.0
 11
1179.012719908287
 21
1047.891333620135
 31
0.0
  0
LINE
  5
A4F7
330
8E2A
100
AcDbEntity
  8
実形
 62
     0
370
    18
100
AcDbLine
 10
1395.012719908287
 20
1113.547590588581
 30
0.0
 11
1395.012719908287
 21
1047.891333620135
 31
0.0
  0
LINE
  5
A4F8
330
8E2A
100
AcDbEntity
  8
実形
 62
     0
370
    18
100
AcDbLine
 10
1189.012719908287
 20
1047.891333620135
 30
0.0
 11
1385.012719908287
 21
1047.891333620135
 31
0.0
  0
INSERT
  5
A4F9
330
8E2A
100
AcDbEntity
  8
実形
 62
     0
370
    18
100
AcDbBlockReference
  2
_Dot
 10
1179.012719908287
 20
1047.891333620135
 30
0.0
 41
10.0
 42
10.0
 43
10.0
 50
180.0
  0
INSERT
  5
A4FA
330
8E2A
100
AcDbEntity
  8
実形
 62
     0
370
    18
100
AcDbBlockReference
  2
_Dot
 10
1395.012719908287
 20
1047.891333620135
 30
0.0
 41
10.0
 42
10.0
 43
10.0
  0
MTEXT
  5
A4FB
330
8E2A
100
AcDbEntity
  8
実形
 62
     0
100
AcDbMText
 10
1287.012719908287
 20
1066.991333620135
 30
0.0
 40
25.0
 41
0.0
 71
     5
 72
     1
  1
216
 73
     1
 44
1.0
1001
ACAD
1000
MTEXTBEGIN
1070
    73
1070
     1
1070
    44
1040
1.0
1070
    74
1070
     0
1000
MTEXTEND
  0
POINT
  5
A4FC
330
8E2A
100
AcDbEntity
  8
Defpoints
 62
     0
100
AcDbPoint
 10
1179.012719908287
 20
1178.547590588581
 30
0.0
  0
POINT
  5
A4FD
330
8E2A
100
AcDbEntity
  8
Defpoints
 62
     0
100
AcDbPoint
 10
1395.012719908287
 20
1178.547590588581
 30
0.0
  0
POINT
  5
A4FE
330
8E2A
100
AcDbEntity
  8
Defpoints
 62
     0
100
AcDbPoint
 10
1395.012719908287
 20
1047.891333620135
 30
0.0
  0
ENDBLK
  5
8E35
330
8E2A
100
AcDbEntity
  8
0
 62
     3
100
AcDbBlockEnd
  0
BLOCK
  5
8E4A
330
8E40
100
AcDbEntity
  8
0
 62
     3
100
AcDbBlockBegin
  2
*D55
 70
     1
 10
0.0
 20
0.0
 30
0.0
  3
*D55
  1

  0
LINE
  5
A4ED
330
8E40
100
AcDbEntity
  8
実形
 62
     0
370
    18
100
AcDbLine
 10
1159.012719908287
 20
1113.547590588581
 30
0.0
 11
1159.012719908287
 21
1047.891333620135
 31
0.0
  0
LINE
  5
A4EE
330
8E40
100
AcDbEntity
  8
実形
 62
     0
370
    18
100
AcDbLine
 10
1415.012719908287
 20
1113.547590588581
 30
0.0
 11
1415.012719908287
 21
1047.891333620135
 31
0.0
  0
LINE
  5
A4EF
330
8E40
100
AcDbEntity
  8
実形
 62
     0
370
    18
100
AcDbLine
 10
1169.012719908287
 20
1047.891333620135
 30
0.0
 11
1405.012719908287
 21
1047.891333620135
 31
0.0
  0
MTEXT
  5
A4F0
330
8E40
100
AcDbEntity
  8
実形
 62
     0
100
AcDbMText
 10
1110.702712586852
 20
1013.866142094053
 30
0.0
 40
25.0
 41
0.0
 71
     5
 72
     1
  1
15
 73
     1
 44
1.0
1001
ACAD
1000
MTEXTBEGIN
1070
    73
1070
     1
1070
    44
1040
1.0
1070
    74
1070
     0
1000
MTEXTEND
  0
INSERT
  5
A4F1
330
8E40
100
AcDbEntity
  8
実形
 62
     0
370
    18
100
AcDbBlockReference
  2
_Dot
 10
1159.012719908287
 20
1047.891333620135
 30
0.0
 41
10.0
 42
10.0
 43
10.0
 50
180.0
  0
INSERT
  5
A4F2
330
8E40
100
AcDbEntity
  8
実形
 62
     0
370
    18
100
AcDbBlockReference
  2
_Dot
 10
1415.012719908287
 20
1047.891333620135
 30
0.0
 41
10.0
 42
10.0
 43
10.0
  0
POINT
  5
A4F3
330
8E40
100
AcDbEntity
  8
Defpoints
 62
     0
100
AcDbPoint
 10
1159.012719908287
 20
1178.547590588581
 30
0.0
  0
POINT
  5
A4F4
330
8E40
100
AcDbEntity
  8
Defpoints
 62
     0
100
AcDbPoint
 10
1415.012719908287
 20
1178.547590588581
 30
0.0
  0
POINT
  5
A4F5
330
8E40
100
AcDbEntity
  8
Defpoints
 62
     0
100
AcDbPoint
 10
1415.012719908287
 20
1047.891333620135
 30
0.0
  0
ENDBLK
  5
8E4B
330
8E40
100
AcDbEntity
  8
0
 62
     3
100
AcDbBlockEnd
  0
BLOCK
  5
8E8C
330
8E82
100
AcDbEntity
  8
0
 62
     3
100
AcDbBlockBegin
  2
*D56
 70
     1
 10
0.0
 20
0.0
 30
0.0
  3
*D56
  1

  0
LINE
  5
A1C1
330
8E82
100
AcDbEntity
  8
実形
 62
     0
370
    18
100
AcDbLine
 10
1415.012719908287
 20
1113.547590588581
 30
0.0
 11
1415.012719908287
 21
1047.891333620135
 31
0.0
  0
LINE
  5
A1C2
330
8E82
100
AcDbEntity
  8
実形
 62
     0
370
    18
100
AcDbLine
 10
1939.012719908287
 20
1113.547590588581
 30
0.0
 11
1939.012719908287
 21
1047.891333620135
 31
0.0
  0
LINE
  5
A1C3
330
8E82
100
AcDbEntity
  8
実形
 62
     0
370
    18
100
AcDbLine
 10
1425.012719908287
 20
1047.891333620135
 30
0.0
 11
1929.012719908287
 21
1047.891333620135
 31
0.0
  0
INSERT
  5
A1C4
330
8E82
100
AcDbEntity
  8
実形
 62
     0
370
    18
100
AcDbBlockReference
  2
_Dot
 10
1415.012719908287
 20
1047.891333620135
 30
0.0
 41
10.0
 42
10.0
 43
10.0
 50
180.0
  0
INSERT
  5
A1C5
330
8E82
100
AcDbEntity
  8
実形
 62
     0
370
    18
100
AcDbBlockReference
  2
_Dot
 10
1939.012719908287
 20
1047.891333620135
 30
0.0
 41
10.0
 42
10.0
 43
10.0
  0
MTEXT
  5
A1C6
330
8E82
100
AcDbEntity
  8
実形
 62
     0
100
AcDbMText
 10
1677.012719908287
 20
1066.991333620135
 30
0.0
 40
25.0
 41
0.0
 71
     5
 72
     1
  1
524
 73
     1
 44
1.0
1001
ACAD
1000
MTEXTBEGIN
1070
    73
1070
     1
1070
    44
1040
1.0
1070
    74
1070
     0
1000
MTEXTEND
  0
POINT
  5
A1C7
330
8E82
100
AcDbEntity
  8
Defpoints
 62
     0
100
AcDbPoint
 10
1415.012719908287
 20
1178.547590588581
 30
0.0
  0
POINT
  5
A1C8
330
8E82
100
AcDbEntity
  8
Defpoints
 62
     0
100
AcDbPoint
 10
1939.012719908287
 20
1178.547590588581
 30
0.0
  0
POINT
  5
A1C9
330
8E82
100
AcDbEntity
  8
Defpoints
 62
     0
100
AcDbPoint
 10
1939.012719908287
 20
1047.891333620135
 30
0.0
  0
ENDBLK
  5
8E8D
330
8E82
100
AcDbEntity
  8
0
 62
     3
100
AcDbBlockEnd
  0
BLOCK
  5
8EAC
330
8EA8
100
AcDbEntity
  8
0
 62
     3
100
AcDbBlockBegin
  2
A$C02AA3AB7
 70
     0
 10
0.0
 20
0.0
 30
0.0
  3
A$C02AA3AB7
  1

  0
TEXT
  5
8EA9
330
8EA8
100
AcDbEntity
  8
実形
 62
     1
 48
20.0
100
AcDbText
 10
0.0000027465193853
 20
-0.0000023566917662
 30
0.0
 40
25.0
  1
20
100
AcDbText
  0
ENDBLK
  5
8EAD
330
8EA8
100
AcDbEntity
  8
0
 62
     3
100
AcDbBlockEnd
  0
BLOCK
  5
8ED3
330
8EC9
100
AcDbEntity
  8
0
 62
     3
100
AcDbBlockBegin
  2
*D58
 70
     1
 10
0.0
 20
0.0
 30
0.0
  3
*D58
  1

  0
LINE
  5
A4D3
330
8EC9
100
AcDbEntity
  8
実形
 62
     0
370
    18
100
AcDbLine
 10
1159.012719908287
 20
1048.547590588581
 30
0.0
 11
1159.012719908287
 21
986.8016468789756
 31
0.0
  0
LINE
  5
A4D4
330
8EC9
100
AcDbEntity
  8
実形
 62
     0
370
    18
100
AcDbLine
 10
1959.012719908287
 20
1048.547590588581
 30
0.0
 11
1959.012719908287
 21
986.8016468789756
 31
0.0
  0
LINE
  5
A4D5
330
8EC9
100
AcDbEntity
  8
実形
 62
     0
370
    18
100
AcDbLine
 10
1169.012719908287
 20
986.8016468789756
 30
0.0
 11
1949.012719908287
 21
986.8016468789756
 31
0.0
  0
INSERT
  5
A4D6
330
8EC9
100
AcDbEntity
  8
実形
 62
     0
370
    18
100
AcDbBlockReference
  2
_Dot
 10
1159.012719908287
 20
986.8016468789756
 30
0.0
 41
10.0
 42
10.0
 43
10.0
 50
180.0
  0
INSERT
  5
A4D7
330
8EC9
100
AcDbEntity
  8
実形
 62
     0
370
    18
100
AcDbBlockReference
  2
_Dot
 10
1959.012719908287
 20
986.8016468789756
 30
0.0
 41
10.0
 42
10.0
 43
10.0
  0
MTEXT
  5
A4D8
330
8EC9
100
AcDbEntity
  8
実形
 62
     0
100
AcDbMText
 10
1559.012719908287
 20
1005.901646878975
 30
0.0
 40
25.0
 41
0.0
 71
     5
 72
     1
  1
800
 73
     1
 44
1.0
1001
ACAD
1000
MTEXTBEGIN
1070
    73
1070
     1
1070
    44
1040
1.0
1070
    74
1070
     0
1000
MTEXTEND
  0
POINT
  5
A4D9
330
8EC9
100
AcDbEntity
  8
Defpoints
 62
     0
100
AcDbPoint
 10
1159.012719908287
 20
1113.547590588581
 30
0.0
  0
POINT
  5
A4DA
330
8EC9
100
AcDbEntity
  8
Defpoints
 62
     0
100
AcDbPoint
 10
1959.012719908287
 20
1113.547590588581
 30
0.0
  0
POINT
  5
A4DB
330
8EC9
100
AcDbEntity
  8
Defpoints
 62
     0
100
AcDbPoint
 10
1959.012719908287
 20
986.8016468789756
 30
0.0
  0
ENDBLK
  5
8ED4
330
8EC9
100
AcDbEntity
  8
0
 62
     3
100
AcDbBlockEnd
  0
BLOCK
  5
8EF2
330
8EE8
100
AcDbEntity
  8
0
 62
     3
100
AcDbBlockBegin
  2
*D59
 70
     1
 10
0.0
 20
0.0
 30
0.0
  3
*D59
  1

  0
LINE
  5
A4CA
330
8EE8
100
AcDbEntity
  8
実形
 62
     0
370
    18
100
AcDbLine
 10
1144.012719908287
 20
1048.547590588581
 30
0.0
 11
1144.012719908287
 21
924.7482854621702
 31
0.0
  0
LINE
  5
A4CB
330
8EE8
100
AcDbEntity
  8
実形
 62
     0
370
    18
100
AcDbLine
 10
1974.012719908287
 20
1048.547590588581
 30
0.0
 11
1974.012719908287
 21
924.7482854621702
 31
0.0
  0
LINE
  5
A4CC
330
8EE8
100
AcDbEntity
  8
実形
 62
     0
370
    18
100
AcDbLine
 10
1154.012719908287
 20
924.7482854621702
 30
0.0
 11
1964.012719908287
 21
924.7482854621702
 31
0.0
  0
INSERT
  5
A4CD
330
8EE8
100
AcDbEntity
  8
実形
 62
     0
370
    18
100
AcDbBlockReference
  2
_Dot
 10
1144.012719908287
 20
924.7482854621702
 30
0.0
 41
10.0
 42
10.0
 43
10.0
 50
180.0
  0
INSERT
  5
A4CE
330
8EE8
100
AcDbEntity
  8
実形
 62
     0
370
    18
100
AcDbBlockReference
  2
_Dot
 10
1974.012719908287
 20
924.7482854621702
 30
0.0
 41
10.0
 42
10.0
 43
10.0
  0
MTEXT
  5
A4CF
330
8EE8
100
AcDbEntity
  8
実形
 62
     0
100
AcDbMText
 10
1559.012719908287
 20
943.8482854621703
 30
0.0
 40
25.0
 41
0.0
 71
     5
 72
     1
  1
830
 73
     1
 44
1.0
1001
ACAD
1000
MTEXTBEGIN
1070
    73
1070
     1
1070
    44
1040
1.0
1070
    74
1070
     0
1000
MTEXTEND
  0
POINT
  5
A4D0
330
8EE8
100
AcDbEntity
  8
Defpoints
 62
     0
100
AcDbPoint
 10
1144.012719908287
 20
1113.547590588581
 30
0.0
  0
POINT
  5
A4D1
330
8EE8
100
AcDbEntity
  8
Defpoints
 62
     0
100
AcDbPoint
 10
1974.012719908287
 20
1113.547590588581
 30
0.0
  0
POINT
  5
A4D2
330
8EE8
100
AcDbEntity
  8
Defpoints
 62
     0
100
AcDbPoint
 10
1974.012719908287
 20
924.7482854621702
 30
0.0
  0
ENDBLK
  5
8EF3
330
8EE8
100
AcDbEntity
  8
0
 62
     3
100
AcDbBlockEnd
  0
BLOCK
  5
8F59
330
8F4F
100
AcDbEntity
  8
0
 62
     3
100
AcDbBlockBegin
  2
*D60
 70
     1
 10
0.0
 20
0.0
 30
0.0
  3
*D60
  1

  0
LINE
  5
A4FF
330
8F4F
100
AcDbEntity
  8
実形
 62
     0
370
    18
100
AcDbLine
 10
1287.012719908287
 20
1432.750033250692
 30
0.0
 11
1287.012719908287
 21
1400.878239022008
 31
0.0
  0
LINE
  5
A500
330
8F4F
100
AcDbEntity
  8
実形
 62
     0
370
    18
100
AcDbLine
 10
1179.012719908287
 20
1462.145337162553
 30
0.0
 11
1179.012719908287
 21
1400.878239022008
 31
0.0
  0
LINE
  5
A501
330
8F4F
100
AcDbEntity
  8
実形
 62
     0
370
    18
100
AcDbLine
 10
1277.012719908287
 20
1400.878239022008
 30
0.0
 11
1189.012719908287
 21
1400.878239022008
 31
0.0
  0
MTEXT
  5
A502
330
8F4F
100
AcDbEntity
  8
実形
 62
     0
100
AcDbMText
 10
1234.465132553673
 20
1421.936882086932
 30
0.0
 40
25.0
 41
0.0
 71
     5
 72
     1
  1
108
 73
     1
 44
1.0
1001
ACAD
1000
MTEXTBEGIN
1070
    73
1070
     1
1070
    44
1040
1.0
1070
    74
1070
     0
1000
MTEXTEND
  0
INSERT
  5
A503
330
8F4F
100
AcDbEntity
  8
実形
 62
     0
370
    18
100
AcDbBlockReference
  2
_Dot
 10
1287.012719908287
 20
1400.878239022008
 30
0.0
 41
10.0
 42
10.0
 43
10.0
  0
INSERT
  5
A504
330
8F4F
100
AcDbEntity
  8
実形
 62
     0
370
    18
100
AcDbBlockReference
  2
_Dot
 10
1179.012719908287
 20
1400.878239022008
 30
0.0
 41
10.0
 42
10.0
 43
10.0
 50
180.0
  0
POINT
  5
A505
330
8F4F
100
AcDbEntity
  8
Defpoints
 62
     0
100
AcDbPoint
 10
1287.012719908287
 20
1497.750033250692
 30
0.0
  0
POINT
  5
A506
330
8F4F
100
AcDbEntity
  8
Defpoints
 62
     0
100
AcDbPoint
 10
1179.012719908287
 20
1527.145337162554
 30
0.0
  0
POINT
  5
A507
330
8F4F
100
AcDbEntity
  8
Defpoints
 62
     0
100
AcDbPoint
 10
1179.012719908287
 20
1400.878239022008
 30
0.0
  0
ENDBLK
  5
8F5A
330
8F4F
100
AcDbEntity
  8
0
 62
     3
100
AcDbBlockEnd
  0
BLOCK
  5
90BE
330
90B4
100
AcDbEntity
  8
0
 62
     3
100
AcDbBlockBegin
  2
*D61
 70
     1
 10
0.0
 20
0.0
 30
0.0
  3
*D61
  1

  0
LINE
  5
A250
330
90B4
100
AcDbEntity
  8
実形
 62
     0
370
    18
100
AcDbLine
 10
2039.012719908287
 20
1683.547590588581
 30
0.0
 11
2089.025213028364
 21
1683.547590588581
 31
0.0
  0
LINE
  5
A251
330
90B4
100
AcDbEntity
  8
実形
 62
     0
370
    18
100
AcDbLine
 10
2039.012719908287
 20
1213.547590588581
 30
0.0
 11
2089.025213028364
 21
1213.547590588581
 31
0.0
  0
LINE
  5
A252
330
90B4
100
AcDbEntity
  8
実形
 62
     0
370
    18
100
AcDbLine
 10
2089.025213028364
 20
1673.547590588581
 30
0.0
 11
2089.025213028364
 21
1223.547590588581
 31
0.0
  0
INSERT
  5
A253
330
90B4
100
AcDbEntity
  8
実形
 62
     0
370
    18
100
AcDbBlockReference
  2
_Dot
 10
2089.025213028364
 20
1683.547590588581
 30
0.0
 41
10.0
 42
10.0
 43
10.0
 50
90.0
  0
INSERT
  5
A254
330
90B4
100
AcDbEntity
  8
実形
 62
     0
370
    18
100
AcDbBlockReference
  2
_Dot
 10
2089.025213028364
 20
1213.547590588581
 30
0.0
 41
10.0
 42
10.0
 43
10.0
 50
270.0
  0
MTEXT
  5
A255
330
90B4
100
AcDbEntity
  8
実形
 62
     0
100
AcDbMText
 10
2069.925213028363
 20
1448.547590588582
 30
0.0
 40
25.0
 41
0.0
 71
     5
 72
     1
  1
470
 11
0.0000000000000001
 21
1.0
 31
0.0
 73
     1
 44
1.0
1001
ACAD
1000
MTEXTBEGIN
1070
    73
1070
     1
1070
    44
1040
1.0
1070
    74
1070
     0
1000
MTEXTEND
  0
POINT
  5
A256
330
90B4
100
AcDbEntity
  8
Defpoints
 62
     0
100
AcDbPoint
 10
1974.012719908287
 20
1683.547590588581
 30
0.0
  0
POINT
  5
A257
330
90B4
100
AcDbEntity
  8
Defpoints
 62
     0
100
AcDbPoint
 10
1974.012719908287
 20
1213.547590588581
 30
0.0
  0
POINT
  5
A258
330
90B4
100
AcDbEntity
  8
Defpoints
 62
     0
100
AcDbPoint
 10
2089.025213028364
 20
1213.547590588581
 30
0.0
  0
ENDBLK
  5
90BF
330
90B4
100
AcDbEntity
  8
0
 62
     3
100
AcDbBlockEnd
  0
BLOCK
  5
90CB
330
90C1
100
AcDbEntity
  8
0
 62
     3
100
AcDbBlockBegin
  2
*D62
 70
     1
 10
0.0
 20
0.0
 30
0.0
  3
*D62
  1

  0
LINE
  5
A247
330
90C1
100
AcDbEntity
  8
実形
 62
     0
370
    18
100
AcDbLine
 10
2039.012719908287
 20
1703.547590588581
 30
0.0
 11
2089.025213028364
 21
1703.547590588581
 31
0.0
  0
LINE
  5
A248
330
90C1
100
AcDbEntity
  8
実形
 62
     0
370
    18
100
AcDbLine
 10
2039.012719908287
 20
1193.547590588581
 30
0.0
 11
2089.025213028364
 21
1193.547590588581
 31
0.0
  0
LINE
  5
A249
330
90C1
100
AcDbEntity
  8
実形
 62
     0
370
    18
100
AcDbLine
 10
2089.025213028364
 20
1693.547590588581
 30
0.0
 11
2089.025213028364
 21
1203.547590588582
 31
0.0
  0
MTEXT
  5
A24A
330
90C1
100
AcDbEntity
  8
実形
 62
     0
100
AcDbMText
 10
2013.971955341328
 20
1676.849929731101
 30
0.0
 40
25.0
 41
0.0
 71
     5
 72
     1
  1
20
 11
0.0000000000000001
 21
1.0
 31
0.0
 73
     1
 44
1.0
1001
ACAD
1000
MTEXTBEGIN
1070
    73
1070
     1
1070
    44
1040
1.0
1070
    74
1070
     0
1000
MTEXTEND
  0
INSERT
  5
A24B
330
90C1
100
AcDbEntity
  8
実形
 62
     0
370
    18
100
AcDbBlockReference
  2
_Dot
 10
2089.025213028364
 20
1703.547590588581
 30
0.0
 41
10.0
 42
10.0
 43
10.0
 50
90.0
  0
INSERT
  5
A24C
330
90C1
100
AcDbEntity
  8
実形
 62
     0
370
    18
100
AcDbBlockReference
  2
_Dot
 10
2089.025213028364
 20
1193.547590588581
 30
0.0
 41
10.0
 42
10.0
 43
10.0
 50
270.0
  0
POINT
  5
A24D
330
90C1
100
AcDbEntity
  8
Defpoints
 62
     0
100
AcDbPoint
 10
1974.012719908287
 20
1703.547590588581
 30
0.0
  0
POINT
  5
A24E
330
90C1
100
AcDbEntity
  8
Defpoints
 62
     0
100
AcDbPoint
 10
1974.012719908287
 20
1193.547590588581
 30
0.0
  0
POINT
  5
A24F
330
90C1
100
AcDbEntity
  8
Defpoints
 62
     0
100
AcDbPoint
 10
2089.025213028364
 20
1193.547590588581
 30
0.0
  0
ENDBLK
  5
90CC
330
90C1
100
AcDbEntity
  8
0
 62
     3
100
AcDbBlockEnd
  0
BLOCK
  5
9C6D
330
9C63
100
AcDbEntity
  8
0
 62
     3
100
AcDbBlockBegin
  2
*D63
 70
     1
 10
0.0
 20
0.0
 30
0.0
  3
*D63
  1

  0
LINE
  5
A8D9
330
9C63
100
AcDbEntity
  8
実形
 62
     0
370
    18
100
AcDbLine
 10
1216.225866962124
 20
1523.547590588582
 30
0.0
 11
1215.507018512535
 21
1523.547590588582
 31
0.0
  0
LINE
  5
A8DA
330
9C63
100
AcDbEntity
  8
実形
 62
     0
370
    18
100
AcDbLine
 10
1216.225866962125
 20
1613.547590588581
 30
0.0
 11
1215.507018512535
 21
1613.547590588581
 31
0.0
  0
LINE
  5
A8DB
330
9C63
100
AcDbEntity
  8
実形
 62
     0
370
    18
100
AcDbLine
 10
1215.507018512535
 20
1533.547590588582
 30
0.0
 11
1215.507018512535
 21
1603.547590588582
 31
0.0
  0
INSERT
  5
A8DC
330
9C63
100
AcDbEntity
  8
実形
 62
     0
370
    18
100
AcDbBlockReference
  2
_Dot
 10
1215.507018512535
 20
1523.547590588582
 30
0.0
 41
10.0
 42
10.0
 43
10.0
 50
270.0
  0
INSERT
  5
A8DD
330
9C63
100
AcDbEntity
  8
実形
 62
     0
370
    18
100
AcDbBlockReference
  2
_Dot
 10
1215.507018512535
 20
1613.547590588581
 30
0.0
 41
10.0
 42
10.0
 43
10.0
 50
90.0
  0
MTEXT
  5
A8DE
330
9C63
100
AcDbEntity
  8
実形
 62
     0
100
AcDbMText
 10
1196.407018512535
 20
1568.547590588582
 30
0.0
 40
25.0
 41
0.0
 71
     5
 72
     1
  1
90
 11
0.0000000000000001
 21
1.0
 31
0.0
 73
     1
 44
1.0
1001
ACAD
1000
MTEXTBEGIN
1070
    73
1070
     1
1070
    44
1040
1.0
1070
    74
1070
     0
1000
MTEXTEND
  0
POINT
  5
A8DF
330
9C63
100
AcDbEntity
  8
Defpoints
 62
     0
100
AcDbPoint
 10
1281.225866962124
 20
1523.547590588582
 30
0.0
  0
POINT
  5
A8E0
330
9C63
100
AcDbEntity
  8
Defpoints
 62
     0
100
AcDbPoint
 10
1281.225866962125
 20
1613.547590588581
 30
0.0
  0
POINT
  5
A8E1
330
9C63
100
AcDbEntity
  8
Defpoints
 62
     0
100
AcDbPoint
 10
1215.507018512535
 20
1613.547590588581
 30
0.0
  0
ENDBLK
  5
9C6E
330
9C63
100
AcDbEntity
  8
0
 62
     3
100
AcDbBlockEnd
  0
BLOCK
  5
9DEF
330
9DE5
100
AcDbEntity
  8
0
 62
     3
100
AcDbBlockBegin
  2
*D64
 70
     1
 10
0.0
 20
0.0
 30
0.0
  3
*D64
  1

  0
LINE
  5
A0E9
330
9DE5
100
AcDbEntity
  8
実形
 62
     0
370
    18
100
AcDbLine
 10
1485.012719908287
 20
410.6580729330507
 30
0.0
 11
1485.012719908287
 21
358.7414743971931
 31
0.0
  0
LINE
  5
A0EA
330
9DE5
100
AcDbEntity
  8
実形
 62
     0
370
    18
100
AcDbLine
 10
1645.012719908287
 20
410.6580729330507
 30
0.0
 11
1645.012719908287
 21
358.7414743971931
 31
0.0
  0
LINE
  5
A0EB
330
9DE5
100
AcDbEntity
  8
実形
 62
     0
370
    18
100
AcDbLine
 10
1495.012719908287
 20
358.7414743971931
 30
0.0
 11
1635.012719908287
 21
358.7414743971931
 31
0.0
  0
INSERT
  5
A0EC
330
9DE5
100
AcDbEntity
  8
実形
 62
     0
370
    18
100
AcDbBlockReference
  2
_Dot
 10
1485.012719908287
 20
358.7414743971931
 30
0.0
 41
10.0
 42
10.0
 43
10.0
 50
180.0
  0
INSERT
  5
A0ED
330
9DE5
100
AcDbEntity
  8
実形
 62
     0
370
    18
100
AcDbBlockReference
  2
_Dot
 10
1645.012719908287
 20
358.7414743971931
 30
0.0
 41
10.0
 42
10.0
 43
10.0
  0
MTEXT
  5
A0EE
330
9DE5
100
AcDbEntity
  8
実形
 62
     0
100
AcDbMText
 10
1565.012719908287
 20
377.8414743971931
 30
0.0
 40
25.0
 41
0.0
 71
     5
 72
     1
  1
160
 73
     1
 44
1.0
1001
ACAD
1000
MTEXTBEGIN
1070
    73
1070
     1
1070
    44
1040
1.0
1070
    74
1070
     0
1000
MTEXTEND
  0
POINT
  5
A0EF
330
9DE5
100
AcDbEntity
  8
Defpoints
 62
     0
100
AcDbPoint
 10
1485.012719908287
 20
475.6580729330506
 30
0.0
  0
POINT
  5
A0F0
330
9DE5
100
AcDbEntity
  8
Defpoints
 62
     0
100
AcDbPoint
 10
1645.012719908287
 20
475.6580729330506
 30
0.0
  0
POINT
  5
A0F1
330
9DE5
100
AcDbEntity
  8
Defpoints
 62
     0
100
AcDbPoint
 10
1645.012719908287
 20
358.7414743971931
 30
0.0
  0
ENDBLK
  5
9DF0
330
9DE5
100
AcDbEntity
  8
0
 62
     3
100
AcDbBlockEnd
  0
BLOCK
  5
9DFB
330
9DF1
100
AcDbEntity
  8
0
 62
     3
100
AcDbBlockBegin
  2
*D65
 70
     1
 10
0.0
 20
0.0
 30
0.0
  3
*D65
  1

  0
LINE
  5
A0F2
330
9DF1
100
AcDbEntity
  8
実形
 62
     0
370
    18
100
AcDbLine
 10
1474.512719908287
 20
410.6580729330508
 30
0.0
 11
1474.512719908287
 21
287.4991775819162
 31
0.0
  0
LINE
  5
A0F3
330
9DF1
100
AcDbEntity
  8
実形
 62
     0
370
    18
100
AcDbLine
 10
1655.512719908287
 20
410.6580729330464
 30
0.0
 11
1655.512719908287
 21
287.4991775819162
 31
0.0
  0
LINE
  5
A0F4
330
9DF1
100
AcDbEntity
  8
実形
 62
     0
370
    18
100
AcDbLine
 10
1484.512719908287
 20
287.4991775819162
 30
0.0
 11
1645.512719908287
 21
287.4991775819162
 31
0.0
  0
INSERT
  5
A0F5
330
9DF1
100
AcDbEntity
  8
実形
 62
     0
370
    18
100
AcDbBlockReference
  2
_Dot
 10
1474.512719908287
 20
287.4991775819162
 30
0.0
 41
10.0
 42
10.0
 43
10.0
 50
180.0
  0
INSERT
  5
A0F6
330
9DF1
100
AcDbEntity
  8
実形
 62
     0
370
    18
100
AcDbBlockReference
  2
_Dot
 10
1655.512719908287
 20
287.4991775819162
 30
0.0
 41
10.0
 42
10.0
 43
10.0
  0
MTEXT
  5
A0F7
330
9DF1
100
AcDbEntity
  8
実形
 62
     0
100
AcDbMText
 10
1565.012719908287
 20
306.5991775819163
 30
0.0
 40
25.0
 41
0.0
 71
     5
 72
     1
  1
181
 73
     1
 44
1.0
1001
ACAD
1000
MTEXTBEGIN
1070
    73
1070
     1
1070
    44
1040
1.0
1070
    74
1070
     0
1000
MTEXTEND
  0
POINT
  5
A0F8
330
9DF1
100
AcDbEntity
  8
Defpoints
 62
     0
100
AcDbPoint
 10
1474.512719908287
 20
475.6580729330507
 30
0.0
  0
POINT
  5
A0F9
330
9DF1
100
AcDbEntity
  8
Defpoints
 62
     0
100
AcDbPoint
 10
1655.512719908287
 20
475.6580729330464
 30
0.0
  0
POINT
  5
A0FA
330
9DF1
100
AcDbEntity
  8
Defpoints
 62
     0
100
AcDbPoint
 10
1655.512719908287
 20
287.4991775819162
 30
0.0
  0
ENDBLK
  5
9DFC
330
9DF1
100
AcDbEntity
  8
0
 62
     3
100
AcDbBlockEnd
  0
BLOCK
  5
9E07
330
9DFD
100
AcDbEntity
  8
0
 62
     3
100
AcDbBlockBegin
  2
*D66
 70
     1
 10
0.0
 20
0.0
 30
0.0
  3
*D66
  1

  0
LINE
  5
A918
330
9DFD
100
AcDbEntity
  8
実形
 62
     0
370
    18
100
AcDbLine
 10
1240.012719908287
 20
410.6580729330508
 30
0.0
 11
1240.012719908287
 21
358.7414743971931
 31
0.0
  0
LINE
  5
A919
330
9DFD
100
AcDbEntity
  8
実形
 62
     0
370
    18
100
AcDbLine
 10
1334.012719908287
 20
410.6580729330508
 30
0.0
 11
1334.012719908287
 21
358.7414743971931
 31
0.0
  0
LINE
  5
A91A
330
9DFD
100
AcDbEntity
  8
実形
 62
     0
370
    18
100
AcDbLine
 10
1250.012719908287
 20
358.7414743971931
 30
0.0
 11
1324.012719908287
 21
358.7414743971931
 31
0.0
  0
INSERT
  5
A91B
330
9DFD
100
AcDbEntity
  8
実形
 62
     0
370
    18
100
AcDbBlockReference
  2
_Dot
 10
1240.012719908287
 20
358.7414743971931
 30
0.0
 41
10.0
 42
10.0
 43
10.0
 50
180.0
  0
INSERT
  5
A91C
330
9DFD
100
AcDbEntity
  8
実形
 62
     0
370
    18
100
AcDbBlockReference
  2
_Dot
 10
1334.012719908287
 20
358.7414743971931
 30
0.0
 41
10.0
 42
10.0
 43
10.0
  0
MTEXT
  5
A91D
330
9DFD
100
AcDbEntity
  8
実形
 62
     0
100
AcDbMText
 10
1287.012719908287
 20
377.8414743971931
 30
0.0
 40
25.0
 41
0.0
 71
     5
 72
     1
  1
94
 73
     1
 44
1.0
1001
ACAD
1000
MTEXTBEGIN
1070
    73
1070
     1
1070
    44
1040
1.0
1070
    74
1070
     0
1000
MTEXTEND
  0
POINT
  5
A91E
330
9DFD
100
AcDbEntity
  8
Defpoints
 62
     0
100
AcDbPoint
 10
1240.012719908287
 20
475.6580729330508
 30
0.0
  0
POINT
  5
A91F
330
9DFD
100
AcDbEntity
  8
Defpoints
 62
     0
100
AcDbPoint
 10
1334.012719908287
 20
475.6580729330508
 30
0.0
  0
POINT
  5
A920
330
9DFD
100
AcDbEntity
  8
Defpoints
 62
     0
100
AcDbPoint
 10
1334.012719908287
 20
358.7414743971931
 30
0.0
  0
ENDBLK
  5
9E08
330
9DFD
100
AcDbEntity
  8
0
 62
     3
100
AcDbBlockEnd
  0
BLOCK
  5
9E13
330
9E09
100
AcDbEntity
  8
0
 62
     3
100
AcDbBlockBegin
  2
*D67
 70
     1
 10
0.0
 20
0.0
 30
0.0
  3
*D67
  1

  0
LINE
  5
A92D
330
9E09
100
AcDbEntity
  8
実形
 62
     0
370
    18
100
AcDbLine
 10
1229.512719908287
 20
410.6580729330508
 30
0.0
 11
1229.512719908287
 21
287.4991775819162
 31
0.0
  0
LINE
  5
A92E
330
9E09
100
AcDbEntity
  8
実形
 62
     0
370
    18
100
AcDbLine
 10
1344.512719908286
 20
410.6580729330465
 30
0.0
 11
1344.512719908286
 21
287.4991775819162
 31
0.0
  0
LINE
  5
A92F
330
9E09
100
AcDbEntity
  8
実形
 62
     0
370
    18
100
AcDbLine
 10
1239.512719908287
 20
287.4991775819162
 30
0.0
 11
1334.512719908286
 21
287.4991775819162
 31
0.0
  0
INSERT
  5
A930
330
9E09
100
AcDbEntity
  8
実形
 62
     0
370
    18
100
AcDbBlockReference
  2
_Dot
 10
1229.512719908287
 20
287.4991775819162
 30
0.0
 41
10.0
 42
10.0
 43
10.0
 50
180.0
  0
INSERT
  5
A931
330
9E09
100
AcDbEntity
  8
実形
 62
     0
370
    18
100
AcDbBlockReference
  2
_Dot
 10
1344.512719908286
 20
287.4991775819162
 30
0.0
 41
10.0
 42
10.0
 43
10.0
  0
MTEXT
  5
A932
330
9E09
100
AcDbEntity
  8
実形
 62
     0
100
AcDbMText
 10
1287.012719908287
 20
306.5991775819163
 30
0.0
 40
25.0
 41
0.0
 71
     5
 72
     1
  1
115
 73
     1
 44
1.0
1001
ACAD
1000
MTEXTBEGIN
1070
    73
1070
     1
1070
    44
1040
1.0
1070
    74
1070
     0
1000
MTEXTEND
  0
POINT
  5
A933
330
9E09
100
AcDbEntity
  8
Defpoints
 62
     0
100
AcDbPoint
 10
1229.512719908287
 20
475.6580729330507
 30
0.0
  0
POINT
  5
A934
330
9E09
100
AcDbEntity
  8
Defpoints
 62
     0
100
AcDbPoint
 10
1344.512719908286
 20
475.6580729330465
 30
0.0
  0
POINT
  5
A935
330
9E09
100
AcDbEntity
  8
Defpoints
 62
     0
100
AcDbPoint
 10
1344.512719908286
 20
287.4991775819162
 30
0.0
  0
ENDBLK
  5
9E14
330
9E09
100
AcDbEntity
  8
0
 62
     3
100
AcDbBlockEnd
  0
BLOCK
  5
9E1F
330
9E15
100
AcDbEntity
  8
0
 62
     3
100
AcDbBlockBegin
  2
*D68
 70
     1
 10
0.0
 20
0.0
 30
0.0
  3
*D68
  1

  0
LINE
  5
A10D
330
9E15
100
AcDbEntity
  8
実形
 62
     0
370
    18
100
AcDbLine
 10
2015.129022533027
 20
690.6580729330508
 30
0.0
 11
2074.385782371479
 21
690.6580729330508
 31
0.0
  0
LINE
  5
A10E
330
9E15
100
AcDbEntity
  8
実形
 62
     0
370
    18
100
AcDbLine
 10
2015.129022533027
 20
500.6580729330507
 30
0.0
 11
2074.385782371479
 21
500.6580729330507
 31
0.0
  0
LINE
  5
A10F
330
9E15
100
AcDbEntity
  8
実形
 62
     0
370
    18
100
AcDbLine
 10
2074.385782371479
 20
680.6580729330509
 30
0.0
 11
2074.385782371479
 21
510.6580729330508
 31
0.0
  0
MTEXT
  5
A110
330
9E15
100
AcDbEntity
  8
実形
 62
     0
100
AcDbMText
 10
2052.785782371479
 20
720.1632090721932
 30
0.0
 40
25.0
 41
0.0
 71
     5
 72
     1
  1
15
 11
0.0000000000000001
 21
1.0
 31
0.0
 73
     1
 44
1.0
1001
ACAD
1000
MTEXTBEGIN
1070
    73
1070
     1
1070
    44
1040
1.0
1070
    74
1070
     0
1000
MTEXTEND
  0
INSERT
  5
A111
330
9E15
100
AcDbEntity
  8
実形
 62
     0
370
    18
100
AcDbBlockReference
  2
_Dot
 10
2074.385782371479
 20
690.6580729330508
 30
0.0
 41
10.0
 42
10.0
 43
10.0
 50
90.0
  0
INSERT
  5
A112
330
9E15
100
AcDbEntity
  8
実形
 62
     0
370
    18
100
AcDbBlockReference
  2
_Dot
 10
2074.385782371479
 20
500.6580729330507
 30
0.0
 41
10.0
 42
10.0
 43
10.0
 50
270.0
  0
POINT
  5
A113
330
9E15
100
AcDbEntity
  8
Defpoints
 62
     0
100
AcDbPoint
 10
1950.129022533027
 20
690.6580729330508
 30
0.0
  0
POINT
  5
A114
330
9E15
100
AcDbEntity
  8
Defpoints
 62
     0
100
AcDbPoint
 10
1950.129022533027
 20
500.6580729330507
 30
0.0
  0
POINT
  5
A115
330
9E15
100
AcDbEntity
  8
Defpoints
 62
     0
100
AcDbPoint
 10
2074.385782371479
 20
500.6580729330507
 30
0.0
  0
ENDBLK
  5
9E20
330
9E15
100
AcDbEntity
  8
0
 62
     3
100
AcDbBlockEnd
  0
BLOCK
  5
9E2B
330
9E21
100
AcDbEntity
  8
0
 62
     3
100
AcDbBlockBegin
  2
*D69
 70
     1
 10
0.0
 20
0.0
 30
0.0
  3
*D69
  1

  0
LINE
  5
A116
330
9E21
100
AcDbEntity
  8
実形
 62
     0
370
    18
100
AcDbLine
 10
2015.129022533027
 20
675.6580729330508
 30
0.0
 11
2074.385782371479
 21
675.6580729330508
 31
0.0
  0
LINE
  5
A117
330
9E21
100
AcDbEntity
  8
実形
 62
     0
370
    18
100
AcDbLine
 10
2015.129022533027
 20
500.6580729330507
 30
0.0
 11
2074.385782371479
 21
500.6580729330507
 31
0.0
  0
LINE
  5
A118
330
9E21
100
AcDbEntity
  8
実形
 62
     0
370
    18
100
AcDbLine
 10
2074.385782371479
 20
665.6580729330507
 30
0.0
 11
2074.385782371479
 21
510.6580729330508
 31
0.0
  0
INSERT
  5
A119
330
9E21
100
AcDbEntity
  8
実形
 62
     0
370
    18
100
AcDbBlockReference
  2
_Dot
 10
2074.385782371479
 20
675.6580729330508
 30
0.0
 41
10.0
 42
10.0
 43
10.0
 50
90.0
  0
INSERT
  5
A11A
330
9E21
100
AcDbEntity
  8
実形
 62
     0
370
    18
100
AcDbBlockReference
  2
_Dot
 10
2074.385782371479
 20
500.6580729330507
 30
0.0
 41
10.0
 42
10.0
 43
10.0
 50
270.0
  0
MTEXT
  5
A11B
330
9E21
100
AcDbEntity
  8
実形
 62
     0
100
AcDbMText
 10
2055.285782371479
 20
588.1580729330511
 30
0.0
 40
25.0
 41
0.0
 71
     5
 72
     1
  1
175
 11
0.0000000000000001
 21
1.0
 31
0.0
 73
     1
 44
1.0
1001
ACAD
1000
MTEXTBEGIN
1070
    73
1070
     1
1070
    44
1040
1.0
1070
    74
1070
     0
1000
MTEXTEND
  0
POINT
  5
A11C
330
9E21
100
AcDbEntity
  8
Defpoints
 62
     0
100
AcDbPoint
 10
1950.129022533027
 20
675.6580729330508
 30
0.0
  0
POINT
  5
A11D
330
9E21
100
AcDbEntity
  8
Defpoints
 62
     0
100
AcDbPoint
 10
1950.129022533027
 20
500.6580729330507
 30
0.0
  0
POINT
  5
A11E
330
9E21
100
AcDbEntity
  8
Defpoints
 62
     0
100
AcDbPoint
 10
2074.385782371479
 20
500.6580729330507
 30
0.0
  0
ENDBLK
  5
9E2C
330
9E21
100
AcDbEntity
  8
0
 62
     3
100
AcDbBlockEnd
  0
BLOCK
  5
9E37
330
9E2D
100
AcDbEntity
  8
0
 62
     3
100
AcDbBlockBegin
  2
*D70
 70
     1
 10
0.0
 20
0.0
 30
0.0
  3
*D70
  1

  0
LINE
  5
A11F
330
9E2D
100
AcDbEntity
  8
実形
 62
     0
370
    18
100
AcDbLine
 10
2080.129022533027
 20
690.6580729330508
 30
0.0
 11
2137.558722962149
 21
690.6580729330508
 31
0.0
  0
LINE
  5
A120
330
9E2D
100
AcDbEntity
  8
実形
 62
     0
370
    18
100
AcDbLine
 10
2080.129022533027
 20
500.6580729330507
 30
0.0
 11
2137.558722962149
 21
500.6580729330507
 31
0.0
  0
LINE
  5
A121
330
9E2D
100
AcDbEntity
  8
実形
 62
     0
370
    18
100
AcDbLine
 10
2137.558722962149
 20
680.6580729330509
 30
0.0
 11
2137.558722962149
 21
510.6580729330508
 31
0.0
  0
MTEXT
  5
A122
330
9E2D
100
AcDbEntity
  8
実形
 62
     0
100
AcDbMText
 10
2115.958722962149
 20
586.7417301816194
 30
0.0
 40
25.0
 41
0.0
 71
     5
 72
     1
  1
190
 11
0.0000000000000001
 21
1.0
 31
0.0
 73
     1
 44
1.0
1001
ACAD
1000
MTEXTBEGIN
1070
    73
1070
     1
1070
    44
1040
1.0
1070
    74
1070
     0
1000
MTEXTEND
  0
INSERT
  5
A123
330
9E2D
100
AcDbEntity
  8
実形
 62
     0
370
    18
100
AcDbBlockReference
  2
_Dot
 10
2137.558722962149
 20
690.6580729330508
 30
0.0
 41
10.0
 42
10.0
 43
10.0
 50
90.0
  0
INSERT
  5
A124
330
9E2D
100
AcDbEntity
  8
実形
 62
     0
370
    18
100
AcDbBlockReference
  2
_Dot
 10
2137.558722962149
 20
500.6580729330507
 30
0.0
 41
10.0
 42
10.0
 43
10.0
 50
270.0
  0
POINT
  5
A125
330
9E2D
100
AcDbEntity
  8
Defpoints
 62
     0
100
AcDbPoint
 10
2015.129022533027
 20
690.6580729330508
 30
0.0
  0
POINT
  5
A126
330
9E2D
100
AcDbEntity
  8
Defpoints
 62
     0
100
AcDbPoint
 10
2015.129022533027
 20
500.6580729330507
 30
0.0
  0
POINT
  5
A127
330
9E2D
100
AcDbEntity
  8
Defpoints
 62
     0
100
AcDbPoint
 10
2137.558722962149
 20
500.6580729330507
 30
0.0
  0
ENDBLK
  5
9E38
330
9E2D
100
AcDbEntity
  8
0
 62
     3
100
AcDbBlockEnd
  0
BLOCK
  5
9E43
330
9E39
100
AcDbEntity
  8
0
 62
     3
100
AcDbBlockBegin
  2
*D71
 70
     1
 10
0.0
 20
0.0
 30
0.0
  3
*D71
  1

  0
LINE
  5
A128
330
9E39
100
AcDbEntity
  8
実形
 62
     0
370
    18
100
AcDbLine
 10
2016.378199009661
 20
485.6580729330508
 30
0.0
 11
2137.558722962149
 21
485.6580729330508
 31
0.0
  0
LINE
  5
A129
330
9E39
100
AcDbEntity
  8
実形
 62
     0
370
    18
100
AcDbLine
 10
2015.129022533027
 20
690.6580729330508
 30
0.0
 11
2137.558722962149
 21
690.6580729330508
 31
0.0
  0
LINE
  5
A12A
330
9E39
100
AcDbEntity
  8
実形
 62
     0
370
    18
100
AcDbLine
 10
2137.558722962149
 20
495.6580729330507
 30
0.0
 11
2137.558722962149
 21
680.6580729330509
 31
0.0
  0
MTEXT
  5
A12B
330
9E39
100
AcDbEntity
  8
実形
 62
     0
100
AcDbMText
 10
2115.958722962149
 20
457.7260959155455
 30
0.0
 40
25.0
 41
0.0
 71
     5
 72
     1
  1
15
 11
0.0000000000000001
 21
1.0
 31
0.0
 73
     1
 44
1.0
1001
ACAD
1000
MTEXTBEGIN
1070
    73
1070
     1
1070
    44
1040
1.0
1070
    74
1070
     0
1000
MTEXTEND
  0
INSERT
  5
A12C
330
9E39
100
AcDbEntity
  8
実形
 62
     0
370
    18
100
AcDbBlockReference
  2
_Dot
 10
2137.558722962149
 20
485.6580729330508
 30
0.0
 41
10.0
 42
10.0
 43
10.0
 50
270.0
  0
INSERT
  5
A12D
330
9E39
100
AcDbEntity
  8
実形
 62
     0
370
    18
100
AcDbBlockReference
  2
_Dot
 10
2137.558722962149
 20
690.6580729330508
 30
0.0
 41
10.0
 42
10.0
 43
10.0
 50
90.0
  0
POINT
  5
A12E
330
9E39
100
AcDbEntity
  8
Defpoints
 62
     0
100
AcDbPoint
 10
1951.378199009661
 20
485.6580729330508
 30
0.0
  0
POINT
  5
A12F
330
9E39
100
AcDbEntity
  8
Defpoints
 62
     0
100
AcDbPoint
 10
1950.129022533027
 20
690.6580729330508
 30
0.0
  0
POINT
  5
A130
330
9E39
100
AcDbEntity
  8
Defpoints
 62
     0
100
AcDbPoint
 10
2137.558722962149
 20
690.6580729330508
 30
0.0
  0
ENDBLK
  5
9E44
330
9E39
100
AcDbEntity
  8
0
 62
     3
100
AcDbBlockEnd
  0
BLOCK
  5
9E4F
330
9E45
100
AcDbEntity
  8
0
 62
     3
100
AcDbBlockBegin
  2
*D72
 70
     1
 10
0.0
 20
0.0
 30
0.0
  3
*D72
  1

  0
LINE
  5
A131
330
9E45
100
AcDbEntity
  8
実形
 62
     0
370
    18
100
AcDbLine
 10
2139.385782371479
 20
690.6580729330508
 30
0.0
 11
2197.900402424442
 21
690.6580729330508
 31
0.0
  0
LINE
  5
A132
330
9E45
100
AcDbEntity
  8
実形
 62
     0
370
    18
100
AcDbLine
 10
2139.385782371479
 20
485.6580729330508
 30
0.0
 11
2197.900402424442
 21
485.6580729330507
 31
0.0
  0
LINE
  5
A133
330
9E45
100
AcDbEntity
  8
実形
 62
     0
370
    18
100
AcDbLine
 10
2197.900402424442
 20
680.6580729330509
 30
0.0
 11
2197.900402424442
 21
495.6580729330507
 31
0.0
  0
INSERT
  5
A134
330
9E45
100
AcDbEntity
  8
実形
 62
     0
370
    18
100
AcDbBlockReference
  2
_Dot
 10
2197.900402424442
 20
690.6580729330508
 30
0.0
 41
10.0
 42
10.0
 43
10.0
 50
90.0
  0
INSERT
  5
A135
330
9E45
100
AcDbEntity
  8
実形
 62
     0
370
    18
100
AcDbBlockReference
  2
_Dot
 10
2197.900402424442
 20
485.6580729330507
 30
0.0
 41
10.0
 42
10.0
 43
10.0
 50
270.0
  0
MTEXT
  5
A136
330
9E45
100
AcDbEntity
  8
実形
 62
     0
100
AcDbMText
 10
2178.800402424442
 20
588.1580729330511
 30
0.0
 40
25.0
 41
0.0
 71
     5
 72
     1
  1
205
 11
0.0000000000000001
 21
1.0
 31
0.0
 73
     1
 44
1.0
1001
ACAD
1000
MTEXTBEGIN
1070
    73
1070
     1
1070
    44
1040
1.0
1070
    74
1070
     0
1000
MTEXTEND
  0
POINT
  5
A137
330
9E45
100
AcDbEntity
  8
Defpoints
 62
     0
100
AcDbPoint
 10
2074.385782371479
 20
690.6580729330508
 30
0.0
  0
POINT
  5
A138
330
9E45
100
AcDbEntity
  8
Defpoints
 62
     0
100
AcDbPoint
 10
2074.385782371479
 20
485.6580729330508
 30
0.0
  0
POINT
  5
A139
330
9E45
100
AcDbEntity
  8
Defpoints
 62
     0
100
AcDbPoint
 10
2197.900402424442
 20
485.6580729330507
 30
0.0
  0
ENDBLK
  5
9E50
330
9E45
100
AcDbEntity
  8
0
 62
     3
100
AcDbBlockEnd
  0
BLOCK
  5
9E5B
330
9E51
100
AcDbEntity
  8
0
 62
     3
100
AcDbBlockBegin
  2
*D73
 70
     1
 10
0.0
 20
0.0
 30
0.0
  3
*D73
  1

  0
LINE
  5
A13A
330
9E51
100
AcDbEntity
  8
実形
 62
     0
370
    18
100
AcDbLine
 10
2144.467706929343
 20
475.6580729330507
 30
0.0
 11
2197.900402424442
 21
475.6580729330507
 31
0.0
  0
LINE
  5
A13B
330
9E51
100
AcDbEntity
  8
実形
 62
     0
370
    18
100
AcDbLine
 10
2139.385782371479
 20
690.6580729330508
 30
0.0
 11
2197.900402424442
 21
690.6580729330508
 31
0.0
  0
LINE
  5
A13C
330
9E51
100
AcDbEntity
  8
実形
 62
     0
370
    18
100
AcDbLine
 10
2197.900402424442
 20
485.6580729330507
 30
0.0
 11
2197.900402424442
 21
680.6580729330509
 31
0.0
  0
MTEXT
  5
A13D
330
9E51
100
AcDbEntity
  8
実形
 62
     0
100
AcDbMText
 10
2176.300402424443
 20
455.1916950291788
 30
0.0
 40
25.0
 41
0.0
 71
     5
 72
     1
  1
8
 11
0.0000000000000001
 21
1.0
 31
0.0
 73
     1
 44
1.0
1001
ACAD
1000
MTEXTBEGIN
1070
    73
1070
     1
1070
    44
1040
1.0
1070
    74
1070
     0
1000
MTEXTEND
  0
INSERT
  5
A13E
330
9E51
100
AcDbEntity
  8
実形
 62
     0
370
    18
100
AcDbBlockReference
  2
_Dot
 10
2197.900402424442
 20
475.6580729330507
 30
0.0
 41
10.0
 42
10.0
 43
10.0
 50
270.0
  0
INSERT
  5
A13F
330
9E51
100
AcDbEntity
  8
実形
 62
     0
370
    18
100
AcDbBlockReference
  2
_Dot
 10
2197.900402424442
 20
690.6580729330508
 30
0.0
 41
10.0
 42
10.0
 43
10.0
 50
90.0
  0
POINT
  5
A140
330
9E51
100
AcDbEntity
  8
Defpoints
 62
     0
100
AcDbPoint
 10
2079.467706929343
 20
475.6580729330507
 30
0.0
  0
POINT
  5
A141
330
9E51
100
AcDbEntity
  8
Defpoints
 62
     0
100
AcDbPoint
 10
2074.385782371479
 20
690.6580729330508
 30
0.0
  0
POINT
  5
A142
330
9E51
100
AcDbEntity
  8
Defpoints
 62
     0
100
AcDbPoint
 10
2197.900402424442
 20
690.6580729330508
 30
0.0
  0
ENDBLK
  5
9E5C
330
9E51
100
AcDbEntity
  8
0
 62
     3
100
AcDbBlockEnd
  0
BLOCK
  5
9E67
330
9E5D
100
AcDbEntity
  8
0
 62
     3
100
AcDbBlockBegin
  2
*D74
 70
     1
 10
0.0
 20
0.0
 30
0.0
  3
*D74
  1

  0
LINE
  5
A143
330
9E5D
100
AcDbEntity
  8
実形
 62
     0
370
    18
100
AcDbLine
 10
2202.558722962149
 20
690.6580729330508
 30
0.0
 11
2264.354787312608
 21
690.6580729330508
 31
0.0
  0
LINE
  5
A144
330
9E5D
100
AcDbEntity
  8
実形
 62
     0
370
    18
100
AcDbLine
 10
2192.26669926033
 20
475.6580729330507
 30
0.0
 11
2264.354787312608
 21
475.6580729330507
 31
0.0
  0
LINE
  5
A145
330
9E5D
100
AcDbEntity
  8
実形
 62
     0
370
    18
100
AcDbLine
 10
2264.354787312608
 20
680.6580729330509
 30
0.0
 11
2264.354787312608
 21
485.6580729330507
 31
0.0
  0
MTEXT
  5
A146
330
9E5D
100
AcDbEntity
  8
実形
 62
     0
100
AcDbMText
 10
2242.754787312608
 20
589.371334171702
 30
0.0
 40
25.0
 41
0.0
 71
     5
 72
     1
  1
213
 11
0.0000000000000001
 21
1.0
 31
0.0
 73
     1
 44
1.0
1001
ACAD
1000
MTEXTBEGIN
1070
    73
1070
     1
1070
    44
1040
1.0
1070
    74
1070
     0
1000
MTEXTEND
  0
INSERT
  5
A147
330
9E5D
100
AcDbEntity
  8
実形
 62
     0
370
    18
100
AcDbBlockReference
  2
_Dot
 10
2264.354787312608
 20
690.6580729330508
 30
0.0
 41
10.0
 42
10.0
 43
10.0
 50
90.0
  0
INSERT
  5
A148
330
9E5D
100
AcDbEntity
  8
実形
 62
     0
370
    18
100
AcDbBlockReference
  2
_Dot
 10
2264.354787312608
 20
475.6580729330507
 30
0.0
 41
10.0
 42
10.0
 43
10.0
 50
270.0
  0
POINT
  5
A149
330
9E5D
100
AcDbEntity
  8
Defpoints
 62
     0
100
AcDbPoint
 10
2137.558722962149
 20
690.6580729330508
 30
0.0
  0
POINT
  5
A14A
330
9E5D
100
AcDbEntity
  8
Defpoints
 62
     0
100
AcDbPoint
 10
2127.26669926033
 20
475.6580729330507
 30
0.0
  0
POINT
  5
A14B
330
9E5D
100
AcDbEntity
  8
Defpoints
 62
     0
100
AcDbPoint
 10
2264.354787312608
 20
475.6580729330507
 30
0.0
  0
ENDBLK
  5
9E68
330
9E5D
100
AcDbEntity
  8
0
 62
     3
100
AcDbBlockEnd
  0
BLOCK
  5
9E73
330
9E69
100
AcDbEntity
  8
0
 62
     3
100
AcDbBlockBegin
  2
*D75
 70
     1
 10
0.0
 20
0.0
 30
0.0
  3
*D75
  1

  0
LINE
  5
A14C
330
9E69
100
AcDbEntity
  8
実形
 62
     0
370
    18
100
AcDbLine
 10
1106.730678802936
 20
690.6580729330507
 30
0.0
 11
1053.11021934225
 21
690.6580729330507
 31
0.0
  0
LINE
  5
A14D
330
9E69
100
AcDbEntity
  8
実形
 62
     0
370
    18
100
AcDbLine
 10
1106.730678802936
 20
498.3376179868074
 30
0.0
 11
1053.11021934225
 21
498.3376179868074
 31
0.0
  0
LINE
  5
A14E
330
9E69
100
AcDbEntity
  8
実形
 62
     0
370
    18
100
AcDbLine
 10
1053.11021934225
 20
680.6580729330508
 30
0.0
 11
1053.11021934225
 21
508.3376179868075
 31
0.0
  0
MTEXT
  5
A14F
330
9E69
100
AcDbEntity
  8
実形
 62
     0
100
AcDbMText
 10
1031.848702691952
 20
580.9427096768804
 30
0.0
 40
25.0
 41
0.0
 71
     5
 72
     1
  1
180
 11
0.0000000000000001
 21
1.0
 31
0.0
 73
     1
 44
1.0
1001
ACAD
1000
MTEXTBEGIN
1070
    73
1070
     1
1070
    44
1040
1.0
1070
    74
1070
     0
1000
MTEXTEND
  0
INSERT
  5
A150
330
9E69
100
AcDbEntity
  8
実形
 62
     0
370
    18
100
AcDbBlockReference
  2
_Dot
 10
1053.11021934225
 20
690.6580729330507
 30
0.0
 41
10.0
 42
10.0
 43
10.0
 50
90.0
  0
INSERT
  5
A151
330
9E69
100
AcDbEntity
  8
実形
 62
     0
370
    18
100
AcDbBlockReference
  2
_Dot
 10
1053.11021934225
 20
498.3376179868074
 30
0.0
 41
10.0
 42
10.0
 43
10.0
 50
270.0
  0
POINT
  5
A152
330
9E69
100
AcDbEntity
  8
Defpoints
 62
     0
100
AcDbPoint
 10
1171.730678802936
 20
690.6580729330507
 30
0.0
  0
POINT
  5
A153
330
9E69
100
AcDbEntity
  8
Defpoints
 62
     0
100
AcDbPoint
 10
1171.730678802936
 20
498.3376179868074
 30
0.0
  0
POINT
  5
A154
330
9E69
100
AcDbEntity
  8
Defpoints
 62
     0
100
AcDbPoint
 10
1053.11021934225
 20
498.3376179868074
 30
0.0
  0
ENDBLK
  5
9E74
330
9E69
100
AcDbEntity
  8
0
 62
     3
100
AcDbBlockEnd
  0
BLOCK
  5
9E7F
330
9E75
100
AcDbEntity
  8
0
 62
     3
100
AcDbBlockBegin
  2
*D76
 70
     1
 10
0.0
 20
0.0
 30
0.0
  3
*D76
  1

  0
LINE
  5
A155
330
9E75
100
AcDbEntity
  8
実形
 62
     0
370
    18
100
AcDbLine
 10
1106.730678802936
 20
675.6580729330508
 30
0.0
 11
1053.11021934225
 21
675.6580729330508
 31
0.0
  0
LINE
  5
A156
330
9E75
100
AcDbEntity
  8
実形
 62
     0
370
    18
100
AcDbLine
 10
1106.730678802936
 20
498.3376179868074
 30
0.0
 11
1053.11021934225
 21
498.3376179868074
 31
0.0
  0
LINE
  5
A157
330
9E75
100
AcDbEntity
  8
実形
 62
     0
370
    18
100
AcDbLine
 10
1053.11021934225
 20
665.6580729330507
 30
0.0
 11
1053.11021934225
 21
508.3376179868075
 31
0.0
  0
MTEXT
  5
A158
330
9E75
100
AcDbEntity
  8
実形
 62
     0
100
AcDbMText
 10
1031.51021934225
 20
666.3200891597071
 30
0.0
 40
25.0
 41
0.0
 71
     5
 72
     1
  1
15
 11
0.0000000000000001
 21
1.0
 31
0.0
 73
     1
 44
1.0
1001
ACAD
1000
MTEXTBEGIN
1070
    73
1070
     1
1070
    44
1040
1.0
1070
    74
1070
     0
1000
MTEXTEND
  0
INSERT
  5
A159
330
9E75
100
AcDbEntity
  8
実形
 62
     0
370
    18
100
AcDbBlockReference
  2
_Dot
 10
1053.11021934225
 20
675.6580729330508
 30
0.0
 41
10.0
 42
10.0
 43
10.0
 50
90.0
  0
INSERT
  5
A15A
330
9E75
100
AcDbEntity
  8
実形
 62
     0
370
    18
100
AcDbBlockReference
  2
_Dot
 10
1053.11021934225
 20
498.3376179868074
 30
0.0
 41
10.0
 42
10.0
 43
10.0
 50
270.0
  0
POINT
  5
A15B
330
9E75
100
AcDbEntity
  8
Defpoints
 62
     0
100
AcDbPoint
 10
1171.730678802936
 20
675.6580729330508
 30
0.0
  0
POINT
  5
A15C
330
9E75
100
AcDbEntity
  8
Defpoints
 62
     0
100
AcDbPoint
 10
1171.730678802936
 20
498.3376179868074
 30
0.0
  0
POINT
  5
A15D
330
9E75
100
AcDbEntity
  8
Defpoints
 62
     0
100
AcDbPoint
 10
1053.11021934225
 20
498.3376179868074
 30
0.0
  0
ENDBLK
  5
9E80
330
9E75
100
AcDbEntity
  8
0
 62
     3
100
AcDbBlockEnd
  0
BLOCK
  5
9E8B
330
9E81
100
AcDbEntity
  8
0
 62
     3
100
AcDbBlockBegin
  2
*D77
 70
     1
 10
0.0
 20
0.0
 30
0.0
  3
*D77
  1

  0
LINE
  5
A15E
330
9E81
100
AcDbEntity
  8
実形
 62
     0
370
    18
100
AcDbLine
 10
1053.074532693785
 20
690.6580729330507
 30
0.0
 11
988.4093469227389
 21
690.6580729330507
 31
0.0
  0
LINE
  5
A15F
330
9E81
100
AcDbEntity
  8
実形
 62
     0
370
    18
100
AcDbLine
 10
1052.467848641634
 20
498.3376179868074
 30
0.0
 11
988.4093469227389
 21
498.3376179868074
 31
0.0
  0
LINE
  5
A160
330
9E81
100
AcDbEntity
  8
実形
 62
     0
370
    18
100
AcDbLine
 10
988.4093469227389
 20
680.6580729330508
 30
0.0
 11
988.4093469227389
 21
508.3376179868074
 31
0.0
  0
MTEXT
  5
A161
330
9E81
100
AcDbEntity
  8
実形
 62
     0
100
AcDbMText
 10
967.9088541951569
 20
580.9427096768804
 30
0.0
 40
25.0
 41
0.0
 71
     5
 72
     1
  1
195
 11
0.0000000000000001
 21
1.0
 31
0.0
 73
     1
 44
1.0
1001
ACAD
1000
MTEXTBEGIN
1070
    73
1070
     1
1070
    44
1040
1.0
1070
    74
1070
     0
1000
MTEXTEND
  0
INSERT
  5
A162
330
9E81
100
AcDbEntity
  8
実形
 62
     0
370
    18
100
AcDbBlockReference
  2
_Dot
 10
988.4093469227389
 20
690.6580729330507
 30
0.0
 41
10.0
 42
10.0
 43
10.0
 50
90.0
  0
INSERT
  5
A163
330
9E81
100
AcDbEntity
  8
実形
 62
     0
370
    18
100
AcDbBlockReference
  2
_Dot
 10
988.4093469227389
 20
498.3376179868074
 30
0.0
 41
10.0
 42
10.0
 43
10.0
 50
270.0
  0
POINT
  5
A164
330
9E81
100
AcDbEntity
  8
Defpoints
 62
     0
100
AcDbPoint
 10
1118.074532693785
 20
690.6580729330507
 30
0.0
  0
POINT
  5
A165
330
9E81
100
AcDbEntity
  8
Defpoints
 62
     0
100
AcDbPoint
 10
1117.467848641634
 20
498.3376179868074
 30
0.0
  0
POINT
  5
A166
330
9E81
100
AcDbEntity
  8
Defpoints
 62
     0
100
AcDbPoint
 10
988.4093469227389
 20
498.3376179868074
 30
0.0
  0
ENDBLK
  5
9E8C
330
9E81
100
AcDbEntity
  8
0
 62
     3
100
AcDbBlockEnd
  0
BLOCK
  5
9E97
330
9E8D
100
AcDbEntity
  8
0
 62
     3
100
AcDbBlockBegin
  2
*D78
 70
     1
 10
0.0
 20
0.0
 30
0.0
  3
*D78
  1

  0
LINE
  5
A167
330
9E8D
100
AcDbEntity
  8
実形
 62
     0
370
    18
100
AcDbLine
 10
1034.62625495135
 20
690.6580729330507
 30
0.0
 11
988.4093469227389
 21
690.6580729330507
 31
0.0
  0
LINE
  5
A168
330
9E8D
100
AcDbEntity
  8
実形
 62
     0
370
    18
100
AcDbLine
 10
1106.317612044708
 20
485.6580729330508
 30
0.0
 11
988.4093469227389
 21
485.6580729330508
 31
0.0
  0
LINE
  5
A169
330
9E8D
100
AcDbEntity
  8
実形
 62
     0
370
    18
100
AcDbLine
 10
988.4093469227389
 20
680.6580729330508
 30
0.0
 11
988.4093469227389
 21
495.6580729330508
 31
0.0
  0
MTEXT
  5
A16A
330
9E8D
100
AcDbEntity
  8
実形
 62
     0
100
AcDbMText
 10
966.282744723232
 20
507.252904852653
 30
0.0
 40
25.0
 41
0.0
 71
     5
 72
     1
  1
10
 11
0.0000000000000001
 21
1.0
 31
0.0
 73
     1
 44
1.0
1001
ACAD
1000
MTEXTBEGIN
1070
    73
1070
     1
1070
    44
1040
1.0
1070
    74
1070
     0
1000
MTEXTEND
  0
INSERT
  5
A16B
330
9E8D
100
AcDbEntity
  8
実形
 62
     0
370
    18
100
AcDbBlockReference
  2
_Dot
 10
988.4093469227389
 20
690.6580729330507
 30
0.0
 41
10.0
 42
10.0
 43
10.0
 50
90.0
  0
INSERT
  5
A16C
330
9E8D
100
AcDbEntity
  8
実形
 62
     0
370
    18
100
AcDbBlockReference
  2
_Dot
 10
988.4093469227389
 20
485.6580729330508
 30
0.0
 41
10.0
 42
10.0
 43
10.0
 50
270.0
  0
POINT
  5
A16D
330
9E8D
100
AcDbEntity
  8
Defpoints
 62
     0
100
AcDbPoint
 10
1099.62625495135
 20
690.6580729330507
 30
0.0
  0
POINT
  5
A16E
330
9E8D
100
AcDbEntity
  8
Defpoints
 62
     0
100
AcDbPoint
 10
1171.317612044708
 20
485.6580729330508
 30
0.0
  0
POINT
  5
A16F
330
9E8D
100
AcDbEntity
  8
Defpoints
 62
     0
100
AcDbPoint
 10
988.4093469227389
 20
485.6580729330508
 30
0.0
  0
ENDBLK
  5
9E98
330
9E8D
100
AcDbEntity
  8
0
 62
     3
100
AcDbBlockEnd
  0
BLOCK
  5
9EA3
330
9E99
100
AcDbEntity
  8
0
 62
     3
100
AcDbBlockBegin
  2
*D79
 70
     1
 10
0.0
 20
0.0
 30
0.0
  3
*D79
  1

  0
LINE
  5
A170
330
9E99
100
AcDbEntity
  8
実形
 62
     0
370
    18
100
AcDbLine
 10
1034.62625495135
 20
690.6580729330507
 30
0.0
 11
925.3449815525746
 21
690.6580729330507
 31
0.0
  0
LINE
  5
A171
330
9E99
100
AcDbEntity
  8
実形
 62
     0
370
    18
100
AcDbLine
 10
1034.62625495135
 20
485.6580729330508
 30
0.0
 11
925.3449815525746
 21
485.6580729330508
 31
0.0
  0
LINE
  5
A172
330
9E99
100
AcDbEntity
  8
実形
 62
     0
370
    18
100
AcDbLine
 10
925.3449815525746
 20
680.6580729330508
 30
0.0
 11
925.3449815525746
 21
495.6580729330507
 31
0.0
  0
MTEXT
  5
A173
330
9E99
100
AcDbEntity
  8
実形
 62
     0
100
AcDbMText
 10
903.7449815525745
 20
582.644918945628
 30
0.0
 40
25.0
 41
0.0
 71
     5
 72
     1
  1
205
 11
0.0000000000000001
 21
1.0
 31
0.0
 73
     1
 44
1.0
1001
ACAD
1000
MTEXTBEGIN
1070
    73
1070
     1
1070
    44
1040
1.0
1070
    74
1070
     0
1000
MTEXTEND
  0
INSERT
  5
A174
330
9E99
100
AcDbEntity
  8
実形
 62
     0
370
    18
100
AcDbBlockReference
  2
_Dot
 10
925.3449815525746
 20
690.6580729330507
 30
0.0
 41
10.0
 42
10.0
 43
10.0
 50
90.0
  0
INSERT
  5
A175
330
9E99
100
AcDbEntity
  8
実形
 62
     0
370
    18
100
AcDbBlockReference
  2
_Dot
 10
925.3449815525746
 20
485.6580729330508
 30
0.0
 41
10.0
 42
10.0
 43
10.0
 50
270.0
  0
POINT
  5
A176
330
9E99
100
AcDbEntity
  8
Defpoints
 62
     0
100
AcDbPoint
 10
1099.62625495135
 20
690.6580729330507
 30
0.0
  0
POINT
  5
A177
330
9E99
100
AcDbEntity
  8
Defpoints
 62
     0
100
AcDbPoint
 10
1099.62625495135
 20
485.6580729330508
 30
0.0
  0
POINT
  5
A178
330
9E99
100
AcDbEntity
  8
Defpoints
 62
     0
100
AcDbPoint
 10
925.3449815525746
 20
485.6580729330508
 30
0.0
  0
ENDBLK
  5
9EA4
330
9E99
100
AcDbEntity
  8
0
 62
     3
100
AcDbBlockEnd
  0
BLOCK
  5
9EAF
330
9EA5
100
AcDbEntity
  8
0
 62
     3
100
AcDbBlockBegin
  2
*D80
 70
     1
 10
0.0
 20
0.0
 30
0.0
  3
*D80
  1

  0
LINE
  5
A7B5
330
9EA5
100
AcDbEntity
  8
実形
 62
     0
370
    18
100
AcDbLine
 10
989.082223812935
 20
475.6580729330507
 30
0.0
 11
925.3449815525746
 21
475.6580729330507
 31
0.0
  0
LINE
  5
A7B6
330
9EA5
100
AcDbEntity
  8
実形
 62
     0
370
    18
100
AcDbLine
 10
1034.62625495135
 20
690.6580729330507
 30
0.0
 11
925.3449815525746
 21
690.6580729330507
 31
0.0
  0
LINE
  5
A7B7
330
9EA5
100
AcDbEntity
  8
実形
 62
     0
370
    18
100
AcDbLine
 10
925.3449815525746
 20
485.6580729330508
 30
0.0
 11
925.3449815525746
 21
680.6580729330508
 31
0.0
  0
MTEXT
  5
A7B8
330
9EA5
100
AcDbEntity
  8
実形
 62
     0
100
AcDbMText
 10
903.7449815525745
 20
495.3808079018463
 30
0.0
 40
25.0
 41
0.0
 71
     5
 72
     1
  1
10
 11
0.0000000000000001
 21
1.0
 31
0.0
 73
     1
 44
1.0
1001
ACAD
1000
MTEXTBEGIN
1070
    73
1070
     1
1070
    44
1040
1.0
1070
    74
1070
     0
1000
MTEXTEND
  0
INSERT
  5
A7B9
330
9EA5
100
AcDbEntity
  8
実形
 62
     0
370
    18
100
AcDbBlockReference
  2
_Dot
 10
925.3449815525746
 20
475.6580729330507
 30
0.0
 41
10.0
 42
10.0
 43
10.0
 50
270.0
  0
INSERT
  5
A7BA
330
9EA5
100
AcDbEntity
  8
実形
 62
     0
370
    18
100
AcDbBlockReference
  2
_Dot
 10
925.3449815525746
 20
690.6580729330507
 30
0.0
 41
10.0
 42
10.0
 43
10.0
 50
90.0
  0
POINT
  5
A7BB
330
9EA5
100
AcDbEntity
  8
Defpoints
 62
     0
100
AcDbPoint
 10
1054.082223812935
 20
475.6580729330507
 30
0.0
  0
POINT
  5
A7BC
330
9EA5
100
AcDbEntity
  8
Defpoints
 62
     0
100
AcDbPoint
 10
1099.62625495135
 20
690.6580729330507
 30
0.0
  0
POINT
  5
A7BD
330
9EA5
100
AcDbEntity
  8
Defpoints
 62
     0
100
AcDbPoint
 10
925.3449815525746
 20
690.6580729330507
 30
0.0
  0
ENDBLK
  5
9EB0
330
9EA5
100
AcDbEntity
  8
0
 62
     3
100
AcDbBlockEnd
  0
BLOCK
  5
9EBB
330
9EB1
100
AcDbEntity
  8
0
 62
     3
100
AcDbBlockBegin
  2
*D81
 70
     1
 10
0.0
 20
0.0
 30
0.0
  3
*D81
  1

  0
LINE
  5
A7BE
330
9EB1
100
AcDbEntity
  8
実形
 62
     0
370
    18
100
AcDbLine
 10
1034.62625495135
 20
690.6580729330507
 30
0.0
 11
863.7476294869266
 21
690.6580729330507
 31
0.0
  0
LINE
  5
A7BF
330
9EB1
100
AcDbEntity
  8
実形
 62
     0
370
    18
100
AcDbLine
 10
918.6935325857231
 20
475.6580729330507
 30
0.0
 11
863.7476294869266
 21
475.6580729330508
 31
0.0
  0
LINE
  5
A7C0
330
9EB1
100
AcDbEntity
  8
実形
 62
     0
370
    18
100
AcDbLine
 10
863.7476294869266
 20
680.6580729330508
 30
0.0
 11
863.7476294869266
 21
485.6580729330508
 31
0.0
  0
INSERT
  5
A7C1
330
9EB1
100
AcDbEntity
  8
実形
 62
     0
370
    18
100
AcDbBlockReference
  2
_Dot
 10
863.7476294869266
 20
690.6580729330507
 30
0.0
 41
10.0
 42
10.0
 43
10.0
 50
90.0
  0
INSERT
  5
A7C2
330
9EB1
100
AcDbEntity
  8
実形
 62
     0
370
    18
100
AcDbBlockReference
  2
_Dot
 10
863.7476294869266
 20
475.6580729330508
 30
0.0
 41
10.0
 42
10.0
 43
10.0
 50
270.0
  0
MTEXT
  5
A7C3
330
9EB1
100
AcDbEntity
  8
実形
 62
     0
100
AcDbMText
 10
844.6476294869265
 20
583.158072933051
 30
0.0
 40
25.0
 41
0.0
 71
     5
 72
     1
  1
215
 11
0.0000000000000001
 21
1.0
 31
0.0
 73
     1
 44
1.0
1001
ACAD
1000
MTEXTBEGIN
1070
    73
1070
     1
1070
    44
1040
1.0
1070
    74
1070
     0
1000
MTEXTEND
  0
POINT
  5
A7C4
330
9EB1
100
AcDbEntity
  8
Defpoints
 62
     0
100
AcDbPoint
 10
1099.62625495135
 20
690.6580729330507
 30
0.0
  0
POINT
  5
A7C5
330
9EB1
100
AcDbEntity
  8
Defpoints
 62
     0
100
AcDbPoint
 10
983.6935325857229
 20
475.6580729330507
 30
0.0
  0
POINT
  5
A7C6
330
9EB1
100
AcDbEntity
  8
Defpoints
 62
     0
100
AcDbPoint
 10
863.7476294869266
 20
475.6580729330508
 30
0.0
  0
ENDBLK
  5
9EBC
330
9EB1
100
AcDbEntity
  8
0
 62
     3
100
AcDbBlockEnd
  0
BLOCK
  5
A35F
330
A355
100
AcDbEntity
  8
0
 62
     3
100
AcDbBlockBegin
  2
*D82
 70
     1
 10
0.0
 20
0.0
 30
0.0
  3
*D82
  1

  0
LINE
  5
A479
330
A355
100
AcDbEntity
  8
実形
 62
     0
370
    18
100
AcDbLine
 10
2551.02520640296
 20
1368.547590588581
 30
0.0
 11
2602.941804938817
 21
1368.547590588581
 31
0.0
  0
LINE
  5
A47A
330
A355
100
AcDbEntity
  8
実形
 62
     0
370
    18
100
AcDbLine
 10
2551.02520640296
 20
1528.547590588581
 30
0.0
 11
2602.941804938817
 21
1528.547590588581
 31
0.0
  0
LINE
  5
A47B
330
A355
100
AcDbEntity
  8
実形
 62
     0
370
    18
100
AcDbLine
 10
2602.941804938817
 20
1378.547590588581
 30
0.0
 11
2602.941804938817
 21
1518.547590588581
 31
0.0
  0
INSERT
  5
A47C
330
A355
100
AcDbEntity
  8
実形
 62
     0
370
    18
100
AcDbBlockReference
  2
_Dot
 10
2602.941804938817
 20
1368.547590588581
 30
0.0
 41
10.0
 42
10.0
 43
10.0
 50
270.0
  0
INSERT
  5
A47D
330
A355
100
AcDbEntity
  8
実形
 62
     0
370
    18
100
AcDbBlockReference
  2
_Dot
 10
2602.941804938817
 20
1528.547590588581
 30
0.0
 41
10.0
 42
10.0
 43
10.0
 50
90.0
  0
MTEXT
  5
A47E
330
A355
100
AcDbEntity
  8
実形
 62
     0
100
AcDbMText
 10
2583.841804938817
 20
1448.547590588582
 30
0.0
 40
25.0
 41
0.0
 71
     5
 72
     1
  1
160
 11
0.0000000000000001
 21
1.0
 31
0.0
 73
     1
 44
1.0
1001
ACAD
1000
MTEXTBEGIN
1070
    73
1070
     1
1070
    44
1040
1.0
1070
    74
1070
     0
1000
MTEXTEND
  0
POINT
  5
A47F
330
A355
100
AcDbEntity
  8
Defpoints
 62
     0
100
AcDbPoint
 10
2486.025206402959
 20
1368.547590588581
 30
0.0
  0
POINT
  5
A480
330
A355
100
AcDbEntity
  8
Defpoints
 62
     0
100
AcDbPoint
 10
2486.025206402959
 20
1528.547590588581
 30
0.0
  0
POINT
  5
A481
330
A355
100
AcDbEntity
  8
Defpoints
 62
     0
100
AcDbPoint
 10
2602.941804938817
 20
1528.547590588581
 30
0.0
  0
ENDBLK
  5
A360
330
A355
100
AcDbEntity
  8
0
 62
     3
100
AcDbBlockEnd
  0
BLOCK
  5
A36B
330
A361
100
AcDbEntity
  8
0
 62
     3
100
AcDbBlockBegin
  2
*D83
 70
     1
 10
0.0
 20
0.0
 30
0.0
  3
*D83
  1

  0
LINE
  5
A470
330
A361
100
AcDbEntity
  8
実形
 62
     0
370
    18
100
AcDbLine
 10
2551.02520640296
 20
1358.047590588581
 30
0.0
 11
2674.184101754094
 21
1358.047590588581
 31
0.0
  0
LINE
  5
A471
330
A361
100
AcDbEntity
  8
実形
 62
     0
370
    18
100
AcDbLine
 10
2551.025206402964
 20
1539.047590588581
 30
0.0
 11
2674.184101754094
 21
1539.04759058858
 31
0.0
  0
LINE
  5
A472
330
A361
100
AcDbEntity
  8
実形
 62
     0
370
    18
100
AcDbLine
 10
2674.184101754094
 20
1368.047590588581
 30
0.0
 11
2674.184101754094
 21
1529.047590588581
 31
0.0
  0
INSERT
  5
A473
330
A361
100
AcDbEntity
  8
実形
 62
     0
370
    18
100
AcDbBlockReference
  2
_Dot
 10
2674.184101754094
 20
1358.047590588581
 30
0.0
 41
10.0
 42
10.0
 43
10.0
 50
270.0
  0
INSERT
  5
A474
330
A361
100
AcDbEntity
  8
実形
 62
     0
370
    18
100
AcDbBlockReference
  2
_Dot
 10
2674.184101754094
 20
1539.04759058858
 30
0.0
 41
10.0
 42
10.0
 43
10.0
 50
90.0
  0
MTEXT
  5
A475
330
A361
100
AcDbEntity
  8
実形
 62
     0
100
AcDbMText
 10
2655.084101754094
 20
1448.547590588581
 30
0.0
 40
25.0
 41
0.0
 71
     5
 72
     1
  1
181
 11
0.0000000000000001
 21
1.0
 31
0.0
 73
     1
 44
1.0
1001
ACAD
1000
MTEXTBEGIN
1070
    73
1070
     1
1070
    44
1040
1.0
1070
    74
1070
     0
1000
MTEXTEND
  0
POINT
  5
A476
330
A361
100
AcDbEntity
  8
Defpoints
 62
     0
100
AcDbPoint
 10
2486.025206402959
 20
1358.047590588581
 30
0.0
  0
POINT
  5
A477
330
A361
100
AcDbEntity
  8
Defpoints
 62
     0
100
AcDbPoint
 10
2486.025206402964
 20
1539.047590588581
 30
0.0
  0
POINT
  5
A478
330
A361
100
AcDbEntity
  8
Defpoints
 62
     0
100
AcDbPoint
 10
2674.184101754094
 20
1539.04759058858
 30
0.0
  0
ENDBLK
  5
A36C
330
A361
100
AcDbEntity
  8
0
 62
     3
100
AcDbBlockEnd
  0
BLOCK
  5
A377
330
A36D
100
AcDbEntity
  8
0
 62
     3
100
AcDbBlockBegin
  2
*D84
 70
     1
 10
0.0
 20
0.0
 30
0.0
  3
*D84
  1

  0
LINE
  5
A45E
330
A36D
100
AcDbEntity
  8
実形
 62
     0
370
    18
100
AcDbLine
 10
2271.025206402959
 20
1168.160850763467
 30
0.0
 11
2271.025206402959
 21
1113.337932605312
 31
0.0
  0
LINE
  5
A45F
330
A36D
100
AcDbEntity
  8
実形
 62
     0
370
    18
100
AcDbLine
 10
2461.025206402958
 20
1145.067481372382
 30
0.0
 11
2461.025206402958
 21
1113.337932605312
 31
0.0
  0
LINE
  5
A460
330
A36D
100
AcDbEntity
  8
実形
 62
     0
370
    18
100
AcDbLine
 10
2281.025206402959
 20
1113.337932605312
 30
0.0
 11
2451.025206402958
 21
1113.337932605312
 31
0.0
  0
MTEXT
  5
A461
330
A36D
100
AcDbEntity
  8
実形
 62
     0
100
AcDbMText
 10
2232.460599677292
 20
1134.937932605311
 30
0.0
 40
25.0
 41
0.0
 71
     5
 72
     1
  1
15
 73
     1
 44
1.0
1001
ACAD
1000
MTEXTBEGIN
1070
    73
1070
     1
1070
    44
1040
1.0
1070
    74
1070
     0
1000
MTEXTEND
  0
INSERT
  5
A462
330
A36D
100
AcDbEntity
  8
実形
 62
     0
370
    18
100
AcDbBlockReference
  2
_Dot
 10
2271.025206402959
 20
1113.337932605312
 30
0.0
 41
10.0
 42
10.0
 43
10.0
 50
180.0
  0
INSERT
  5
A463
330
A36D
100
AcDbEntity
  8
実形
 62
     0
370
    18
100
AcDbBlockReference
  2
_Dot
 10
2461.025206402958
 20
1113.337932605312
 30
0.0
 41
10.0
 42
10.0
 43
10.0
  0
POINT
  5
A464
330
A36D
100
AcDbEntity
  8
Defpoints
 62
     0
100
AcDbPoint
 10
2271.025206402959
 20
1233.160850763467
 30
0.0
  0
POINT
  5
A465
330
A36D
100
AcDbEntity
  8
Defpoints
 62
     0
100
AcDbPoint
 10
2461.025206402958
 20
1210.067481372382
 30
0.0
  0
POINT
  5
A466
330
A36D
100
AcDbEntity
  8
Defpoints
 62
     0
100
AcDbPoint
 10
2461.025206402958
 20
1113.337932605312
 30
0.0
  0
ENDBLK
  5
A378
330
A36D
100
AcDbEntity
  8
0
 62
     3
100
AcDbBlockEnd
  0
BLOCK
  5
A383
330
A379
100
AcDbEntity
  8
0
 62
     3
100
AcDbBlockBegin
  2
*D85
 70
     1
 10
0.0
 20
0.0
 30
0.0
  3
*D85
  1

  0
LINE
  5
A455
330
A379
100
AcDbEntity
  8
実形
 62
     0
370
    18
100
AcDbLine
 10
2286.025206402959
 20
1169.838419520768
 30
0.0
 11
2286.025206402959
 21
1113.337932605312
 31
0.0
  0
LINE
  5
A456
330
A379
100
AcDbEntity
  8
実形
 62
     0
370
    18
100
AcDbLine
 10
2461.025206402958
 20
1168.999639869768
 30
0.0
 11
2461.025206402958
 21
1113.337932605312
 31
0.0
  0
LINE
  5
A457
330
A379
100
AcDbEntity
  8
実形
 62
     0
370
    18
100
AcDbLine
 10
2296.025206402958
 20
1113.337932605312
 30
0.0
 11
2451.025206402958
 21
1113.337932605312
 31
0.0
  0
MTEXT
  5
A458
330
A379
100
AcDbEntity
  8
実形
 62
     0
100
AcDbMText
 10
2370.061892880593
 20
1135.023310116205
 30
0.0
 40
25.0
 41
0.0
 71
     5
 72
     1
  1
175
 73
     1
 44
1.0
1001
ACAD
1000
MTEXTBEGIN
1070
    73
1070
     1
1070
    44
1040
1.0
1070
    74
1070
     0
1000
MTEXTEND
  0
INSERT
  5
A459
330
A379
100
AcDbEntity
  8
実形
 62
     0
370
    18
100
AcDbBlockReference
  2
_Dot
 10
2286.025206402959
 20
1113.337932605312
 30
0.0
 41
10.0
 42
10.0
 43
10.0
 50
180.0
  0
INSERT
  5
A45A
330
A379
100
AcDbEntity
  8
実形
 62
     0
370
    18
100
AcDbBlockReference
  2
_Dot
 10
2461.025206402958
 20
1113.337932605312
 30
0.0
 41
10.0
 42
10.0
 43
10.0
  0
POINT
  5
A45B
330
A379
100
AcDbEntity
  8
Defpoints
 62
     0
100
AcDbPoint
 10
2286.025206402959
 20
1234.838419520768
 30
0.0
  0
POINT
  5
A45C
330
A379
100
AcDbEntity
  8
Defpoints
 62
     0
100
AcDbPoint
 10
2461.025206402958
 20
1233.999639869768
 30
0.0
  0
POINT
  5
A45D
330
A379
100
AcDbEntity
  8
Defpoints
 62
     0
100
AcDbPoint
 10
2461.025206402958
 20
1113.337932605312
 30
0.0
  0
ENDBLK
  5
A384
330
A379
100
AcDbEntity
  8
0
 62
     3
100
AcDbBlockEnd
  0
BLOCK
  5
A38F
330
A385
100
AcDbEntity
  8
0
 62
     3
100
AcDbBlockBegin
  2
*D86
 70
     1
 10
0.0
 20
0.0
 30
0.0
  3
*D86
  1

  0
LINE
  5
A467
330
A385
100
AcDbEntity
  8
実形
 62
     0
370
    18
100
AcDbLine
 10
2271.025206402959
 20
1106.142897350245
 30
0.0
 11
2271.025206402959
 21
1061.327443365982
 31
0.0
  0
LINE
  5
A468
330
A385
100
AcDbEntity
  8
実形
 62
     0
370
    18
100
AcDbLine
 10
2461.025206402959
 20
1106.142897350245
 30
0.0
 11
2461.025206402959
 21
1061.327443365982
 31
0.0
  0
LINE
  5
A469
330
A385
100
AcDbEntity
  8
実形
 62
     0
370
    18
100
AcDbLine
 10
2281.025206402959
 20
1061.327443365982
 30
0.0
 11
2451.025206402959
 21
1061.327443365982
 31
0.0
  0
MTEXT
  5
A46A
330
A385
100
AcDbEntity
  8
実形
 62
     0
100
AcDbMText
 10
2370.90088870361
 20
1082.927443365981
 30
0.0
 40
25.0
 41
0.0
 71
     5
 72
     1
  1
190
 73
     1
 44
1.0
1001
ACAD
1000
MTEXTBEGIN
1070
    73
1070
     1
1070
    44
1040
1.0
1070
    74
1070
     0
1000
MTEXTEND
  0
INSERT
  5
A46B
330
A385
100
AcDbEntity
  8
実形
 62
     0
370
    18
100
AcDbBlockReference
  2
_Dot
 10
2271.025206402959
 20
1061.327443365982
 30
0.0
 41
10.0
 42
10.0
 43
10.0
 50
180.0
  0
INSERT
  5
A46C
330
A385
100
AcDbEntity
  8
実形
 62
     0
370
    18
100
AcDbBlockReference
  2
_Dot
 10
2461.025206402959
 20
1061.327443365982
 30
0.0
 41
10.0
 42
10.0
 43
10.0
  0
POINT
  5
A46D
330
A385
100
AcDbEntity
  8
Defpoints
 62
     0
100
AcDbPoint
 10
2271.025206402959
 20
1171.142897350245
 30
0.0
  0
POINT
  5
A46E
330
A385
100
AcDbEntity
  8
Defpoints
 62
     0
100
AcDbPoint
 10
2461.025206402959
 20
1171.142897350245
 30
0.0
  0
POINT
  5
A46F
330
A385
100
AcDbEntity
  8
Defpoints
 62
     0
100
AcDbPoint
 10
2461.025206402959
 20
1061.327443365982
 30
0.0
  0
ENDBLK
  5
A390
330
A385
100
AcDbEntity
  8
0
 62
     3
100
AcDbBlockEnd
  0
BLOCK
  5
A39B
330
A391
100
AcDbEntity
  8
0
 62
     3
100
AcDbBlockBegin
  2
*D87
 70
     1
 10
0.0
 20
0.0
 30
0.0
  3
*D87
  1

  0
LINE
  5
A44C
330
A391
100
AcDbEntity
  8
実形
 62
     0
370
    18
100
AcDbLine
 10
2271.025206402959
 20
1106.142897350245
 30
0.0
 11
2271.025206402959
 21
1061.327443365982
 31
0.0
  0
LINE
  5
A44D
330
A391
100
AcDbEntity
  8
実形
 62
     0
370
    18
100
AcDbLine
 10
2476.025206402959
 20
1168.744242765121
 30
0.0
 11
2476.025206402959
 21
1061.327443365982
 31
0.0
  0
LINE
  5
A44E
330
A391
100
AcDbEntity
  8
実形
 62
     0
370
    18
100
AcDbLine
 10
2281.025206402959
 20
1061.327443365982
 30
0.0
 11
2466.025206402959
 21
1061.327443365982
 31
0.0
  0
MTEXT
  5
A44F
330
A391
100
AcDbEntity
  8
実形
 62
     0
100
AcDbMText
 10
2511.01315731481
 20
1082.927443365981
 30
0.0
 40
25.0
 41
0.0
 71
     5
 72
     1
  1
15
 73
     1
 44
1.0
1001
ACAD
1000
MTEXTBEGIN
1070
    73
1070
     1
1070
    44
1040
1.0
1070
    74
1070
     0
1000
MTEXTEND
  0
INSERT
  5
A450
330
A391
100
AcDbEntity
  8
実形
 62
     0
370
    18
100
AcDbBlockReference
  2
_Dot
 10
2271.025206402959
 20
1061.327443365982
 30
0.0
 41
10.0
 42
10.0
 43
10.0
 50
180.0
  0
INSERT
  5
A451
330
A391
100
AcDbEntity
  8
実形
 62
     0
370
    18
100
AcDbBlockReference
  2
_Dot
 10
2476.025206402959
 20
1061.327443365982
 30
0.0
 41
10.0
 42
10.0
 43
10.0
  0
POINT
  5
A452
330
A391
100
AcDbEntity
  8
Defpoints
 62
     0
100
AcDbPoint
 10
2271.025206402959
 20
1171.142897350245
 30
0.0
  0
POINT
  5
A453
330
A391
100
AcDbEntity
  8
Defpoints
 62
     0
100
AcDbPoint
 10
2476.025206402959
 20
1233.744242765121
 30
0.0
  0
POINT
  5
A454
330
A391
100
AcDbEntity
  8
Defpoints
 62
     0
100
AcDbPoint
 10
2476.025206402959
 20
1061.327443365982
 30
0.0
  0
ENDBLK
  5
A39C
330
A391
100
AcDbEntity
  8
0
 62
     3
100
AcDbBlockEnd
  0
BLOCK
  5
A3A7
330
A39D
100
AcDbEntity
  8
0
 62
     3
100
AcDbBlockBegin
  2
*D88
 70
     1
 10
0.0
 20
0.0
 30
0.0
  3
*D88
  1

  0
LINE
  5
A443
330
A39D
100
AcDbEntity
  8
実形
 62
     0
370
    18
100
AcDbLine
 10
2271.546942063876
 20
1074.196004904778
 30
0.0
 11
2271.546942063876
 21
1008.057159801096
 31
0.0
  0
LINE
  5
A444
330
A39D
100
AcDbEntity
  8
実形
 62
     0
370
    18
100
AcDbLine
 10
2476.025206402959
 20
1074.196004904778
 30
0.0
 11
2476.025206402959
 21
1008.057159801096
 31
0.0
  0
LINE
  5
A445
330
A39D
100
AcDbEntity
  8
実形
 62
     0
370
    18
100
AcDbLine
 10
2281.546942063877
 20
1008.057159801096
 30
0.0
 11
2466.025206402959
 21
1008.057159801096
 31
0.0
  0
INSERT
  5
A446
330
A39D
100
AcDbEntity
  8
実形
 62
     0
370
    18
100
AcDbBlockReference
  2
_Dot
 10
2271.546942063876
 20
1008.057159801096
 30
0.0
 41
10.0
 42
10.0
 43
10.0
 50
180.0
  0
INSERT
  5
A447
330
A39D
100
AcDbEntity
  8
実形
 62
     0
370
    18
100
AcDbBlockReference
  2
_Dot
 10
2476.025206402959
 20
1008.057159801096
 30
0.0
 41
10.0
 42
10.0
 43
10.0
  0
MTEXT
  5
A448
330
A39D
100
AcDbEntity
  8
実形
 62
     0
100
AcDbMText
 10
2373.786074233418
 20
1027.157159801096
 30
0.0
 40
25.0
 41
0.0
 71
     5
 72
     1
  1
205
 73
     1
 44
1.0
1001
ACAD
1000
MTEXTBEGIN
1070
    73
1070
     1
1070
    44
1040
1.0
1070
    74
1070
     0
1000
MTEXTEND
  0
POINT
  5
A449
330
A39D
100
AcDbEntity
  8
Defpoints
 62
     0
100
AcDbPoint
 10
2271.546942063876
 20
1139.196004904778
 30
0.0
  0
POINT
  5
A44A
330
A39D
100
AcDbEntity
  8
Defpoints
 62
     0
100
AcDbPoint
 10
2476.025206402959
 20
1139.196004904778
 30
0.0
  0
POINT
  5
A44B
330
A39D
100
AcDbEntity
  8
Defpoints
 62
     0
100
AcDbPoint
 10
2476.025206402959
 20
1008.057159801096
 30
0.0
  0
ENDBLK
  5
A3A8
330
A39D
100
AcDbEntity
  8
0
 62
     3
100
AcDbBlockEnd
  0
BLOCK
  5
A3B3
330
A3A9
100
AcDbEntity
  8
0
 62
     3
100
AcDbBlockBegin
  2
*D89
 70
     1
 10
0.0
 20
0.0
 30
0.0
  3
*D89
  1

  0
LINE
  5
A43A
330
A3A9
100
AcDbEntity
  8
実形
 62
     0
370
    18
100
AcDbLine
 10
2271.025206402959
 20
1139.196004904778
 30
0.0
 11
2271.025206402959
 21
1008.057159801096
 31
0.0
  0
LINE
  5
A43B
330
A3A9
100
AcDbEntity
  8
実形
 62
     0
370
    18
100
AcDbLine
 10
2486.025206402959
 20
1056.966074068686
 30
0.0
 11
2486.025206402959
 21
1008.057159801096
 31
0.0
  0
LINE
  5
A43C
330
A3A9
100
AcDbEntity
  8
実形
 62
     0
370
    18
100
AcDbLine
 10
2281.025206402959
 20
1008.057159801096
 30
0.0
 11
2476.025206402959
 21
1008.057159801096
 31
0.0
  0
MTEXT
  5
A43D
330
A3A9
100
AcDbEntity
  8
実形
 62
     0
100
AcDbMText
 10
2509.820530895875
 20
1029.657159801096
 30
0.0
 40
25.0
 41
0.0
 71
     5
 72
     1
  1
8
 73
     1
 44
1.0
1001
ACAD
1000
MTEXTBEGIN
1070
    73
1070
     1
1070
    44
1040
1.0
1070
    74
1070
     0
1000
MTEXTEND
  0
INSERT
  5
A43E
330
A3A9
100
AcDbEntity
  8
実形
 62
     0
370
    18
100
AcDbBlockReference
  2
_Dot
 10
2271.025206402959
 20
1008.057159801096
 30
0.0
 41
10.0
 42
10.0
 43
10.0
 50
180.0
  0
INSERT
  5
A43F
330
A3A9
100
AcDbEntity
  8
実形
 62
     0
370
    18
100
AcDbBlockReference
  2
_Dot
 10
2486.025206402959
 20
1008.057159801096
 30
0.0
 41
10.0
 42
10.0
 43
10.0
  0
POINT
  5
A440
330
A3A9
100
AcDbEntity
  8
Defpoints
 62
     0
100
AcDbPoint
 10
2271.025206402959
 20
1204.196004904778
 30
0.0
  0
POINT
  5
A441
330
A3A9
100
AcDbEntity
  8
Defpoints
 62
     0
100
AcDbPoint
 10
2486.025206402959
 20
1121.966074068686
 30
0.0
  0
POINT
  5
A442
330
A3A9
100
AcDbEntity
  8
Defpoints
 62
     0
100
AcDbPoint
 10
2486.025206402959
 20
1008.057159801096
 30
0.0
  0
ENDBLK
  5
A3B4
330
A3A9
100
AcDbEntity
  8
0
 62
     3
100
AcDbBlockEnd
  0
BLOCK
  5
A3BF
330
A3B5
100
AcDbEntity
  8
0
 62
     3
100
AcDbBlockBegin
  2
*D90
 70
     1
 10
0.0
 20
0.0
 30
0.0
  3
*D90
  1

  0
LINE
  5
A431
330
A3B5
100
AcDbEntity
  8
実形
 62
     0
370
    18
100
AcDbLine
 10
2271.025206402959
 20
1074.196004904778
 30
0.0
 11
2271.025206402959
 21
953.351148403669
 31
0.0
  0
LINE
  5
A432
330
A3B5
100
AcDbEntity
  8
実形
 62
     0
370
    18
100
AcDbLine
 10
2486.025206402959
 20
1010.128591651974
 30
0.0
 11
2486.025206402959
 21
953.351148403669
 31
0.0
  0
LINE
  5
A433
330
A3B5
100
AcDbEntity
  8
実形
 62
     0
370
    18
100
AcDbLine
 10
2281.025206402959
 20
953.351148403669
 30
0.0
 11
2476.025206402959
 21
953.351148403669
 31
0.0
  0
MTEXT
  5
A434
330
A3B5
100
AcDbEntity
  8
実形
 62
     0
100
AcDbMText
 10
2373.417876172658
 20
974.9511484036689
 30
0.0
 40
25.0
 41
0.0
 71
     5
 72
     1
  1
213
 73
     1
 44
1.0
1001
ACAD
1000
MTEXTBEGIN
1070
    73
1070
     1
1070
    44
1040
1.0
1070
    74
1070
     0
1000
MTEXTEND
  0
INSERT
  5
A435
330
A3B5
100
AcDbEntity
  8
実形
 62
     0
370
    18
100
AcDbBlockReference
  2
_Dot
 10
2271.025206402959
 20
953.351148403669
 30
0.0
 41
10.0
 42
10.0
 43
10.0
 50
180.0
  0
INSERT
  5
A436
330
A3B5
100
AcDbEntity
  8
実形
 62
     0
370
    18
100
AcDbBlockReference
  2
_Dot
 10
2486.025206402959
 20
953.351148403669
 30
0.0
 41
10.0
 42
10.0
 43
10.0
  0
POINT
  5
A437
330
A3B5
100
AcDbEntity
  8
Defpoints
 62
     0
100
AcDbPoint
 10
2271.025206402959
 20
1139.196004904778
 30
0.0
  0
POINT
  5
A438
330
A3B5
100
AcDbEntity
  8
Defpoints
 62
     0
100
AcDbPoint
 10
2486.025206402959
 20
1075.128591651974
 30
0.0
  0
POINT
  5
A439
330
A3B5
100
AcDbEntity
  8
Defpoints
 62
     0
100
AcDbPoint
 10
2486.025206402959
 20
953.351148403669
 30
0.0
  0
ENDBLK
  5
A3C0
330
A3B5
100
AcDbEntity
  8
0
 62
     3
100
AcDbBlockEnd
  0
BLOCK
  5
A5C2
330
A5B8
100
AcDbEntity
  8
0
 62
     3
100
AcDbBlockBegin
  2
*D91
 70
     1
 10
0.0
 20
0.0
 30
0.0
  3
*D91
  1

  0
LINE
  5
A8EE
330
A5B8
100
AcDbEntity
  8
実形
 62
     0
370
    18
100
AcDbLine
 10
816.795558443489
 20
1570.547590588582
 30
0.0
 11
773.7955584434891
 21
1570.547590588582
 31
0.0
  0
LINE
  5
A8EF
330
A5B8
100
AcDbEntity
  8
実形
 62
     0
370
    18
100
AcDbLine
 10
816.7955584434887
 20
1476.547590588581
 30
0.0
 11
773.7955584434891
 21
1476.547590588581
 31
0.0
  0
LINE
  5
A8F0
330
A5B8
100
AcDbEntity
  8
実形
 62
     0
370
    18
100
AcDbLine
 10
773.7955584434891
 20
1560.547590588582
 30
0.0
 11
773.7955584434891
 21
1486.547590588581
 31
0.0
  0
INSERT
  5
A8F1
330
A5B8
100
AcDbEntity
  8
実形
 62
     0
370
    18
100
AcDbBlockReference
  2
_Dot
 10
773.7955584434891
 20
1570.547590588582
 30
0.0
 41
10.0
 42
10.0
 43
10.0
 50
90.0
  0
INSERT
  5
A8F2
330
A5B8
100
AcDbEntity
  8
実形
 62
     0
370
    18
100
AcDbBlockReference
  2
_Dot
 10
773.7955584434891
 20
1476.547590588581
 30
0.0
 41
10.0
 42
10.0
 43
10.0
 50
270.0
  0
MTEXT
  5
A8F3
330
A5B8
100
AcDbEntity
  8
実形
 62
     0
100
AcDbMText
 10
752.1955584434889
 20
1523.547590588582
 30
0.0
 40
30.0
 41
0.0
 71
     5
 72
     1
  1
94
 11
0.0000000000000001
 21
1.0
 31
0.0
 73
     1
 44
1.0
1001
ACAD
1000
MTEXTBEGIN
1070
    73
1070
     1
1070
    44
1040
1.0
1070
    74
1070
     0
1000
MTEXTEND
  0
POINT
  5
A8F4
330
A5B8
100
AcDbEntity
  8
Defpoints
 62
     0
100
AcDbPoint
 10
881.7955584434891
 20
1570.547590588582
 30
0.0
  0
POINT
  5
A8F5
330
A5B8
100
AcDbEntity
  8
Defpoints
 62
     0
100
AcDbPoint
 10
881.7955584434887
 20
1476.547590588581
 30
0.0
  0
POINT
  5
A8F6
330
A5B8
100
AcDbEntity
  8
Defpoints
 62
     0
100
AcDbPoint
 10
773.7955584434891
 20
1476.547590588581
 30
0.0
  0
ENDBLK
  5
A5C3
330
A5B8
100
AcDbEntity
  8
0
 62
     3
100
AcDbBlockEnd
  0
BLOCK
  5
A5CE
330
A5C4
100
AcDbEntity
  8
0
 62
     3
100
AcDbBlockBegin
  2
*D92
 70
     1
 10
0.0
 20
0.0
 30
0.0
  3
*D92
  1

  0
LINE
  5
A904
330
A5C4
100
AcDbEntity
  8
実形
 62
     0
370
    18
100
AcDbLine
 10
817.3318590869675
 20
1581.047590588581
 30
0.0
 11
723.0884875253086
 21
1581.047590588581
 31
0.0
  0
LINE
  5
A905
330
A5C4
100
AcDbEntity
  8
実形
 62
     0
370
    18
100
AcDbLine
 10
815.7932743971613
 20
1466.047590588582
 30
0.0
 11
723.0884875253086
 21
1466.047590588582
 31
0.0
  0
LINE
  5
A906
330
A5C4
100
AcDbEntity
  8
実形
 62
     0
370
    18
100
AcDbLine
 10
723.0884875253086
 20
1571.047590588581
 30
0.0
 11
723.0884875253086
 21
1476.047590588582
 31
0.0
  0
INSERT
  5
A907
330
A5C4
100
AcDbEntity
  8
実形
 62
     0
370
    18
100
AcDbBlockReference
  2
_Dot
 10
723.0884875253086
 20
1581.047590588581
 30
0.0
 41
10.0
 42
10.0
 43
10.0
 50
90.0
  0
INSERT
  5
A908
330
A5C4
100
AcDbEntity
  8
実形
 62
     0
370
    18
100
AcDbBlockReference
  2
_Dot
 10
723.0884875253086
 20
1466.047590588582
 30
0.0
 41
10.0
 42
10.0
 43
10.0
 50
270.0
  0
MTEXT
  5
A909
330
A5C4
100
AcDbEntity
  8
実形
 62
     0
100
AcDbMText
 10
701.4884875253084
 20
1523.547590588582
 30
0.0
 40
30.0
 41
0.0
 71
     5
 72
     1
  1
115
 11
0.0000000000000001
 21
1.0
 31
0.0
 73
     1
 44
1.0
1001
ACAD
1000
MTEXTBEGIN
1070
    73
1070
     1
1070
    44
1040
1.0
1070
    74
1070
     0
1000
MTEXTEND
  0
POINT
  5
A90A
330
A5C4
100
AcDbEntity
  8
Defpoints
 62
     0
100
AcDbPoint
 10
882.3318590869675
 20
1581.047590588581
 30
0.0
  0
POINT
  5
A90B
330
A5C4
100
AcDbEntity
  8
Defpoints
 62
     0
100
AcDbPoint
 10
880.7932743971614
 20
1466.047590588582
 30
0.0
  0
POINT
  5
A90C
330
A5C4
100
AcDbEntity
  8
Defpoints
 62
     0
100
AcDbPoint
 10
723.0884875253086
 20
1466.047590588582
 30
0.0
  0
ENDBLK
  5
A5CF
330
A5C4
100
AcDbEntity
  8
0
 62
     3
100
AcDbBlockEnd
  0
BLOCK
  5
A5DA
330
A5D0
100
AcDbEntity
  8
0
 62
     3
100
AcDbBlockBegin
  2
*D93
 70
     1
 10
0.0
 20
0.0
 30
0.0
  3
*D93
  1

  0
LINE
  5
A637
330
A5D0
100
AcDbEntity
  8
実形
 62
     0
370
    18
100
AcDbLine
 10
869.7192817249165
 20
1146.664926213184
 30
0.0
 11
869.7192817249165
 21
1089.489621137806
 31
0.0
  0
LINE
  5
A638
330
A5D0
100
AcDbEntity
  8
実形
 62
     0
370
    18
100
AcDbLine
 10
1050.001624972475
 20
1147.690712784909
 30
0.0
 11
1050.001624972475
 21
1089.489621137806
 31
0.0
  0
LINE
  5
A639
330
A5D0
100
AcDbEntity
  8
実形
 62
     0
370
    18
100
AcDbLine
 10
879.7192817249165
 20
1089.489621137806
 30
0.0
 11
1040.001624972475
 21
1089.489621137806
 31
0.0
  0
MTEXT
  5
A63A
330
A5D0
100
AcDbEntity
  8
実形
 62
     0
100
AcDbMText
 10
953.0530542580928
 20
1110.475006752988
 30
0.0
 40
25.0
 41
0.0
 71
     5
 72
     1
  1
180
 73
     1
 44
1.0
1001
ACAD
1000
MTEXTBEGIN
1070
    73
1070
     1
1070
    44
1040
1.0
1070
    74
1070
     0
1000
MTEXTEND
  0
INSERT
  5
A63B
330
A5D0
100
AcDbEntity
  8
実形
 62
     0
370
    18
100
AcDbBlockReference
  2
_Dot
 10
869.7192817249165
 20
1089.489621137806
 30
0.0
 41
10.0
 42
10.0
 43
10.0
 50
180.0
  0
INSERT
  5
A63C
330
A5D0
100
AcDbEntity
  8
実形
 62
     0
370
    18
100
AcDbBlockReference
  2
_Dot
 10
1050.001624972475
 20
1089.489621137806
 30
0.0
 41
10.0
 42
10.0
 43
10.0
  0
POINT
  5
A63D
330
A5D0
100
AcDbEntity
  8
Defpoints
 62
     0
100
AcDbPoint
 10
869.7192817249165
 20
1211.664926213184
 30
0.0
  0
POINT
  5
A63E
330
A5D0
100
AcDbEntity
  8
Defpoints
 62
     0
100
AcDbPoint
 10
1050.001624972475
 20
1212.690712784909
 30
0.0
  0
POINT
  5
A63F
330
A5D0
100
AcDbEntity
  8
Defpoints
 62
     0
100
AcDbPoint
 10
1050.001624972475
 20
1089.489621137806
 30
0.0
  0
ENDBLK
  5
A5DB
330
A5D0
100
AcDbEntity
  8
0
 62
     3
100
AcDbBlockEnd
  0
BLOCK
  5
A5E6
330
A5DC
100
AcDbEntity
  8
0
 62
     3
100
AcDbBlockBegin
  2
*D94
 70
     1
 10
0.0
 20
0.0
 30
0.0
  3
*D94
  1

  0
LINE
  5
A640
330
A5DC
100
AcDbEntity
  8
実形
 62
     0
370
    18
100
AcDbLine
 10
869.7192817249165
 20
1130.113016554904
 30
0.0
 11
869.7192817249165
 21
1089.489621137806
 31
0.0
  0
LINE
  5
A641
330
A5DC
100
AcDbEntity
  8
実形
 62
     0
370
    18
100
AcDbLine
 10
1065.001624972476
 20
1130.113016554904
 30
0.0
 11
1065.001624972476
 21
1089.489621137806
 31
0.0
  0
LINE
  5
A642
330
A5DC
100
AcDbEntity
  8
実形
 62
     0
370
    18
100
AcDbLine
 10
879.7192817249165
 20
1089.489621137806
 30
0.0
 11
1055.001624972476
 21
1089.489621137806
 31
0.0
  0
MTEXT
  5
A643
330
A5DC
100
AcDbEntity
  8
実形
 62
     0
100
AcDbMText
 10
1021.897324901853
 20
1111.089621137806
 30
0.0
 40
25.0
 41
0.0
 71
     5
 72
     1
  1
15
 73
     1
 44
1.0
1001
ACAD
1000
MTEXTBEGIN
1070
    73
1070
     1
1070
    44
1040
1.0
1070
    74
1070
     0
1000
MTEXTEND
  0
INSERT
  5
A644
330
A5DC
100
AcDbEntity
  8
実形
 62
     0
370
    18
100
AcDbBlockReference
  2
_Dot
 10
869.7192817249165
 20
1089.489621137806
 30
0.0
 41
10.0
 42
10.0
 43
10.0
 50
180.0
  0
INSERT
  5
A645
330
A5DC
100
AcDbEntity
  8
実形
 62
     0
370
    18
100
AcDbBlockReference
  2
_Dot
 10
1065.001624972476
 20
1089.489621137806
 30
0.0
 41
10.0
 42
10.0
 43
10.0
  0
POINT
  5
A646
330
A5DC
100
AcDbEntity
  8
Defpoints
 62
     0
100
AcDbPoint
 10
869.7192817249165
 20
1195.113016554904
 30
0.0
  0
POINT
  5
A647
330
A5DC
100
AcDbEntity
  8
Defpoints
 62
     0
100
AcDbPoint
 10
1065.001624972476
 20
1195.113016554904
 30
0.0
  0
POINT
  5
A648
330
A5DC
100
AcDbEntity
  8
Defpoints
 62
     0
100
AcDbPoint
 10
1065.001624972476
 20
1089.489621137806
 30
0.0
  0
ENDBLK
  5
A5E7
330
A5DC
100
AcDbEntity
  8
0
 62
     3
100
AcDbBlockEnd
  0
BLOCK
  5
A5F3
330
A5E8
100
AcDbEntity
  8
0
 62
     3
100
AcDbBlockBegin
  2
*D95
 70
     1
 10
0.0
 20
0.0
 30
0.0
  3
*D95
  1

  0
LINE
  5
A649
330
A5E8
100
AcDbEntity
  8
実形
 62
     0
370
    18
100
AcDbLine
 10
869.7192817249165
 20
1126.687645072907
 30
0.0
 11
869.7192817249165
 21
1034.82136086567
 31
0.0
  0
LINE
  5
A64A
330
A5E8
100
AcDbEntity
  8
実形
 62
     0
370
    18
100
AcDbLine
 10
1065.001624972476
 20
1126.687645072907
 30
0.0
 11
1065.001624972476
 21
1034.82136086567
 31
0.0
  0
LINE
  5
A64B
330
A5E8
100
AcDbEntity
  8
実形
 62
     0
370
    18
100
AcDbLine
 10
879.7192817249165
 20
1034.82136086567
 30
0.0
 11
915.8295151278359
 21
1034.82136086567
 31
0.0
  0
LINE
  5
A64C
330
A5E8
100
AcDbEntity
  8
実形
 62
     0
370
    18
100
AcDbLine
 10
1055.001624972476
 20
1034.82136086567
 30
0.0
 11
987.3628484611693
 21
1034.82136086567
 31
0.0
  0
MTEXT
  5
A64D
330
A5E8
100
AcDbEntity
  8
実形
 62
     0
100
AcDbMText
 10
951.5961817945026
 20
1053.497889809593
 30
0.0
 40
25.0
 41
0.0
 71
     5
 72
     1
  1
195
 73
     1
 44
1.0
1001
ACAD
1000
MTEXTBEGIN
1070
    73
1070
     1
1070
    44
1040
1.0
1070
    74
1070
     0
1000
MTEXTEND
  0
INSERT
  5
A64E
330
A5E8
100
AcDbEntity
  8
実形
 62
     0
370
    18
100
AcDbBlockReference
  2
_Dot
 10
869.7192817249165
 20
1034.82136086567
 30
0.0
 41
10.0
 42
10.0
 43
10.0
 50
180.0
  0
INSERT
  5
A64F
330
A5E8
100
AcDbEntity
  8
実形
 62
     0
370
    18
100
AcDbBlockReference
  2
_Dot
 10
1065.001624972476
 20
1034.82136086567
 30
0.0
 41
10.0
 42
10.0
 43
10.0
  0
POINT
  5
A650
330
A5E8
100
AcDbEntity
  8
Defpoints
 62
     0
100
AcDbPoint
 10
869.7192817249165
 20
1191.687645072907
 30
0.0
  0
POINT
  5
A651
330
A5E8
100
AcDbEntity
  8
Defpoints
 62
     0
100
AcDbPoint
 10
1065.001624972476
 20
1191.687645072907
 30
0.0
  0
POINT
  5
A652
330
A5E8
100
AcDbEntity
  8
Defpoints
 62
     0
100
AcDbPoint
 10
1065.001624972476
 20
1034.82136086567
 30
0.0
  0
ENDBLK
  5
A5F4
330
A5E8
100
AcDbEntity
  8
0
 62
     3
100
AcDbBlockEnd
  0
BLOCK
  5
A5FF
330
A5F5
100
AcDbEntity
  8
0
 62
     3
100
AcDbBlockBegin
  2
*D96
 70
     1
 10
0.0
 20
0.0
 30
0.0
  3
*D96
  1

  0
LINE
  5
A653
330
A5F5
100
AcDbEntity
  8
実形
 62
     0
370
    18
100
AcDbLine
 10
860.001624972476
 20
1147.126335391284
 30
0.0
 11
860.001624972476
 21
1034.82136086567
 31
0.0
  0
LINE
  5
A654
330
A5F5
100
AcDbEntity
  8
実形
 62
     0
370
    18
100
AcDbLine
 10
1065.001624972476
 20
1126.687645072907
 30
0.0
 11
1065.001624972476
 21
1034.82136086567
 31
0.0
  0
LINE
  5
A655
330
A5F5
100
AcDbEntity
  8
実形
 62
     0
370
    18
100
AcDbLine
 10
870.0016249724759
 20
1034.82136086567
 30
0.0
 11
1055.001624972476
 21
1034.82136086567
 31
0.0
  0
MTEXT
  5
A656
330
A5F5
100
AcDbEntity
  8
実形
 62
     0
100
AcDbMText
 10
831.2812132265825
 20
1056.42136086567
 30
0.0
 40
25.0
 41
0.0
 71
     5
 72
     1
  1
10
 73
     1
 44
1.0
1001
ACAD
1000
MTEXTBEGIN
1070
    73
1070
     1
1070
    44
1040
1.0
1070
    74
1070
     0
1000
MTEXTEND
  0
INSERT
  5
A657
330
A5F5
100
AcDbEntity
  8
実形
 62
     0
370
    18
100
AcDbBlockReference
  2
_Dot
 10
860.001624972476
 20
1034.82136086567
 30
0.0
 41
10.0
 42
10.0
 43
10.0
 50
180.0
  0
INSERT
  5
A658
330
A5F5
100
AcDbEntity
  8
実形
 62
     0
370
    18
100
AcDbBlockReference
  2
_Dot
 10
1065.001624972476
 20
1034.82136086567
 30
0.0
 41
10.0
 42
10.0
 43
10.0
  0
POINT
  5
A659
330
A5F5
100
AcDbEntity
  8
Defpoints
 62
     0
100
AcDbPoint
 10
860.001624972476
 20
1212.126335391285
 30
0.0
  0
POINT
  5
A65A
330
A5F5
100
AcDbEntity
  8
Defpoints
 62
     0
100
AcDbPoint
 10
1065.001624972476
 20
1191.687645072907
 30
0.0
  0
POINT
  5
A65B
330
A5F5
100
AcDbEntity
  8
Defpoints
 62
     0
100
AcDbPoint
 10
1065.001624972476
 20
1034.82136086567
 30
0.0
  0
ENDBLK
  5
A600
330
A5F5
100
AcDbEntity
  8
0
 62
     3
100
AcDbBlockEnd
  0
BLOCK
  5
A60B
330
A601
100
AcDbEntity
  8
0
 62
     3
100
AcDbBlockBegin
  2
*D97
 70
     1
 10
0.0
 20
0.0
 30
0.0
  3
*D97
  1

  0
LINE
  5
A65C
330
A601
100
AcDbEntity
  8
実形
 62
     0
370
    18
100
AcDbLine
 10
860.001624972476
 20
1041.1720366326
 30
0.0
 11
860.001624972476
 21
980.401716778365
 31
0.0
  0
LINE
  5
A65D
330
A601
100
AcDbEntity
  8
実形
 62
     0
370
    18
100
AcDbLine
 10
1065.001624972476
 20
1061.687645072907
 30
0.0
 11
1065.001624972476
 21
980.401716778365
 31
0.0
  0
LINE
  5
A65E
330
A601
100
AcDbEntity
  8
実形
 62
     0
370
    18
100
AcDbLine
 10
870.0016249724759
 20
980.401716778365
 30
0.0
 11
1055.001624972476
 21
980.401716778365
 31
0.0
  0
MTEXT
  5
A65F
330
A601
100
AcDbEntity
  8
実形
 62
     0
100
AcDbMText
 10
951.5961817945026
 20
999.501716778365
 30
0.0
 40
25.0
 41
0.0
 71
     5
 72
     1
  1
205
 73
     1
 44
1.0
1001
ACAD
1000
MTEXTBEGIN
1070
    73
1070
     1
1070
    44
1040
1.0
1070
    74
1070
     0
1000
MTEXTEND
  0
INSERT
  5
A660
330
A601
100
AcDbEntity
  8
実形
 62
     0
370
    18
100
AcDbBlockReference
  2
_Dot
 10
860.001624972476
 20
980.401716778365
 30
0.0
 41
10.0
 42
10.0
 43
10.0
 50
180.0
  0
INSERT
  5
A661
330
A601
100
AcDbEntity
  8
実形
 62
     0
370
    18
100
AcDbBlockReference
  2
_Dot
 10
1065.001624972476
 20
980.401716778365
 30
0.0
 41
10.0
 42
10.0
 43
10.0
  0
POINT
  5
A662
330
A601
100
AcDbEntity
  8
Defpoints
 62
     0
100
AcDbPoint
 10
860.001624972476
 20
1106.172036632599
 30
0.0
  0
POINT
  5
A663
330
A601
100
AcDbEntity
  8
Defpoints
 62
     0
100
AcDbPoint
 10
1065.001624972476
 20
1126.687645072907
 30
0.0
  0
POINT
  5
A664
330
A601
100
AcDbEntity
  8
Defpoints
 62
     0
100
AcDbPoint
 10
1065.001624972476
 20
980.401716778365
 30
0.0
  0
ENDBLK
  5
A60C
330
A601
100
AcDbEntity
  8
0
 62
     3
100
AcDbBlockEnd
  0
BLOCK
  5
A617
330
A60D
100
AcDbEntity
  8
0
 62
     3
100
AcDbBlockBegin
  2
*D98
 70
     1
 10
0.0
 20
0.0
 30
0.0
  3
*D98
  1

  0
LINE
  5
A7E3
330
A60D
100
AcDbEntity
  8
実形
 62
     0
370
    18
100
AcDbLine
 10
850.0016249724756
 20
1031.143187744635
 30
0.0
 11
850.0016249724756
 21
980.401716778365
 31
0.0
  0
LINE
  5
A7E4
330
A60D
100
AcDbEntity
  8
実形
 62
     0
370
    18
100
AcDbLine
 10
1065.001624972476
 20
1147.690712784909
 30
0.0
 11
1065.001624972476
 21
980.401716778365
 31
0.0
  0
LINE
  5
A7E5
330
A60D
100
AcDbEntity
  8
実形
 62
     0
370
    18
100
AcDbLine
 10
860.0016249724756
 20
980.401716778365
 30
0.0
 11
1055.001624972476
 21
980.401716778365
 31
0.0
  0
MTEXT
  5
A7E6
330
A60D
100
AcDbEntity
  8
実形
 62
     0
100
AcDbMText
 10
819.7763147297083
 20
1002.001716778365
 30
0.0
 40
25.0
 41
0.0
 71
     5
 72
     1
  1
10
 73
     1
 44
1.0
1001
ACAD
1000
MTEXTBEGIN
1070
    73
1070
     1
1070
    44
1040
1.0
1070
    74
1070
     0
1000
MTEXTEND
  0
INSERT
  5
A7E7
330
A60D
100
AcDbEntity
  8
実形
 62
     0
370
    18
100
AcDbBlockReference
  2
_Dot
 10
850.0016249724756
 20
980.401716778365
 30
0.0
 41
10.0
 42
10.0
 43
10.0
 50
180.0
  0
INSERT
  5
A7E8
330
A60D
100
AcDbEntity
  8
実形
 62
     0
370
    18
100
AcDbBlockReference
  2
_Dot
 10
1065.001624972476
 20
980.401716778365
 30
0.0
 41
10.0
 42
10.0
 43
10.0
  0
POINT
  5
A7E9
330
A60D
100
AcDbEntity
  8
Defpoints
 62
     0
100
AcDbPoint
 10
850.0016249724756
 20
1096.143187744635
 30
0.0
  0
POINT
  5
A7EA
330
A60D
100
AcDbEntity
  8
Defpoints
 62
     0
100
AcDbPoint
 10
1065.001624972476
 20
1212.690712784909
 30
0.0
  0
POINT
  5
A7EB
330
A60D
100
AcDbEntity
  8
Defpoints
 62
     0
100
AcDbPoint
 10
1065.001624972476
 20
980.401716778365
 30
0.0
  0
ENDBLK
  5
A618
330
A60D
100
AcDbEntity
  8
0
 62
     3
100
AcDbBlockEnd
  0
BLOCK
  5
A623
330
A619
100
AcDbEntity
  8
0
 62
     3
100
AcDbBlockBegin
  2
*D99
 70
     1
 10
0.0
 20
0.0
 30
0.0
  3
*D99
  1

  0
LINE
  5
A7EC
330
A619
100
AcDbEntity
  8
実形
 62
     0
370
    18
100
AcDbLine
 10
850.0016249724756
 20
999.6766790516803
 30
0.0
 11
850.0016249724756
 21
921.4158920512026
 31
0.0
  0
LINE
  5
A7ED
330
A619
100
AcDbEntity
  8
実形
 62
     0
370
    18
100
AcDbLine
 10
1065.001624972476
 20
972.3213608656706
 30
0.0
 11
1065.001624972476
 21
921.4158920512026
 31
0.0
  0
LINE
  5
A7EE
330
A619
100
AcDbEntity
  8
実形
 62
     0
370
    18
100
AcDbLine
 10
860.0016249724756
 20
921.4158920512026
 30
0.0
 11
1055.001624972476
 21
921.4158920512026
 31
0.0
  0
MTEXT
  5
A7EF
330
A619
100
AcDbEntity
  8
実形
 62
     0
100
AcDbMText
 10
951.5961817945026
 20
940.5158920512027
 30
0.0
 40
25.0
 41
0.0
 71
     5
 72
     1
  1
215
 73
     1
 44
1.0
1001
ACAD
1000
MTEXTBEGIN
1070
    73
1070
     1
1070
    44
1040
1.0
1070
    74
1070
     0
1000
MTEXTEND
  0
INSERT
  5
A7F0
330
A619
100
AcDbEntity
  8
実形
 62
     0
370
    18
100
AcDbBlockReference
  2
_Dot
 10
850.0016249724756
 20
921.4158920512026
 30
0.0
 41
10.0
 42
10.0
 43
10.0
 50
180.0
  0
INSERT
  5
A7F1
330
A619
100
AcDbEntity
  8
実形
 62
     0
370
    18
100
AcDbBlockReference
  2
_Dot
 10
1065.001624972476
 20
921.4158920512026
 30
0.0
 41
10.0
 42
10.0
 43
10.0
  0
POINT
  5
A7F2
330
A619
100
AcDbEntity
  8
Defpoints
 62
     0
100
AcDbPoint
 10
850.0016249724756
 20
1064.67667905168
 30
0.0
  0
POINT
  5
A7F3
330
A619
100
AcDbEntity
  8
Defpoints
 62
     0
100
AcDbPoint
 10
1065.001624972476
 20
1037.321360865671
 30
0.0
  0
POINT
  5
A7F4
330
A619
100
AcDbEntity
  8
Defpoints
 62
     0
100
AcDbPoint
 10
1065.001624972476
 20
921.4158920512026
 30
0.0
  0
ENDBLK
  5
A624
330
A619
100
AcDbEntity
  8
0
 62
     3
100
AcDbBlockEnd
  0
BLOCK
  5
A864
330
A856
100
AcDbEntity
  8
0
 62
     3
100
AcDbBlockBegin
  2
A$C60495DE3
 70
     0
 10
0.0
 20
0.0
 30
0.0
  3
A$C60495DE3
  1

  0
LINE
  5
A857
330
A856
100
AcDbEntity
  8
補助
100
AcDbLine
 10
0.0
 20
-64.99999999999954
 30
0.0
 11
-764.6127134807173
 21
-64.99999999999932
 31
0.0
  0
LINE
  5
A858
330
A856
100
AcDbEntity
  8
補助
100
AcDbLine
 10
0.0
 20
-129.9999999999995
 30
0.0
 11
-764.6127134807177
 21
-129.9999999999995
 31
0.0
  0
LINE
  5
A859
330
A856
100
AcDbEntity
  8
補助
100
AcDbLine
 10
-581.4523465790735
 20
-129.9999999999998
 30
0.0
 11
-581.4523465790735
 21
0.0000000000006821
 31
0.0
  0
LINE
  5
A85A
330
A856
100
AcDbEntity
  8
補助
100
AcDbLine
 10
-764.6127134807175
 20
-129.9999999999998
 30
0.0
 11
-764.6127134807173
 21
0.0000000000006821
 31
0.0
  0
TEXT
  5
A85B
330
A856
100
AcDbEntity
  8
補助
100
AcDbText
 10
-733.7043011498792
 20
-47.67142857142789
 30
0.0
 40
30.0
  1
部品名
  7
明朝
 72
     4
 11
-667.8757297213078
 21
-32.49999999999932
 31
0.0
100
AcDbText
  0
TEXT
  5
A85C
330
A856
100
AcDbEntity
  8
補助
100
AcDbText
 10
-156.3857142857143
 20
-47.92857142857075
 30
0.0
 40
30.0
  1
厚さ
  7
明朝
 72
     4
 11
-112.5
 21
-32.49999999999932
 31
0.0
100
AcDbText
  0
LINE
  5
A85D
330
A856
100
AcDbEntity
  8
補助
100
AcDbLine
 10
-225.0
 20
-129.9999999999998
 30
0.0
 11
-225.0
 21
0.0000000000006821
 31
0.0
  0
TEXT
  5
A85E
330
A856
100
AcDbEntity
  8
補助
100
AcDbText
 10
-445.5091300800633
 20
-48.05202052184517
 30
0.0
 40
30.0
  1
材質
  7
明朝
 72
     4
 11
-401.6234157943491
 21
-32.8805919504166
 31
0.0
100
AcDbText
  0
TEXT
  5
A85F
330
A856
100
AcDbEntity
  8
実形
100
AcDbText
 10
-735.7721893422124
 20
-113.4428571428569
 30
0.0
 40
30.0
  1
ボウル
  7
明朝
 72
     4
 11
-669.943617913641
 21
-97.49999999999978
 31
0.0
100
AcDbText
  0
TEXT
  5
A860
330
A856
100
AcDbEntity
  8
実形
100
AcDbText
 10
-189.2999999999991
 20
-112.1571428571426
 30
0.0
 40
30.0
  1
0.5ｍｍ
  7
明朝
 72
     4
 11
-112.4999999999991
 21
-97.49999999999978
 31
0.0
100
AcDbText
  0
TEXT
  5
A861
330
A856
100
AcDbEntity
  8
実形
100
AcDbText
 10
-522.9831308921343
 20
-113.2714285714283
 30
0.0
 40
30.0
  1
SUS304（BA）
  7
明朝
 72
     4
 11
-391.3259880349915
 21
-97.49999999999978
 31
0.0
100
AcDbText
  0
ENDBLK
  5
A865
330
A856
100
AcDbEntity
  8
0
 62
     3
100
AcDbBlockEnd
  0
ENDSEC
  0
SECTION
  2
ENTITIES
  0
LINE
  5
9C
330
1F
100
AcDbEntity
  8
実形
 62
     0
100
AcDbLine
 10
174.0
 20
3.99999999999909
 30
0.0
 11
2834.0
 21
3.99999999999909
 31
0.0
  0
LINE
  5
A0
330
1F
100
AcDbEntity
  8
枠
 62
     0
100
AcDbLine
 10
2834.0
 20
2023.999999999999
 30
0.0
 11
174.0
 21
2023.999999999999
 31
0.0
  0
LINE
  5
272
330
1F
100
AcDbEntity
  8
実形
 62
     0
100
AcDbLine
 10
2234.0
 20
133.9999999999991
 30
0.0
 11
2234.0
 21
198.9999999999991
 31
0.0
  0
LINE
  5
1B73
330
1F
100
AcDbEntity
  8
枠
 62
     0
100
AcDbLine
 10
1944.0
 20
2023.999999999999
 30
0.0
 11
2834.0
 21
2023.999999999999
 31
0.0
  0
LINE
  5
1B84
330
1F
100
AcDbEntity
  8
実形
 62
     0
100
AcDbLine
 10
2114.0
 20
68.99999999999909
 30
0.0
 11
2834.0
 21
68.99999999999909
 31
0.0
  0
LINE
  5
1B85
330
1F
100
AcDbEntity
  8
実形
 62
     0
100
AcDbLine
 10
2114.0
 20
198.9999999999991
 30
0.0
 11
2834.0
 21
198.9999999999991
 31
0.0
  0
LINE
  5
1B86
330
1F
100
AcDbEntity
  8
実形
 62
     0
100
AcDbLine
 10
2114.0
 20
133.9999999999991
 30
0.0
 11
2834.0
 21
133.9999999999991
 31
0.0
  0
LINE
  5
1B87
330
1F
100
AcDbEntity
  8
実形
 62
     0
100
AcDbLine
 10
2114.0
 20
3.99999999999909
 30
0.0
 11
2114.0
 21
198.9999999999991
 31
0.0
  0
TEXT
  5
1B88
330
1F
100
AcDbEntity
  8
実形
 62
     0
100
AcDbText
 10
2340.958204313131
 20
18.49999999999909
 30
0.0
 40
35.0
  1
中外交易株式会社
  7
ms明朝
 72
     4
 11
2545.758204313131
 21
36.49999999999909
 31
0.0
100
AcDbText
  0
LINE
  5
1B8A
330
1F
100
AcDbEntity
  8
実形
 62
     0
100
AcDbLine
 10
2234.0
 20
68.99999999999909
 30
0.0
 11
2834.0
 21
68.99999999999909
 31
0.0
  0
LINE
  5
1B8B
102
{ACAD_REACTORS
330
1B98
102
}
330
1F
100
AcDbEntity
  8
実形
 62
     0
370
     5
100
AcDbLine
 10
2257.843923164362
 20
40.53787547858428
 30
0.0
 11
2233.255774665348
 21
40.53787547858428
 31
0.0
  0
LINE
  5
1B8C
102
{ACAD_REACTORS
330
1B98
102
}
330
1F
100
AcDbEntity
  8
実形
 62
     0
370
     5
100
AcDbLine
 10
2233.255774665348
 20
40.53787547858428
 30
0.0
 11
2233.255774665348
 21
30.53787547858429
 31
0.0
  0
LINE
  5
1B8D
102
{ACAD_REACTORS
330
1B98
102
}
330
1F
100
AcDbEntity
  8
実形
 62
     0
370
     5
100
AcDbLine
 10
2233.255774665348
 20
30.53787547858429
 30
0.0
 11
2257.346428692676
 21
30.53787547858429
 31
0.0
  0
LINE
  5
1B8E
102
{ACAD_REACTORS
330
1B98
102
}
330
1F
100
AcDbEntity
  8
実形
 62
     0
370
     5
100
AcDbLine
 10
2260.641894042939
 20
56.49999999999909
 30
0.0
 11
2260.641894042939
 21
16.49999999999909
 31
0.0
  0
LINE
  5
1B8F
102
{ACAD_REACTORS
330
1B98
102
}
330
1F
100
AcDbEntity
  8
実形
 62
     0
370
     5
100
AcDbLine
 10
2260.641894042939
 20
16.49999999999909
 30
0.0
 11
2295.641894042939
 21
16.49999999999909
 31
0.0
  0
LINE
  5
1B90
102
{ACAD_REACTORS
330
1B98
102
}
330
1F
100
AcDbEntity
  8
実形
 62
     0
370
     5
100
AcDbLine
 10
2295.641894042939
 20
16.49999999999909
 30
0.0
 11
2260.641894042939
 21
36.49999999999909
 31
0.0
  0
LINE
  5
1B91
102
{ACAD_REACTORS
330
1B98
102
}
330
1F
100
AcDbEntity
  8
実形
 62
     0
370
     5
100
AcDbLine
 10
2260.641894042939
 20
36.49999999999909
 30
0.0
 11
2295.641894042939
 21
56.49999999999909
 31
0.0
  0
LINE
  5
1B92
102
{ACAD_REACTORS
330
1B98
102
}
330
1F
100
AcDbEntity
  8
実形
 62
     0
370
     5
100
AcDbLine
 10
2295.641894042939
 20
56.49999999999909
 30
0.0
 11
2260.641894042939
 21
56.49999999999909
 31
0.0
  0
LINE
  5
1B93
102
{ACAD_REACTORS
330
1B98
102
}
330
1F
100
AcDbEntity
  8
実形
 62
     0
370
     5
100
AcDbLine
 10
2326.75434681301
 20
40.53787547858428
 30
0.0
 11
2302.166198313996
 21
40.53787547858428
 31
0.0
  0
LINE
  5
1B94
102
{ACAD_REACTORS
330
1B98
102
}
330
1F
100
AcDbEntity
  8
実形
 62
     0
370
     5
100
AcDbLine
 10
2302.166198313996
 20
40.53787547858428
 30
0.0
 11
2302.166198313996
 21
30.53787547858429
 31
0.0
  0
LINE
  5
1B95
102
{ACAD_REACTORS
330
1B98
102
}
330
1F
100
AcDbEntity
  8
実形
 62
     0
370
     5
100
AcDbLine
 10
2302.166198313996
 20
30.53787547858429
 30
0.0
 11
2326.256852341323
 21
30.53787547858429
 31
0.0
  0
ARC
  5
1B96
102
{ACAD_REACTORS
330
1B98
102
}
330
1F
100
AcDbEntity
  8
実形
 62
     0
370
     5
100
AcDbCircle
 10
2238.255774665347
 20
36.49999999999909
 30
0.0
 40
20.0
100
AcDbArc
 50
11.64772366708617
 51
342.6561058784773
  0
ARC
  5
1B97
102
{ACAD_REACTORS
330
1B98
102
}
330
1F
100
AcDbEntity
  8
実形
 62
     0
370
     5
100
AcDbCircle
 10
2307.166198313995
 20
36.49999999999909
 30
0.0
 40
20.0
100
AcDbArc
 50
11.64772366708617
 51
342.6561058784773
  0
HATCH
  5
1B98
330
1F
100
AcDbEntity
  8
実形
 62
     0
100
AcDbHatch
 10
0.0
 20
0.0
 30
0.0
210
0.0
220
0.0
230
1.0
  2
SOLID
 70
     1
 71
     1
 91
        3
 92
        1
 93
        4
 72
     2
 10
2307.166198313995
 20
36.49999999999909
 40
20.0
 50
11.64772366708617
 51
342.6561058784773
 73
     1
 72
     1
 10
2326.256852341323
 20
30.53787547858429
 11
2302.166198313996
 21
30.53787547858429
 72
     1
 10
2302.166198313996
 20
30.53787547858429
 11
2302.166198313996
 21
40.53787547858428
 72
     1
 10
2302.166198313996
 20
40.53787547858428
 11
2326.75434681301
 21
40.53787547858428
 97
        4
330
1B97
330
1B95
330
1B94
330
1B93
 92
        1
 93
        4
 72
     2
 10
2238.255774665347
 20
36.49999999999909
 40
20.0
 50
11.64772366708617
 51
342.6561058784773
 73
     1
 72
     1
 10
2257.346428692676
 20
30.53787547858429
 11
2233.255774665348
 21
30.53787547858429
 72
     1
 10
2233.255774665348
 20
30.53787547858429
 11
2233.255774665348
 21
40.53787547858428
 72
     1
 10
2233.255774665348
 20
40.53787547858428
 11
2257.843923164362
 21
40.53787547858428
 97
        4
330
1B96
330
1B8D
330
1B8C
330
1B8B
 92
        1
 93
        5
 72
     1
 10
2295.641894042939
 20
56.49999999999909
 11
2260.641894042939
 21
56.49999999999909
 72
     1
 10
2260.641894042939
 20
56.49999999999909
 11
2260.641894042939
 21
16.49999999999909
 72
     1
 10
2260.641894042939
 20
16.49999999999909
 11
2295.641894042939
 21
16.49999999999909
 72
     1
 10
2295.641894042939
 20
16.49999999999909
 11
2260.641894042939
 21
36.49999999999909
 72
     1
 10
2260.641894042939
 20
36.49999999999909
 11
2295.641894042939
 21
56.49999999999909
 97
        5
330
1B92
330
1B8E
330
1B8F
330
1B90
330
1B91
 75
     0
 76
     1
 98
        1
 10
-10.0
 20
-0.0000000000009095
  0
LINE
  5
1B99
330
1F
100
AcDbEntity
  8
実形
 62
     0
100
AcDbLine
 10
2234.0
 20
68.99999999999909
 30
0.0
 11
2234.0
 21
198.9999999999991
 31
0.0
  0
TEXT
  5
5E5F
330
1F
100
AcDbEntity
  8
実形
 62
     0
100
AcDbText
 10
2136.666666666667
 20
83.99999999999909
 30
0.0
 40
35.0
  1
尺度
 72
     4
 11
2174.0
 21
101.4999999999991
 31
0.0
100
AcDbText
  0
TEXT
  5
5E68
330
1F
100
AcDbEntity
  8
実形
 62
     0
100
AcDbText
 10
2136.666666666667
 20
148.9999999999991
 30
0.0
 40
35.0
  1
品番
 72
     4
 11
2174.0
 21
166.4999999999991
 31
0.0
100
AcDbText
  0
TEXT
  5
68BC
330
1F
100
AcDbEntity
  8
実形
100
AcDbText
 10
2452.398110327865
 20
87.12524385046025
 30
0.0
 40
30.0
  1
1：10
  7
ms明朝
 72
     4
 11
2507.255253185007
 21
101.7823867076031
 31
0.0
100
AcDbText
  0
TEXT
  5
68D6
330
1F
100
AcDbEntity
  8
実形
100
AcDbText
 10
2295.57649435253
 20
151.1737324271812
 30
0.0
 40
30.0
  1
RaS216-524-510DAN-L
  7
ms明朝
 72
     4
 11
2504.033637209673
 21
165.830875284324
 31
0.0
100
AcDbText
  0
LINE
  5
6D9B
330
1F
100
AcDbEntity
  8
実形
 62
     0
100
AcDbLine
 10
2834.0
 20
4.0
 30
0.0
 11
2834.0
 21
2024.0
 31
0.0
  0
LINE
  5
6E31
330
1F
100
AcDbEntity
  8
実形
 62
     0
100
AcDbLine
 10
174.0
 20
2024.0
 30
0.0
 11
174.0
 21
4.0
 31
0.0
  0
LINE
  5
7026
330
1F
100
AcDbEntity
  8
実形
100
AcDbLine
 10
1144.012719908287
 20
1718.547590588581
 30
0.0
 11
1974.012719908287
 21
1718.547590588581
 31
0.0
  0
LINE
  5
7027
330
1F
100
AcDbEntity
  8
実形
100
AcDbLine
 10
1974.012719908287
 20
1718.547590588581
 30
0.0
 11
1974.012719908287
 21
1178.547590588581
 31
0.0
  0
LINE
  5
7028
330
1F
100
AcDbEntity
  8
実形
100
AcDbLine
 10
1974.012719908287
 20
1178.547590588581
 30
0.0
 11
1144.012719908287
 21
1178.547590588581
 31
0.0
  0
LINE
  5
7029
330
1F
100
AcDbEntity
  8
実形
100
AcDbLine
 10
1144.012719908287
 20
1178.547590588581
 30
0.0
 11
1144.012719908287
 21
1718.547590588581
 31
0.0
  0
LINE
  5
702A
330
1F
100
AcDbEntity
  8
実形
100
AcDbLine
 10
1165.012719908287
 20
1703.547590588581
 30
0.0
 11
1953.012719908287
 21
1703.547590588581
 31
0.0
  0
LINE
  5
702B
330
1F
100
AcDbEntity
  8
実形
100
AcDbLine
 10
1959.012719908287
 20
1697.547590588581
 30
0.0
 11
1959.012719908287
 21
1199.547590588581
 31
0.0
  0
LINE
  5
702C
330
1F
100
AcDbEntity
  8
実形
100
AcDbLine
 10
1953.012719908287
 20
1193.547590588581
 30
0.0
 11
1165.012719908287
 21
1193.547590588581
 31
0.0
  0
LINE
  5
702D
330
1F
100
AcDbEntity
  8
実形
100
AcDbLine
 10
1159.012719908287
 20
1199.547590588581
 30
0.0
 11
1159.012719908287
 21
1697.547590588581
 31
0.0
  0
LINE
  5
702E
330
1F
100
AcDbEntity
  8
実形
100
AcDbLine
 10
1179.012719908287
 20
1219.547590588581
 30
0.0
 11
1179.012719908287
 21
1607.547590588582
 31
0.0
  0
LINE
  5
702F
330
1F
100
AcDbEntity
  8
実形
100
AcDbLine
 10
1421.012719908287
 20
1683.547590588582
 30
0.0
 11
1933.012719908287
 21
1683.547590588581
 31
0.0
  0
LINE
  5
7030
330
1F
100
AcDbEntity
  8
実形
100
AcDbLine
 10
1939.012719908287
 20
1677.547590588581
 30
0.0
 11
1939.012719908287
 21
1219.547590588581
 31
0.0
  0
LINE
  5
7031
330
1F
100
AcDbEntity
  8
実形
100
AcDbLine
 10
1389.012719908287
 20
1213.547590588581
 30
0.0
 11
1185.012719908287
 21
1213.547590588581
 31
0.0
  0
LINE
  5
7180
330
1F
100
AcDbEntity
  8
実形
  6
ACAD_ISO08W100
 48
0.5
100
AcDbLine
 10
1706.712417014785
 20
1448.547590588581
 30
0.0
 11
1431.684532416841
 21
1448.547590588581
 31
0.0
  0
CIRCLE
  5
7183
330
1F
100
AcDbEntity
  8
実形
100
AcDbCircle
 10
1565.012719908287
 20
1448.547590588581
 30
0.0
 40
80.0
  0
CIRCLE
  5
7184
330
1F
100
AcDbEntity
  8
実形
100
AcDbCircle
 10
1565.012719908287
 20
1448.547590588581
 30
0.0
 40
90.5
  0
LINE
  5
7185
330
1F
100
AcDbEntity
  8
実形
100
AcDbLine
 10
1179.012719908287
 20
1718.547590588581
 30
0.0
 11
1329.012719908287
 21
1718.547590588581
 31
0.0
  0
LINE
  5
72ED
330
1F
100
AcDbEntity
  8
実形
 62
     3
100
AcDbLine
 10
797.3710940401324
 20
-382.3860966284574
 30
0.0
 11
797.3710940401326
 21
-392.3860966284574
 31
0.0
  0
TEXT
  5
734A
330
1F
100
AcDbEntity
  8
実形
100
AcDbText
 10
1825.769148667725
 20
1590.541494783107
 30
0.0
 40
25.0
  1
6R
 72
     2
 11
1867.435815334392
 21
1587.208161449773
 31
0.0
100
AcDbText
 73
     1
  0
LEADER
  5
734B
330
1F
100
AcDbEntity
  8
実形
100
AcDbLeader
  3
ISO-25
 76
     2
 10
1928.643578444889
 20
1669.136201894871
 30
0.0
 10
1874.586632314846
 20
1620.239959021415
 30
0.0
1001
ACAD
1000
DSTYLE
1002
{
1070
    77
1070
     0
1070
    41
1040
10.0
1070
   140
1040
30.0
1070
   147
1040
6.599999999999998
1070
   279
1070
     2
1070
   342
1005
30D
1070
   371
1070
    18
1070
   372
1070
    18
1002
}
  0
TEXT
  5
73F5
330
1F
100
AcDbEntity
  8
実形
100
AcDbText
 10
1824.583018591256
 20
1224.543897843143
 30
0.0
 40
25.0
  1
6R
 72
     2
 11
1866.249685257923
 21
1221.210564509809
 31
0.0
100
AcDbText
 73
     1
  0
LEADER
  5
73F6
330
1F
100
AcDbEntity
  8
実形
100
AcDbLeader
  3
ISO-25
 76
     2
 10
1949.982656247365
 20
1200.631757324563
 30
0.0
 10
1881.741434131287
 20
1229.556509852824
 30
0.0
1001
ACAD
1000
DSTYLE
1002
{
1070
    77
1070
     0
1070
    41
1040
10.0
1070
   140
1040
30.0
1070
   147
1040
6.599999999999998
1070
   279
1070
     2
1070
   342
1005
30D
1070
   371
1070
    18
1070
   372
1070
    18
1002
}
  0
ARC
  5
7548
330
1F
100
AcDbEntity
  8
実形
100
AcDbCircle
 10
1953.012719908287
 20
1697.547590588581
 30
0.0
 40
6.0
100
AcDbArc
 50
0.0
 51
90.0
  0
ARC
  5
7549
330
1F
100
AcDbEntity
  8
実形
100
AcDbCircle
 10
1933.012719908287
 20
1219.547590588581
 30
0.0
 40
6.0
100
AcDbArc
 50
270.0
 51
0.0
  0
ARC
  5
754A
330
1F
100
AcDbEntity
  8
実形
100
AcDbCircle
 10
1953.012719908287
 20
1199.547590588581
 30
0.0
 40
6.0
100
AcDbArc
 50
270.0
 51
0.0
  0
ARC
  5
754C
330
1F
100
AcDbEntity
  8
実形
100
AcDbCircle
 10
1165.012719908287
 20
1697.547590588581
 30
0.0
 40
6.0
100
AcDbArc
 50
89.99999999999998
 51
180.0
  0
ARC
  5
754D
330
1F
100
AcDbEntity
  8
実形
100
AcDbCircle
 10
1185.012719908287
 20
1219.547590588581
 30
0.0
 40
6.0
100
AcDbArc
 50
180.0
 51
270.0
  0
ARC
  5
754E
330
1F
100
AcDbEntity
  8
実形
100
AcDbCircle
 10
1165.012719908287
 20
1199.547590588581
 30
0.0
 40
6.0
100
AcDbArc
 50
180.0
 51
270.0
  0
LINE
  5
774D
330
1F
100
AcDbEntity
  8
実形
 62
     0
100
AcDbLine
 10
2114.0
 20
263.9999999999991
 30
0.0
 11
2834.0
 21
263.9999999999991
 31
0.0
  0
LINE
  5
774E
330
1F
100
AcDbEntity
  8
実形
 62
     0
100
AcDbLine
 10
2114.0
 20
3.99999999999909
 30
0.0
 11
2114.0
 21
263.9999999999991
 31
0.0
  0
LINE
  5
774F
330
1F
100
AcDbEntity
  8
実形
 62
     0
100
AcDbLine
 10
2234.0
 20
68.99999999999909
 30
0.0
 11
2234.0
 21
263.9999999999992
 31
0.0
  0
TEXT
  5
7750
330
1F
100
AcDbEntity
  8
実形
 62
     0
100
AcDbText
 10
2137.833333333333
 20
213.9999999999991
 30
0.0
 40
35.0
  1
品名
 72
     4
 11
2174.0
 21
231.4999999999991
 31
0.0
100
AcDbText
  0
TEXT
  5
7751
330
1F
100
AcDbEntity
  8
実形
100
AcDbText
 10
2298.220309672192
 20
213.2308752843241
 30
0.0
 40
35.0
  1
ｱﾝﾀﾞｰｼﾝｸ
  7
ms明朝
 72
     4
 11
2400.620309672193
 21
230.8308752843241
 31
0.0
100
AcDbText
  0
LINE
  5
7796
330
1F
100
AcDbEntity
  8
実形
100
AcDbLine
 10
1185.012719908287
 20
1613.547590588582
 30
0.0
 11
1389.012719908286
 21
1613.547590588581
 31
0.0
  0
DIMENSION
  5
78E9
330
1F
100
AcDbEntity
  8
実形
100
AcDbDimension
  2
*D11
 10
2134.887606234373
 20
1193.547590588581
 30
0.0
 11
2115.787606234373
 21
1448.547590588582
 31
0.0
 70
    32
 71
     5
 42
509.9999999999997
  3
ISO-25
100
AcDbAlignedDimension
 13
2021.564269093707
 23
1703.547590588581
 33
0.0
 14
2021.564269093708
 24
1193.547590588581
 34
0.0
 50
90.0
100
AcDbRotatedDimension
1001
ACAD
1000
DSTYLE
1002
{
1070
    41
1040
10.0
1070
   140
1040
25.0
1070
   147
1040
6.599999999999998
1070
   279
1070
     2
1070
   342
1005
30D
1070
   371
1070
    18
1070
   372
1070
    18
1002
}
  0
DIMENSION
  5
78F6
330
1F
100
AcDbEntity
  8
実形
100
AcDbDimension
  2
*D12
 10
2134.887606234373
 20
1178.547590588581
 30
0.0
 11
2113.287606234373
 21
1748.094729214858
 31
0.0
 70
   160
  1
15
 71
     5
 42
540.0
  3
ISO-25
100
AcDbAlignedDimension
 13
1973.005949436618
 23
1718.547590588581
 33
0.0
 14
1975.878208169175
 24
1178.547590588581
 34
0.0
 50
90.0
100
AcDbRotatedDimension
1001
ACAD
1000
DSTYLE
1002
{
1070
    41
1040
10.0
1070
   140
1040
25.0
1070
   147
1040
6.599999999999998
1070
   279
1070
     2
1070
   342
1005
30D
1070
   371
1070
    18
1070
   372
1070
    18
1002
}
  0
TEXT
  5
7938
330
1F
100
AcDbEntity
  8
実形
 48
20.0
100
AcDbText
 10
2127.165108926169
 20
1126.897771200849
 30
0.0
 40
25.0
  1
15
 50
90.0
100
AcDbText
  0
DIMENSION
  5
7A0D
330
1F
100
AcDbEntity
  8
実形
100
AcDbDimension
  2
*D14
 10
609.9797339783617
 20
1613.547590588582
 30
0.0
 11
590.8797339783615
 21
1658.547590588582
 31
0.0
 70
    32
 71
     5
 42
89.99999999999955
  3
ISO-25
100
AcDbAlignedDimension
 13
738.4229535701579
 23
1703.547590588581
 33
0.0
 14
717.4018063546245
 24
1613.547590588582
 34
0.0
 50
90.0
100
AcDbRotatedDimension
1001
ACAD
1000
DSTYLE
1002
{
1070
    41
1040
10.0
1070
   140
1040
25.0
1070
   147
1040
6.599999999999998
1070
   279
1070
     2
1070
   342
1005
30D
1070
   371
1070
    18
1070
   372
1070
    18
1002
}
  0
DIMENSION
  5
7A2E
330
1F
100
AcDbEntity
  8
実形
100
AcDbDimension
  2
*D15
 10
609.9797339783616
 20
1213.547590588581
 30
0.0
 11
590.8797339783615
 21
1413.547590588582
 31
0.0
 70
    32
 71
     5
 42
400.0000000000004
  3
ISO-25
100
AcDbAlignedDimension
 13
735.3260144963587
 23
1613.547590588582
 33
0.0
 14
740.4462340145037
 24
1213.547590588581
 34
0.0
 50
90.0
100
AcDbRotatedDimension
1001
ACAD
1000
DSTYLE
1002
{
1070
    41
1040
10.0
1070
   140
1040
25.0
1070
   147
1040
6.599999999999998
1070
   279
1070
     2
1070
   342
1005
30D
1070
   371
1070
    18
1070
   372
1070
    18
1002
}
  0
DIMENSION
  5
7A4D
330
1F
100
AcDbEntity
  8
実形
100
AcDbDimension
  2
*D16
 10
609.9797339783616
 20
1178.547590588581
 30
0.0
 11
588.3797339783614
 21
1742.252668908599
 31
0.0
 70
   160
  1
15
 71
     5
 42
540.0
  3
ISO-25
100
AcDbAlignedDimension
 13
742.6768413542595
 23
1718.547590588581
 33
0.0
 14
739.9158252310917
 24
1178.547590588581
 34
0.0
 50
90.0
100
AcDbRotatedDimension
1001
ACAD
1000
DSTYLE
1002
{
1070
    41
1040
10.0
1070
   140
1040
25.0
1070
   147
1040
6.599999999999998
1070
   279
1070
     2
1070
   342
1005
30D
1070
   371
1070
    18
1070
   372
1070
    18
1002
}
  0
DIMENSION
  5
7B4E
330
1F
100
AcDbEntity
  8
実形
100
AcDbDimension
  2
*D17
 10
609.9797339783617
 20
1613.547590588582
 30
0.0
 11
588.397678710895
 21
1226.828845076303
 31
0.0
 70
   160
  1
20
 71
     5
 42
420.0000000000004
  3
ISO-25
100
AcDbAlignedDimension
 13
740.4462340145037
 23
1193.547590588581
 33
0.0
 14
704.9792423394992
 24
1613.547590588582
 34
0.0
 50
90.0
100
AcDbRotatedDimension
1001
ACAD
1000
DSTYLE
1002
{
1070
    41
1040
10.0
1070
   140
1040
25.0
1070
   147
1040
6.599999999999998
1070
   279
1070
     2
1070
   342
1005
30D
1070
   371
1070
    18
1070
   372
1070
    18
1002
}
  0
TEXT
  5
7BA3
330
1F
100
AcDbEntity
  8
実形
 48
20.0
100
AcDbText
 10
600.6320712231663
 20
1139.430931849409
 30
0.0
 40
25.0
  1
15
 50
90.0
100
AcDbText
  0
DIMENSION
  5
7BA4
330
1F
100
AcDbEntity
  8
実形
100
AcDbDimension
  2
*D18
 10
554.0081774834198
 20
1193.547590588581
 30
0.0
 11
534.9081774834196
 21
1448.547590588582
 31
0.0
 70
    32
 71
     5
 42
510.0
  3
ISO-25
100
AcDbAlignedDimension
 13
744.1272311080247
 23
1703.547590588581
 33
0.0
 14
742.4573462903335
 24
1193.547590588581
 34
0.0
 50
90.0
100
AcDbRotatedDimension
1001
ACAD
1000
DSTYLE
1002
{
1070
    41
1040
10.0
1070
   140
1040
25.0
1070
   147
1040
6.599999999999998
1070
   279
1070
     2
1070
   342
1005
30D
1070
   371
1070
    18
1070
   372
1070
    18
1002
}
  0
DIMENSION
  5
7BCC
330
1F
100
AcDbEntity
  8
実形
100
AcDbDimension
  2
*D19
 10
494.5352164791438
 20
1178.547590588581
 30
0.0
 11
475.4352164791436
 21
1448.547590588582
 31
0.0
 70
    32
 71
     5
 42
540.0
  3
ISO-25
100
AcDbAlignedDimension
 13
743.4020419230073
 23
1718.547590588581
 33
0.0
 14
743.4700379095557
 24
1178.547590588581
 34
0.0
 50
90.0
100
AcDbRotatedDimension
1001
ACAD
1000
DSTYLE
1002
{
1070
    41
1040
10.0
1070
   140
1040
25.0
1070
   147
1040
6.599999999999998
1070
   279
1070
     2
1070
   342
1005
30D
1070
   371
1070
    18
1070
   372
1070
    18
1002
}
  0
ARC
  5
7C3E
330
1F
100
AcDbEntity
  8
実形
100
AcDbCircle
 10
1185.012719908287
 20
1607.547590588582
 30
0.0
 40
6.0
100
AcDbArc
 50
89.99999999999994
 51
180.0
  0
LINE
  5
7C40
330
1F
100
AcDbEntity
  8
実形
  6
ACAD_ISO08W100
 48
0.5
100
AcDbLine
 10
1565.012719908287
 20
1345.110031643769
 30
0.0
 11
1565.012719908287
 21
1623.53859016686
 31
0.0
  0
ARC
  5
8A83
330
1F
100
AcDbEntity
  8
実形
100
AcDbCircle
 10
1933.012719908287
 20
1677.547590588581
 30
0.0
 40
6.0
100
AcDbArc
 50
0.0
 51
89.99999999999994
  0
LINE
  5
8A84
330
1F
100
AcDbEntity
  8
実形
100
AcDbLine
 10
1395.012719908287
 20
1219.547590588581
 30
0.0
 11
1395.012719908286
 21
1607.547590588581
 31
0.0
  0
LINE
  5
8A86
330
1F
100
AcDbEntity
  8
実形
100
AcDbLine
 10
1415.012719908287
 20
1677.547590588582
 30
0.0
 11
1415.012719908287
 21
1219.547590588581
 31
0.0
  0
LINE
  5
8C49
330
1F
100
AcDbEntity
  8
実形
100
AcDbLine
 10
1933.012719908287
 20
1213.547590588581
 30
0.0
 11
1421.012719908287
 21
1213.547590588581
 31
0.0
  0
LINE
  5
8C4A
330
1F
100
AcDbEntity
  8
実形
100
AcDbLine
 10
1389.012719908287
 20
1213.547590588581
 30
0.0
 11
1185.012719908287
 21
1213.547590588581
 31
0.0
  0
DIMENSION
  5
8C4D
330
1F
100
AcDbEntity
  8
実形
100
AcDbDimension
  2
*D50
 10
1415.012719908287
 20
1625.464142184848
 30
0.0
 11
1490.012719908287
 21
1644.564142184848
 31
0.0
 70
    32
 71
     5
 42
149.9999999999998
  3
ISO-25
100
AcDbAlignedDimension
 13
1565.012719908287
 23
1564.047590588581
 33
0.0
 14
1415.012719908287
 24
1564.047590588582
 34
0.0
100
AcDbRotatedDimension
1001
ACAD
1000
DSTYLE
1002
{
1070
    41
1040
10.0
1070
   140
1040
25.0
1070
   147
1040
6.599999999999998
1070
   279
1070
     2
1070
   342
1005
30D
1070
   371
1070
    18
1070
   372
1070
    18
1002
}
  0
DIMENSION
  5
8C70
330
1F
100
AcDbEntity
  8
実形
100
AcDbDimension
  2
*D51
 10
1727.089289217008
 20
1213.547590588581
 30
0.0
 11
1707.989289217008
 21
1331.047590588582
 31
0.0
 70
    32
 71
     5
 42
235.0000000000002
  3
ISO-25
100
AcDbAlignedDimension
 13
1613.697169002164
 23
1448.547590588581
 33
0.0
 14
1613.697169002164
 24
1213.547590588581
 34
0.0
 50
90.0
100
AcDbRotatedDimension
1001
ACAD
1000
DSTYLE
1002
{
1070
    41
1040
10.0
1070
   140
1040
25.0
1070
   147
1040
6.599999999999998
1070
   279
1070
     2
1070
   342
1005
30D
1070
   371
1070
    18
1070
   372
1070
    18
1002
}
  0
DIMENSION
  5
8E06
330
1F
100
AcDbEntity
  8
実形
100
AcDbDimension
  2
*D52
 10
1974.012719908287
 20
986.8016468789756
 30
0.0
 11
1559.012719908287
 21
986.8016468789756
 31
0.0
 70
    32
  1
 
 71
     5
 42
830.0
  3
ISO-25
100
AcDbAlignedDimension
 13
1144.012719908287
 23
1178.547590588581
 33
0.0
 14
1974.012719908287
 24
1178.547590588581
 34
0.0
100
AcDbRotatedDimension
1001
ACAD
1000
DSTYLE
1002
{
1070
    41
1040
10.0
1070
   140
1040
25.0
1070
   147
1040
6.599999999999998
1070
   279
1070
     2
1070
   342
1005
30D
1070
   371
1070
    18
1070
   372
1070
    18
1002
}
  0
DIMENSION
  5
8E13
330
1F
100
AcDbEntity
  8
実形
100
AcDbDimension
  2
*D53
 10
1959.012719908287
 20
1047.891333620135
 30
0.0
 11
2013.72694510582
 21
1018.736709673649
 31
0.0
 70
   160
  1
15
 71
     5
 42
779.9999999999998
  3
ISO-25
100
AcDbAlignedDimension
 13
1179.012719908287
 23
1178.547590588581
 33
0.0
 14
1959.012719908287
 24
1178.547590588581
 34
0.0
100
AcDbRotatedDimension
1001
ACAD
1000
DSTYLE
1002
{
1070
    41
1040
10.0
1070
   140
1040
25.0
1070
   147
1040
6.599999999999998
1070
   279
1070
     2
1070
   342
1005
30D
1070
   371
1070
    18
1070
   372
1070
    18
1002
}
  0
DIMENSION
  5
8E29
330
1F
100
AcDbEntity
  8
実形
100
AcDbDimension
  2
*D54
 10
1395.012719908287
 20
1047.891333620135
 30
0.0
 11
1287.012719908287
 21
1066.991333620135
 31
0.0
 70
    32
 71
     5
 42
215.9999999999998
  3
ISO-25
100
AcDbAlignedDimension
 13
1179.012719908287
 23
1178.547590588581
 33
0.0
 14
1395.012719908287
 24
1178.547590588581
 34
0.0
100
AcDbRotatedDimension
1001
ACAD
1000
DSTYLE
1002
{
1070
    41
1040
10.0
1070
   140
1040
25.0
1070
   147
1040
6.599999999999998
1070
   279
1070
     2
1070
   342
1005
30D
1070
   371
1070
    18
1070
   372
1070
    18
1002
}
  0
DIMENSION
  5
8E3F
330
1F
100
AcDbEntity
  8
実形
100
AcDbDimension
  2
*D55
 10
1415.012719908287
 20
1047.891333620135
 30
0.0
 11
1110.702712586852
 21
1013.866142094053
 31
0.0
 70
   160
  1
15
 71
     5
 42
256.0
  3
ISO-25
100
AcDbAlignedDimension
 13
1159.012719908287
 23
1178.547590588581
 33
0.0
 14
1415.012719908287
 24
1178.547590588581
 34
0.0
100
AcDbRotatedDimension
1001
ACAD
1000
DSTYLE
1002
{
1070
    41
1040
10.0
1070
   140
1040
25.0
1070
   147
1040
6.599999999999998
1070
   279
1070
     2
1070
   342
1005
30D
1070
   371
1070
    18
1070
   372
1070
    18
1002
}
  0
TEXT
  5
8E78
330
1F
100
AcDbEntity
  8
実形
 48
20.0
100
AcDbText
 10
1153.302558138472
 20
1122.543178814059
 30
0.0
 40
25.0
  1
20
100
AcDbText
  0
TEXT
  5
8E80
330
1F
100
AcDbEntity
  8
実形
 48
20.0
100
AcDbText
 10
1385.12279366568
 20
1120.851494732109
 30
0.0
 40
25.0
  1
20
100
AcDbText
  0
DIMENSION
  5
8E81
330
1F
100
AcDbEntity
  8
実形
100
AcDbDimension
  2
*D56
 10
1939.012719908287
 20
1047.891333620135
 30
0.0
 11
1677.012719908287
 21
1066.991333620135
 31
0.0
 70
    32
 71
     5
 42
524.0
  3
ISO-25
100
AcDbAlignedDimension
 13
1415.012719908287
 23
1178.547590588581
 33
0.0
 14
1939.012719908287
 24
1178.547590588581
 34
0.0
100
AcDbRotatedDimension
1001
ACAD
1000
DSTYLE
1002
{
1070
    41
1040
10.0
1070
   140
1040
25.0
1070
   147
1040
6.599999999999998
1070
   279
1070
     2
1070
   342
1005
30D
1070
   371
1070
    18
1070
   372
1070
    18
1002
}
  0
TEXT
  5
8E9F
330
1F
100
AcDbEntity
  8
実形
 48
20.0
100
AcDbText
 10
1919.518528147078
 20
1121.083154004836
 30
0.0
 40
25.0
  1
20
100
AcDbText
  0
DIMENSION
  5
8EC8
330
1F
100
AcDbEntity
  8
実形
100
AcDbDimension
  2
*D58
 10
1959.012719908287
 20
986.8016468789756
 30
0.0
 11
1559.012719908287
 21
1005.901646878975
 31
0.0
 70
    32
 71
     5
 42
799.9999999999998
  3
ISO-25
100
AcDbAlignedDimension
 13
1159.012719908287
 23
1113.547590588581
 33
0.0
 14
1959.012719908287
 24
1113.547590588581
 34
0.0
100
AcDbRotatedDimension
1001
ACAD
1000
DSTYLE
1002
{
1070
    41
1040
10.0
1070
   140
1040
25.0
1070
   147
1040
6.599999999999998
1070
   279
1070
     2
1070
   342
1005
30D
1070
   371
1070
    18
1070
   372
1070
    18
1002
}
  0
DIMENSION
  5
8EE7
330
1F
100
AcDbEntity
  8
実形
100
AcDbDimension
  2
*D59
 10
1974.012719908287
 20
924.7482854621702
 30
0.0
 11
1559.012719908287
 21
943.8482854621703
 31
0.0
 70
    32
 71
     5
 42
830.0
  3
ISO-25
100
AcDbAlignedDimension
 13
1144.012719908287
 23
1113.547590588581
 33
0.0
 14
1974.012719908287
 24
1113.547590588581
 34
0.0
100
AcDbRotatedDimension
1001
ACAD
1000
DSTYLE
1002
{
1070
    41
1040
10.0
1070
   140
1040
25.0
1070
   147
1040
6.599999999999998
1070
   279
1070
     2
1070
   342
1005
30D
1070
   371
1070
    18
1070
   372
1070
    18
1002
}
  0
LINE
  5
8F3D
330
1F
100
AcDbEntity
  8
実形
  6
ACAD_ISO08W100
 48
0.5
100
AcDbLine
 10
1216.530112764544
 20
1523.547590588582
 30
0.0
 11
1358.981489233933
 21
1523.547590588581
 31
0.0
  0
LINE
  5
8F4D
330
1F
100
AcDbEntity
  8
実形
  6
ACAD_ISO08W100
 48
0.5
100
AcDbLine
 10
1287.012719908287
 20
1443.974410018074
 30
0.0
 11
1287.012719908287
 21
1601.93511273246
 31
0.0
  0
DIMENSION
  5
8F4E
330
1F
100
AcDbEntity
  8
実形
100
AcDbDimension
  2
*D60
 10
1179.012719908287
 20
1400.878239022008
 30
0.0
 11
1234.465132553673
 21
1421.936882086932
 31
0.0
 70
   160
 71
     5
 42
108.0
  3
ISO-25
100
AcDbAlignedDimension
 13
1287.012719908287
 23
1497.750033250692
 33
0.0
 14
1179.012719908287
 24
1527.145337162554
 34
0.0
100
AcDbRotatedDimension
1001
ACAD
1000
DSTYLE
1002
{
1070
    41
1040
10.0
1070
   140
1040
25.0
1070
   147
1040
6.599999999999998
1070
   279
1070
     2
1070
   342
1005
30D
1070
   371
1070
    18
1070
   372
1070
    18
1002
}
  0
CIRCLE
  5
8F83
330
1F
100
AcDbEntity
  8
実形
100
AcDbCircle
 10
1287.012719908287
 20
1523.547590588581
 30
0.0
 40
47.0
  0
CIRCLE
  5
8F84
330
1F
100
AcDbEntity
  8
実形
100
AcDbCircle
 10
1287.012719908287
 20
1523.547590588581
 30
0.0
 40
57.5
  0
DIMENSION
  5
90B3
330
1F
100
AcDbEntity
  8
実形
100
AcDbDimension
  2
*D61
 10
2089.025213028364
 20
1213.547590588581
 30
0.0
 11
2069.925213028363
 21
1448.547590588582
 31
0.0
 70
    32
 71
     5
 42
469.9999999999993
  3
ISO-25
100
AcDbAlignedDimension
 13
1974.012719908287
 23
1683.547590588581
 33
0.0
 14
1974.012719908287
 24
1213.547590588581
 34
0.0
 50
90.0
100
AcDbRotatedDimension
1001
ACAD
1000
DSTYLE
1002
{
1070
    41
1040
10.0
1070
   140
1040
25.0
1070
   147
1040
6.599999999999998
1070
   279
1070
     2
1070
   342
1005
30D
1070
   371
1070
    18
1070
   372
1070
    18
1002
}
  0
DIMENSION
  5
90C0
330
1F
100
AcDbEntity
  8
実形
100
AcDbDimension
  2
*D62
 10
2089.025213028364
 20
1193.547590588581
 30
0.0
 11
2013.971955341328
 21
1676.849929731101
 31
0.0
 70
   160
  1
20
 71
     5
 42
509.9999999999995
  3
ISO-25
100
AcDbAlignedDimension
 13
1974.012719908287
 23
1703.547590588581
 33
0.0
 14
1974.012719908287
 24
1193.547590588581
 34
0.0
 50
90.0
100
AcDbRotatedDimension
1001
ACAD
1000
DSTYLE
1002
{
1070
    41
1040
10.0
1070
   140
1040
25.0
1070
   147
1040
6.599999999999998
1070
   279
1070
     2
1070
   342
1005
30D
1070
   371
1070
    18
1070
   372
1070
    18
1002
}
  0
TEXT
  5
90F9
330
1F
100
AcDbEntity
  8
実形
 48
20.0
100
AcDbText
 10
2026.087427756345
 20
1199.699907948775
 30
0.0
 40
25.0
  1
20
 50
90.0
100
AcDbText
  0
ARC
  5
9714
330
1F
100
AcDbEntity
  8
実形
100
AcDbCircle
 10
1389.012719908287
 20
1219.547590588581
 30
0.0
 40
6.0
100
AcDbArc
 50
270.0
 51
0.0000000000001145
  0
ARC
  5
9715
330
1F
100
AcDbEntity
  8
実形
100
AcDbCircle
 10
1389.012719908286
 20
1607.547590588581
 30
0.0
 40
6.0
100
AcDbArc
 50
0.0000000000001018
 51
89.99999999999987
  0
ARC
  5
9716
330
1F
100
AcDbEntity
  8
実形
100
AcDbCircle
 10
1421.012719908287
 20
1219.547590588581
 30
0.0
 40
6.0
100
AcDbArc
 50
180.0
 51
270.0
  0
ARC
  5
9717
330
1F
100
AcDbEntity
  8
実形
100
AcDbCircle
 10
1421.012719908287
 20
1677.547590588582
 30
0.0
 40
6.0
100
AcDbArc
 50
89.99999999999994
 51
180.0
  0
TEXT
  5
9ACB
330
1F
100
AcDbEntity
  8
実形
100
AcDbText
 10
1287.73038918683
 20
1269.645147763567
 30
0.0
 40
25.0
  1
6R
 72
     2
 11
1329.397055853497
 21
1266.311814430234
 31
0.0
100
AcDbText
 73
     1
  0
LEADER
  5
9ACC
330
1F
100
AcDbEntity
  8
実形
100
AcDbLeader
  3
ISO-25
 76
     2
 10
1381.3961596642
 20
1220.373826067542
 30
0.0
 10
1334.185442562675
 20
1268.550457018005
 30
0.0
1001
ACAD
1000
DSTYLE
1002
{
1070
    77
1070
     0
1070
    41
1040
10.0
1070
   140
1040
30.0
1070
   147
1040
6.599999999999998
1070
   279
1070
     2
1070
   342
1005
30D
1070
   371
1070
    18
1070
   372
1070
    18
1002
}
  0
DIMENSION
  5
9C62
330
1F
100
AcDbEntity
  8
実形
100
AcDbDimension
  2
*D63
 10
1215.507018512535
 20
1613.547590588581
 30
0.0
 11
1196.407018512535
 21
1568.547590588582
 31
0.0
 70
    32
 71
     5
 42
90.0
  3
ISO-25
100
AcDbAlignedDimension
 13
1281.225866962124
 23
1523.547590588582
 33
0.0
 14
1281.225866962125
 24
1613.547590588581
 34
0.0
 50
90.0
100
AcDbRotatedDimension
1001
ACAD
1000
DSTYLE
1002
{
1070
    41
1040
10.0
1070
   140
1040
25.0
1070
   147
1040
6.599999999999998
1070
   279
1070
     2
1070
   342
1005
30D
1070
   371
1070
    18
1070
   372
1070
    18
1002
}
  0
LINE
  5
9DA2
330
1F
100
AcDbEntity
  8
実形
100
AcDbLine
 10
1159.012719908287
 20
690.6580729330507
 30
0.0
 11
1159.012719908287
 21
675.6580729330508
 31
0.0
  0
LINE
  5
9DA3
330
1F
100
AcDbEntity
  8
実形
100
AcDbLine
 10
1179.012719908287
 20
675.6580729330505
 30
0.0
 11
1179.012719908287
 21
506.3552406133141
 31
0.0
  0
LINE
  5
9DA4
330
1F
100
AcDbEntity
  8
実形
100
AcDbLine
 10
1959.012719908287
 20
690.6580729330507
 30
0.0
 11
1959.012719908287
 21
675.6580729330508
 31
0.0
  0
LINE
  5
9DA5
330
1F
100
AcDbEntity
  8
実形
100
AcDbLine
 10
1939.012719908287
 20
675.6580729330508
 30
0.0
 11
1939.012719908287
 21
506.3552406133141
 31
0.0
  0
LINE
  5
9DA6
330
1F
100
AcDbEntity
  8
実形
100
AcDbLine
 10
1144.012719908287
 20
690.6580729330507
 30
0.0
 11
1974.012719908287
 21
690.6580729330507
 31
0.0
  0
LINE
  5
9DA7
330
1F
100
AcDbEntity
  8
実形
100
AcDbLine
 10
1229.012719908286
 20
485.6580729330508
 30
0.0
 11
1345.012719908287
 21
485.6580729330508
 31
0.0
  0
LINE
  5
9DA8
330
1F
100
AcDbEntity
  8
実形
100
AcDbLine
 10
1474.512719908287
 20
475.6580729330507
 30
0.0
 11
1655.512719908287
 21
475.6580729330507
 31
0.0
  0
LINE
  5
9DA9
330
1F
100
AcDbEntity
  8
実形
100
AcDbLine
 10
1159.012719908287
 20
675.6580729330508
 30
0.0
 11
1959.012719908287
 21
675.6580729330508
 31
0.0
  0
LINE
  5
9DAA
330
1F
100
AcDbEntity
  8
実形
  6
ACAD_ISO08W100
 48
0.5
100
AcDbLine
 10
1565.012719908287
 20
580.5107491055877
 30
0.0
 11
1565.012719908287
 21
423.8294687699817
 31
0.0
  0
LINE
  5
9DAB
330
1F
100
AcDbEntity
  8
実形
100
AcDbLine
 10
1655.512719908287
 20
485.6580729330508
 30
0.0
 11
1655.512719908287
 21
475.6580729330507
 31
0.0
  0
LINE
  5
9DAC
330
1F
100
AcDbEntity
  8
実形
100
AcDbLine
 10
1565.012719908287
 20
485.6580729330528
 30
0.0
 11
1565.012719908287
 21
475.6580729330528
 31
0.0
  0
LINE
  5
9DAD
330
1F
100
AcDbEntity
  8
実形
100
AcDbLine
 10
1474.512719908287
 20
485.6580729330508
 30
0.0
 11
1474.512719908287
 21
475.6580729330507
 31
0.0
  0
DIMENSION
  5
9DAE
330
1F
100
AcDbEntity
  8
実形
100
AcDbDimension
  2
*D64
 10
1645.012719908287
 20
358.7414743971931
 30
0.0
 11
1565.012719908287
 21
377.8414743971931
 31
0.0
 70
    32
 71
     5
 42
160.0000000000002
  3
ISO-25
100
AcDbAlignedDimension
 13
1485.012719908287
 23
475.6580729330506
 33
0.0
 14
1645.012719908287
 24
475.6580729330506
 34
0.0
100
AcDbRotatedDimension
1001
ACAD
1000
DSTYLE
1002
{
1070
    41
1040
10.0
1070
   140
1040
25.0
1070
   147
1040
6.599999999999998
1070
   279
1070
     2
1070
   342
1005
30D
1070
   371
1070
    18
1070
   372
1070
    18
1002
}
  0
DIMENSION
  5
9DAF
330
1F
100
AcDbEntity
  8
実形
100
AcDbDimension
  2
*D65
 10
1655.512719908287
 20
287.4991775819162
 30
0.0
 11
1565.012719908287
 21
306.5991775819163
 31
0.0
 70
    32
 71
     5
 42
180.9999999999995
  3
ISO-25
100
AcDbAlignedDimension
 13
1474.512719908287
 23
475.6580729330507
 33
0.0
 14
1655.512719908287
 24
475.6580729330464
 34
0.0
100
AcDbRotatedDimension
1001
ACAD
1000
DSTYLE
1002
{
1070
    41
1040
10.0
1070
   140
1040
25.0
1070
   147
1040
6.599999999999998
1070
   279
1070
     2
1070
   342
1005
30D
1070
   371
1070
    18
1070
   372
1070
    18
1002
}
  0
TEXT
  5
9DB0
330
1F
100
AcDbEntity
  8
実形
100
AcDbText
 10
1269.626932606148
 20
563.4817723163426
 30
0.0
 40
25.0
  1
6R
 72
     2
 11
1311.293599272814
 21
560.1484389830093
 31
0.0
100
AcDbText
 73
     1
  0
TEXT
  5
9DB1
330
1F
100
AcDbEntity
  8
実形
100
AcDbText
 10
1822.56507295849
 20
561.5740732387579
 30
0.0
 40
25.0
  1
6R
 72
     2
 11
1864.231739625157
 21
558.2407399054245
 31
0.0
100
AcDbText
 73
     1
  0
LEADER
  5
9DB2
330
1F
100
AcDbEntity
  8
実形
100
AcDbLeader
  3
ISO-25
 76
     2
 10
1192.393741742424
 20
511.0931465337853
 30
0.0
 10
1254.863564746105
 20
558.6771087601828
 30
0.0
1001
ACAD
1000
DSTYLE
1002
{
1070
    77
1070
     0
1070
    41
1040
10.0
1070
   140
1040
30.0
1070
   147
1040
6.599999999999998
1070
   279
1070
     2
1070
   342
1005
30D
1070
   371
1070
    18
1070
   372
1070
    18
1002
}
  0
LEADER
  5
9DB3
330
1F
100
AcDbEntity
  8
実形
100
AcDbLeader
  3
ISO-25
 76
     2
 10
1925.63169807415
 20
511.0931465337853
 30
0.0
 10
1877.682186233245
 20
559.9376365357911
 30
0.0
211
-1.0
221
0.0
231
0.0
1001
ACAD
1000
DSTYLE
1002
{
1070
    77
1070
     0
1070
    41
1040
10.0
1070
   140
1040
30.0
1070
   147
1040
6.599999999999998
1070
   279
1070
     2
1070
   342
1005
30D
1070
   371
1070
    18
1070
   372
1070
    18
1002
}
  0
LINE
  5
9DB4
330
1F
100
AcDbEntity
  8
実形
  6
ACAD_ISO08W100
 48
0.5
100
AcDbLine
 10
1565.012719908287
 20
574.4179089624922
 30
0.0
 11
1565.012719908287
 21
430.0808769214036
 31
0.0
  0
LINE
  5
9DB5
330
1F
100
AcDbEntity
  8
実形
100
AcDbLine
 10
1474.512719908287
 20
485.6580729330508
 30
0.0
 11
1649.512719908287
 21
485.6580729330508
 31
0.0
  0
LINE
  5
9DB6
330
1F
100
AcDbEntity
  8
実形
100
AcDbLine
 10
1179.012719908287
 20
675.6580729330508
 30
0.0
 11
1179.012719908287
 21
504.3268470596019
 31
0.0
  0
ARC
  5
9DB7
330
1F
100
AcDbEntity
  8
実形
100
AcDbCircle
 10
1185.012719908287
 20
504.3268470596019
 30
0.0
 40
6.0
100
AcDbArc
 50
180.0
 51
266.5663696375505
  0
ARC
  5
9DB8
330
1F
100
AcDbEntity
  8
実形
100
AcDbCircle
 10
1185.012719908287
 20
494.3088632305074
 30
0.0
 40
6.0
100
AcDbArc
 50
180.0
 51
266.5663696375505
  0
LINE
  5
9DB9
330
1F
100
AcDbEntity
  8
実形
100
AcDbLine
 10
1415.012719908287
 20
675.6580729330508
 30
0.0
 11
1415.012719908287
 21
494.3631736637824
 31
0.0
  0
ARC
  5
9DBA
330
1F
100
AcDbEntity
  8
実形
100
AcDbCircle
 10
1421.012719908287
 20
494.3631736637824
 30
0.0
 40
6.0
100
AcDbArc
 50
180.0
 51
267.1135814561334
  0
LINE
  5
9DBB
330
1F
100
AcDbEntity
  8
実形
100
AcDbLine
 10
1939.012719908287
 20
675.6580729330509
 30
0.0
 11
1939.012719908287
 21
506.3490051671106
 31
0.0
  0
ARC
  5
9DBC
330
1F
100
AcDbEntity
  8
実形
100
AcDbCircle
 10
1933.012719908287
 20
506.3490051671106
 30
0.0
 40
6.0
100
AcDbArc
 50
273.0286985783462
 51
0.0
  0
LINE
  5
9DBD
330
1F
100
AcDbEntity
  8
実形
100
AcDbLine
 10
1655.512719908287
 20
485.6580729330508
 30
0.0
 11
1474.512719908287
 21
485.6580729330508
 31
0.0
  0
LINE
  5
9DBE
330
1F
100
AcDbEntity
  8
実形
100
AcDbLine
 10
1345.012719908287
 20
485.6580729330508
 30
0.0
 11
1229.012719908286
 21
485.6580729330508
 31
0.0
  0
LINE
  5
9DBF
330
1F
100
AcDbEntity
  8
実形
100
AcDbLine
 10
1345.012719908287
 20
495.6580729330507
 30
0.0
 11
1310.382452576876
 21
495.6580729330507
 31
0.0
  0
LINE
  5
9DC0
330
1F
100
AcDbEntity
  8
実形
100
AcDbLine
 10
1301.237715830935
 20
495.6580729330507
 30
0.0
 11
1278.727556575428
 21
495.6580729330507
 31
0.0
  0
LINE
  5
9DC1
330
1F
100
AcDbEntity
  8
実形
100
AcDbLine
 10
1268.175913941581
 20
495.6580729330507
 30
0.0
 11
1229.012719908286
 21
495.6580729330507
 31
0.0
  0
DIMENSION
  5
9DC2
330
1F
100
AcDbEntity
  8
実形
100
AcDbDimension
  2
*D66
 10
1334.012719908287
 20
358.7414743971931
 30
0.0
 11
1287.012719908287
 21
377.8414743971931
 31
0.0
 70
    32
 71
     5
 42
94.00000000000023
  3
ISO-25
100
AcDbAlignedDimension
 13
1240.012719908287
 23
475.6580729330508
 33
0.0
 14
1334.012719908287
 24
475.6580729330508
 34
0.0
100
AcDbRotatedDimension
1001
ACAD
1000
DSTYLE
1002
{
1070
    41
1040
10.0
1070
   140
1040
25.0
1070
   147
1040
6.599999999999998
1070
   279
1070
     2
1070
   342
1005
30D
1070
   371
1070
    18
1070
   372
1070
    18
1002
}
  0
DIMENSION
  5
9DC3
330
1F
100
AcDbEntity
  8
実形
100
AcDbDimension
  2
*D67
 10
1344.512719908286
 20
287.4991775819162
 30
0.0
 11
1287.012719908287
 21
306.5991775819163
 31
0.0
 70
    32
 71
     5
 42
114.9999999999997
  3
ISO-25
100
AcDbAlignedDimension
 13
1229.512719908287
 23
475.6580729330507
 33
0.0
 14
1344.512719908286
 24
475.6580729330465
 34
0.0
100
AcDbRotatedDimension
1001
ACAD
1000
DSTYLE
1002
{
1070
    41
1040
10.0
1070
   140
1040
25.0
1070
   147
1040
6.599999999999998
1070
   279
1070
     2
1070
   342
1005
30D
1070
   371
1070
    18
1070
   372
1070
    18
1002
}
  0
LINE
  5
9DC4
330
1F
100
AcDbEntity
  8
実形
100
AcDbLine
 10
1655.512719908287
 20
485.6580729330508
 30
0.0
 11
1933.329736795654
 21
500.3573859958744
 31
0.0
  0
LINE
  5
9DC5
330
1F
100
AcDbEntity
  8
実形
  6
ACAD_ISO08W100
 48
0.5
100
AcDbLine
 10
1287.012719908287
 20
433.0235914437635
 30
0.0
 11
1287.012719908287
 21
537.8930933265792
 31
0.0
  0
LEADER
  5
9DC6
330
1F
100
AcDbEntity
  8
実形
100
AcDbLeader
  3
ISO-25
 76
     2
 10
1378.061824500641
 20
513.499244127548
 30
0.0
 10
1310.18783666065
 20
552.5682706688148
 30
0.0
1001
ACAD
1000
DSTYLE
1002
{
1070
    77
1070
     0
1070
    41
1040
10.0
1070
   140
1040
30.0
1070
   147
1040
6.599999999999998
1070
   279
1070
     2
1070
   342
1005
30D
1070
   371
1070
    18
1070
   372
1070
    18
1002
}
  0
TEXT
  5
9DC7
330
1F
100
AcDbEntity
  8
実形
100
AcDbText
 10
1480.912642883183
 20
569.3624273666186
 30
0.0
 40
25.0
  1
6R
 72
     2
 11
1522.57930954985
 21
566.0290940332852
 31
0.0
100
AcDbText
 73
     1
  0
LEADER
  5
9DC8
330
1F
100
AcDbEntity
  8
実形
100
AcDbLeader
  3
ISO-25
 76
     2
 10
1428.029589483182
 20
509.2004517351496
 30
0.0
 10
1480.912643702843
 20
558.42388570842
 30
0.0
1001
ACAD
1000
DSTYLE
1002
{
1070
    77
1070
     0
1070
    41
1040
10.0
1070
   140
1040
30.0
1070
   147
1040
6.599999999999998
1070
   279
1070
     2
1070
   342
1005
30D
1070
   371
1070
    18
1070
   372
1070
    18
1002
}
  0
LINE
  5
9DCB
330
1F
100
AcDbEntity
  8
実形
100
AcDbLine
 10
1229.012719908286
 20
485.6580729330508
 30
0.0
 11
1184.653366163919
 21
488.3196341577127
 31
0.0
  0
LINE
  5
9DCC
330
1F
100
AcDbEntity
  8
実形
100
AcDbLine
 10
1229.611642815566
 20
495.6401213877085
 30
0.0
 11
1184.653366163919
 21
498.3376179868073
 31
0.0
  0
LINE
  5
9DCD
330
1F
100
AcDbEntity
  8
実形
100
AcDbLine
 10
1395.012719908286
 20
675.6580729330508
 30
0.0
 11
1395.012719908286
 21
504.3268470596019
 31
0.0
  0
ARC
  5
9DCE
330
1F
100
AcDbEntity
  8
実形
100
AcDbCircle
 10
1389.012719908286
 20
504.3268470596019
 30
0.0
 40
6.0
100
AcDbArc
 50
273.4336303624495
 51
0.0
  0
ARC
  5
9DCF
330
1F
100
AcDbEntity
  8
実形
100
AcDbCircle
 10
1389.012719908286
 20
494.3088632305074
 30
0.0
 40
6.0
100
AcDbArc
 50
273.4336303624495
 51
0.0
  0
LINE
  5
9DD1
330
1F
100
AcDbEntity
  8
実形
100
AcDbLine
 10
1345.012719908287
 20
485.6580729330508
 30
0.0
 11
1389.372073652654
 21
488.3196341577127
 31
0.0
  0
LINE
  5
9DD2
330
1F
100
AcDbEntity
  8
実形
100
AcDbLine
 10
1344.413797001007
 20
495.6401213877085
 30
0.0
 11
1389.372073652654
 21
498.3376179868073
 31
0.0
  0
LINE
  5
9DD3
330
1F
100
AcDbEntity
  8
実形
100
AcDbLine
 10
1229.512719908287
 20
475.6580729330507
 30
0.0
 11
1344.512719908286
 21
475.658072933048
 31
0.0
  0
LINE
  5
9DD4
330
1F
100
AcDbEntity
  8
実形
100
AcDbLine
 10
1474.512719908287
 20
485.6580729330508
 30
0.0
 11
1420.710582701713
 21
488.3707857333824
 31
0.0
  0
DIMENSION
  5
9DD5
330
1F
100
AcDbEntity
  8
実形
100
AcDbDimension
  2
*D68
 10
2074.385782371479
 20
500.6580729330507
 30
0.0
 11
2052.785782371479
 21
720.1632090721932
 31
0.0
 70
   160
  1
15
 71
     5
 42
190.0000000000001
  3
ISO-25
100
AcDbAlignedDimension
 13
1950.129022533027
 23
690.6580729330508
 33
0.0
 14
1950.129022533027
 24
500.6580729330507
 34
0.0
 50
90.0
100
AcDbRotatedDimension
1001
ACAD
1000
DSTYLE
1002
{
1070
    41
1040
10.0
1070
   140
1040
25.0
1070
   147
1040
6.599999999999998
1070
   279
1070
     2
1070
   342
1005
30D
1070
   371
1070
    18
1070
   372
1070
    18
1002
}
  0
DIMENSION
  5
9DD6
330
1F
100
AcDbEntity
  8
実形
100
AcDbDimension
  2
*D69
 10
2074.385782371479
 20
500.6580729330507
 30
0.0
 11
2055.285782371479
 21
588.1580729330511
 31
0.0
 70
    32
 71
     5
 42
175.0
  3
ISO-25
100
AcDbAlignedDimension
 13
1950.129022533027
 23
675.6580729330508
 33
0.0
 14
1950.129022533027
 24
500.6580729330507
 34
0.0
 50
90.0
100
AcDbRotatedDimension
1001
ACAD
1000
DSTYLE
1002
{
1070
    41
1040
10.0
1070
   140
1040
25.0
1070
   147
1040
6.599999999999998
1070
   279
1070
     2
1070
   342
1005
30D
1070
   371
1070
    18
1070
   372
1070
    18
1002
}
  0
DIMENSION
  5
9DD7
330
1F
100
AcDbEntity
  8
実形
100
AcDbDimension
  2
*D70
 10
2137.558722962149
 20
500.6580729330507
 30
0.0
 11
2115.958722962149
 21
586.7417301816194
 31
0.0
 70
   160
 71
     5
 42
190.0000000000001
  3
ISO-25
100
AcDbAlignedDimension
 13
2015.129022533027
 23
690.6580729330508
 33
0.0
 14
2015.129022533027
 24
500.6580729330507
 34
0.0
 50
90.0
100
AcDbRotatedDimension
1001
ACAD
1000
DSTYLE
1002
{
1070
    41
1040
10.0
1070
   140
1040
25.0
1070
   147
1040
6.599999999999998
1070
   279
1070
     2
1070
   342
1005
30D
1070
   371
1070
    18
1070
   372
1070
    18
1002
}
  0
DIMENSION
  5
9DD8
330
1F
100
AcDbEntity
  8
実形
100
AcDbDimension
  2
*D71
 10
2137.558722962149
 20
690.6580729330508
 30
0.0
 11
2115.958722962149
 21
457.7260959155455
 31
0.0
 70
   160
  1
15
 71
     5
 42
205.0000000000001
  3
ISO-25
100
AcDbAlignedDimension
 13
1951.378199009661
 23
485.6580729330508
 33
0.0
 14
1950.129022533027
 24
690.6580729330508
 34
0.0
 50
90.0
100
AcDbRotatedDimension
1001
ACAD
1000
DSTYLE
1002
{
1070
    41
1040
10.0
1070
   140
1040
25.0
1070
   147
1040
6.599999999999998
1070
   279
1070
     2
1070
   342
1005
30D
1070
   371
1070
    18
1070
   372
1070
    18
1002
}
  0
DIMENSION
  5
9DD9
330
1F
100
AcDbEntity
  8
実形
100
AcDbDimension
  2
*D72
 10
2197.900402424442
 20
485.6580729330507
 30
0.0
 11
2178.800402424442
 21
588.1580729330511
 31
0.0
 70
    32
 71
     5
 42
205.0000000000001
  3
ISO-25
100
AcDbAlignedDimension
 13
2074.385782371479
 23
690.6580729330508
 33
0.0
 14
2074.385782371479
 24
485.6580729330508
 34
0.0
 50
90.0
100
AcDbRotatedDimension
1001
ACAD
1000
DSTYLE
1002
{
1070
    41
1040
10.0
1070
   140
1040
25.0
1070
   147
1040
6.599999999999998
1070
   279
1070
     2
1070
   342
1005
30D
1070
   371
1070
    18
1070
   372
1070
    18
1002
}
  0
DIMENSION
  5
9DDA
330
1F
100
AcDbEntity
  8
実形
100
AcDbDimension
  2
*D73
 10
2197.900402424442
 20
690.6580729330508
 30
0.0
 11
2176.300402424443
 21
455.1916950291788
 31
0.0
 70
   160
  1
8
 71
     5
 42
215.0000000000001
  3
ISO-25
100
AcDbAlignedDimension
 13
2079.467706929343
 23
475.6580729330507
 33
0.0
 14
2074.385782371479
 24
690.6580729330508
 34
0.0
 50
90.0
100
AcDbRotatedDimension
1001
ACAD
1000
DSTYLE
1002
{
1070
    41
1040
10.0
1070
   140
1040
25.0
1070
   147
1040
6.599999999999998
1070
   279
1070
     2
1070
   342
1005
30D
1070
   371
1070
    18
1070
   372
1070
    18
1002
}
  0
DIMENSION
  5
9DDB
330
1F
100
AcDbEntity
  8
実形
100
AcDbDimension
  2
*D74
 10
2264.354787312608
 20
475.6580729330507
 30
0.0
 11
2242.754787312608
 21
589.371334171702
 31
0.0
 70
   160
  1
213
 71
     5
 42
215.0000000000001
  3
ISO-25
100
AcDbAlignedDimension
 13
2137.558722962149
 23
690.6580729330508
 33
0.0
 14
2127.26669926033
 24
475.6580729330507
 34
0.0
 50
90.0
100
AcDbRotatedDimension
1001
ACAD
1000
DSTYLE
1002
{
1070
    41
1040
10.0
1070
   140
1040
25.0
1070
   147
1040
6.599999999999998
1070
   279
1070
     2
1070
   342
1005
30D
1070
   371
1070
    18
1070
   372
1070
    18
1002
}
  0
LINE
  5
9DDC
330
1F
100
AcDbEntity
  8
実形
100
AcDbLine
 10
1179.012719908287
 20
506.3552406133141
 30
0.0
 11
1179.012719908287
 21
494.3088632305074
 31
0.0
  0
LINE
  5
9DDD
330
1F
100
AcDbEntity
  8
実形
100
AcDbLine
 10
1395.012719908286
 20
504.3268470596019
 30
0.0
 11
1395.012719908286
 21
494.3088632305074
 31
0.0
  0
DIMENSION
  5
9DDE
330
1F
100
AcDbEntity
  8
実形
100
AcDbDimension
  2
*D75
 10
1053.11021934225
 20
498.3376179868074
 30
0.0
 11
1031.848702691952
 21
580.9427096768804
 31
0.0
 70
   160
  1
180
 71
     5
 42
192.3204549462433
  3
ISO-25
100
AcDbAlignedDimension
 13
1171.730678802936
 23
690.6580729330507
 33
0.0
 14
1171.730678802936
 24
498.3376179868074
 34
0.0
 50
90.0
100
AcDbRotatedDimension
1001
ACAD
1000
DSTYLE
1002
{
1070
    41
1040
10.0
1070
   140
1040
25.0
1070
   147
1040
6.599999999999998
1070
   279
1070
     2
1070
   342
1005
30D
1070
   371
1070
    18
1070
   372
1070
    18
1002
}
  0
DIMENSION
  5
9DDF
330
1F
100
AcDbEntity
  8
実形
100
AcDbDimension
  2
*D76
 10
1053.11021934225
 20
498.3376179868074
 30
0.0
 11
1031.51021934225
 21
666.3200891597071
 31
0.0
 70
   160
  1
15
 71
     5
 42
177.3204549462432
  3
ISO-25
100
AcDbAlignedDimension
 13
1171.730678802936
 23
675.6580729330508
 33
0.0
 14
1171.730678802936
 24
498.3376179868074
 34
0.0
 50
90.0
100
AcDbRotatedDimension
1001
ACAD
1000
DSTYLE
1002
{
1070
    41
1040
10.0
1070
   140
1040
25.0
1070
   147
1040
6.599999999999998
1070
   279
1070
     2
1070
   342
1005
30D
1070
   371
1070
    18
1070
   372
1070
    18
1002
}
  0
DIMENSION
  5
9DE0
330
1F
100
AcDbEntity
  8
実形
100
AcDbDimension
  2
*D77
 10
988.4093469227389
 20
498.3376179868074
 30
0.0
 11
967.9088541951569
 21
580.9427096768804
 31
0.0
 70
   160
  1
195
 71
     5
 42
192.3204549462433
  3
ISO-25
100
AcDbAlignedDimension
 13
1118.074532693785
 23
690.6580729330507
 33
0.0
 14
1117.467848641634
 24
498.3376179868074
 34
0.0
 50
90.0
100
AcDbRotatedDimension
1001
ACAD
1000
DSTYLE
1002
{
1070
    41
1040
10.0
1070
   140
1040
25.0
1070
   147
1040
6.599999999999998
1070
   279
1070
     2
1070
   342
1005
30D
1070
   371
1070
    18
1070
   372
1070
    18
1002
}
  0
DIMENSION
  5
9DE1
330
1F
100
AcDbEntity
  8
実形
100
AcDbDimension
  2
*D78
 10
988.4093469227389
 20
485.6580729330508
 30
0.0
 11
966.282744723232
 21
507.252904852653
 31
0.0
 70
   160
  1
10
 71
     5
 42
204.9999999999999
  3
ISO-25
100
AcDbAlignedDimension
 13
1099.62625495135
 23
690.6580729330507
 33
0.0
 14
1171.317612044708
 24
485.6580729330508
 34
0.0
 50
90.0
100
AcDbRotatedDimension
1001
ACAD
1000
DSTYLE
1002
{
1070
    41
1040
10.0
1070
   140
1040
25.0
1070
   147
1040
6.599999999999998
1070
   279
1070
     2
1070
   342
1005
30D
1070
   371
1070
    18
1070
   372
1070
    18
1002
}
  0
DIMENSION
  5
9DE2
330
1F
100
AcDbEntity
  8
実形
100
AcDbDimension
  2
*D79
 10
925.3449815525746
 20
485.6580729330508
 30
0.0
 11
903.7449815525745
 21
582.644918945628
 31
0.0
 70
   160
 71
     5
 42
205.0
  3
ISO-25
100
AcDbAlignedDimension
 13
1099.62625495135
 23
690.6580729330507
 33
0.0
 14
1099.62625495135
 24
485.6580729330508
 34
0.0
 50
90.0
100
AcDbRotatedDimension
1001
ACAD
1000
DSTYLE
1002
{
1070
    41
1040
10.0
1070
   140
1040
25.0
1070
   147
1040
6.599999999999998
1070
   279
1070
     2
1070
   342
1005
30D
1070
   371
1070
    18
1070
   372
1070
    18
1002
}
  0
DIMENSION
  5
9DE3
330
1F
100
AcDbEntity
  8
実形
100
AcDbDimension
  2
*D80
 10
925.3449815525746
 20
690.6580729330507
 30
0.0
 11
903.7449815525745
 21
495.3808079018463
 31
0.0
 70
   160
  1
10
 71
     5
 42
215.0
  3
ISO-25
100
AcDbAlignedDimension
 13
1054.082223812935
 23
475.6580729330507
 33
0.0
 14
1099.62625495135
 24
690.6580729330507
 34
0.0
 50
90.0
100
AcDbRotatedDimension
1001
ACAD
1000
DSTYLE
1002
{
1070
    41
1040
10.0
1070
   140
1040
25.0
1070
   147
1040
6.599999999999998
1070
   279
1070
     2
1070
   342
1005
30D
1070
   371
1070
    18
1070
   372
1070
    18
1002
}
  0
DIMENSION
  5
9DE4
330
1F
100
AcDbEntity
  8
実形
100
AcDbDimension
  2
*D81
 10
863.7476294869266
 20
475.6580729330508
 30
0.0
 11
844.6476294869265
 21
583.158072933051
 31
0.0
 70
    32
  1
215
 71
     5
 42
215.0
  3
ISO-25
100
AcDbAlignedDimension
 13
1099.62625495135
 23
690.6580729330507
 33
0.0
 14
983.6935325857229
 24
475.6580729330507
 34
0.0
 50
90.0
100
AcDbRotatedDimension
1001
ACAD
1000
DSTYLE
1002
{
1070
    41
1040
10.0
1070
   140
1040
25.0
1070
   147
1040
6.599999999999998
1070
   279
1070
     2
1070
   342
1005
30D
1070
   371
1070
    18
1070
   372
1070
    18
1002
}
  0
LINE
  5
A334
330
1F
100
AcDbEntity
  8
実形
100
AcDbLine
 10
2271.025206402959
 20
1703.547590588581
 30
0.0
 11
2286.025206402959
 21
1703.547590588581
 31
0.0
  0
LINE
  5
A335
330
1F
100
AcDbEntity
  8
実形
100
AcDbLine
 10
2271.025206402959
 20
1193.547590588581
 30
0.0
 11
2286.025206402959
 21
1193.547590588581
 31
0.0
  0
LINE
  5
A336
330
1F
100
AcDbEntity
  8
実形
100
AcDbLine
 10
2286.025206402959
 20
1213.547590588581
 30
0.0
 11
2455.025206402959
 21
1213.547590588581
 31
0.0
  0
LINE
  5
A337
330
1F
100
AcDbEntity
  8
実形
100
AcDbLine
 10
2271.025206402959
 20
1718.547590588581
 30
0.0
 11
2271.025206402959
 21
1178.547590588581
 31
0.0
  0
LINE
  5
A338
330
1F
100
AcDbEntity
  8
実形
100
AcDbLine
 10
2286.025206402959
 20
1703.547590588581
 30
0.0
 11
2286.025206402959
 21
1193.547590588581
 31
0.0
  0
LINE
  5
A339
330
1F
100
AcDbEntity
  8
実形
100
AcDbLine
 10
2476.02520640296
 20
1539.047590588581
 30
0.0
 11
2476.025206402959
 21
1358.047590588581
 31
0.0
  0
LINE
  5
A33A
330
1F
100
AcDbEntity
  8
実形
100
AcDbLine
 10
2486.025206402959
 20
1539.047590588581
 30
0.0
 11
2486.025206402959
 21
1358.047590588581
 31
0.0
  0
LINE
  5
A33B
330
1F
100
AcDbEntity
  8
実形
100
AcDbLine
 10
2486.025206402959
 20
1358.047590588581
 30
0.0
 11
2486.025206402959
 21
1539.047590588581
 31
0.0
  0
LINE
  5
A33C
330
1F
100
AcDbEntity
  8
実形
100
AcDbLine
 10
2476.025206402959
 20
1539.047590588581
 30
0.0
 11
2486.025206402959
 21
1539.047590588581
 31
0.0
  0
DIMENSION
  5
A33D
330
1F
100
AcDbEntity
  8
実形
100
AcDbDimension
  2
*D82
 10
2602.941804938817
 20
1528.547590588581
 30
0.0
 11
2583.841804938817
 21
1448.547590588582
 31
0.0
 70
    32
 71
     5
 42
160.0
  3
ISO-25
100
AcDbAlignedDimension
 13
2486.025206402959
 23
1368.547590588581
 33
0.0
 14
2486.025206402959
 24
1528.547590588581
 34
0.0
 50
90.0
100
AcDbRotatedDimension
1001
ACAD
1000
DSTYLE
1002
{
1070
    41
1040
10.0
1070
   140
1040
25.0
1070
   147
1040
6.599999999999998
1070
   279
1070
     2
1070
   342
1005
30D
1070
   371
1070
    18
1070
   372
1070
    18
1002
}
  0
DIMENSION
  5
A33E
330
1F
100
AcDbEntity
  8
実形
100
AcDbDimension
  2
*D83
 10
2674.184101754094
 20
1539.04759058858
 30
0.0
 11
2655.084101754094
 21
1448.547590588581
 31
0.0
 70
    32
 71
     5
 42
180.9999999999995
  3
ISO-25
100
AcDbAlignedDimension
 13
2486.025206402959
 23
1358.047590588581
 33
0.0
 14
2486.025206402964
 24
1539.047590588581
 34
0.0
 50
90.0
100
AcDbRotatedDimension
1001
ACAD
1000
DSTYLE
1002
{
1070
    41
1040
10.0
1070
   140
1040
25.0
1070
   147
1040
6.599999999999998
1070
   279
1070
     2
1070
   342
1005
30D
1070
   371
1070
    18
1070
   372
1070
    18
1002
}
  0
LINE
  5
A33F
330
1F
100
AcDbEntity
  8
実形
  6
ACAD_ISO08W100
 48
0.5
100
AcDbLine
 10
2391.469813983837
 20
1448.547590588582
 30
0.0
 11
2541.037246617096
 21
1448.547590588581
 31
0.0
  0
TEXT
  5
A340
330
1F
100
AcDbEntity
  8
実形
100
AcDbText
 10
2340.818282483315
 20
1303.487583304662
 30
0.0
 40
25.0
  1
6R
 72
     2
 11
2382.484949149982
 21
1300.154249971329
 31
0.0
100
AcDbText
 73
     1
  0
LEADER
  5
A341
330
1F
100
AcDbEntity
  8
実形
100
AcDbLeader
  3
ISO-25
 76
     2
 10
2449.967431459018
 20
1247.640733148567
 30
0.0
 10
2381.72620934294
 20
1291.828211728805
 30
0.0
1001
ACAD
1000
DSTYLE
1002
{
1070
    77
1070
     0
1070
    41
1040
10.0
1070
   140
1040
30.0
1070
   147
1040
6.599999999999998
1070
   279
1070
     2
1070
   342
1005
30D
1070
   371
1070
    18
1070
   372
1070
    18
1002
}
  0
LINE
  5
A342
330
1F
100
AcDbEntity
  8
実形
100
AcDbLine
 10
2271.025206402959
 20
1718.547590588581
 30
0.0
 11
2271.025206402959
 21
1203.547590588581
 31
0.0
  0
LINE
  5
A343
330
1F
100
AcDbEntity
  8
実形
  6
ACAD_ISO08W100
100
AcDbLine
 10
2461.02520640296
 20
1677.547590588582
 30
0.0
 11
2461.025206402958
 21
1219.547590588581
 31
0.0
  0
LINE
  5
A345
330
1F
100
AcDbEntity
  8
実形
100
AcDbLine
 10
2455.791090122481
 20
1213.547590588581
 30
0.0
 11
2466.546328529867
 21
1213.547590588581
 31
0.0
  0
LINE
  5
A346
330
1F
100
AcDbEntity
  8
実形
100
AcDbLine
 10
2476.02520640296
 20
1358.047590588581
 30
0.0
 11
2472.544438699905
 21
1219.397010416948
 31
0.0
  0
LINE
  5
A348
330
1F
100
AcDbEntity
  8
実形
100
AcDbLine
 10
2476.025206402959
 20
1358.047590588581
 30
0.0
 11
2486.025206402959
 21
1358.047590588581
 31
0.0
  0
LINE
  5
A349
330
1F
100
AcDbEntity
  8
実形
100
AcDbLine
 10
2286.02520640296
 20
1683.547590588583
 30
0.0
 11
2455.02520640296
 21
1683.547590588582
 31
0.0
  0
ARC
  5
A34A
330
1F
100
AcDbEntity
  8
実形
100
AcDbCircle
 10
2455.02520640296
 20
1677.547590588582
 30
0.0
 40
6.0
100
AcDbArc
 50
0.0
 51
90.0
  0
LINE
  5
A34B
330
1F
100
AcDbEntity
  8
実形
100
AcDbLine
 10
2476.02520640296
 20
1539.047590588582
 30
0.0
 11
2473.172053762668
 21
1677.698170760215
 31
0.0
  0
ARC
  5
A34C
330
1F
100
AcDbEntity
  8
実形
100
AcDbCircle
 10
2467.17394359263
 20
1677.547590588583
 30
0.0
 40
6.0
100
AcDbArc
 50
1.438085707406163
 51
90.0
  0
LINE
  5
A34D
330
1F
100
AcDbEntity
  8
実形
100
AcDbLine
 10
2455.02520640296
 20
1683.547590588582
 30
0.0
 11
2467.17394359263
 21
1683.547590588582
 31
0.0
  0
DIMENSION
  5
A34E
330
1F
100
AcDbEntity
  8
実形
100
AcDbDimension
  2
*D84
 10
2461.025206402958
 20
1113.337932605312
 30
0.0
 11
2232.460599677292
 21
1134.937932605311
 31
0.0
 70
   160
  1
15
 71
     5
 42
189.9999999999991
  3
ISO-25
100
AcDbAlignedDimension
 13
2271.025206402959
 23
1233.160850763467
 33
0.0
 14
2461.025206402958
 24
1210.067481372382
 34
0.0
100
AcDbRotatedDimension
1001
ACAD
1000
DSTYLE
1002
{
1070
    41
1040
10.0
1070
   140
1040
25.0
1070
   147
1040
6.599999999999998
1070
   279
1070
     2
1070
   342
1005
30D
1070
   371
1070
    18
1070
   372
1070
    18
1002
}
  0
DIMENSION
  5
A34F
330
1F
100
AcDbEntity
  8
実形
100
AcDbDimension
  2
*D85
 10
2461.025206402958
 20
1113.337932605312
 30
0.0
 11
2370.061892880593
 21
1135.023310116205
 31
0.0
 70
   160
 71
     5
 42
174.9999999999995
  3
ISO-25
100
AcDbAlignedDimension
 13
2286.025206402959
 23
1234.838419520768
 33
0.0
 14
2461.025206402958
 24
1233.999639869768
 34
0.0
100
AcDbRotatedDimension
1001
ACAD
1000
DSTYLE
1002
{
1070
    41
1040
10.0
1070
   140
1040
25.0
1070
   147
1040
6.599999999999998
1070
   279
1070
     2
1070
   342
1005
30D
1070
   371
1070
    18
1070
   372
1070
    18
1002
}
  0
DIMENSION
  5
A350
330
1F
100
AcDbEntity
  8
実形
100
AcDbDimension
  2
*D86
 10
2461.025206402959
 20
1061.327443365982
 30
0.0
 11
2370.90088870361
 21
1082.927443365981
 31
0.0
 70
   160
 71
     5
 42
189.9999999999995
  3
ISO-25
100
AcDbAlignedDimension
 13
2271.025206402959
 23
1171.142897350245
 33
0.0
 14
2461.025206402959
 24
1171.142897350245
 34
0.0
100
AcDbRotatedDimension
1001
ACAD
1000
DSTYLE
1002
{
1070
    41
1040
10.0
1070
   140
1040
25.0
1070
   147
1040
6.599999999999998
1070
   279
1070
     2
1070
   342
1005
30D
1070
   371
1070
    18
1070
   372
1070
    18
1002
}
  0
DIMENSION
  5
A351
330
1F
100
AcDbEntity
  8
実形
100
AcDbDimension
  2
*D87
 10
2476.025206402959
 20
1061.327443365982
 30
0.0
 11
2511.01315731481
 21
1082.927443365981
 31
0.0
 70
   160
  1
15
 71
     5
 42
204.9999999999995
  3
ISO-25
100
AcDbAlignedDimension
 13
2271.025206402959
 23
1171.142897350245
 33
0.0
 14
2476.025206402959
 24
1233.744242765121
 34
0.0
100
AcDbRotatedDimension
1001
ACAD
1000
DSTYLE
1002
{
1070
    41
1040
10.0
1070
   140
1040
25.0
1070
   147
1040
6.599999999999998
1070
   279
1070
     2
1070
   342
1005
30D
1070
   371
1070
    18
1070
   372
1070
    18
1002
}
  0
DIMENSION
  5
A352
330
1F
100
AcDbEntity
  8
実形
100
AcDbDimension
  2
*D88
 10
2476.025206402959
 20
1008.057159801096
 30
0.0
 11
2373.786074233418
 21
1027.157159801096
 31
0.0
 70
    32
  1
205
 71
     5
 42
204.4782643390822
  3
ISO-25
100
AcDbAlignedDimension
 13
2271.546942063876
 23
1139.196004904778
 33
0.0
 14
2476.025206402959
 24
1139.196004904778
 34
0.0
100
AcDbRotatedDimension
1001
ACAD
1000
DSTYLE
1002
{
1070
    41
1040
10.0
1070
   140
1040
25.0
1070
   147
1040
6.599999999999998
1070
   279
1070
     2
1070
   342
1005
30D
1070
   371
1070
    18
1070
   372
1070
    18
1002
}
  0
DIMENSION
  5
A353
330
1F
100
AcDbEntity
  8
実形
100
AcDbDimension
  2
*D89
 10
2486.025206402959
 20
1008.057159801096
 30
0.0
 11
2509.820530895875
 21
1029.657159801096
 31
0.0
 70
   160
  1
8
 71
     5
 42
215.0
  3
ISO-25
100
AcDbAlignedDimension
 13
2271.025206402959
 23
1204.196004904778
 33
0.0
 14
2486.025206402959
 24
1121.966074068686
 34
0.0
100
AcDbRotatedDimension
1001
ACAD
1000
DSTYLE
1002
{
1070
    41
1040
10.0
1070
   140
1040
25.0
1070
   147
1040
6.599999999999998
1070
   279
1070
     2
1070
   342
1005
30D
1070
   371
1070
    18
1070
   372
1070
    18
1002
}
  0
DIMENSION
  5
A354
330
1F
100
AcDbEntity
  8
実形
100
AcDbDimension
  2
*D90
 10
2486.025206402959
 20
953.351148403669
 30
0.0
 11
2373.417876172658
 21
974.9511484036689
 31
0.0
 70
   160
  1
213
 71
     5
 42
215.0
  3
ISO-25
100
AcDbAlignedDimension
 13
2271.025206402959
 23
1139.196004904778
 33
0.0
 14
2486.025206402959
 24
1075.128591651974
 34
0.0
100
AcDbRotatedDimension
1001
ACAD
1000
DSTYLE
1002
{
1070
    41
1040
10.0
1070
   140
1040
25.0
1070
   147
1040
6.599999999999998
1070
   279
1070
     2
1070
   342
1005
30D
1070
   371
1070
    18
1070
   372
1070
    18
1002
}
  0
LINE
  5
A429
330
1F
100
AcDbEntity
  8
実形
100
AcDbLine
 10
2271.025206402959
 20
1193.547590588581
 30
0.0
 11
2286.025206402959
 21
1193.547590588581
 31
0.0
  0
LINE
  5
A42A
330
1F
100
AcDbEntity
  8
実形
100
AcDbLine
 10
2286.025206402959
 20
1213.547590588581
 30
0.0
 11
2455.025206402958
 21
1213.547590588581
 31
0.0
  0
ARC
  5
A42C
330
1F
100
AcDbEntity
  8
実形
100
AcDbCircle
 10
2455.025206402958
 20
1219.547590588581
 30
0.0
 40
6.0
100
AcDbArc
 50
270.0
 51
359.9999999999998
  0
ARC
  5
A42D
330
1F
100
AcDbEntity
  8
実形
100
AcDbCircle
 10
2466.546328529867
 20
1219.547590588581
 30
0.0
 40
6.0
100
AcDbArc
 50
269.9999999999989
 51
358.5619142925961
  0
LINE
  5
A59E
330
1F
100
AcDbEntity
  8
実形
100
AcDbLine
 10
1065.001624972476
 20
1703.547590588581
 30
0.0
 11
1050.001624972476
 21
1703.547590588581
 31
0.0
  0
LINE
  5
A59F
330
1F
100
AcDbEntity
  8
実形
100
AcDbLine
 10
1065.001624972476
 20
1193.547590588581
 30
0.0
 11
1050.001624972476
 21
1193.547590588581
 31
0.0
  0
LINE
  5
A5A0
330
1F
100
AcDbEntity
  8
実形
100
AcDbLine
 10
1050.001624972476
 20
1213.547590588581
 30
0.0
 11
875.7119429907922
 21
1213.547590588581
 31
0.0
  0
ARC
  5
A5A1
330
1F
100
AcDbEntity
  8
実形
100
AcDbCircle
 10
875.7119429907922
 20
1219.547590588581
 30
0.0
 40
6.0
100
AcDbArc
 50
182.8341110163053
 51
270.0
  0
LINE
  5
A5A2
330
1F
100
AcDbEntity
  8
実形
100
AcDbLine
 10
1050.001624972476
 20
1703.547590588581
 30
0.0
 11
1050.001624972476
 21
1381.483544013623
 31
0.0
  0
LEADER
  5
A5A3
330
1F
100
AcDbEntity
  8
実形
100
AcDbLeader
  3
ISO-25
 76
     2
 10
881.1324932225815
 20
1224.926484201073
 30
0.0
 10
923.0542034934879
 20
1263.112111990374
 30
0.0
211
-1.0
221
0.0
231
0.0
1001
ACAD
1000
DSTYLE
1002
{
1070
    77
1070
     0
1070
    41
1040
10.0
1070
   140
1040
30.0
1070
   147
1040
6.599999999999998
1070
   279
1070
     2
1070
   342
1005
30D
1070
   371
1070
    18
1070
   372
1070
    18
1002
}
  0
LINE
  5
A5A4
330
1F
100
AcDbEntity
  8
実形
100
AcDbLine
 10
1065.001624972476
 20
1718.547590588581
 30
0.0
 11
1065.001624972476
 21
1381.483544013623
 31
0.0
  0
LINE
  5
A5A5
330
1F
100
AcDbEntity
  8
実形
100
AcDbLine
 10
860.0016249724758
 20
1581.547590588581
 30
0.0
 11
860.0016249724758
 21
1465.547590588582
 31
0.0
  0
LINE
  5
A5A6
330
1F
100
AcDbEntity
  8
実形
100
AcDbLine
 10
850.0016249724758
 20
1581.047590588581
 30
0.0
 11
850.0016249724756
 21
1466.047590588582
 31
0.0
  0
LINE
  5
A5A7
330
1F
100
AcDbEntity
  8
実形
100
AcDbLine
 10
1050.001624972476
 20
1613.547590588582
 30
0.0
 11
868.4654344774715
 21
1613.547590588582
 31
0.0
  0
ARC
  5
A5A8
330
1F
100
AcDbEntity
  8
実形
100
AcDbCircle
 10
868.4654344774715
 20
1607.547590588582
 30
0.0
 40
6.0
100
AcDbArc
 50
90.0
 51
174.6441749571513
  0
DIMENSION
  5
A5AB
330
1F
100
AcDbEntity
  8
実形
100
AcDbDimension
  2
*D91
 10
773.7955584434891
 20
1476.547590588581
 30
0.0
 11
752.1955584434889
 21
1523.547590588582
 31
0.0
 70
    32
 71
     5
 42
94.00000000000023
  3
ISO-25
100
AcDbAlignedDimension
 13
881.7955584434891
 23
1570.547590588582
 33
0.0
 14
881.7955584434887
 24
1476.547590588581
 34
0.0
 50
90.0
100
AcDbRotatedDimension
1001
ACAD
1000
DSTYLE
1002
{
1070
    41
1040
10.0
1070
   140
1040
30.0
1070
   147
1040
6.599999999999998
1070
   279
1070
     2
1070
   342
1005
30D
1070
   371
1070
    18
1070
   372
1070
    18
1002
}
  0
DIMENSION
  5
A5AC
330
1F
100
AcDbEntity
  8
実形
100
AcDbDimension
  2
*D92
 10
723.0884875253086
 20
1466.047590588582
 30
0.0
 11
701.4884875253084
 21
1523.547590588582
 31
0.0
 70
    32
 71
     5
 42
114.9999999999997
  3
ISO-25
100
AcDbAlignedDimension
 13
882.3318590869675
 23
1581.047590588581
 33
0.0
 14
880.7932743971614
 24
1466.047590588582
 34
0.0
 50
90.0
100
AcDbRotatedDimension
1001
ACAD
1000
DSTYLE
1002
{
1070
    41
1040
10.0
1070
   140
1040
30.0
1070
   147
1040
6.599999999999998
1070
   279
1070
     2
1070
   342
1005
30D
1070
   371
1070
    18
1070
   372
1070
    18
1002
}
  0
LINE
  5
A5AE
330
1F
100
AcDbEntity
  8
実形
100
AcDbLine
 10
860.0016249724758
 20
1581.547590588582
 30
0.0
 11
862.4916291211158
 21
1608.10763484074
 31
0.0
  0
LINE
  5
A5AF
330
1F
100
AcDbEntity
  8
実形
  6
ACAD_ISO08W100
 48
0.5
100
AcDbLine
 10
944.028526138838
 20
1523.547590588582
 30
0.0
 11
794.4610935055789
 21
1523.547590588582
 31
0.0
  0
TEXT
  5
A5B0
330
1F
100
AcDbEntity
  8
実形
100
AcDbText
 10
939.7749551583709
 20
1263.709153827962
 30
0.0
 40
25.0
  1
6R
 72
     2
 11
981.4416218250375
 21
1260.375820494628
 31
0.0
100
AcDbText
 73
     1
  0
DIMENSION
  5
A5B1
330
1F
100
AcDbEntity
  8
実形
100
AcDbDimension
  2
*D93
 10
1050.001624972475
 20
1089.489621137806
 30
0.0
 11
953.0530542580928
 21
1110.475006752988
 31
0.0
 70
   160
  1
180
 71
     5
 42
180.2823432475591
  3
ISO-25
100
AcDbAlignedDimension
 13
869.7192817249165
 23
1211.664926213184
 33
0.0
 14
1050.001624972475
 24
1212.690712784909
 34
0.0
100
AcDbRotatedDimension
1001
ACAD
1000
DSTYLE
1002
{
1070
    41
1040
10.0
1070
   140
1040
25.0
1070
   147
1040
6.599999999999998
1070
   279
1070
     2
1070
   342
1005
30D
1070
   371
1070
    18
1070
   372
1070
    18
1002
}
  0
DIMENSION
  5
A5B2
330
1F
100
AcDbEntity
  8
実形
100
AcDbDimension
  2
*D94
 10
1065.001624972476
 20
1089.489621137806
 30
0.0
 11
1021.897324901853
 21
1111.089621137806
 31
0.0
 70
   160
  1
15
 71
     5
 42
195.2823432475593
  3
ISO-25
100
AcDbAlignedDimension
 13
869.7192817249165
 23
1195.113016554904
 33
0.0
 14
1065.001624972476
 24
1195.113016554904
 34
0.0
100
AcDbRotatedDimension
1001
ACAD
1000
DSTYLE
1002
{
1070
    41
1040
10.0
1070
   140
1040
25.0
1070
   147
1040
6.599999999999998
1070
   279
1070
     2
1070
   342
1005
30D
1070
   371
1070
    18
1070
   372
1070
    18
1002
}
  0
DIMENSION
  5
A5B3
330
1F
100
AcDbEntity
  8
実形
100
AcDbDimension
  2
*D95
 10
1065.001624972476
 20
1034.82136086567
 30
0.0
 11
951.5961817945026
 21
1053.497889809593
 31
0.0
 70
   160
  1
195
 71
     5
 42
195.2823432475593
  3
ISO-25
100
AcDbAlignedDimension
 13
869.7192817249165
 23
1191.687645072907
 33
0.0
 14
1065.001624972476
 24
1191.687645072907
 34
0.0
100
AcDbRotatedDimension
1001
ACAD
1000
DSTYLE
1002
{
1070
    41
1040
10.0
1070
   140
1040
25.0
1070
   147
1040
6.599999999999998
1070
   279
1070
     2
1070
   342
1005
30D
1070
   371
1070
    18
1070
   372
1070
    18
1002
}
  0
DIMENSION
  5
A5B4
330
1F
100
AcDbEntity
  8
実形
100
AcDbDimension
  2
*D96
 10
1065.001624972476
 20
1034.82136086567
 30
0.0
 11
831.2812132265825
 21
1056.42136086567
 31
0.0
 70
   160
  1
10
 71
     5
 42
204.9999999999999
  3
ISO-25
100
AcDbAlignedDimension
 13
860.001624972476
 23
1212.126335391285
 33
0.0
 14
1065.001624972476
 24
1191.687645072907
 34
0.0
100
AcDbRotatedDimension
1001
ACAD
1000
DSTYLE
1002
{
1070
    41
1040
10.0
1070
   140
1040
25.0
1070
   147
1040
6.599999999999998
1070
   279
1070
     2
1070
   342
1005
30D
1070
   371
1070
    18
1070
   372
1070
    18
1002
}
  0
DIMENSION
  5
A5B5
330
1F
100
AcDbEntity
  8
実形
100
AcDbDimension
  2
*D97
 10
1065.001624972476
 20
980.401716778365
 30
0.0
 11
951.5961817945026
 21
999.501716778365
 31
0.0
 70
   160
 71
     5
 42
204.9999999999999
  3
ISO-25
100
AcDbAlignedDimension
 13
860.001624972476
 23
1106.172036632599
 33
0.0
 14
1065.001624972476
 24
1126.687645072907
 34
0.0
100
AcDbRotatedDimension
1001
ACAD
1000
DSTYLE
1002
{
1070
    41
1040
10.0
1070
   140
1040
25.0
1070
   147
1040
6.599999999999998
1070
   279
1070
     2
1070
   342
1005
30D
1070
   371
1070
    18
1070
   372
1070
    18
1002
}
  0
DIMENSION
  5
A5B6
330
1F
100
AcDbEntity
  8
実形
100
AcDbDimension
  2
*D98
 10
1065.001624972476
 20
980.401716778365
 30
0.0
 11
819.7763147297083
 21
1002.001716778365
 31
0.0
 70
   160
  1
10
 71
     5
 42
215.0000000000002
  3
ISO-25
100
AcDbAlignedDimension
 13
850.0016249724756
 23
1096.143187744635
 33
0.0
 14
1065.001624972476
 24
1212.690712784909
 34
0.0
100
AcDbRotatedDimension
1001
ACAD
1000
DSTYLE
1002
{
1070
    41
1040
10.0
1070
   140
1040
25.0
1070
   147
1040
6.599999999999998
1070
   279
1070
     2
1070
   342
1005
30D
1070
   371
1070
    18
1070
   372
1070
    18
1002
}
  0
DIMENSION
  5
A5B7
330
1F
100
AcDbEntity
  8
実形
100
AcDbDimension
  2
*D99
 10
1065.001624972476
 20
921.4158920512026
 30
0.0
 11
951.5961817945026
 21
940.5158920512027
 31
0.0
 70
   160
  1
215
 71
     5
 42
215.0000000000002
  3
ISO-25
100
AcDbAlignedDimension
 13
850.0016249724756
 23
1064.67667905168
 33
0.0
 14
1065.001624972476
 24
1037.321360865671
 34
0.0
100
AcDbRotatedDimension
1001
ACAD
1000
DSTYLE
1002
{
1070
    41
1040
10.0
1070
   140
1040
25.0
1070
   147
1040
6.599999999999998
1070
   279
1070
     2
1070
   342
1005
30D
1070
   371
1070
    18
1070
   372
1070
    18
1002
}
  0
LINE
  5
A68C
330
1F
100
AcDbEntity
  8
実形
100
AcDbLine
 10
1065.001624972475
 20
1381.483544013623
 30
0.0
 11
1065.001624972476
 21
1178.547590588581
 31
0.0
  0
LINE
  5
A68D
330
1F
100
AcDbEntity
  8
実形
100
AcDbLine
 10
1050.001624972475
 20
1381.483544013623
 30
0.0
 11
1050.001624972476
 21
1193.547590588581
 31
0.0
  0
LINE
  5
A68E
330
1F
100
AcDbEntity
  8
実形
100
AcDbLine
 10
869.7192817249165
 20
1219.25092418928
 30
0.0
 11
860.0016249724758
 21
1465.547590588582
 31
0.0
  0
TEXT
  5
A77C
330
1F
100
AcDbEntity
  8
実形
100
AcDbText
 10
234.9784467214322
 20
55.07438486928913
 30
0.0
 40
30.0
  1
※実寸には製造上の誤差が多少生ずる場合があります。シンクの穴あけ加工は現物合わせにてお願いします。
 72
     4
 11
1104.978446721432
 21
70.07438486928913
 31
0.0
100
AcDbText
  0
TEXT
  5
A798
330
1F
100
AcDbEntity
  8
実形
100
AcDbText
 10
234.6212219700337
 20
117.5456368237055
 30
0.0
 40
30.0
  1
※排水口外周W35ｍｍ,H3ｍｍラウンドテーパ－有り。
 72
     4
 11
688.1212219700337
 21
130.0456368237055
 31
0.0
100
AcDbText
  0
LINE
  5
A893
330
1F
100
AcDbEntity
  8
補助
 62
     0
100
AcDbLine
 10
2834.0
 20
1959.0
 30
0.0
 11
2069.387286519283
 21
1959.000000000001
 31
0.0
  0
LINE
  5
A894
330
1F
100
AcDbEntity
  8
補助
 62
     0
100
AcDbLine
 10
2834.0
 20
1894.0
 30
0.0
 11
2069.387286519283
 21
1894.0
 31
0.0
  0
LINE
  5
A895
330
1F
100
AcDbEntity
  8
補助
 62
     0
100
AcDbLine
 10
2252.547653420926
 20
1894.0
 30
0.0
 11
2252.547653420926
 21
2024.0
 31
0.0
  0
LINE
  5
A896
330
1F
100
AcDbEntity
  8
補助
 62
     0
100
AcDbLine
 10
2069.387286519283
 20
1894.0
 30
0.0
 11
2069.387286519283
 21
2024.0
 31
0.0
  0
TEXT
  5
A897
330
1F
100
AcDbEntity
  8
補助
 62
     0
100
AcDbText
 10
2100.295698850121
 20
1976.328571428572
 30
0.0
 40
30.0
  1
部品名
  7
明朝
 72
     4
 11
2166.124270278692
 21
1991.5
 31
0.0
100
AcDbText
  0
TEXT
  5
A898
330
1F
100
AcDbEntity
  8
補助
 62
     0
100
AcDbText
 10
2677.614285714286
 20
1976.071428571429
 30
0.0
 40
30.0
  1
厚さ
  7
明朝
 72
     4
 11
2721.5
 21
1991.5
 31
0.0
100
AcDbText
  0
LINE
  5
A899
330
1F
100
AcDbEntity
  8
補助
 62
     0
100
AcDbLine
 10
2609.0
 20
1894.0
 30
0.0
 11
2609.0
 21
2024.0
 31
0.0
  0
TEXT
  5
A89A
330
1F
100
AcDbEntity
  8
補助
 62
     0
100
AcDbText
 10
2388.490869919937
 20
1975.947979478155
 30
0.0
 40
30.0
  1
材質
  7
明朝
 72
     4
 11
2432.376584205651
 21
1991.119408049583
 31
0.0
100
AcDbText
  0
TEXT
  5
A89B
330
1F
100
AcDbEntity
  8
実形
 62
     0
100
AcDbText
 10
2098.227810657788
 20
1910.557142857143
 30
0.0
 40
30.0
  1
ボウル
  7
明朝
 72
     4
 11
2164.056382086359
 21
1926.5
 31
0.0
100
AcDbText
  0
TEXT
  5
A89C
330
1F
100
AcDbEntity
  8
実形
 62
     0
100
AcDbText
 10
2644.700000000001
 20
1911.842857142857
 30
0.0
 40
30.0
  1
1.0ｍｍ
  7
明朝
 72
     4
 11
2721.500000000001
 21
1926.5
 31
0.0
100
AcDbText
  0
TEXT
  5
A89D
330
1F
100
AcDbEntity
  8
実形
 62
     0
100
AcDbText
 10
2311.016869107866
 20
1910.728571428572
 30
0.0
 40
30.0
  1
SUS304（HL）
  7
明朝
 72
     4
 11
2442.674011965009
 21
1926.5
 31
0.0
100
AcDbText
  0
LINE
  5
A8F7
330
1F
100
AcDbEntity
  8
実形
100
AcDbLine
 10
860.0016249724758
 20
1581.047590588581
 30
0.0
 11
850.0016249724758
 21
1581.047590588581
 31
0.0
  0
LINE
  5
A8F8
330
1F
100
AcDbEntity
  8
実形
100
AcDbLine
 10
860.0016249724758
 20
1466.047590588582
 30
0.0
 11
850.0016249724758
 21
1466.047590588582
 31
0.0
  0
LINE
  5
A922
330
1F
100
AcDbEntity
  8
実形
100
AcDbLine
 10
1344.512719908287
 20
485.6580729330508
 30
0.0
 11
1344.512719908286
 21
475.6580729330507
 31
0.0
  0
LINE
  5
A923
330
1F
100
AcDbEntity
  8
実形
100
AcDbLine
 10
1229.512719908286
 20
485.6580729330508
 30
0.0
 11
1229.512719908287
 21
475.6580729330507
 31
0.0
  0
VIEWPORT
  5
2E
102
{ACAD_XDICTIONARY
360
A954
102
}
330
1B
100
AcDbEntity
 67
     1
  8
0
100
AcDbViewport
 10
144.7270812988281
 20
101.2295806407928
 30
0.0
 40
411.6736216682419
 41
222.1517806396485
 68
     1
 69
     1
 12
144.7270812988281
 22
101.2295806407928
 13
0.0
 23
0.0
 14
10.0
 24
10.0
 15
10.0
 25
10.0
 16
0.0
 26
0.0
 36
1.0
 17
0.0
 27
0.0
 37
0.0
 42
50.0
 43
0.0
 44
0.0
 45
222.1517806396485
 50
0.0
 51
0.0
 72
   100
 90
    32800
  1

281
     0
 71
     1
 74
     0
110
0.0
120
0.0
130
0.0
111
1.0
121
0.0
131
0.0
112
0.0
122
1.0
132
0.0
 79
     0
146
0.0
  0
VIEWPORT
  5
30
102
{ACAD_XDICTIONARY
360
A956
102
}
330
1B
100
AcDbEntity
 67
     1
  8
0
100
AcDbViewport
 10
139.2237563133239
 20
101.2295821905136
 30
0.0
 40
222.7580101013184
 41
161.9673315048218
 68
     2
 69
     2
 12
210.0
 22
148.5
 13
0.0
 23
0.0
 14
10.0
 24
10.0
 15
10.0
 25
10.0
 16
0.0
 26
0.0
 36
1.0
 17
0.0
 27
0.0
 37
0.0
 42
50.0
 43
0.0
 44
0.0
 45
309.0686705647124
 50
0.0
 51
0.0
 72
   100
 90
    32864
  1

281
     0
 71
     1
 74
     0
110
0.0
120
0.0
130
0.0
111
1.0
121
0.0
131
0.0
112
0.0
122
1.0
132
0.0
 79
     0
146
0.0
  0
ENDSEC
  0
SECTION
  2
OBJECTS
  0
DICTIONARY
  5
C
330
0
100
AcDbDictionary
281
     1
  3
ACAD_COLOR
350
22AD
  3
ACAD_GROUP
350
D
  3
ACAD_LAYOUT
350
1A
  3
ACAD_MATERIAL
350
22AC
  3
ACAD_MLINESTYLE
350
17
  3
ACAD_PLOTSETTINGS
350
19
  3
ACAD_PLOTSTYLENAME
350
E
  3
ACAD_TABLESTYLE
350
22AE
  3
AcadDim
350
124
  3
ACDBHEADERROUNDTRIPXREC
350
A94D
  3
AcDbVariableDictionary
350
1589
  3
DWGPROPS
350
A94C
  0
DICTIONARY
  5
24C4
330
2
100
AcDbDictionary
280
     1
281
     1
  3
ACAD_LAYERFILTERS
360
6C37
  3
ACAD_LAYERSTATES
360
24C5
  3
ACLYDICTIONARY
360
6C36
  0
DICTIONARY
  5
2396
330
1F
100
AcDbDictionary
280
     1
281
     1
  3
ACAD_SORTENTS
360
2397
  0
DICTIONARY
  5
313E
330
313C
100
AcDbDictionary
280
     1
281
     1
  3
ACAD_SORTENTS
360
80F9
  0
DICTIONARY
  5
3848
330
3846
100
AcDbDictionary
280
     1
281
     1
  3
ACAD_SORTENTS
360
80FA
  0
DICTIONARY
  5
6B89
330
6B87
100
AcDbDictionary
280
     1
281
     1
  3
ACAD_SORTENTS
360
80FB
  0
DICTIONARY
  5
6C02
330
6C00
100
AcDbDictionary
280
     1
281
     1
  3
ACAD_SORTENTS
360
80FC
  0
DICTIONARY
  5
7758
330
7752
100
AcDbDictionary
280
     1
281
     1
  3
ACAD_SORTENTS
360
80FD
  0
DICTIONARY
  5
79A2
330
79A0
100
AcDbDictionary
280
     1
281
     1
  3
ACAD_SORTENTS
360
80FE
  0
DICTIONARY
  5
80F8
330
8065
100
AcDbDictionary
280
     1
281
     1
  3
ACAD_SORTENTS
360
80FF
  0
DICTIONARY
  5
8EAA
330
8EA8
100
AcDbDictionary
280
     1
281
     1
  3
ACAD_SORTENTS
360
8EAB
  0
DICTIONARY
  5
A862
330
A856
100
AcDbDictionary
280
     1
281
     1
  3
ACAD_SORTENTS
360
A863
  0
DICTIONARY
  5
A954
330
2E
100
AcDbDictionary
280
     1
281
     1
  3
ACAD_XREC_ROUNDTRIP
360
A955
  0
DICTIONARY
  5
A956
330
30
100
AcDbDictionary
280
     1
281
     1
  3
ACAD_XREC_ROUNDTRIP
360
A957
  0
DICTIONARY
  5
22AD
102
{ACAD_REACTORS
330
C
102
}
330
C
100
AcDbDictionary
281
     1
  0
DICTIONARY
  5
D
102
{ACAD_REACTORS
330
C
102
}
330
C
100
AcDbDictionary
281
     1
  0
DICTIONARY
  5
1A
102
{ACAD_REACTORS
330
C
102
}
330
C
100
AcDbDictionary
281
     1
  3
Model
350
22
  3
ﾚｲｱｳﾄ1
350
1E
  3
ﾚｲｱｳﾄ2
350
26
  0
DICTIONARY
  5
22AC
102
{ACAD_REACTORS
330
C
102
}
330
C
100
AcDbDictionary
281
     1
  0
DICTIONARY
  5
17
102
{ACAD_REACTORS
330
C
102
}
330
C
100
AcDbDictionary
281
     1
  3
Standard
350
18
  0
DICTIONARY
  5
19
102
{ACAD_REACTORS
330
C
102
}
330
C
100
AcDbDictionary
281
     1
  0
ACDBDICTIONARYWDFLT
  5
E
102
{ACAD_REACTORS
330
C
102
}
330
C
100
AcDbDictionary
281
     1
  3
Normal
350
F
100
AcDbDictionaryWithDefault
340
F
  0
DICTIONARY
  5
22AE
102
{ACAD_REACTORS
330
C
102
}
330
C
100
AcDbDictionary
281
     1
  3
Standard
350
22AF
  0
XRECORD
  5
124
102
{ACAD_REACTORS
330
C
102
}
330
C
100
AcDbXrecord
280
     1
 90
   990106
  3

 60
     0
 61
     0
 62
     1
 63
     3
 64
     0
 65
     0
 66
     0
 67
     3
 68
     1
 69
     0
 70
     0
 71
     0
 72
     0
 40
30.0
170
     0
  0
DICTIONARY
  5
A94D
102
{ACAD_REACTORS
330
C
102
}
330
C
100
AcDbDictionary
281
     1
  0
DICTIONARY
  5
1589
102
{ACAD_REACTORS
330
C
102
}
330
C
100
AcDbDictionary
281
     1
  3
CTABLESTYLE
350
22B5
  3
DIMASSOC
350
A949
  3
PROJECTNAME
350
A94A
  3
SORTENTS
350
158A
  0
XRECORD
  5
A94C
102
{ACAD_REACTORS
330
C
102
}
330
C
100
AcDbXrecord
280
     1
  1
DWGPROPS COOKIE
  2

  3

  4

  6

  7

  8

  9

300
=
301
=
302
=
303
=
304
=
305
=
306
=
307
=
308
=
309
=
 40
2.998755150462963
 41
2451673.575802199
 42
2458808.783624549
  1

 90
        0
  0
DICTIONARY
  5
6C37
102
{ACAD_REACTORS
330
24C4
102
}
330
24C4
100
AcDbDictionary
281
     1
  0
DICTIONARY
  5
24C5
102
{ACAD_REACTORS
330
24C4
102
}
330
24C4
100
AcDbDictionary
281
     1
  0
DICTIONARY
  5
6C36
102
{ACAD_REACTORS
330
24C4
102
}
330
24C4
100
AcDbDictionary
281
     1
1001
ACAD
1000
<All
  0
SORTENTSTABLE
  5
2397
102
{ACAD_REACTORS
330
2396
102
}
330
2396
100
AcDbSortentsTable
330
1F
331
7BA4
  5
818B
331
7BCC
  5
818C
331
A59E
  5
A5A2
331
A5A6
  5
A5AE
331
A5AE
  5
A68A
331
8F83
  5
91DB
331
A33F
  5
A343
331
9C62
  5
9C62
331
90B3
  5
9201
331
9DD1
  5
9DD5
331
8E06
  5
8F3E
331
9DD9
  5
9DDD
331
A34F
  5
A412
331
9DA2
  5
9DA2
331
7A4D
  5
8187
331
A353
  5
A59E
331
A429
  5
A5A0
331
1B85
  5
1B8F
331
7549
  5
717F
331
7938
  5
7C3F
331
A5B6
  5
A897
331
1B8D
  5
1B96
331
702A
  5
7027
331
1B95
  5
1BA2
331
7751
  5
785C
331
9DAA
  5
9DAA
331
9DB2
  5
9DB2
331
A68D
  5
A5A7
331
A89A
  5
A90D
331
9DBA
  5
9DBA
331
9DC2
  5
9DC2
331
A77C
  5
A899
331
A0
  5
1B74
331
734A
  5
7798
331
78E9
  5
7BEB
331
A59F
  5
A5A3
331
6D9B
  5
1B7B
331
A5A7
  5
A5B0
331
A5AF
  5
A68B
331
A338
  5
A33C
331
8F84
  5
91DD
331
9ACB
  5
9ACC
331
A340
  5
A345
331
A348
  5
A34E
331
9DD2
  5
9DD6
331
9DDA
  5
9DDE
331
9DA3
  5
9DA3
331
A893
  5
A89B
331
7B4E
  5
8188
331
A354
  5
A59F
331
A42A
  5
A5A1
331
1B86
  5
1B90
331
68BC
  5
6D9A
331
754A
  5
70D5
331
A5B7
  5
A898
331
1B8E
  5
1B97
331
702B
  5
7086
331
1B96
  5
1BA6
331
9DE0
  5
9DE4
331
9DAB
  5
9DAB
331
9DB3
  5
9DB3
331
8F3D
  5
91D6
331
A68E
  5
A677
331
A89B
  5
A90E
331
9DBB
  5
9DBB
331
8F4D
  5
7771
331
9DC3
  5
9DC3
331
8E3F
  5
8F83
331
9714
  5
7774
331
A922
  5
9DD4
331
7183
  5
7776
331
734B
  5
77A4
331
A5A0
  5
A5A4
331
A5A8
  5
A5B1
331
8C70
  5
8E13
331
A339
  5
A33D
331
9ACC
  5
9C19
331
9DCB
  5
9DCE
331
A341
  5
A346
331
A349
  5
A34F
331
9DD3
  5
9DD7
331
9DDB
  5
9DDF
331
9DA4
  5
9DA4
331
A894
  5
A89C
331
7C3E
  5
703F
331
A5B0
  5
A77C
331
1B87
  5
1B91
331
1B8F
  5
1B98
331
702C
  5
7181
331
1B97
  5
1BA7
331
9DE1
  5
A334
331
9DAC
  5
9DAC
331
9DB4
  5
9DB4
331
8C49
  5
7183
331
9DBC
  5
9DBC
331
8F4E
  5
91D7
331
8E9F
  5
90B1
331
A89C
  5
A922
331
9DC4
  5
9DC4
331
9715
  5
7773
331
A923
  5
9DCC
331
7184
  5
7777
331
A5A1
  5
A5A5
331
A33A
  5
A33E
331
9DCC
  5
9DCF
331
A342
  5
A347
331
A34A
  5
A350
331
8E78
  5
8F84
331
9DD4
  5
9DD8
331
8EE7
  5
90B3
331
9DDC
  5
9DE0
331
9DA5
  5
9DA5
331
A895
  5
A89D
331
A5B1
  5
A798
331
A42C
  5
A34A
331
1B88
  5
1B92
331
754C
  5
7028
331
1B90
  5
1B99
331
68D6
  5
6E28
331
702D
  5
72EE
331
9DE2
  5
A335
331
8E80
  5
90AF
331
9DAD
  5
9DAD
331
8E29
  5
8F6D
331
9DB5
  5
9DB5
331
8C4A
  5
729C
331
9DBD
  5
9DBD
331
A89D
  5
A923
331
9716
  5
7168
331
9DC5
  5
9DC5
331
1B98
  5
1BA8
331
7185
  5
7796
331
272
  5
1B7F
331
72ED
  5
7797
331
5E5F
  5
634E
331
A5A2
  5
A5A6
331
8EC8
  5
90B2
331
A33B
  5
A33F
331
9DCD
  5
9DD0
331
A343
  5
A348
331
A34B
  5
A351
331
9DD5
  5
9DD9
331
9DDD
  5
9DE1
331
9DA6
  5
9DA6
331
A896
  5
A8E3
331
73F5
  5
77A5
331
7C40
  5
818E
331
A5B2
  5
A893
331
7026
  5
7026
331
754D
  5
7775
331
A42D
  5
A34D
331
1B91
  5
1B9B
331
702E
  5
754C
331
774D
  5
77BC
331
9DE3
  5
A336
331
8E81
  5
90B0
331
8A83
  5
702F
331
9DAE
  5
9DAE
331
9DB6
  5
9DB6
331
A334
  5
A338
331
9DBE
  5
9DBE
331
9717
  5
702A
331
9DC6
  5
9DC8
331
9C
  5
9C
331
1B99
  5
37FF
331
A5A3
  5
A5A8
331
A5AB
  5
A5B6
331
A33C
  5
A340
331
9DCE
  5
9DD1
331
A34C
  5
A352
331
9DD6
  5
9DDA
331
A798
  5
A89A
331
8E13
  5
8F4E
331
9DDE
  5
9DE2
331
9DA7
  5
9DA7
331
A897
  5
A8E4
331
5E68
  5
634F
331
73F6
  5
77AF
331
A350
  5
A425
331
1B8A
  5
1B93
331
7027
  5
7078
331
754E
  5
7316
331
A5B3
  5
A894
331
1B92
  5
1B9C
331
702F
  5
7029
331
774E
  5
77E0
331
7A0D
  5
8185
331
9DE4
  5
A337
331
90C0
  5
9202
331
8A84
  5
7772
331
9DAF
  5
9DAF
331
9DB7
  5
9DB7
331
A335
  5
A339
331
9DBF
  5
9DBF
331
9DC7
  5
9DC9
331
7796
  5
7031
331
78F6
  5
7C3E
331
A5A4
  5
A5A9
331
A5AC
  5
A5B7
331
A33D
  5
A341
331
9DCF
  5
9DD2
331
A345
  5
A34B
331
A34D
  5
A353
331
9DD7
  5
9DDB
331
9DDF
  5
9DE3
331
A8F7
  5
A5B5
331
1B73
  5
1B86
331
A351
  5
A42B
331
1B8B
  5
1B94
331
7028
  5
7180
331
A5B4
  5
A895
331
774F
  5
7844
331
1B93
  5
1B9D
331
7030
  5
7102
331
9DA8
  5
9DA8
331
9DB0
  5
9DB0
331
8C4D
  5
8E06
331
90F9
  5
9248
331
9DB8
  5
9DB8
331
A898
  5
A8F7
331
A336
  5
A33A
331
9DC0
  5
9DC0
331
7BA3
  5
8189
331
7180
  5
72AB
331
7A2E
  5
8186
331
A5A5
  5
A5AC
331
9DC8
  5
9DCA
331
A33E
  5
A342
331
A346
  5
A34C
331
A34E
  5
A354
331
9DD8
  5
9DDC
331
A8F8
  5
A5B2
331
6E31
  5
1B73
331
1B84
  5
1B8E
331
7548
  5
70DF
331
A352
  5
A42C
331
1B8C
  5
1B95
331
7029
  5
72AC
331
A5B5
  5
A896
331
1B94
  5
1BA1
331
7031
  5
729D
331
7750
  5
7845
331
9DA9
  5
9DA9
331
8A86
  5
7132
331
9DB1
  5
9DB1
331
9DB9
  5
9DB9
331
A68C
  5
A5AA
331
A899
  5
A8F8
331
A337
  5
A33B
331
9DC1
  5
9DC1
  0
SORTENTSTABLE
  5
80F9
102
{ACAD_REACTORS
330
313E
102
}
330
313E
100
AcDbSortentsTable
330
313C
  0
SORTENTSTABLE
  5
80FA
102
{ACAD_REACTORS
330
3848
102
}
330
3848
100
AcDbSortentsTable
330
3846
  0
SORTENTSTABLE
  5
80FB
102
{ACAD_REACTORS
330
6B89
102
}
330
6B89
100
AcDbSortentsTable
330
6B87
  0
SORTENTSTABLE
  5
80FC
102
{ACAD_REACTORS
330
6C02
102
}
330
6C02
100
AcDbSortentsTable
330
6C00
  0
SORTENTSTABLE
  5
80FD
102
{ACAD_REACTORS
330
7758
102
}
330
7758
100
AcDbSortentsTable
330
7752
  0
SORTENTSTABLE
  5
80FE
102
{ACAD_REACTORS
330
79A2
102
}
330
79A2
100
AcDbSortentsTable
330
79A0
  0
SORTENTSTABLE
  5
80FF
102
{ACAD_REACTORS
330
80F8
102
}
330
80F8
100
AcDbSortentsTable
330
8065
331
8075
  5
8078
331
807D
  5
8080
331
8085
  5
8088
331
80A8
  5
80B7
331
80B0
  5
80C0
331
80EF
  5
80F2
331
80B8
  5
80B0
331
80C0
  5
80CC
331
806E
  5
8071
331
8089
  5
8068
331
80C8
  5
80CE
331
8091
  5
809D
331
80D0
  5
80D6
331
8099
  5
80A6
331
80D8
  5
80DE
331
80A1
  5
80B5
331
80E0
  5
80E3
331
8076
  5
8079
331
807E
  5
8081
331
8086
  5
8089
331
80A9
  5
80B9
331
80E8
  5
80EB
331
80B1
  5
80C1
331
80F0
  5
80F3
331
80B9
  5
80C8
331
80C1
  5
80CD
331
806F
  5
8072
331
80C9
  5
80CF
331
8092
  5
809F
331
80D1
  5
80D7
331
809A
  5
80A7
331
80D9
  5
8090
331
80A2
  5
80AD
331
80E1
  5
80E4
331
8077
  5
807A
331
807F
  5
8082
331
8087
  5
806B
331
80AA
  5
80BA
331
80E9
  5
80EC
331
80B2
  5
80C2
331
80F1
  5
80F4
331
80BA
  5
80B4
331
80C2
  5
8095
331
8068
  5
8069
331
808B
  5
8092
331
80CA
  5
80D0
331
8093
  5
808D
331
80D2
  5
80D8
331
809B
  5
80A8
331
80DA
  5
80DF
331
80A3
  5
80B1
331
80E2
  5
80E5
331
8070
  5
8073
331
8078
  5
807B
331
8080
  5
8083
331
80AB
  5
80BB
331
80EA
  5
80ED
331
80B3
  5
80C3
331
80F2
  5
80F5
331
80BB
  5
80C9
331
80C3
  5
8097
331
8069
  5
806C
331
808C
  5
8098
331
80CB
  5
80D1
331
8094
  5
8096
331
80D3
  5
80D9
331
809C
  5
80A9
331
80DB
  5
80E0
331
80A4
  5
80B8
331
80E3
  5
80E6
331
8071
  5
8074
331
8079
  5
807C
331
8081
  5
8084
331
80AC
  5
80BC
331
80EB
  5
80EE
331
80F3
  5
80F6
331
80B4
  5
80C4
331
80BC
  5
80CA
331
80C4
  5
8094
331
806A
  5
806D
331
808D
  5
809C
331
80CC
  5
80D2
331
8095
  5
809A
331
80D4
  5
80DA
331
809D
  5
809B
331
80DC
  5
80A0
331
80A5
  5
80AE
331
80E4
  5
80E7
331
8072
  5
8075
331
807A
  5
807D
331
8082
  5
8085
331
80AD
  5
80BD
331
80EC
  5
80EF
331
80B5
  5
80C6
331
80F4
  5
808E
331
80BD
  5
80B3
331
80C5
  5
808C
331
806B
  5
806E
331
808E
  5
808B
331
80CD
  5
80D3
331
8096
  5
80A3
331
80D5
  5
80DB
331
809E
  5
80AA
331
80DD
  5
80A1
331
80A6
  5
80B2
331
80E5
  5
80E8
331
8073
  5
8076
331
807B
  5
807E
331
8083
  5
8086
331
80AE
  5
80BE
331
80ED
  5
80F0
331
80B6
  5
80C5
331
80F5
  5
8091
331
80BE
  5
80AF
331
80C6
  5
80A2
331
806C
  5
806F
331
808F
  5
8093
331
80CE
  5
80D4
331
8097
  5
80A4
331
80D6
  5
80DC
331
809F
  5
80AB
331
80DE
  5
80E1
331
80A7
  5
80B6
331
80E6
  5
80E9
331
8074
  5
8077
331
807C
  5
807F
331
8084
  5
8087
331
80AF
  5
80BF
331
80EE
  5
80F1
331
80B7
  5
80C7
331
80F6
  5
808F
331
80BF
  5
80CB
331
80C7
  5
809E
331
806D
  5
8070
331
8088
  5
806A
331
80CF
  5
80D5
331
8090
  5
8099
331
80D7
  5
80DD
331
8098
  5
80A5
331
80A0
  5
80AC
331
80DF
  5
80E2
331
80E7
  5
80EA
  0
SORTENTSTABLE
  5
8EAB
102
{ACAD_REACTORS
330
8EAA
102
}
330
8EAA
100
AcDbSortentsTable
330
8EA8
  0
SORTENTSTABLE
  5
A863
102
{ACAD_REACTORS
330
A862
102
}
330
A862
100
AcDbSortentsTable
330
A856
  0
XRECORD
  5
A955
102
{ACAD_REACTORS
330
A954
102
}
330
A954
100
AcDbXrecord
280
     1
102
SHADEPLOT
 70
     0
  0
XRECORD
  5
A957
102
{ACAD_REACTORS
330
A956
102
}
330
A956
100
AcDbXrecord
280
     1
102
SHADEPLOT
 70
     0
  0
LAYOUT
  5
22
102
{ACAD_XDICTIONARY
360
A950
102
}
102
{ACAD_REACTORS
330
1A
102
}
330
1A
100
AcDbPlotSettings
  1

  2
EPSON PM-800C
  4
A4
  6

 40
3.757083177566528
 41
14.7637300491333
 42
3.757080078125
 43
3.757080078125
 44
209.9733276367187
 45
296.9683227539062
 46
0.0
 47
0.0
 48
0.0
 49
0.0
140
0.0
141
0.0
142
1.0
143
10.0
 70
 11952
 72
     1
 73
     1
 74
     2
  7

 75
    20
147
0.1
148
0.0
149
0.0
100
AcDbLayout
  1
Model
 70
     1
 71
     0
 10
0.0
 20
0.0
 11
12.0
 21
9.0
 12
0.0
 22
0.0
 32
0.0
 14
0.0
 24
0.0
 34
0.0
 15
0.0
 25
0.0
 35
0.0
146
0.0
 13
0.0
 23
0.0
 33
0.0
 16
1.0
 26
0.0
 36
0.0
 17
0.0
 27
1.0
 37
0.0
 76
     0
330
1F
  0
LAYOUT
  5
1E
102
{ACAD_XDICTIONARY
360
A94E
102
}
102
{ACAD_REACTORS
330
1A
102
}
330
1A
100
AcDbPlotSettings
  1

  2
EPSON PM-800C
  4
A4
  6

 40
3.757083177566528
 41
14.7637300491333
 42
3.757080078125
 43
3.757080078125
 44
209.9733276367187
 45
296.9683227539062
 46
0.0
 47
0.0
 48
0.0
 49
0.0
140
0.0
141
0.0
142
1.0
143
1.0
 70
   688
 72
     1
 73
     1
 74
     5
  7

 75
    16
147
1.0
148
0.0
149
0.0
100
AcDbLayout
  1
ﾚｲｱｳﾄ1
 70
     1
 71
     1
 10
-3.757080078125
 20
-3.757083177566528
 11
293.2112426757813
 21
206.2162444591522
 12
0.0
 22
0.0
 32
0.0
 14
27.8447512626648
 24
20.24591643810271
 34
0.0
 15
250.6027613639831
 25
182.2132479429245
 35
0.0
146
0.0
 13
0.0
 23
0.0
 33
0.0
 16
1.0
 26
0.0
 36
0.0
 17
0.0
 27
1.0
 37
0.0
 76
     0
330
1B
331
2E
  0
LAYOUT
  5
26
102
{ACAD_XDICTIONARY
360
A952
102
}
102
{ACAD_REACTORS
330
1A
102
}
330
1A
100
AcDbPlotSettings
  1

  2
EPSON PM-800C
  4

  6

 40
0.0
 41
0.0
 42
0.0
 43
0.0
 44
0.0
 45
0.0
 46
0.0
 47
0.0
 48
0.0
 49
0.0
140
0.0
141
0.0
142
1.0
143
1.0
 70
   688
 72
     0
 73
     0
 74
     5
  7

 75
    16
147
1.0
148
0.0
149
0.0
100
AcDbLayout
  1
ﾚｲｱｳﾄ2
 70
     1
 71
     2
 10
0.0
 20
0.0
 11
12.0
 21
9.0
 12
0.0
 22
0.0
 32
0.0
 14
0.0
 24
0.0
 34
0.0
 15
0.0
 25
0.0
 35
0.0
146
0.0
 13
0.0
 23
0.0
 33
0.0
 16
1.0
 26
0.0
 36
0.0
 17
0.0
 27
1.0
 37
0.0
 76
     0
330
23
  0
MLINESTYLE
  5
18
102
{ACAD_REACTORS
330
17
102
}
330
17
100
AcDbMlineStyle
  2
STANDARD
 70
     0
  3

 62
   256
 51
90.0
 52
90.0
 71
     2
 49
0.5
 62
   256
  6
BYLAYER
 49
-0.5
 62
   256
  6
BYLAYER
  0
ACDBPLACEHOLDER
  5
F
102
{ACAD_REACTORS
330
E
102
}
330
E
  0
TABLESTYLE
  5
22AF
102
{ACAD_REACTORS
330
22AE
102
}
330
22AE
100
AcDbTableStyle
  3
Standard
 70
     0
 71
     0
 40
1.5
 41
1.5
280
     0
281
     0
  7
Standard
140
4.5
170
     2
 62
     0
 63
     7
283
     0
274
    -2
284
     1
 64
     0
275
    -2
285
     1
 65
     0
276
    -2
286
     1
 66
     0
277
    -2
287
     1
 67
     0
278
    -2
288
     1
 68
     0
279
    -2
289
     1
 69
     0
  7
Standard
140
6.0
170
     5
 62
     0
 63
     7
283
     0
274
    -2
284
     1
 64
     0
275
    -2
285
     1
 65
     0
276
    -2
286
     1
 66
     0
277
    -2
287
     1
 67
     0
278
    -2
288
     1
 68
     0
279
    -2
289
     1
 69
     0
  7
Standard
140
4.5
170
     5
 62
     0
 63
     7
283
     0
274
    -2
284
     1
 64
     0
275
    -2
285
     1
 65
     0
276
    -2
286
     1
 66
     0
277
    -2
287
     1
 67
     0
278
    -2
288
     1
 68
     0
279
    -2
289
     1
 69
     0
  0
DICTIONARYVAR
  5
22B5
102
{ACAD_REACTORS
330
1589
102
}
330
1589
100
DictionaryVariables
280
     0
  1
STANDARD
  0
DICTIONARYVAR
  5
A949
102
{ACAD_REACTORS
330
1589
102
}
330
1589
100
DictionaryVariables
280
     0
  1
1
  0
DICTIONARYVAR
  5
A94A
102
{ACAD_REACTORS
330
1589
102
}
330
1589
100
DictionaryVariables
280
     0
  1

  0
DICTIONARYVAR
  5
158A
102
{ACAD_REACTORS
330
1589
102
}
330
1589
100
DictionaryVariables
280
     0
  1
96
  0
DICTIONARY
  5
A950
330
22
100
AcDbDictionary
280
     1
281
     1
  3
ACAD_XREC_ROUNDTRIP
360
A951
  0
DICTIONARY
  5
A94E
330
1E
100
AcDbDictionary
280
     1
281
     1
  3
ACAD_XREC_ROUNDTRIP
360
A94F
  0
DICTIONARY
  5
A952
330
26
100
AcDbDictionary
280
     1
281
     1
  3
ACAD_XREC_ROUNDTRIP
360
A953
  0
XRECORD
  5
A951
102
{ACAD_REACTORS
330
A950
102
}
330
A950
100
AcDbXrecord
280
     1
102
SHADEPLOT
 70
     0
102
SHADEPLOTRESLEVEL
 70
     2
102
SHADEPLOTCUSTOMDPI
 70
   300
  0
XRECORD
  5
A94F
102
{ACAD_REACTORS
330
A94E
102
}
330
A94E
100
AcDbXrecord
280
     1
102
SHADEPLOT
 70
     0
102
SHADEPLOTRESLEVEL
 70
     2
102
SHADEPLOTCUSTOMDPI
 70
   300
  0
XRECORD
  5
A953
102
{ACAD_REACTORS
330
A952
102
}
330
A952
100
AcDbXrecord
280
     1
102
SHADEPLOT
 70
     0
102
SHADEPLOTRESLEVEL
 70
     2
102
SHADEPLOTCUSTOMDPI
 70
   300
  0
ENDSEC
  0
EOF
