  0
SECTION
  2
HEADER
  9
$ACADVER
  1
AC1015
  9
$ACADMAINTVER
 70
    20
  9
$DWGCODEPAGE
  3
ANSI_932
  9
$INSBASE
 10
0.0
 20
0.0
 30
0.0
  9
$EXTMIN
 10
174.0
 20
-392.3860966284574
 30
0.0
  9
$EXTMAX
 10
2834.0
 20
2024.0
 30
0.0
  9
$LIMMIN
 10
54.0
 20
4.0
  9
$LIMMAX
 10
2834.0
 20
2024.0
  9
$ORTHOMODE
 70
     1
  9
$REGENMODE
 70
     1
  9
$FILLMODE
 70
     1
  9
$QTEXTMODE
 70
     0
  9
$MIRRTEXT
 70
     1
  9
$LTSCALE
 40
4.0
  9
$ATTMODE
 70
     1
  9
$TEXTSIZE
 40
30.0
  9
$TRACEWID
 40
1.0
  9
$TEXTSTYLE
  7
Standard
  9
$CLAYER
  8
実形
  9
$CELTYPE
  6
ByLayer
  9
$CECOLOR
 62
     3
  9
$CELTSCALE
 40
1.0
  9
$DISPSILH
 70
     0
  9
$DIMSCALE
 40
1.0
  9
$DIMASZ
 40
10.0
  9
$DIMEXO
 40
65.0
  9
$DIMDLI
 40
3.75
  9
$DIMRND
 40
0.0
  9
$DIMDLE
 40
0.0
  9
$DIMEXE
 40
0.0
  9
$DIMTP
 40
0.0
  9
$DIMTM
 40
0.0
  9
$DIMTXT
 40
25.00000000000002
  9
$DIMCEN
 40
2.5
  9
$DIMTSZ
 40
0.0
  9
$DIMTOL
 70
     0
  9
$DIMLIM
 70
     0
  9
$DIMTIH
 70
     0
  9
$DIMTOH
 70
     0
  9
$DIMSE1
 70
     0
  9
$DIMSE2
 70
     0
  9
$DIMTAD
 70
     1
  9
$DIMZIN
 70
     8
  9
$DIMBLK
  1
Dot
  9
$DIMASO
 70
     1
  9
$DIMSHO
 70
     1
  9
$DIMPOST
  1

  9
$DIMAPOST
  1

  9
$DIMALT
 70
     0
  9
$DIMALTD
 70
     3
  9
$DIMALTF
 40
0.03937007874016
  9
$DIMLFAC
 40
1.0
  9
$DIMTOFL
 70
     1
  9
$DIMTVP
 40
0.0
  9
$DIMTIX
 70
     0
  9
$DIMSOXD
 70
     0
  9
$DIMSAH
 70
     0
  9
$DIMBLK1
  1

  9
$DIMBLK2
  1

  9
$DIMSTYLE
  2
ISO-25
  9
$DIMCLRD
 70
     0
  9
$DIMCLRE
 70
     0
  9
$DIMCLRT
 70
     0
  9
$DIMTFAC
 40
1.0
  9
$DIMGAP
 40
6.599999999999998
  9
$DIMJUST
 70
     0
  9
$DIMSD1
 70
     0
  9
$DIMSD2
 70
     0
  9
$DIMTOLJ
 70
     0
  9
$DIMTZIN
 70
     8
  9
$DIMALTZ
 70
     0
  9
$DIMALTTZ
 70
     0
  9
$DIMUPT
 70
     0
  9
$DIMDEC
 70
     2
  9
$DIMTDEC
 70
     2
  9
$DIMALTU
 70
     2
  9
$DIMALTTD
 70
     3
  9
$DIMTXSTY
  7
Standard
  9
$DIMAUNIT
 70
     0
  9
$DIMADEC
 70
     0
  9
$DIMALTRND
 40
0.0
  9
$DIMAZIN
 70
     0
  9
$DIMDSEP
 70
    46
  9
$DIMATFIT
 70
     3
  9
$DIMFRAC
 70
     0
  9
$DIMLDRBLK
  1
Open30
  9
$DIMLUNIT
 70
     2
  9
$DIMLWD
 70
    18
  9
$DIMLWE
 70
    18
  9
$DIMTMOVE
 70
     2
  9
$LUNITS
 70
     2
  9
$LUPREC
 70
     2
  9
$SKETCHINC
 40
1.0
  9
$FILLETRAD
 40
0.0
  9
$AUNITS
 70
     0
  9
$AUPREC
 70
     0
  9
$MENU
  1
.
  9
$ELEVATION
 40
0.0
  9
$PELEVATION
 40
0.0
  9
$THICKNESS
 40
0.0
  9
$LIMCHECK
 70
     1
  9
$CHAMFERA
 40
10.0
  9
$CHAMFERB
 40
10.0
  9
$CHAMFERC
 40
20.0
  9
$CHAMFERD
 40
0.0
  9
$SKPOLY
 70
     0
  9
$TDCREATE
 40
2451673.575802199
  9
$TDUCREATE
 40
2451673.200802199
  9
$TDUPDATE
 40
2458808.783920578
  9
$TDUUPDATE
 40
2458808.408920579
  9
$TDINDWG
 40
2.7890563426
  9
$TDUSRTIMER
 40
2.7890556481
  9
$USRTIMER
 70
     1
  9
$ANGBASE
 50
0.0
  9
$ANGDIR
 70
     0
  9
$PDMODE
 70
     0
  9
$PDSIZE
 40
0.0
  9
$PLINEWID
 40
0.0
  9
$SPLFRAME
 70
     0
  9
$SPLINETYPE
 70
     6
  9
$SPLINESEGS
 70
     8
  9
$HANDSEED
  5
B7AD
  9
$SURFTAB1
 70
     6
  9
$SURFTAB2
 70
     6
  9
$SURFTYPE
 70
     6
  9
$SURFU
 70
     6
  9
$SURFV
 70
     6
  9
$UCSBASE
  2

  9
$UCSNAME
  2

  9
$UCSORG
 10
0.0
 20
0.0
 30
0.0
  9
$UCSXDIR
 10
1.0
 20
0.0
 30
0.0
  9
$UCSYDIR
 10
0.0
 20
1.0
 30
0.0
  9
$UCSORTHOREF
  2

  9
$UCSORTHOVIEW
 70
     0
  9
$UCSORGTOP
 10
0.0
 20
0.0
 30
0.0
  9
$UCSORGBOTTOM
 10
0.0
 20
0.0
 30
0.0
  9
$UCSORGLEFT
 10
0.0
 20
0.0
 30
0.0
  9
$UCSORGRIGHT
 10
0.0
 20
0.0
 30
0.0
  9
$UCSORGFRONT
 10
0.0
 20
0.0
 30
0.0
  9
$UCSORGBACK
 10
0.0
 20
0.0
 30
0.0
  9
$PUCSBASE
  2

  9
$PUCSNAME
  2

  9
$PUCSORG
 10
0.0
 20
0.0
 30
0.0
  9
$PUCSXDIR
 10
1.0
 20
0.0
 30
0.0
  9
$PUCSYDIR
 10
0.0
 20
1.0
 30
0.0
  9
$PUCSORTHOREF
  2

  9
$PUCSORTHOVIEW
 70
     0
  9
$PUCSORGTOP
 10
0.0
 20
0.0
 30
0.0
  9
$PUCSORGBOTTOM
 10
0.0
 20
0.0
 30
0.0
  9
$PUCSORGLEFT
 10
0.0
 20
0.0
 30
0.0
  9
$PUCSORGRIGHT
 10
0.0
 20
0.0
 30
0.0
  9
$PUCSORGFRONT
 10
0.0
 20
0.0
 30
0.0
  9
$PUCSORGBACK
 10
0.0
 20
0.0
 30
0.0
  9
$USERI1
 70
     0
  9
$USERI2
 70
     0
  9
$USERI3
 70
     0
  9
$USERI4
 70
     0
  9
$USERI5
 70
     0
  9
$USERR1
 40
0.0
  9
$USERR2
 40
0.0
  9
$USERR3
 40
0.0
  9
$USERR4
 40
0.0
  9
$USERR5
 40
0.0
  9
$WORLDVIEW
 70
     1
  9
$SHADEDGE
 70
     3
  9
$SHADEDIF
 70
    70
  9
$TILEMODE
 70
     1
  9
$MAXACTVP
 70
    64
  9
$PINSBASE
 10
0.0
 20
0.0
 30
0.0
  9
$PLIMCHECK
 70
     0
  9
$PEXTMIN
 10
27.8447512626648
 20
20.24591643810271
 30
0.0
  9
$PEXTMAX
 10
250.6027613639831
 20
182.2132479429245
 30
0.0
  9
$PLIMMIN
 10
-3.757080078125
 20
-3.757083177566528
  9
$PLIMMAX
 10
293.2112426757813
 20
206.2162444591522
  9
$UNITMODE
 70
     0
  9
$VISRETAIN
 70
     1
  9
$PLINEGEN
 70
     0
  9
$PSLTSCALE
 70
     1
  9
$TREEDEPTH
 70
  3020
  9
$CMLSTYLE
  2
Standard
  9
$CMLJUST
 70
     0
  9
$CMLSCALE
 40
20.0
  9
$PROXYGRAPHICS
 70
     1
  9
$MEASUREMENT
 70
     1
  9
$CELWEIGHT
370
    -1
  9
$ENDCAPS
280
     0
  9
$JOINSTYLE
280
     0
  9
$LWDISPLAY
290
     0
  9
$INSUNITS
 70
     4
  9
$HYPERLINKBASE
  1

  9
$STYLESHEET
  1

  9
$XEDIT
290
     1
  9
$CEPSNTYPE
380
     0
  9
$PSTYLEMODE
290
     1
  9
$FINGERPRINTGUID
  2
{C8EA1F16-24C9-11D4-9416-CE0A3B32152F}
  9
$VERSIONGUID
  2
{58F03F10-4846-4F91-AB22-C6717812D625}
  9
$EXTNAMES
290
     1
  9
$PSVPSCALE
 40
0.0
  9
$OLESTARTUP
290
     0
  0
ENDSEC
  0
SECTION
  2
CLASSES
  0
CLASS
  1
ACDBDICTIONARYWDFLT
  2
AcDbDictionaryWithDefault
  3
ObjectDBX Classes
 90
        0
280
     0
281
     0
  0
CLASS
  1
ACDBPLACEHOLDER
  2
AcDbPlaceHolder
  3
ObjectDBX Classes
 90
        0
280
     0
281
     0
  0
CLASS
  1
LAYOUT
  2
AcDbLayout
  3
ObjectDBX Classes
 90
        0
280
     0
281
     0
  0
CLASS
  1
DICTIONARYVAR
  2
AcDbDictionaryVar
  3
ObjectDBX Classes
 90
        0
280
     0
281
     0
  0
CLASS
  1
TABLESTYLE
  2
AcDbTableStyle
  3
ObjectDBX Classes
 90
     2047
280
     0
281
     0
  0
CLASS
  1
SORTENTSTABLE
  2
AcDbSortentsTable
  3
ObjectDBX Classes
 90
        0
280
     0
281
     0
  0
ENDSEC
  0
SECTION
  2
TABLES
  0
TABLE
  2
VPORT
  5
8
330
0
100
AcDbSymbolTable
 70
     2
  0
VPORT
  5
B7A0
330
8
100
AcDbSymbolTableRecord
100
AcDbViewportTableRecord
  2
*Active
 70
     0
 10
0.0
 20
0.0
 11
1.0
 21
1.0
 12
1443.796832575326
 22
1113.330847810278
 13
0.0
 23
0.0
 14
10.0
 24
10.0
 15
10.0
 25
10.0
 16
0.0
 26
0.0
 36
1.0
 17
0.0
 27
0.0
 37
0.0
 40
2523.869726248403
 41
1.29038112522686
 42
50.0
 43
0.0
 44
0.0
 50
0.0
 51
0.0
 71
     0
 72
   100
 73
     1
 74
     3
 75
     0
 76
     0
 77
     0
 78
     0
281
     0
 65
     1
110
0.0
120
0.0
130
0.0
111
1.0
121
0.0
131
0.0
112
0.0
122
1.0
132
0.0
 79
     0
146
0.0
  0
ENDTAB
  0
TABLE
  2
LTYPE
  5
5
330
0
100
AcDbSymbolTable
 70
    46
  0
LTYPE
  5
14
330
5
100
AcDbSymbolTableRecord
100
AcDbLinetypeTableRecord
  2
ByBlock
 70
     0
  3

 72
    65
 73
     0
 40
0.0
  0
LTYPE
  5
15
330
5
100
AcDbSymbolTableRecord
100
AcDbLinetypeTableRecord
  2
ByLayer
 70
     0
  3

 72
    65
 73
     0
 40
0.0
  0
LTYPE
  5
16
330
5
100
AcDbSymbolTableRecord
100
AcDbLinetypeTableRecord
  2
Continuous
 70
     0
  3
Solid line
 72
    65
 73
     0
 40
0.0
  0
LTYPE
  5
34
330
5
100
AcDbSymbolTableRecord
100
AcDbLinetypeTableRecord
  2
ACAD_ISO02W100
 70
     0
  3
ISO dash __ __ __ __ __ __ __ __ __ __ __ __ __
 72
    65
 73
     2
 40
15.0
 49
12.0
 74
     0
 49
-3.0
 74
     0
  0
LTYPE
  5
35
330
5
100
AcDbSymbolTableRecord
100
AcDbLinetypeTableRecord
  2
ACAD_ISO03W100
 70
     0
  3
ISO dash space __    __    __    __    __    __
 72
    65
 73
     2
 40
30.0
 49
12.0
 74
     0
 49
-18.0
 74
     0
  0
LTYPE
  5
36
330
5
100
AcDbSymbolTableRecord
100
AcDbLinetypeTableRecord
  2
ACAD_ISO04W100
 70
     0
  3
ISO long-dash dot ____ . ____ . ____ . ____ . _
 72
    65
 73
     4
 40
30.0
 49
24.0
 74
     0
 49
-3.0
 74
     0
 49
0.0
 74
     0
 49
-3.0
 74
     0
  0
LTYPE
  5
37
330
5
100
AcDbSymbolTableRecord
100
AcDbLinetypeTableRecord
  2
ACAD_ISO05W100
 70
     0
  3
ISO long-dash double-dot ____ .. ____ .. ____ .
 72
    65
 73
     6
 40
34.0
 49
24.0
 74
     0
 49
-3.0
 74
     0
 49
0.5
 74
     0
 49
-3.0
 74
     0
 49
0.5
 74
     0
 49
-3.0
 74
     0
  0
LTYPE
  5
38
330
5
100
AcDbSymbolTableRecord
100
AcDbLinetypeTableRecord
  2
ACAD_ISO06W100
 70
     0
  3
ISO long-dash triple-dot ____ ... ____ ... ____
 72
    65
 73
     8
 40
37.5
 49
24.0
 74
     0
 49
-3.0
 74
     0
 49
0.5
 74
     0
 49
-3.0
 74
     0
 49
0.5
 74
     0
 49
-3.0
 74
     0
 49
0.5
 74
     0
 49
-3.0
 74
     0
  0
LTYPE
  5
39
330
5
100
AcDbSymbolTableRecord
100
AcDbLinetypeTableRecord
  2
ACAD_ISO07W100
 70
     0
  3
ISO dot . . . . . . . . . . . . . . . . . . . .
 72
    65
 73
     2
 40
3.0
 49
0.0
 74
     0
 49
-3.0
 74
     0
  0
LTYPE
  5
3A
330
5
100
AcDbSymbolTableRecord
100
AcDbLinetypeTableRecord
  2
ACAD_ISO08W100
 70
     0
  3
ISO long-dash short-dash ____ __ ____ __ ____ _
 72
    65
 73
     4
 40
36.0
 49
24.0
 74
     0
 49
-3.0
 74
     0
 49
6.0
 74
     0
 49
-3.0
 74
     0
  0
LTYPE
  5
3B
330
5
100
AcDbSymbolTableRecord
100
AcDbLinetypeTableRecord
  2
ACAD_ISO09W100
 70
     0
  3
ISO long-dash double-short-dash ____ __ __ ____
 72
    65
 73
     6
 40
45.0
 49
24.0
 74
     0
 49
-3.0
 74
     0
 49
6.0
 74
     0
 49
-3.0
 74
     0
 49
6.0
 74
     0
 49
-3.0
 74
     0
  0
LTYPE
  5
3C
330
5
100
AcDbSymbolTableRecord
100
AcDbLinetypeTableRecord
  2
ACAD_ISO10W100
 70
     0
  3
ISO dash dot __ . __ . __ . __ . __ . __ . __ .
 72
    65
 73
     4
 40
18.0
 49
12.0
 74
     0
 49
-3.0
 74
     0
 49
0.0
 74
     0
 49
-3.0
 74
     0
  0
LTYPE
  5
3D
330
5
100
AcDbSymbolTableRecord
100
AcDbLinetypeTableRecord
  2
ACAD_ISO11W100
 70
     0
  3
ISO double-dash dot __ __ . __ __ . __ __ . __ 
 72
    65
 73
     6
 40
33.0
 49
12.0
 74
     0
 49
-3.0
 74
     0
 49
12.0
 74
     0
 49
-3.0
 74
     0
 49
0.0
 74
     0
 49
-3.0
 74
     0
  0
LTYPE
  5
3E
330
5
100
AcDbSymbolTableRecord
100
AcDbLinetypeTableRecord
  2
ACAD_ISO12W100
 70
     0
  3
ISO dash double-dot __ . . __ . . __ . . __ . .
 72
    65
 73
     6
 40
21.0
 49
12.0
 74
     0
 49
-3.0
 74
     0
 49
0.0
 74
     0
 49
-3.0
 74
     0
 49
0.0
 74
     0
 49
-3.0
 74
     0
  0
LTYPE
  5
3F
330
5
100
AcDbSymbolTableRecord
100
AcDbLinetypeTableRecord
  2
ACAD_ISO13W100
 70
     0
  3
ISO double-dash double-dot __ __ . . __ __ . . 
 72
    65
 73
     8
 40
36.0
 49
12.0
 74
     0
 49
-3.0
 74
     0
 49
12.0
 74
     0
 49
-3.0
 74
     0
 49
0.0
 74
     0
 49
-3.0
 74
     0
 49
0.0
 74
     0
 49
-3.0
 74
     0
  0
LTYPE
  5
40
330
5
100
AcDbSymbolTableRecord
100
AcDbLinetypeTableRecord
  2
ACAD_ISO14W100
 70
     0
  3
ISO dash triple-dot __ . . . __ . . . __ . . . 
 72
    65
 73
     8
 40
24.0
 49
12.0
 74
     0
 49
-3.0
 74
     0
 49
0.0
 74
     0
 49
-3.0
 74
     0
 49
0.0
 74
     0
 49
-3.0
 74
     0
 49
0.0
 74
     0
 49
-3.0
 74
     0
  0
LTYPE
  5
41
330
5
100
AcDbSymbolTableRecord
100
AcDbLinetypeTableRecord
  2
ACAD_ISO15W100
 70
     0
  3
ISO double-dash triple-dot __ __ . . . __ __ . 
 72
    65
 73
    10
 40
39.0
 49
12.0
 74
     0
 49
-3.0
 74
     0
 49
12.0
 74
     0
 49
-3.0
 74
     0
 49
0.0
 74
     0
 49
-3.0
 74
     0
 49
0.0
 74
     0
 49
-3.0
 74
     0
 49
0.0
 74
     0
 49
-3.0
 74
     0
  0
LTYPE
  5
42
330
5
100
AcDbSymbolTableRecord
100
AcDbLinetypeTableRecord
  2
BATTING
 70
     0
  3
Batting SSSSSSSSSSSSSSSSSSSSSSSSSSSSSSSSSSSSSSS
 72
    65
 73
     4
 40
10.16254
 49
0.00254
 74
     0
 49
-2.54
 74
     4
 75
   134
340
33
 46
2.54
 50
0.0
 44
-2.54
 45
0.0
 49
-5.08
 74
     4
 75
   134
340
33
 46
2.54
 50
180.0
 44
2.54
 45
0.0
 49
-2.54
 74
     0
  0
LTYPE
  5
43
330
5
100
AcDbSymbolTableRecord
100
AcDbLinetypeTableRecord
  2
BORDER
 70
     0
  3
Border __ __ . __ __ . __ __ . __ __ . __ __ .
 72
    65
 73
     6
 40
44.45
 49
12.7
 74
     0
 49
-6.349999999999999
 74
     0
 49
12.7
 74
     0
 49
-6.349999999999999
 74
     0
 49
0.0
 74
     0
 49
-6.349999999999999
 74
     0
  0
LTYPE
  5
44
330
5
100
AcDbSymbolTableRecord
100
AcDbLinetypeTableRecord
  2
BORDER2
 70
     0
  3
Border (.5x) __.__.__.__.__.__.__.__.__.__.__.
 72
    65
 73
     6
 40
22.225
 49
6.349999999999999
 74
     0
 49
-3.174999999999999
 74
     0
 49
6.349999999999999
 74
     0
 49
-3.174999999999999
 74
     0
 49
0.0
 74
     0
 49
-3.174999999999999
 74
     0
  0
LTYPE
  5
45
330
5
100
AcDbSymbolTableRecord
100
AcDbLinetypeTableRecord
  2
BORDERX2
 70
     0
  3
Border (2x) ____  ____  .  ____  ____  .  ___
 72
    65
 73
     6
 40
88.9
 49
25.4
 74
     0
 49
-12.7
 74
     0
 49
25.4
 74
     0
 49
-12.7
 74
     0
 49
0.0
 74
     0
 49
-12.7
 74
     0
  0
LTYPE
  5
46
330
5
100
AcDbSymbolTableRecord
100
AcDbLinetypeTableRecord
  2
CENTER
 70
     0
  3
Center ____ _ ____ _ ____ _ ____ _ ____ _ ____
 72
    65
 73
     4
 40
50.8
 49
31.75
 74
     0
 49
-6.349999999999999
 74
     0
 49
6.349999999999999
 74
     0
 49
-6.349999999999999
 74
     0
  0
LTYPE
  5
47
330
5
100
AcDbSymbolTableRecord
100
AcDbLinetypeTableRecord
  2
CENTER2
 70
     0
  3
Center (.5x) ___ _ ___ _ ___ _ ___ _ ___ _ ___
 72
    65
 73
     4
 40
28.575
 49
19.05
 74
     0
 49
-3.174999999999999
 74
     0
 49
3.174999999999999
 74
     0
 49
-3.174999999999999
 74
     0
  0
LTYPE
  5
48
330
5
100
AcDbSymbolTableRecord
100
AcDbLinetypeTableRecord
  2
CENTERX2
 70
     0
  3
Center (2x) ________  __  ________  __  _____
 72
    65
 73
     4
 40
101.6
 49
63.5
 74
     0
 49
-12.7
 74
     0
 49
12.7
 74
     0
 49
-12.7
 74
     0
  0
LTYPE
  5
49
330
5
100
AcDbSymbolTableRecord
100
AcDbLinetypeTableRecord
  2
DASHDOT
 70
     0
  3
Dash dot __ . __ . __ . __ . __ . __ . __ . __
 72
    65
 73
     4
 40
25.4
 49
12.7
 74
     0
 49
-6.349999999999999
 74
     0
 49
0.0
 74
     0
 49
-6.349999999999999
 74
     0
  0
LTYPE
  5
4A
330
5
100
AcDbSymbolTableRecord
100
AcDbLinetypeTableRecord
  2
DASHDOT2
 70
     0
  3
Dash dot (.5x) _._._._._._._._._._._._._._._.
 72
    65
 73
     4
 40
12.7
 49
6.349999999999999
 74
     0
 49
-3.174999999999999
 74
     0
 49
0.0
 74
     0
 49
-3.174999999999999
 74
     0
  0
LTYPE
  5
4B
330
5
100
AcDbSymbolTableRecord
100
AcDbLinetypeTableRecord
  2
DASHDOTX2
 70
     0
  3
Dash dot (2x) ____  .  ____  .  ____  .  ___
 72
    65
 73
     4
 40
50.8
 49
25.4
 74
     0
 49
-12.7
 74
     0
 49
0.0
 74
     0
 49
-12.7
 74
     0
  0
LTYPE
  5
4C
330
5
100
AcDbSymbolTableRecord
100
AcDbLinetypeTableRecord
  2
DASHED
 70
     0
  3
Dashed __ __ __ __ __ __ __ __ __ __ __ __ __ _
 72
    65
 73
     2
 40
19.05
 49
12.7
 74
     0
 49
-6.349999999999999
 74
     0
  0
LTYPE
  5
4D
330
5
100
AcDbSymbolTableRecord
100
AcDbLinetypeTableRecord
  2
DASHED2
 70
     0
  3
Dashed (.5x) _ _ _ _ _ _ _ _ _ _ _ _ _ _ _ _ _
 72
    65
 73
     2
 40
9.524999999999998
 49
6.349999999999999
 74
     0
 49
-3.174999999999999
 74
     0
  0
LTYPE
  5
4E
330
5
100
AcDbSymbolTableRecord
100
AcDbLinetypeTableRecord
  2
DASHEDX2
 70
     0
  3
Dashed (2x) ____  ____  ____  ____  ____  ___
 72
    65
 73
     2
 40
38.1
 49
25.4
 74
     0
 49
-12.7
 74
     0
  0
LTYPE
  5
4F
330
5
100
AcDbSymbolTableRecord
100
AcDbLinetypeTableRecord
  2
DIVIDE
 70
     0
  3
Divide ____ . . ____ . . ____ . . ____ . . ____
 72
    65
 73
     6
 40
31.75
 49
12.7
 74
     0
 49
-6.349999999999999
 74
     0
 49
0.0
 74
     0
 49
-6.349999999999999
 74
     0
 49
0.0
 74
     0
 49
-6.349999999999999
 74
     0
  0
LTYPE
  5
50
330
5
100
AcDbSymbolTableRecord
100
AcDbLinetypeTableRecord
  2
DIVIDE2
 70
     0
  3
Divide (.5x) __..__..__..__..__..__..__..__.._
 72
    65
 73
     6
 40
15.875
 49
6.349999999999999
 74
     0
 49
-3.174999999999999
 74
     0
 49
0.0
 74
     0
 49
-3.174999999999999
 74
     0
 49
0.0
 74
     0
 49
-3.174999999999999
 74
     0
  0
LTYPE
  5
51
330
5
100
AcDbSymbolTableRecord
100
AcDbLinetypeTableRecord
  2
DIVIDEX2
 70
     0
  3
Divide (2x) ________  .  .  ________  .  .  _
 72
    65
 73
     6
 40
63.49999999999999
 49
25.4
 74
     0
 49
-12.7
 74
     0
 49
0.0
 74
     0
 49
-12.7
 74
     0
 49
0.0
 74
     0
 49
-12.7
 74
     0
  0
LTYPE
  5
52
330
5
100
AcDbSymbolTableRecord
100
AcDbLinetypeTableRecord
  2
DOT
 70
     0
  3
Dot . . . . . . . . . . . . . . . . . . . . . .
 72
    65
 73
     2
 40
6.349999999999999
 49
0.0
 74
     0
 49
-6.349999999999999
 74
     0
  0
LTYPE
  5
53
330
5
100
AcDbSymbolTableRecord
100
AcDbLinetypeTableRecord
  2
DOT2
 70
     0
  3
Dot (.5x) .....................................
 72
    65
 73
     2
 40
3.174999999999999
 49
0.0
 74
     0
 49
-3.174999999999999
 74
     0
  0
LTYPE
  5
54
330
5
100
AcDbSymbolTableRecord
100
AcDbLinetypeTableRecord
  2
DOTX2
 70
     0
  3
Dot (2x) .  .  .  .  .  .  .  .  .  .  .  .  . 
 72
    65
 73
     2
 40
12.7
 49
0.0
 74
     0
 49
-12.7
 74
     0
  0
LTYPE
  5
55
330
5
100
AcDbSymbolTableRecord
100
AcDbLinetypeTableRecord
  2
FENCELINE1
 70
     0
  3
Fenceline circle ----0-----0----0-----0----0---
 72
    65
 73
     4
 40
36.83
 49
6.349999999999999
 74
     0
 49
-2.54
 74
     4
 75
   133
340
33
 46
2.54
 50
0.0
 44
-2.54
 45
0.0
 49
-2.54
 74
     0
 49
25.4
 74
     0
  0
LTYPE
  5
56
330
5
100
AcDbSymbolTableRecord
100
AcDbLinetypeTableRecord
  2
FENCELINE2
 70
     0
  3
Fenceline square ----[]-----[]----[]-----[]----
 72
    65
 73
     4
 40
36.83
 49
6.349999999999999
 74
     0
 49
-2.54
 74
     4
 75
   132
340
33
 46
2.54
 50
0.0
 44
-2.54
 45
0.0
 49
-2.54
 74
     0
 49
25.4
 74
     0
  0
LTYPE
  5
57
330
5
100
AcDbSymbolTableRecord
100
AcDbLinetypeTableRecord
  2
GAS_LINE
 70
     0
  3
Gas line ----GAS----GAS----GAS----GAS----GAS---
 72
    65
 73
     3
 40
24.13
 49
12.7
 74
     0
 49
-5.08
 74
     2
 75
     0
340
11
 46
2.54
 50
0.0
 44
-2.54
 45
-1.27
  9
GAS
 49
-6.349999999999999
 74
     0
  0
LTYPE
  5
58
330
5
100
AcDbSymbolTableRecord
100
AcDbLinetypeTableRecord
  2
HIDDEN
 70
     0
  3
Hidden __ __ __ __ __ __ __ __ __ __ __ __ __ _
 72
    65
 73
     2
 40
9.524999999999998
 49
6.349999999999999
 74
     0
 49
-3.174999999999999
 74
     0
  0
LTYPE
  5
59
330
5
100
AcDbSymbolTableRecord
100
AcDbLinetypeTableRecord
  2
HIDDEN2
 70
     0
  3
Hidden (.5x) _ _ _ _ _ _ _ _ _ _ _ _ _ _ _ _ _
 72
    65
 73
     2
 40
4.762499999999999
 49
3.174999999999999
 74
     0
 49
-1.587499999999999
 74
     0
  0
LTYPE
  5
5A
330
5
100
AcDbSymbolTableRecord
100
AcDbLinetypeTableRecord
  2
HIDDENX2
 70
     0
  3
Hidden (2x) ____ ____ ____ ____ ____ ____ ____
 72
    65
 73
     2
 40
19.05
 49
12.7
 74
     0
 49
-6.349999999999999
 74
     0
  0
LTYPE
  5
5B
330
5
100
AcDbSymbolTableRecord
100
AcDbLinetypeTableRecord
  2
HOT_WATER_SUPPLY
 70
     0
  3
Hot water supply ---- HW ---- HW ---- HW ----
 72
    65
 73
     3
 40
22.86
 49
12.7
 74
     0
 49
-5.08
 74
     2
 75
     0
340
11
 46
2.54
 50
0.0
 44
-2.54
 45
-1.27
  9
HW
 49
-5.08
 74
     0
  0
LTYPE
  5
5C
330
5
100
AcDbSymbolTableRecord
100
AcDbLinetypeTableRecord
  2
PHANTOM
 70
     0
  3
Phantom ______  __  __  ______  __  __  ______
 72
    65
 73
     6
 40
63.5
 49
31.75
 74
     0
 49
-6.349999999999999
 74
     0
 49
6.349999999999999
 74
     0
 49
-6.349999999999999
 74
     0
 49
6.349999999999999
 74
     0
 49
-6.349999999999999
 74
     0
  0
LTYPE
  5
5D
330
5
100
AcDbSymbolTableRecord
100
AcDbLinetypeTableRecord
  2
PHANTOM2
 70
     0
  3
Phantom (.5x) ___ _ _ ___ _ _ ___ _ _ ___ _ _
 72
    65
 73
     6
 40
31.75
 49
15.875
 74
     0
 49
-3.174999999999999
 74
     0
 49
3.174999999999999
 74
     0
 49
-3.174999999999999
 74
     0
 49
3.174999999999999
 74
     0
 49
-3.174999999999999
 74
     0
  0
LTYPE
  5
5E
330
5
100
AcDbSymbolTableRecord
100
AcDbLinetypeTableRecord
  2
PHANTOMX2
 70
     0
  3
Phantom (2x) ____________    ____    ____   _
 72
    65
 73
     6
 40
127.0
 49
63.5
 74
     0
 49
-12.7
 74
     0
 49
12.7
 74
     0
 49
-12.7
 74
     0
 49
12.7
 74
     0
 49
-12.7
 74
     0
  0
LTYPE
  5
5F
330
5
100
AcDbSymbolTableRecord
100
AcDbLinetypeTableRecord
  2
TRACKS
 70
     0
  3
Tracks -|-|-|-|-|-|-|-|-|-|-|-|-|-|-|-|-|-|-|-|
 72
    65
 73
     2
 40
7.62
 49
3.81
 74
     4
 75
   130
340
33
 46
6.349999999999999
 50
0.0
 44
0.0
 45
0.0
 49
3.81
 74
     0
  0
LTYPE
  5
60
330
5
100
AcDbSymbolTableRecord
100
AcDbLinetypeTableRecord
  2
ZIGZAG
 70
     0
  3
Zig zag /\/\/\/\/\/\/\/\/\/\/\/\/\/\/\/\/\/\/\/
 72
    65
 73
     4
 40
20.32254
 49
0.00254
 74
     0
 49
-5.08
 74
     4
 75
   131
340
33
 46
5.08
 50
0.0
 44
-5.08
 45
0.0
 49
-10.16
 74
     4
 75
   131
340
33
 46
5.08
 50
180.0
 44
5.08
 45
0.0
 49
-5.08
 74
     0
  0
ENDTAB
  0
TABLE
  2
LAYER
  5
2
102
{ACAD_XDICTIONARY
360
24C4
102
}
330
0
100
AcDbSymbolTable
 70
     9
  0
LAYER
  5
10
330
2
100
AcDbSymbolTableRecord
100
AcDbLayerTableRecord
  2
0
 70
     0
 62
     7
  6
Continuous
290
     0
370
    -3
390
F
  0
LAYER
  5
C3
330
2
100
AcDbSymbolTableRecord
100
AcDbLayerTableRecord
  2
Defpoints
 70
     0
 62
     7
  6
Continuous
290
     0
370
    -3
390
F
  0
LAYER
  5
256
330
2
100
AcDbSymbolTableRecord
100
AcDbLayerTableRecord
  2
センター
 70
     0
 62
     7
  6
CENTER2
370
    18
390
F
  0
LAYER
  5
268
330
2
100
AcDbSymbolTableRecord
100
AcDbLayerTableRecord
  2
実形
 70
     0
 62
     7
  6
Continuous
370
    -3
390
F
  0
LAYER
  5
269
330
2
100
AcDbSymbolTableRecord
100
AcDbLayerTableRecord
  2
補助
 70
     0
 62
     4
  6
Continuous
370
    -3
390
F
  0
LAYER
  5
26A
330
2
100
AcDbSymbolTableRecord
100
AcDbLayerTableRecord
  2
寸法
 70
     0
 62
     7
  6
Continuous
370
    18
390
F
  0
LAYER
  5
26B
330
2
100
AcDbSymbolTableRecord
100
AcDbLayerTableRecord
  2
ハッチング
 70
     0
 62
     7
  6
Continuous
370
    18
390
F
  0
LAYER
  5
26D
330
2
100
AcDbSymbolTableRecord
100
AcDbLayerTableRecord
  2
枠
 70
     0
 62
     7
  6
Continuous
370
    -3
390
F
  0
LAYER
  5
1B3D
330
2
100
AcDbSymbolTableRecord
100
AcDbLayerTableRecord
  2
Cen
 70
     0
 62
     7
  6
CENTER2
290
     0
370
    15
390
F
  0
ENDTAB
  0
TABLE
  2
STYLE
  5
3
330
0
100
AcDbSymbolTable
 70
     4
  0
STYLE
  5
11
330
3
100
AcDbSymbolTableRecord
100
AcDbTextStyleTableRecord
  2
Standard
 70
     0
 40
0.0
 41
1.0
 50
0.0
 71
     0
 42
30.0
  3
txt.shx
  4
bigfont.shx
  0
STYLE
  5
33
330
3
100
AcDbSymbolTableRecord
100
AcDbTextStyleTableRecord
  2

 70
     1
 40
0.0
 41
1.0
 50
0.0
 71
     0
 42
2.5
  3
ltypeshp.shx
  4

  0
STYLE
  5
35E2
330
3
100
AcDbSymbolTableRecord
100
AcDbTextStyleTableRecord
  2
ms明朝
 70
     0
 40
0.0
 41
1.0
 50
0.0
 71
     0
 42
25.0
  3
MS Mincho.ttf
  4

1001
ACAD
1000
MS Mincho
1071
    32785
  0
STYLE
  5
B6DD
330
3
100
AcDbSymbolTableRecord
100
AcDbTextStyleTableRecord
  2
明朝
 70
     0
 40
0.0
 41
1.0
 50
0.0
 71
     0
 42
25.0
  3
MS Mincho.ttf
  4

1001
ACAD
1000
MS Mincho
1071
    32785
  0
ENDTAB
  0
TABLE
  2
VIEW
  5
6
330
0
100
AcDbSymbolTable
 70
     0
  0
ENDTAB
  0
TABLE
  2
UCS
  5
7
330
0
100
AcDbSymbolTable
 70
     0
  0
ENDTAB
  0
TABLE
  2
APPID
  5
9
330
0
100
AcDbSymbolTable
 70
     3
  0
APPID
  5
12
330
9
100
AcDbSymbolTableRecord
100
AcDbRegAppTableRecord
  2
ACAD
 70
     0
  0
APPID
  5
24C3
330
9
100
AcDbSymbolTableRecord
100
AcDbRegAppTableRecord
  2
ACAD_PSEXT
 70
     0
  0
APPID
  5
9C82
330
9
100
AcDbSymbolTableRecord
100
AcDbRegAppTableRecord
  2
ACAD_DSTYLE_DIMTEXT_FILL
 70
     0
  0
ENDTAB
  0
TABLE
  2
DIMSTYLE
  5
A
330
0
100
AcDbSymbolTable
 70
     1
100
AcDbDimStyleTable
 71
     1
340
27
  0
DIMSTYLE
105
27
102
{ACAD_REACTORS
330
78E9
330
78F6
330
7A0D
330
7A2E
330
7A4D
330
7B4E
330
7BA4
330
8C4D
330
8C70
330
8E06
330
8E13
330
8E29
330
8E3F
330
8E81
330
8EC8
330
8EE7
330
90B3
330
90C0
330
AA37
330
AA3C
330
ABFF
330
AC00
330
AC0F
330
AC10
330
AC11
330
AC12
330
AC13
330
AC14
330
AC15
330
AE90
330
AE91
330
B021
330
B022
330
B023
330
B024
330
B025
330
B026
330
B027
330
B1D7
330
B3D1
330
B3D2
330
B3E3
330
B3E4
330
B3F5
330
B3F6
330
B3F7
330
B3F8
330
B3F9
330
B3FA
330
B3FB
330
B3FE
330
B3FF
330
B400
330
B401
330
B402
330
B403
330
B404
102
}
330
A
100
AcDbSymbolTableRecord
100
AcDbDimStyleTableRecord
  2
ISO-25
 70
     0
 41
35.0
 42
65.0
 43
3.75
 44
0.0
 73
     0
 74
     0
 77
     1
 78
     8
140
25.0
141
2.5
143
0.03937007874016
147
6.25
171
     3
172
     1
271
     2
272
     2
274
     3
283
     0
284
     8
340
11
341
DA
342
D0
371
    15
372
    15
  0
ENDTAB
  0
TABLE
  2
BLOCK_RECORD
  5
1
330
0
100
AcDbSymbolTable
 70
   100
  0
BLOCK_RECORD
  5
1F
102
{ACAD_XDICTIONARY
360
2396
102
}
330
1
100
AcDbSymbolTableRecord
100
AcDbBlockTableRecord
  2
*Model_Space
340
22
  0
BLOCK_RECORD
  5
1B
330
1
100
AcDbSymbolTableRecord
100
AcDbBlockTableRecord
  2
*Paper_Space
340
1E
  0
BLOCK_RECORD
  5
23
330
1
100
AcDbSymbolTableRecord
100
AcDbBlockTableRecord
  2
*Paper_Space0
340
26
  0
BLOCK_RECORD
  5
D0
330
1
100
AcDbSymbolTableRecord
100
AcDbBlockTableRecord
  2
_DotSmall
340
0
  0
BLOCK_RECORD
  5
D4
330
1
100
AcDbSymbolTableRecord
100
AcDbBlockTableRecord
  2
_Origin2
340
0
  0
BLOCK_RECORD
  5
DA
330
1
100
AcDbSymbolTableRecord
100
AcDbBlockTableRecord
  2
_Open30
340
0
  0
BLOCK_RECORD
  5
2D6
330
1
100
AcDbSymbolTableRecord
100
AcDbBlockTableRecord
  2
A$C6CAC4411
340
0
  0
BLOCK_RECORD
  5
30D
330
1
100
AcDbSymbolTableRecord
100
AcDbBlockTableRecord
  2
_Dot
340
0
102
{BLKREFS
331
7F4A
331
7F4B
331
7F57
331
7F58
331
7F63
331
7F64
331
7F6E
331
7F6F
331
7F7A
331
7F7B
331
7F86
331
7F87
331
7F92
331
7F93
331
7F0E
331
7F0F
331
7F1B
331
7F1C
331
7F26
331
7F27
331
7F33
331
7F34
331
7F3E
331
7F3F
331
7F9E
331
7F9F
331
7FAA
331
7FAB
331
7FB6
331
7FB7
331
7FC2
331
7FC3
331
7FCE
331
7FCF
331
7FDB
331
7FDC
331
7FE6
331
7FE7
331
7FF3
331
7FF4
331
7FFE
331
7FFF
331
800B
331
800C
331
8017
331
8018
331
8022
331
8023
331
802E
331
802F
331
803B
331
803C
331
8052
331
8053
331
805E
331
805F
331
8047
331
8048
331
B0A6
331
B0A7
331
B0CB
331
B0CC
331
B0D5
331
B0D6
331
B0DE
331
B0DF
331
B0E7
331
B0E8
331
B0EF
331
B0F0
331
B0F9
331
B0FA
331
B101
331
B102
331
B109
331
B10A
331
B112
331
B113
331
B11C
331
B11D
331
B124
331
B125
331
B137
331
B138
331
B13F
331
B140
331
B149
331
B14A
331
B151
331
B152
331
B15B
331
B15C
331
B163
331
B164
331
B16C
331
B16D
331
B175
331
B176
331
B228
331
B229
331
B231
331
B232
331
B245
331
B246
331
B24D
331
B24E
331
B256
331
B257
331
B261
331
B262
331
B4E5
331
B4E6
331
B4EE
331
B4EF
331
B50A
331
B50B
331
B512
331
B513
331
B51C
331
B51D
331
B525
331
B526
331
B52D
331
B52E
331
B537
331
B538
331
B540
331
B541
331
B549
331
B54A
331
B552
331
B553
331
B55B
331
B55C
331
B593
331
B594
331
B59C
331
B59D
331
B5A6
331
B5A7
331
B5AF
331
B5B0
331
B5B8
331
B5B9
331
B5C1
331
B5C2
331
B5C9
331
B5CA
331
B5D3
331
B5D4
331
B5DC
331
B5DD
331
B631
331
B632
331
B64E
331
B64F
331
B656
331
B657
331
B660
331
B661
331
B686
331
B687
331
B68F
331
B690
331
B744
331
B745
331
B75A
331
B75B
331
B76E
331
B76F
331
B784
331
B785
102
}
  0
BLOCK_RECORD
  5
313C
102
{ACAD_XDICTIONARY
360
313E
102
}
330
1
100
AcDbSymbolTableRecord
100
AcDbBlockTableRecord
  2
A$C6850087C
340
0
  0
BLOCK_RECORD
  5
3846
102
{ACAD_XDICTIONARY
360
3848
102
}
330
1
100
AcDbSymbolTableRecord
100
AcDbBlockTableRecord
  2
A$C71387EE1
340
0
  0
BLOCK_RECORD
  5
6B87
102
{ACAD_XDICTIONARY
360
6B89
102
}
330
1
100
AcDbSymbolTableRecord
100
AcDbBlockTableRecord
  2
A$C47AF373A
340
0
  0
BLOCK_RECORD
  5
6C00
102
{ACAD_XDICTIONARY
360
6C02
102
}
330
1
100
AcDbSymbolTableRecord
100
AcDbBlockTableRecord
  2
A$C2B9560D8
340
0
  0
BLOCK_RECORD
  5
7752
102
{ACAD_XDICTIONARY
360
7758
102
}
330
1
100
AcDbSymbolTableRecord
100
AcDbBlockTableRecord
  2
A$C113940D1
340
0
  0
BLOCK_RECORD
  5
78EA
330
1
100
AcDbSymbolTableRecord
100
AcDbBlockTableRecord
  2
*D11
340
0
  0
BLOCK_RECORD
  5
78F7
330
1
100
AcDbSymbolTableRecord
100
AcDbBlockTableRecord
  2
*D12
340
0
  0
BLOCK_RECORD
  5
79A0
102
{ACAD_XDICTIONARY
360
79A2
102
}
330
1
100
AcDbSymbolTableRecord
100
AcDbBlockTableRecord
  2
A$C34481AC4
340
0
  0
BLOCK_RECORD
  5
7A0E
330
1
100
AcDbSymbolTableRecord
100
AcDbBlockTableRecord
  2
*D14
340
0
  0
BLOCK_RECORD
  5
7A2F
330
1
100
AcDbSymbolTableRecord
100
AcDbBlockTableRecord
  2
*D15
340
0
  0
BLOCK_RECORD
  5
7A4E
330
1
100
AcDbSymbolTableRecord
100
AcDbBlockTableRecord
  2
*D16
340
0
  0
BLOCK_RECORD
  5
7B4F
330
1
100
AcDbSymbolTableRecord
100
AcDbBlockTableRecord
  2
*D17
340
0
  0
BLOCK_RECORD
  5
7BA5
330
1
100
AcDbSymbolTableRecord
100
AcDbBlockTableRecord
  2
*D18
340
0
  0
BLOCK_RECORD
  5
7F09
330
1
100
AcDbSymbolTableRecord
100
AcDbBlockTableRecord
  2
*D19
340
0
  0
BLOCK_RECORD
  5
7F15
330
1
100
AcDbSymbolTableRecord
100
AcDbBlockTableRecord
  2
*D20
340
0
  0
BLOCK_RECORD
  5
7F21
330
1
100
AcDbSymbolTableRecord
100
AcDbBlockTableRecord
  2
*D21
340
0
  0
BLOCK_RECORD
  5
7F2D
330
1
100
AcDbSymbolTableRecord
100
AcDbBlockTableRecord
  2
*D22
340
0
  0
BLOCK_RECORD
  5
7F39
330
1
100
AcDbSymbolTableRecord
100
AcDbBlockTableRecord
  2
*D23
340
0
  0
BLOCK_RECORD
  5
7F45
330
1
100
AcDbSymbolTableRecord
100
AcDbBlockTableRecord
  2
*D24
340
0
  0
BLOCK_RECORD
  5
7F51
330
1
100
AcDbSymbolTableRecord
100
AcDbBlockTableRecord
  2
*D25
340
0
  0
BLOCK_RECORD
  5
7F5D
330
1
100
AcDbSymbolTableRecord
100
AcDbBlockTableRecord
  2
*D26
340
0
  0
BLOCK_RECORD
  5
7F69
330
1
100
AcDbSymbolTableRecord
100
AcDbBlockTableRecord
  2
*D27
340
0
  0
BLOCK_RECORD
  5
7F75
330
1
100
AcDbSymbolTableRecord
100
AcDbBlockTableRecord
  2
*D28
340
0
  0
BLOCK_RECORD
  5
7F81
330
1
100
AcDbSymbolTableRecord
100
AcDbBlockTableRecord
  2
*D29
340
0
  0
BLOCK_RECORD
  5
7F8D
330
1
100
AcDbSymbolTableRecord
100
AcDbBlockTableRecord
  2
*D30
340
0
  0
BLOCK_RECORD
  5
7F99
330
1
100
AcDbSymbolTableRecord
100
AcDbBlockTableRecord
  2
*D31
340
0
  0
BLOCK_RECORD
  5
7FA5
330
1
100
AcDbSymbolTableRecord
100
AcDbBlockTableRecord
  2
*D32
340
0
  0
BLOCK_RECORD
  5
7FB1
330
1
100
AcDbSymbolTableRecord
100
AcDbBlockTableRecord
  2
*D33
340
0
  0
BLOCK_RECORD
  5
7FBD
330
1
100
AcDbSymbolTableRecord
100
AcDbBlockTableRecord
  2
*D34
340
0
  0
BLOCK_RECORD
  5
7FC9
330
1
100
AcDbSymbolTableRecord
100
AcDbBlockTableRecord
  2
*D35
340
0
  0
BLOCK_RECORD
  5
7FD5
330
1
100
AcDbSymbolTableRecord
100
AcDbBlockTableRecord
  2
*D36
340
0
  0
BLOCK_RECORD
  5
7FE1
330
1
100
AcDbSymbolTableRecord
100
AcDbBlockTableRecord
  2
*D37
340
0
  0
BLOCK_RECORD
  5
7FED
330
1
100
AcDbSymbolTableRecord
100
AcDbBlockTableRecord
  2
*D38
340
0
  0
BLOCK_RECORD
  5
7FF9
330
1
100
AcDbSymbolTableRecord
100
AcDbBlockTableRecord
  2
*D39
340
0
  0
BLOCK_RECORD
  5
8005
330
1
100
AcDbSymbolTableRecord
100
AcDbBlockTableRecord
  2
*D40
340
0
  0
BLOCK_RECORD
  5
8011
330
1
100
AcDbSymbolTableRecord
100
AcDbBlockTableRecord
  2
*D41
340
0
  0
BLOCK_RECORD
  5
801D
330
1
100
AcDbSymbolTableRecord
100
AcDbBlockTableRecord
  2
*D42
340
0
  0
BLOCK_RECORD
  5
8029
330
1
100
AcDbSymbolTableRecord
100
AcDbBlockTableRecord
  2
*D43
340
0
  0
BLOCK_RECORD
  5
8035
330
1
100
AcDbSymbolTableRecord
100
AcDbBlockTableRecord
  2
*D44
340
0
  0
BLOCK_RECORD
  5
8041
330
1
100
AcDbSymbolTableRecord
100
AcDbBlockTableRecord
  2
*D45
340
0
  0
BLOCK_RECORD
  5
804D
330
1
100
AcDbSymbolTableRecord
100
AcDbBlockTableRecord
  2
*D46
340
0
  0
BLOCK_RECORD
  5
8059
330
1
100
AcDbSymbolTableRecord
100
AcDbBlockTableRecord
  2
*D47
340
0
  0
BLOCK_RECORD
  5
8065
102
{ACAD_XDICTIONARY
360
80F8
102
}
330
1
100
AcDbSymbolTableRecord
100
AcDbBlockTableRecord
  2
RAS800-510GRM
340
0
  0
BLOCK_RECORD
  5
8C4E
330
1
100
AcDbSymbolTableRecord
100
AcDbBlockTableRecord
  2
*D49
340
0
  0
BLOCK_RECORD
  5
8C71
330
1
100
AcDbSymbolTableRecord
100
AcDbBlockTableRecord
  2
*D50
340
0
  0
BLOCK_RECORD
  5
8E07
330
1
100
AcDbSymbolTableRecord
100
AcDbBlockTableRecord
  2
*D51
340
0
  0
BLOCK_RECORD
  5
8E14
330
1
100
AcDbSymbolTableRecord
100
AcDbBlockTableRecord
  2
*D52
340
0
  0
BLOCK_RECORD
  5
8E2A
330
1
100
AcDbSymbolTableRecord
100
AcDbBlockTableRecord
  2
*D53
340
0
  0
BLOCK_RECORD
  5
8E40
330
1
100
AcDbSymbolTableRecord
100
AcDbBlockTableRecord
  2
*D54
340
0
  0
BLOCK_RECORD
  5
8E82
330
1
100
AcDbSymbolTableRecord
100
AcDbBlockTableRecord
  2
*D55
340
0
  0
BLOCK_RECORD
  5
8EA8
102
{ACAD_XDICTIONARY
360
8EAA
102
}
330
1
100
AcDbSymbolTableRecord
100
AcDbBlockTableRecord
  2
A$C02AA3AB7
340
0
  0
BLOCK_RECORD
  5
8EC9
330
1
100
AcDbSymbolTableRecord
100
AcDbBlockTableRecord
  2
*D57
340
0
  0
BLOCK_RECORD
  5
8EE8
330
1
100
AcDbSymbolTableRecord
100
AcDbBlockTableRecord
  2
*D58
340
0
  0
BLOCK_RECORD
  5
90B4
330
1
100
AcDbSymbolTableRecord
100
AcDbBlockTableRecord
  2
*D59
340
0
  0
BLOCK_RECORD
  5
90C1
330
1
100
AcDbSymbolTableRecord
100
AcDbBlockTableRecord
  2
*D60
340
0
  0
BLOCK_RECORD
  5
AA3D
330
1
100
AcDbSymbolTableRecord
100
AcDbBlockTableRecord
  2
*D61
340
0
  0
BLOCK_RECORD
  5
AA49
330
1
100
AcDbSymbolTableRecord
100
AcDbBlockTableRecord
  2
*D62
340
0
  0
BLOCK_RECORD
  5
AC17
330
1
100
AcDbSymbolTableRecord
100
AcDbBlockTableRecord
  2
*D63
340
0
  0
BLOCK_RECORD
  5
AC23
330
1
100
AcDbSymbolTableRecord
100
AcDbBlockTableRecord
  2
*D64
340
0
  0
BLOCK_RECORD
  5
AC2F
330
1
100
AcDbSymbolTableRecord
100
AcDbBlockTableRecord
  2
*D65
340
0
  0
BLOCK_RECORD
  5
AC3B
330
1
100
AcDbSymbolTableRecord
100
AcDbBlockTableRecord
  2
*D66
340
0
  0
BLOCK_RECORD
  5
AC47
330
1
100
AcDbSymbolTableRecord
100
AcDbBlockTableRecord
  2
*D67
340
0
  0
BLOCK_RECORD
  5
AC53
330
1
100
AcDbSymbolTableRecord
100
AcDbBlockTableRecord
  2
*D68
340
0
  0
BLOCK_RECORD
  5
AC5F
330
1
100
AcDbSymbolTableRecord
100
AcDbBlockTableRecord
  2
*D69
340
0
  0
BLOCK_RECORD
  5
AC6B
330
1
100
AcDbSymbolTableRecord
100
AcDbBlockTableRecord
  2
*D70
340
0
  0
BLOCK_RECORD
  5
AC77
330
1
100
AcDbSymbolTableRecord
100
AcDbBlockTableRecord
  2
*D71
340
0
  0
BLOCK_RECORD
  5
AE96
330
1
100
AcDbSymbolTableRecord
100
AcDbBlockTableRecord
  2
*D72
340
0
  0
BLOCK_RECORD
  5
AEA2
330
1
100
AcDbSymbolTableRecord
100
AcDbBlockTableRecord
  2
*D73
340
0
  0
BLOCK_RECORD
  5
B028
330
1
100
AcDbSymbolTableRecord
100
AcDbBlockTableRecord
  2
*D74
340
0
  0
BLOCK_RECORD
  5
B034
330
1
100
AcDbSymbolTableRecord
100
AcDbBlockTableRecord
  2
*D75
340
0
  0
BLOCK_RECORD
  5
B040
330
1
100
AcDbSymbolTableRecord
100
AcDbBlockTableRecord
  2
*D76
340
0
  0
BLOCK_RECORD
  5
B04D
330
1
100
AcDbSymbolTableRecord
100
AcDbBlockTableRecord
  2
*D77
340
0
  0
BLOCK_RECORD
  5
B059
330
1
100
AcDbSymbolTableRecord
100
AcDbBlockTableRecord
  2
*D78
340
0
  0
BLOCK_RECORD
  5
B065
330
1
100
AcDbSymbolTableRecord
100
AcDbBlockTableRecord
  2
*D79
340
0
  0
BLOCK_RECORD
  5
B071
330
1
100
AcDbSymbolTableRecord
100
AcDbBlockTableRecord
  2
*D80
340
0
  0
BLOCK_RECORD
  5
B1D8
330
1
100
AcDbSymbolTableRecord
100
AcDbBlockTableRecord
  2
*D81
340
0
  0
BLOCK_RECORD
  5
B408
330
1
100
AcDbSymbolTableRecord
100
AcDbBlockTableRecord
  2
*D82
340
0
  0
BLOCK_RECORD
  5
B414
330
1
100
AcDbSymbolTableRecord
100
AcDbBlockTableRecord
  2
*D83
340
0
  0
BLOCK_RECORD
  5
B420
330
1
100
AcDbSymbolTableRecord
100
AcDbBlockTableRecord
  2
*D84
340
0
  0
BLOCK_RECORD
  5
B42C
330
1
100
AcDbSymbolTableRecord
100
AcDbBlockTableRecord
  2
*D85
340
0
  0
BLOCK_RECORD
  5
B438
330
1
100
AcDbSymbolTableRecord
100
AcDbBlockTableRecord
  2
*D86
340
0
  0
BLOCK_RECORD
  5
B444
330
1
100
AcDbSymbolTableRecord
100
AcDbBlockTableRecord
  2
*D87
340
0
  0
BLOCK_RECORD
  5
B450
330
1
100
AcDbSymbolTableRecord
100
AcDbBlockTableRecord
  2
*D88
340
0
  0
BLOCK_RECORD
  5
B45C
330
1
100
AcDbSymbolTableRecord
100
AcDbBlockTableRecord
  2
*D89
340
0
  0
BLOCK_RECORD
  5
B468
330
1
100
AcDbSymbolTableRecord
100
AcDbBlockTableRecord
  2
*D90
340
0
  0
BLOCK_RECORD
  5
B474
330
1
100
AcDbSymbolTableRecord
100
AcDbBlockTableRecord
  2
*D91
340
0
  0
BLOCK_RECORD
  5
B480
330
1
100
AcDbSymbolTableRecord
100
AcDbBlockTableRecord
  2
*D92
340
0
  0
BLOCK_RECORD
  5
B48C
330
1
100
AcDbSymbolTableRecord
100
AcDbBlockTableRecord
  2
*D93
340
0
  0
BLOCK_RECORD
  5
B498
330
1
100
AcDbSymbolTableRecord
100
AcDbBlockTableRecord
  2
*D94
340
0
  0
BLOCK_RECORD
  5
B4A4
330
1
100
AcDbSymbolTableRecord
100
AcDbBlockTableRecord
  2
*D95
340
0
  0
BLOCK_RECORD
  5
B4B0
330
1
100
AcDbSymbolTableRecord
100
AcDbBlockTableRecord
  2
*D96
340
0
  0
BLOCK_RECORD
  5
B4BC
330
1
100
AcDbSymbolTableRecord
100
AcDbBlockTableRecord
  2
*D97
340
0
  0
BLOCK_RECORD
  5
B4C9
330
1
100
AcDbSymbolTableRecord
100
AcDbBlockTableRecord
  2
*D98
340
0
  0
BLOCK_RECORD
  5
B4D6
330
1
100
AcDbSymbolTableRecord
100
AcDbBlockTableRecord
  2
*D99
340
0
  0
ENDTAB
  0
ENDSEC
  0
SECTION
  2
BLOCKS
  0
BLOCK
  5
20
330
1F
100
AcDbEntity
  8
0
100
AcDbBlockBegin
  2
*Model_Space
 70
     0
 10
0.0
 20
0.0
 30
0.0
  3
*Model_Space
  1

  0
ENDBLK
  5
21
330
1F
100
AcDbEntity
  8
0
100
AcDbBlockEnd
  0
BLOCK
  5
1C
330
1B
100
AcDbEntity
 67
     1
  8
0
100
AcDbBlockBegin
  2
*Paper_Space
 70
     0
 10
0.0
 20
0.0
 30
0.0
  3
*Paper_Space
  1

  0
ENDBLK
  5
1D
330
1B
100
AcDbEntity
 67
     1
  8
0
100
AcDbBlockEnd
  0
BLOCK
  5
24
330
23
100
AcDbEntity
  8
0
100
AcDbBlockBegin
  2
*Paper_Space0
 70
     0
 10
0.0
 20
0.0
 30
0.0
  3
*Paper_Space0
  1

  0
ENDBLK
  5
25
330
23
100
AcDbEntity
  8
0
100
AcDbBlockEnd
  0
BLOCK
  5
D2
330
D0
100
AcDbEntity
  8
0
100
AcDbBlockBegin
  2
_DotSmall
 70
     0
 10
0.0
 20
0.0
 30
0.0
  3
_DotSmall
  1

  0
LWPOLYLINE
  5
D1
330
D0
100
AcDbEntity
  8
0
 62
     0
100
AcDbPolyline
 90
        2
 70
     1
 43
0.5
 10
-0.0625
 20
0.0
 42
1.0
 10
0.0625
 20
0.0
 42
1.0
  0
ENDBLK
  5
D3
330
D0
100
AcDbEntity
  8
0
100
AcDbBlockEnd
  0
BLOCK
  5
D8
330
D4
100
AcDbEntity
  8
0
100
AcDbBlockBegin
  2
_Origin2
 70
     0
 10
0.0
 20
0.0
 30
0.0
  3
_Origin2
  1

  0
CIRCLE
  5
D5
330
D4
100
AcDbEntity
  8
0
 62
     0
370
    -2
100
AcDbCircle
 10
0.0
 20
0.0
 30
0.0
 40
0.5
  0
CIRCLE
  5
D6
330
D4
100
AcDbEntity
  8
0
 62
     0
370
    -2
100
AcDbCircle
 10
0.0
 20
0.0
 30
0.0
 40
0.25
  0
LINE
  5
D7
330
D4
100
AcDbEntity
  8
0
 62
     0
370
    -2
100
AcDbLine
 10
-0.5
 20
0.0
 30
0.0
 11
-1.0
 21
0.0
 31
0.0
  0
ENDBLK
  5
D9
330
D4
100
AcDbEntity
  8
0
100
AcDbBlockEnd
  0
BLOCK
  5
DE
330
DA
100
AcDbEntity
  8
0
100
AcDbBlockBegin
  2
_Open30
 70
     0
 10
0.0
 20
0.0
 30
0.0
  3
_Open30
  1

  0
LINE
  5
DB
330
DA
100
AcDbEntity
  8
0
 62
     0
370
    -2
100
AcDbLine
 10
-1.0
 20
0.26794919
 30
0.0
 11
0.0
 21
0.0
 31
0.0
  0
LINE
  5
DC
330
DA
100
AcDbEntity
  8
0
 62
     0
370
    -2
100
AcDbLine
 10
0.0
 20
0.0
 30
0.0
 11
-1.0
 21
-0.26794919
 31
0.0
  0
LINE
  5
DD
330
DA
100
AcDbEntity
  8
0
 62
     0
370
    -2
100
AcDbLine
 10
0.0
 20
0.0
 30
0.0
 11
-1.0
 21
0.0
 31
0.0
  0
ENDBLK
  5
DF
330
DA
100
AcDbEntity
  8
0
100
AcDbBlockEnd
  0
BLOCK
  5
2E7
330
2D6
100
AcDbEntity
  8
0
100
AcDbBlockBegin
  2
A$C6CAC4411
 70
     0
 10
0.0
 20
0.0
 30
0.0
  3
A$C6CAC4411
  1

  0
TEXT
  5
2D7
330
2D6
100
AcDbEntity
  8
0
100
AcDbText
 10
176.2557717918098
 20
0.0000022116982912
 30
0.0
 40
40.0
  1
中外交易株式会社
 72
     4
 11
364.2557717918098
 21
20.0000022116983
 31
0.0
100
AcDbText
  0
LINE
  5
2D8
330
2D6
100
AcDbEntity
  8
0
100
AcDbLine
 10
-0.0000028735375963
 20
52.5000022116983
 30
0.0
 11
599.9999971264624
 21
52.5000022116983
 31
0.0
  0
HATCH
  5
2D9
330
2D6
100
AcDbEntity
  8
実形
100
AcDbHatch
 10
0.0
 20
0.0
 30
0.0
210
0.0
220
0.0
230
1.0
  2
SOLID
 70
     1
 71
     1
 91
        3
 92
        1
 93
        4
 72
     2
 10
133.1661954404576
 20
20.0000022116983
 40
20.0
 50
11.64772366707622
 51
342.6561058784662
 73
     1
 72
     1
 10
152.2568494677857
 20
14.03787769028346
 11
128.1661954404576
 21
14.03787769028349
 72
     1
 10
128.1661954404576
 20
14.03787769028349
 11
128.1661954404576
 21
24.0378776902835
 72
     1
 10
128.1661954404576
 20
24.0378776902835
 11
152.7543439394721
 21
24.0378776902835
 97
        4
330
2DF
330
2DC
330
2E0
330
2DD
 92
        1
 93
        4
 72
     2
 10
64.25577179180982
 20
20.0000022116983
 40
20.0
 50
11.64772366707622
 51
342.6561058784662
 73
     1
 72
     1
 10
83.34642581913795
 20
14.03787769028346
 11
59.25577179180982
 21
14.03787769028349
 72
     1
 10
59.25577179180982
 20
14.03787769028349
 11
59.25577179180982
 21
24.0378776902835
 72
     1
 10
59.25577179180982
 20
24.0378776902835
 11
83.84392029082437
 21
24.0378776902835
 97
        4
330
2DE
330
2DB
330
2E1
330
2DA
 92
        1
 93
        5
 72
     1
 10
121.6418911694018
 20
40.0000022116983
 11
86.64189116940178
 21
40.0000022116983
 72
     1
 10
86.64189116940178
 20
40.0000022116983
 11
86.64189116940178
 21
0.0000022116983018
 72
     1
 10
86.64189116940178
 20
0.0000022116983018
 11
121.6418911694018
 21
0.0000022116983018
 72
     1
 10
121.6418911694018
 20
0.0000022116983018
 11
86.64189116940178
 21
20.0000022116983
 72
     1
 10
86.64189116940178
 20
20.0000022116983
 11
121.6418911694018
 21
40.0000022116983
 97
        5
330
2E2
330
2E3
330
2E5
330
2E6
330
2E4
 75
     0
 76
     1
 98
        1
 10
-2184.000002873538
 20
-16.4999977883017
  0
LINE
  5
2DA
102
{ACAD_REACTORS
330
2D9
102
}
330
2D6
100
AcDbEntity
  8
実形
370
     5
100
AcDbLine
 10
83.84392029082437
 20
24.0378776902835
 30
0.0
 11
59.25577179180982
 21
24.0378776902835
 31
0.0
  0
LINE
  5
2DB
102
{ACAD_REACTORS
330
2D9
102
}
330
2D6
100
AcDbEntity
  8
実形
370
     5
100
AcDbLine
 10
59.25577179180982
 20
14.03787769028349
 30
0.0
 11
83.34642581913795
 21
14.03787769028346
 31
0.0
  0
LINE
  5
2DC
102
{ACAD_REACTORS
330
2D9
102
}
330
2D6
100
AcDbEntity
  8
実形
370
     5
100
AcDbLine
 10
128.1661954404576
 20
14.03787769028349
 30
0.0
 11
152.2568494677857
 21
14.03787769028346
 31
0.0
  0
LINE
  5
2DD
102
{ACAD_REACTORS
330
2D9
102
}
330
2D6
100
AcDbEntity
  8
実形
370
     5
100
AcDbLine
 10
152.7543439394721
 20
24.0378776902835
 30
0.0
 11
128.1661954404576
 21
24.0378776902835
 31
0.0
  0
ARC
  5
2DE
102
{ACAD_REACTORS
330
2D9
102
}
330
2D6
100
AcDbEntity
  8
実形
370
     5
100
AcDbCircle
 10
64.25577179180982
 20
20.0000022116983
 30
0.0
 40
20.0
100
AcDbArc
 50
11.6477236670758
 51
342.6561058784691
  0
ARC
  5
2DF
102
{ACAD_REACTORS
330
2D9
102
}
330
2D6
100
AcDbEntity
  8
実形
370
     5
100
AcDbCircle
 10
133.1661954404576
 20
20.0000022116983
 30
0.0
 40
20.0
100
AcDbArc
 50
11.6477236670758
 51
342.6561058784691
  0
LINE
  5
2E0
102
{ACAD_REACTORS
330
2D9
102
}
330
2D6
100
AcDbEntity
  8
実形
370
     5
100
AcDbLine
 10
128.1661954404576
 20
24.0378776902835
 30
0.0
 11
128.1661954404576
 21
14.03787769028349
 31
0.0
  0
LINE
  5
2E1
102
{ACAD_REACTORS
330
2D9
102
}
330
2D6
100
AcDbEntity
  8
実形
370
     5
100
AcDbLine
 10
59.25577179180982
 20
24.0378776902835
 30
0.0
 11
59.25577179180982
 21
14.03787769028349
 31
0.0
  0
LINE
  5
2E2
102
{ACAD_REACTORS
330
2D9
102
}
330
2D6
100
AcDbEntity
  8
実形
370
     5
100
AcDbLine
 10
121.6418911694018
 20
40.0000022116983
 30
0.0
 11
86.64189116940178
 21
40.0000022116983
 31
0.0
  0
LINE
  5
2E3
102
{ACAD_REACTORS
330
2D9
102
}
330
2D6
100
AcDbEntity
  8
実形
370
     5
100
AcDbLine
 10
86.64189116940178
 20
40.0000022116983
 30
0.0
 11
86.64189116940178
 21
0.0000022116983018
 31
0.0
  0
LINE
  5
2E4
102
{ACAD_REACTORS
330
2D9
102
}
330
2D6
100
AcDbEntity
  8
実形
370
     5
100
AcDbLine
 10
86.64189116940178
 20
20.0000022116983
 30
0.0
 11
121.6418911694018
 21
40.0000022116983
 31
0.0
  0
LINE
  5
2E5
102
{ACAD_REACTORS
330
2D9
102
}
330
2D6
100
AcDbEntity
  8
実形
370
     5
100
AcDbLine
 10
86.64189116940178
 20
0.0000022116983018
 30
0.0
 11
121.6418911694018
 21
0.0000022116983018
 31
0.0
  0
LINE
  5
2E6
102
{ACAD_REACTORS
330
2D9
102
}
330
2D6
100
AcDbEntity
  8
実形
370
     5
100
AcDbLine
 10
121.6418911694018
 20
0.0000022116983018
 30
0.0
 11
86.64189116940178
 21
20.0000022116983
 31
0.0
  0
ENDBLK
  5
2E8
330
2D6
100
AcDbEntity
  8
0
100
AcDbBlockEnd
  0
BLOCK
  5
310
330
30D
100
AcDbEntity
  8
0
100
AcDbBlockBegin
  2
_Dot
 70
     0
 10
0.0
 20
0.0
 30
0.0
  3
_Dot
  1

  0
LWPOLYLINE
  5
30E
330
30D
100
AcDbEntity
  8
0
 62
     0
100
AcDbPolyline
 90
        2
 70
     1
 43
0.5
 10
-0.25
 20
0.0
 42
1.0
 10
0.25
 20
0.0
 42
1.0
  0
LINE
  5
30F
330
30D
100
AcDbEntity
  8
0
 62
     0
370
    -2
100
AcDbLine
 10
-0.5
 20
0.0
 30
0.0
 11
-1.0
 21
0.0
 31
0.0
  0
ENDBLK
  5
311
330
30D
100
AcDbEntity
  8
0
100
AcDbBlockEnd
  0
BLOCK
  5
3140
330
313C
100
AcDbEntity
  8
0
100
AcDbBlockBegin
  2
A$C6850087C
 70
     0
 10
0.0
 20
0.0
 30
0.0
  3
A$C6850087C
  1

  0
TEXT
  5
313D
330
313C
100
AcDbEntity
  8
実形
 62
     0
 48
20.0
100
AcDbText
 10
0.0
 20
0.0
 30
0.0
 40
40.0
  1
平面図
100
AcDbText
  0
ENDBLK
  5
3141
330
313C
100
AcDbEntity
  8
0
100
AcDbBlockEnd
  0
BLOCK
  5
384A
330
3846
100
AcDbEntity
  8
0
 62
     1
100
AcDbBlockBegin
  2
A$C71387EE1
 70
     0
 10
0.0
 20
0.0
 30
0.0
  3
A$C71387EE1
  1

  0
HATCH
  5
3847
330
3846
100
AcDbEntity
  8
実形
 62
     0
100
AcDbHatch
 10
0.0
 20
0.0
 30
0.0
210
0.0
220
0.0
230
1.0
  2
SOLID
 70
     1
 71
     0
 91
        1
 92
        7
 72
     1
 73
     1
 93
        2
 10
4.552685078746208
 20
-0.0000011660104065
 42
-1.0
 10
4.54872920619573
 20
9.101406589272301
 42
-1.0
 97
        0
 75
     0
 76
     1
 47
0.1166526434546944
 98
        1
 10
6.65106624868099
 20
3.151407247997667
  0
ENDBLK
  5
384B
330
3846
100
AcDbEntity
  8
0
 62
     1
100
AcDbBlockEnd
  0
BLOCK
  5
6B8B
330
6B87
100
AcDbEntity
  8
0
 62
     3
100
AcDbBlockBegin
  2
A$C47AF373A
 70
     0
 10
0.0
 20
0.0
 30
0.0
  3
A$C47AF373A
  1

  0
LINE
  5
6B88
330
6B87
100
AcDbEntity
  8
枠
 62
     0
100
AcDbLine
 10
-0.0000111344452307
 20
0.0000048001220421
 30
0.0
 11
-0.0000111344452307
 21
2020.000004800122
 31
0.0
  0
ENDBLK
  5
6B8C
330
6B87
100
AcDbEntity
  8
0
 62
     3
100
AcDbBlockEnd
  0
BLOCK
  5
6C04
330
6C00
100
AcDbEntity
  8
0
 62
     3
100
AcDbBlockBegin
  2
A$C2B9560D8
 70
     0
 10
0.0
 20
0.0
 30
0.0
  3
A$C2B9560D8
  1

  0
LINE
  5
6C01
330
6C00
100
AcDbEntity
  8
枠
 62
     0
100
AcDbLine
 10
-0.0000103150450741
 20
2020.000004800122
 30
0.0
 11
-0.0000103150450741
 21
0.0000048001220421
 31
0.0
  0
ENDBLK
  5
6C05
330
6C00
100
AcDbEntity
  8
0
 62
     3
100
AcDbBlockEnd
  0
BLOCK
  5
775A
330
7752
100
AcDbEntity
  8
0
 62
     3
100
AcDbBlockBegin
  2
A$C113940D1
 70
     0
 10
0.0
 20
0.0
 30
0.0
  3
A$C113940D1
  1

  0
LINE
  5
7753
330
7752
100
AcDbEntity
  8
実形
 62
     0
100
AcDbLine
 10
0.0
 20
65.0
 30
0.0
 11
720.0
 21
65.0
 31
0.0
  0
LINE
  5
7754
330
7752
100
AcDbEntity
  8
実形
 62
     0
100
AcDbLine
 10
0.0
 20
-195.0
 30
0.0
 11
0.0
 21
65.0
 31
0.0
  0
LINE
  5
7755
330
7752
100
AcDbEntity
  8
実形
 62
     0
100
AcDbLine
 10
120.0
 20
-130.0
 30
0.0
 11
120.0
 21
65.00000000000006
 31
0.0
  0
TEXT
  5
7756
330
7752
100
AcDbEntity
  8
枠
 62
     0
100
AcDbText
 10
23.83333333333334
 20
15.00000000000001
 30
0.0
 40
35.0
  1
品名
 72
     4
 11
60.0
 21
32.5
 31
0.0
100
AcDbText
  0
TEXT
  5
7757
330
7752
100
AcDbEntity
  8
実形
100
AcDbText
 10
214.0405358305962
 20
13.16420861765831
 30
0.0
 40
40.0
  1
ｱﾝﾀﾞｰｼﾝｸ
 72
     4
 11
302.0405358305961
 21
31.83087528432498
 31
0.0
100
AcDbText
  0
ENDBLK
  5
775B
330
7752
100
AcDbEntity
  8
0
 62
     3
100
AcDbBlockEnd
  0
BLOCK
  5
78F4
330
78EA
100
AcDbEntity
  8
0
 62
     3
100
AcDbBlockBegin
  2
*D11
 70
     1
 10
0.0
 20
0.0
 30
0.0
  3
*D11
  1

  0
LINE
  5
B13C
330
78EA
100
AcDbEntity
  8
実形
 62
     0
370
    18
100
AcDbLine
 10
916.3491785885852
 20
1703.547590588581
 30
0.0
 11
868.0258414479196
 21
1703.547590588581
 31
0.0
  0
LINE
  5
B13D
330
78EA
100
AcDbEntity
  8
実形
 62
     0
370
    18
100
AcDbLine
 10
916.3491785885851
 20
1193.547590588581
 30
0.0
 11
868.0258414479194
 21
1193.547590588581
 31
0.0
  0
LINE
  5
B13E
330
78EA
100
AcDbEntity
  8
実形
 62
     0
370
    18
100
AcDbLine
 10
868.0258414479196
 20
1693.547590588581
 30
0.0
 11
868.0258414479194
 21
1203.547590588581
 31
0.0
  0
INSERT
  5
B13F
330
78EA
100
AcDbEntity
  8
実形
 62
     0
370
    18
100
AcDbBlockReference
  2
_Dot
 10
868.0258414479196
 20
1703.547590588581
 30
0.0
 41
10.0
 42
10.0
 43
10.0
 50
90.0
  0
INSERT
  5
B140
330
78EA
100
AcDbEntity
  8
実形
 62
     0
370
    18
100
AcDbBlockReference
  2
_Dot
 10
868.0258414479194
 20
1193.547590588581
 30
0.0
 41
10.0
 42
10.0
 43
10.0
 50
270.0
  0
MTEXT
  5
B141
330
78EA
100
AcDbEntity
  8
実形
 62
     0
100
AcDbMText
 10
848.9258414479193
 20
1448.547590588581
 30
0.0
 40
25.0
 41
0.0
 71
     5
 72
     1
  1
510
 11
0.0000000000000001
 21
1.0
 31
0.0
 73
     1
 44
1.0
1001
ACAD
1000
MTEXTBEGIN
1070
    73
1070
     1
1070
    44
1040
1.0
1070
    74
1070
     0
1000
MTEXTEND
  0
POINT
  5
B142
330
78EA
100
AcDbEntity
  8
Defpoints
 62
     0
100
AcDbPoint
 10
981.3491785885853
 20
1703.547590588581
 30
0.0
  0
POINT
  5
B143
330
78EA
100
AcDbEntity
  8
Defpoints
 62
     0
100
AcDbPoint
 10
981.3491785885851
 20
1193.547590588581
 30
0.0
  0
POINT
  5
B144
330
78EA
100
AcDbEntity
  8
Defpoints
 62
     0
100
AcDbPoint
 10
868.0258414479194
 20
1193.547590588581
 30
0.0
  0
ENDBLK
  5
78F5
330
78EA
100
AcDbEntity
  8
0
 62
     3
100
AcDbBlockEnd
  0
BLOCK
  5
7901
330
78F7
100
AcDbEntity
  8
0
 62
     3
100
AcDbBlockBegin
  2
*D12
 70
     1
 10
0.0
 20
0.0
 30
0.0
  3
*D12
  1

  0
LINE
  5
B133
330
78F7
100
AcDbEntity
  8
実形
 62
     0
370
    18
100
AcDbLine
 10
916.3491785885852
 20
1718.547590588581
 30
0.0
 11
868.0258414479196
 21
1718.547590588581
 31
0.0
  0
LINE
  5
B134
330
78F7
100
AcDbEntity
  8
実形
 62
     0
370
    18
100
AcDbLine
 10
916.3491785885852
 20
1178.547590588581
 30
0.0
 11
868.0258414479194
 21
1178.547590588581
 31
0.0
  0
LINE
  5
B135
330
78F7
100
AcDbEntity
  8
実形
 62
     0
370
    18
100
AcDbLine
 10
868.0258414479196
 20
1708.547590588581
 30
0.0
 11
868.0258414479194
 21
1188.547590588581
 31
0.0
  0
MTEXT
  5
B136
330
78F7
100
AcDbEntity
  8
実形
 62
     0
100
AcDbMText
 10
846.1235918816946
 20
1692.83943080965
 30
0.0
 40
25.0
 41
0.0
 71
     5
 72
     1
  1
15
 11
0.0000000000000001
 21
1.0
 31
0.0
 73
     1
 44
1.0
1001
ACAD
1000
MTEXTBEGIN
1070
    73
1070
     1
1070
    44
1040
1.0
1070
    74
1070
     0
1000
MTEXTEND
  0
INSERT
  5
B137
330
78F7
100
AcDbEntity
  8
実形
 62
     0
370
    18
100
AcDbBlockReference
  2
_Dot
 10
868.0258414479196
 20
1718.547590588581
 30
0.0
 41
10.0
 42
10.0
 43
10.0
 50
90.0
  0
INSERT
  5
B138
330
78F7
100
AcDbEntity
  8
実形
 62
     0
370
    18
100
AcDbBlockReference
  2
_Dot
 10
868.0258414479194
 20
1178.547590588581
 30
0.0
 41
10.0
 42
10.0
 43
10.0
 50
270.0
  0
POINT
  5
B139
330
78F7
100
AcDbEntity
  8
Defpoints
 62
     0
100
AcDbPoint
 10
981.3491785885853
 20
1718.547590588581
 30
0.0
  0
POINT
  5
B13A
330
78F7
100
AcDbEntity
  8
Defpoints
 62
     0
100
AcDbPoint
 10
981.3491785885853
 20
1178.547590588581
 30
0.0
  0
POINT
  5
B13B
330
78F7
100
AcDbEntity
  8
Defpoints
 62
     0
100
AcDbPoint
 10
868.0258414479194
 20
1178.547590588581
 30
0.0
  0
ENDBLK
  5
7902
330
78F7
100
AcDbEntity
  8
0
 62
     3
100
AcDbBlockEnd
  0
BLOCK
  5
79A4
330
79A0
100
AcDbEntity
  8
0
 62
     3
100
AcDbBlockBegin
  2
A$C34481AC4
 70
     0
 10
0.0
 20
0.0
 30
0.0
  3
A$C34481AC4
  1

  0
TEXT
  5
79A1
330
79A0
100
AcDbEntity
  8
実形
370
    13
100
AcDbText
 10
21.66666199574517
 20
-1.666654965347788
 30
0.0
 40
25.0
  1
●
 71
     2
 72
     1
 11
9.999995329078501
 21
-1.666654965347788
 31
0.0
100
AcDbText
  0
ENDBLK
  5
79A5
330
79A0
100
AcDbEntity
  8
0
 62
     3
100
AcDbBlockEnd
  0
BLOCK
  5
7A18
330
7A0E
100
AcDbEntity
  8
0
 62
     3
100
AcDbBlockBegin
  2
*D14
 70
     1
 10
0.0
 20
0.0
 30
0.0
  3
*D14
  1

  0
LINE
  5
B225
330
7A0E
100
AcDbEntity
  8
実形
 62
     0
370
    18
100
AcDbLine
 10
2358.896374304733
 20
1703.547590588581
 30
0.0
 11
2422.33959389653
 21
1703.547590588581
 31
0.0
  0
LINE
  5
B226
330
7A0E
100
AcDbEntity
  8
実形
 62
     0
370
    18
100
AcDbLine
 10
2379.917521520267
 20
1613.547590588582
 30
0.0
 11
2422.33959389653
 21
1613.547590588582
 31
0.0
  0
LINE
  5
B227
330
7A0E
100
AcDbEntity
  8
実形
 62
     0
370
    18
100
AcDbLine
 10
2422.33959389653
 20
1693.547590588581
 30
0.0
 11
2422.33959389653
 21
1623.547590588582
 31
0.0
  0
INSERT
  5
B228
330
7A0E
100
AcDbEntity
  8
実形
 62
     0
370
    18
100
AcDbBlockReference
  2
_Dot
 10
2422.33959389653
 20
1703.547590588581
 30
0.0
 41
10.0
 42
10.0
 43
10.0
 50
90.0
  0
INSERT
  5
B229
330
7A0E
100
AcDbEntity
  8
実形
 62
     0
370
    18
100
AcDbBlockReference
  2
_Dot
 10
2422.33959389653
 20
1613.547590588582
 30
0.0
 41
10.0
 42
10.0
 43
10.0
 50
270.0
  0
MTEXT
  5
B22A
330
7A0E
100
AcDbEntity
  8
実形
 62
     0
100
AcDbMText
 10
2403.239593896529
 20
1658.547590588582
 30
0.0
 40
25.0
 41
0.0
 71
     5
 72
     1
  1
90
 11
0.0000000000000001
 21
1.0
 31
0.0
 73
     1
 44
1.0
1001
ACAD
1000
MTEXTBEGIN
1070
    73
1070
     1
1070
    44
1040
1.0
1070
    74
1070
     0
1000
MTEXTEND
  0
POINT
  5
B22B
330
7A0E
100
AcDbEntity
  8
Defpoints
 62
     0
100
AcDbPoint
 10
2293.896374304734
 20
1703.547590588581
 30
0.0
  0
POINT
  5
B22C
330
7A0E
100
AcDbEntity
  8
Defpoints
 62
     0
100
AcDbPoint
 10
2314.917521520267
 20
1613.547590588582
 30
0.0
  0
POINT
  5
B22D
330
7A0E
100
AcDbEntity
  8
Defpoints
 62
     0
100
AcDbPoint
 10
2422.33959389653
 20
1613.547590588582
 30
0.0
  0
ENDBLK
  5
7A19
330
7A0E
100
AcDbEntity
  8
0
 62
     3
100
AcDbBlockEnd
  0
BLOCK
  5
7A39
330
7A2F
100
AcDbEntity
  8
0
 62
     3
100
AcDbBlockBegin
  2
*D15
 70
     1
 10
0.0
 20
0.0
 30
0.0
  3
*D15
  1

  0
LINE
  5
B22E
330
7A2F
100
AcDbEntity
  8
実形
 62
     0
370
    18
100
AcDbLine
 10
2361.993313378533
 20
1613.547590588582
 30
0.0
 11
2422.33959389653
 21
1613.547590588582
 31
0.0
  0
LINE
  5
B22F
330
7A2F
100
AcDbEntity
  8
実形
 62
     0
370
    18
100
AcDbLine
 10
2356.873093860388
 20
1213.547590588581
 30
0.0
 11
2422.33959389653
 21
1213.547590588581
 31
0.0
  0
LINE
  5
B230
330
7A2F
100
AcDbEntity
  8
実形
 62
     0
370
    18
100
AcDbLine
 10
2422.33959389653
 20
1603.547590588582
 30
0.0
 11
2422.33959389653
 21
1223.547590588581
 31
0.0
  0
INSERT
  5
B231
330
7A2F
100
AcDbEntity
  8
実形
 62
     0
370
    18
100
AcDbBlockReference
  2
_Dot
 10
2422.33959389653
 20
1613.547590588582
 30
0.0
 41
10.0
 42
10.0
 43
10.0
 50
90.0
  0
INSERT
  5
B232
330
7A2F
100
AcDbEntity
  8
実形
 62
     0
370
    18
100
AcDbBlockReference
  2
_Dot
 10
2422.33959389653
 20
1213.547590588581
 30
0.0
 41
10.0
 42
10.0
 43
10.0
 50
270.0
  0
MTEXT
  5
B233
330
7A2F
100
AcDbEntity
  8
実形
 62
     0
100
AcDbMText
 10
2403.239593896529
 20
1413.547590588582
 30
0.0
 40
25.0
 41
0.0
 71
     5
 72
     1
  1
400
 11
0.0000000000000001
 21
1.0
 31
0.0
 73
     1
 44
1.0
1001
ACAD
1000
MTEXTBEGIN
1070
    73
1070
     1
1070
    44
1040
1.0
1070
    74
1070
     0
1000
MTEXTEND
  0
POINT
  5
B234
330
7A2F
100
AcDbEntity
  8
Defpoints
 62
     0
100
AcDbPoint
 10
2296.993313378532
 20
1613.547590588582
 30
0.0
  0
POINT
  5
B235
330
7A2F
100
AcDbEntity
  8
Defpoints
 62
     0
100
AcDbPoint
 10
2291.873093860388
 20
1213.547590588581
 30
0.0
  0
POINT
  5
B236
330
7A2F
100
AcDbEntity
  8
Defpoints
 62
     0
100
AcDbPoint
 10
2422.33959389653
 20
1213.547590588581
 30
0.0
  0
ENDBLK
  5
7A3A
330
7A2F
100
AcDbEntity
  8
0
 62
     3
100
AcDbBlockEnd
  0
BLOCK
  5
7A58
330
7A4E
100
AcDbEntity
  8
0
 62
     3
100
AcDbBlockBegin
  2
*D16
 70
     1
 10
0.0
 20
0.0
 30
0.0
  3
*D16
  1

  0
LINE
  5
B25D
330
7A4E
100
AcDbEntity
  8
実形
 62
     0
370
    18
100
AcDbLine
 10
2355.926791154438
 20
1718.547590588581
 30
0.0
 11
2478.311150391471
 21
1718.547590588581
 31
0.0
  0
LINE
  5
B25E
330
7A4E
100
AcDbEntity
  8
実形
 62
     0
370
    18
100
AcDbLine
 10
2358.316839580939
 20
1178.547590588581
 30
0.0
 11
2478.311150391471
 21
1178.547590588581
 31
0.0
  0
LINE
  5
B25F
330
7A4E
100
AcDbEntity
  8
実形
 62
     0
370
    18
100
AcDbLine
 10
2478.311150391471
 20
1708.547590588581
 30
0.0
 11
2478.311150391471
 21
1188.547590588581
 31
0.0
  0
MTEXT
  5
B260
330
7A4E
100
AcDbEntity
  8
実形
 62
     0
100
AcDbMText
 10
2447.154944533436
 20
1745.807346304051
 30
0.0
 40
25.0
 41
0.0
 71
     5
 72
     1
  1
15
 11
0.0000000000000001
 21
1.0
 31
0.0
 73
     1
 44
1.0
1001
ACAD
1000
MTEXTBEGIN
1070
    73
1070
     1
1070
    44
1040
1.0
1070
    74
1070
     0
1000
MTEXTEND
  0
INSERT
  5
B261
330
7A4E
100
AcDbEntity
  8
実形
 62
     0
370
    18
100
AcDbBlockReference
  2
_Dot
 10
2478.311150391471
 20
1718.547590588581
 30
0.0
 41
10.0
 42
10.0
 43
10.0
 50
90.0
  0
INSERT
  5
B262
330
7A4E
100
AcDbEntity
  8
実形
 62
     0
370
    18
100
AcDbBlockReference
  2
_Dot
 10
2478.311150391471
 20
1178.547590588581
 30
0.0
 41
10.0
 42
10.0
 43
10.0
 50
270.0
  0
POINT
  5
B263
330
7A4E
100
AcDbEntity
  8
Defpoints
 62
     0
100
AcDbPoint
 10
2290.926791154438
 20
1718.547590588581
 30
0.0
  0
POINT
  5
B264
330
7A4E
100
AcDbEntity
  8
Defpoints
 62
     0
100
AcDbPoint
 10
2293.316839580939
 20
1178.547590588581
 30
0.0
  0
POINT
  5
B265
330
7A4E
100
AcDbEntity
  8
Defpoints
 62
     0
100
AcDbPoint
 10
2478.311150391471
 20
1178.547590588581
 30
0.0
  0
ENDBLK
  5
7A59
330
7A4E
100
AcDbEntity
  8
0
 62
     3
100
AcDbBlockEnd
  0
BLOCK
  5
7B59
330
7B4F
100
AcDbEntity
  8
0
 62
     3
100
AcDbBlockBegin
  2
*D17
 70
     1
 10
0.0
 20
0.0
 30
0.0
  3
*D17
  1

  0
LINE
  5
B240
330
7B4F
100
AcDbEntity
  8
実形
 62
     0
370
    18
100
AcDbLine
 10
2356.873093860388
 20
1193.547590588581
 30
0.0
 11
2422.33959389653
 21
1193.547590588581
 31
0.0
  0
LINE
  5
B241
330
7B4F
100
AcDbEntity
  8
実形
 62
     0
370
    18
100
AcDbLine
 10
2357.618629837849
 20
1613.547590588582
 30
0.0
 11
2422.33959389653
 21
1613.547590588582
 31
0.0
  0
LINE
  5
B242
330
7B4F
100
AcDbEntity
  8
実形
 62
     0
370
    18
100
AcDbLine
 10
2422.33959389653
 20
1203.547590588581
 30
0.0
 11
2422.33959389653
 21
1213.414216166148
 31
0.0
  0
LINE
  5
B243
330
7B4F
100
AcDbEntity
  8
実形
 62
     0
370
    18
100
AcDbLine
 10
2422.33959389653
 20
1603.547590588582
 30
0.0
 11
2422.33959389653
 21
1264.114216166147
 31
0.0
  0
MTEXT
  5
B244
330
7B4F
100
AcDbEntity
  8
実形
 62
     0
100
AcDbMText
 10
2404.431728074173
 20
1238.764216166148
 30
0.0
 40
25.0
 41
0.0
 71
     5
 72
     1
  1
20
 11
0.0000000000000001
 21
1.0
 31
0.0
 73
     1
 44
1.0
1001
ACAD
1000
MTEXTBEGIN
1070
    73
1070
     1
1070
    44
1040
1.0
1070
    74
1070
     0
1000
MTEXTEND
  0
INSERT
  5
B245
330
7B4F
100
AcDbEntity
  8
実形
 62
     0
370
    18
100
AcDbBlockReference
  2
_Dot
 10
2422.33959389653
 20
1193.547590588581
 30
0.0
 41
10.0
 42
10.0
 43
10.0
 50
270.0
  0
INSERT
  5
B246
330
7B4F
100
AcDbEntity
  8
実形
 62
     0
370
    18
100
AcDbBlockReference
  2
_Dot
 10
2422.33959389653
 20
1613.547590588582
 30
0.0
 41
10.0
 42
10.0
 43
10.0
 50
90.0
  0
POINT
  5
B247
330
7B4F
100
AcDbEntity
  8
Defpoints
 62
     0
100
AcDbPoint
 10
2291.873093860388
 20
1193.547590588581
 30
0.0
  0
POINT
  5
B248
330
7B4F
100
AcDbEntity
  8
Defpoints
 62
     0
100
AcDbPoint
 10
2292.618629837849
 20
1613.547590588582
 30
0.0
  0
POINT
  5
B249
330
7B4F
100
AcDbEntity
  8
Defpoints
 62
     0
100
AcDbPoint
 10
2422.33959389653
 20
1613.547590588582
 30
0.0
  0
ENDBLK
  5
7B5A
330
7B4F
100
AcDbEntity
  8
0
 62
     3
100
AcDbBlockEnd
  0
BLOCK
  5
7BAF
330
7BA5
100
AcDbEntity
  8
0
 62
     3
100
AcDbBlockBegin
  2
*D18
 70
     1
 10
0.0
 20
0.0
 30
0.0
  3
*D18
  1

  0
LINE
  5
B24A
330
7BA5
100
AcDbEntity
  8
実形
 62
     0
370
    18
100
AcDbLine
 10
2356.899986298023
 20
1703.547590588581
 30
0.0
 11
2478.311150391471
 21
1703.547590588581
 31
0.0
  0
LINE
  5
B24B
330
7BA5
100
AcDbEntity
  8
実形
 62
     0
370
    18
100
AcDbLine
 10
2354.861981584558
 20
1193.547590588581
 30
0.0
 11
2478.311150391471
 21
1193.547590588581
 31
0.0
  0
LINE
  5
B24C
330
7BA5
100
AcDbEntity
  8
実形
 62
     0
370
    18
100
AcDbLine
 10
2478.311150391471
 20
1693.547590588581
 30
0.0
 11
2478.311150391471
 21
1203.547590588581
 31
0.0
  0
INSERT
  5
B24D
330
7BA5
100
AcDbEntity
  8
実形
 62
     0
370
    18
100
AcDbBlockReference
  2
_Dot
 10
2478.311150391471
 20
1703.547590588581
 30
0.0
 41
10.0
 42
10.0
 43
10.0
 50
90.0
  0
INSERT
  5
B24E
330
7BA5
100
AcDbEntity
  8
実形
 62
     0
370
    18
100
AcDbBlockReference
  2
_Dot
 10
2478.311150391471
 20
1193.547590588581
 30
0.0
 41
10.0
 42
10.0
 43
10.0
 50
270.0
  0
MTEXT
  5
B24F
330
7BA5
100
AcDbEntity
  8
実形
 62
     0
100
AcDbMText
 10
2459.211150391471
 20
1448.547590588582
 30
0.0
 40
25.0
 41
0.0
 71
     5
 72
     1
  1
510
 11
0.0000000000000001
 21
1.0
 31
0.0
 73
     1
 44
1.0
1001
ACAD
1000
MTEXTBEGIN
1070
    73
1070
     1
1070
    44
1040
1.0
1070
    74
1070
     0
1000
MTEXTEND
  0
POINT
  5
B250
330
7BA5
100
AcDbEntity
  8
Defpoints
 62
     0
100
AcDbPoint
 10
2291.899986298024
 20
1703.547590588581
 30
0.0
  0
POINT
  5
B251
330
7BA5
100
AcDbEntity
  8
Defpoints
 62
     0
100
AcDbPoint
 10
2289.861981584558
 20
1193.547590588581
 30
0.0
  0
POINT
  5
B252
330
7BA5
100
AcDbEntity
  8
Defpoints
 62
     0
100
AcDbPoint
 10
2478.311150391471
 20
1193.547590588581
 30
0.0
  0
ENDBLK
  5
7BB0
330
7BA5
100
AcDbEntity
  8
0
 62
     3
100
AcDbBlockEnd
  0
BLOCK
  5
7F0A
330
7F09
100
AcDbEntity
  8
0
 62
     3
100
AcDbBlockBegin
  2
*D19
 70
     1
 10
0.0
 20
0.0
 30
0.0
  3
*D19
  1

  0
LINE
  5
7F0B
330
7F09
100
AcDbEntity
  8
実形
 62
     0
370
    18
100
AcDbLine
 10
862.7702104998824
 20
1104.178460662066
 30
0.0
 11
862.7702104998824
 21
1036.915758957679
 31
0.0
  0
LINE
  5
7F0C
330
7F09
100
AcDbEntity
  8
実形
 62
     0
370
    18
100
AcDbLine
 10
1622.770210499882
 20
1104.178460662066
 30
0.0
 11
1622.770210499882
 21
1036.915758957679
 31
0.0
  0
LINE
  5
7F0D
330
7F09
100
AcDbEntity
  8
実形
 62
     0
370
    18
100
AcDbLine
 10
872.7702104998824
 20
1036.915758957679
 30
0.0
 11
1612.770210499882
 21
1036.915758957679
 31
0.0
  0
INSERT
  5
7F0E
330
7F09
100
AcDbEntity
  8
実形
 62
     0
370
    18
100
AcDbBlockReference
  2
_Dot
 10
862.7702104998824
 20
1036.915758957679
 30
0.0
 41
10.0
 42
10.0
 43
10.0
 50
180.0
  0
INSERT
  5
7F0F
330
7F09
100
AcDbEntity
  8
実形
 62
     0
370
    18
100
AcDbBlockReference
  2
_Dot
 10
1622.770210499882
 20
1036.915758957679
 30
0.0
 41
10.0
 42
10.0
 43
10.0
  0
MTEXT
  5
7F10
330
7F09
100
AcDbEntity
  8
実形
 62
     0
100
AcDbMText
 10
1242.770210499882
 20
1056.015758957679
 30
0.0
 40
25.0
 41
0.0
 71
     5
 72
     1
  1
760
 73
     1
 44
1.0
1001
ACAD
1000
MTEXTBEGIN
1070
    73
1070
     1
1070
    44
1040
1.0
1070
    74
1070
     0
1000
MTEXTEND
  0
POINT
  5
7F11
330
7F09
100
AcDbEntity
  8
Defpoints
 62
     0
100
AcDbPoint
 10
862.7702104998824
 20
1169.178460662066
 30
0.0
  0
POINT
  5
7F12
330
7F09
100
AcDbEntity
  8
Defpoints
 62
     0
100
AcDbPoint
 10
1622.770210499882
 20
1169.178460662066
 30
0.0
  0
POINT
  5
7F13
330
7F09
100
AcDbEntity
  8
Defpoints
 62
     0
100
AcDbPoint
 10
1622.770210499882
 20
1036.915758957679
 30
0.0
  0
ENDBLK
  5
7F14
330
7F09
100
AcDbEntity
  8
0
 62
     3
100
AcDbBlockEnd
  0
BLOCK
  5
7F16
330
7F15
100
AcDbEntity
  8
0
 62
     3
100
AcDbBlockBegin
  2
*D20
 70
     1
 10
0.0
 20
0.0
 30
0.0
  3
*D20
  1

  0
LINE
  5
7F17
330
7F15
100
AcDbEntity
  8
実形
 62
     0
370
    18
100
AcDbLine
 10
842.7702104998825
 20
1104.178460662066
 30
0.0
 11
842.7702104998825
 21
1036.915758957679
 31
0.0
  0
LINE
  5
7F18
330
7F15
100
AcDbEntity
  8
実形
 62
     0
370
    18
100
AcDbLine
 10
1642.770210499882
 20
1104.178460662066
 30
0.0
 11
1642.770210499882
 21
1036.915758957679
 31
0.0
  0
LINE
  5
7F19
330
7F15
100
AcDbEntity
  8
実形
 62
     0
370
    18
100
AcDbLine
 10
852.7702104998825
 20
1036.915758957679
 30
0.0
 11
1632.770210499882
 21
1036.915758957679
 31
0.0
  0
MTEXT
  5
7F1A
330
7F15
100
AcDbEntity
  8
実形
 62
     0
100
AcDbMText
 10
1589.171363804602
 20
1058.515758957679
 30
0.0
 40
25.0
 41
0.0
 71
     5
 72
     1
  1
20
 73
     1
 44
1.0
1001
ACAD
1000
MTEXTBEGIN
1070
    73
1070
     1
1070
    44
1040
1.0
1070
    74
1070
     0
1000
MTEXTEND
  0
INSERT
  5
7F1B
330
7F15
100
AcDbEntity
  8
実形
 62
     0
370
    18
100
AcDbBlockReference
  2
_Dot
 10
842.7702104998825
 20
1036.915758957679
 30
0.0
 41
10.0
 42
10.0
 43
10.0
 50
180.0
  0
INSERT
  5
7F1C
330
7F15
100
AcDbEntity
  8
実形
 62
     0
370
    18
100
AcDbBlockReference
  2
_Dot
 10
1642.770210499882
 20
1036.915758957679
 30
0.0
 41
10.0
 42
10.0
 43
10.0
  0
POINT
  5
7F1D
330
7F15
100
AcDbEntity
  8
Defpoints
 62
     0
100
AcDbPoint
 10
842.7702104998825
 20
1169.178460662066
 30
0.0
  0
POINT
  5
7F1E
330
7F15
100
AcDbEntity
  8
Defpoints
 62
     0
100
AcDbPoint
 10
1642.770210499882
 20
1169.178460662066
 30
0.0
  0
POINT
  5
7F1F
330
7F15
100
AcDbEntity
  8
Defpoints
 62
     0
100
AcDbPoint
 10
1642.770210499882
 20
1036.915758957679
 30
0.0
  0
ENDBLK
  5
7F20
330
7F15
100
AcDbEntity
  8
0
 62
     3
100
AcDbBlockEnd
  0
BLOCK
  5
7F22
330
7F21
100
AcDbEntity
  8
0
 62
     3
100
AcDbBlockBegin
  2
*D21
 70
     1
 10
0.0
 20
0.0
 30
0.0
  3
*D21
  1

  0
LINE
  5
7F23
330
7F21
100
AcDbEntity
  8
実形
 62
     0
370
    18
100
AcDbLine
 10
842.7702104998825
 20
1104.178460662066
 30
0.0
 11
842.7702104998825
 21
974.5052716017053
 31
0.0
  0
LINE
  5
7F24
330
7F21
100
AcDbEntity
  8
実形
 62
     0
370
    18
100
AcDbLine
 10
1642.770210499882
 20
1104.178460662066
 30
0.0
 11
1642.770210499882
 21
974.5052716017053
 31
0.0
  0
LINE
  5
7F25
330
7F21
100
AcDbEntity
  8
実形
 62
     0
370
    18
100
AcDbLine
 10
852.7702104998825
 20
974.5052716017053
 30
0.0
 11
1632.770210499882
 21
974.5052716017053
 31
0.0
  0
INSERT
  5
7F26
330
7F21
100
AcDbEntity
  8
実形
 62
     0
370
    18
100
AcDbBlockReference
  2
_Dot
 10
842.7702104998825
 20
974.5052716017053
 30
0.0
 41
10.0
 42
10.0
 43
10.0
 50
180.0
  0
INSERT
  5
7F27
330
7F21
100
AcDbEntity
  8
実形
 62
     0
370
    18
100
AcDbBlockReference
  2
_Dot
 10
1642.770210499882
 20
974.5052716017053
 30
0.0
 41
10.0
 42
10.0
 43
10.0
  0
MTEXT
  5
7F28
330
7F21
100
AcDbEntity
  8
実形
 62
     0
100
AcDbMText
 10
1242.770210499882
 20
993.6052716017053
 30
0.0
 40
25.0
 41
0.0
 71
     5
 72
     1
  1
800
 73
     1
 44
1.0
1001
ACAD
1000
MTEXTBEGIN
1070
    73
1070
     1
1070
    44
1040
1.0
1070
    74
1070
     0
1000
MTEXTEND
  0
POINT
  5
7F29
330
7F21
100
AcDbEntity
  8
Defpoints
 62
     0
100
AcDbPoint
 10
842.7702104998825
 20
1169.178460662066
 30
0.0
  0
POINT
  5
7F2A
330
7F21
100
AcDbEntity
  8
Defpoints
 62
     0
100
AcDbPoint
 10
1642.770210499882
 20
1169.178460662066
 30
0.0
  0
POINT
  5
7F2B
330
7F21
100
AcDbEntity
  8
Defpoints
 62
     0
100
AcDbPoint
 10
1642.770210499882
 20
974.5052716017053
 30
0.0
  0
ENDBLK
  5
7F2C
330
7F21
100
AcDbEntity
  8
0
 62
     3
100
AcDbBlockEnd
  0
BLOCK
  5
7F2E
330
7F2D
100
AcDbEntity
  8
0
 62
     3
100
AcDbBlockBegin
  2
*D22
 70
     1
 10
0.0
 20
0.0
 30
0.0
  3
*D22
  1

  0
LINE
  5
7F2F
330
7F2D
100
AcDbEntity
  8
実形
 62
     0
370
    18
100
AcDbLine
 10
827.7702104998825
 20
1104.178460662066
 30
0.0
 11
827.7702104998825
 21
974.5052716017053
 31
0.0
  0
LINE
  5
7F30
330
7F2D
100
AcDbEntity
  8
実形
 62
     0
370
    18
100
AcDbLine
 10
1657.770210499882
 20
1104.178460662066
 30
0.0
 11
1657.770210499882
 21
974.5052716017053
 31
0.0
  0
LINE
  5
7F31
330
7F2D
100
AcDbEntity
  8
実形
 62
     0
370
    18
100
AcDbLine
 10
837.7702104998824
 20
974.5052716017053
 30
0.0
 11
1647.770210499882
 21
974.5052716017053
 31
0.0
  0
MTEXT
  5
7F32
330
7F2D
100
AcDbEntity
  8
実形
 62
     0
100
AcDbMText
 10
1701.559743854428
 20
996.1052716017052
 30
0.0
 40
25.0
 41
0.0
 71
     5
 72
     1
  1
15
 73
     1
 44
1.0
1001
ACAD
1000
MTEXTBEGIN
1070
    73
1070
     1
1070
    44
1040
1.0
1070
    74
1070
     0
1000
MTEXTEND
  0
INSERT
  5
7F33
330
7F2D
100
AcDbEntity
  8
実形
 62
     0
370
    18
100
AcDbBlockReference
  2
_Dot
 10
827.7702104998825
 20
974.5052716017053
 30
0.0
 41
10.0
 42
10.0
 43
10.0
 50
180.0
  0
INSERT
  5
7F34
330
7F2D
100
AcDbEntity
  8
実形
 62
     0
370
    18
100
AcDbBlockReference
  2
_Dot
 10
1657.770210499882
 20
974.5052716017053
 30
0.0
 41
10.0
 42
10.0
 43
10.0
  0
POINT
  5
7F35
330
7F2D
100
AcDbEntity
  8
Defpoints
 62
     0
100
AcDbPoint
 10
827.7702104998825
 20
1169.178460662066
 30
0.0
  0
POINT
  5
7F36
330
7F2D
100
AcDbEntity
  8
Defpoints
 62
     0
100
AcDbPoint
 10
1657.770210499882
 20
1169.178460662066
 30
0.0
  0
POINT
  5
7F37
330
7F2D
100
AcDbEntity
  8
Defpoints
 62
     0
100
AcDbPoint
 10
1657.770210499882
 20
974.5052716017053
 30
0.0
  0
ENDBLK
  5
7F38
330
7F2D
100
AcDbEntity
  8
0
 62
     3
100
AcDbBlockEnd
  0
BLOCK
  5
7F3A
330
7F39
100
AcDbEntity
  8
0
 62
     3
100
AcDbBlockBegin
  2
*D23
 70
     1
 10
0.0
 20
0.0
 30
0.0
  3
*D23
  1

  0
LINE
  5
7F3B
330
7F39
100
AcDbEntity
  8
実形
 62
     0
370
    18
100
AcDbLine
 10
827.7702104998825
 20
1104.178460662066
 30
0.0
 11
827.7702104998825
 21
901.2836911315535
 31
0.0
  0
LINE
  5
7F3C
330
7F39
100
AcDbEntity
  8
実形
 62
     0
370
    18
100
AcDbLine
 10
1657.770210499882
 20
1104.178460662066
 30
0.0
 11
1657.770210499882
 21
901.2836911315535
 31
0.0
  0
LINE
  5
7F3D
330
7F39
100
AcDbEntity
  8
実形
 62
     0
370
    18
100
AcDbLine
 10
837.7702104998824
 20
901.2836911315535
 30
0.0
 11
1647.770210499882
 21
901.2836911315535
 31
0.0
  0
INSERT
  5
7F3E
330
7F39
100
AcDbEntity
  8
実形
 62
     0
370
    18
100
AcDbBlockReference
  2
_Dot
 10
827.7702104998825
 20
901.2836911315535
 30
0.0
 41
10.0
 42
10.0
 43
10.0
 50
180.0
  0
INSERT
  5
7F3F
330
7F39
100
AcDbEntity
  8
実形
 62
     0
370
    18
100
AcDbBlockReference
  2
_Dot
 10
1657.770210499882
 20
901.2836911315535
 30
0.0
 41
10.0
 42
10.0
 43
10.0
  0
MTEXT
  5
7F40
330
7F39
100
AcDbEntity
  8
実形
 62
     0
100
AcDbMText
 10
1242.770210499882
 20
920.3836911315535
 30
0.0
 40
25.0
 41
0.0
 71
     5
 72
     1
  1
830
 73
     1
 44
1.0
1001
ACAD
1000
MTEXTBEGIN
1070
    73
1070
     1
1070
    44
1040
1.0
1070
    74
1070
     0
1000
MTEXTEND
  0
POINT
  5
7F41
330
7F39
100
AcDbEntity
  8
Defpoints
 62
     0
100
AcDbPoint
 10
827.7702104998825
 20
1169.178460662066
 30
0.0
  0
POINT
  5
7F42
330
7F39
100
AcDbEntity
  8
Defpoints
 62
     0
100
AcDbPoint
 10
1657.770210499882
 20
1169.178460662066
 30
0.0
  0
POINT
  5
7F43
330
7F39
100
AcDbEntity
  8
Defpoints
 62
     0
100
AcDbPoint
 10
1657.770210499882
 20
901.2836911315535
 30
0.0
  0
ENDBLK
  5
7F44
330
7F39
100
AcDbEntity
  8
0
 62
     3
100
AcDbBlockEnd
  0
BLOCK
  5
7F46
330
7F45
100
AcDbEntity
  8
0
 62
     3
100
AcDbBlockBegin
  2
*D24
 70
     1
 10
0.0
 20
0.0
 30
0.0
  3
*D24
  1

  0
LINE
  5
7F47
330
7F45
100
AcDbEntity
  8
実形
 62
     0
370
    18
100
AcDbLine
 10
852.0693431839134
 20
-167.3860966284574
 30
0.0
 11
797.3710940401326
 21
-167.3860966284573
 31
0.0
  0
LINE
  5
7F48
330
7F45
100
AcDbEntity
  8
実形
 62
     0
370
    18
100
AcDbLine
 10
852.0693431839132
 20
-367.3860966284573
 30
0.0
 11
797.3710940401324
 21
-367.3860966284573
 31
0.0
  0
LINE
  5
7F49
330
7F45
100
AcDbEntity
  8
実形
 62
     0
370
    18
100
AcDbLine
 10
797.3710940401326
 20
-177.3860966284573
 30
0.0
 11
797.3710940401324
 21
-357.3860966284573
 31
0.0
  0
INSERT
  5
7F4A
330
7F45
100
AcDbEntity
  8
実形
 62
     0
370
    18
100
AcDbBlockReference
  2
_Dot
 10
797.3710940401326
 20
-167.3860966284573
 30
0.0
 41
10.0
 42
10.0
 43
10.0
 50
90.0
  0
INSERT
  5
7F4B
330
7F45
100
AcDbEntity
  8
実形
 62
     0
370
    18
100
AcDbBlockReference
  2
_Dot
 10
797.3710940401324
 20
-367.3860966284573
 30
0.0
 41
10.0
 42
10.0
 43
10.0
 50
270.0
  0
MTEXT
  5
7F4C
330
7F45
100
AcDbEntity
  8
実形
 62
     0
100
AcDbMText
 10
778.2710940401325
 20
-267.3860966284572
 30
0.0
 40
25.0
 41
0.0
 71
     5
 72
     1
  1
200
 11
0.0000000000000001
 21
1.0
 31
0.0
 73
     1
 44
1.0
1001
ACAD
1000
MTEXTBEGIN
1070
    73
1070
     1
1070
    44
1040
1.0
1070
    74
1070
     0
1000
MTEXTEND
  0
POINT
  5
7F4D
330
7F45
100
AcDbEntity
  8
Defpoints
 62
     0
100
AcDbPoint
 10
917.0693431839135
 20
-167.3860966284574
 30
0.0
  0
POINT
  5
7F4E
330
7F45
100
AcDbEntity
  8
Defpoints
 62
     0
100
AcDbPoint
 10
917.0693431839133
 20
-367.3860966284574
 30
0.0
  0
POINT
  5
7F4F
330
7F45
100
AcDbEntity
  8
Defpoints
 62
     0
100
AcDbPoint
 10
797.3710940401324
 20
-367.3860966284573
 30
0.0
  0
ENDBLK
  5
7F50
330
7F45
100
AcDbEntity
  8
0
 62
     3
100
AcDbBlockEnd
  0
BLOCK
  5
7F52
330
7F51
100
AcDbEntity
  8
0
 62
     3
100
AcDbBlockBegin
  2
*D25
 70
     1
 10
0.0
 20
0.0
 30
0.0
  3
*D25
  1

  0
LINE
  5
7F53
330
7F51
100
AcDbEntity
  8
実形
 62
     0
370
    18
100
AcDbLine
 10
852.0693431839136
 20
-152.3860966284574
 30
0.0
 11
797.3710940401326
 21
-152.3860966284573
 31
0.0
  0
LINE
  5
7F54
330
7F51
100
AcDbEntity
  8
実形
 62
     0
370
    18
100
AcDbLine
 10
852.0693431839136
 20
-382.3860966284573
 30
0.0
 11
797.3710940401324
 21
-382.3860966284573
 31
0.0
  0
LINE
  5
7F55
330
7F51
100
AcDbEntity
  8
実形
 62
     0
370
    18
100
AcDbLine
 10
797.3710940401326
 20
-162.3860966284573
 30
0.0
 11
797.3710940401324
 21
-372.3860966284573
 31
0.0
  0
MTEXT
  5
7F56
330
7F51
100
AcDbEntity
  8
実形
 62
     0
100
AcDbMText
 10
775.7710940401323
 20
-176.4675834353729
 30
0.0
 40
25.0
 41
0.0
 71
     5
 72
     1
  1
15
 11
0.0000000000000001
 21
1.0
 31
0.0
 73
     1
 44
1.0
1001
ACAD
1000
MTEXTBEGIN
1070
    73
1070
     1
1070
    44
1040
1.0
1070
    74
1070
     0
1000
MTEXTEND
  0
INSERT
  5
7F57
330
7F51
100
AcDbEntity
  8
実形
 62
     0
370
    18
100
AcDbBlockReference
  2
_Dot
 10
797.3710940401326
 20
-152.3860966284573
 30
0.0
 41
10.0
 42
10.0
 43
10.0
 50
90.0
  0
INSERT
  5
7F58
330
7F51
100
AcDbEntity
  8
実形
 62
     0
370
    18
100
AcDbBlockReference
  2
_Dot
 10
797.3710940401324
 20
-382.3860966284573
 30
0.0
 41
10.0
 42
10.0
 43
10.0
 50
270.0
  0
POINT
  5
7F59
330
7F51
100
AcDbEntity
  8
Defpoints
 62
     0
100
AcDbPoint
 10
917.0693431839136
 20
-152.3860966284574
 30
0.0
  0
POINT
  5
7F5A
330
7F51
100
AcDbEntity
  8
Defpoints
 62
     0
100
AcDbPoint
 10
917.0693431839136
 20
-382.3860966284574
 30
0.0
  0
POINT
  5
7F5B
330
7F51
100
AcDbEntity
  8
Defpoints
 62
     0
100
AcDbPoint
 10
797.3710940401324
 20
-382.3860966284573
 30
0.0
  0
ENDBLK
  5
7F5C
330
7F51
100
AcDbEntity
  8
0
 62
     3
100
AcDbBlockEnd
  0
BLOCK
  5
7F5E
330
7F5D
100
AcDbEntity
  8
0
 62
     3
100
AcDbBlockBegin
  2
*D26
 70
     1
 10
0.0
 20
0.0
 30
0.0
  3
*D26
  1

  0
LINE
  5
7F5F
330
7F5D
100
AcDbEntity
  8
実形
 62
     0
370
    18
100
AcDbLine
 10
852.0693431839136
 20
-392.3860966284573
 30
0.0
 11
797.3710940401323
 21
-392.3860966284573
 31
0.0
  0
LINE
  5
7F60
330
7F5D
100
AcDbEntity
  8
実形
 62
     0
370
    18
100
AcDbLine
 10
852.0693431839136
 20
-152.3860966284574
 30
0.0
 11
797.3710940401324
 21
-152.3860966284573
 31
0.0
  0
LINE
  5
7F61
330
7F5D
100
AcDbEntity
  8
実形
 62
     0
370
    18
100
AcDbLine
 10
797.3710940401323
 20
-382.3860966284573
 30
0.0
 11
797.3710940401324
 21
-162.3860966284573
 31
0.0
  0
MTEXT
  5
7F62
330
7F5D
100
AcDbEntity
  8
実形
 62
     0
100
AcDbMText
 10
830.355261679284
 20
-411.1966776303161
 30
0.0
 40
25.0
 41
0.0
 71
     5
 72
     1
  1
8
 11
0.0000000000000001
 21
1.0
 31
0.0
 73
     1
 44
1.0
1001
ACAD
1000
MTEXTBEGIN
1070
    73
1070
     1
1070
    44
1040
1.0
1070
    74
1070
     0
1000
MTEXTEND
  0
INSERT
  5
7F63
330
7F5D
100
AcDbEntity
  8
実形
 62
     0
370
    18
100
AcDbBlockReference
  2
_Dot
 10
797.3710940401323
 20
-392.3860966284573
 30
0.0
 41
10.0
 42
10.0
 43
10.0
 50
270.0
  0
INSERT
  5
7F64
330
7F5D
100
AcDbEntity
  8
実形
 62
     0
370
    18
100
AcDbBlockReference
  2
_Dot
 10
797.3710940401324
 20
-152.3860966284573
 30
0.0
 41
10.0
 42
10.0
 43
10.0
 50
90.0
  0
POINT
  5
7F65
330
7F5D
100
AcDbEntity
  8
Defpoints
 62
     0
100
AcDbPoint
 10
917.0693431839136
 20
-392.3860966284574
 30
0.0
  0
POINT
  5
7F66
330
7F5D
100
AcDbEntity
  8
Defpoints
 62
     0
100
AcDbPoint
 10
917.0693431839136
 20
-152.3860966284574
 30
0.0
  0
POINT
  5
7F67
330
7F5D
100
AcDbEntity
  8
Defpoints
 62
     0
100
AcDbPoint
 10
797.3710940401324
 20
-152.3860966284573
 30
0.0
  0
ENDBLK
  5
7F68
330
7F5D
100
AcDbEntity
  8
0
 62
     3
100
AcDbBlockEnd
  0
BLOCK
  5
7F6A
330
7F69
100
AcDbEntity
  8
0
 62
     3
100
AcDbBlockBegin
  2
*D27
 70
     1
 10
0.0
 20
0.0
 30
0.0
  3
*D27
  1

  0
LINE
  5
7F6B
330
7F69
100
AcDbEntity
  8
実形
 62
     0
370
    18
100
AcDbLine
 10
852.0693431839136
 20
-152.3860966284574
 30
0.0
 11
727.6013470322833
 21
-152.3860966284573
 31
0.0
  0
LINE
  5
7F6C
330
7F69
100
AcDbEntity
  8
実形
 62
     0
370
    18
100
AcDbLine
 10
852.0693431839134
 20
-382.3860966284573
 30
0.0
 11
727.6013470322832
 21
-382.3860966284573
 31
0.0
  0
LINE
  5
7F6D
330
7F69
100
AcDbEntity
  8
実形
 62
     0
370
    18
100
AcDbLine
 10
727.6013470322833
 20
-162.3860966284573
 30
0.0
 11
727.6013470322832
 21
-372.3860966284573
 31
0.0
  0
INSERT
  5
7F6E
330
7F69
100
AcDbEntity
  8
実形
 62
     0
370
    18
100
AcDbBlockReference
  2
_Dot
 10
727.6013470322833
 20
-152.3860966284573
 30
0.0
 41
10.0
 42
10.0
 43
10.0
 50
90.0
  0
INSERT
  5
7F6F
330
7F69
100
AcDbEntity
  8
実形
 62
     0
370
    18
100
AcDbBlockReference
  2
_Dot
 10
727.6013470322832
 20
-382.3860966284573
 30
0.0
 41
10.0
 42
10.0
 43
10.0
 50
270.0
  0
MTEXT
  5
7F70
330
7F69
100
AcDbEntity
  8
実形
 62
     0
100
AcDbMText
 10
708.5013470322833
 20
-267.3860966284572
 30
0.0
 40
25.0
 41
0.0
 71
     5
 72
     1
  1
230
 11
0.0000000000000001
 21
1.0
 31
0.0
 73
     1
 44
1.0
1001
ACAD
1000
MTEXTBEGIN
1070
    73
1070
     1
1070
    44
1040
1.0
1070
    74
1070
     0
1000
MTEXTEND
  0
POINT
  5
7F71
330
7F69
100
AcDbEntity
  8
Defpoints
 62
     0
100
AcDbPoint
 10
917.0693431839136
 20
-152.3860966284574
 30
0.0
  0
POINT
  5
7F72
330
7F69
100
AcDbEntity
  8
Defpoints
 62
     0
100
AcDbPoint
 10
917.0693431839135
 20
-382.3860966284574
 30
0.0
  0
POINT
  5
7F73
330
7F69
100
AcDbEntity
  8
Defpoints
 62
     0
100
AcDbPoint
 10
727.6013470322832
 20
-382.3860966284573
 30
0.0
  0
ENDBLK
  5
7F74
330
7F69
100
AcDbEntity
  8
0
 62
     3
100
AcDbBlockEnd
  0
BLOCK
  5
7F76
330
7F75
100
AcDbEntity
  8
0
 62
     3
100
AcDbBlockBegin
  2
*D28
 70
     1
 10
0.0
 20
0.0
 30
0.0
  3
*D28
  1

  0
LINE
  5
7F77
330
7F75
100
AcDbEntity
  8
実形
 62
     0
370
    18
100
AcDbLine
 10
728.6814961412001
 20
-152.3860966284574
 30
0.0
 11
660.6927293655045
 21
-152.3860966284573
 31
0.0
  0
LINE
  5
7F78
330
7F75
100
AcDbEntity
  8
実形
 62
     0
370
    18
100
AcDbLine
 10
728.6814961412
 20
-392.3860966284574
 30
0.0
 11
660.6927293655044
 21
-392.3860966284574
 31
0.0
  0
LINE
  5
7F79
330
7F75
100
AcDbEntity
  8
実形
 62
     0
370
    18
100
AcDbLine
 10
660.6927293655045
 20
-162.3860966284573
 30
0.0
 11
660.6927293655044
 21
-382.3860966284574
 31
0.0
  0
INSERT
  5
7F7A
330
7F75
100
AcDbEntity
  8
実形
 62
     0
370
    18
100
AcDbBlockReference
  2
_Dot
 10
660.6927293655045
 20
-152.3860966284573
 30
0.0
 41
10.0
 42
10.0
 43
10.0
 50
90.0
  0
INSERT
  5
7F7B
330
7F75
100
AcDbEntity
  8
実形
 62
     0
370
    18
100
AcDbBlockReference
  2
_Dot
 10
660.6927293655044
 20
-392.3860966284574
 30
0.0
 41
10.0
 42
10.0
 43
10.0
 50
270.0
  0
MTEXT
  5
7F7C
330
7F75
100
AcDbEntity
  8
実形
 62
     0
100
AcDbMText
 10
641.5927293655045
 20
-272.3860966284572
 30
0.0
 40
25.0
 41
0.0
 71
     5
 72
     1
  1
238
 11
0.0000000000000001
 21
1.0
 31
0.0
 73
     1
 44
1.0
1001
ACAD
1000
MTEXTBEGIN
1070
    73
1070
     1
1070
    44
1040
1.0
1070
    74
1070
     0
1000
MTEXTEND
  0
POINT
  5
7F7D
330
7F75
100
AcDbEntity
  8
Defpoints
 62
     0
100
AcDbPoint
 10
793.6814961412001
 20
-152.3860966284574
 30
0.0
  0
POINT
  5
7F7E
330
7F75
100
AcDbEntity
  8
Defpoints
 62
     0
100
AcDbPoint
 10
793.6814961411999
 20
-392.3860966284574
 30
0.0
  0
POINT
  5
7F7F
330
7F75
100
AcDbEntity
  8
Defpoints
 62
     0
100
AcDbPoint
 10
660.6927293655044
 20
-392.3860966284574
 30
0.0
  0
ENDBLK
  5
7F80
330
7F75
100
AcDbEntity
  8
0
 62
     3
100
AcDbBlockEnd
  0
BLOCK
  5
7F82
330
7F81
100
AcDbEntity
  8
0
 62
     3
100
AcDbBlockBegin
  2
*D29
 70
     1
 10
0.0
 20
0.0
 30
0.0
  3
*D29
  1

  0
LINE
  5
7F83
330
7F81
100
AcDbEntity
  8
実形
 62
     0
370
    18
100
AcDbLine
 10
1022.069343183913
 20
-457.3860966284574
 30
0.0
 11
1022.069343183913
 21
-509.3026951643151
 31
0.0
  0
LINE
  5
7F84
330
7F81
100
AcDbEntity
  8
実形
 62
     0
370
    18
100
AcDbLine
 10
1182.069343183914
 20
-457.3860966284574
 30
0.0
 11
1182.069343183914
 21
-509.3026951643151
 31
0.0
  0
LINE
  5
7F85
330
7F81
100
AcDbEntity
  8
実形
 62
     0
370
    18
100
AcDbLine
 10
1032.069343183913
 20
-509.3026951643151
 30
0.0
 11
1172.069343183913
 21
-509.3026951643151
 31
0.0
  0
INSERT
  5
7F86
330
7F81
100
AcDbEntity
  8
実形
 62
     0
370
    18
100
AcDbBlockReference
  2
_Dot
 10
1022.069343183913
 20
-509.3026951643151
 30
0.0
 41
10.0
 42
10.0
 43
10.0
 50
180.0
  0
INSERT
  5
7F87
330
7F81
100
AcDbEntity
  8
実形
 62
     0
370
    18
100
AcDbBlockReference
  2
_Dot
 10
1182.069343183914
 20
-509.3026951643151
 30
0.0
 41
10.0
 42
10.0
 43
10.0
  0
MTEXT
  5
7F88
330
7F81
100
AcDbEntity
  8
実形
 62
     0
100
AcDbMText
 10
1102.069343183913
 20
-490.202695164315
 30
0.0
 40
25.0
 41
0.0
 71
     5
 72
     1
  1
160
 73
     1
 44
1.0
1001
ACAD
1000
MTEXTBEGIN
1070
    73
1070
     1
1070
    44
1040
1.0
1070
    74
1070
     0
1000
MTEXTEND
  0
POINT
  5
7F89
330
7F81
100
AcDbEntity
  8
Defpoints
 62
     0
100
AcDbPoint
 10
1022.069343183913
 20
-392.3860966284575
 30
0.0
  0
POINT
  5
7F8A
330
7F81
100
AcDbEntity
  8
Defpoints
 62
     0
100
AcDbPoint
 10
1182.069343183914
 20
-392.3860966284575
 30
0.0
  0
POINT
  5
7F8B
330
7F81
100
AcDbEntity
  8
Defpoints
 62
     0
100
AcDbPoint
 10
1182.069343183914
 20
-509.3026951643151
 30
0.0
  0
ENDBLK
  5
7F8C
330
7F81
100
AcDbEntity
  8
0
 62
     3
100
AcDbBlockEnd
  0
BLOCK
  5
7F8E
330
7F8D
100
AcDbEntity
  8
0
 62
     3
100
AcDbBlockBegin
  2
*D30
 70
     1
 10
0.0
 20
0.0
 30
0.0
  3
*D30
  1

  0
LINE
  5
7F8F
330
7F8D
100
AcDbEntity
  8
実形
 62
     0
370
    18
100
AcDbLine
 10
1011.569343183913
 20
-457.3860966284574
 30
0.0
 11
1011.569343183913
 21
-580.5449919795919
 31
0.0
  0
LINE
  5
7F90
330
7F8D
100
AcDbEntity
  8
実形
 62
     0
370
    18
100
AcDbLine
 10
1192.569343183913
 20
-457.3860966284616
 30
0.0
 11
1192.569343183913
 21
-580.5449919795919
 31
0.0
  0
LINE
  5
7F91
330
7F8D
100
AcDbEntity
  8
実形
 62
     0
370
    18
100
AcDbLine
 10
1021.569343183913
 20
-580.5449919795919
 30
0.0
 11
1182.569343183913
 21
-580.5449919795919
 31
0.0
  0
INSERT
  5
7F92
330
7F8D
100
AcDbEntity
  8
実形
 62
     0
370
    18
100
AcDbBlockReference
  2
_Dot
 10
1011.569343183913
 20
-580.5449919795919
 30
0.0
 41
10.0
 42
10.0
 43
10.0
 50
180.0
  0
INSERT
  5
7F93
330
7F8D
100
AcDbEntity
  8
実形
 62
     0
370
    18
100
AcDbBlockReference
  2
_Dot
 10
1192.569343183913
 20
-580.5449919795919
 30
0.0
 41
10.0
 42
10.0
 43
10.0
  0
MTEXT
  5
7F94
330
7F8D
100
AcDbEntity
  8
実形
 62
     0
100
AcDbMText
 10
1102.069343183913
 20
-561.4449919795919
 30
0.0
 40
25.0
 41
0.0
 71
     5
 72
     1
  1
181
 73
     1
 44
1.0
1001
ACAD
1000
MTEXTBEGIN
1070
    73
1070
     1
1070
    44
1040
1.0
1070
    74
1070
     0
1000
MTEXTEND
  0
POINT
  5
7F95
330
7F8D
100
AcDbEntity
  8
Defpoints
 62
     0
100
AcDbPoint
 10
1011.569343183913
 20
-392.3860966284575
 30
0.0
  0
POINT
  5
7F96
330
7F8D
100
AcDbEntity
  8
Defpoints
 62
     0
100
AcDbPoint
 10
1192.569343183913
 20
-392.3860966284617
 30
0.0
  0
POINT
  5
7F97
330
7F8D
100
AcDbEntity
  8
Defpoints
 62
     0
100
AcDbPoint
 10
1192.569343183913
 20
-580.5449919795919
 30
0.0
  0
ENDBLK
  5
7F98
330
7F8D
100
AcDbEntity
  8
0
 62
     3
100
AcDbBlockEnd
  0
BLOCK
  5
7F9A
330
7F99
100
AcDbEntity
  8
0
 62
     3
100
AcDbBlockBegin
  2
*D31
 70
     1
 10
0.0
 20
0.0
 30
0.0
  3
*D31
  1

  0
LINE
  5
7F9B
330
7F99
100
AcDbEntity
  8
実形
 62
     0
370
    18
100
AcDbLine
 10
1094.538117598124
 20
1554.178460662066
 30
0.0
 11
1043.45634594854
 21
1554.178460662066
 31
0.0
  0
LINE
  5
7F9C
330
7F99
100
AcDbEntity
  8
実形
 62
     0
370
    18
100
AcDbLine
 10
1091.209930106677
 20
1404.178460662066
 30
0.0
 11
1043.456345948539
 21
1404.178460662066
 31
0.0
  0
LINE
  5
7F9D
330
7F99
100
AcDbEntity
  8
実形
 62
     0
370
    18
100
AcDbLine
 10
1043.45634594854
 20
1544.178460662066
 30
0.0
 11
1043.456345948539
 21
1414.178460662066
 31
0.0
  0
INSERT
  5
7F9E
330
7F99
100
AcDbEntity
  8
実形
 62
     0
370
    18
100
AcDbBlockReference
  2
_Dot
 10
1043.45634594854
 20
1554.178460662066
 30
0.0
 41
10.0
 42
10.0
 43
10.0
 50
90.0
  0
INSERT
  5
7F9F
330
7F99
100
AcDbEntity
  8
実形
 62
     0
370
    18
100
AcDbBlockReference
  2
_Dot
 10
1043.456345948539
 20
1404.178460662066
 30
0.0
 41
10.0
 42
10.0
 43
10.0
 50
270.0
  0
MTEXT
  5
7FA0
330
7F99
100
AcDbEntity
  8
実形
 62
     0
100
AcDbMText
 10
1021.856345948539
 20
1479.178460662066
 30
0.0
 40
30.0
 41
0.0
 71
     5
 72
     1
  1
150
 11
0.0000000000000001
 21
1.0
 31
0.0
 73
     1
 44
1.0
1001
ACAD
1000
MTEXTBEGIN
1070
    73
1070
     1
1070
    44
1040
1.0
1070
    74
1070
     0
1000
MTEXTEND
  0
POINT
  5
7FA1
330
7F99
100
AcDbEntity
  8
Defpoints
 62
     0
100
AcDbPoint
 10
1159.538117598124
 20
1554.178460662066
 30
0.0
  0
POINT
  5
7FA2
330
7F99
100
AcDbEntity
  8
Defpoints
 62
     0
100
AcDbPoint
 10
1156.209930106677
 20
1404.178460662066
 30
0.0
  0
POINT
  5
7FA3
330
7F99
100
AcDbEntity
  8
Defpoints
 62
     0
100
AcDbPoint
 10
1043.456345948539
 20
1404.178460662066
 30
0.0
  0
ENDBLK
  5
7FA4
330
7F99
100
AcDbEntity
  8
0
 62
     3
100
AcDbBlockEnd
  0
BLOCK
  5
7FA6
330
7FA5
100
AcDbEntity
  8
0
 62
     3
100
AcDbBlockBegin
  2
*D32
 70
     1
 10
0.0
 20
0.0
 30
0.0
  3
*D32
  1

  0
LINE
  5
7FA7
330
7FA5
100
AcDbEntity
  8
実形
 62
     0
370
    18
100
AcDbLine
 10
1242.770210499882
 20
1300.740901717254
 30
0.0
 11
1242.770210499882
 21
1270.994834284402
 31
0.0
  0
LINE
  5
7FA8
330
7FA5
100
AcDbEntity
  8
実形
 62
     0
370
    18
100
AcDbLine
 10
1622.770210499882
 20
1300.740901717254
 30
0.0
 11
1622.770210499882
 21
1270.994834284402
 31
0.0
  0
LINE
  5
7FA9
330
7FA5
100
AcDbEntity
  8
実形
 62
     0
370
    18
100
AcDbLine
 10
1252.770210499882
 20
1270.994834284402
 30
0.0
 11
1612.770210499882
 21
1270.994834284402
 31
0.0
  0
INSERT
  5
7FAA
330
7FA5
100
AcDbEntity
  8
実形
 62
     0
370
    18
100
AcDbBlockReference
  2
_Dot
 10
1242.770210499882
 20
1270.994834284402
 30
0.0
 41
10.0
 42
10.0
 43
10.0
 50
180.0
  0
INSERT
  5
7FAB
330
7FA5
100
AcDbEntity
  8
実形
 62
     0
370
    18
100
AcDbBlockReference
  2
_Dot
 10
1622.770210499882
 20
1270.994834284402
 30
0.0
 41
10.0
 42
10.0
 43
10.0
  0
MTEXT
  5
7FAC
330
7FA5
100
AcDbEntity
  8
実形
 62
     0
100
AcDbMText
 10
1432.770210499882
 20
1292.594834284402
 30
0.0
 40
30.0
 41
0.0
 71
     5
 72
     1
  1
380
 73
     1
 44
1.0
1001
ACAD
1000
MTEXTBEGIN
1070
    73
1070
     1
1070
    44
1040
1.0
1070
    74
1070
     0
1000
MTEXTEND
  0
POINT
  5
7FAD
330
7FA5
100
AcDbEntity
  8
Defpoints
 62
     0
100
AcDbPoint
 10
1242.770210499882
 20
1365.740901717254
 30
0.0
  0
POINT
  5
7FAE
330
7FA5
100
AcDbEntity
  8
Defpoints
 62
     0
100
AcDbPoint
 10
1622.770210499882
 20
1365.740901717254
 30
0.0
  0
POINT
  5
7FAF
330
7FA5
100
AcDbEntity
  8
Defpoints
 62
     0
100
AcDbPoint
 10
1622.770210499882
 20
1270.994834284402
 30
0.0
  0
ENDBLK
  5
7FB0
330
7FA5
100
AcDbEntity
  8
0
 62
     3
100
AcDbBlockEnd
  0
BLOCK
  5
7FB2
330
7FB1
100
AcDbEntity
  8
0
 62
     3
100
AcDbBlockBegin
  2
*D33
 70
     1
 10
0.0
 20
0.0
 30
0.0
  3
*D33
  1

  0
LINE
  5
7FB3
330
7FB1
100
AcDbEntity
  8
実形
 62
     0
370
    18
100
AcDbLine
 10
842.7702104998823
 20
1689.178460662066
 30
0.0
 11
842.7702104998823
 21
1735.385472702717
 31
0.0
  0
LINE
  5
7FB4
330
7FB1
100
AcDbEntity
  8
実形
 62
     0
370
    18
100
AcDbLine
 10
1092.770210499882
 20
1689.178460662066
 30
0.0
 11
1092.770210499882
 21
1735.385472702717
 31
0.0
  0
LINE
  5
7FB5
330
7FB1
100
AcDbEntity
  8
実形
 62
     0
370
    18
100
AcDbLine
 10
852.7702104998823
 20
1735.385472702717
 30
0.0
 11
1082.770210499882
 21
1735.385472702717
 31
0.0
  0
INSERT
  5
7FB6
330
7FB1
100
AcDbEntity
  8
実形
 62
     0
370
    18
100
AcDbBlockReference
  2
_Dot
 10
842.7702104998823
 20
1735.385472702717
 30
0.0
 41
10.0
 42
10.0
 43
10.0
 50
180.0
  0
INSERT
  5
7FB7
330
7FB1
100
AcDbEntity
  8
実形
 62
     0
370
    18
100
AcDbBlockReference
  2
_Dot
 10
1092.770210499882
 20
1735.385472702717
 30
0.0
 41
10.0
 42
10.0
 43
10.0
  0
MTEXT
  5
7FB8
330
7FB1
100
AcDbEntity
  8
実形
 62
     0
100
AcDbMText
 10
967.7702104998825
 20
1754.485472702717
 30
0.0
 40
25.0
 41
0.0
 71
     5
 72
     1
  1
250
 73
     1
 44
1.0
1001
ACAD
1000
MTEXTBEGIN
1070
    73
1070
     1
1070
    44
1040
1.0
1070
    74
1070
     0
1000
MTEXTEND
  0
POINT
  5
7FB9
330
7FB1
100
AcDbEntity
  8
Defpoints
 62
     0
100
AcDbPoint
 10
842.7702104998823
 20
1624.178460662066
 30
0.0
  0
POINT
  5
7FBA
330
7FB1
100
AcDbEntity
  8
Defpoints
 62
     0
100
AcDbPoint
 10
1092.770210499882
 20
1624.178460662066
 30
0.0
  0
POINT
  5
7FBB
330
7FB1
100
AcDbEntity
  8
Defpoints
 62
     0
100
AcDbPoint
 10
1092.770210499882
 20
1735.385472702717
 30
0.0
  0
ENDBLK
  5
7FBC
330
7FB1
100
AcDbEntity
  8
0
 62
     3
100
AcDbBlockEnd
  0
BLOCK
  5
7FBE
330
7FBD
100
AcDbEntity
  8
0
 62
     3
100
AcDbBlockBegin
  2
*D34
 70
     1
 10
0.0
 20
0.0
 30
0.0
  3
*D34
  1

  0
LINE
  5
7FBF
330
7FBD
100
AcDbEntity
  8
実形
 62
     0
370
    18
100
AcDbLine
 10
1092.770210499882
 20
1689.178460662066
 30
0.0
 11
1092.770210499882
 21
1735.385472702717
 31
0.0
  0
LINE
  5
7FC0
330
7FBD
100
AcDbEntity
  8
実形
 62
     0
370
    18
100
AcDbLine
 10
1392.770210499882
 20
1689.178460662066
 30
0.0
 11
1392.770210499882
 21
1735.385472702717
 31
0.0
  0
LINE
  5
7FC1
330
7FBD
100
AcDbEntity
  8
実形
 62
     0
370
    18
100
AcDbLine
 10
1102.770210499882
 20
1735.385472702717
 30
0.0
 11
1382.770210499882
 21
1735.385472702717
 31
0.0
  0
INSERT
  5
7FC2
330
7FBD
100
AcDbEntity
  8
実形
 62
     0
370
    18
100
AcDbBlockReference
  2
_Dot
 10
1092.770210499882
 20
1735.385472702717
 30
0.0
 41
10.0
 42
10.0
 43
10.0
 50
180.0
  0
INSERT
  5
7FC3
330
7FBD
100
AcDbEntity
  8
実形
 62
     0
370
    18
100
AcDbBlockReference
  2
_Dot
 10
1392.770210499882
 20
1735.385472702717
 30
0.0
 41
10.0
 42
10.0
 43
10.0
  0
MTEXT
  5
7FC4
330
7FBD
100
AcDbEntity
  8
実形
 62
     0
100
AcDbMText
 10
1242.770210499882
 20
1754.485472702717
 30
0.0
 40
25.0
 41
0.0
 71
     5
 72
     1
  1
300
 73
     1
 44
1.0
1001
ACAD
1000
MTEXTBEGIN
1070
    73
1070
     1
1070
    44
1040
1.0
1070
    74
1070
     0
1000
MTEXTEND
  0
POINT
  5
7FC5
330
7FBD
100
AcDbEntity
  8
Defpoints
 62
     0
100
AcDbPoint
 10
1092.770210499882
 20
1624.178460662066
 30
0.0
  0
POINT
  5
7FC6
330
7FBD
100
AcDbEntity
  8
Defpoints
 62
     0
100
AcDbPoint
 10
1392.770210499882
 20
1624.178460662066
 30
0.0
  0
POINT
  5
7FC7
330
7FBD
100
AcDbEntity
  8
Defpoints
 62
     0
100
AcDbPoint
 10
1392.770210499882
 20
1735.385472702717
 30
0.0
  0
ENDBLK
  5
7FC8
330
7FBD
100
AcDbEntity
  8
0
 62
     3
100
AcDbBlockEnd
  0
BLOCK
  5
7FCA
330
7FC9
100
AcDbEntity
  8
0
 62
     3
100
AcDbBlockBegin
  2
*D35
 70
     1
 10
0.0
 20
0.0
 30
0.0
  3
*D35
  1

  0
LINE
  5
7FCB
330
7FC9
100
AcDbEntity
  8
実形
 62
     0
370
    18
100
AcDbLine
 10
1392.770210499883
 20
1689.178460662065
 30
0.0
 11
1392.770210499883
 21
1735.385472702717
 31
0.0
  0
LINE
  5
7FCC
330
7FC9
100
AcDbEntity
  8
実形
 62
     0
370
    18
100
AcDbLine
 10
1642.770210499882
 20
1689.178460662065
 30
0.0
 11
1642.770210499882
 21
1735.385472702717
 31
0.0
  0
LINE
  5
7FCD
330
7FC9
100
AcDbEntity
  8
実形
 62
     0
370
    18
100
AcDbLine
 10
1402.770210499882
 20
1735.385472702717
 30
0.0
 11
1632.770210499882
 21
1735.385472702717
 31
0.0
  0
INSERT
  5
7FCE
330
7FC9
100
AcDbEntity
  8
実形
 62
     0
370
    18
100
AcDbBlockReference
  2
_Dot
 10
1392.770210499883
 20
1735.385472702717
 30
0.0
 41
10.0
 42
10.0
 43
10.0
 50
180.0
  0
INSERT
  5
7FCF
330
7FC9
100
AcDbEntity
  8
実形
 62
     0
370
    18
100
AcDbBlockReference
  2
_Dot
 10
1642.770210499882
 20
1735.385472702717
 30
0.0
 41
10.0
 42
10.0
 43
10.0
  0
MTEXT
  5
7FD0
330
7FC9
100
AcDbEntity
  8
実形
 62
     0
100
AcDbMText
 10
1517.770210499882
 20
1754.485472702717
 30
0.0
 40
25.0
 41
0.0
 71
     5
 72
     1
  1
250
 73
     1
 44
1.0
1001
ACAD
1000
MTEXTBEGIN
1070
    73
1070
     1
1070
    44
1040
1.0
1070
    74
1070
     0
1000
MTEXTEND
  0
POINT
  5
7FD1
330
7FC9
100
AcDbEntity
  8
Defpoints
 62
     0
100
AcDbPoint
 10
1392.770210499883
 20
1624.178460662065
 30
0.0
  0
POINT
  5
7FD2
330
7FC9
100
AcDbEntity
  8
Defpoints
 62
     0
100
AcDbPoint
 10
1642.770210499882
 20
1624.178460662065
 30
0.0
  0
POINT
  5
7FD3
330
7FC9
100
AcDbEntity
  8
Defpoints
 62
     0
100
AcDbPoint
 10
1642.770210499882
 20
1735.385472702717
 30
0.0
  0
ENDBLK
  5
7FD4
330
7FC9
100
AcDbEntity
  8
0
 62
     3
100
AcDbBlockEnd
  0
BLOCK
  5
7FD6
330
7FD5
100
AcDbEntity
  8
0
 62
     3
100
AcDbBlockBegin
  2
*D36
 70
     1
 10
0.0
 20
0.0
 30
0.0
  3
*D36
  1

  0
LINE
  5
7FD7
330
7FD5
100
AcDbEntity
  8
実形
 62
     0
370
    18
100
AcDbLine
 10
827.7702104998825
 20
1689.806458158204
 30
0.0
 11
827.7702104998825
 21
1735.385472702717
 31
0.0
  0
LINE
  5
7FD8
330
7FD5
100
AcDbEntity
  8
実形
 62
     0
370
    18
100
AcDbLine
 10
1657.770210499882
 20
1689.161761419618
 30
0.0
 11
1657.770210499882
 21
1735.385472702717
 31
0.0
  0
LINE
  5
7FD9
330
7FD5
100
AcDbEntity
  8
実形
 62
     0
370
    18
100
AcDbLine
 10
837.7702104998824
 20
1735.385472702717
 30
0.0
 11
1647.770210499882
 21
1735.385472702717
 31
0.0
  0
MTEXT
  5
7FDA
330
7FD5
100
AcDbEntity
  8
実形
 62
     0
100
AcDbMText
 10
826.3182245476109
 20
1760.370517377699
 30
0.0
 40
25.0
 41
0.0
 71
     5
 72
     1
  1
15
 73
     1
 44
1.0
1001
ACAD
1000
MTEXTBEGIN
1070
    73
1070
     1
1070
    44
1040
1.0
1070
    74
1070
     0
1000
MTEXTEND
  0
INSERT
  5
7FDB
330
7FD5
100
AcDbEntity
  8
実形
 62
     0
370
    18
100
AcDbBlockReference
  2
_Dot
 10
827.7702104998825
 20
1735.385472702717
 30
0.0
 41
10.0
 42
10.0
 43
10.0
 50
180.0
  0
INSERT
  5
7FDC
330
7FD5
100
AcDbEntity
  8
実形
 62
     0
370
    18
100
AcDbBlockReference
  2
_Dot
 10
1657.770210499882
 20
1735.385472702717
 30
0.0
 41
10.0
 42
10.0
 43
10.0
  0
POINT
  5
7FDD
330
7FD5
100
AcDbEntity
  8
Defpoints
 62
     0
100
AcDbPoint
 10
827.7702104998825
 20
1624.806458158204
 30
0.0
  0
POINT
  5
7FDE
330
7FD5
100
AcDbEntity
  8
Defpoints
 62
     0
100
AcDbPoint
 10
1657.770210499882
 20
1624.161761419618
 30
0.0
  0
POINT
  5
7FDF
330
7FD5
100
AcDbEntity
  8
Defpoints
 62
     0
100
AcDbPoint
 10
1657.770210499882
 20
1735.385472702717
 30
0.0
  0
ENDBLK
  5
7FE0
330
7FD5
100
AcDbEntity
  8
0
 62
     3
100
AcDbBlockEnd
  0
BLOCK
  5
7FE2
330
7FE1
100
AcDbEntity
  8
0
 62
     3
100
AcDbBlockBegin
  2
*D37
 70
     1
 10
0.0
 20
0.0
 30
0.0
  3
*D37
  1

  0
LINE
  5
7FE3
330
7FE1
100
AcDbEntity
  8
実形
 62
     0
370
    18
100
AcDbLine
 10
1722.770210499882
 20
1644.178460662066
 30
0.0
 11
1771.093547640549
 21
1644.178460662066
 31
0.0
  0
LINE
  5
7FE4
330
7FE1
100
AcDbEntity
  8
実形
 62
     0
370
    18
100
AcDbLine
 10
1722.770210499882
 20
1184.178460662066
 30
0.0
 11
1771.093547640548
 21
1184.178460662066
 31
0.0
  0
LINE
  5
7FE5
330
7FE1
100
AcDbEntity
  8
実形
 62
     0
370
    18
100
AcDbLine
 10
1771.093547640549
 20
1634.178460662066
 30
0.0
 11
1771.093547640548
 21
1194.178460662066
 31
0.0
  0
INSERT
  5
7FE6
330
7FE1
100
AcDbEntity
  8
実形
 62
     0
370
    18
100
AcDbBlockReference
  2
_Dot
 10
1771.093547640549
 20
1644.178460662066
 30
0.0
 41
10.0
 42
10.0
 43
10.0
 50
90.0
  0
INSERT
  5
7FE7
330
7FE1
100
AcDbEntity
  8
実形
 62
     0
370
    18
100
AcDbBlockReference
  2
_Dot
 10
1771.093547640548
 20
1184.178460662066
 30
0.0
 41
10.0
 42
10.0
 43
10.0
 50
270.0
  0
MTEXT
  5
7FE8
330
7FE1
100
AcDbEntity
  8
実形
 62
     0
100
AcDbMText
 10
1751.993547640548
 20
1414.178460662066
 30
0.0
 40
25.0
 41
0.0
 71
     5
 72
     1
  1
460
 11
0.0000000000000001
 21
1.0
 31
0.0
 73
     1
 44
1.0
1001
ACAD
1000
MTEXTBEGIN
1070
    73
1070
     1
1070
    44
1040
1.0
1070
    74
1070
     0
1000
MTEXTEND
  0
POINT
  5
7FE9
330
7FE1
100
AcDbEntity
  8
Defpoints
 62
     0
100
AcDbPoint
 10
1657.770210499882
 20
1644.178460662066
 30
0.0
  0
POINT
  5
7FEA
330
7FE1
100
AcDbEntity
  8
Defpoints
 62
     0
100
AcDbPoint
 10
1657.770210499883
 20
1184.178460662066
 30
0.0
  0
POINT
  5
7FEB
330
7FE1
100
AcDbEntity
  8
Defpoints
 62
     0
100
AcDbPoint
 10
1771.093547640548
 20
1184.178460662066
 30
0.0
  0
ENDBLK
  5
7FEC
330
7FE1
100
AcDbEntity
  8
0
 62
     3
100
AcDbBlockEnd
  0
BLOCK
  5
7FEE
330
7FED
100
AcDbEntity
  8
0
 62
     3
100
AcDbBlockBegin
  2
*D38
 70
     1
 10
0.0
 20
0.0
 30
0.0
  3
*D38
  1

  0
LINE
  5
7FEF
330
7FED
100
AcDbEntity
  8
実形
 62
     0
370
    18
100
AcDbLine
 10
1722.770210499882
 20
1659.178460662066
 30
0.0
 11
1771.093547640549
 21
1659.178460662066
 31
0.0
  0
LINE
  5
7FF0
330
7FED
100
AcDbEntity
  8
実形
 62
     0
370
    18
100
AcDbLine
 10
1722.770210499882
 20
1169.178460662066
 30
0.0
 11
1771.093547640548
 21
1169.178460662066
 31
0.0
  0
LINE
  5
7FF1
330
7FED
100
AcDbEntity
  8
実形
 62
     0
370
    18
100
AcDbLine
 10
1771.093547640549
 20
1649.178460662066
 30
0.0
 11
1771.093547640548
 21
1179.178460662066
 31
0.0
  0
MTEXT
  5
7FF2
330
7FED
100
AcDbEntity
  8
実形
 62
     0
100
AcDbMText
 10
1749.493547640548
 20
1688.725599288342
 30
0.0
 40
25.0
 41
0.0
 71
     5
 72
     1
  1
15
 11
0.0000000000000001
 21
1.0
 31
0.0
 73
     1
 44
1.0
1001
ACAD
1000
MTEXTBEGIN
1070
    73
1070
     1
1070
    44
1040
1.0
1070
    74
1070
     0
1000
MTEXTEND
  0
INSERT
  5
7FF3
330
7FED
100
AcDbEntity
  8
実形
 62
     0
370
    18
100
AcDbBlockReference
  2
_Dot
 10
1771.093547640549
 20
1659.178460662066
 30
0.0
 41
10.0
 42
10.0
 43
10.0
 50
90.0
  0
INSERT
  5
7FF4
330
7FED
100
AcDbEntity
  8
実形
 62
     0
370
    18
100
AcDbBlockReference
  2
_Dot
 10
1771.093547640548
 20
1169.178460662066
 30
0.0
 41
10.0
 42
10.0
 43
10.0
 50
270.0
  0
POINT
  5
7FF5
330
7FED
100
AcDbEntity
  8
Defpoints
 62
     0
100
AcDbPoint
 10
1657.770210499882
 20
1659.178460662066
 30
0.0
  0
POINT
  5
7FF6
330
7FED
100
AcDbEntity
  8
Defpoints
 62
     0
100
AcDbPoint
 10
1657.770210499882
 20
1169.178460662066
 30
0.0
  0
POINT
  5
7FF7
330
7FED
100
AcDbEntity
  8
Defpoints
 62
     0
100
AcDbPoint
 10
1771.093547640548
 20
1169.178460662066
 30
0.0
  0
ENDBLK
  5
7FF8
330
7FED
100
AcDbEntity
  8
0
 62
     3
100
AcDbBlockEnd
  0
BLOCK
  5
7FFA
330
7FF9
100
AcDbEntity
  8
0
 62
     3
100
AcDbBlockBegin
  2
*D39
 70
     1
 10
0.0
 20
0.0
 30
0.0
  3
*D39
  1

  0
LINE
  5
7FFB
330
7FF9
100
AcDbEntity
  8
実形
 62
     0
370
    18
100
AcDbLine
 10
1722.770210499882
 20
1659.178460662066
 30
0.0
 11
1833.118375451033
 21
1659.178460662066
 31
0.0
  0
LINE
  5
7FFC
330
7FF9
100
AcDbEntity
  8
実形
 62
     0
370
    18
100
AcDbLine
 10
1722.770210499882
 20
1169.178460662066
 30
0.0
 11
1833.118375451033
 21
1169.178460662066
 31
0.0
  0
LINE
  5
7FFD
330
7FF9
100
AcDbEntity
  8
実形
 62
     0
370
    18
100
AcDbLine
 10
1833.118375451033
 20
1649.178460662066
 30
0.0
 11
1833.118375451033
 21
1179.178460662066
 31
0.0
  0
INSERT
  5
7FFE
330
7FF9
100
AcDbEntity
  8
実形
 62
     0
370
    18
100
AcDbBlockReference
  2
_Dot
 10
1833.118375451033
 20
1659.178460662066
 30
0.0
 41
10.0
 42
10.0
 43
10.0
 50
90.0
  0
INSERT
  5
7FFF
330
7FF9
100
AcDbEntity
  8
実形
 62
     0
370
    18
100
AcDbBlockReference
  2
_Dot
 10
1833.118375451033
 20
1169.178460662066
 30
0.0
 41
10.0
 42
10.0
 43
10.0
 50
270.0
  0
MTEXT
  5
8000
330
7FF9
100
AcDbEntity
  8
実形
 62
     0
100
AcDbMText
 10
1814.018375451033
 20
1414.178460662066
 30
0.0
 40
25.0
 41
0.0
 71
     5
 72
     1
  1
490
 11
0.0000000000000001
 21
1.0
 31
0.0
 73
     1
 44
1.0
1001
ACAD
1000
MTEXTBEGIN
1070
    73
1070
     1
1070
    44
1040
1.0
1070
    74
1070
     0
1000
MTEXTEND
  0
POINT
  5
8001
330
7FF9
100
AcDbEntity
  8
Defpoints
 62
     0
100
AcDbPoint
 10
1657.770210499882
 20
1659.178460662066
 30
0.0
  0
POINT
  5
8002
330
7FF9
100
AcDbEntity
  8
Defpoints
 62
     0
100
AcDbPoint
 10
1657.770210499882
 20
1169.178460662066
 30
0.0
  0
POINT
  5
8003
330
7FF9
100
AcDbEntity
  8
Defpoints
 62
     0
100
AcDbPoint
 10
1833.118375451033
 20
1169.178460662066
 30
0.0
  0
ENDBLK
  5
8004
330
7FF9
100
AcDbEntity
  8
0
 62
     3
100
AcDbBlockEnd
  0
BLOCK
  5
8006
330
8005
100
AcDbEntity
  8
0
 62
     3
100
AcDbBlockBegin
  2
*D40
 70
     1
 10
0.0
 20
0.0
 30
0.0
  3
*D40
  1

  0
LINE
  5
8007
330
8005
100
AcDbEntity
  8
実形
 62
     0
370
    18
100
AcDbLine
 10
767.3275276276962
 20
1554.178460662066
 30
0.0
 11
738.1482502386061
 21
1554.178460662066
 31
0.0
  0
LINE
  5
8008
330
8005
100
AcDbEntity
  8
実形
 62
     0
370
    18
100
AcDbLine
 10
767.3275276276962
 20
1644.178460662066
 30
0.0
 11
738.1482502386061
 21
1644.178460662066
 31
0.0
  0
LINE
  5
8009
330
8005
100
AcDbEntity
  8
実形
 62
     0
370
    18
100
AcDbLine
 10
738.1482502386061
 20
1564.178460662066
 30
0.0
 11
738.1482502386061
 21
1634.178460662066
 31
0.0
  0
MTEXT
  5
800A
330
8005
100
AcDbEntity
  8
実形
 62
     0
100
AcDbMText
 10
715.569680847846
 20
1589.259853472391
 30
0.0
 40
25.0
 41
0.0
 71
     5
 72
     1
  1
70
 11
0.0000000000000001
 21
1.0
 31
0.0
 73
     1
 44
1.0
1001
ACAD
1000
MTEXTBEGIN
1070
    73
1070
     1
1070
    44
1040
1.0
1070
    74
1070
     0
1000
MTEXTEND
  0
INSERT
  5
800B
330
8005
100
AcDbEntity
  8
実形
 62
     0
370
    18
100
AcDbBlockReference
  2
_Dot
 10
738.1482502386061
 20
1554.178460662066
 30
0.0
 41
10.0
 42
10.0
 43
10.0
 50
270.0
  0
INSERT
  5
800C
330
8005
100
AcDbEntity
  8
実形
 62
     0
370
    18
100
AcDbBlockReference
  2
_Dot
 10
738.1482502386061
 20
1644.178460662066
 30
0.0
 41
10.0
 42
10.0
 43
10.0
 50
90.0
  0
POINT
  5
800D
330
8005
100
AcDbEntity
  8
Defpoints
 62
     0
100
AcDbPoint
 10
832.3275276276962
 20
1554.178460662066
 30
0.0
  0
POINT
  5
800E
330
8005
100
AcDbEntity
  8
Defpoints
 62
     0
100
AcDbPoint
 10
832.3275276276962
 20
1644.178460662066
 30
0.0
  0
POINT
  5
800F
330
8005
100
AcDbEntity
  8
Defpoints
 62
     0
100
AcDbPoint
 10
738.1482502386061
 20
1644.178460662066
 30
0.0
  0
ENDBLK
  5
8010
330
8005
100
AcDbEntity
  8
0
 62
     3
100
AcDbBlockEnd
  0
BLOCK
  5
8012
330
8011
100
AcDbEntity
  8
0
 62
     3
100
AcDbBlockBegin
  2
*D41
 70
     1
 10
0.0
 20
0.0
 30
0.0
  3
*D41
  1

  0
LINE
  5
8013
330
8011
100
AcDbEntity
  8
実形
 62
     0
370
    18
100
AcDbLine
 10
767.3275276276962
 20
1554.178460662066
 30
0.0
 11
738.1482502386061
 21
1554.178460662066
 31
0.0
  0
LINE
  5
8014
330
8011
100
AcDbEntity
  8
実形
 62
     0
370
    18
100
AcDbLine
 10
773.3275276276963
 20
1624.178460662066
 30
0.0
 11
738.1482502386061
 21
1624.178460662066
 31
0.0
  0
LINE
  5
8015
330
8011
100
AcDbEntity
  8
実形
 62
     0
370
    18
100
AcDbLine
 10
738.1482502386061
 20
1564.178460662066
 30
0.0
 11
738.1482502386061
 21
1614.178460662066
 31
0.0
  0
MTEXT
  5
8016
330
8011
100
AcDbEntity
  8
実形
 62
     0
100
AcDbMText
 10
801.3626707265066
 20
1625.22842009638
 30
0.0
 40
25.0
 41
0.0
 71
     5
 72
     1
  1
20
 11
0.0000000000000001
 21
1.0
 31
0.0
 73
     1
 44
1.0
1001
ACAD
1000
MTEXTBEGIN
1070
    73
1070
     1
1070
    44
1040
1.0
1070
    74
1070
     0
1000
MTEXTEND
  0
INSERT
  5
8017
330
8011
100
AcDbEntity
  8
実形
 62
     0
370
    18
100
AcDbBlockReference
  2
_Dot
 10
738.1482502386061
 20
1554.178460662066
 30
0.0
 41
10.0
 42
10.0
 43
10.0
 50
270.0
  0
INSERT
  5
8018
330
8011
100
AcDbEntity
  8
実形
 62
     0
370
    18
100
AcDbBlockReference
  2
_Dot
 10
738.1482502386061
 20
1624.178460662066
 30
0.0
 41
10.0
 42
10.0
 43
10.0
 50
90.0
  0
POINT
  5
8019
330
8011
100
AcDbEntity
  8
Defpoints
 62
     0
100
AcDbPoint
 10
832.3275276276962
 20
1554.178460662066
 30
0.0
  0
POINT
  5
801A
330
8011
100
AcDbEntity
  8
Defpoints
 62
     0
100
AcDbPoint
 10
838.3275276276963
 20
1624.178460662066
 30
0.0
  0
POINT
  5
801B
330
8011
100
AcDbEntity
  8
Defpoints
 62
     0
100
AcDbPoint
 10
738.1482502386061
 20
1624.178460662066
 30
0.0
  0
ENDBLK
  5
801C
330
8011
100
AcDbEntity
  8
0
 62
     3
100
AcDbBlockEnd
  0
BLOCK
  5
801E
330
801D
100
AcDbEntity
  8
0
 62
     3
100
AcDbBlockBegin
  2
*D42
 70
     1
 10
0.0
 20
0.0
 30
0.0
  3
*D42
  1

  0
LINE
  5
801F
330
801D
100
AcDbEntity
  8
実形
 62
     0
370
    18
100
AcDbLine
 10
735.771238858355
 20
1644.178460662066
 30
0.0
 11
672.3280192665588
 21
1644.178460662066
 31
0.0
  0
LINE
  5
8020
330
801D
100
AcDbEntity
  8
実形
 62
     0
370
    18
100
AcDbLine
 10
714.7500916428215
 20
1554.178460662066
 30
0.0
 11
672.3280192665588
 21
1554.178460662066
 31
0.0
  0
LINE
  5
8021
330
801D
100
AcDbEntity
  8
実形
 62
     0
370
    18
100
AcDbLine
 10
672.3280192665588
 20
1634.178460662066
 30
0.0
 11
672.3280192665588
 21
1564.178460662066
 31
0.0
  0
INSERT
  5
8022
330
801D
100
AcDbEntity
  8
実形
 62
     0
370
    18
100
AcDbBlockReference
  2
_Dot
 10
672.3280192665588
 20
1644.178460662066
 30
0.0
 41
10.0
 42
10.0
 43
10.0
 50
90.0
  0
INSERT
  5
8023
330
801D
100
AcDbEntity
  8
実形
 62
     0
370
    18
100
AcDbBlockReference
  2
_Dot
 10
672.3280192665588
 20
1554.178460662066
 30
0.0
 41
10.0
 42
10.0
 43
10.0
 50
270.0
  0
MTEXT
  5
8024
330
801D
100
AcDbEntity
  8
実形
 62
     0
100
AcDbMText
 10
653.2280192665585
 20
1599.178460662066
 30
0.0
 40
25.0
 41
0.0
 71
     5
 72
     1
  1
90
 11
0.0000000000000001
 21
1.0
 31
0.0
 73
     1
 44
1.0
1001
ACAD
1000
MTEXTBEGIN
1070
    73
1070
     1
1070
    44
1040
1.0
1070
    74
1070
     0
1000
MTEXTEND
  0
POINT
  5
8025
330
801D
100
AcDbEntity
  8
Defpoints
 62
     0
100
AcDbPoint
 10
800.771238858355
 20
1644.178460662066
 30
0.0
  0
POINT
  5
8026
330
801D
100
AcDbEntity
  8
Defpoints
 62
     0
100
AcDbPoint
 10
779.7500916428215
 20
1554.178460662066
 30
0.0
  0
POINT
  5
8027
330
801D
100
AcDbEntity
  8
Defpoints
 62
     0
100
AcDbPoint
 10
672.3280192665588
 20
1554.178460662066
 30
0.0
  0
ENDBLK
  5
8028
330
801D
100
AcDbEntity
  8
0
 62
     3
100
AcDbBlockEnd
  0
BLOCK
  5
802A
330
8029
100
AcDbEntity
  8
0
 62
     3
100
AcDbBlockBegin
  2
*D43
 70
     1
 10
0.0
 20
0.0
 30
0.0
  3
*D43
  1

  0
LINE
  5
802B
330
8029
100
AcDbEntity
  8
実形
 62
     0
370
    18
100
AcDbLine
 10
732.6742997845558
 20
1554.178460662066
 30
0.0
 11
672.3280192665588
 21
1554.178460662066
 31
0.0
  0
LINE
  5
802C
330
8029
100
AcDbEntity
  8
実形
 62
     0
370
    18
100
AcDbLine
 10
737.7945193027008
 20
1204.178460662066
 30
0.0
 11
672.3280192665587
 21
1204.178460662066
 31
0.0
  0
LINE
  5
802D
330
8029
100
AcDbEntity
  8
実形
 62
     0
370
    18
100
AcDbLine
 10
672.3280192665588
 20
1544.178460662066
 30
0.0
 11
672.3280192665587
 21
1214.178460662066
 31
0.0
  0
INSERT
  5
802E
330
8029
100
AcDbEntity
  8
実形
 62
     0
370
    18
100
AcDbBlockReference
  2
_Dot
 10
672.3280192665588
 20
1554.178460662066
 30
0.0
 41
10.0
 42
10.0
 43
10.0
 50
90.0
  0
INSERT
  5
802F
330
8029
100
AcDbEntity
  8
実形
 62
     0
370
    18
100
AcDbBlockReference
  2
_Dot
 10
672.3280192665587
 20
1204.178460662066
 30
0.0
 41
10.0
 42
10.0
 43
10.0
 50
270.0
  0
MTEXT
  5
8030
330
8029
100
AcDbEntity
  8
実形
 62
     0
100
AcDbMText
 10
653.2280192665585
 20
1379.178460662066
 30
0.0
 40
25.0
 41
0.0
 71
     5
 72
     1
  1
350
 11
0.0000000000000001
 21
1.0
 31
0.0
 73
     1
 44
1.0
1001
ACAD
1000
MTEXTBEGIN
1070
    73
1070
     1
1070
    44
1040
1.0
1070
    74
1070
     0
1000
MTEXTEND
  0
POINT
  5
8031
330
8029
100
AcDbEntity
  8
Defpoints
 62
     0
100
AcDbPoint
 10
797.6742997845558
 20
1554.178460662066
 30
0.0
  0
POINT
  5
8032
330
8029
100
AcDbEntity
  8
Defpoints
 62
     0
100
AcDbPoint
 10
802.7945193027008
 20
1204.178460662066
 30
0.0
  0
POINT
  5
8033
330
8029
100
AcDbEntity
  8
Defpoints
 62
     0
100
AcDbPoint
 10
672.3280192665587
 20
1204.178460662066
 30
0.0
  0
ENDBLK
  5
8034
330
8029
100
AcDbEntity
  8
0
 62
     3
100
AcDbBlockEnd
  0
BLOCK
  5
8036
330
8035
100
AcDbEntity
  8
0
 62
     3
100
AcDbBlockBegin
  2
*D44
 70
     1
 10
0.0
 20
0.0
 30
0.0
  3
*D44
  1

  0
LINE
  5
8037
330
8035
100
AcDbEntity
  8
実形
 62
     0
370
    18
100
AcDbLine
 10
764.1539611657317
 20
1659.178460662066
 30
0.0
 11
672.3280192665588
 21
1659.178460662066
 31
0.0
  0
LINE
  5
8038
330
8035
100
AcDbEntity
  8
実形
 62
     0
370
    18
100
AcDbLine
 10
737.2641105192887
 20
1169.178460662066
 30
0.0
 11
672.3280192665587
 21
1169.178460662066
 31
0.0
  0
LINE
  5
8039
330
8035
100
AcDbEntity
  8
実形
 62
     0
370
    18
100
AcDbLine
 10
672.3280192665588
 20
1649.178460662066
 30
0.0
 11
672.3280192665587
 21
1179.178460662066
 31
0.0
  0
MTEXT
  5
803A
330
8035
100
AcDbEntity
  8
実形
 62
     0
100
AcDbMText
 10
650.7280192665586
 20
1682.883538982083
 30
0.0
 40
25.0
 41
0.0
 71
     5
 72
     1
  1
15
 11
0.0000000000000001
 21
1.0
 31
0.0
 73
     1
 44
1.0
1001
ACAD
1000
MTEXTBEGIN
1070
    73
1070
     1
1070
    44
1040
1.0
1070
    74
1070
     0
1000
MTEXTEND
  0
INSERT
  5
803B
330
8035
100
AcDbEntity
  8
実形
 62
     0
370
    18
100
AcDbBlockReference
  2
_Dot
 10
672.3280192665588
 20
1659.178460662066
 30
0.0
 41
10.0
 42
10.0
 43
10.0
 50
90.0
  0
INSERT
  5
803C
330
8035
100
AcDbEntity
  8
実形
 62
     0
370
    18
100
AcDbBlockReference
  2
_Dot
 10
672.3280192665587
 20
1169.178460662066
 30
0.0
 41
10.0
 42
10.0
 43
10.0
 50
270.0
  0
POINT
  5
803D
330
8035
100
AcDbEntity
  8
Defpoints
 62
     0
100
AcDbPoint
 10
829.1539611657317
 20
1659.178460662066
 30
0.0
  0
POINT
  5
803E
330
8035
100
AcDbEntity
  8
Defpoints
 62
     0
100
AcDbPoint
 10
802.2641105192887
 20
1169.178460662066
 30
0.0
  0
POINT
  5
803F
330
8035
100
AcDbEntity
  8
Defpoints
 62
     0
100
AcDbPoint
 10
672.3280192665587
 20
1169.178460662066
 30
0.0
  0
ENDBLK
  5
8040
330
8035
100
AcDbEntity
  8
0
 62
     3
100
AcDbBlockEnd
  0
BLOCK
  5
8042
330
8041
100
AcDbEntity
  8
0
 62
     3
100
AcDbBlockBegin
  2
*D45
 70
     1
 10
0.0
 20
0.0
 30
0.0
  3
*D45
  1

  0
LINE
  5
8043
330
8041
100
AcDbEntity
  8
実形
 62
     0
370
    18
100
AcDbLine
 10
737.7945193027008
 20
1184.178460662066
 30
0.0
 11
672.3280192665587
 21
1184.178460662066
 31
0.0
  0
LINE
  5
8044
330
8041
100
AcDbEntity
  8
実形
 62
     0
370
    18
100
AcDbLine
 10
702.3275276276962
 20
1554.178460662066
 30
0.0
 11
672.3280192665588
 21
1554.178460662066
 31
0.0
  0
LINE
  5
8045
330
8041
100
AcDbEntity
  8
実形
 62
     0
370
    18
100
AcDbLine
 10
672.3280192665587
 20
1194.178460662066
 30
0.0
 11
672.3280192665588
 21
1544.178460662066
 31
0.0
  0
MTEXT
  5
8046
330
8041
100
AcDbEntity
  8
実形
 62
     0
100
AcDbMText
 10
650.745963999092
 20
1217.459715149787
 30
0.0
 40
25.0
 41
0.0
 71
     5
 72
     1
  1
20
 11
0.0000000000000001
 21
1.0
 31
0.0
 73
     1
 44
1.0
1001
ACAD
1000
MTEXTBEGIN
1070
    73
1070
     1
1070
    44
1040
1.0
1070
    74
1070
     0
1000
MTEXTEND
  0
INSERT
  5
8047
330
8041
100
AcDbEntity
  8
実形
 62
     0
370
    18
100
AcDbBlockReference
  2
_Dot
 10
672.3280192665587
 20
1184.178460662066
 30
0.0
 41
10.0
 42
10.0
 43
10.0
 50
270.0
  0
INSERT
  5
8048
330
8041
100
AcDbEntity
  8
実形
 62
     0
370
    18
100
AcDbBlockReference
  2
_Dot
 10
672.3280192665588
 20
1554.178460662066
 30
0.0
 41
10.0
 42
10.0
 43
10.0
 50
90.0
  0
POINT
  5
8049
330
8041
100
AcDbEntity
  8
Defpoints
 62
     0
100
AcDbPoint
 10
802.7945193027008
 20
1184.178460662066
 30
0.0
  0
POINT
  5
804A
330
8041
100
AcDbEntity
  8
Defpoints
 62
     0
100
AcDbPoint
 10
767.3275276276962
 20
1554.178460662066
 30
0.0
  0
POINT
  5
804B
330
8041
100
AcDbEntity
  8
Defpoints
 62
     0
100
AcDbPoint
 10
672.3280192665588
 20
1554.178460662066
 30
0.0
  0
ENDBLK
  5
804C
330
8041
100
AcDbEntity
  8
0
 62
     3
100
AcDbBlockEnd
  0
BLOCK
  5
804E
330
804D
100
AcDbEntity
  8
0
 62
     3
100
AcDbBlockBegin
  2
*D46
 70
     1
 10
0.0
 20
0.0
 30
0.0
  3
*D46
  1

  0
LINE
  5
804F
330
804D
100
AcDbEntity
  8
実形
 62
     0
370
    18
100
AcDbLine
 10
766.726947416073
 20
1644.178460662066
 30
0.0
 11
616.3564627716169
 21
1644.178460662066
 31
0.0
  0
LINE
  5
8050
330
804D
100
AcDbEntity
  8
実形
 62
     0
370
    18
100
AcDbLine
 10
739.8056315785306
 20
1184.178460662066
 30
0.0
 11
616.3564627716168
 21
1184.178460662066
 31
0.0
  0
LINE
  5
8051
330
804D
100
AcDbEntity
  8
実形
 62
     0
370
    18
100
AcDbLine
 10
616.3564627716169
 20
1634.178460662066
 30
0.0
 11
616.3564627716168
 21
1194.178460662066
 31
0.0
  0
INSERT
  5
8052
330
804D
100
AcDbEntity
  8
実形
 62
     0
370
    18
100
AcDbBlockReference
  2
_Dot
 10
616.3564627716169
 20
1644.178460662066
 30
0.0
 41
10.0
 42
10.0
 43
10.0
 50
90.0
  0
INSERT
  5
8053
330
804D
100
AcDbEntity
  8
実形
 62
     0
370
    18
100
AcDbBlockReference
  2
_Dot
 10
616.3564627716168
 20
1184.178460662066
 30
0.0
 41
10.0
 42
10.0
 43
10.0
 50
270.0
  0
MTEXT
  5
8054
330
804D
100
AcDbEntity
  8
実形
 62
     0
100
AcDbMText
 10
597.2564627716167
 20
1414.178460662066
 30
0.0
 40
25.0
 41
0.0
 71
     5
 72
     1
  1
460
 11
0.0000000000000001
 21
1.0
 31
0.0
 73
     1
 44
1.0
1001
ACAD
1000
MTEXTBEGIN
1070
    73
1070
     1
1070
    44
1040
1.0
1070
    74
1070
     0
1000
MTEXTEND
  0
POINT
  5
8055
330
804D
100
AcDbEntity
  8
Defpoints
 62
     0
100
AcDbPoint
 10
831.7269474160729
 20
1644.178460662066
 30
0.0
  0
POINT
  5
8056
330
804D
100
AcDbEntity
  8
Defpoints
 62
     0
100
AcDbPoint
 10
804.8056315785306
 20
1184.178460662066
 30
0.0
  0
POINT
  5
8057
330
804D
100
AcDbEntity
  8
Defpoints
 62
     0
100
AcDbPoint
 10
616.3564627716168
 20
1184.178460662066
 30
0.0
  0
ENDBLK
  5
8058
330
804D
100
AcDbEntity
  8
0
 62
     3
100
AcDbBlockEnd
  0
BLOCK
  5
805A
330
8059
100
AcDbEntity
  8
0
 62
     3
100
AcDbBlockBegin
  2
*D47
 70
     1
 10
0.0
 20
0.0
 30
0.0
  3
*D47
  1

  0
LINE
  5
805B
330
8059
100
AcDbEntity
  8
実形
 62
     0
370
    18
100
AcDbLine
 10
762.7702104998824
 20
1659.178460662066
 30
0.0
 11
556.883501767341
 21
1659.178460662066
 31
0.0
  0
LINE
  5
805C
330
8059
100
AcDbEntity
  8
実形
 62
     0
370
    18
100
AcDbLine
 10
740.8183231977528
 20
1169.178460662066
 30
0.0
 11
556.8835017673409
 21
1169.178460662066
 31
0.0
  0
LINE
  5
805D
330
8059
100
AcDbEntity
  8
実形
 62
     0
370
    18
100
AcDbLine
 10
556.883501767341
 20
1649.178460662066
 30
0.0
 11
556.8835017673409
 21
1179.178460662066
 31
0.0
  0
INSERT
  5
805E
330
8059
100
AcDbEntity
  8
実形
 62
     0
370
    18
100
AcDbBlockReference
  2
_Dot
 10
556.883501767341
 20
1659.178460662066
 30
0.0
 41
10.0
 42
10.0
 43
10.0
 50
90.0
  0
INSERT
  5
805F
330
8059
100
AcDbEntity
  8
実形
 62
     0
370
    18
100
AcDbBlockReference
  2
_Dot
 10
556.8835017673409
 20
1169.178460662066
 30
0.0
 41
10.0
 42
10.0
 43
10.0
 50
270.0
  0
MTEXT
  5
8060
330
8059
100
AcDbEntity
  8
実形
 62
     0
100
AcDbMText
 10
535.2835017673408
 20
1414.178460662066
 30
0.0
 40
30.0
 41
0.0
 71
     5
 72
     1
  1
490
 11
0.0000000000000001
 21
1.0
 31
0.0
 73
     1
 44
1.0
1001
ACAD
1000
MTEXTBEGIN
1070
    73
1070
     1
1070
    44
1040
1.0
1070
    74
1070
     0
1000
MTEXTEND
  0
POINT
  5
8061
330
8059
100
AcDbEntity
  8
Defpoints
 62
     0
100
AcDbPoint
 10
827.7702104998825
 20
1659.178460662066
 30
0.0
  0
POINT
  5
8062
330
8059
100
AcDbEntity
  8
Defpoints
 62
     0
100
AcDbPoint
 10
805.8183231977528
 20
1169.178460662066
 30
0.0
  0
POINT
  5
8063
330
8059
100
AcDbEntity
  8
Defpoints
 62
     0
100
AcDbPoint
 10
556.8835017673409
 20
1169.178460662066
 30
0.0
  0
ENDBLK
  5
8064
330
8059
100
AcDbEntity
  8
0
 62
     3
100
AcDbBlockEnd
  0
BLOCK
  5
8100
330
8065
100
AcDbEntity
  8
0
 62
     3
100
AcDbBlockBegin
  2
RAS800-510GRM
 70
     0
 10
0.0
 20
0.0
 30
0.0
  3
RAS800-510GRM
  1

  0
LINE
  5
8066
330
8065
100
AcDbEntity
  8
枠
 62
     0
100
AcDbLine
 10
174.0
 20
3.99999999999909
 30
0.0
 11
2834.0
 21
3.99999999999909
 31
0.0
  0
LINE
  5
8067
330
8065
100
AcDbEntity
  8
枠
 62
     3
100
AcDbLine
 10
4.0
 20
2024.0
 30
0.0
 11
4.0
 21
4.0
 31
0.0
  0
LINE
  5
8068
330
8065
100
AcDbEntity
  8
枠
 62
     0
100
AcDbLine
 10
2834.0
 20
2023.999999999999
 30
0.0
 11
174.0
 21
2023.999999999999
 31
0.0
  0
LINE
  5
8069
330
8065
100
AcDbEntity
  8
枠
 62
     0
100
AcDbLine
 10
2234.0
 20
133.9999999999991
 30
0.0
 11
2234.0
 21
198.9999999999991
 31
0.0
  0
LINE
  5
806A
330
8065
100
AcDbEntity
  8
枠
 62
     0
100
AcDbLine
 10
1944.0
 20
2023.999999999999
 30
0.0
 11
2834.0
 21
2023.999999999999
 31
0.0
  0
LINE
  5
806B
330
8065
100
AcDbEntity
  8
枠
 62
     0
100
AcDbLine
 10
2114.0
 20
68.99999999999909
 30
0.0
 11
2834.0
 21
68.99999999999909
 31
0.0
  0
LINE
  5
806C
330
8065
100
AcDbEntity
  8
枠
 62
     0
100
AcDbLine
 10
2114.0
 20
198.9999999999991
 30
0.0
 11
2834.0
 21
198.9999999999991
 31
0.0
  0
LINE
  5
806D
330
8065
100
AcDbEntity
  8
枠
 62
     0
100
AcDbLine
 10
2114.0
 20
133.9999999999991
 30
0.0
 11
2834.0
 21
133.9999999999991
 31
0.0
  0
LINE
  5
806E
330
8065
100
AcDbEntity
  8
枠
 62
     0
100
AcDbLine
 10
2114.0
 20
3.99999999999909
 30
0.0
 11
2114.0
 21
198.9999999999991
 31
0.0
  0
TEXT
  5
806F
330
8065
100
AcDbEntity
  8
枠
 62
     0
100
AcDbText
 10
2350.255774665348
 20
16.49999999999908
 30
0.0
 40
40.0
  1
中外交易株式会社
 72
     4
 11
2538.255774665348
 21
36.49999999999909
 31
0.0
100
AcDbText
  0
LINE
  5
8070
330
8065
100
AcDbEntity
  8
枠
 62
     0
100
AcDbLine
 10
2234.0
 20
68.99999999999909
 30
0.0
 11
2834.0
 21
68.99999999999909
 31
0.0
  0
LINE
  5
8071
102
{ACAD_REACTORS
330
807E
102
}
330
8065
100
AcDbEntity
  8
枠
 62
     0
370
     5
100
AcDbLine
 10
2257.843923164362
 20
40.53787547858428
 30
0.0
 11
2233.255774665348
 21
40.53787547858428
 31
0.0
  0
LINE
  5
8072
102
{ACAD_REACTORS
330
807E
102
}
330
8065
100
AcDbEntity
  8
枠
 62
     0
370
     5
100
AcDbLine
 10
2233.255774665348
 20
40.53787547858428
 30
0.0
 11
2233.255774665348
 21
30.53787547858429
 31
0.0
  0
LINE
  5
8073
102
{ACAD_REACTORS
330
807E
102
}
330
8065
100
AcDbEntity
  8
枠
 62
     0
370
     5
100
AcDbLine
 10
2233.255774665348
 20
30.53787547858429
 30
0.0
 11
2257.346428692676
 21
30.53787547858429
 31
0.0
  0
LINE
  5
8074
102
{ACAD_REACTORS
330
807E
102
}
330
8065
100
AcDbEntity
  8
枠
 62
     0
370
     5
100
AcDbLine
 10
2260.641894042939
 20
56.49999999999909
 30
0.0
 11
2260.641894042939
 21
16.49999999999909
 31
0.0
  0
LINE
  5
8075
102
{ACAD_REACTORS
330
807E
102
}
330
8065
100
AcDbEntity
  8
枠
 62
     0
370
     5
100
AcDbLine
 10
2260.641894042939
 20
16.49999999999909
 30
0.0
 11
2295.641894042939
 21
16.49999999999909
 31
0.0
  0
LINE
  5
8076
102
{ACAD_REACTORS
330
807E
102
}
330
8065
100
AcDbEntity
  8
枠
 62
     0
370
     5
100
AcDbLine
 10
2295.641894042939
 20
16.49999999999909
 30
0.0
 11
2260.641894042939
 21
36.49999999999909
 31
0.0
  0
LINE
  5
8077
102
{ACAD_REACTORS
330
807E
102
}
330
8065
100
AcDbEntity
  8
枠
 62
     0
370
     5
100
AcDbLine
 10
2260.641894042939
 20
36.49999999999909
 30
0.0
 11
2295.641894042939
 21
56.49999999999909
 31
0.0
  0
LINE
  5
8078
102
{ACAD_REACTORS
330
807E
102
}
330
8065
100
AcDbEntity
  8
枠
 62
     0
370
     5
100
AcDbLine
 10
2295.641894042939
 20
56.49999999999909
 30
0.0
 11
2260.641894042939
 21
56.49999999999909
 31
0.0
  0
LINE
  5
8079
102
{ACAD_REACTORS
330
807E
102
}
330
8065
100
AcDbEntity
  8
枠
 62
     0
370
     5
100
AcDbLine
 10
2326.75434681301
 20
40.53787547858428
 30
0.0
 11
2302.166198313996
 21
40.53787547858428
 31
0.0
  0
LINE
  5
807A
102
{ACAD_REACTORS
330
807E
102
}
330
8065
100
AcDbEntity
  8
枠
 62
     0
370
     5
100
AcDbLine
 10
2302.166198313996
 20
40.53787547858428
 30
0.0
 11
2302.166198313996
 21
30.53787547858429
 31
0.0
  0
LINE
  5
807B
102
{ACAD_REACTORS
330
807E
102
}
330
8065
100
AcDbEntity
  8
枠
 62
     0
370
     5
100
AcDbLine
 10
2302.166198313996
 20
30.53787547858429
 30
0.0
 11
2326.256852341323
 21
30.53787547858429
 31
0.0
  0
ARC
  5
807C
102
{ACAD_REACTORS
330
807E
102
}
330
8065
100
AcDbEntity
  8
枠
 62
     0
370
     5
100
AcDbCircle
 10
2238.255774665347
 20
36.49999999999909
 30
0.0
 40
20.0
100
AcDbArc
 50
11.64772366708617
 51
342.6561058784773
  0
ARC
  5
807D
102
{ACAD_REACTORS
330
807E
102
}
330
8065
100
AcDbEntity
  8
枠
 62
     0
370
     5
100
AcDbCircle
 10
2307.166198313995
 20
36.49999999999909
 30
0.0
 40
20.0
100
AcDbArc
 50
11.64772366708617
 51
342.6561058784773
  0
HATCH
  5
807E
330
8065
100
AcDbEntity
  8
枠
 62
     0
100
AcDbHatch
 10
0.0
 20
0.0
 30
0.0
210
0.0
220
0.0
230
1.0
  2
SOLID
 70
     1
 71
     1
 91
        3
 92
        1
 93
        4
 72
     2
 10
2307.166198313995
 20
36.49999999999909
 40
20.0
 50
11.64772366708617
 51
342.6561058784773
 73
     1
 72
     1
 10
2326.256852341323
 20
30.53787547858429
 11
2302.166198313996
 21
30.53787547858429
 72
     1
 10
2302.166198313996
 20
30.53787547858429
 11
2302.166198313996
 21
40.53787547858428
 72
     1
 10
2302.166198313996
 20
40.53787547858428
 11
2326.75434681301
 21
40.53787547858428
 97
        4
330
807D
330
807B
330
807A
330
8079
 92
        1
 93
        4
 72
     2
 10
2238.255774665347
 20
36.49999999999909
 40
20.0
 50
11.64772366708617
 51
342.6561058784773
 73
     1
 72
     1
 10
2257.346428692676
 20
30.53787547858429
 11
2233.255774665348
 21
30.53787547858429
 72
     1
 10
2233.255774665348
 20
30.53787547858429
 11
2233.255774665348
 21
40.53787547858428
 72
     1
 10
2233.255774665348
 20
40.53787547858428
 11
2257.843923164362
 21
40.53787547858428
 97
        4
330
807C
330
8073
330
8072
330
8071
 92
        1
 93
        5
 72
     1
 10
2295.641894042939
 20
56.49999999999909
 11
2260.641894042939
 21
56.49999999999909
 72
     1
 10
2260.641894042939
 20
56.49999999999909
 11
2260.641894042939
 21
16.49999999999909
 72
     1
 10
2260.641894042939
 20
16.49999999999909
 11
2295.641894042939
 21
16.49999999999909
 72
     1
 10
2295.641894042939
 20
16.49999999999909
 11
2260.641894042939
 21
36.49999999999909
 72
     1
 10
2260.641894042939
 20
36.49999999999909
 11
2295.641894042939
 21
56.49999999999909
 97
        5
330
8078
330
8074
330
8075
330
8076
330
8077
 75
     0
 76
     1
 98
        1
 10
-10.0
 20
-0.0000000000009095
  0
LINE
  5
807F
330
8065
100
AcDbEntity
  8
枠
 62
     0
100
AcDbLine
 10
2234.0
 20
68.99999999999909
 30
0.0
 11
2234.0
 21
198.9999999999991
 31
0.0
  0
LINE
  5
8080
330
8065
100
AcDbEntity
  8
実形
 62
     1
100
AcDbLine
 10
118.6742333375914
 20
5211.047041924394
 30
0.0
 11
2476.842860629935
 21
5211.047041924394
 31
0.0
  0
TEXT
  5
8081
330
8065
100
AcDbEntity
  8
実形
100
AcDbText
 10
271.4746615155927
 20
60.08511374856698
 30
0.0
 40
30.0
  1
※実寸には製造上の誤差が多少生ずる場合があります。シンクの穴あけ加工は現物合わせにてお願いします。
 72
     4
 11
1141.474661515593
 21
75.08511374856698
 31
0.0
100
AcDbText
  0
TEXT
  5
8082
330
8065
100
AcDbEntity
  8
枠
 62
     0
100
AcDbText
 10
2136.666666666667
 20
83.99999999999909
 30
0.0
 40
35.0
  1
尺度
 72
     4
 11
2174.0
 21
101.4999999999991
 31
0.0
100
AcDbText
  0
TEXT
  5
8083
330
8065
100
AcDbEntity
  8
枠
 62
     0
100
AcDbText
 10
2136.666666666667
 20
148.9999999999991
 30
0.0
 40
35.0
  1
品番
 72
     4
 11
2174.0
 21
166.4999999999991
 31
0.0
100
AcDbText
  0
TEXT
  5
8084
330
8065
100
AcDbEntity
  8
実形
100
AcDbText
 10
2446.588586518341
 20
81.78238670760313
 30
0.0
 40
40.0
  1
1：10
 72
     4
 11
2507.255253185007
 21
101.7823867076031
 31
0.0
100
AcDbText
  0
TEXT
  5
8085
330
8065
100
AcDbEntity
  8
実形
100
AcDbText
 10
2321.533637209673
 20
150.830875284324
 30
0.0
 40
30.0
  1
RAS800-460GRM
 72
     4
 11
2504.033637209673
 21
165.830875284324
 31
0.0
100
AcDbText
  0
LINE
  5
8086
330
8065
100
AcDbEntity
  8
実形
 62
     3
100
AcDbLine
 10
2856.314199910736
 20
2024.000000000001
 30
0.0
 11
2856.314199910736
 21
4.0
 31
0.0
  0
LINE
  5
8087
330
8065
100
AcDbEntity
  8
実形
 62
     0
100
AcDbLine
 10
2844.0
 20
4.0
 30
0.0
 11
2844.0
 21
2024.0
 31
0.0
  0
LINE
  5
8088
330
8065
100
AcDbEntity
  8
実形
 62
     0
100
AcDbLine
 10
2834.0
 20
4.0
 30
0.0
 11
2834.0
 21
2024.0
 31
0.0
  0
LINE
  5
8089
330
8065
100
AcDbEntity
  8
実形
 62
     0
100
AcDbLine
 10
174.0
 20
2024.0
 30
0.0
 11
174.0
 21
4.0
 31
0.0
  0
LINE
  5
808A
330
8065
100
AcDbEntity
  8
実形
100
AcDbLine
 10
827.7702104998825
 20
1659.178460662066
 30
0.0
 11
1657.770210499882
 21
1659.178460662066
 31
0.0
  0
LINE
  5
808B
330
8065
100
AcDbEntity
  8
実形
100
AcDbLine
 10
1657.770210499882
 20
1659.178460662066
 30
0.0
 11
1657.770210499882
 21
1169.178460662066
 31
0.0
  0
LINE
  5
808C
330
8065
100
AcDbEntity
  8
実形
100
AcDbLine
 10
1657.770210499882
 20
1169.178460662066
 30
0.0
 11
827.7702104998825
 21
1169.178460662066
 31
0.0
  0
LINE
  5
808D
330
8065
100
AcDbEntity
  8
実形
100
AcDbLine
 10
827.7702104998825
 20
1169.178460662066
 30
0.0
 11
827.7702104998825
 21
1659.178460662066
 31
0.0
  0
LINE
  5
808E
330
8065
100
AcDbEntity
  8
実形
100
AcDbLine
 10
848.7702104998824
 20
1644.178460662066
 30
0.0
 11
1636.770210499882
 21
1644.178460662066
 31
0.0
  0
LINE
  5
808F
330
8065
100
AcDbEntity
  8
実形
100
AcDbLine
 10
1642.770210499882
 20
1638.178460662065
 30
0.0
 11
1642.770210499882
 21
1190.178460662066
 31
0.0
  0
LINE
  5
8090
330
8065
100
AcDbEntity
  8
実形
100
AcDbLine
 10
1636.770210499882
 20
1184.178460662066
 30
0.0
 11
848.7702104998826
 21
1184.178460662066
 31
0.0
  0
LINE
  5
8091
330
8065
100
AcDbEntity
  8
実形
100
AcDbLine
 10
842.7702104998825
 20
1190.178460662066
 30
0.0
 11
842.7702104998823
 21
1638.178460662066
 31
0.0
  0
LINE
  5
8092
330
8065
100
AcDbEntity
  8
実形
100
AcDbLine
 10
862.7702104998824
 20
1210.178460662066
 30
0.0
 11
862.7702104998821
 21
1548.178460662066
 31
0.0
  0
LINE
  5
8093
330
8065
100
AcDbEntity
  8
実形
100
AcDbLine
 10
1092.770210499882
 20
1624.178460662066
 30
0.0
 11
1392.770210499882
 21
1624.178460662066
 31
0.0
  0
LINE
  5
8094
330
8065
100
AcDbEntity
  8
実形
100
AcDbLine
 10
1622.770210499882
 20
1548.178460662066
 30
0.0
 11
1622.770210499882
 21
1210.178460662066
 31
0.0
  0
LINE
  5
8095
330
8065
100
AcDbEntity
  8
実形
100
AcDbLine
 10
1616.770210499882
 20
1204.178460662066
 30
0.0
 11
868.7702104998823
 21
1204.178460662066
 31
0.0
  0
DIMENSION
  5
8096
330
8065
100
AcDbEntity
  8
実形
100
AcDbDimension
  2
*D19
 10
1622.770210499882
 20
1036.915758957679
 30
0.0
 11
1242.770210499882
 21
1056.015758957679
 31
0.0
 70
    32
 71
     5
 42
759.9999999999997
  3
ISO-25
100
AcDbAlignedDimension
 13
862.7702104998824
 23
1169.178460662066
 33
0.0
 14
1622.770210499882
 24
1169.178460662066
 34
0.0
100
AcDbRotatedDimension
1001
ACAD
1000
DSTYLE
1002
{
1070
    41
1040
10.0
1070
   140
1040
25.0
1070
   147
1040
6.599999999999998
1070
   279
1070
     2
1070
   342
1005
30D
1070
   371
1070
    18
1070
   372
1070
    18
1002
}
  0
DIMENSION
  5
8097
330
8065
100
AcDbEntity
  8
実形
100
AcDbDimension
  2
*D20
 10
1642.770210499882
 20
1036.915758957679
 30
0.0
 11
1589.171363804602
 21
1058.515758957679
 31
0.0
 70
   160
  1
20
 71
     5
 42
799.9999999999998
  3
ISO-25
100
AcDbAlignedDimension
 13
842.7702104998825
 23
1169.178460662066
 33
0.0
 14
1642.770210499882
 24
1169.178460662066
 34
0.0
100
AcDbRotatedDimension
1001
ACAD
1000
DSTYLE
1002
{
1070
    41
1040
10.0
1070
   140
1040
25.0
1070
   147
1040
6.599999999999998
1070
   279
1070
     2
1070
   342
1005
30D
1070
   371
1070
    18
1070
   372
1070
    18
1002
}
  0
TEXT
  5
8098
330
8065
100
AcDbEntity
  8
実形
 48
20.0
100
AcDbText
 10
877.7699109105341
 20
1047.974708017131
 30
0.0
 40
25.0
  1
20
100
AcDbText
  0
DIMENSION
  5
8099
330
8065
100
AcDbEntity
  8
実形
100
AcDbDimension
  2
*D21
 10
1642.770210499882
 20
974.5052716017053
 30
0.0
 11
1242.770210499882
 21
993.6052716017053
 31
0.0
 70
    32
 71
     5
 42
799.9999999999998
  3
ISO-25
100
AcDbAlignedDimension
 13
842.7702104998825
 23
1169.178460662066
 33
0.0
 14
1642.770210499882
 24
1169.178460662066
 34
0.0
100
AcDbRotatedDimension
1001
ACAD
1000
DSTYLE
1002
{
1070
    41
1040
10.0
1070
   140
1040
25.0
1070
   147
1040
6.599999999999998
1070
   279
1070
     2
1070
   342
1005
30D
1070
   371
1070
    18
1070
   372
1070
    18
1002
}
  0
DIMENSION
  5
809A
330
8065
100
AcDbEntity
  8
実形
100
AcDbDimension
  2
*D22
 10
1657.770210499882
 20
974.5052716017053
 30
0.0
 11
1701.559743854428
 21
996.1052716017052
 31
0.0
 70
   160
  1
15
 71
     5
 42
830.0
  3
ISO-25
100
AcDbAlignedDimension
 13
827.7702104998825
 23
1169.178460662066
 33
0.0
 14
1657.770210499882
 24
1169.178460662066
 34
0.0
100
AcDbRotatedDimension
1001
ACAD
1000
DSTYLE
1002
{
1070
    41
1040
10.0
1070
   140
1040
25.0
1070
   147
1040
6.599999999999998
1070
   279
1070
     2
1070
   342
1005
30D
1070
   371
1070
    18
1070
   372
1070
    18
1002
}
  0
TEXT
  5
809B
330
8065
100
AcDbEntity
  8
実形
 48
20.0
100
AcDbText
 10
770.7109889092589
 20
985.3423772939986
 30
0.0
 40
25.0
  1
15
100
AcDbText
  0
DIMENSION
  5
809C
330
8065
100
AcDbEntity
  8
実形
100
AcDbDimension
  2
*D23
 10
1657.770210499882
 20
901.2836911315535
 30
0.0
 11
1242.770210499882
 21
920.3836911315535
 31
0.0
 70
    32
 71
     5
 42
830.0
  3
ISO-25
100
AcDbAlignedDimension
 13
827.7702104998825
 23
1169.178460662066
 33
0.0
 14
1657.770210499882
 24
1169.178460662066
 34
0.0
100
AcDbRotatedDimension
1001
ACAD
1000
DSTYLE
1002
{
1070
    41
1040
10.0
1070
   140
1040
25.0
1070
   147
1040
6.599999999999998
1070
   279
1070
     2
1070
   342
1005
30D
1070
   371
1070
    18
1070
   372
1070
    18
1002
}
  0
LINE
  5
809D
330
8065
100
AcDbEntity
  8
実形
  6
ACAD_ISO08W100
 48
0.5
100
AcDbLine
 10
1384.469907606381
 20
1404.178460662066
 30
0.0
 11
1109.442023008436
 21
1404.178460662066
 31
0.0
  0
CIRCLE
  5
809E
330
8065
100
AcDbEntity
  8
実形
100
AcDbCircle
 10
1242.770210499882
 20
1404.178460662066
 30
0.0
 40
80.0
  0
CIRCLE
  5
809F
330
8065
100
AcDbEntity
  8
実形
100
AcDbCircle
 10
1242.770210499882
 20
1404.178460662066
 30
0.0
 40
90.5
  0
LINE
  5
80A0
330
8065
100
AcDbEntity
  8
実形
100
AcDbLine
 10
862.7702104998824
 20
1659.178460662066
 30
0.0
 11
1012.770210499882
 21
1659.178460662066
 31
0.0
  0
LINE
  5
80A1
330
8065
100
AcDbEntity
  8
実形
 62
     3
100
AcDbLine
 10
917.0693431839136
 20
-152.3860966284574
 30
0.0
 11
1747.069343183913
 21
-152.3860966284574
 31
0.0
  0
LINE
  5
80A2
330
8065
100
AcDbEntity
  8
実形
 62
     3
100
AcDbLine
 10
932.0693431839137
 20
-152.3860966284574
 30
0.0
 11
932.0693431839139
 21
-167.3860966284574
 31
0.0
  0
LINE
  5
80A3
330
8065
100
AcDbEntity
  8
実形
 62
     3
100
AcDbLine
 10
1732.069343183914
 20
-152.3860966284574
 30
0.0
 11
1732.069343183914
 21
-167.3860966284574
 31
0.0
  0
LINE
  5
80A4
330
8065
100
AcDbEntity
  8
実形
 62
     3
100
AcDbLine
 10
932.0693431839139
 20
-167.3860966284574
 30
0.0
 11
1732.069343183914
 21
-167.3860966284574
 31
0.0
  0
LINE
  5
80A5
330
8065
100
AcDbEntity
  8
実形
 62
     3
100
AcDbLine
 10
952.0693431839136
 20
-167.3860966284576
 30
0.0
 11
952.0693431839134
 21
-362.7109739766329
 31
0.0
  0
LINE
  5
80A6
330
8065
100
AcDbEntity
  8
実形
 62
     3
100
AcDbLine
 10
1712.069343183914
 20
-167.3860966284574
 30
0.0
 11
1712.069343183913
 21
-361.5568395436162
 31
0.0
  0
LINE
  5
80A7
330
8065
100
AcDbEntity
  8
実形
 62
     3
100
AcDbLine
 10
1011.569343183913
 20
-382.3860966284574
 30
0.0
 11
1192.569343183913
 21
-382.3860966284574
 31
0.0
  0
LINE
  5
80A8
330
8065
100
AcDbEntity
  8
実形
 62
     3
100
AcDbLine
 10
1011.569343183913
 20
-392.3860966284574
 30
0.0
 11
1192.569343183913
 21
-392.3860966284574
 31
0.0
  0
DIMENSION
  5
80A9
330
8065
100
AcDbEntity
  8
実形
 62
     3
100
AcDbDimension
  2
*D24
 10
797.3710940401324
 20
-367.3860966284573
 30
0.0
 11
778.2710940401325
 21
-267.3860966284572
 31
0.0
 70
    32
 71
     5
 42
200.0
  3
ISO-25
100
AcDbAlignedDimension
 13
917.0693431839135
 23
-167.3860966284574
 33
0.0
 14
917.0693431839133
 24
-367.3860966284574
 34
0.0
 50
90.0
100
AcDbRotatedDimension
1001
ACAD
1000
DSTYLE
1002
{
1070
    41
1040
10.0
1070
   140
1040
25.0
1070
   147
1040
6.599999999999998
1070
   279
1070
     2
1070
   342
1005
30D
1070
   371
1070
    18
1070
   372
1070
    18
1002
}
  0
DIMENSION
  5
80AA
330
8065
100
AcDbEntity
  8
実形
 62
     3
100
AcDbDimension
  2
*D25
 10
797.3710940401324
 20
-382.3860966284573
 30
0.0
 11
775.7710940401323
 21
-176.4675834353729
 31
0.0
 70
   160
  1
15
 71
     5
 42
230.0
  3
ISO-25
100
AcDbAlignedDimension
 13
917.0693431839136
 23
-152.3860966284574
 33
0.0
 14
917.0693431839136
 24
-382.3860966284574
 34
0.0
 50
90.0
100
AcDbRotatedDimension
1001
ACAD
1000
DSTYLE
1002
{
1070
    41
1040
10.0
1070
   140
1040
25.0
1070
   147
1040
6.599999999999998
1070
   279
1070
     2
1070
   342
1005
30D
1070
   371
1070
    18
1070
   372
1070
    18
1002
}
  0
TEXT
  5
80AB
330
8065
100
AcDbEntity
  8
実形
 62
     3
 48
20.0
100
AcDbText
 10
790.6030498610107
 20
-377.9124245682397
 30
0.0
 40
25.0
  1
15
 50
90.0
100
AcDbText
  0
LINE
  5
80AC
330
8065
100
AcDbEntity
  8
実形
 62
     3
100
AcDbLine
 10
797.3710940401324
 20
-382.3860966284574
 30
0.0
 11
797.3710940401326
 21
-392.3860966284574
 31
0.0
  0
DIMENSION
  5
80AD
330
8065
100
AcDbEntity
  8
実形
 62
     3
100
AcDbDimension
  2
*D26
 10
797.3710940401324
 20
-152.3860966284573
 30
0.0
 11
830.355261679284
 21
-411.1966776303161
 31
0.0
 70
   160
  1
8
 71
     5
 42
240.0
  3
ISO-25
100
AcDbAlignedDimension
 13
917.0693431839136
 23
-392.3860966284574
 33
0.0
 14
917.0693431839136
 24
-152.3860966284574
 34
0.0
 50
90.0
100
AcDbRotatedDimension
1001
ACAD
1000
DSTYLE
1002
{
1070
    41
1040
10.0
1070
   140
1040
25.0
1070
   147
1040
6.599999999999998
1070
   279
1070
     2
1070
   342
1005
30D
1070
   371
1070
    18
1070
   372
1070
    18
1002
}
  0
DIMENSION
  5
80AE
330
8065
100
AcDbEntity
  8
実形
 62
     3
100
AcDbDimension
  2
*D27
 10
727.6013470322832
 20
-382.3860966284573
 30
0.0
 11
708.5013470322833
 21
-267.3860966284572
 31
0.0
 70
    32
 71
     5
 42
230.0
  3
ISO-25
100
AcDbAlignedDimension
 13
917.0693431839136
 23
-152.3860966284574
 33
0.0
 14
917.0693431839135
 24
-382.3860966284574
 34
0.0
 50
90.0
100
AcDbRotatedDimension
1001
ACAD
1000
DSTYLE
1002
{
1070
    41
1040
10.0
1070
   140
1040
25.0
1070
   147
1040
6.599999999999998
1070
   279
1070
     2
1070
   342
1005
30D
1070
   371
1070
    18
1070
   372
1070
    18
1002
}
  0
DIMENSION
  5
80AF
330
8065
100
AcDbEntity
  8
実形
 62
     3
100
AcDbDimension
  2
*D28
 10
660.6927293655044
 20
-392.3860966284574
 30
0.0
 11
641.5927293655045
 21
-272.3860966284572
 31
0.0
 70
    32
  1
238
 71
     5
 42
240.0
  3
ISO-25
100
AcDbAlignedDimension
 13
793.6814961412001
 23
-152.3860966284574
 33
0.0
 14
793.6814961411999
 24
-392.3860966284574
 34
0.0
 50
90.0
100
AcDbRotatedDimension
1001
ACAD
1000
DSTYLE
1002
{
1070
    41
1040
10.0
1070
   140
1040
25.0
1070
   147
1040
6.599999999999998
1070
   279
1070
     2
1070
   342
1005
30D
1070
   371
1070
    18
1070
   372
1070
    18
1002
}
  0
TEXT
  5
80B0
330
8065
100
AcDbEntity
  8
実形
100
AcDbText
 10
1509.52663925932
 20
1464.605228875251
 30
0.0
 40
25.0
  1
6R
 72
     2
 11
1551.193305925987
 21
1461.271895541917
 31
0.0
100
AcDbText
 73
     1
  0
LEADER
  5
80B1
330
8065
100
AcDbEntity
  8
実形
100
AcDbLeader
  3
ISO-25
 76
     2
 10
1612.401069036485
 20
1543.199935987015
 30
0.0
 10
1558.344122906441
 20
1494.303693113559
 30
0.0
1001
ACAD
1000
DSTYLE
1002
{
1070
    77
1070
     0
1070
    41
1040
10.0
1070
   140
1040
30.0
1070
   147
1040
6.599999999999998
1070
   279
1070
     2
1070
   342
1005
30D
1070
   371
1070
    18
1070
   372
1070
    18
1002
}
  0
TEXT
  5
80B2
330
8065
100
AcDbEntity
  8
実形
100
AcDbText
 10
1508.340509182852
 20
1215.174767916627
 30
0.0
 40
25.0
  1
6R
 72
     2
 11
1550.007175849518
 21
1211.841434583294
 31
0.0
100
AcDbText
 73
     1
  0
LEADER
  5
80B3
330
8065
100
AcDbEntity
  8
実形
100
AcDbLeader
  3
ISO-25
 76
     2
 10
1633.74014683896
 20
1191.262627398048
 30
0.0
 10
1565.498924722882
 20
1220.187379926308
 30
0.0
1001
ACAD
1000
DSTYLE
1002
{
1070
    77
1070
     0
1070
    41
1040
10.0
1070
   140
1040
30.0
1070
   147
1040
6.599999999999998
1070
   279
1070
     2
1070
   342
1005
30D
1070
   371
1070
    18
1070
   372
1070
    18
1002
}
  0
LINE
  5
80B4
330
8065
100
AcDbEntity
  8
実形
  6
ACAD_ISO08W100
 62
     3
 48
0.5
100
AcDbLine
 10
1102.069343183913
 20
-287.5334204559203
 30
0.0
 11
1102.069343183913
 21
-444.2147007915264
 31
0.0
  0
LINE
  5
80B5
330
8065
100
AcDbEntity
  8
実形
 62
     3
100
AcDbLine
 10
1011.569343183913
 20
-382.3860966284574
 30
0.0
 11
1011.569343183913
 21
-392.3860966284574
 31
0.0
  0
LINE
  5
80B6
330
8065
100
AcDbEntity
  8
実形
 62
     3
100
AcDbLine
 10
1192.569343183913
 20
-382.3860966284574
 30
0.0
 11
1192.569343183913
 21
-392.3860966284574
 31
0.0
  0
LINE
  5
80B7
330
8065
100
AcDbEntity
  8
実形
 62
     3
100
AcDbLine
 10
1011.569343183913
 20
-382.3860966284574
 30
0.0
 11
956.6026286319571
 21
-368.528941699393
 31
0.0
  0
ARC
  5
80B8
330
8065
100
AcDbEntity
  8
実形
 62
     3
100
AcDbCircle
 10
958.0693431839135
 20
-362.7109739766327
 30
0.0
 40
6.0
100
AcDbArc
 50
180.0
 51
255.8505239136548
  0
LINE
  5
80B9
330
8065
100
AcDbEntity
  8
実形
 62
     3
100
AcDbLine
 10
1192.569343183913
 20
-382.3860966284574
 30
0.0
 11
1706.242514515584
 21
-367.5543399971291
 31
0.0
  0
ARC
  5
80BA
330
8065
100
AcDbEntity
  8
実形
 62
     3
100
AcDbCircle
 10
1706.069343183914
 20
-361.5568395436162
 30
0.0
 40
6.0
100
AcDbArc
 50
271.6538940784474
 51
360.0
  0
DIMENSION
  5
80BB
330
8065
100
AcDbEntity
  8
実形
 62
     3
100
AcDbDimension
  2
*D29
 10
1182.069343183914
 20
-509.3026951643151
 30
0.0
 11
1102.069343183913
 21
-490.202695164315
 31
0.0
 70
    32
 71
     5
 42
160.0000000000002
  3
ISO-25
100
AcDbAlignedDimension
 13
1022.069343183913
 23
-392.3860966284575
 33
0.0
 14
1182.069343183914
 24
-392.3860966284575
 34
0.0
100
AcDbRotatedDimension
1001
ACAD
1000
DSTYLE
1002
{
1070
    41
1040
10.0
1070
   140
1040
25.0
1070
   147
1040
6.599999999999998
1070
   279
1070
     2
1070
   342
1005
30D
1070
   371
1070
    18
1070
   372
1070
    18
1002
}
  0
DIMENSION
  5
80BC
330
8065
100
AcDbEntity
  8
実形
 62
     3
100
AcDbDimension
  2
*D30
 10
1192.569343183913
 20
-580.5449919795919
 30
0.0
 11
1102.069343183913
 21
-561.4449919795919
 31
0.0
 70
    32
 71
     5
 42
180.9999999999995
  3
ISO-25
100
AcDbAlignedDimension
 13
1011.569343183913
 23
-392.3860966284575
 33
0.0
 14
1192.569343183913
 24
-392.3860966284617
 34
0.0
100
AcDbRotatedDimension
1001
ACAD
1000
DSTYLE
1002
{
1070
    41
1040
10.0
1070
   140
1040
25.0
1070
   147
1040
6.599999999999998
1070
   279
1070
     2
1070
   342
1005
30D
1070
   371
1070
    18
1070
   372
1070
    18
1002
}
  0
ARC
  5
80BD
330
8065
100
AcDbEntity
  8
実形
 62
     3
100
AcDbCircle
 10
1706.069343183913
 20
-361.5568395436162
 30
0.0
 40
6.0
100
AcDbArc
 50
271.6538940784474
 51
360.0
  0
ARC
  5
80BE
330
8065
100
AcDbEntity
  8
実形
 62
     3
100
AcDbCircle
 10
958.0693431839135
 20
-362.7109739766329
 30
0.0
 40
6.0
100
AcDbArc
 50
180.0
 51
255.8505239136549
  0
TEXT
  5
80BF
330
8065
100
AcDbEntity
  8
実形
 62
     3
100
AcDbText
 10
1042.683555881774
 20
-304.5623972451655
 30
0.0
 40
25.0
  1
6R
 72
     2
 11
1084.350222548441
 21
-307.8957305784988
 31
0.0
100
AcDbText
 73
     1
  0
TEXT
  5
80C0
330
8065
100
AcDbEntity
  8
実形
 62
     3
100
AcDbText
 10
1595.621696234116
 20
-306.4700963227503
 30
0.0
 40
25.0
  1
6R
 72
     2
 11
1637.288362900783
 21
-309.8034296560836
 31
0.0
100
AcDbText
 73
     1
  0
LEADER
  5
80C1
330
8065
100
AcDbEntity
  8
実形
 62
     3
100
AcDbLeader
  3
ISO-25
 76
     2
 10
965.4503650180505
 20
-356.9510230277229
 30
0.0
 10
1027.920188021731
 20
-309.3670608013253
 30
0.0
1001
ACAD
1000
DSTYLE
1002
{
1070
    77
1070
     0
1070
    41
1040
10.0
1070
   140
1040
30.0
1070
   147
1040
6.599999999999998
1070
   279
1070
     2
1070
   342
1005
30D
1070
   371
1070
    18
1070
   372
1070
    18
1002
}
  0
ARC
  5
80C2
330
8065
100
AcDbEntity
  8
実形
100
AcDbCircle
 10
1636.770210499882
 20
1638.178460662065
 30
0.0
 40
6.0
100
AcDbArc
 50
0.0
 51
90.0
  0
ARC
  5
80C3
330
8065
100
AcDbEntity
  8
実形
100
AcDbCircle
 10
1616.770210499882
 20
1210.178460662066
 30
0.0
 40
6.0
100
AcDbArc
 50
270.0
 51
0.0
  0
ARC
  5
80C4
330
8065
100
AcDbEntity
  8
実形
100
AcDbCircle
 10
1636.770210499882
 20
1190.178460662066
 30
0.0
 40
6.0
100
AcDbArc
 50
270.0
 51
0.0
  0
ARC
  5
80C5
330
8065
100
AcDbEntity
  8
実形
100
AcDbCircle
 10
848.7702104998824
 20
1638.178460662066
 30
0.0
 40
6.0
100
AcDbArc
 50
89.99999999999998
 51
180.0
  0
ARC
  5
80C6
330
8065
100
AcDbEntity
  8
実形
100
AcDbCircle
 10
868.7702104998823
 20
1210.178460662066
 30
0.0
 40
6.0
100
AcDbArc
 50
180.0
 51
270.0
  0
ARC
  5
80C7
330
8065
100
AcDbEntity
  8
実形
100
AcDbCircle
 10
848.7702104998826
 20
1190.178460662066
 30
0.0
 40
6.0
100
AcDbArc
 50
180.0
 51
270.0
  0
LEADER
  5
80C8
330
8065
100
AcDbEntity
  8
実形
 62
     3
100
AcDbLeader
  3
ISO-25
 76
     2
 10
1698.688321349777
 20
-356.9510230277229
 30
0.0
 10
1650.738809508872
 20
-308.106533025717
 30
0.0
211
-1.0
221
0.0
231
0.0
1001
ACAD
1000
DSTYLE
1002
{
1070
    77
1070
     0
1070
    41
1040
10.0
1070
   140
1040
30.0
1070
   147
1040
6.599999999999998
1070
   279
1070
     2
1070
   342
1005
30D
1070
   371
1070
    18
1070
   372
1070
    18
1002
}
  0
LINE
  5
80C9
330
8065
100
AcDbEntity
  8
実形
 62
     0
100
AcDbLine
 10
2114.0
 20
263.9999999999991
 30
0.0
 11
2834.0
 21
263.9999999999991
 31
0.0
  0
LINE
  5
80CA
330
8065
100
AcDbEntity
  8
実形
 62
     0
100
AcDbLine
 10
2114.0
 20
3.99999999999909
 30
0.0
 11
2114.0
 21
263.9999999999991
 31
0.0
  0
LINE
  5
80CB
330
8065
100
AcDbEntity
  8
実形
 62
     0
100
AcDbLine
 10
2234.0
 20
68.99999999999909
 30
0.0
 11
2234.0
 21
263.9999999999992
 31
0.0
  0
TEXT
  5
80CC
330
8065
100
AcDbEntity
  8
枠
 62
     0
100
AcDbText
 10
2137.833333333333
 20
213.9999999999991
 30
0.0
 40
35.0
  1
品名
 72
     4
 11
2174.0
 21
231.4999999999991
 31
0.0
100
AcDbText
  0
TEXT
  5
80CD
330
8065
100
AcDbEntity
  8
実形
100
AcDbText
 10
2323.374698073251
 20
213.2308752843241
 30
0.0
 40
35.0
  1
ｱﾝﾀﾞｰｼﾝｸ
  7
ms明朝
 72
     4
 11
2425.774698073251
 21
230.8308752843241
 31
0.0
100
AcDbText
  0
LINE
  5
80CE
330
8065
100
AcDbEntity
  8
枠
100
AcDbLine
 10
2834.0
 20
1958.999999999999
 30
0.0
 11
2114.0
 21
1958.999999999999
 31
0.0
  0
LINE
  5
80CF
330
8065
100
AcDbEntity
  8
枠
100
AcDbLine
 10
2834.0
 20
1893.999999999998
 30
0.0
 11
2114.0
 21
1893.999999999998
 31
0.0
  0
LINE
  5
80D0
330
8065
100
AcDbEntity
  8
枠
100
AcDbLine
 10
2114.0
 20
1893.999999999998
 30
0.0
 11
2114.0
 21
2023.999999999999
 31
0.0
  0
TEXT
  5
80D1
330
8065
100
AcDbEntity
  8
枠
100
AcDbText
 10
2671.5
 20
1976.499999999999
 30
0.0
 40
30.0
  1
仕上げ
 72
     4
 11
2721.5
 21
1991.499999999999
 31
0.0
100
AcDbText
  0
LINE
  5
80D2
330
8065
100
AcDbEntity
  8
枠
100
AcDbLine
 10
2592.81684247519
 20
1893.999999999998
 30
0.0
 11
2592.81684247519
 21
2023.999999999999
 31
0.0
  0
LINE
  5
80D3
330
8065
100
AcDbEntity
  8
枠
100
AcDbLine
 10
2367.816842475189
 20
1893.999999999998
 30
0.0
 11
2367.816842475189
 21
2023.999999999999
 31
0.0
  0
TEXT
  5
80D4
330
8065
100
AcDbEntity
  8
実形
100
AcDbText
 10
2641.5
 20
1911.5
 30
0.0
 40
30.0
  1
HL仕上げ
 72
     4
 11
2721.5
 21
1926.5
 31
0.0
100
AcDbText
  0
TEXT
  5
80D5
330
8065
100
AcDbEntity
  8
枠
100
AcDbText
 10
2194.5
 20
1976.499999999999
 30
0.0
 40
30.0
  1
材質
 72
     4
 11
2226.5
 21
1991.499999999999
 31
0.0
100
AcDbText
  0
TEXT
  5
80D6
330
8065
100
AcDbEntity
  8
実形
100
AcDbText
 10
2150.567741091872
 20
1909.802712155305
 30
0.0
 40
30.0
  1
SUS304
 72
     4
 11
2233.067741091872
 21
1924.802712155305
 31
0.0
100
AcDbText
  0
TEXT
  5
80D7
330
8065
100
AcDbEntity
  8
枠
100
AcDbText
 10
2445.771452399255
 20
1977.499999999999
 30
0.0
 40
30.0
  1
厚み
 72
     4
 11
2476.771452399255
 21
1991.499999999999
 31
0.0
100
AcDbText
  0
TEXT
  5
80D8
330
8065
100
AcDbEntity
  8
実形
100
AcDbText
 10
2418.271452399255
 20
1911.5
 30
0.0
 40
30.0
  1
1.0ｍｍ
 72
     4
 11
2476.771452399255
 21
1926.5
 31
0.0
100
AcDbText
  0
LINE
  5
80D9
330
8065
100
AcDbEntity
  8
実形
100
AcDbLine
 10
868.770210499882
 20
1554.178460662066
 30
0.0
 11
1092.770210499882
 21
1554.178460662066
 31
0.0
  0
DIMENSION
  5
80DA
330
8065
100
AcDbEntity
  8
実形
100
AcDbDimension
  2
*D31
 10
1043.456345948539
 20
1404.178460662066
 30
0.0
 11
1021.856345948539
 21
1479.178460662066
 31
0.0
 70
    32
 71
     5
 42
150.0000000000002
  3
ISO-25
100
AcDbAlignedDimension
 13
1159.538117598124
 23
1554.178460662066
 33
0.0
 14
1156.209930106677
 24
1404.178460662066
 34
0.0
 50
90.0
100
AcDbRotatedDimension
1001
ACAD
1000
DSTYLE
1002
{
1070
    41
1040
10.0
1070
   140
1040
30.0
1070
   147
1040
6.599999999999998
1070
   279
1070
     2
1070
   342
1005
30D
1070
   371
1070
    18
1070
   372
1070
    18
1002
}
  0
DIMENSION
  5
80DB
330
8065
100
AcDbEntity
  8
実形
100
AcDbDimension
  2
*D32
 10
1622.770210499882
 20
1270.994834284402
 30
0.0
 11
1432.770210499882
 21
1292.594834284402
 31
0.0
 70
    32
 71
     5
 42
380.0
  3
ISO-25
100
AcDbAlignedDimension
 13
1242.770210499882
 23
1365.740901717254
 33
0.0
 14
1622.770210499882
 24
1365.740901717254
 34
0.0
100
AcDbRotatedDimension
1001
ACAD
1000
DSTYLE
1002
{
1070
    41
1040
10.0
1070
   140
1040
30.0
1070
   147
1040
6.599999999999998
1070
   279
1070
     2
1070
   342
1005
30D
1070
   371
1070
    18
1070
   372
1070
    18
1002
}
  0
LINE
  5
80DC
330
8065
100
AcDbEntity
  8
実形
100
AcDbLine
 10
1092.770210499882
 20
1554.178460662066
 30
0.0
 11
1092.770210499882
 21
1624.178460662066
 31
0.0
  0
LINE
  5
80DD
330
8065
100
AcDbEntity
  8
実形
100
AcDbLine
 10
1392.770210499882
 20
1554.178460662066
 30
0.0
 11
1392.770210499882
 21
1624.178460662066
 31
0.0
  0
DIMENSION
  5
80DE
330
8065
100
AcDbEntity
  8
実形
100
AcDbDimension
  2
*D33
 10
1092.770210499882
 20
1735.385472702717
 30
0.0
 11
967.7702104998825
 21
1754.485472702717
 31
0.0
 70
    32
 71
     5
 42
250.0000000000001
  3
ISO-25
100
AcDbAlignedDimension
 13
842.7702104998823
 23
1624.178460662066
 33
0.0
 14
1092.770210499882
 24
1624.178460662066
 34
0.0
100
AcDbRotatedDimension
1001
ACAD
1000
DSTYLE
1002
{
1070
    41
1040
10.0
1070
   140
1040
25.0
1070
   147
1040
6.599999999999998
1070
   279
1070
     2
1070
   342
1005
30D
1070
   371
1070
    18
1070
   372
1070
    18
1002
}
  0
DIMENSION
  5
80DF
330
8065
100
AcDbEntity
  8
実形
100
AcDbDimension
  2
*D34
 10
1392.770210499882
 20
1735.385472702717
 30
0.0
 11
1242.770210499882
 21
1754.485472702717
 31
0.0
 70
    32
 71
     5
 42
300.0
  3
ISO-25
100
AcDbAlignedDimension
 13
1092.770210499882
 23
1624.178460662066
 33
0.0
 14
1392.770210499882
 24
1624.178460662066
 34
0.0
100
AcDbRotatedDimension
1001
ACAD
1000
DSTYLE
1002
{
1070
    41
1040
10.0
1070
   140
1040
25.0
1070
   147
1040
6.599999999999998
1070
   279
1070
     2
1070
   342
1005
30D
1070
   371
1070
    18
1070
   372
1070
    18
1002
}
  0
DIMENSION
  5
80E0
330
8065
100
AcDbEntity
  8
実形
100
AcDbDimension
  2
*D35
 10
1642.770210499882
 20
1735.385472702717
 30
0.0
 11
1517.770210499882
 21
1754.485472702717
 31
0.0
 70
    32
 71
     5
 42
249.9999999999998
  3
ISO-25
100
AcDbAlignedDimension
 13
1392.770210499883
 23
1624.178460662065
 33
0.0
 14
1642.770210499882
 24
1624.178460662065
 34
0.0
100
AcDbRotatedDimension
1001
ACAD
1000
DSTYLE
1002
{
1070
    41
1040
10.0
1070
   140
1040
25.0
1070
   147
1040
6.599999999999998
1070
   279
1070
     2
1070
   342
1005
30D
1070
   371
1070
    18
1070
   372
1070
    18
1002
}
  0
DIMENSION
  5
80E1
330
8065
100
AcDbEntity
  8
実形
100
AcDbDimension
  2
*D36
 10
1657.770210499882
 20
1735.385472702717
 30
0.0
 11
826.3182245476109
 21
1760.370517377699
 31
0.0
 70
   160
  1
15
 71
     5
 42
830.0
  3
ISO-25
100
AcDbAlignedDimension
 13
827.7702104998825
 23
1624.806458158204
 33
0.0
 14
1657.770210499882
 24
1624.161761419618
 34
0.0
100
AcDbRotatedDimension
1001
ACAD
1000
DSTYLE
1002
{
1070
    41
1040
10.0
1070
   140
1040
25.0
1070
   147
1040
6.599999999999998
1070
   279
1070
     2
1070
   342
1005
30D
1070
   371
1070
    18
1070
   372
1070
    18
1002
}
  0
TEXT
  5
80E2
330
8065
100
AcDbEntity
  8
実形
 48
20.0
100
AcDbText
 10
1644.285264478984
 20
1745.579848299247
 30
0.0
 40
25.0
  1
15
100
AcDbText
  0
DIMENSION
  5
80E3
330
8065
100
AcDbEntity
  8
実形
100
AcDbDimension
  2
*D37
 10
1771.093547640548
 20
1184.178460662066
 30
0.0
 11
1751.993547640548
 21
1414.178460662066
 31
0.0
 70
    32
 71
     5
 42
459.9999999999997
  3
ISO-25
100
AcDbAlignedDimension
 13
1657.770210499882
 23
1644.178460662066
 33
0.0
 14
1657.770210499883
 24
1184.178460662066
 34
0.0
 50
90.0
100
AcDbRotatedDimension
1001
ACAD
1000
DSTYLE
1002
{
1070
    41
1040
10.0
1070
   140
1040
25.0
1070
   147
1040
6.599999999999998
1070
   279
1070
     2
1070
   342
1005
30D
1070
   371
1070
    18
1070
   372
1070
    18
1002
}
  0
DIMENSION
  5
80E4
330
8065
100
AcDbEntity
  8
実形
100
AcDbDimension
  2
*D38
 10
1771.093547640548
 20
1169.178460662066
 30
0.0
 11
1749.493547640548
 21
1688.725599288342
 31
0.0
 70
   160
  1
15
 71
     5
 42
490.0
  3
ISO-25
100
AcDbAlignedDimension
 13
1657.770210499882
 23
1659.178460662066
 33
0.0
 14
1657.770210499882
 24
1169.178460662066
 34
0.0
 50
90.0
100
AcDbRotatedDimension
1001
ACAD
1000
DSTYLE
1002
{
1070
    41
1040
10.0
1070
   140
1040
25.0
1070
   147
1040
6.599999999999998
1070
   279
1070
     2
1070
   342
1005
30D
1070
   371
1070
    18
1070
   372
1070
    18
1002
}
  0
TEXT
  5
80E5
330
8065
100
AcDbEntity
  8
実形
 48
20.0
100
AcDbText
 10
1763.371050332344
 20
1117.528641274333
 30
0.0
 40
25.0
  1
15
 50
90.0
100
AcDbText
  0
DIMENSION
  5
80E6
330
8065
100
AcDbEntity
  8
実形
100
AcDbDimension
  2
*D39
 10
1833.118375451033
 20
1169.178460662066
 30
0.0
 11
1814.018375451033
 21
1414.178460662066
 31
0.0
 70
    32
 71
     5
 42
490.0
  3
ISO-25
100
AcDbAlignedDimension
 13
1657.770210499882
 23
1659.178460662066
 33
0.0
 14
1657.770210499882
 24
1169.178460662066
 34
0.0
 50
90.0
100
AcDbRotatedDimension
1001
ACAD
1000
DSTYLE
1002
{
1070
    41
1040
10.0
1070
   140
1040
25.0
1070
   147
1040
6.599999999999998
1070
   279
1070
     2
1070
   342
1005
30D
1070
   371
1070
    18
1070
   372
1070
    18
1002
}
  0
LINE
  5
80E7
330
8065
100
AcDbEntity
  8
実形
100
AcDbLine
 10
773.3275276276962
 20
1644.178460662066
 30
0.0
 11
738.1482502386061
 21
1644.178460662066
 31
0.0
  0
LINE
  5
80E8
330
8065
100
AcDbEntity
  8
実形
100
AcDbLine
 10
738.1482502386061
 20
1644.178460662066
 30
0.0
 11
738.1482502386061
 21
1624.178460662066
 31
0.0
  0
LINE
  5
80E9
330
8065
100
AcDbEntity
  8
実形
100
AcDbLine
 10
738.1482502386061
 20
1624.178460662066
 30
0.0
 11
773.3275276276963
 21
1624.178460662066
 31
0.0
  0
DIMENSION
  5
80EA
330
8065
100
AcDbEntity
  8
実形
100
AcDbDimension
  2
*D40
 10
738.1482502386061
 20
1644.178460662066
 30
0.0
 11
715.569680847846
 21
1589.259853472391
 31
0.0
 70
   160
  1
70
 71
     5
 42
89.99999999999955
  3
ISO-25
100
AcDbAlignedDimension
 13
832.3275276276962
 23
1554.178460662066
 33
0.0
 14
832.3275276276962
 24
1644.178460662066
 34
0.0
 50
90.0
100
AcDbRotatedDimension
1001
ACAD
1000
DSTYLE
1002
{
1070
    41
1040
10.0
1070
   140
1040
25.0
1070
   147
1040
6.599999999999998
1070
   279
1070
     2
1070
   342
1005
30D
1070
   371
1070
    18
1070
   372
1070
    18
1002
}
  0
DIMENSION
  5
80EB
330
8065
100
AcDbEntity
  8
実形
100
AcDbDimension
  2
*D41
 10
738.1482502386061
 20
1624.178460662066
 30
0.0
 11
801.3626707265066
 21
1625.22842009638
 31
0.0
 70
   160
  1
20
 71
     5
 42
69.99999999999977
  3
ISO-25
100
AcDbAlignedDimension
 13
832.3275276276962
 23
1554.178460662066
 33
0.0
 14
838.3275276276963
 24
1624.178460662066
 34
0.0
 50
90.0
100
AcDbRotatedDimension
1001
ACAD
1000
DSTYLE
1002
{
1070
    41
1040
10.0
1070
   140
1040
25.0
1070
   147
1040
6.599999999999998
1070
   279
1070
     2
1070
   342
1005
30D
1070
   371
1070
    18
1070
   372
1070
    18
1002
}
  0
TEXT
  5
80EC
330
8065
100
AcDbEntity
  8
実形
 48
20.0
100
AcDbText
 10
797.0821669850392
 20
2333.361271294907
 30
0.0
 40
8.0
  1
●
 50
90.0
100
AcDbText
  0
DIMENSION
  5
80ED
330
8065
100
AcDbEntity
  8
実形
100
AcDbDimension
  2
*D42
 10
672.3280192665588
 20
1554.178460662066
 30
0.0
 11
653.2280192665585
 21
1599.178460662066
 31
0.0
 70
    32
 71
     5
 42
89.99999999999955
  3
ISO-25
100
AcDbAlignedDimension
 13
800.771238858355
 23
1644.178460662066
 33
0.0
 14
779.7500916428215
 24
1554.178460662066
 34
0.0
 50
90.0
100
AcDbRotatedDimension
1001
ACAD
1000
DSTYLE
1002
{
1070
    41
1040
10.0
1070
   140
1040
25.0
1070
   147
1040
6.599999999999998
1070
   279
1070
     2
1070
   342
1005
30D
1070
   371
1070
    18
1070
   372
1070
    18
1002
}
  0
DIMENSION
  5
80EE
330
8065
100
AcDbEntity
  8
実形
100
AcDbDimension
  2
*D43
 10
672.3280192665587
 20
1204.178460662066
 30
0.0
 11
653.2280192665585
 21
1379.178460662066
 31
0.0
 70
    32
 71
     5
 42
350.0000000000004
  3
ISO-25
100
AcDbAlignedDimension
 13
797.6742997845558
 23
1554.178460662066
 33
0.0
 14
802.7945193027008
 24
1204.178460662066
 34
0.0
 50
90.0
100
AcDbRotatedDimension
1001
ACAD
1000
DSTYLE
1002
{
1070
    41
1040
10.0
1070
   140
1040
25.0
1070
   147
1040
6.599999999999998
1070
   279
1070
     2
1070
   342
1005
30D
1070
   371
1070
    18
1070
   372
1070
    18
1002
}
  0
DIMENSION
  5
80EF
330
8065
100
AcDbEntity
  8
実形
100
AcDbDimension
  2
*D44
 10
672.3280192665587
 20
1169.178460662066
 30
0.0
 11
650.7280192665586
 21
1682.883538982083
 31
0.0
 70
   160
  1
15
 71
     5
 42
490.0
  3
ISO-25
100
AcDbAlignedDimension
 13
829.1539611657317
 23
1659.178460662066
 33
0.0
 14
802.2641105192887
 24
1169.178460662066
 34
0.0
 50
90.0
100
AcDbRotatedDimension
1001
ACAD
1000
DSTYLE
1002
{
1070
    41
1040
10.0
1070
   140
1040
25.0
1070
   147
1040
6.599999999999998
1070
   279
1070
     2
1070
   342
1005
30D
1070
   371
1070
    18
1070
   372
1070
    18
1002
}
  0
DIMENSION
  5
80F0
330
8065
100
AcDbEntity
  8
実形
100
AcDbDimension
  2
*D45
 10
672.3280192665588
 20
1554.178460662066
 30
0.0
 11
650.745963999092
 21
1217.459715149787
 31
0.0
 70
   160
  1
20
 71
     5
 42
370.0000000000005
  3
ISO-25
100
AcDbAlignedDimension
 13
802.7945193027008
 23
1184.178460662066
 33
0.0
 14
767.3275276276962
 24
1554.178460662066
 34
0.0
 50
90.0
100
AcDbRotatedDimension
1001
ACAD
1000
DSTYLE
1002
{
1070
    41
1040
10.0
1070
   140
1040
25.0
1070
   147
1040
6.599999999999998
1070
   279
1070
     2
1070
   342
1005
30D
1070
   371
1070
    18
1070
   372
1070
    18
1002
}
  0
TEXT
  5
80F1
330
8065
100
AcDbEntity
  8
実形
 48
20.0
100
AcDbText
 10
662.9803565113634
 20
1130.061801922893
 30
0.0
 40
25.0
  1
15
 50
90.0
100
AcDbText
  0
DIMENSION
  5
80F2
330
8065
100
AcDbEntity
  8
実形
100
AcDbDimension
  2
*D46
 10
616.3564627716168
 20
1184.178460662066
 30
0.0
 11
597.2564627716167
 21
1414.178460662066
 31
0.0
 70
    32
 71
     5
 42
460.0
  3
ISO-25
100
AcDbAlignedDimension
 13
831.7269474160729
 23
1644.178460662066
 33
0.0
 14
804.8056315785306
 24
1184.178460662066
 34
0.0
 50
90.0
100
AcDbRotatedDimension
1001
ACAD
1000
DSTYLE
1002
{
1070
    41
1040
10.0
1070
   140
1040
25.0
1070
   147
1040
6.599999999999998
1070
   279
1070
     2
1070
   342
1005
30D
1070
   371
1070
    18
1070
   372
1070
    18
1002
}
  0
DIMENSION
  5
80F3
330
8065
100
AcDbEntity
  8
実形
100
AcDbDimension
  2
*D47
 10
556.8835017673409
 20
1169.178460662066
 30
0.0
 11
535.2835017673408
 21
1414.178460662066
 31
0.0
 70
    32
 71
     5
 42
490.0
  3
ISO-25
100
AcDbAlignedDimension
 13
827.7702104998825
 23
1659.178460662066
 33
0.0
 14
805.8183231977528
 24
1169.178460662066
 34
0.0
 50
90.0
100
AcDbRotatedDimension
1001
ACAD
1000
DSTYLE
1002
{
1070
    41
1040
10.0
1070
   140
1040
30.0
1070
   147
1040
6.599999999999998
1070
   279
1070
     2
1070
   342
1005
30D
1070
   371
1070
    18
1070
   372
1070
    18
1002
}
  0
LINE
  5
80F4
330
8065
100
AcDbEntity
  8
実形
100
AcDbLine
 10
1392.770210499882
 20
1554.178460662066
 30
0.0
 11
1616.770210499882
 21
1554.178460662066
 31
0.0
  0
ARC
  5
80F5
330
8065
100
AcDbEntity
  8
実形
100
AcDbCircle
 10
868.770210499882
 20
1548.178460662066
 30
0.0
 40
6.0
100
AcDbArc
 50
89.99999999999994
 51
180.0
  0
ARC
  5
80F6
330
8065
100
AcDbEntity
  8
実形
100
AcDbCircle
 10
1616.770210499882
 20
1548.178460662066
 30
0.0
 40
6.0
100
AcDbArc
 50
0.0
 51
89.99999999999994
  0
LINE
  5
80F7
330
8065
100
AcDbEntity
  8
実形
  6
ACAD_ISO08W100
 48
0.5
100
AcDbLine
 10
1242.770210499882
 20
1300.740901717254
 30
0.0
 11
1242.770210499882
 21
1599.683968216935
 31
0.0
  0
ENDBLK
  5
8101
330
8065
100
AcDbEntity
  8
0
 62
     3
100
AcDbBlockEnd
  0
BLOCK
  5
8C58
330
8C4E
100
AcDbEntity
  8
0
 62
     3
100
AcDbBlockBegin
  2
*D49
 70
     1
 10
0.0
 20
0.0
 30
0.0
  3
*D49
  1

  0
LINE
  5
B169
330
8C4E
100
AcDbEntity
  8
実形
 62
     0
370
    18
100
AcDbLine
 10
1464.481704972408
 20
1604.047590588581
 30
0.0
 11
1464.481704972408
 21
1625.464142184848
 31
0.0
  0
LINE
  5
B16A
330
8C4E
100
AcDbEntity
  8
実形
 62
     0
370
    18
100
AcDbLine
 10
1614.481704972407
 20
1604.047590588582
 30
0.0
 11
1614.481704972407
 21
1625.464142184848
 31
0.0
  0
LINE
  5
B16B
330
8C4E
100
AcDbEntity
  8
実形
 62
     0
370
    18
100
AcDbLine
 10
1474.481704972408
 20
1625.464142184848
 30
0.0
 11
1604.481704972408
 21
1625.464142184848
 31
0.0
  0
INSERT
  5
B16C
330
8C4E
100
AcDbEntity
  8
実形
 62
     0
370
    18
100
AcDbBlockReference
  2
_Dot
 10
1464.481704972408
 20
1625.464142184848
 30
0.0
 41
10.0
 42
10.0
 43
10.0
 50
180.0
  0
INSERT
  5
B16D
330
8C4E
100
AcDbEntity
  8
実形
 62
     0
370
    18
100
AcDbBlockReference
  2
_Dot
 10
1614.481704972407
 20
1625.464142184848
 30
0.0
 41
10.0
 42
10.0
 43
10.0
  0
MTEXT
  5
B16E
330
8C4E
100
AcDbEntity
  8
実形
 62
     0
100
AcDbMText
 10
1539.481704972408
 20
1644.564142184848
 30
0.0
 40
25.0
 41
0.0
 71
     5
 72
     1
  1
150
 73
     1
 44
1.0
1001
ACAD
1000
MTEXTBEGIN
1070
    73
1070
     1
1070
    44
1040
1.0
1070
    74
1070
     0
1000
MTEXTEND
  0
POINT
  5
B16F
330
8C4E
100
AcDbEntity
  8
Defpoints
 62
     0
100
AcDbPoint
 10
1464.481704972408
 20
1539.047590588581
 30
0.0
  0
POINT
  5
B170
330
8C4E
100
AcDbEntity
  8
Defpoints
 62
     0
100
AcDbPoint
 10
1614.481704972407
 20
1539.047590588581
 30
0.0
  0
POINT
  5
B171
330
8C4E
100
AcDbEntity
  8
Defpoints
 62
     0
100
AcDbPoint
 10
1614.481704972407
 20
1625.464142184848
 30
0.0
  0
ENDBLK
  5
8C59
330
8C4E
100
AcDbEntity
  8
0
 62
     3
100
AcDbBlockEnd
  0
BLOCK
  5
8C7B
330
8C71
100
AcDbEntity
  8
0
 62
     3
100
AcDbBlockBegin
  2
*D50
 70
     1
 10
0.0
 20
0.0
 30
0.0
  3
*D50
  1

  0
LINE
  5
B121
330
8C71
100
AcDbEntity
  8
実形
 62
     0
370
    18
100
AcDbLine
 10
1350.797255878531
 20
1448.547590588581
 30
0.0
 11
1302.405135663686
 21
1448.547590588581
 31
0.0
  0
LINE
  5
B122
330
8C71
100
AcDbEntity
  8
実形
 62
     0
370
    18
100
AcDbLine
 10
1350.797255878531
 20
1213.547590588581
 30
0.0
 11
1302.405135663686
 21
1213.547590588581
 31
0.0
  0
LINE
  5
B123
330
8C71
100
AcDbEntity
  8
実形
 62
     0
370
    18
100
AcDbLine
 10
1302.405135663686
 20
1438.547590588581
 30
0.0
 11
1302.405135663686
 21
1223.547590588581
 31
0.0
  0
INSERT
  5
B124
330
8C71
100
AcDbEntity
  8
実形
 62
     0
370
    18
100
AcDbBlockReference
  2
_Dot
 10
1302.405135663686
 20
1448.547590588581
 30
0.0
 41
10.0
 42
10.0
 43
10.0
 50
90.0
  0
INSERT
  5
B125
330
8C71
100
AcDbEntity
  8
実形
 62
     0
370
    18
100
AcDbBlockReference
  2
_Dot
 10
1302.405135663686
 20
1213.547590588581
 30
0.0
 41
10.0
 42
10.0
 43
10.0
 50
270.0
  0
MTEXT
  5
B126
330
8C71
100
AcDbEntity
  8
実形
 62
     0
100
AcDbMText
 10
1283.305135663686
 20
1331.047590588581
 30
0.0
 40
25.0
 41
0.0
 71
     5
 72
     1
  1
235
 11
0.0000000000000001
 21
1.0
 31
0.0
 73
     1
 44
1.0
1001
ACAD
1000
MTEXTBEGIN
1070
    73
1070
     1
1070
    44
1040
1.0
1070
    74
1070
     0
1000
MTEXTEND
  0
POINT
  5
B127
330
8C71
100
AcDbEntity
  8
Defpoints
 62
     0
100
AcDbPoint
 10
1415.797255878531
 20
1448.547590588581
 30
0.0
  0
POINT
  5
B128
330
8C71
100
AcDbEntity
  8
Defpoints
 62
     0
100
AcDbPoint
 10
1415.797255878531
 20
1213.547590588581
 30
0.0
  0
POINT
  5
B129
330
8C71
100
AcDbEntity
  8
Defpoints
 62
     0
100
AcDbPoint
 10
1302.405135663686
 20
1213.547590588581
 30
0.0
  0
ENDBLK
  5
8C7C
330
8C71
100
AcDbEntity
  8
0
 62
     3
100
AcDbBlockEnd
  0
BLOCK
  5
8E11
330
8E07
100
AcDbEntity
  8
0
 62
     3
100
AcDbBlockBegin
  2
*D51
 70
     1
 10
0.0
 20
0.0
 30
0.0
  3
*D51
  1

  0
LINE
  5
B0FE
330
8E07
100
AcDbEntity
  8
実形
 62
     0
370
    18
100
AcDbLine
 10
1885.481704972408
 20
1113.547590588581
 30
0.0
 11
1885.481704972408
 21
986.8016468789756
 31
0.0
  0
LINE
  5
B0FF
330
8E07
100
AcDbEntity
  8
実形
 62
     0
370
    18
100
AcDbLine
 10
1055.481704972408
 20
1113.547590588581
 30
0.0
 11
1055.481704972408
 21
986.8016468789756
 31
0.0
  0
LINE
  5
B100
330
8E07
100
AcDbEntity
  8
実形
 62
     0
370
    18
100
AcDbLine
 10
1875.481704972408
 20
986.8016468789756
 30
0.0
 11
1065.481704972408
 21
986.8016468789756
 31
0.0
  0
INSERT
  5
B101
330
8E07
100
AcDbEntity
  8
実形
 62
     0
370
    18
100
AcDbBlockReference
  2
_Dot
 10
1885.481704972408
 20
986.8016468789756
 30
0.0
 41
10.0
 42
10.0
 43
10.0
  0
INSERT
  5
B102
330
8E07
100
AcDbEntity
  8
実形
 62
     0
370
    18
100
AcDbBlockReference
  2
_Dot
 10
1055.481704972408
 20
986.8016468789756
 30
0.0
 41
10.0
 42
10.0
 43
10.0
 50
180.0
  0
POINT
  5
B103
330
8E07
100
AcDbEntity
  8
Defpoints
 62
     0
100
AcDbPoint
 10
1885.481704972408
 20
1178.547590588581
 30
0.0
  0
POINT
  5
B104
330
8E07
100
AcDbEntity
  8
Defpoints
 62
     0
100
AcDbPoint
 10
1055.481704972408
 20
1178.547590588581
 30
0.0
  0
POINT
  5
B105
330
8E07
100
AcDbEntity
  8
Defpoints
 62
     0
100
AcDbPoint
 10
1055.481704972408
 20
986.8016468789756
 30
0.0
  0
ENDBLK
  5
8E12
330
8E07
100
AcDbEntity
  8
0
 62
     3
100
AcDbBlockEnd
  0
BLOCK
  5
8E1E
330
8E14
100
AcDbEntity
  8
0
 62
     3
100
AcDbBlockBegin
  2
*D52
 70
     1
 10
0.0
 20
0.0
 30
0.0
  3
*D52
  1

  0
LINE
  5
B118
330
8E14
100
AcDbEntity
  8
実形
 62
     0
370
    18
100
AcDbLine
 10
1850.481704972408
 20
1113.547590588581
 30
0.0
 11
1850.481704972408
 21
1047.891333620135
 31
0.0
  0
LINE
  5
B119
330
8E14
100
AcDbEntity
  8
実形
 62
     0
370
    18
100
AcDbLine
 10
1070.481704972408
 20
1113.547590588581
 30
0.0
 11
1070.481704972408
 21
1047.891333620135
 31
0.0
  0
LINE
  5
B11A
330
8E14
100
AcDbEntity
  8
実形
 62
     0
370
    18
100
AcDbLine
 10
1840.481704972408
 20
1047.891333620135
 30
0.0
 11
1080.481704972408
 21
1047.891333620135
 31
0.0
  0
MTEXT
  5
B11B
330
8E14
100
AcDbEntity
  8
実形
 62
     0
100
AcDbMText
 10
1015.767479774875
 20
1018.736709673649
 30
0.0
 40
25.0
 41
0.0
 71
     5
 72
     1
  1
15
 73
     1
 44
1.0
1001
ACAD
1000
MTEXTBEGIN
1070
    73
1070
     1
1070
    44
1040
1.0
1070
    74
1070
     0
1000
MTEXTEND
  0
INSERT
  5
B11C
330
8E14
100
AcDbEntity
  8
実形
 62
     0
370
    18
100
AcDbBlockReference
  2
_Dot
 10
1850.481704972408
 20
1047.891333620135
 30
0.0
 41
10.0
 42
10.0
 43
10.0
  0
INSERT
  5
B11D
330
8E14
100
AcDbEntity
  8
実形
 62
     0
370
    18
100
AcDbBlockReference
  2
_Dot
 10
1070.481704972408
 20
1047.891333620135
 30
0.0
 41
10.0
 42
10.0
 43
10.0
 50
180.0
  0
POINT
  5
B11E
330
8E14
100
AcDbEntity
  8
Defpoints
 62
     0
100
AcDbPoint
 10
1850.481704972408
 20
1178.547590588581
 30
0.0
  0
POINT
  5
B11F
330
8E14
100
AcDbEntity
  8
Defpoints
 62
     0
100
AcDbPoint
 10
1070.481704972408
 20
1178.547590588581
 30
0.0
  0
POINT
  5
B120
330
8E14
100
AcDbEntity
  8
Defpoints
 62
     0
100
AcDbPoint
 10
1070.481704972408
 20
1047.891333620135
 30
0.0
  0
ENDBLK
  5
8E1F
330
8E14
100
AcDbEntity
  8
0
 62
     3
100
AcDbBlockEnd
  0
BLOCK
  5
8E34
330
8E2A
100
AcDbEntity
  8
0
 62
     3
100
AcDbBlockBegin
  2
*D53
 70
     1
 10
0.0
 20
0.0
 30
0.0
  3
*D53
  1

  0
LINE
  5
B160
330
8E2A
100
AcDbEntity
  8
実形
 62
     0
370
    18
100
AcDbLine
 10
1850.481704972408
 20
1113.547590588581
 30
0.0
 11
1850.481704972408
 21
1047.891333620135
 31
0.0
  0
LINE
  5
B161
330
8E2A
100
AcDbEntity
  8
実形
 62
     0
370
    18
100
AcDbLine
 10
1634.481704972408
 20
1113.547590588581
 30
0.0
 11
1634.481704972408
 21
1047.891333620135
 31
0.0
  0
LINE
  5
B162
330
8E2A
100
AcDbEntity
  8
実形
 62
     0
370
    18
100
AcDbLine
 10
1840.481704972408
 20
1047.891333620135
 30
0.0
 11
1644.481704972408
 21
1047.891333620135
 31
0.0
  0
INSERT
  5
B163
330
8E2A
100
AcDbEntity
  8
実形
 62
     0
370
    18
100
AcDbBlockReference
  2
_Dot
 10
1850.481704972408
 20
1047.891333620135
 30
0.0
 41
10.0
 42
10.0
 43
10.0
  0
INSERT
  5
B164
330
8E2A
100
AcDbEntity
  8
実形
 62
     0
370
    18
100
AcDbBlockReference
  2
_Dot
 10
1634.481704972408
 20
1047.891333620135
 30
0.0
 41
10.0
 42
10.0
 43
10.0
 50
180.0
  0
MTEXT
  5
B165
330
8E2A
100
AcDbEntity
  8
実形
 62
     0
100
AcDbMText
 10
1742.481704972408
 20
1066.991333620135
 30
0.0
 40
25.0
 41
0.0
 71
     5
 72
     1
  1
216
 73
     1
 44
1.0
1001
ACAD
1000
MTEXTBEGIN
1070
    73
1070
     1
1070
    44
1040
1.0
1070
    74
1070
     0
1000
MTEXTEND
  0
POINT
  5
B166
330
8E2A
100
AcDbEntity
  8
Defpoints
 62
     0
100
AcDbPoint
 10
1850.481704972408
 20
1178.547590588581
 30
0.0
  0
POINT
  5
B167
330
8E2A
100
AcDbEntity
  8
Defpoints
 62
     0
100
AcDbPoint
 10
1634.481704972408
 20
1178.547590588581
 30
0.0
  0
POINT
  5
B168
330
8E2A
100
AcDbEntity
  8
Defpoints
 62
     0
100
AcDbPoint
 10
1634.481704972408
 20
1047.891333620135
 30
0.0
  0
ENDBLK
  5
8E35
330
8E2A
100
AcDbEntity
  8
0
 62
     3
100
AcDbBlockEnd
  0
BLOCK
  5
8E4A
330
8E40
100
AcDbEntity
  8
0
 62
     3
100
AcDbBlockBegin
  2
*D54
 70
     1
 10
0.0
 20
0.0
 30
0.0
  3
*D54
  1

  0
LINE
  5
B0F5
330
8E40
100
AcDbEntity
  8
実形
 62
     0
370
    18
100
AcDbLine
 10
1870.481704972408
 20
1113.547590588581
 30
0.0
 11
1870.481704972408
 21
1047.891333620135
 31
0.0
  0
LINE
  5
B0F6
330
8E40
100
AcDbEntity
  8
実形
 62
     0
370
    18
100
AcDbLine
 10
1614.481704972408
 20
1113.547590588581
 30
0.0
 11
1614.481704972408
 21
1047.891333620135
 31
0.0
  0
LINE
  5
B0F7
330
8E40
100
AcDbEntity
  8
実形
 62
     0
370
    18
100
AcDbLine
 10
1860.481704972408
 20
1047.891333620135
 30
0.0
 11
1624.481704972408
 21
1047.891333620135
 31
0.0
  0
MTEXT
  5
B0F8
330
8E40
100
AcDbEntity
  8
実形
 62
     0
100
AcDbMText
 10
1918.791712293843
 20
1013.866142094053
 30
0.0
 40
25.0
 41
0.0
 71
     5
 72
     1
  1
15
 73
     1
 44
1.0
1001
ACAD
1000
MTEXTBEGIN
1070
    73
1070
     1
1070
    44
1040
1.0
1070
    74
1070
     0
1000
MTEXTEND
  0
INSERT
  5
B0F9
330
8E40
100
AcDbEntity
  8
実形
 62
     0
370
    18
100
AcDbBlockReference
  2
_Dot
 10
1870.481704972408
 20
1047.891333620135
 30
0.0
 41
10.0
 42
10.0
 43
10.0
  0
INSERT
  5
B0FA
330
8E40
100
AcDbEntity
  8
実形
 62
     0
370
    18
100
AcDbBlockReference
  2
_Dot
 10
1614.481704972408
 20
1047.891333620135
 30
0.0
 41
10.0
 42
10.0
 43
10.0
 50
180.0
  0
POINT
  5
B0FB
330
8E40
100
AcDbEntity
  8
Defpoints
 62
     0
100
AcDbPoint
 10
1870.481704972408
 20
1178.547590588581
 30
0.0
  0
POINT
  5
B0FC
330
8E40
100
AcDbEntity
  8
Defpoints
 62
     0
100
AcDbPoint
 10
1614.481704972408
 20
1178.547590588581
 30
0.0
  0
POINT
  5
B0FD
330
8E40
100
AcDbEntity
  8
Defpoints
 62
     0
100
AcDbPoint
 10
1614.481704972408
 20
1047.891333620135
 30
0.0
  0
ENDBLK
  5
8E4B
330
8E40
100
AcDbEntity
  8
0
 62
     3
100
AcDbBlockEnd
  0
BLOCK
  5
8E8C
330
8E82
100
AcDbEntity
  8
0
 62
     3
100
AcDbBlockBegin
  2
*D55
 70
     1
 10
0.0
 20
0.0
 30
0.0
  3
*D55
  1

  0
LINE
  5
B10F
330
8E82
100
AcDbEntity
  8
実形
 62
     0
370
    18
100
AcDbLine
 10
1614.481704972408
 20
1113.547590588581
 30
0.0
 11
1614.481704972408
 21
1047.891333620135
 31
0.0
  0
LINE
  5
B110
330
8E82
100
AcDbEntity
  8
実形
 62
     0
370
    18
100
AcDbLine
 10
1090.481704972408
 20
1113.547590588581
 30
0.0
 11
1090.481704972408
 21
1047.891333620135
 31
0.0
  0
LINE
  5
B111
330
8E82
100
AcDbEntity
  8
実形
 62
     0
370
    18
100
AcDbLine
 10
1604.481704972408
 20
1047.891333620135
 30
0.0
 11
1100.481704972408
 21
1047.891333620135
 31
0.0
  0
INSERT
  5
B112
330
8E82
100
AcDbEntity
  8
実形
 62
     0
370
    18
100
AcDbBlockReference
  2
_Dot
 10
1614.481704972408
 20
1047.891333620135
 30
0.0
 41
10.0
 42
10.0
 43
10.0
  0
INSERT
  5
B113
330
8E82
100
AcDbEntity
  8
実形
 62
     0
370
    18
100
AcDbBlockReference
  2
_Dot
 10
1090.481704972408
 20
1047.891333620135
 30
0.0
 41
10.0
 42
10.0
 43
10.0
 50
180.0
  0
MTEXT
  5
B114
330
8E82
100
AcDbEntity
  8
実形
 62
     0
100
AcDbMText
 10
1352.481704972408
 20
1066.991333620135
 30
0.0
 40
25.0
 41
0.0
 71
     5
 72
     1
  1
524
 73
     1
 44
1.0
1001
ACAD
1000
MTEXTBEGIN
1070
    73
1070
     1
1070
    44
1040
1.0
1070
    74
1070
     0
1000
MTEXTEND
  0
POINT
  5
B115
330
8E82
100
AcDbEntity
  8
Defpoints
 62
     0
100
AcDbPoint
 10
1614.481704972408
 20
1178.547590588581
 30
0.0
  0
POINT
  5
B116
330
8E82
100
AcDbEntity
  8
Defpoints
 62
     0
100
AcDbPoint
 10
1090.481704972408
 20
1178.547590588581
 30
0.0
  0
POINT
  5
B117
330
8E82
100
AcDbEntity
  8
Defpoints
 62
     0
100
AcDbPoint
 10
1090.481704972408
 20
1047.891333620135
 30
0.0
  0
ENDBLK
  5
8E8D
330
8E82
100
AcDbEntity
  8
0
 62
     3
100
AcDbBlockEnd
  0
BLOCK
  5
8EAC
330
8EA8
100
AcDbEntity
  8
0
 62
     3
100
AcDbBlockBegin
  2
A$C02AA3AB7
 70
     0
 10
0.0
 20
0.0
 30
0.0
  3
A$C02AA3AB7
  1

  0
TEXT
  5
8EA9
330
8EA8
100
AcDbEntity
  8
実形
 62
     1
 48
20.0
100
AcDbText
 10
0.0000027465193853
 20
-0.0000023566917662
 30
0.0
 40
25.0
  1
20
100
AcDbText
  0
ENDBLK
  5
8EAD
330
8EA8
100
AcDbEntity
  8
0
 62
     3
100
AcDbBlockEnd
  0
BLOCK
  5
8ED3
330
8EC9
100
AcDbEntity
  8
0
 62
     3
100
AcDbBlockBegin
  2
*D57
 70
     1
 10
0.0
 20
0.0
 30
0.0
  3
*D57
  1

  0
LINE
  5
B106
330
8EC9
100
AcDbEntity
  8
実形
 62
     0
370
    18
100
AcDbLine
 10
1870.481704972408
 20
1048.547590588581
 30
0.0
 11
1870.481704972408
 21
986.8016468789756
 31
0.0
  0
LINE
  5
B107
330
8EC9
100
AcDbEntity
  8
実形
 62
     0
370
    18
100
AcDbLine
 10
1070.481704972408
 20
1048.547590588581
 30
0.0
 11
1070.481704972408
 21
986.8016468789756
 31
0.0
  0
LINE
  5
B108
330
8EC9
100
AcDbEntity
  8
実形
 62
     0
370
    18
100
AcDbLine
 10
1860.481704972408
 20
986.8016468789756
 30
0.0
 11
1080.481704972408
 21
986.8016468789756
 31
0.0
  0
INSERT
  5
B109
330
8EC9
100
AcDbEntity
  8
実形
 62
     0
370
    18
100
AcDbBlockReference
  2
_Dot
 10
1870.481704972408
 20
986.8016468789756
 30
0.0
 41
10.0
 42
10.0
 43
10.0
  0
INSERT
  5
B10A
330
8EC9
100
AcDbEntity
  8
実形
 62
     0
370
    18
100
AcDbBlockReference
  2
_Dot
 10
1070.481704972408
 20
986.8016468789756
 30
0.0
 41
10.0
 42
10.0
 43
10.0
 50
180.0
  0
MTEXT
  5
B10B
330
8EC9
100
AcDbEntity
  8
実形
 62
     0
100
AcDbMText
 10
1470.481704972408
 20
1005.901646878975
 30
0.0
 40
25.0
 41
0.0
 71
     5
 72
     1
  1
800
 73
     1
 44
1.0
1001
ACAD
1000
MTEXTBEGIN
1070
    73
1070
     1
1070
    44
1040
1.0
1070
    74
1070
     0
1000
MTEXTEND
  0
POINT
  5
B10C
330
8EC9
100
AcDbEntity
  8
Defpoints
 62
     0
100
AcDbPoint
 10
1870.481704972408
 20
1113.547590588581
 30
0.0
  0
POINT
  5
B10D
330
8EC9
100
AcDbEntity
  8
Defpoints
 62
     0
100
AcDbPoint
 10
1070.481704972408
 20
1113.547590588581
 30
0.0
  0
POINT
  5
B10E
330
8EC9
100
AcDbEntity
  8
Defpoints
 62
     0
100
AcDbPoint
 10
1070.481704972408
 20
986.8016468789756
 30
0.0
  0
ENDBLK
  5
8ED4
330
8EC9
100
AcDbEntity
  8
0
 62
     3
100
AcDbBlockEnd
  0
BLOCK
  5
8EF2
330
8EE8
100
AcDbEntity
  8
0
 62
     3
100
AcDbBlockBegin
  2
*D58
 70
     1
 10
0.0
 20
0.0
 30
0.0
  3
*D58
  1

  0
LINE
  5
B0EC
330
8EE8
100
AcDbEntity
  8
実形
 62
     0
370
    18
100
AcDbLine
 10
1885.481704972408
 20
1048.547590588581
 30
0.0
 11
1885.481704972408
 21
924.7482854621702
 31
0.0
  0
LINE
  5
B0ED
330
8EE8
100
AcDbEntity
  8
実形
 62
     0
370
    18
100
AcDbLine
 10
1055.481704972408
 20
1048.547590588581
 30
0.0
 11
1055.481704972408
 21
924.7482854621702
 31
0.0
  0
LINE
  5
B0EE
330
8EE8
100
AcDbEntity
  8
実形
 62
     0
370
    18
100
AcDbLine
 10
1875.481704972408
 20
924.7482854621702
 30
0.0
 11
1065.481704972408
 21
924.7482854621702
 31
0.0
  0
INSERT
  5
B0EF
330
8EE8
100
AcDbEntity
  8
実形
 62
     0
370
    18
100
AcDbBlockReference
  2
_Dot
 10
1885.481704972408
 20
924.7482854621702
 30
0.0
 41
10.0
 42
10.0
 43
10.0
  0
INSERT
  5
B0F0
330
8EE8
100
AcDbEntity
  8
実形
 62
     0
370
    18
100
AcDbBlockReference
  2
_Dot
 10
1055.481704972408
 20
924.7482854621702
 30
0.0
 41
10.0
 42
10.0
 43
10.0
 50
180.0
  0
MTEXT
  5
B0F1
330
8EE8
100
AcDbEntity
  8
実形
 62
     0
100
AcDbMText
 10
1470.481704972408
 20
943.8482854621703
 30
0.0
 40
25.0
 41
0.0
 71
     5
 72
     1
  1
830
 73
     1
 44
1.0
1001
ACAD
1000
MTEXTBEGIN
1070
    73
1070
     1
1070
    44
1040
1.0
1070
    74
1070
     0
1000
MTEXTEND
  0
POINT
  5
B0F2
330
8EE8
100
AcDbEntity
  8
Defpoints
 62
     0
100
AcDbPoint
 10
1885.481704972408
 20
1113.547590588581
 30
0.0
  0
POINT
  5
B0F3
330
8EE8
100
AcDbEntity
  8
Defpoints
 62
     0
100
AcDbPoint
 10
1055.481704972408
 20
1113.547590588581
 30
0.0
  0
POINT
  5
B0F4
330
8EE8
100
AcDbEntity
  8
Defpoints
 62
     0
100
AcDbPoint
 10
1055.481704972408
 20
924.7482854621702
 30
0.0
  0
ENDBLK
  5
8EF3
330
8EE8
100
AcDbEntity
  8
0
 62
     3
100
AcDbBlockEnd
  0
BLOCK
  5
90BE
330
90B4
100
AcDbEntity
  8
0
 62
     3
100
AcDbBlockBegin
  2
*D59
 70
     1
 10
0.0
 20
0.0
 30
0.0
  3
*D59
  1

  0
LINE
  5
B14E
330
90B4
100
AcDbEntity
  8
実形
 62
     0
370
    18
100
AcDbLine
 10
972.9551878567926
 20
1683.547590588581
 30
0.0
 11
922.9426947367166
 21
1683.547590588581
 31
0.0
  0
LINE
  5
B14F
330
90B4
100
AcDbEntity
  8
実形
 62
     0
370
    18
100
AcDbLine
 10
972.9551878567926
 20
1213.547590588581
 30
0.0
 11
922.9426947367164
 21
1213.547590588581
 31
0.0
  0
LINE
  5
B150
330
90B4
100
AcDbEntity
  8
実形
 62
     0
370
    18
100
AcDbLine
 10
922.9426947367166
 20
1673.547590588581
 30
0.0
 11
922.9426947367164
 21
1223.547590588581
 31
0.0
  0
INSERT
  5
B151
330
90B4
100
AcDbEntity
  8
実形
 62
     0
370
    18
100
AcDbBlockReference
  2
_Dot
 10
922.9426947367166
 20
1683.547590588581
 30
0.0
 41
10.0
 42
10.0
 43
10.0
 50
90.0
  0
INSERT
  5
B152
330
90B4
100
AcDbEntity
  8
実形
 62
     0
370
    18
100
AcDbBlockReference
  2
_Dot
 10
922.9426947367164
 20
1213.547590588581
 30
0.0
 41
10.0
 42
10.0
 43
10.0
 50
270.0
  0
MTEXT
  5
B153
330
90B4
100
AcDbEntity
  8
実形
 62
     0
100
AcDbMText
 10
903.8426947367163
 20
1448.547590588581
 30
0.0
 40
25.0
 41
0.0
 71
     5
 72
     1
  1
470
 11
0.0000000000000001
 21
1.0
 31
0.0
 73
     1
 44
1.0
1001
ACAD
1000
MTEXTBEGIN
1070
    73
1070
     1
1070
    44
1040
1.0
1070
    74
1070
     0
1000
MTEXTEND
  0
POINT
  5
B154
330
90B4
100
AcDbEntity
  8
Defpoints
 62
     0
100
AcDbPoint
 10
1037.955187856792
 20
1683.547590588581
 30
0.0
  0
POINT
  5
B155
330
90B4
100
AcDbEntity
  8
Defpoints
 62
     0
100
AcDbPoint
 10
1037.955187856792
 20
1213.547590588581
 30
0.0
  0
POINT
  5
B156
330
90B4
100
AcDbEntity
  8
Defpoints
 62
     0
100
AcDbPoint
 10
922.9426947367164
 20
1213.547590588581
 30
0.0
  0
ENDBLK
  5
90BF
330
90B4
100
AcDbEntity
  8
0
 62
     3
100
AcDbBlockEnd
  0
BLOCK
  5
90CB
330
90C1
100
AcDbEntity
  8
0
 62
     3
100
AcDbBlockBegin
  2
*D60
 70
     1
 10
0.0
 20
0.0
 30
0.0
  3
*D60
  1

  0
LINE
  5
B145
330
90C1
100
AcDbEntity
  8
実形
 62
     0
370
    18
100
AcDbLine
 10
972.9551878567926
 20
1703.547590588581
 30
0.0
 11
922.9426947367166
 21
1703.547590588581
 31
0.0
  0
LINE
  5
B146
330
90C1
100
AcDbEntity
  8
実形
 62
     0
370
    18
100
AcDbLine
 10
972.9551878567926
 20
1193.547590588581
 30
0.0
 11
922.9426947367164
 21
1193.547590588581
 31
0.0
  0
LINE
  5
B147
330
90C1
100
AcDbEntity
  8
実形
 62
     0
370
    18
100
AcDbLine
 10
922.9426947367166
 20
1693.547590588581
 30
0.0
 11
922.9426947367164
 21
1203.547590588582
 31
0.0
  0
MTEXT
  5
B148
330
90C1
100
AcDbEntity
  8
実形
 62
     0
100
AcDbMText
 10
899.9720763138194
 20
1676.339721068899
 30
0.0
 40
25.0
 41
0.0
 71
     5
 72
     1
  1
20
 11
0.0000000000000001
 21
1.0
 31
0.0
 73
     1
 44
1.0
1001
ACAD
1000
MTEXTBEGIN
1070
    73
1070
     1
1070
    44
1040
1.0
1070
    74
1070
     0
1000
MTEXTEND
  0
INSERT
  5
B149
330
90C1
100
AcDbEntity
  8
実形
 62
     0
370
    18
100
AcDbBlockReference
  2
_Dot
 10
922.9426947367166
 20
1703.547590588581
 30
0.0
 41
10.0
 42
10.0
 43
10.0
 50
90.0
  0
INSERT
  5
B14A
330
90C1
100
AcDbEntity
  8
実形
 62
     0
370
    18
100
AcDbBlockReference
  2
_Dot
 10
922.9426947367164
 20
1193.547590588581
 30
0.0
 41
10.0
 42
10.0
 43
10.0
 50
270.0
  0
POINT
  5
B14B
330
90C1
100
AcDbEntity
  8
Defpoints
 62
     0
100
AcDbPoint
 10
1037.955187856792
 20
1703.547590588581
 30
0.0
  0
POINT
  5
B14C
330
90C1
100
AcDbEntity
  8
Defpoints
 62
     0
100
AcDbPoint
 10
1037.955187856792
 20
1193.547590588581
 30
0.0
  0
POINT
  5
B14D
330
90C1
100
AcDbEntity
  8
Defpoints
 62
     0
100
AcDbPoint
 10
922.9426947367164
 20
1193.547590588581
 30
0.0
  0
ENDBLK
  5
90CC
330
90C1
100
AcDbEntity
  8
0
 62
     3
100
AcDbBlockEnd
  0
BLOCK
  5
AA47
330
AA3D
100
AcDbEntity
  8
0
 62
     3
100
AcDbBlockBegin
  2
*D61
 70
     1
 10
0.0
 20
0.0
 30
0.0
  3
*D61
  1

  0
LINE
  5
B157
330
AA3D
100
AcDbEntity
  8
実形
 62
     0
370
    18
100
AcDbLine
 10
1742.481704972409
 20
1432.750033250692
 30
0.0
 11
1742.481704972409
 21
1400.878239022008
 31
0.0
  0
LINE
  5
B158
330
AA3D
100
AcDbEntity
  8
実形
 62
     0
370
    18
100
AcDbLine
 10
1634.481704972409
 20
1462.145337162553
 30
0.0
 11
1634.481704972409
 21
1400.878239022008
 31
0.0
  0
LINE
  5
B159
330
AA3D
100
AcDbEntity
  8
実形
 62
     0
370
    18
100
AcDbLine
 10
1732.481704972409
 20
1400.878239022008
 30
0.0
 11
1644.481704972409
 21
1400.878239022008
 31
0.0
  0
MTEXT
  5
B15A
330
AA3D
100
AcDbEntity
  8
実形
 62
     0
100
AcDbMText
 10
1689.934117617795
 20
1421.936882086931
 30
0.0
 40
25.0
 41
0.0
 71
     5
 72
     1
  1
108
 73
     1
 44
1.0
1001
ACAD
1000
MTEXTBEGIN
1070
    73
1070
     1
1070
    44
1040
1.0
1070
    74
1070
     0
1000
MTEXTEND
  0
INSERT
  5
B15B
330
AA3D
100
AcDbEntity
  8
実形
 62
     0
370
    18
100
AcDbBlockReference
  2
_Dot
 10
1742.481704972409
 20
1400.878239022008
 30
0.0
 41
10.0
 42
10.0
 43
10.0
  0
INSERT
  5
B15C
330
AA3D
100
AcDbEntity
  8
実形
 62
     0
370
    18
100
AcDbBlockReference
  2
_Dot
 10
1634.481704972409
 20
1400.878239022008
 30
0.0
 41
10.0
 42
10.0
 43
10.0
 50
180.0
  0
POINT
  5
B15D
330
AA3D
100
AcDbEntity
  8
Defpoints
 62
     0
100
AcDbPoint
 10
1742.481704972409
 20
1497.750033250692
 30
0.0
  0
POINT
  5
B15E
330
AA3D
100
AcDbEntity
  8
Defpoints
 62
     0
100
AcDbPoint
 10
1634.481704972409
 20
1527.145337162553
 30
0.0
  0
POINT
  5
B15F
330
AA3D
100
AcDbEntity
  8
Defpoints
 62
     0
100
AcDbPoint
 10
1634.481704972409
 20
1400.878239022008
 30
0.0
  0
ENDBLK
  5
AA48
330
AA3D
100
AcDbEntity
  8
0
 62
     3
100
AcDbBlockEnd
  0
BLOCK
  5
AA53
330
AA49
100
AcDbEntity
  8
0
 62
     3
100
AcDbBlockBegin
  2
*D62
 70
     1
 10
0.0
 20
0.0
 30
0.0
  3
*D62
  1

  0
LINE
  5
B172
330
AA49
100
AcDbEntity
  8
実形
 62
     0
370
    18
100
AcDbLine
 10
1677.481704972409
 20
1523.547590588581
 30
0.0
 11
1676.76285652282
 21
1523.547590588581
 31
0.0
  0
LINE
  5
B173
330
AA49
100
AcDbEntity
  8
実形
 62
     0
370
    18
100
AcDbLine
 10
1677.481704972409
 20
1613.547590588581
 30
0.0
 11
1676.76285652282
 21
1613.547590588581
 31
0.0
  0
LINE
  5
B174
330
AA49
100
AcDbEntity
  8
実形
 62
     0
370
    18
100
AcDbLine
 10
1676.76285652282
 20
1533.547590588581
 30
0.0
 11
1676.76285652282
 21
1603.547590588581
 31
0.0
  0
INSERT
  5
B175
330
AA49
100
AcDbEntity
  8
実形
 62
     0
370
    18
100
AcDbBlockReference
  2
_Dot
 10
1676.76285652282
 20
1523.547590588581
 30
0.0
 41
10.0
 42
10.0
 43
10.0
 50
270.0
  0
INSERT
  5
B176
330
AA49
100
AcDbEntity
  8
実形
 62
     0
370
    18
100
AcDbBlockReference
  2
_Dot
 10
1676.76285652282
 20
1613.547590588581
 30
0.0
 41
10.0
 42
10.0
 43
10.0
 50
90.0
  0
MTEXT
  5
B177
330
AA49
100
AcDbEntity
  8
実形
 62
     0
100
AcDbMText
 10
1657.662856522819
 20
1568.547590588581
 30
0.0
 40
25.0
 41
0.0
 71
     5
 72
     1
  1
90
 11
0.0000000000000001
 21
1.0
 31
0.0
 73
     1
 44
1.0
1001
ACAD
1000
MTEXTBEGIN
1070
    73
1070
     1
1070
    44
1040
1.0
1070
    74
1070
     0
1000
MTEXTEND
  0
POINT
  5
B178
330
AA49
100
AcDbEntity
  8
Defpoints
 62
     0
100
AcDbPoint
 10
1742.481704972409
 20
1523.547590588581
 30
0.0
  0
POINT
  5
B179
330
AA49
100
AcDbEntity
  8
Defpoints
 62
     0
100
AcDbPoint
 10
1742.481704972409
 20
1613.547590588581
 30
0.0
  0
POINT
  5
B17A
330
AA49
100
AcDbEntity
  8
Defpoints
 62
     0
100
AcDbPoint
 10
1676.76285652282
 20
1613.547590588581
 30
0.0
  0
ENDBLK
  5
AA54
330
AA49
100
AcDbEntity
  8
0
 62
     3
100
AcDbBlockEnd
  0
BLOCK
  5
AC21
330
AC17
100
AcDbEntity
  8
0
 62
     3
100
AcDbBlockBegin
  2
*D63
 70
     1
 10
0.0
 20
0.0
 30
0.0
  3
*D63
  1

  0
LINE
  5
B590
330
AC17
100
AcDbEntity
  8
実形
 62
     0
370
    18
100
AcDbLine
 10
437.0475102793352
 20
1368.547590588581
 30
0.0
 11
385.1309117434775
 21
1368.547590588581
 31
0.0
  0
LINE
  5
B591
330
AC17
100
AcDbEntity
  8
実形
 62
     0
370
    18
100
AcDbLine
 10
437.0475102793352
 20
1528.547590588581
 30
0.0
 11
385.1309117434776
 21
1528.547590588581
 31
0.0
  0
LINE
  5
B592
330
AC17
100
AcDbEntity
  8
実形
 62
     0
370
    18
100
AcDbLine
 10
385.1309117434775
 20
1378.547590588581
 30
0.0
 11
385.1309117434776
 21
1518.547590588581
 31
0.0
  0
INSERT
  5
B593
330
AC17
100
AcDbEntity
  8
実形
 62
     0
370
    18
100
AcDbBlockReference
  2
_Dot
 10
385.1309117434775
 20
1368.547590588581
 30
0.0
 41
10.0
 42
10.0
 43
10.0
 50
270.0
  0
INSERT
  5
B594
330
AC17
100
AcDbEntity
  8
実形
 62
     0
370
    18
100
AcDbBlockReference
  2
_Dot
 10
385.1309117434776
 20
1528.547590588581
 30
0.0
 41
10.0
 42
10.0
 43
10.0
 50
90.0
  0
MTEXT
  5
B595
330
AC17
100
AcDbEntity
  8
実形
 62
     0
100
AcDbMText
 10
366.0309117434773
 20
1448.547590588581
 30
0.0
 40
25.0
 41
0.0
 71
     5
 72
     1
  1
160
 11
0.0000000000000001
 21
1.0
 31
0.0
 73
     1
 44
1.0
1001
ACAD
1000
MTEXTBEGIN
1070
    73
1070
     1
1070
    44
1040
1.0
1070
    74
1070
     0
1000
MTEXTEND
  0
POINT
  5
B596
330
AC17
100
AcDbEntity
  8
Defpoints
 62
     0
100
AcDbPoint
 10
502.0475102793352
 20
1368.547590588581
 30
0.0
  0
POINT
  5
B597
330
AC17
100
AcDbEntity
  8
Defpoints
 62
     0
100
AcDbPoint
 10
502.0475102793352
 20
1528.547590588581
 30
0.0
  0
POINT
  5
B598
330
AC17
100
AcDbEntity
  8
Defpoints
 62
     0
100
AcDbPoint
 10
385.1309117434776
 20
1528.547590588581
 30
0.0
  0
ENDBLK
  5
AC22
330
AC17
100
AcDbEntity
  8
0
 62
     3
100
AcDbBlockEnd
  0
BLOCK
  5
AC2D
330
AC23
100
AcDbEntity
  8
0
 62
     3
100
AcDbBlockBegin
  2
*D64
 70
     1
 10
0.0
 20
0.0
 30
0.0
  3
*D64
  1

  0
LINE
  5
B599
330
AC23
100
AcDbEntity
  8
実形
 62
     0
370
    18
100
AcDbLine
 10
437.0475102793352
 20
1358.047590588581
 30
0.0
 11
313.8886149282007
 21
1358.047590588581
 31
0.0
  0
LINE
  5
B59A
330
AC23
100
AcDbEntity
  8
実形
 62
     0
370
    18
100
AcDbLine
 10
437.0475102793307
 20
1539.04759058858
 30
0.0
 11
313.8886149282007
 21
1539.04759058858
 31
0.0
  0
LINE
  5
B59B
330
AC23
100
AcDbEntity
  8
実形
 62
     0
370
    18
100
AcDbLine
 10
313.8886149282007
 20
1368.047590588581
 30
0.0
 11
313.8886149282007
 21
1529.047590588581
 31
0.0
  0
INSERT
  5
B59C
330
AC23
100
AcDbEntity
  8
実形
 62
     0
370
    18
100
AcDbBlockReference
  2
_Dot
 10
313.8886149282007
 20
1358.047590588581
 30
0.0
 41
10.0
 42
10.0
 43
10.0
 50
270.0
  0
INSERT
  5
B59D
330
AC23
100
AcDbEntity
  8
実形
 62
     0
370
    18
100
AcDbBlockReference
  2
_Dot
 10
313.8886149282007
 20
1539.04759058858
 30
0.0
 41
10.0
 42
10.0
 43
10.0
 50
90.0
  0
MTEXT
  5
B59E
330
AC23
100
AcDbEntity
  8
実形
 62
     0
100
AcDbMText
 10
294.7886149282004
 20
1448.547590588581
 30
0.0
 40
25.0
 41
0.0
 71
     5
 72
     1
  1
181
 11
0.0000000000000001
 21
1.0
 31
0.0
 73
     1
 44
1.0
1001
ACAD
1000
MTEXTBEGIN
1070
    73
1070
     1
1070
    44
1040
1.0
1070
    74
1070
     0
1000
MTEXTEND
  0
POINT
  5
B59F
330
AC23
100
AcDbEntity
  8
Defpoints
 62
     0
100
AcDbPoint
 10
502.0475102793352
 20
1358.047590588581
 30
0.0
  0
POINT
  5
B5A0
330
AC23
100
AcDbEntity
  8
Defpoints
 62
     0
100
AcDbPoint
 10
502.0475102793307
 20
1539.04759058858
 30
0.0
  0
POINT
  5
B5A1
330
AC23
100
AcDbEntity
  8
Defpoints
 62
     0
100
AcDbPoint
 10
313.8886149282007
 20
1539.04759058858
 30
0.0
  0
ENDBLK
  5
AC2E
330
AC23
100
AcDbEntity
  8
0
 62
     3
100
AcDbBlockEnd
  0
BLOCK
  5
AC39
330
AC2F
100
AcDbEntity
  8
0
 62
     3
100
AcDbBlockBegin
  2
*D65
 70
     1
 10
0.0
 20
0.0
 30
0.0
  3
*D65
  1

  0
LINE
  5
B5A2
330
AC2F
100
AcDbEntity
  8
実形
 62
     0
370
    18
100
AcDbLine
 10
717.0475102793353
 20
1127.275290622338
 30
0.0
 11
717.0475102793353
 21
1072.452372464183
 31
0.0
  0
LINE
  5
B5A3
330
AC2F
100
AcDbEntity
  8
実形
 62
     0
370
    18
100
AcDbLine
 10
527.0475102793361
 20
1104.181921231253
 30
0.0
 11
527.0475102793361
 21
1072.452372464183
 31
0.0
  0
LINE
  5
B5A4
330
AC2F
100
AcDbEntity
  8
実形
 62
     0
370
    18
100
AcDbLine
 10
707.0475102793352
 20
1072.452372464183
 30
0.0
 11
537.0475102793362
 21
1072.452372464183
 31
0.0
  0
MTEXT
  5
B5A5
330
AC2F
100
AcDbEntity
  8
実形
 62
     0
100
AcDbMText
 10
755.6121170050028
 20
1094.052372464182
 30
0.0
 40
25.0
 41
0.0
 71
     5
 72
     1
  1
15
 73
     1
 44
1.0
1001
ACAD
1000
MTEXTBEGIN
1070
    73
1070
     1
1070
    44
1040
1.0
1070
    74
1070
     0
1000
MTEXTEND
  0
INSERT
  5
B5A6
330
AC2F
100
AcDbEntity
  8
実形
 62
     0
370
    18
100
AcDbBlockReference
  2
_Dot
 10
717.0475102793353
 20
1072.452372464183
 30
0.0
 41
10.0
 42
10.0
 43
10.0
  0
INSERT
  5
B5A7
330
AC2F
100
AcDbEntity
  8
実形
 62
     0
370
    18
100
AcDbBlockReference
  2
_Dot
 10
527.0475102793361
 20
1072.452372464183
 30
0.0
 41
10.0
 42
10.0
 43
10.0
 50
180.0
  0
POINT
  5
B5A8
330
AC2F
100
AcDbEntity
  8
Defpoints
 62
     0
100
AcDbPoint
 10
717.0475102793353
 20
1192.275290622338
 30
0.0
  0
POINT
  5
B5A9
330
AC2F
100
AcDbEntity
  8
Defpoints
 62
     0
100
AcDbPoint
 10
527.0475102793361
 20
1169.181921231253
 30
0.0
  0
POINT
  5
B5AA
330
AC2F
100
AcDbEntity
  8
Defpoints
 62
     0
100
AcDbPoint
 10
527.0475102793361
 20
1072.452372464183
 30
0.0
  0
ENDBLK
  5
AC3A
330
AC2F
100
AcDbEntity
  8
0
 62
     3
100
AcDbBlockEnd
  0
BLOCK
  5
AC45
330
AC3B
100
AcDbEntity
  8
0
 62
     3
100
AcDbBlockBegin
  2
*D66
 70
     1
 10
0.0
 20
0.0
 30
0.0
  3
*D66
  1

  0
LINE
  5
B5AB
330
AC3B
100
AcDbEntity
  8
実形
 62
     0
370
    18
100
AcDbLine
 10
702.0475102793357
 20
1128.952859379639
 30
0.0
 11
702.0475102793357
 21
1072.452372464183
 31
0.0
  0
LINE
  5
B5AC
330
AC3B
100
AcDbEntity
  8
実形
 62
     0
370
    18
100
AcDbLine
 10
527.0475102793361
 20
1128.114079728639
 30
0.0
 11
527.0475102793361
 21
1072.452372464183
 31
0.0
  0
LINE
  5
B5AD
330
AC3B
100
AcDbEntity
  8
実形
 62
     0
370
    18
100
AcDbLine
 10
692.0475102793357
 20
1072.452372464183
 30
0.0
 11
537.0475102793362
 21
1072.452372464183
 31
0.0
  0
MTEXT
  5
B5AE
330
AC3B
100
AcDbEntity
  8
実形
 62
     0
100
AcDbMText
 10
618.0108238017019
 20
1094.137749975076
 30
0.0
 40
25.0
 41
0.0
 71
     5
 72
     1
  1
175
 73
     1
 44
1.0
1001
ACAD
1000
MTEXTBEGIN
1070
    73
1070
     1
1070
    44
1040
1.0
1070
    74
1070
     0
1000
MTEXTEND
  0
INSERT
  5
B5AF
330
AC3B
100
AcDbEntity
  8
実形
 62
     0
370
    18
100
AcDbBlockReference
  2
_Dot
 10
702.0475102793357
 20
1072.452372464183
 30
0.0
 41
10.0
 42
10.0
 43
10.0
  0
INSERT
  5
B5B0
330
AC3B
100
AcDbEntity
  8
実形
 62
     0
370
    18
100
AcDbBlockReference
  2
_Dot
 10
527.0475102793361
 20
1072.452372464183
 30
0.0
 41
10.0
 42
10.0
 43
10.0
 50
180.0
  0
POINT
  5
B5B1
330
AC3B
100
AcDbEntity
  8
Defpoints
 62
     0
100
AcDbPoint
 10
702.0475102793357
 20
1193.952859379639
 30
0.0
  0
POINT
  5
B5B2
330
AC3B
100
AcDbEntity
  8
Defpoints
 62
     0
100
AcDbPoint
 10
527.0475102793361
 20
1193.114079728639
 30
0.0
  0
POINT
  5
B5B3
330
AC3B
100
AcDbEntity
  8
Defpoints
 62
     0
100
AcDbPoint
 10
527.0475102793361
 20
1072.452372464183
 30
0.0
  0
ENDBLK
  5
AC46
330
AC3B
100
AcDbEntity
  8
0
 62
     3
100
AcDbBlockEnd
  0
BLOCK
  5
AC51
330
AC47
100
AcDbEntity
  8
0
 62
     3
100
AcDbBlockBegin
  2
*D67
 70
     1
 10
0.0
 20
0.0
 30
0.0
  3
*D67
  1

  0
LINE
  5
B5B4
330
AC47
100
AcDbEntity
  8
実形
 62
     0
370
    18
100
AcDbLine
 10
717.0475102793353
 20
1065.257337209116
 30
0.0
 11
717.0475102793353
 21
1020.441883224852
 31
0.0
  0
LINE
  5
B5B5
330
AC47
100
AcDbEntity
  8
実形
 62
     0
370
    18
100
AcDbLine
 10
527.0475102793357
 20
1065.257337209116
 30
0.0
 11
527.0475102793357
 21
1020.441883224852
 31
0.0
  0
LINE
  5
B5B6
330
AC47
100
AcDbEntity
  8
実形
 62
     0
370
    18
100
AcDbLine
 10
707.0475102793352
 20
1020.441883224852
 30
0.0
 11
537.0475102793356
 21
1020.441883224852
 31
0.0
  0
MTEXT
  5
B5B7
330
AC47
100
AcDbEntity
  8
実形
 62
     0
100
AcDbMText
 10
617.1718279786837
 20
1042.041883224852
 30
0.0
 40
25.0
 41
0.0
 71
     5
 72
     1
  1
190
 73
     1
 44
1.0
1001
ACAD
1000
MTEXTBEGIN
1070
    73
1070
     1
1070
    44
1040
1.0
1070
    74
1070
     0
1000
MTEXTEND
  0
INSERT
  5
B5B8
330
AC47
100
AcDbEntity
  8
実形
 62
     0
370
    18
100
AcDbBlockReference
  2
_Dot
 10
717.0475102793353
 20
1020.441883224852
 30
0.0
 41
10.0
 42
10.0
 43
10.0
  0
INSERT
  5
B5B9
330
AC47
100
AcDbEntity
  8
実形
 62
     0
370
    18
100
AcDbBlockReference
  2
_Dot
 10
527.0475102793357
 20
1020.441883224852
 30
0.0
 41
10.0
 42
10.0
 43
10.0
 50
180.0
  0
POINT
  5
B5BA
330
AC47
100
AcDbEntity
  8
Defpoints
 62
     0
100
AcDbPoint
 10
717.0475102793353
 20
1130.257337209116
 30
0.0
  0
POINT
  5
B5BB
330
AC47
100
AcDbEntity
  8
Defpoints
 62
     0
100
AcDbPoint
 10
527.0475102793357
 20
1130.257337209116
 30
0.0
  0
POINT
  5
B5BC
330
AC47
100
AcDbEntity
  8
Defpoints
 62
     0
100
AcDbPoint
 10
527.0475102793357
 20
1020.441883224852
 30
0.0
  0
ENDBLK
  5
AC52
330
AC47
100
AcDbEntity
  8
0
 62
     3
100
AcDbBlockEnd
  0
BLOCK
  5
AC5D
330
AC53
100
AcDbEntity
  8
0
 62
     3
100
AcDbBlockBegin
  2
*D68
 70
     1
 10
0.0
 20
0.0
 30
0.0
  3
*D68
  1

  0
LINE
  5
B5BD
330
AC53
100
AcDbEntity
  8
実形
 62
     0
370
    18
100
AcDbLine
 10
717.0475102793353
 20
1065.257337209116
 30
0.0
 11
717.0475102793353
 21
1020.441883224852
 31
0.0
  0
LINE
  5
B5BE
330
AC53
100
AcDbEntity
  8
実形
 62
     0
370
    18
100
AcDbLine
 10
512.0475102793356
 20
1127.858682623992
 30
0.0
 11
512.0475102793356
 21
1020.441883224852
 31
0.0
  0
LINE
  5
B5BF
330
AC53
100
AcDbEntity
  8
実形
 62
     0
370
    18
100
AcDbLine
 10
707.0475102793352
 20
1020.441883224852
 30
0.0
 11
522.0475102793357
 21
1020.441883224852
 31
0.0
  0
MTEXT
  5
B5C0
330
AC53
100
AcDbEntity
  8
実形
 62
     0
100
AcDbMText
 10
477.0595593674843
 20
1042.041883224852
 30
0.0
 40
25.0
 41
0.0
 71
     5
 72
     1
  1
15
 73
     1
 44
1.0
1001
ACAD
1000
MTEXTBEGIN
1070
    73
1070
     1
1070
    44
1040
1.0
1070
    74
1070
     0
1000
MTEXTEND
  0
INSERT
  5
B5C1
330
AC53
100
AcDbEntity
  8
実形
 62
     0
370
    18
100
AcDbBlockReference
  2
_Dot
 10
717.0475102793353
 20
1020.441883224852
 30
0.0
 41
10.0
 42
10.0
 43
10.0
  0
INSERT
  5
B5C2
330
AC53
100
AcDbEntity
  8
実形
 62
     0
370
    18
100
AcDbBlockReference
  2
_Dot
 10
512.0475102793356
 20
1020.441883224852
 30
0.0
 41
10.0
 42
10.0
 43
10.0
 50
180.0
  0
POINT
  5
B5C3
330
AC53
100
AcDbEntity
  8
Defpoints
 62
     0
100
AcDbPoint
 10
717.0475102793353
 20
1130.257337209116
 30
0.0
  0
POINT
  5
B5C4
330
AC53
100
AcDbEntity
  8
Defpoints
 62
     0
100
AcDbPoint
 10
512.0475102793356
 20
1192.858682623992
 30
0.0
  0
POINT
  5
B5C5
330
AC53
100
AcDbEntity
  8
Defpoints
 62
     0
100
AcDbPoint
 10
512.0475102793356
 20
1020.441883224852
 30
0.0
  0
ENDBLK
  5
AC5E
330
AC53
100
AcDbEntity
  8
0
 62
     3
100
AcDbBlockEnd
  0
BLOCK
  5
AC69
330
AC5F
100
AcDbEntity
  8
0
 62
     3
100
AcDbBlockBegin
  2
*D69
 70
     1
 10
0.0
 20
0.0
 30
0.0
  3
*D69
  1

  0
LINE
  5
B5C6
330
AC5F
100
AcDbEntity
  8
実形
 62
     0
370
    18
100
AcDbLine
 10
716.5257746184179
 20
1033.310444763649
 30
0.0
 11
716.5257746184179
 21
967.1715996599672
 31
0.0
  0
LINE
  5
B5C7
330
AC5F
100
AcDbEntity
  8
実形
 62
     0
370
    18
100
AcDbLine
 10
512.0475102793356
 20
1033.310444763649
 30
0.0
 11
512.0475102793356
 21
967.1715996599672
 31
0.0
  0
LINE
  5
B5C8
330
AC5F
100
AcDbEntity
  8
実形
 62
     0
370
    18
100
AcDbLine
 10
706.5257746184179
 20
967.1715996599672
 30
0.0
 11
522.0475102793357
 21
967.1715996599672
 31
0.0
  0
INSERT
  5
B5C9
330
AC5F
100
AcDbEntity
  8
実形
 62
     0
370
    18
100
AcDbBlockReference
  2
_Dot
 10
716.5257746184179
 20
967.1715996599672
 30
0.0
 41
10.0
 42
10.0
 43
10.0
  0
INSERT
  5
B5CA
330
AC5F
100
AcDbEntity
  8
実形
 62
     0
370
    18
100
AcDbBlockReference
  2
_Dot
 10
512.0475102793356
 20
967.1715996599672
 30
0.0
 41
10.0
 42
10.0
 43
10.0
 50
180.0
  0
MTEXT
  5
B5CB
330
AC5F
100
AcDbEntity
  8
実形
 62
     0
100
AcDbMText
 10
614.2866424488768
 20
986.2715996599673
 30
0.0
 40
25.0
 41
0.0
 71
     5
 72
     1
  1
205
 73
     1
 44
1.0
1001
ACAD
1000
MTEXTBEGIN
1070
    73
1070
     1
1070
    44
1040
1.0
1070
    74
1070
     0
1000
MTEXTEND
  0
POINT
  5
B5CC
330
AC5F
100
AcDbEntity
  8
Defpoints
 62
     0
100
AcDbPoint
 10
716.5257746184179
 20
1098.310444763649
 30
0.0
  0
POINT
  5
B5CD
330
AC5F
100
AcDbEntity
  8
Defpoints
 62
     0
100
AcDbPoint
 10
512.0475102793356
 20
1098.310444763649
 30
0.0
  0
POINT
  5
B5CE
330
AC5F
100
AcDbEntity
  8
Defpoints
 62
     0
100
AcDbPoint
 10
512.0475102793356
 20
967.1715996599672
 30
0.0
  0
ENDBLK
  5
AC6A
330
AC5F
100
AcDbEntity
  8
0
 62
     3
100
AcDbBlockEnd
  0
BLOCK
  5
AC75
330
AC6B
100
AcDbEntity
  8
0
 62
     3
100
AcDbBlockBegin
  2
*D70
 70
     1
 10
0.0
 20
0.0
 30
0.0
  3
*D70
  1

  0
LINE
  5
B5CF
330
AC6B
100
AcDbEntity
  8
実形
 62
     0
370
    18
100
AcDbLine
 10
717.0475102793353
 20
1098.310444763649
 30
0.0
 11
717.0475102793353
 21
967.1715996599672
 31
0.0
  0
LINE
  5
B5D0
330
AC6B
100
AcDbEntity
  8
実形
 62
     0
370
    18
100
AcDbLine
 10
502.0475102793352
 20
1016.080513927557
 30
0.0
 11
502.0475102793352
 21
967.1715996599672
 31
0.0
  0
LINE
  5
B5D1
330
AC6B
100
AcDbEntity
  8
実形
 62
     0
370
    18
100
AcDbLine
 10
707.0475102793352
 20
967.1715996599672
 30
0.0
 11
512.0475102793352
 21
967.1715996599672
 31
0.0
  0
MTEXT
  5
B5D2
330
AC6B
100
AcDbEntity
  8
実形
 62
     0
100
AcDbMText
 10
478.2521857864194
 20
988.7715996599672
 30
0.0
 40
25.0
 41
0.0
 71
     5
 72
     1
  1
8
 73
     1
 44
1.0
1001
ACAD
1000
MTEXTBEGIN
1070
    73
1070
     1
1070
    44
1040
1.0
1070
    74
1070
     0
1000
MTEXTEND
  0
INSERT
  5
B5D3
330
AC6B
100
AcDbEntity
  8
実形
 62
     0
370
    18
100
AcDbBlockReference
  2
_Dot
 10
717.0475102793353
 20
967.1715996599672
 30
0.0
 41
10.0
 42
10.0
 43
10.0
  0
INSERT
  5
B5D4
330
AC6B
100
AcDbEntity
  8
実形
 62
     0
370
    18
100
AcDbBlockReference
  2
_Dot
 10
502.0475102793352
 20
967.1715996599672
 30
0.0
 41
10.0
 42
10.0
 43
10.0
 50
180.0
  0
POINT
  5
B5D5
330
AC6B
100
AcDbEntity
  8
Defpoints
 62
     0
100
AcDbPoint
 10
717.0475102793353
 20
1163.310444763649
 30
0.0
  0
POINT
  5
B5D6
330
AC6B
100
AcDbEntity
  8
Defpoints
 62
     0
100
AcDbPoint
 10
502.0475102793352
 20
1081.080513927556
 30
0.0
  0
POINT
  5
B5D7
330
AC6B
100
AcDbEntity
  8
Defpoints
 62
     0
100
AcDbPoint
 10
502.0475102793352
 20
967.1715996599672
 30
0.0
  0
ENDBLK
  5
AC76
330
AC6B
100
AcDbEntity
  8
0
 62
     3
100
AcDbBlockEnd
  0
BLOCK
  5
AC81
330
AC77
100
AcDbEntity
  8
0
 62
     3
100
AcDbBlockBegin
  2
*D71
 70
     1
 10
0.0
 20
0.0
 30
0.0
  3
*D71
  1

  0
LINE
  5
B5D8
330
AC77
100
AcDbEntity
  8
実形
 62
     0
370
    18
100
AcDbLine
 10
717.0475102793353
 20
1033.310444763649
 30
0.0
 11
717.0475102793353
 21
912.4655882625397
 31
0.0
  0
LINE
  5
B5D9
330
AC77
100
AcDbEntity
  8
実形
 62
     0
370
    18
100
AcDbLine
 10
502.0475102793352
 20
969.2430315108454
 30
0.0
 11
502.0475102793352
 21
912.4655882625397
 31
0.0
  0
LINE
  5
B5DA
330
AC77
100
AcDbEntity
  8
実形
 62
     0
370
    18
100
AcDbLine
 10
707.0475102793352
 20
912.4655882625397
 30
0.0
 11
512.0475102793352
 21
912.4655882625397
 31
0.0
  0
MTEXT
  5
B5DB
330
AC77
100
AcDbEntity
  8
実形
 62
     0
100
AcDbMText
 10
614.6548405096364
 20
934.0655882625398
 30
0.0
 40
25.0
 41
0.0
 71
     5
 72
     1
  1
213
 73
     1
 44
1.0
1001
ACAD
1000
MTEXTBEGIN
1070
    73
1070
     1
1070
    44
1040
1.0
1070
    74
1070
     0
1000
MTEXTEND
  0
INSERT
  5
B5DC
330
AC77
100
AcDbEntity
  8
実形
 62
     0
370
    18
100
AcDbBlockReference
  2
_Dot
 10
717.0475102793353
 20
912.4655882625397
 30
0.0
 41
10.0
 42
10.0
 43
10.0
  0
INSERT
  5
B5DD
330
AC77
100
AcDbEntity
  8
実形
 62
     0
370
    18
100
AcDbBlockReference
  2
_Dot
 10
502.0475102793352
 20
912.4655882625397
 30
0.0
 41
10.0
 42
10.0
 43
10.0
 50
180.0
  0
POINT
  5
B5DE
330
AC77
100
AcDbEntity
  8
Defpoints
 62
     0
100
AcDbPoint
 10
717.0475102793353
 20
1098.310444763649
 30
0.0
  0
POINT
  5
B5DF
330
AC77
100
AcDbEntity
  8
Defpoints
 62
     0
100
AcDbPoint
 10
502.0475102793352
 20
1034.243031510845
 30
0.0
  0
POINT
  5
B5E0
330
AC77
100
AcDbEntity
  8
Defpoints
 62
     0
100
AcDbPoint
 10
502.0475102793352
 20
912.4655882625397
 30
0.0
  0
ENDBLK
  5
AC82
330
AC77
100
AcDbEntity
  8
0
 62
     3
100
AcDbBlockEnd
  0
BLOCK
  5
AEA0
330
AE96
100
AcDbEntity
  8
0
 62
     3
100
AcDbBlockBegin
  2
*D72
 70
     1
 10
0.0
 20
0.0
 30
0.0
  3
*D72
  1

  0
LINE
  5
B741
330
AE96
100
AcDbEntity
  8
実形
 62
     0
370
    18
100
AcDbLine
 10
2212.698866437206
 20
1570.547590588581
 30
0.0
 11
2255.698866437206
 21
1570.547590588581
 31
0.0
  0
LINE
  5
B742
330
AE96
100
AcDbEntity
  8
実形
 62
     0
370
    18
100
AcDbLine
 10
2212.698866437207
 20
1476.547590588581
 30
0.0
 11
2255.698866437206
 21
1476.547590588581
 31
0.0
  0
LINE
  5
B743
330
AE96
100
AcDbEntity
  8
実形
 62
     0
370
    18
100
AcDbLine
 10
2255.698866437206
 20
1560.547590588581
 30
0.0
 11
2255.698866437206
 21
1486.547590588581
 31
0.0
  0
INSERT
  5
B744
330
AE96
100
AcDbEntity
  8
実形
 62
     0
370
    18
100
AcDbBlockReference
  2
_Dot
 10
2255.698866437206
 20
1570.547590588581
 30
0.0
 41
10.0
 42
10.0
 43
10.0
 50
90.0
  0
INSERT
  5
B745
330
AE96
100
AcDbEntity
  8
実形
 62
     0
370
    18
100
AcDbBlockReference
  2
_Dot
 10
2255.698866437206
 20
1476.547590588581
 30
0.0
 41
10.0
 42
10.0
 43
10.0
 50
270.0
  0
MTEXT
  5
B746
330
AE96
100
AcDbEntity
  8
実形
 62
     0
100
AcDbMText
 10
2234.098866437205
 20
1523.547590588582
 30
0.0
 40
30.0
 41
0.0
 71
     5
 72
     1
  1
94
 11
0.0000000000000001
 21
1.0
 31
0.0
 73
     1
 44
1.0
1001
ACAD
1000
MTEXTBEGIN
1070
    73
1070
     1
1070
    44
1040
1.0
1070
    74
1070
     0
1000
MTEXTEND
  0
POINT
  5
B747
330
AE96
100
AcDbEntity
  8
Defpoints
 62
     0
100
AcDbPoint
 10
2147.698866437206
 20
1570.547590588581
 30
0.0
  0
POINT
  5
B748
330
AE96
100
AcDbEntity
  8
Defpoints
 62
     0
100
AcDbPoint
 10
2147.698866437206
 20
1476.547590588581
 30
0.0
  0
POINT
  5
B749
330
AE96
100
AcDbEntity
  8
Defpoints
 62
     0
100
AcDbPoint
 10
2255.698866437206
 20
1476.547590588581
 30
0.0
  0
ENDBLK
  5
AEA1
330
AE96
100
AcDbEntity
  8
0
 62
     3
100
AcDbBlockEnd
  0
BLOCK
  5
AEAC
330
AEA2
100
AcDbEntity
  8
0
 62
     3
100
AcDbBlockBegin
  2
*D73
 70
     1
 10
0.0
 20
0.0
 30
0.0
  3
*D73
  1

  0
LINE
  5
B757
330
AEA2
100
AcDbEntity
  8
実形
 62
     0
370
    18
100
AcDbLine
 10
2212.162565793728
 20
1581.047590588581
 30
0.0
 11
2306.405937355386
 21
1581.047590588581
 31
0.0
  0
LINE
  5
B758
330
AEA2
100
AcDbEntity
  8
実形
 62
     0
370
    18
100
AcDbLine
 10
2213.701150483534
 20
1466.047590588582
 30
0.0
 11
2306.405937355386
 21
1466.047590588582
 31
0.0
  0
LINE
  5
B759
330
AEA2
100
AcDbEntity
  8
実形
 62
     0
370
    18
100
AcDbLine
 10
2306.405937355386
 20
1571.047590588581
 30
0.0
 11
2306.405937355386
 21
1476.047590588582
 31
0.0
  0
INSERT
  5
B75A
330
AEA2
100
AcDbEntity
  8
実形
 62
     0
370
    18
100
AcDbBlockReference
  2
_Dot
 10
2306.405937355386
 20
1581.047590588581
 30
0.0
 41
10.0
 42
10.0
 43
10.0
 50
90.0
  0
INSERT
  5
B75B
330
AEA2
100
AcDbEntity
  8
実形
 62
     0
370
    18
100
AcDbBlockReference
  2
_Dot
 10
2306.405937355386
 20
1466.047590588582
 30
0.0
 41
10.0
 42
10.0
 43
10.0
 50
270.0
  0
MTEXT
  5
B75C
330
AEA2
100
AcDbEntity
  8
実形
 62
     0
100
AcDbMText
 10
2284.805937355386
 20
1523.547590588582
 30
0.0
 40
30.0
 41
0.0
 71
     5
 72
     1
  1
115
 11
0.0000000000000001
 21
1.0
 31
0.0
 73
     1
 44
1.0
1001
ACAD
1000
MTEXTBEGIN
1070
    73
1070
     1
1070
    44
1040
1.0
1070
    74
1070
     0
1000
MTEXTEND
  0
POINT
  5
B75D
330
AEA2
100
AcDbEntity
  8
Defpoints
 62
     0
100
AcDbPoint
 10
2147.162565793728
 20
1581.047590588581
 30
0.0
  0
POINT
  5
B75E
330
AEA2
100
AcDbEntity
  8
Defpoints
 62
     0
100
AcDbPoint
 10
2148.701150483534
 20
1466.047590588582
 30
0.0
  0
POINT
  5
B75F
330
AEA2
100
AcDbEntity
  8
Defpoints
 62
     0
100
AcDbPoint
 10
2306.405937355386
 20
1466.047590588582
 30
0.0
  0
ENDBLK
  5
AEAD
330
AEA2
100
AcDbEntity
  8
0
 62
     3
100
AcDbBlockEnd
  0
BLOCK
  5
B032
330
B028
100
AcDbEntity
  8
0
 62
     3
100
AcDbBlockBegin
  2
*D74
 70
     1
 10
0.0
 20
0.0
 30
0.0
  3
*D74
  1

  0
LINE
  5
B0E3
330
B028
100
AcDbEntity
  8
実形
 62
     0
370
    18
100
AcDbLine
 10
2159.976477488751
 20
1146.664926213184
 30
0.0
 11
2159.976477488751
 21
1089.489621137806
 31
0.0
  0
LINE
  5
B0E4
330
B028
100
AcDbEntity
  8
実形
 62
     0
370
    18
100
AcDbLine
 10
1979.694134241192
 20
1147.690712784909
 30
0.0
 11
1979.694134241192
 21
1089.489621137806
 31
0.0
  0
LINE
  5
B0E5
330
B028
100
AcDbEntity
  8
実形
 62
     0
370
    18
100
AcDbLine
 10
2149.976477488751
 20
1089.489621137806
 30
0.0
 11
1989.694134241192
 21
1089.489621137806
 31
0.0
  0
MTEXT
  5
B0E6
330
B028
100
AcDbEntity
  8
実形
 62
     0
100
AcDbMText
 10
2076.642704955575
 20
1110.475006752988
 30
0.0
 40
25.0
 41
0.0
 71
     5
 72
     1
  1
180
 73
     1
 44
1.0
1001
ACAD
1000
MTEXTBEGIN
1070
    73
1070
     1
1070
    44
1040
1.0
1070
    74
1070
     0
1000
MTEXTEND
  0
INSERT
  5
B0E7
330
B028
100
AcDbEntity
  8
実形
 62
     0
370
    18
100
AcDbBlockReference
  2
_Dot
 10
2159.976477488751
 20
1089.489621137806
 30
0.0
 41
10.0
 42
10.0
 43
10.0
  0
INSERT
  5
B0E8
330
B028
100
AcDbEntity
  8
実形
 62
     0
370
    18
100
AcDbBlockReference
  2
_Dot
 10
1979.694134241192
 20
1089.489621137806
 30
0.0
 41
10.0
 42
10.0
 43
10.0
 50
180.0
  0
POINT
  5
B0E9
330
B028
100
AcDbEntity
  8
Defpoints
 62
     0
100
AcDbPoint
 10
2159.976477488751
 20
1211.664926213184
 30
0.0
  0
POINT
  5
B0EA
330
B028
100
AcDbEntity
  8
Defpoints
 62
     0
100
AcDbPoint
 10
1979.694134241192
 20
1212.690712784909
 30
0.0
  0
POINT
  5
B0EB
330
B028
100
AcDbEntity
  8
Defpoints
 62
     0
100
AcDbPoint
 10
1979.694134241192
 20
1089.489621137806
 30
0.0
  0
ENDBLK
  5
B033
330
B028
100
AcDbEntity
  8
0
 62
     3
100
AcDbBlockEnd
  0
BLOCK
  5
B03E
330
B034
100
AcDbEntity
  8
0
 62
     3
100
AcDbBlockBegin
  2
*D75
 70
     1
 10
0.0
 20
0.0
 30
0.0
  3
*D75
  1

  0
LINE
  5
B0DA
330
B034
100
AcDbEntity
  8
実形
 62
     0
370
    18
100
AcDbLine
 10
2159.976477488751
 20
1130.113016554904
 30
0.0
 11
2159.976477488751
 21
1089.489621137806
 31
0.0
  0
LINE
  5
B0DB
330
B034
100
AcDbEntity
  8
実形
 62
     0
370
    18
100
AcDbLine
 10
1964.694134241192
 20
1130.113016554904
 30
0.0
 11
1964.694134241192
 21
1089.489621137806
 31
0.0
  0
LINE
  5
B0DC
330
B034
100
AcDbEntity
  8
実形
 62
     0
370
    18
100
AcDbLine
 10
2149.976477488751
 20
1089.489621137806
 30
0.0
 11
1974.694134241192
 21
1089.489621137806
 31
0.0
  0
MTEXT
  5
B0DD
330
B034
100
AcDbEntity
  8
実形
 62
     0
100
AcDbMText
 10
2007.798434311815
 20
1111.089621137806
 30
0.0
 40
25.0
 41
0.0
 71
     5
 72
     1
  1
15
 73
     1
 44
1.0
1001
ACAD
1000
MTEXTBEGIN
1070
    73
1070
     1
1070
    44
1040
1.0
1070
    74
1070
     0
1000
MTEXTEND
  0
INSERT
  5
B0DE
330
B034
100
AcDbEntity
  8
実形
 62
     0
370
    18
100
AcDbBlockReference
  2
_Dot
 10
2159.976477488751
 20
1089.489621137806
 30
0.0
 41
10.0
 42
10.0
 43
10.0
  0
INSERT
  5
B0DF
330
B034
100
AcDbEntity
  8
実形
 62
     0
370
    18
100
AcDbBlockReference
  2
_Dot
 10
1964.694134241192
 20
1089.489621137806
 30
0.0
 41
10.0
 42
10.0
 43
10.0
 50
180.0
  0
POINT
  5
B0E0
330
B034
100
AcDbEntity
  8
Defpoints
 62
     0
100
AcDbPoint
 10
2159.976477488751
 20
1195.113016554904
 30
0.0
  0
POINT
  5
B0E1
330
B034
100
AcDbEntity
  8
Defpoints
 62
     0
100
AcDbPoint
 10
1964.694134241192
 20
1195.113016554904
 30
0.0
  0
POINT
  5
B0E2
330
B034
100
AcDbEntity
  8
Defpoints
 62
     0
100
AcDbPoint
 10
1964.694134241192
 20
1089.489621137806
 30
0.0
  0
ENDBLK
  5
B03F
330
B034
100
AcDbEntity
  8
0
 62
     3
100
AcDbBlockEnd
  0
BLOCK
  5
B04B
330
B040
100
AcDbEntity
  8
0
 62
     3
100
AcDbBlockBegin
  2
*D76
 70
     1
 10
0.0
 20
0.0
 30
0.0
  3
*D76
  1

  0
LINE
  5
B0D0
330
B040
100
AcDbEntity
  8
実形
 62
     0
370
    18
100
AcDbLine
 10
2159.976477488751
 20
1126.687645072907
 30
0.0
 11
2159.976477488751
 21
1034.82136086567
 31
0.0
  0
LINE
  5
B0D1
330
B040
100
AcDbEntity
  8
実形
 62
     0
370
    18
100
AcDbLine
 10
1964.694134241192
 20
1126.687645072907
 30
0.0
 11
1964.694134241192
 21
1034.82136086567
 31
0.0
  0
LINE
  5
B0D2
330
B040
100
AcDbEntity
  8
実形
 62
     0
370
    18
100
AcDbLine
 10
2149.976477488751
 20
1034.82136086567
 30
0.0
 11
2113.866244085832
 21
1034.82136086567
 31
0.0
  0
LINE
  5
B0D3
330
B040
100
AcDbEntity
  8
実形
 62
     0
370
    18
100
AcDbLine
 10
1974.694134241192
 20
1034.82136086567
 30
0.0
 11
2042.332910752499
 21
1034.82136086567
 31
0.0
  0
MTEXT
  5
B0D4
330
B040
100
AcDbEntity
  8
実形
 62
     0
100
AcDbMText
 10
2078.099577419165
 20
1053.497889809593
 30
0.0
 40
25.0
 41
0.0
 71
     5
 72
     1
  1
195
 73
     1
 44
1.0
1001
ACAD
1000
MTEXTBEGIN
1070
    73
1070
     1
1070
    44
1040
1.0
1070
    74
1070
     0
1000
MTEXTEND
  0
INSERT
  5
B0D5
330
B040
100
AcDbEntity
  8
実形
 62
     0
370
    18
100
AcDbBlockReference
  2
_Dot
 10
2159.976477488751
 20
1034.82136086567
 30
0.0
 41
10.0
 42
10.0
 43
10.0
  0
INSERT
  5
B0D6
330
B040
100
AcDbEntity
  8
実形
 62
     0
370
    18
100
AcDbBlockReference
  2
_Dot
 10
1964.694134241192
 20
1034.82136086567
 30
0.0
 41
10.0
 42
10.0
 43
10.0
 50
180.0
  0
POINT
  5
B0D7
330
B040
100
AcDbEntity
  8
Defpoints
 62
     0
100
AcDbPoint
 10
2159.976477488751
 20
1191.687645072907
 30
0.0
  0
POINT
  5
B0D8
330
B040
100
AcDbEntity
  8
Defpoints
 62
     0
100
AcDbPoint
 10
1964.694134241192
 20
1191.687645072907
 30
0.0
  0
POINT
  5
B0D9
330
B040
100
AcDbEntity
  8
Defpoints
 62
     0
100
AcDbPoint
 10
1964.694134241192
 20
1034.82136086567
 30
0.0
  0
ENDBLK
  5
B04C
330
B040
100
AcDbEntity
  8
0
 62
     3
100
AcDbBlockEnd
  0
BLOCK
  5
B057
330
B04D
100
AcDbEntity
  8
0
 62
     3
100
AcDbBlockBegin
  2
*D77
 70
     1
 10
0.0
 20
0.0
 30
0.0
  3
*D77
  1

  0
LINE
  5
B0C7
330
B04D
100
AcDbEntity
  8
実形
 62
     0
370
    18
100
AcDbLine
 10
2169.694134241192
 20
1147.126335391284
 30
0.0
 11
2169.694134241192
 21
1034.82136086567
 31
0.0
  0
LINE
  5
B0C8
330
B04D
100
AcDbEntity
  8
実形
 62
     0
370
    18
100
AcDbLine
 10
1964.694134241192
 20
1126.687645072907
 30
0.0
 11
1964.694134241192
 21
1034.82136086567
 31
0.0
  0
LINE
  5
B0C9
330
B04D
100
AcDbEntity
  8
実形
 62
     0
370
    18
100
AcDbLine
 10
2159.694134241192
 20
1034.82136086567
 30
0.0
 11
1974.694134241192
 21
1034.82136086567
 31
0.0
  0
MTEXT
  5
B0CA
330
B04D
100
AcDbEntity
  8
実形
 62
     0
100
AcDbMText
 10
2198.414545987085
 20
1056.42136086567
 30
0.0
 40
25.0
 41
0.0
 71
     5
 72
     1
  1
10
 73
     1
 44
1.0
1001
ACAD
1000
MTEXTBEGIN
1070
    73
1070
     1
1070
    44
1040
1.0
1070
    74
1070
     0
1000
MTEXTEND
  0
INSERT
  5
B0CB
330
B04D
100
AcDbEntity
  8
実形
 62
     0
370
    18
100
AcDbBlockReference
  2
_Dot
 10
2169.694134241192
 20
1034.82136086567
 30
0.0
 41
10.0
 42
10.0
 43
10.0
  0
INSERT
  5
B0CC
330
B04D
100
AcDbEntity
  8
実形
 62
     0
370
    18
100
AcDbBlockReference
  2
_Dot
 10
1964.694134241192
 20
1034.82136086567
 30
0.0
 41
10.0
 42
10.0
 43
10.0
 50
180.0
  0
POINT
  5
B0CD
330
B04D
100
AcDbEntity
  8
Defpoints
 62
     0
100
AcDbPoint
 10
2169.694134241192
 20
1212.126335391285
 30
0.0
  0
POINT
  5
B0CE
330
B04D
100
AcDbEntity
  8
Defpoints
 62
     0
100
AcDbPoint
 10
1964.694134241192
 20
1191.687645072907
 30
0.0
  0
POINT
  5
B0CF
330
B04D
100
AcDbEntity
  8
Defpoints
 62
     0
100
AcDbPoint
 10
1964.694134241192
 20
1034.82136086567
 30
0.0
  0
ENDBLK
  5
B058
330
B04D
100
AcDbEntity
  8
0
 62
     3
100
AcDbBlockEnd
  0
BLOCK
  5
B063
330
B059
100
AcDbEntity
  8
0
 62
     3
100
AcDbBlockBegin
  2
*D78
 70
     1
 10
0.0
 20
0.0
 30
0.0
  3
*D78
  1

  0
LINE
  5
B0A2
330
B059
100
AcDbEntity
  8
実形
 62
     0
370
    18
100
AcDbLine
 10
2169.694134241192
 20
1041.1720366326
 30
0.0
 11
2169.694134241192
 21
980.401716778365
 31
0.0
  0
LINE
  5
B0A3
330
B059
100
AcDbEntity
  8
実形
 62
     0
370
    18
100
AcDbLine
 10
1964.694134241192
 20
1061.687645072907
 30
0.0
 11
1964.694134241192
 21
980.401716778365
 31
0.0
  0
LINE
  5
B0A4
330
B059
100
AcDbEntity
  8
実形
 62
     0
370
    18
100
AcDbLine
 10
2159.694134241192
 20
980.401716778365
 30
0.0
 11
1974.694134241192
 21
980.401716778365
 31
0.0
  0
MTEXT
  5
B0A5
330
B059
100
AcDbEntity
  8
実形
 62
     0
100
AcDbMText
 10
2078.099577419165
 20
999.501716778365
 30
0.0
 40
25.0
 41
0.0
 71
     5
 72
     1
  1
205
 73
     1
 44
1.0
1001
ACAD
1000
MTEXTBEGIN
1070
    73
1070
     1
1070
    44
1040
1.0
1070
    74
1070
     0
1000
MTEXTEND
  0
INSERT
  5
B0A6
330
B059
100
AcDbEntity
  8
実形
 62
     0
370
    18
100
AcDbBlockReference
  2
_Dot
 10
2169.694134241192
 20
980.401716778365
 30
0.0
 41
10.0
 42
10.0
 43
10.0
  0
INSERT
  5
B0A7
330
B059
100
AcDbEntity
  8
実形
 62
     0
370
    18
100
AcDbBlockReference
  2
_Dot
 10
1964.694134241192
 20
980.401716778365
 30
0.0
 41
10.0
 42
10.0
 43
10.0
 50
180.0
  0
POINT
  5
B0A8
330
B059
100
AcDbEntity
  8
Defpoints
 62
     0
100
AcDbPoint
 10
2169.694134241192
 20
1106.172036632599
 30
0.0
  0
POINT
  5
B0A9
330
B059
100
AcDbEntity
  8
Defpoints
 62
     0
100
AcDbPoint
 10
1964.694134241192
 20
1126.687645072907
 30
0.0
  0
POINT
  5
B0AA
330
B059
100
AcDbEntity
  8
Defpoints
 62
     0
100
AcDbPoint
 10
1964.694134241192
 20
980.401716778365
 30
0.0
  0
ENDBLK
  5
B064
330
B059
100
AcDbEntity
  8
0
 62
     3
100
AcDbBlockEnd
  0
BLOCK
  5
B06F
330
B065
100
AcDbEntity
  8
0
 62
     3
100
AcDbBlockBegin
  2
*D79
 70
     1
 10
0.0
 20
0.0
 30
0.0
  3
*D79
  1

  0
LINE
  5
B682
330
B065
100
AcDbEntity
  8
実形
 62
     0
370
    18
100
AcDbLine
 10
2179.694134241192
 20
1031.143187744635
 30
0.0
 11
2179.694134241192
 21
980.401716778365
 31
0.0
  0
LINE
  5
B683
330
B065
100
AcDbEntity
  8
実形
 62
     0
370
    18
100
AcDbLine
 10
1964.694134241192
 20
1147.690712784909
 30
0.0
 11
1964.694134241192
 21
980.401716778365
 31
0.0
  0
LINE
  5
B684
330
B065
100
AcDbEntity
  8
実形
 62
     0
370
    18
100
AcDbLine
 10
2169.694134241192
 20
980.401716778365
 30
0.0
 11
1974.694134241192
 21
980.401716778365
 31
0.0
  0
MTEXT
  5
B685
330
B065
100
AcDbEntity
  8
実形
 62
     0
100
AcDbMText
 10
2204.781879208045
 20
1002.001716778365
 30
0.0
 40
25.0
 41
0.0
 71
     5
 72
     1
  1
10
 73
     1
 44
1.0
1001
ACAD
1000
MTEXTBEGIN
1070
    73
1070
     1
1070
    44
1040
1.0
1070
    74
1070
     0
1000
MTEXTEND
  0
INSERT
  5
B686
330
B065
100
AcDbEntity
  8
実形
 62
     0
370
    18
100
AcDbBlockReference
  2
_Dot
 10
2179.694134241192
 20
980.401716778365
 30
0.0
 41
10.0
 42
10.0
 43
10.0
  0
INSERT
  5
B687
330
B065
100
AcDbEntity
  8
実形
 62
     0
370
    18
100
AcDbBlockReference
  2
_Dot
 10
1964.694134241192
 20
980.401716778365
 30
0.0
 41
10.0
 42
10.0
 43
10.0
 50
180.0
  0
POINT
  5
B688
330
B065
100
AcDbEntity
  8
Defpoints
 62
     0
100
AcDbPoint
 10
2179.694134241192
 20
1096.143187744635
 30
0.0
  0
POINT
  5
B689
330
B065
100
AcDbEntity
  8
Defpoints
 62
     0
100
AcDbPoint
 10
1964.694134241192
 20
1212.690712784909
 30
0.0
  0
POINT
  5
B68A
330
B065
100
AcDbEntity
  8
Defpoints
 62
     0
100
AcDbPoint
 10
1964.694134241192
 20
980.401716778365
 30
0.0
  0
ENDBLK
  5
B070
330
B065
100
AcDbEntity
  8
0
 62
     3
100
AcDbBlockEnd
  0
BLOCK
  5
B07B
330
B071
100
AcDbEntity
  8
0
 62
     3
100
AcDbBlockBegin
  2
*D80
 70
     1
 10
0.0
 20
0.0
 30
0.0
  3
*D80
  1

  0
LINE
  5
B68B
330
B071
100
AcDbEntity
  8
実形
 62
     0
370
    18
100
AcDbLine
 10
2179.694134241192
 20
999.6766790516803
 30
0.0
 11
2179.694134241192
 21
921.4158920512026
 31
0.0
  0
LINE
  5
B68C
330
B071
100
AcDbEntity
  8
実形
 62
     0
370
    18
100
AcDbLine
 10
1964.694134241192
 20
972.3213608656706
 30
0.0
 11
1964.694134241192
 21
921.4158920512026
 31
0.0
  0
LINE
  5
B68D
330
B071
100
AcDbEntity
  8
実形
 62
     0
370
    18
100
AcDbLine
 10
2169.694134241192
 20
921.4158920512026
 30
0.0
 11
1974.694134241192
 21
921.4158920512026
 31
0.0
  0
MTEXT
  5
B68E
330
B071
100
AcDbEntity
  8
実形
 62
     0
100
AcDbMText
 10
2078.099577419165
 20
940.5158920512027
 30
0.0
 40
25.0
 41
0.0
 71
     5
 72
     1
  1
215
 73
     1
 44
1.0
1001
ACAD
1000
MTEXTBEGIN
1070
    73
1070
     1
1070
    44
1040
1.0
1070
    74
1070
     0
1000
MTEXTEND
  0
INSERT
  5
B68F
330
B071
100
AcDbEntity
  8
実形
 62
     0
370
    18
100
AcDbBlockReference
  2
_Dot
 10
2179.694134241192
 20
921.4158920512026
 30
0.0
 41
10.0
 42
10.0
 43
10.0
  0
INSERT
  5
B690
330
B071
100
AcDbEntity
  8
実形
 62
     0
370
    18
100
AcDbBlockReference
  2
_Dot
 10
1964.694134241192
 20
921.4158920512026
 30
0.0
 41
10.0
 42
10.0
 43
10.0
 50
180.0
  0
POINT
  5
B691
330
B071
100
AcDbEntity
  8
Defpoints
 62
     0
100
AcDbPoint
 10
2179.694134241192
 20
1064.67667905168
 30
0.0
  0
POINT
  5
B692
330
B071
100
AcDbEntity
  8
Defpoints
 62
     0
100
AcDbPoint
 10
1964.694134241192
 20
1037.321360865671
 30
0.0
  0
POINT
  5
B693
330
B071
100
AcDbEntity
  8
Defpoints
 62
     0
100
AcDbPoint
 10
1964.694134241192
 20
921.4158920512026
 30
0.0
  0
ENDBLK
  5
B07C
330
B071
100
AcDbEntity
  8
0
 62
     3
100
AcDbBlockEnd
  0
BLOCK
  5
B1E2
330
B1D8
100
AcDbEntity
  8
0
 62
     3
100
AcDbBlockBegin
  2
*D81
 70
     1
 10
0.0
 20
0.0
 30
0.0
  3
*D81
  1

  0
LINE
  5
B253
330
B1D8
100
AcDbEntity
  8
実形
 62
     0
370
    18
100
AcDbLine
 10
2421.873093860388
 20
1718.547590588581
 30
0.0
 11
2541.587879706242
 21
1718.547590588581
 31
0.0
  0
LINE
  5
B254
330
B1D8
100
AcDbEntity
  8
実形
 62
     0
370
    18
100
AcDbLine
 10
2468.834791414681
 20
1178.547590588581
 30
0.0
 11
2541.587879706242
 21
1178.547590588581
 31
0.0
  0
LINE
  5
B255
330
B1D8
100
AcDbEntity
  8
実形
 62
     0
370
    18
100
AcDbLine
 10
2541.587879706242
 20
1708.547590588581
 30
0.0
 11
2541.587879706242
 21
1188.547590588581
 31
0.0
  0
INSERT
  5
B256
330
B1D8
100
AcDbEntity
  8
実形
 62
     0
370
    18
100
AcDbBlockReference
  2
_Dot
 10
2541.587879706242
 20
1718.547590588581
 30
0.0
 41
10.0
 42
10.0
 43
10.0
 50
90.0
  0
INSERT
  5
B257
330
B1D8
100
AcDbEntity
  8
実形
 62
     0
370
    18
100
AcDbBlockReference
  2
_Dot
 10
2541.587879706242
 20
1178.547590588581
 30
0.0
 41
10.0
 42
10.0
 43
10.0
 50
270.0
  0
MTEXT
  5
B258
330
B1D8
100
AcDbEntity
  8
実形
 62
     0
100
AcDbMText
 10
2522.487879706241
 20
1448.547590588582
 30
0.0
 40
25.00000000000002
 41
0.0
 71
     5
 72
     1
  1
540
 11
0.0000000000000001
 21
1.0
 31
0.0
 73
     1
 44
1.0
1001
ACAD
1000
MTEXTBEGIN
1070
    73
1070
     1
1070
    44
1040
1.0
1070
    74
1070
     0
1000
MTEXTEND
  0
POINT
  5
B259
330
B1D8
100
AcDbEntity
  8
Defpoints
 62
     0
100
AcDbPoint
 10
2356.873093860388
 20
1718.547590588581
 30
0.0
  0
POINT
  5
B25A
330
B1D8
100
AcDbEntity
  8
Defpoints
 62
     0
100
AcDbPoint
 10
2403.834791414681
 20
1178.547590588581
 30
0.0
  0
POINT
  5
B25B
330
B1D8
100
AcDbEntity
  8
Defpoints
 62
     0
100
AcDbPoint
 10
2541.587879706242
 20
1178.547590588581
 30
0.0
  0
ENDBLK
  5
B1E3
330
B1D8
100
AcDbEntity
  8
0
 62
     3
100
AcDbBlockEnd
  0
BLOCK
  5
B412
330
B408
100
AcDbEntity
  8
0
 62
     3
100
AcDbBlockBegin
  2
*D82
 70
     1
 10
0.0
 20
0.0
 30
0.0
  3
*D82
  1

  0
LINE
  5
B4E2
330
B408
100
AcDbEntity
  8
実形
 62
     0
370
    18
100
AcDbLine
 10
1544.481704972408
 20
410.6580729330507
 30
0.0
 11
1544.481704972408
 21
358.7414743971931
 31
0.0
  0
LINE
  5
B4E3
330
B408
100
AcDbEntity
  8
実形
 62
     0
370
    18
100
AcDbLine
 10
1384.481704972407
 20
410.6580729330507
 30
0.0
 11
1384.481704972407
 21
358.7414743971931
 31
0.0
  0
LINE
  5
B4E4
330
B408
100
AcDbEntity
  8
実形
 62
     0
370
    18
100
AcDbLine
 10
1534.481704972408
 20
358.7414743971931
 30
0.0
 11
1394.481704972408
 21
358.7414743971931
 31
0.0
  0
INSERT
  5
B4E5
330
B408
100
AcDbEntity
  8
実形
 62
     0
370
    18
100
AcDbBlockReference
  2
_Dot
 10
1544.481704972408
 20
358.7414743971931
 30
0.0
 41
10.0
 42
10.0
 43
10.0
  0
INSERT
  5
B4E6
330
B408
100
AcDbEntity
  8
実形
 62
     0
370
    18
100
AcDbBlockReference
  2
_Dot
 10
1384.481704972407
 20
358.7414743971931
 30
0.0
 41
10.0
 42
10.0
 43
10.0
 50
180.0
  0
MTEXT
  5
B4E7
330
B408
100
AcDbEntity
  8
実形
 62
     0
100
AcDbMText
 10
1464.481704972408
 20
377.8414743971931
 30
0.0
 40
25.0
 41
0.0
 71
     5
 72
     1
  1
160
 73
     1
 44
1.0
1001
ACAD
1000
MTEXTBEGIN
1070
    73
1070
     1
1070
    44
1040
1.0
1070
    74
1070
     0
1000
MTEXTEND
  0
POINT
  5
B4E8
330
B408
100
AcDbEntity
  8
Defpoints
 62
     0
100
AcDbPoint
 10
1544.481704972408
 20
475.6580729330506
 30
0.0
  0
POINT
  5
B4E9
330
B408
100
AcDbEntity
  8
Defpoints
 62
     0
100
AcDbPoint
 10
1384.481704972407
 20
475.6580729330506
 30
0.0
  0
POINT
  5
B4EA
330
B408
100
AcDbEntity
  8
Defpoints
 62
     0
100
AcDbPoint
 10
1384.481704972407
 20
358.7414743971931
 30
0.0
  0
ENDBLK
  5
B413
330
B408
100
AcDbEntity
  8
0
 62
     3
100
AcDbBlockEnd
  0
BLOCK
  5
B41E
330
B414
100
AcDbEntity
  8
0
 62
     3
100
AcDbBlockBegin
  2
*D83
 70
     1
 10
0.0
 20
0.0
 30
0.0
  3
*D83
  1

  0
LINE
  5
B4EB
330
B414
100
AcDbEntity
  8
実形
 62
     0
370
    18
100
AcDbLine
 10
1554.981704972408
 20
410.6580729330508
 30
0.0
 11
1554.981704972408
 21
287.4991775819162
 31
0.0
  0
LINE
  5
B4EC
330
B414
100
AcDbEntity
  8
実形
 62
     0
370
    18
100
AcDbLine
 10
1373.981704972408
 20
410.6580729330464
 30
0.0
 11
1373.981704972408
 21
287.4991775819162
 31
0.0
  0
LINE
  5
B4ED
330
B414
100
AcDbEntity
  8
実形
 62
     0
370
    18
100
AcDbLine
 10
1544.981704972408
 20
287.4991775819162
 30
0.0
 11
1383.981704972408
 21
287.4991775819162
 31
0.0
  0
INSERT
  5
B4EE
330
B414
100
AcDbEntity
  8
実形
 62
     0
370
    18
100
AcDbBlockReference
  2
_Dot
 10
1554.981704972408
 20
287.4991775819162
 30
0.0
 41
10.0
 42
10.0
 43
10.0
  0
INSERT
  5
B4EF
330
B414
100
AcDbEntity
  8
実形
 62
     0
370
    18
100
AcDbBlockReference
  2
_Dot
 10
1373.981704972408
 20
287.4991775819162
 30
0.0
 41
10.0
 42
10.0
 43
10.0
 50
180.0
  0
MTEXT
  5
B4F0
330
B414
100
AcDbEntity
  8
実形
 62
     0
100
AcDbMText
 10
1464.481704972408
 20
306.5991775819163
 30
0.0
 40
25.0
 41
0.0
 71
     5
 72
     1
  1
181
 73
     1
 44
1.0
1001
ACAD
1000
MTEXTBEGIN
1070
    73
1070
     1
1070
    44
1040
1.0
1070
    74
1070
     0
1000
MTEXTEND
  0
POINT
  5
B4F1
330
B414
100
AcDbEntity
  8
Defpoints
 62
     0
100
AcDbPoint
 10
1554.981704972408
 20
475.6580729330507
 30
0.0
  0
POINT
  5
B4F2
330
B414
100
AcDbEntity
  8
Defpoints
 62
     0
100
AcDbPoint
 10
1373.981704972408
 20
475.6580729330464
 30
0.0
  0
POINT
  5
B4F3
330
B414
100
AcDbEntity
  8
Defpoints
 62
     0
100
AcDbPoint
 10
1373.981704972408
 20
287.4991775819162
 30
0.0
  0
ENDBLK
  5
B41F
330
B414
100
AcDbEntity
  8
0
 62
     3
100
AcDbBlockEnd
  0
BLOCK
  5
B42A
330
B420
100
AcDbEntity
  8
0
 62
     3
100
AcDbBlockBegin
  2
*D84
 70
     1
 10
0.0
 20
0.0
 30
0.0
  3
*D84
  1

  0
LINE
  5
B76B
330
B420
100
AcDbEntity
  8
実形
 62
     0
370
    18
100
AcDbLine
 10
1789.481704972408
 20
410.6580729330508
 30
0.0
 11
1789.481704972408
 21
358.7414743971931
 31
0.0
  0
LINE
  5
B76C
330
B420
100
AcDbEntity
  8
実形
 62
     0
370
    18
100
AcDbLine
 10
1695.481704972408
 20
410.6580729330508
 30
0.0
 11
1695.481704972408
 21
358.7414743971931
 31
0.0
  0
LINE
  5
B76D
330
B420
100
AcDbEntity
  8
実形
 62
     0
370
    18
100
AcDbLine
 10
1779.481704972408
 20
358.7414743971931
 30
0.0
 11
1705.481704972408
 21
358.7414743971931
 31
0.0
  0
INSERT
  5
B76E
330
B420
100
AcDbEntity
  8
実形
 62
     0
370
    18
100
AcDbBlockReference
  2
_Dot
 10
1789.481704972408
 20
358.7414743971931
 30
0.0
 41
10.0
 42
10.0
 43
10.0
  0
INSERT
  5
B76F
330
B420
100
AcDbEntity
  8
実形
 62
     0
370
    18
100
AcDbBlockReference
  2
_Dot
 10
1695.481704972408
 20
358.7414743971931
 30
0.0
 41
10.0
 42
10.0
 43
10.0
 50
180.0
  0
MTEXT
  5
B770
330
B420
100
AcDbEntity
  8
実形
 62
     0
100
AcDbMText
 10
1742.481704972408
 20
377.8414743971931
 30
0.0
 40
25.0
 41
0.0
 71
     5
 72
     1
  1
94
 73
     1
 44
1.0
1001
ACAD
1000
MTEXTBEGIN
1070
    73
1070
     1
1070
    44
1040
1.0
1070
    74
1070
     0
1000
MTEXTEND
  0
POINT
  5
B771
330
B420
100
AcDbEntity
  8
Defpoints
 62
     0
100
AcDbPoint
 10
1789.481704972408
 20
475.6580729330508
 30
0.0
  0
POINT
  5
B772
330
B420
100
AcDbEntity
  8
Defpoints
 62
     0
100
AcDbPoint
 10
1695.481704972408
 20
475.6580729330508
 30
0.0
  0
POINT
  5
B773
330
B420
100
AcDbEntity
  8
Defpoints
 62
     0
100
AcDbPoint
 10
1695.481704972408
 20
358.7414743971931
 30
0.0
  0
ENDBLK
  5
B42B
330
B420
100
AcDbEntity
  8
0
 62
     3
100
AcDbBlockEnd
  0
BLOCK
  5
B436
330
B42C
100
AcDbEntity
  8
0
 62
     3
100
AcDbBlockBegin
  2
*D85
 70
     1
 10
0.0
 20
0.0
 30
0.0
  3
*D85
  1

  0
LINE
  5
B781
330
B42C
100
AcDbEntity
  8
実形
 62
     0
370
    18
100
AcDbLine
 10
1799.981704972408
 20
410.6580729330508
 30
0.0
 11
1799.981704972408
 21
287.4991775819162
 31
0.0
  0
LINE
  5
B782
330
B42C
100
AcDbEntity
  8
実形
 62
     0
370
    18
100
AcDbLine
 10
1684.981704972408
 20
410.6580729330508
 30
0.0
 11
1684.981704972408
 21
287.4991775819162
 31
0.0
  0
LINE
  5
B783
330
B42C
100
AcDbEntity
  8
実形
 62
     0
370
    18
100
AcDbLine
 10
1789.981704972408
 20
287.4991775819162
 30
0.0
 11
1694.981704972408
 21
287.4991775819162
 31
0.0
  0
INSERT
  5
B784
330
B42C
100
AcDbEntity
  8
実形
 62
     0
370
    18
100
AcDbBlockReference
  2
_Dot
 10
1799.981704972408
 20
287.4991775819162
 30
0.0
 41
10.0
 42
10.0
 43
10.0
  0
INSERT
  5
B785
330
B42C
100
AcDbEntity
  8
実形
 62
     0
370
    18
100
AcDbBlockReference
  2
_Dot
 10
1684.981704972408
 20
287.4991775819162
 30
0.0
 41
10.0
 42
10.0
 43
10.0
 50
180.0
  0
MTEXT
  5
B786
330
B42C
100
AcDbEntity
  8
実形
 62
     0
100
AcDbMText
 10
1742.481704972408
 20
306.5991775819163
 30
0.0
 40
25.0
 41
0.0
 71
     5
 72
     1
  1
115
 73
     1
 44
1.0
1001
ACAD
1000
MTEXTBEGIN
1070
    73
1070
     1
1070
    44
1040
1.0
1070
    74
1070
     0
1000
MTEXTEND
  0
POINT
  5
B787
330
B42C
100
AcDbEntity
  8
Defpoints
 62
     0
100
AcDbPoint
 10
1799.981704972408
 20
475.6580729330507
 30
0.0
  0
POINT
  5
B788
330
B42C
100
AcDbEntity
  8
Defpoints
 62
     0
100
AcDbPoint
 10
1684.981704972408
 20
475.6580729330507
 30
0.0
  0
POINT
  5
B789
330
B42C
100
AcDbEntity
  8
Defpoints
 62
     0
100
AcDbPoint
 10
1684.981704972408
 20
287.4991775819162
 30
0.0
  0
ENDBLK
  5
B437
330
B42C
100
AcDbEntity
  8
0
 62
     3
100
AcDbBlockEnd
  0
BLOCK
  5
B442
330
B438
100
AcDbEntity
  8
0
 62
     3
100
AcDbBlockBegin
  2
*D86
 70
     1
 10
0.0
 20
0.0
 30
0.0
  3
*D86
  1

  0
LINE
  5
B506
330
B438
100
AcDbEntity
  8
実形
 62
     0
370
    18
100
AcDbLine
 10
1014.365402347668
 20
690.6580729330508
 30
0.0
 11
955.1086425092162
 21
690.6580729330508
 31
0.0
  0
LINE
  5
B507
330
B438
100
AcDbEntity
  8
実形
 62
     0
370
    18
100
AcDbLine
 10
1014.365402347668
 20
500.6580729330507
 30
0.0
 11
955.1086425092162
 21
500.6580729330507
 31
0.0
  0
LINE
  5
B508
330
B438
100
AcDbEntity
  8
実形
 62
     0
370
    18
100
AcDbLine
 10
955.1086425092162
 20
680.6580729330509
 30
0.0
 11
955.1086425092162
 21
510.6580729330508
 31
0.0
  0
MTEXT
  5
B509
330
B438
100
AcDbEntity
  8
実形
 62
     0
100
AcDbMText
 10
935.3396127793967
 20
667.8852156298617
 30
0.0
 40
25.0
 41
0.0
 71
     5
 72
     1
  1
15
 11
0.0000000000000001
 21
1.0
 31
0.0
 73
     1
 44
1.0
1001
ACAD
1000
MTEXTBEGIN
1070
    73
1070
     1
1070
    44
1040
1.0
1070
    74
1070
     0
1000
MTEXTEND
  0
INSERT
  5
B50A
330
B438
100
AcDbEntity
  8
実形
 62
     0
370
    18
100
AcDbBlockReference
  2
_Dot
 10
955.1086425092162
 20
690.6580729330508
 30
0.0
 41
10.0
 42
10.0
 43
10.0
 50
90.0
  0
INSERT
  5
B50B
330
B438
100
AcDbEntity
  8
実形
 62
     0
370
    18
100
AcDbBlockReference
  2
_Dot
 10
955.1086425092162
 20
500.6580729330507
 30
0.0
 41
10.0
 42
10.0
 43
10.0
 50
270.0
  0
POINT
  5
B50C
330
B438
100
AcDbEntity
  8
Defpoints
 62
     0
100
AcDbPoint
 10
1079.365402347668
 20
690.6580729330508
 30
0.0
  0
POINT
  5
B50D
330
B438
100
AcDbEntity
  8
Defpoints
 62
     0
100
AcDbPoint
 10
1079.365402347668
 20
500.6580729330507
 30
0.0
  0
POINT
  5
B50E
330
B438
100
AcDbEntity
  8
Defpoints
 62
     0
100
AcDbPoint
 10
955.1086425092162
 20
500.6580729330507
 30
0.0
  0
ENDBLK
  5
B443
330
B438
100
AcDbEntity
  8
0
 62
     3
100
AcDbBlockEnd
  0
BLOCK
  5
B44E
330
B444
100
AcDbEntity
  8
0
 62
     3
100
AcDbBlockBegin
  2
*D87
 70
     1
 10
0.0
 20
0.0
 30
0.0
  3
*D87
  1

  0
LINE
  5
B50F
330
B444
100
AcDbEntity
  8
実形
 62
     0
370
    18
100
AcDbLine
 10
1014.365402347668
 20
675.6580729330508
 30
0.0
 11
955.1086425092162
 21
675.6580729330508
 31
0.0
  0
LINE
  5
B510
330
B444
100
AcDbEntity
  8
実形
 62
     0
370
    18
100
AcDbLine
 10
1014.365402347668
 20
500.6580729330507
 30
0.0
 11
955.1086425092162
 21
500.6580729330507
 31
0.0
  0
LINE
  5
B511
330
B444
100
AcDbEntity
  8
実形
 62
     0
370
    18
100
AcDbLine
 10
955.1086425092162
 20
665.6580729330507
 30
0.0
 11
955.1086425092162
 21
510.6580729330508
 31
0.0
  0
INSERT
  5
B512
330
B444
100
AcDbEntity
  8
実形
 62
     0
370
    18
100
AcDbBlockReference
  2
_Dot
 10
955.1086425092162
 20
675.6580729330508
 30
0.0
 41
10.0
 42
10.0
 43
10.0
 50
90.0
  0
INSERT
  5
B513
330
B444
100
AcDbEntity
  8
実形
 62
     0
370
    18
100
AcDbBlockReference
  2
_Dot
 10
955.1086425092162
 20
500.6580729330507
 30
0.0
 41
10.0
 42
10.0
 43
10.0
 50
270.0
  0
MTEXT
  5
B514
330
B444
100
AcDbEntity
  8
実形
 62
     0
100
AcDbMText
 10
936.0086425092161
 20
588.1580729330509
 30
0.0
 40
25.0
 41
0.0
 71
     5
 72
     1
  1
175
 11
0.0000000000000001
 21
1.0
 31
0.0
 73
     1
 44
1.0
1001
ACAD
1000
MTEXTBEGIN
1070
    73
1070
     1
1070
    44
1040
1.0
1070
    74
1070
     0
1000
MTEXTEND
  0
POINT
  5
B515
330
B444
100
AcDbEntity
  8
Defpoints
 62
     0
100
AcDbPoint
 10
1079.365402347668
 20
675.6580729330508
 30
0.0
  0
POINT
  5
B516
330
B444
100
AcDbEntity
  8
Defpoints
 62
     0
100
AcDbPoint
 10
1079.365402347668
 20
500.6580729330507
 30
0.0
  0
POINT
  5
B517
330
B444
100
AcDbEntity
  8
Defpoints
 62
     0
100
AcDbPoint
 10
955.1086425092162
 20
500.6580729330507
 30
0.0
  0
ENDBLK
  5
B44F
330
B444
100
AcDbEntity
  8
0
 62
     3
100
AcDbBlockEnd
  0
BLOCK
  5
B45A
330
B450
100
AcDbEntity
  8
0
 62
     3
100
AcDbBlockBegin
  2
*D88
 70
     1
 10
0.0
 20
0.0
 30
0.0
  3
*D88
  1

  0
LINE
  5
B518
330
B450
100
AcDbEntity
  8
実形
 62
     0
370
    18
100
AcDbLine
 10
949.3654023476683
 20
690.6580729330508
 30
0.0
 11
891.9357019185463
 21
690.6580729330508
 31
0.0
  0
LINE
  5
B519
330
B450
100
AcDbEntity
  8
実形
 62
     0
370
    18
100
AcDbLine
 10
949.3654023476683
 20
500.6580729330507
 30
0.0
 11
891.9357019185463
 21
500.6580729330508
 31
0.0
  0
LINE
  5
B51A
330
B450
100
AcDbEntity
  8
実形
 62
     0
370
    18
100
AcDbLine
 10
891.9357019185463
 20
680.6580729330509
 30
0.0
 11
891.9357019185463
 21
510.6580729330508
 31
0.0
  0
MTEXT
  5
B51B
330
B450
100
AcDbEntity
  8
実形
 62
     0
100
AcDbMText
 10
871.6256907651604
 20
586.7417301816194
 30
0.0
 40
25.0
 41
0.0
 71
     5
 72
     1
  1
190
 11
0.0000000000000001
 21
1.0
 31
0.0
 73
     1
 44
1.0
1001
ACAD
1000
MTEXTBEGIN
1070
    73
1070
     1
1070
    44
1040
1.0
1070
    74
1070
     0
1000
MTEXTEND
  0
INSERT
  5
B51C
330
B450
100
AcDbEntity
  8
実形
 62
     0
370
    18
100
AcDbBlockReference
  2
_Dot
 10
891.9357019185463
 20
690.6580729330508
 30
0.0
 41
10.0
 42
10.0
 43
10.0
 50
90.0
  0
INSERT
  5
B51D
330
B450
100
AcDbEntity
  8
実形
 62
     0
370
    18
100
AcDbBlockReference
  2
_Dot
 10
891.9357019185463
 20
500.6580729330508
 30
0.0
 41
10.0
 42
10.0
 43
10.0
 50
270.0
  0
POINT
  5
B51E
330
B450
100
AcDbEntity
  8
Defpoints
 62
     0
100
AcDbPoint
 10
1014.365402347668
 20
690.6580729330508
 30
0.0
  0
POINT
  5
B51F
330
B450
100
AcDbEntity
  8
Defpoints
 62
     0
100
AcDbPoint
 10
1014.365402347668
 20
500.6580729330507
 30
0.0
  0
POINT
  5
B520
330
B450
100
AcDbEntity
  8
Defpoints
 62
     0
100
AcDbPoint
 10
891.9357019185463
 20
500.6580729330508
 30
0.0
  0
ENDBLK
  5
B45B
330
B450
100
AcDbEntity
  8
0
 62
     3
100
AcDbBlockEnd
  0
BLOCK
  5
B466
330
B45C
100
AcDbEntity
  8
0
 62
     3
100
AcDbBlockBegin
  2
*D89
 70
     1
 10
0.0
 20
0.0
 30
0.0
  3
*D89
  1

  0
LINE
  5
B521
330
B45C
100
AcDbEntity
  8
実形
 62
     0
370
    18
100
AcDbLine
 10
1015.024737447658
 20
485.6580729330508
 30
0.0
 11
891.9357019185463
 21
485.6580729330508
 31
0.0
  0
LINE
  5
B522
330
B45C
100
AcDbEntity
  8
実形
 62
     0
370
    18
100
AcDbLine
 10
1014.365402347668
 20
690.6580729330508
 30
0.0
 11
891.9357019185463
 21
690.6580729330508
 31
0.0
  0
LINE
  5
B523
330
B45C
100
AcDbEntity
  8
実形
 62
     0
370
    18
100
AcDbLine
 10
891.9357019185463
 20
495.6580729330508
 30
0.0
 11
891.9357019185463
 21
680.6580729330509
 31
0.0
  0
MTEXT
  5
B524
330
B45C
100
AcDbEntity
  8
実形
 62
     0
100
AcDbMText
 10
872.2475725985022
 20
510.7691236751962
 30
0.0
 40
25.0
 41
0.0
 71
     5
 72
     1
  1
15
 11
0.0000000000000001
 21
1.0
 31
0.0
 73
     1
 44
1.0
1001
ACAD
1000
MTEXTBEGIN
1070
    73
1070
     1
1070
    44
1040
1.0
1070
    74
1070
     0
1000
MTEXTEND
  0
INSERT
  5
B525
330
B45C
100
AcDbEntity
  8
実形
 62
     0
370
    18
100
AcDbBlockReference
  2
_Dot
 10
891.9357019185463
 20
485.6580729330508
 30
0.0
 41
10.0
 42
10.0
 43
10.0
 50
270.0
  0
INSERT
  5
B526
330
B45C
100
AcDbEntity
  8
実形
 62
     0
370
    18
100
AcDbBlockReference
  2
_Dot
 10
891.9357019185463
 20
690.6580729330508
 30
0.0
 41
10.0
 42
10.0
 43
10.0
 50
90.0
  0
POINT
  5
B527
330
B45C
100
AcDbEntity
  8
Defpoints
 62
     0
100
AcDbPoint
 10
1080.024737447658
 20
485.6580729330508
 30
0.0
  0
POINT
  5
B528
330
B45C
100
AcDbEntity
  8
Defpoints
 62
     0
100
AcDbPoint
 10
1079.365402347668
 20
690.6580729330508
 30
0.0
  0
POINT
  5
B529
330
B45C
100
AcDbEntity
  8
Defpoints
 62
     0
100
AcDbPoint
 10
891.9357019185463
 20
690.6580729330508
 30
0.0
  0
ENDBLK
  5
B467
330
B45C
100
AcDbEntity
  8
0
 62
     3
100
AcDbBlockEnd
  0
BLOCK
  5
B472
330
B468
100
AcDbEntity
  8
0
 62
     3
100
AcDbBlockBegin
  2
*D90
 70
     1
 10
0.0
 20
0.0
 30
0.0
  3
*D90
  1

  0
LINE
  5
B52A
330
B468
100
AcDbEntity
  8
実形
 62
     0
370
    18
100
AcDbLine
 10
890.1086425092161
 20
690.6580729330508
 30
0.0
 11
831.5940224562528
 21
690.6580729330508
 31
0.0
  0
LINE
  5
B52B
330
B468
100
AcDbEntity
  8
実形
 62
     0
370
    18
100
AcDbLine
 10
890.1086425092161
 20
485.6580729330508
 30
0.0
 11
831.5940224562528
 21
485.6580729330508
 31
0.0
  0
LINE
  5
B52C
330
B468
100
AcDbEntity
  8
実形
 62
     0
370
    18
100
AcDbLine
 10
831.5940224562528
 20
680.6580729330509
 30
0.0
 11
831.5940224562528
 21
495.6580729330508
 31
0.0
  0
INSERT
  5
B52D
330
B468
100
AcDbEntity
  8
実形
 62
     0
370
    18
100
AcDbBlockReference
  2
_Dot
 10
831.5940224562528
 20
690.6580729330508
 30
0.0
 41
10.0
 42
10.0
 43
10.0
 50
90.0
  0
INSERT
  5
B52E
330
B468
100
AcDbEntity
  8
実形
 62
     0
370
    18
100
AcDbBlockReference
  2
_Dot
 10
831.5940224562528
 20
485.6580729330508
 30
0.0
 41
10.0
 42
10.0
 43
10.0
 50
270.0
  0
MTEXT
  5
B52F
330
B468
100
AcDbEntity
  8
実形
 62
     0
100
AcDbMText
 10
812.4940224562527
 20
588.158072933051
 30
0.0
 40
25.0
 41
0.0
 71
     5
 72
     1
  1
205
 11
0.0000000000000001
 21
1.0
 31
0.0
 73
     1
 44
1.0
1001
ACAD
1000
MTEXTBEGIN
1070
    73
1070
     1
1070
    44
1040
1.0
1070
    74
1070
     0
1000
MTEXTEND
  0
POINT
  5
B530
330
B468
100
AcDbEntity
  8
Defpoints
 62
     0
100
AcDbPoint
 10
955.1086425092162
 20
690.6580729330508
 30
0.0
  0
POINT
  5
B531
330
B468
100
AcDbEntity
  8
Defpoints
 62
     0
100
AcDbPoint
 10
955.1086425092162
 20
485.6580729330508
 30
0.0
  0
POINT
  5
B532
330
B468
100
AcDbEntity
  8
Defpoints
 62
     0
100
AcDbPoint
 10
831.5940224562528
 20
485.6580729330508
 30
0.0
  0
ENDBLK
  5
B473
330
B468
100
AcDbEntity
  8
0
 62
     3
100
AcDbBlockEnd
  0
BLOCK
  5
B47E
330
B474
100
AcDbEntity
  8
0
 62
     3
100
AcDbBlockBegin
  2
*D91
 70
     1
 10
0.0
 20
0.0
 30
0.0
  3
*D91
  1

  0
LINE
  5
B533
330
B474
100
AcDbEntity
  8
実形
 62
     0
370
    18
100
AcDbLine
 10
885.0267179513521
 20
475.6580729330508
 30
0.0
 11
831.5940224562528
 21
475.6580729330508
 31
0.0
  0
LINE
  5
B534
330
B474
100
AcDbEntity
  8
実形
 62
     0
370
    18
100
AcDbLine
 10
890.1086425092161
 20
690.6580729330508
 30
0.0
 11
831.5940224562528
 21
690.6580729330508
 31
0.0
  0
LINE
  5
B535
330
B474
100
AcDbEntity
  8
実形
 62
     0
370
    18
100
AcDbLine
 10
831.5940224562528
 20
485.6580729330508
 30
0.0
 11
831.5940224562528
 21
680.6580729330509
 31
0.0
  0
MTEXT
  5
B536
330
B474
100
AcDbEntity
  8
実形
 62
     0
100
AcDbMText
 10
811.9488950643463
 20
490.2179794909334
 30
0.0
 40
25.0
 41
0.0
 71
     5
 72
     1
  1
8
 11
0.0000000000000001
 21
1.0
 31
0.0
 73
     1
 44
1.0
1001
ACAD
1000
MTEXTBEGIN
1070
    73
1070
     1
1070
    44
1040
1.0
1070
    74
1070
     0
1000
MTEXTEND
  0
INSERT
  5
B537
330
B474
100
AcDbEntity
  8
実形
 62
     0
370
    18
100
AcDbBlockReference
  2
_Dot
 10
831.5940224562528
 20
475.6580729330508
 30
0.0
 41
10.0
 42
10.0
 43
10.0
 50
270.0
  0
INSERT
  5
B538
330
B474
100
AcDbEntity
  8
実形
 62
     0
370
    18
100
AcDbBlockReference
  2
_Dot
 10
831.5940224562528
 20
690.6580729330508
 30
0.0
 41
10.0
 42
10.0
 43
10.0
 50
90.0
  0
POINT
  5
B539
330
B474
100
AcDbEntity
  8
Defpoints
 62
     0
100
AcDbPoint
 10
950.0267179513521
 20
475.6580729330507
 30
0.0
  0
POINT
  5
B53A
330
B474
100
AcDbEntity
  8
Defpoints
 62
     0
100
AcDbPoint
 10
955.1086425092162
 20
690.6580729330508
 30
0.0
  0
POINT
  5
B53B
330
B474
100
AcDbEntity
  8
Defpoints
 62
     0
100
AcDbPoint
 10
831.5940224562528
 20
690.6580729330508
 30
0.0
  0
ENDBLK
  5
B47F
330
B474
100
AcDbEntity
  8
0
 62
     3
100
AcDbBlockEnd
  0
BLOCK
  5
B48A
330
B480
100
AcDbEntity
  8
0
 62
     3
100
AcDbBlockBegin
  2
*D92
 70
     1
 10
0.0
 20
0.0
 30
0.0
  3
*D92
  1

  0
LINE
  5
B53C
330
B480
100
AcDbEntity
  8
実形
 62
     0
370
    18
100
AcDbLine
 10
826.9357019185463
 20
690.6580729330508
 30
0.0
 11
776.7036234843708
 21
690.6580729330508
 31
0.0
  0
LINE
  5
B53D
330
B480
100
AcDbEntity
  8
実形
 62
     0
370
    18
100
AcDbLine
 10
837.2277256203652
 20
475.6580729330508
 30
0.0
 11
776.7036234843708
 21
475.6580729330508
 31
0.0
  0
LINE
  5
B53E
330
B480
100
AcDbEntity
  8
実形
 62
     0
370
    18
100
AcDbLine
 10
776.7036234843708
 20
680.6580729330509
 30
0.0
 11
776.7036234843708
 21
485.6580729330508
 31
0.0
  0
MTEXT
  5
B53F
330
B480
100
AcDbEntity
  8
実形
 62
     0
100
AcDbMText
 10
750.655609580921
 20
589.371334171702
 30
0.0
 40
25.0
 41
0.0
 71
     5
 72
     1
  1
213
 11
0.0000000000000001
 21
1.0
 31
0.0
 73
     1
 44
1.0
1001
ACAD
1000
MTEXTBEGIN
1070
    73
1070
     1
1070
    44
1040
1.0
1070
    74
1070
     0
1000
MTEXTEND
  0
INSERT
  5
B540
330
B480
100
AcDbEntity
  8
実形
 62
     0
370
    18
100
AcDbBlockReference
  2
_Dot
 10
776.7036234843708
 20
690.6580729330508
 30
0.0
 41
10.0
 42
10.0
 43
10.0
 50
90.0
  0
INSERT
  5
B541
330
B480
100
AcDbEntity
  8
実形
 62
     0
370
    18
100
AcDbBlockReference
  2
_Dot
 10
776.7036234843708
 20
475.6580729330508
 30
0.0
 41
10.0
 42
10.0
 43
10.0
 50
270.0
  0
POINT
  5
B542
330
B480
100
AcDbEntity
  8
Defpoints
 62
     0
100
AcDbPoint
 10
891.9357019185463
 20
690.6580729330508
 30
0.0
  0
POINT
  5
B543
330
B480
100
AcDbEntity
  8
Defpoints
 62
     0
100
AcDbPoint
 10
902.2277256203651
 20
475.6580729330507
 30
0.0
  0
POINT
  5
B544
330
B480
100
AcDbEntity
  8
Defpoints
 62
     0
100
AcDbPoint
 10
776.7036234843708
 20
475.6580729330508
 30
0.0
  0
ENDBLK
  5
B48B
330
B480
100
AcDbEntity
  8
0
 62
     3
100
AcDbBlockEnd
  0
BLOCK
  5
B496
330
B48C
100
AcDbEntity
  8
0
 62
     3
100
AcDbBlockBegin
  2
*D93
 70
     1
 10
0.0
 20
0.0
 30
0.0
  3
*D93
  1

  0
LINE
  5
B545
330
B48C
100
AcDbEntity
  8
実形
 62
     0
370
    18
100
AcDbLine
 10
1922.763746077758
 20
690.6580729330507
 30
0.0
 11
1976.384205538445
 21
690.6580729330507
 31
0.0
  0
LINE
  5
B546
330
B48C
100
AcDbEntity
  8
実形
 62
     0
370
    18
100
AcDbLine
 10
1922.763746077759
 20
498.3376179868074
 30
0.0
 11
1976.384205538445
 21
498.3376179868074
 31
0.0
  0
LINE
  5
B547
330
B48C
100
AcDbEntity
  8
実形
 62
     0
370
    18
100
AcDbLine
 10
1976.384205538445
 20
680.6580729330508
 30
0.0
 11
1976.384205538445
 21
508.3376179868074
 31
0.0
  0
MTEXT
  5
B548
330
B48C
100
AcDbEntity
  8
実形
 62
     0
100
AcDbMText
 10
1949.733374223613
 20
580.9427096768804
 30
0.0
 40
25.0
 41
0.0
 71
     5
 72
     1
  1
180
 11
0.0000000000000001
 21
1.0
 31
0.0
 73
     1
 44
1.0
1001
ACAD
1000
MTEXTBEGIN
1070
    73
1070
     1
1070
    44
1040
1.0
1070
    74
1070
     0
1000
MTEXTEND
  0
INSERT
  5
B549
330
B48C
100
AcDbEntity
  8
実形
 62
     0
370
    18
100
AcDbBlockReference
  2
_Dot
 10
1976.384205538445
 20
690.6580729330507
 30
0.0
 41
10.0
 42
10.0
 43
10.0
 50
90.0
  0
INSERT
  5
B54A
330
B48C
100
AcDbEntity
  8
実形
 62
     0
370
    18
100
AcDbBlockReference
  2
_Dot
 10
1976.384205538445
 20
498.3376179868074
 30
0.0
 41
10.0
 42
10.0
 43
10.0
 50
270.0
  0
POINT
  5
B54B
330
B48C
100
AcDbEntity
  8
Defpoints
 62
     0
100
AcDbPoint
 10
1857.763746077759
 20
690.6580729330507
 30
0.0
  0
POINT
  5
B54C
330
B48C
100
AcDbEntity
  8
Defpoints
 62
     0
100
AcDbPoint
 10
1857.763746077759
 20
498.3376179868074
 30
0.0
  0
POINT
  5
B54D
330
B48C
100
AcDbEntity
  8
Defpoints
 62
     0
100
AcDbPoint
 10
1976.384205538445
 20
498.3376179868074
 30
0.0
  0
ENDBLK
  5
B497
330
B48C
100
AcDbEntity
  8
0
 62
     3
100
AcDbBlockEnd
  0
BLOCK
  5
B4A2
330
B498
100
AcDbEntity
  8
0
 62
     3
100
AcDbBlockBegin
  2
*D94
 70
     1
 10
0.0
 20
0.0
 30
0.0
  3
*D94
  1

  0
LINE
  5
B54E
330
B498
100
AcDbEntity
  8
実形
 62
     0
370
    18
100
AcDbLine
 10
1922.763746077758
 20
675.6580729330508
 30
0.0
 11
1976.384205538445
 21
675.6580729330508
 31
0.0
  0
LINE
  5
B54F
330
B498
100
AcDbEntity
  8
実形
 62
     0
370
    18
100
AcDbLine
 10
1922.763746077759
 20
498.3376179868074
 30
0.0
 11
1976.384205538445
 21
498.3376179868074
 31
0.0
  0
LINE
  5
B550
330
B498
100
AcDbEntity
  8
実形
 62
     0
370
    18
100
AcDbLine
 10
1976.384205538445
 20
665.6580729330507
 30
0.0
 11
1976.384205538445
 21
508.3376179868074
 31
0.0
  0
MTEXT
  5
B551
330
B498
100
AcDbEntity
  8
実形
 62
     0
100
AcDbMText
 10
1952.59579058177
 20
716.9897814290735
 30
0.0
 40
25.0
 41
0.0
 71
     5
 72
     1
  1
15
 11
0.0000000000000001
 21
1.0
 31
0.0
 73
     1
 44
1.0
1001
ACAD
1000
MTEXTBEGIN
1070
    73
1070
     1
1070
    44
1040
1.0
1070
    74
1070
     0
1000
MTEXTEND
  0
INSERT
  5
B552
330
B498
100
AcDbEntity
  8
実形
 62
     0
370
    18
100
AcDbBlockReference
  2
_Dot
 10
1976.384205538445
 20
675.6580729330508
 30
0.0
 41
10.0
 42
10.0
 43
10.0
 50
90.0
  0
INSERT
  5
B553
330
B498
100
AcDbEntity
  8
実形
 62
     0
370
    18
100
AcDbBlockReference
  2
_Dot
 10
1976.384205538445
 20
498.3376179868074
 30
0.0
 41
10.0
 42
10.0
 43
10.0
 50
270.0
  0
POINT
  5
B554
330
B498
100
AcDbEntity
  8
Defpoints
 62
     0
100
AcDbPoint
 10
1857.763746077759
 20
675.6580729330508
 30
0.0
  0
POINT
  5
B555
330
B498
100
AcDbEntity
  8
Defpoints
 62
     0
100
AcDbPoint
 10
1857.763746077759
 20
498.3376179868074
 30
0.0
  0
POINT
  5
B556
330
B498
100
AcDbEntity
  8
Defpoints
 62
     0
100
AcDbPoint
 10
1976.384205538445
 20
498.3376179868074
 30
0.0
  0
ENDBLK
  5
B4A3
330
B498
100
AcDbEntity
  8
0
 62
     3
100
AcDbBlockEnd
  0
BLOCK
  5
B4AE
330
B4A4
100
AcDbEntity
  8
0
 62
     3
100
AcDbBlockBegin
  2
*D95
 70
     1
 10
0.0
 20
0.0
 30
0.0
  3
*D95
  1

  0
LINE
  5
B557
330
B4A4
100
AcDbEntity
  8
実形
 62
     0
370
    18
100
AcDbLine
 10
1976.41989218691
 20
690.6580729330507
 30
0.0
 11
2041.085077957956
 21
690.6580729330507
 31
0.0
  0
LINE
  5
B558
330
B4A4
100
AcDbEntity
  8
実形
 62
     0
370
    18
100
AcDbLine
 10
1977.026576239061
 20
498.3376179868074
 30
0.0
 11
2041.085077957956
 21
498.3376179868074
 31
0.0
  0
LINE
  5
B559
330
B4A4
100
AcDbEntity
  8
実形
 62
     0
370
    18
100
AcDbLine
 10
2041.085077957956
 20
680.6580729330508
 30
0.0
 11
2041.085077957956
 21
508.3376179868074
 31
0.0
  0
MTEXT
  5
B55A
330
B4A4
100
AcDbEntity
  8
実形
 62
     0
100
AcDbMText
 10
2019.862552231036
 20
581.0596099278409
 30
0.0
 40
25.0
 41
0.0
 71
     5
 72
     1
  1
195
 11
0.0000000000000001
 21
1.0
 31
0.0
 73
     1
 44
1.0
1001
ACAD
1000
MTEXTBEGIN
1070
    73
1070
     1
1070
    44
1040
1.0
1070
    74
1070
     0
1000
MTEXTEND
  0
INSERT
  5
B55B
330
B4A4
100
AcDbEntity
  8
実形
 62
     0
370
    18
100
AcDbBlockReference
  2
_Dot
 10
2041.085077957956
 20
690.6580729330507
 30
0.0
 41
10.0
 42
10.0
 43
10.0
 50
90.0
  0
INSERT
  5
B55C
330
B4A4
100
AcDbEntity
  8
実形
 62
     0
370
    18
100
AcDbBlockReference
  2
_Dot
 10
2041.085077957956
 20
498.3376179868074
 30
0.0
 41
10.0
 42
10.0
 43
10.0
 50
270.0
  0
POINT
  5
B55D
330
B4A4
100
AcDbEntity
  8
Defpoints
 62
     0
100
AcDbPoint
 10
1911.41989218691
 20
690.6580729330507
 30
0.0
  0
POINT
  5
B55E
330
B4A4
100
AcDbEntity
  8
Defpoints
 62
     0
100
AcDbPoint
 10
1912.026576239061
 20
498.3376179868074
 30
0.0
  0
POINT
  5
B55F
330
B4A4
100
AcDbEntity
  8
Defpoints
 62
     0
100
AcDbPoint
 10
2041.085077957956
 20
498.3376179868074
 30
0.0
  0
ENDBLK
  5
B4AF
330
B4A4
100
AcDbEntity
  8
0
 62
     3
100
AcDbBlockEnd
  0
BLOCK
  5
B4BA
330
B4B0
100
AcDbEntity
  8
0
 62
     3
100
AcDbBlockBegin
  2
*D96
 70
     1
 10
0.0
 20
0.0
 30
0.0
  3
*D96
  1

  0
LINE
  5
B62D
330
B4B0
100
AcDbEntity
  8
実形
 62
     0
370
    18
100
AcDbLine
 10
1994.868169929345
 20
690.6580729330507
 30
0.0
 11
2041.085077957956
 21
690.6580729330507
 31
0.0
  0
LINE
  5
B62E
330
B4B0
100
AcDbEntity
  8
実形
 62
     0
370
    18
100
AcDbLine
 10
1923.176812835987
 20
485.6580729330507
 30
0.0
 11
2041.085077957956
 21
485.6580729330507
 31
0.0
  0
LINE
  5
B62F
330
B4B0
100
AcDbEntity
  8
実形
 62
     0
370
    18
100
AcDbLine
 10
2041.085077957956
 20
680.6580729330508
 30
0.0
 11
2041.085077957956
 21
495.6580729330507
 31
0.0
  0
MTEXT
  5
B630
330
B4B0
100
AcDbEntity
  8
実形
 62
     0
100
AcDbMText
 10
2021.293760410115
 20
518.6313137701081
 30
0.0
 40
25.0
 41
0.0
 71
     5
 72
     1
  1
10
 11
0.0000000000000001
 21
1.0
 31
0.0
 73
     1
 44
1.0
1001
ACAD
1000
MTEXTBEGIN
1070
    73
1070
     1
1070
    44
1040
1.0
1070
    74
1070
     0
1000
MTEXTEND
  0
INSERT
  5
B631
330
B4B0
100
AcDbEntity
  8
実形
 62
     0
370
    18
100
AcDbBlockReference
  2
_Dot
 10
2041.085077957956
 20
690.6580729330507
 30
0.0
 41
10.0
 42
10.0
 43
10.0
 50
90.0
  0
INSERT
  5
B632
330
B4B0
100
AcDbEntity
  8
実形
 62
     0
370
    18
100
AcDbBlockReference
  2
_Dot
 10
2041.085077957956
 20
485.6580729330507
 30
0.0
 41
10.0
 42
10.0
 43
10.0
 50
270.0
  0
POINT
  5
B633
330
B4B0
100
AcDbEntity
  8
Defpoints
 62
     0
100
AcDbPoint
 10
1929.868169929345
 20
690.6580729330507
 30
0.0
  0
POINT
  5
B634
330
B4B0
100
AcDbEntity
  8
Defpoints
 62
     0
100
AcDbPoint
 10
1858.176812835987
 20
485.6580729330508
 30
0.0
  0
POINT
  5
B635
330
B4B0
100
AcDbEntity
  8
Defpoints
 62
     0
100
AcDbPoint
 10
2041.085077957956
 20
485.6580729330507
 30
0.0
  0
ENDBLK
  5
B4BB
330
B4B0
100
AcDbEntity
  8
0
 62
     3
100
AcDbBlockEnd
  0
BLOCK
  5
B4C7
330
B4BC
100
AcDbEntity
  8
0
 62
     3
100
AcDbBlockBegin
  2
*D97
 70
     1
 10
0.0
 20
0.0
 30
0.0
  3
*D97
  1

  0
LINE
  5
B65C
330
B4BC
100
AcDbEntity
  8
実形
 62
     0
370
    18
100
AcDbLine
 10
1994.868169929345
 20
690.6580729330507
 30
0.0
 11
2104.14944332812
 21
690.6580729330507
 31
0.0
  0
LINE
  5
B65D
330
B4BC
100
AcDbEntity
  8
実形
 62
     0
370
    18
100
AcDbLine
 10
1994.868169929345
 20
485.6580729330508
 30
0.0
 11
2104.14944332812
 21
485.6580729330508
 31
0.0
  0
LINE
  5
B65E
330
B4BC
100
AcDbEntity
  8
実形
 62
     0
370
    18
100
AcDbLine
 10
2104.14944332812
 20
680.6580729330508
 30
0.0
 11
2104.14944332812
 21
495.6580729330507
 31
0.0
  0
MTEXT
  5
B65F
330
B4BC
100
AcDbEntity
  8
実形
 62
     0
100
AcDbMText
 10
2083.504619285101
 20
582.1143571087204
 30
0.0
 40
25.0
 41
0.0
 71
     5
 72
     1
  1
205
 11
0.0000000000000001
 21
1.0
 31
0.0
 73
     1
 44
1.0
1001
ACAD
1000
MTEXTBEGIN
1070
    73
1070
     1
1070
    44
1040
1.0
1070
    74
1070
     0
1000
MTEXTEND
  0
INSERT
  5
B660
330
B4BC
100
AcDbEntity
  8
実形
 62
     0
370
    18
100
AcDbBlockReference
  2
_Dot
 10
2104.14944332812
 20
690.6580729330507
 30
0.0
 41
10.0
 42
10.0
 43
10.0
 50
90.0
  0
INSERT
  5
B661
330
B4BC
100
AcDbEntity
  8
実形
 62
     0
370
    18
100
AcDbBlockReference
  2
_Dot
 10
2104.14944332812
 20
485.6580729330508
 30
0.0
 41
10.0
 42
10.0
 43
10.0
 50
270.0
  0
POINT
  5
B662
330
B4BC
100
AcDbEntity
  8
Defpoints
 62
     0
100
AcDbPoint
 10
1929.868169929345
 20
690.6580729330507
 30
0.0
  0
POINT
  5
B663
330
B4BC
100
AcDbEntity
  8
Defpoints
 62
     0
100
AcDbPoint
 10
1929.868169929345
 20
485.6580729330508
 30
0.0
  0
POINT
  5
B664
330
B4BC
100
AcDbEntity
  8
Defpoints
 62
     0
100
AcDbPoint
 10
2104.14944332812
 20
485.6580729330508
 30
0.0
  0
ENDBLK
  5
B4C8
330
B4BC
100
AcDbEntity
  8
0
 62
     3
100
AcDbBlockEnd
  0
BLOCK
  5
B4D4
330
B4C9
100
AcDbEntity
  8
0
 62
     3
100
AcDbBlockBegin
  2
*D98
 70
     1
 10
0.0
 20
0.0
 30
0.0
  3
*D98
  1

  0
LINE
  5
B64A
330
B4C9
100
AcDbEntity
  8
実形
 62
     0
370
    18
100
AcDbLine
 10
1987.311012261476
 20
475.6580729330507
 30
0.0
 11
2104.14944332812
 21
475.6580729330507
 31
0.0
  0
LINE
  5
B64B
330
B4C9
100
AcDbEntity
  8
実形
 62
     0
370
    18
100
AcDbLine
 10
1994.868169929345
 20
690.6580729330507
 30
0.0
 11
2104.14944332812
 21
690.6580729330507
 31
0.0
  0
LINE
  5
B64C
330
B4C9
100
AcDbEntity
  8
実形
 62
     0
370
    18
100
AcDbLine
 10
2104.14944332812
 20
485.6580729330508
 30
0.0
 11
2104.14944332812
 21
680.6580729330508
 31
0.0
  0
MTEXT
  5
B64D
330
B4C9
100
AcDbEntity
  8
実形
 62
     0
100
AcDbMText
 10
2083.367776452471
 20
505.4923511574097
 30
0.0
 40
25.0
 41
0.0
 71
     5
 72
     1
  1
10
 11
0.0000000000000001
 21
1.0
 31
0.0
 73
     1
 44
1.0
1001
ACAD
1000
MTEXTBEGIN
1070
    73
1070
     1
1070
    44
1040
1.0
1070
    74
1070
     0
1000
MTEXTEND
  0
INSERT
  5
B64E
330
B4C9
100
AcDbEntity
  8
実形
 62
     0
370
    18
100
AcDbBlockReference
  2
_Dot
 10
2104.14944332812
 20
475.6580729330507
 30
0.0
 41
10.0
 42
10.0
 43
10.0
 50
270.0
  0
INSERT
  5
B64F
330
B4C9
100
AcDbEntity
  8
実形
 62
     0
370
    18
100
AcDbBlockReference
  2
_Dot
 10
2104.14944332812
 20
690.6580729330507
 30
0.0
 41
10.0
 42
10.0
 43
10.0
 50
90.0
  0
POINT
  5
B650
330
B4C9
100
AcDbEntity
  8
Defpoints
 62
     0
100
AcDbPoint
 10
1922.311012261476
 20
475.6580729330507
 30
0.0
  0
POINT
  5
B651
330
B4C9
100
AcDbEntity
  8
Defpoints
 62
     0
100
AcDbPoint
 10
1929.868169929345
 20
690.6580729330507
 30
0.0
  0
POINT
  5
B652
330
B4C9
100
AcDbEntity
  8
Defpoints
 62
     0
100
AcDbPoint
 10
2104.14944332812
 20
690.6580729330507
 30
0.0
  0
ENDBLK
  5
B4D5
330
B4C9
100
AcDbEntity
  8
0
 62
     3
100
AcDbBlockEnd
  0
BLOCK
  5
B4E0
330
B4D6
100
AcDbEntity
  8
0
 62
     3
100
AcDbBlockBegin
  2
*D99
 70
     1
 10
0.0
 20
0.0
 30
0.0
  3
*D99
  1

  0
LINE
  5
B653
330
B4D6
100
AcDbEntity
  8
実形
 62
     0
370
    18
100
AcDbLine
 10
1994.868169929345
 20
690.6580729330507
 30
0.0
 11
2165.746795393769
 21
690.6580729330507
 31
0.0
  0
LINE
  5
B654
330
B4D6
100
AcDbEntity
  8
実形
 62
     0
370
    18
100
AcDbLine
 10
2110.800892294972
 20
475.6580729330507
 30
0.0
 11
2165.746795393769
 21
475.6580729330507
 31
0.0
  0
LINE
  5
B655
330
B4D6
100
AcDbEntity
  8
実形
 62
     0
370
    18
100
AcDbLine
 10
2165.746795393769
 20
680.6580729330508
 30
0.0
 11
2165.746795393769
 21
485.6580729330508
 31
0.0
  0
INSERT
  5
B656
330
B4D6
100
AcDbEntity
  8
実形
 62
     0
370
    18
100
AcDbBlockReference
  2
_Dot
 10
2165.746795393769
 20
690.6580729330507
 30
0.0
 41
10.0
 42
10.0
 43
10.0
 50
90.0
  0
INSERT
  5
B657
330
B4D6
100
AcDbEntity
  8
実形
 62
     0
370
    18
100
AcDbBlockReference
  2
_Dot
 10
2165.746795393769
 20
475.6580729330507
 30
0.0
 41
10.0
 42
10.0
 43
10.0
 50
270.0
  0
MTEXT
  5
B658
330
B4D6
100
AcDbEntity
  8
実形
 62
     0
100
AcDbMText
 10
2146.646795393769
 20
583.1580729330511
 30
0.0
 40
25.0
 41
0.0
 71
     5
 72
     1
  1
215
 11
0.0000000000000001
 21
1.0
 31
0.0
 73
     1
 44
1.0
1001
ACAD
1000
MTEXTBEGIN
1070
    73
1070
     1
1070
    44
1040
1.0
1070
    74
1070
     0
1000
MTEXTEND
  0
POINT
  5
B659
330
B4D6
100
AcDbEntity
  8
Defpoints
 62
     0
100
AcDbPoint
 10
1929.868169929345
 20
690.6580729330507
 30
0.0
  0
POINT
  5
B65A
330
B4D6
100
AcDbEntity
  8
Defpoints
 62
     0
100
AcDbPoint
 10
2045.800892294972
 20
475.6580729330507
 30
0.0
  0
POINT
  5
B65B
330
B4D6
100
AcDbEntity
  8
Defpoints
 62
     0
100
AcDbPoint
 10
2165.746795393769
 20
475.6580729330507
 30
0.0
  0
ENDBLK
  5
B4E1
330
B4D6
100
AcDbEntity
  8
0
 62
     3
100
AcDbBlockEnd
  0
ENDSEC
  0
SECTION
  2
ENTITIES
  0
LINE
  5
9C
330
1F
100
AcDbEntity
  8
実形
 62
     0
100
AcDbLine
 10
174.0
 20
3.99999999999909
 30
0.0
 11
2834.0
 21
3.99999999999909
 31
0.0
  0
LINE
  5
A0
330
1F
100
AcDbEntity
  8
枠
 62
     0
100
AcDbLine
 10
2834.0
 20
2023.999999999999
 30
0.0
 11
174.0
 21
2023.999999999999
 31
0.0
  0
LINE
  5
272
330
1F
100
AcDbEntity
  8
実形
 62
     0
100
AcDbLine
 10
2234.0
 20
133.9999999999991
 30
0.0
 11
2234.0
 21
198.9999999999991
 31
0.0
  0
LINE
  5
1B73
330
1F
100
AcDbEntity
  8
枠
 62
     0
100
AcDbLine
 10
1944.0
 20
2023.999999999999
 30
0.0
 11
2834.0
 21
2023.999999999999
 31
0.0
  0
LINE
  5
1B84
330
1F
100
AcDbEntity
  8
実形
 62
     0
100
AcDbLine
 10
2114.0
 20
68.99999999999909
 30
0.0
 11
2834.0
 21
68.99999999999909
 31
0.0
  0
LINE
  5
1B85
330
1F
100
AcDbEntity
  8
実形
 62
     0
100
AcDbLine
 10
2114.0
 20
198.9999999999991
 30
0.0
 11
2834.0
 21
198.9999999999991
 31
0.0
  0
LINE
  5
1B86
330
1F
100
AcDbEntity
  8
実形
 62
     0
100
AcDbLine
 10
2114.0
 20
133.9999999999991
 30
0.0
 11
2834.0
 21
133.9999999999991
 31
0.0
  0
LINE
  5
1B87
330
1F
100
AcDbEntity
  8
実形
 62
     0
100
AcDbLine
 10
2114.0
 20
3.99999999999909
 30
0.0
 11
2114.0
 21
198.9999999999991
 31
0.0
  0
TEXT
  5
1B88
330
1F
100
AcDbEntity
  8
実形
 62
     0
100
AcDbText
 10
2336.950687982895
 20
18.49999999999909
 30
0.0
 40
35.0
  1
中外交易株式会社
  7
ms明朝
 72
     4
 11
2541.750687982895
 21
36.49999999999909
 31
0.0
100
AcDbText
  0
LINE
  5
1B8A
330
1F
100
AcDbEntity
  8
実形
 62
     0
100
AcDbLine
 10
2234.0
 20
68.99999999999909
 30
0.0
 11
2834.0
 21
68.99999999999909
 31
0.0
  0
LINE
  5
1B8B
102
{ACAD_REACTORS
330
1B98
102
}
330
1F
100
AcDbEntity
  8
実形
 62
     0
370
     5
100
AcDbLine
 10
2257.843923164362
 20
40.53787547858428
 30
0.0
 11
2233.255774665348
 21
40.53787547858428
 31
0.0
  0
LINE
  5
1B8C
102
{ACAD_REACTORS
330
1B98
102
}
330
1F
100
AcDbEntity
  8
実形
 62
     0
370
     5
100
AcDbLine
 10
2233.255774665348
 20
40.53787547858428
 30
0.0
 11
2233.255774665348
 21
30.53787547858429
 31
0.0
  0
LINE
  5
1B8D
102
{ACAD_REACTORS
330
1B98
102
}
330
1F
100
AcDbEntity
  8
実形
 62
     0
370
     5
100
AcDbLine
 10
2233.255774665348
 20
30.53787547858429
 30
0.0
 11
2257.346428692676
 21
30.53787547858429
 31
0.0
  0
LINE
  5
1B8E
102
{ACAD_REACTORS
330
1B98
102
}
330
1F
100
AcDbEntity
  8
実形
 62
     0
370
     5
100
AcDbLine
 10
2260.641894042939
 20
56.49999999999909
 30
0.0
 11
2260.641894042939
 21
16.49999999999909
 31
0.0
  0
LINE
  5
1B8F
102
{ACAD_REACTORS
330
1B98
102
}
330
1F
100
AcDbEntity
  8
実形
 62
     0
370
     5
100
AcDbLine
 10
2260.641894042939
 20
16.49999999999909
 30
0.0
 11
2295.641894042939
 21
16.49999999999909
 31
0.0
  0
LINE
  5
1B90
102
{ACAD_REACTORS
330
1B98
102
}
330
1F
100
AcDbEntity
  8
実形
 62
     0
370
     5
100
AcDbLine
 10
2295.641894042939
 20
16.49999999999909
 30
0.0
 11
2260.641894042939
 21
36.49999999999909
 31
0.0
  0
LINE
  5
1B91
102
{ACAD_REACTORS
330
1B98
102
}
330
1F
100
AcDbEntity
  8
実形
 62
     0
370
     5
100
AcDbLine
 10
2260.641894042939
 20
36.49999999999909
 30
0.0
 11
2295.641894042939
 21
56.49999999999909
 31
0.0
  0
LINE
  5
1B92
102
{ACAD_REACTORS
330
1B98
102
}
330
1F
100
AcDbEntity
  8
実形
 62
     0
370
     5
100
AcDbLine
 10
2295.641894042939
 20
56.49999999999909
 30
0.0
 11
2260.641894042939
 21
56.49999999999909
 31
0.0
  0
LINE
  5
1B93
102
{ACAD_REACTORS
330
1B98
102
}
330
1F
100
AcDbEntity
  8
実形
 62
     0
370
     5
100
AcDbLine
 10
2326.75434681301
 20
40.53787547858428
 30
0.0
 11
2302.166198313996
 21
40.53787547858428
 31
0.0
  0
LINE
  5
1B94
102
{ACAD_REACTORS
330
1B98
102
}
330
1F
100
AcDbEntity
  8
実形
 62
     0
370
     5
100
AcDbLine
 10
2302.166198313996
 20
40.53787547858428
 30
0.0
 11
2302.166198313996
 21
30.53787547858429
 31
0.0
  0
LINE
  5
1B95
102
{ACAD_REACTORS
330
1B98
102
}
330
1F
100
AcDbEntity
  8
実形
 62
     0
370
     5
100
AcDbLine
 10
2302.166198313996
 20
30.53787547858429
 30
0.0
 11
2326.256852341323
 21
30.53787547858429
 31
0.0
  0
ARC
  5
1B96
102
{ACAD_REACTORS
330
1B98
102
}
330
1F
100
AcDbEntity
  8
実形
 62
     0
370
     5
100
AcDbCircle
 10
2238.255774665347
 20
36.49999999999909
 30
0.0
 40
20.0
100
AcDbArc
 50
11.64772366708617
 51
342.6561058784773
  0
ARC
  5
1B97
102
{ACAD_REACTORS
330
1B98
102
}
330
1F
100
AcDbEntity
  8
実形
 62
     0
370
     5
100
AcDbCircle
 10
2307.166198313995
 20
36.49999999999909
 30
0.0
 40
20.0
100
AcDbArc
 50
11.64772366708617
 51
342.6561058784773
  0
HATCH
  5
1B98
330
1F
100
AcDbEntity
  8
実形
 62
     0
100
AcDbHatch
 10
0.0
 20
0.0
 30
0.0
210
0.0
220
0.0
230
1.0
  2
SOLID
 70
     1
 71
     1
 91
        3
 92
        1
 93
        4
 72
     2
 10
2307.166198313995
 20
36.49999999999909
 40
20.0
 50
11.64772366708617
 51
342.6561058784773
 73
     1
 72
     1
 10
2326.256852341323
 20
30.53787547858429
 11
2302.166198313996
 21
30.53787547858429
 72
     1
 10
2302.166198313996
 20
30.53787547858429
 11
2302.166198313996
 21
40.53787547858428
 72
     1
 10
2302.166198313996
 20
40.53787547858428
 11
2326.75434681301
 21
40.53787547858428
 97
        4
330
1B97
330
1B95
330
1B94
330
1B93
 92
        1
 93
        4
 72
     2
 10
2238.255774665347
 20
36.49999999999909
 40
20.0
 50
11.64772366708617
 51
342.6561058784773
 73
     1
 72
     1
 10
2257.346428692676
 20
30.53787547858429
 11
2233.255774665348
 21
30.53787547858429
 72
     1
 10
2233.255774665348
 20
30.53787547858429
 11
2233.255774665348
 21
40.53787547858428
 72
     1
 10
2233.255774665348
 20
40.53787547858428
 11
2257.843923164362
 21
40.53787547858428
 97
        4
330
1B96
330
1B8D
330
1B8C
330
1B8B
 92
        1
 93
        5
 72
     1
 10
2295.641894042939
 20
56.49999999999909
 11
2260.641894042939
 21
56.49999999999909
 72
     1
 10
2260.641894042939
 20
56.49999999999909
 11
2260.641894042939
 21
16.49999999999909
 72
     1
 10
2260.641894042939
 20
16.49999999999909
 11
2295.641894042939
 21
16.49999999999909
 72
     1
 10
2295.641894042939
 20
16.49999999999909
 11
2260.641894042939
 21
36.49999999999909
 72
     1
 10
2260.641894042939
 20
36.49999999999909
 11
2295.641894042939
 21
56.49999999999909
 97
        5
330
1B92
330
1B8E
330
1B8F
330
1B90
330
1B91
 75
     0
 76
     1
 98
        1
 10
-10.0
 20
-0.0000000000009095
  0
LINE
  5
1B99
330
1F
100
AcDbEntity
  8
実形
 62
     0
100
AcDbLine
 10
2234.0
 20
68.99999999999909
 30
0.0
 11
2234.0
 21
198.9999999999991
 31
0.0
  0
TEXT
  5
5E5F
330
1F
100
AcDbEntity
  8
実形
 62
     0
100
AcDbText
 10
2136.666666666667
 20
83.99999999999909
 30
0.0
 40
35.0
  1
尺度
 72
     4
 11
2174.0
 21
101.4999999999991
 31
0.0
100
AcDbText
  0
TEXT
  5
5E68
330
1F
100
AcDbEntity
  8
実形
 62
     0
100
AcDbText
 10
2136.666666666667
 20
148.9999999999991
 30
0.0
 40
35.0
  1
品番
 72
     4
 11
2174.0
 21
166.4999999999991
 31
0.0
100
AcDbText
  0
TEXT
  5
68BC
330
1F
100
AcDbEntity
  8
実形
100
AcDbText
 10
2452.398110327865
 20
87.12524385046025
 30
0.0
 40
30.0
  1
1：10
  7
ms明朝
 72
     4
 11
2507.255253185007
 21
101.7823867076031
 31
0.0
100
AcDbText
  0
TEXT
  5
68D6
330
1F
100
AcDbEntity
  8
実形
100
AcDbText
 10
2295.57649435253
 20
151.1737324271812
 30
0.0
 40
30.0
  1
RaS216-524-510DAN-R
  7
ms明朝
 72
     4
 11
2504.033637209673
 21
165.830875284324
 31
0.0
100
AcDbText
  0
LINE
  5
6D9B
330
1F
100
AcDbEntity
  8
実形
 62
     0
100
AcDbLine
 10
2834.0
 20
4.0
 30
0.0
 11
2834.0
 21
2024.0
 31
0.0
  0
LINE
  5
6E31
330
1F
100
AcDbEntity
  8
実形
 62
     0
100
AcDbLine
 10
174.0
 20
2024.0
 30
0.0
 11
174.0
 21
4.0
 31
0.0
  0
LINE
  5
7026
330
1F
100
AcDbEntity
  8
実形
100
AcDbLine
 10
1885.481704972408
 20
1718.547590588581
 30
0.0
 11
1055.481704972408
 21
1718.547590588581
 31
0.0
  0
LINE
  5
7027
330
1F
100
AcDbEntity
  8
実形
100
AcDbLine
 10
1055.481704972408
 20
1718.547590588581
 30
0.0
 11
1055.481704972408
 21
1178.547590588581
 31
0.0
  0
LINE
  5
7028
330
1F
100
AcDbEntity
  8
実形
100
AcDbLine
 10
1055.481704972408
 20
1178.547590588581
 30
0.0
 11
1885.481704972408
 21
1178.547590588581
 31
0.0
  0
LINE
  5
7029
330
1F
100
AcDbEntity
  8
実形
100
AcDbLine
 10
1885.481704972408
 20
1178.547590588581
 30
0.0
 11
1885.481704972408
 21
1718.547590588581
 31
0.0
  0
LINE
  5
702A
330
1F
100
AcDbEntity
  8
実形
100
AcDbLine
 10
1864.481704972408
 20
1703.547590588581
 30
0.0
 11
1076.481704972408
 21
1703.547590588581
 31
0.0
  0
LINE
  5
702B
330
1F
100
AcDbEntity
  8
実形
100
AcDbLine
 10
1070.481704972408
 20
1697.547590588581
 30
0.0
 11
1070.481704972408
 21
1199.547590588581
 31
0.0
  0
LINE
  5
702C
330
1F
100
AcDbEntity
  8
実形
100
AcDbLine
 10
1076.481704972408
 20
1193.547590588581
 30
0.0
 11
1864.481704972408
 21
1193.547590588581
 31
0.0
  0
LINE
  5
702D
330
1F
100
AcDbEntity
  8
実形
100
AcDbLine
 10
1870.481704972408
 20
1199.547590588581
 30
0.0
 11
1870.481704972408
 21
1697.547590588581
 31
0.0
  0
LINE
  5
702E
330
1F
100
AcDbEntity
  8
実形
100
AcDbLine
 10
1850.481704972408
 20
1219.547590588581
 30
0.0
 11
1850.481704972408
 21
1607.547590588582
 31
0.0
  0
LINE
  5
702F
330
1F
100
AcDbEntity
  8
実形
100
AcDbLine
 10
1608.481704972408
 20
1683.547590588582
 30
0.0
 11
1096.481704972408
 21
1683.547590588581
 31
0.0
  0
LINE
  5
7030
330
1F
100
AcDbEntity
  8
実形
100
AcDbLine
 10
1090.481704972408
 20
1677.547590588581
 30
0.0
 11
1090.481704972408
 21
1219.547590588581
 31
0.0
  0
LINE
  5
7031
330
1F
100
AcDbEntity
  8
実形
100
AcDbLine
 10
1640.481704972408
 20
1213.547590588581
 30
0.0
 11
1844.481704972408
 21
1213.547590588581
 31
0.0
  0
LINE
  5
7180
330
1F
100
AcDbEntity
  8
実形
  6
ACAD_ISO08W100
 48
0.5
100
AcDbLine
 10
1322.78200786591
 20
1448.547590588581
 30
0.0
 11
1597.809892463854
 21
1448.547590588581
 31
0.0
  0
CIRCLE
  5
7183
330
1F
100
AcDbEntity
  8
実形
100
AcDbCircle
 10
1464.481704972408
 20
1448.547590588581
 30
0.0
 40
80.0
  0
CIRCLE
  5
7184
330
1F
100
AcDbEntity
  8
実形
100
AcDbCircle
 10
1464.481704972408
 20
1448.547590588581
 30
0.0
 40
90.5
  0
LINE
  5
7185
330
1F
100
AcDbEntity
  8
実形
100
AcDbLine
 10
1850.481704972408
 20
1718.547590588581
 30
0.0
 11
1700.481704972408
 21
1718.547590588581
 31
0.0
  0
LINE
  5
72ED
330
1F
100
AcDbEntity
  8
実形
 62
     3
100
AcDbLine
 10
797.3710940401324
 20
-382.3860966284574
 30
0.0
 11
797.3710940401326
 21
-392.3860966284574
 31
0.0
  0
LEADER
  5
734B
330
1F
100
AcDbEntity
  8
実形
100
AcDbLeader
  3
ISO-25
 76
     2
 10
1100.850846435805
 20
1669.136201894871
 30
0.0
 10
1154.907792565849
 20
1620.239959021415
 30
0.0
211
-1.0
221
0.0
231
0.0
1001
ACAD
1000
DSTYLE
1002
{
1070
    77
1070
     0
1070
    41
1040
10.0
1070
   140
1040
30.0
1070
   147
1040
6.599999999999998
1070
   279
1070
     2
1070
   342
1005
30D
1070
   371
1070
    18
1070
   372
1070
    18
1002
}
  0
LEADER
  5
73F6
330
1F
100
AcDbEntity
  8
実形
100
AcDbLeader
  3
ISO-25
 76
     2
 10
1079.51176863333
 20
1200.631757324563
 30
0.0
 10
1147.752990749408
 20
1229.556509852824
 30
0.0
211
-1.0
221
0.0
231
0.0
1001
ACAD
1000
DSTYLE
1002
{
1070
    77
1070
     0
1070
    41
1040
10.0
1070
   140
1040
30.0
1070
   147
1040
6.599999999999998
1070
   279
1070
     2
1070
   342
1005
30D
1070
   371
1070
    18
1070
   372
1070
    18
1002
}
  0
ARC
  5
7548
330
1F
100
AcDbEntity
  8
実形
100
AcDbCircle
 10
1076.481704972408
 20
1697.547590588581
 30
0.0
 40
6.0
100
AcDbArc
 50
90.0
 51
180.0
  0
ARC
  5
7549
330
1F
100
AcDbEntity
  8
実形
100
AcDbCircle
 10
1096.481704972408
 20
1219.547590588581
 30
0.0
 40
6.0
100
AcDbArc
 50
180.0
 51
270.0
  0
ARC
  5
754A
330
1F
100
AcDbEntity
  8
実形
100
AcDbCircle
 10
1076.481704972408
 20
1199.547590588581
 30
0.0
 40
6.0
100
AcDbArc
 50
180.0
 51
270.0
  0
ARC
  5
754C
330
1F
100
AcDbEntity
  8
実形
100
AcDbCircle
 10
1864.481704972408
 20
1697.547590588581
 30
0.0
 40
6.0
100
AcDbArc
 50
0.000000000000007
 51
90.00000000000003
  0
ARC
  5
754D
330
1F
100
AcDbEntity
  8
実形
100
AcDbCircle
 10
1844.481704972408
 20
1219.547590588581
 30
0.0
 40
6.0
100
AcDbArc
 50
270.0
 51
0.000000000000007
  0
ARC
  5
754E
330
1F
100
AcDbEntity
  8
実形
100
AcDbCircle
 10
1864.481704972408
 20
1199.547590588581
 30
0.0
 40
6.0
100
AcDbArc
 50
270.0
 51
0.000000000000007
  0
LINE
  5
774D
330
1F
100
AcDbEntity
  8
実形
 62
     0
100
AcDbLine
 10
2114.0
 20
263.9999999999991
 30
0.0
 11
2834.0
 21
263.9999999999991
 31
0.0
  0
LINE
  5
774E
330
1F
100
AcDbEntity
  8
実形
 62
     0
100
AcDbLine
 10
2114.0
 20
3.99999999999909
 30
0.0
 11
2114.0
 21
263.9999999999991
 31
0.0
  0
LINE
  5
774F
330
1F
100
AcDbEntity
  8
実形
 62
     0
100
AcDbLine
 10
2234.0
 20
68.99999999999909
 30
0.0
 11
2234.0
 21
263.9999999999992
 31
0.0
  0
TEXT
  5
7750
330
1F
100
AcDbEntity
  8
実形
 62
     0
100
AcDbText
 10
2137.833333333333
 20
213.9999999999991
 30
0.0
 40
35.0
  1
品名
 72
     4
 11
2174.0
 21
231.4999999999991
 31
0.0
100
AcDbText
  0
TEXT
  5
7751
330
1F
100
AcDbEntity
  8
実形
100
AcDbText
 10
2299.957225902699
 20
213.2308752843241
 30
0.0
 40
35.0
  1
ｱﾝﾀﾞｰｼﾝｸ
  7
ms明朝
 72
     4
 11
2402.357225902699
 21
230.8308752843241
 31
0.0
100
AcDbText
  0
LINE
  5
7796
330
1F
100
AcDbEntity
  8
実形
100
AcDbLine
 10
1844.481704972408
 20
1613.547590588582
 30
0.0
 11
1640.481704972408
 21
1613.547590588581
 31
0.0
  0
DIMENSION
  5
78E9
330
1F
100
AcDbEntity
  8
実形
100
AcDbDimension
  2
*D11
 10
868.0258414479194
 20
1193.547590588581
 30
0.0
 11
848.9258414479193
 21
1448.547590588581
 31
0.0
 70
    32
 71
     5
 42
509.9999999999997
  3
ISO-25
100
AcDbAlignedDimension
 13
981.3491785885853
 23
1703.547590588581
 33
0.0
 14
981.3491785885851
 24
1193.547590588581
 34
0.0
 50
90.0
100
AcDbRotatedDimension
1001
ACAD
1000
DSTYLE
1002
{
1070
    41
1040
10.0
1070
   140
1040
25.0
1070
   147
1040
6.599999999999998
1070
   279
1070
     2
1070
   342
1005
30D
1070
   371
1070
    18
1070
   372
1070
    18
1002
}
  0
DIMENSION
  5
78F6
330
1F
100
AcDbEntity
  8
実形
100
AcDbDimension
  2
*D12
 10
868.0258414479194
 20
1178.547590588581
 30
0.0
 11
846.1235918816946
 21
1692.83943080965
 31
0.0
 70
   160
  1
15
 71
     5
 42
540.0
  3
ISO-25
100
AcDbAlignedDimension
 13
981.3491785885853
 23
1718.547590588581
 33
0.0
 14
981.3491785885853
 24
1178.547590588581
 34
0.0
 50
90.0
100
AcDbRotatedDimension
1001
ACAD
1000
DSTYLE
1002
{
1070
    41
1040
10.0
1070
   140
1040
25.0
1070
   147
1040
6.599999999999998
1070
   279
1070
     2
1070
   342
1005
30D
1070
   371
1070
    18
1070
   372
1070
    18
1002
}
  0
DIMENSION
  5
7A0D
330
1F
100
AcDbEntity
  8
実形
100
AcDbDimension
  2
*D14
 10
2422.33959389653
 20
1613.547590588582
 30
0.0
 11
2403.239593896529
 21
1658.547590588582
 31
0.0
 70
    32
 71
     5
 42
89.99999999999955
  3
ISO-25
100
AcDbAlignedDimension
 13
2293.896374304734
 23
1703.547590588581
 33
0.0
 14
2314.917521520267
 24
1613.547590588582
 34
0.0
 50
90.0
100
AcDbRotatedDimension
1001
ACAD
1000
DSTYLE
1002
{
1070
    41
1040
10.0
1070
   140
1040
25.0
1070
   147
1040
6.599999999999998
1070
   279
1070
     2
1070
   342
1005
30D
1070
   371
1070
    18
1070
   372
1070
    18
1002
}
  0
DIMENSION
  5
7A2E
330
1F
100
AcDbEntity
  8
実形
100
AcDbDimension
  2
*D15
 10
2422.33959389653
 20
1213.547590588581
 30
0.0
 11
2403.239593896529
 21
1413.547590588582
 31
0.0
 70
    32
 71
     5
 42
400.0000000000004
  3
ISO-25
100
AcDbAlignedDimension
 13
2296.993313378532
 23
1613.547590588582
 33
0.0
 14
2291.873093860388
 24
1213.547590588581
 34
0.0
 50
90.0
100
AcDbRotatedDimension
1001
ACAD
1000
DSTYLE
1002
{
1070
    41
1040
10.0
1070
   140
1040
25.0
1070
   147
1040
6.599999999999998
1070
   279
1070
     2
1070
   342
1005
30D
1070
   371
1070
    18
1070
   372
1070
    18
1002
}
  0
DIMENSION
  5
7A4D
330
1F
100
AcDbEntity
  8
実形
100
AcDbDimension
  2
*D16
 10
2478.311150391471
 20
1178.547590588581
 30
0.0
 11
2447.154944533436
 21
1745.807346304051
 31
0.0
 70
   160
  1
15
 71
     5
 42
540.0
  3
ISO-25
100
AcDbAlignedDimension
 13
2290.926791154438
 23
1718.547590588581
 33
0.0
 14
2293.316839580939
 24
1178.547590588581
 34
0.0
 50
90.0
100
AcDbRotatedDimension
1001
ACAD
1000
DSTYLE
1002
{
1070
    41
1040
10.0
1070
   140
1040
25.0
1070
   147
1040
6.599999999999998
1070
   279
1070
     2
1070
   342
1005
30D
1070
   371
1070
    18
1070
   372
1070
    18
1002
}
  0
DIMENSION
  5
7B4E
330
1F
100
AcDbEntity
  8
実形
100
AcDbDimension
  2
*D17
 10
2422.33959389653
 20
1613.547590588582
 30
0.0
 11
2404.431728074173
 21
1238.764216166148
 31
0.0
 70
   160
  1
20
 71
     5
 42
420.0000000000004
  3
ISO-25
100
AcDbAlignedDimension
 13
2291.873093860388
 23
1193.547590588581
 33
0.0
 14
2292.618629837849
 24
1613.547590588582
 34
0.0
 50
90.0
100
AcDbRotatedDimension
1001
ACAD
1000
DSTYLE
1002
{
1070
    41
1040
10.0
1070
   140
1040
25.0
1070
   147
1040
6.599999999999998
1070
   279
1070
     2
1070
   342
1005
30D
1070
   371
1070
    18
1070
   372
1070
    18
1002
}
  0
DIMENSION
  5
7BA4
330
1F
100
AcDbEntity
  8
実形
100
AcDbDimension
  2
*D18
 10
2478.311150391471
 20
1193.547590588581
 30
0.0
 11
2459.211150391471
 21
1448.547590588582
 31
0.0
 70
    32
 71
     5
 42
510.0
  3
ISO-25
100
AcDbAlignedDimension
 13
2291.899986298024
 23
1703.547590588581
 33
0.0
 14
2289.861981584558
 24
1193.547590588581
 34
0.0
 50
90.0
100
AcDbRotatedDimension
1001
ACAD
1000
DSTYLE
1002
{
1070
    41
1040
10.0
1070
   140
1040
25.0
1070
   147
1040
6.599999999999998
1070
   279
1070
     2
1070
   342
1005
30D
1070
   371
1070
    18
1070
   372
1070
    18
1002
}
  0
ARC
  5
7C3E
330
1F
100
AcDbEntity
  8
実形
100
AcDbCircle
 10
1844.481704972408
 20
1607.547590588582
 30
0.0
 40
6.0
100
AcDbArc
 50
0.000000000000007
 51
90.00000000000005
  0
LINE
  5
7C40
330
1F
100
AcDbEntity
  8
実形
  6
ACAD_ISO08W100
 48
0.5
100
AcDbLine
 10
1464.481704972408
 20
1345.110031643769
 30
0.0
 11
1464.481704972408
 21
1623.53859016686
 31
0.0
  0
ARC
  5
8A83
330
1F
100
AcDbEntity
  8
実形
100
AcDbCircle
 10
1096.481704972408
 20
1677.547590588581
 30
0.0
 40
6.0
100
AcDbArc
 50
90.00000000000005
 51
180.0
  0
LINE
  5
8A84
330
1F
100
AcDbEntity
  8
実形
100
AcDbLine
 10
1634.481704972408
 20
1219.547590588581
 30
0.0
 11
1634.481704972408
 21
1607.547590588581
 31
0.0
  0
LINE
  5
8A86
330
1F
100
AcDbEntity
  8
実形
100
AcDbLine
 10
1614.481704972408
 20
1677.547590588582
 30
0.0
 11
1614.481704972408
 21
1219.547590588581
 31
0.0
  0
LINE
  5
8C49
330
1F
100
AcDbEntity
  8
実形
100
AcDbLine
 10
1096.481704972408
 20
1213.547590588581
 30
0.0
 11
1608.481704972408
 21
1213.547590588581
 31
0.0
  0
LINE
  5
8C4A
330
1F
100
AcDbEntity
  8
実形
100
AcDbLine
 10
1640.481704972408
 20
1213.547590588581
 30
0.0
 11
1844.481704972408
 21
1213.547590588581
 31
0.0
  0
DIMENSION
  5
8C4D
330
1F
100
AcDbEntity
  8
実形
100
AcDbDimension
  2
*D49
 10
1614.481704972407
 20
1625.464142184848
 30
0.0
 11
1539.481704972408
 21
1644.564142184848
 31
0.0
 70
    32
 71
     5
 42
149.9999999999998
  3
ISO-25
100
AcDbAlignedDimension
 13
1464.481704972408
 23
1539.047590588581
 33
0.0
 14
1614.481704972407
 24
1539.047590588581
 34
0.0
 50
180.0
100
AcDbRotatedDimension
1001
ACAD
1000
DSTYLE
1002
{
1070
    41
1040
10.0
1070
   140
1040
25.0
1070
   147
1040
6.599999999999998
1070
   279
1070
     2
1070
   342
1005
30D
1070
   371
1070
    18
1070
   372
1070
    18
1002
}
  0
DIMENSION
  5
8C70
330
1F
100
AcDbEntity
  8
実形
100
AcDbDimension
  2
*D50
 10
1302.405135663686
 20
1213.547590588581
 30
0.0
 11
1283.305135663686
 21
1331.047590588581
 31
0.0
 70
    32
 71
     5
 42
235.0000000000002
  3
ISO-25
100
AcDbAlignedDimension
 13
1415.797255878531
 23
1448.547590588581
 33
0.0
 14
1415.797255878531
 24
1213.547590588581
 34
0.0
 50
90.0
100
AcDbRotatedDimension
1001
ACAD
1000
DSTYLE
1002
{
1070
    41
1040
10.0
1070
   140
1040
25.0
1070
   147
1040
6.599999999999998
1070
   279
1070
     2
1070
   342
1005
30D
1070
   371
1070
    18
1070
   372
1070
    18
1002
}
  0
DIMENSION
  5
8E06
330
1F
100
AcDbEntity
  8
実形
100
AcDbDimension
  2
*D51
 10
1055.481704972408
 20
986.8016468789756
 30
0.0
 11
1470.481704972408
 21
986.8016468789756
 31
0.0
 70
    32
  1
 
 71
     5
 42
830.0
  3
ISO-25
100
AcDbAlignedDimension
 13
1885.481704972408
 23
1178.547590588581
 33
0.0
 14
1055.481704972408
 24
1178.547590588581
 34
0.0
 50
180.0
100
AcDbRotatedDimension
1001
ACAD
1000
DSTYLE
1002
{
1070
    41
1040
10.0
1070
   140
1040
25.0
1070
   147
1040
6.599999999999998
1070
   279
1070
     2
1070
   342
1005
30D
1070
   371
1070
    18
1070
   372
1070
    18
1002
}
  0
DIMENSION
  5
8E13
330
1F
100
AcDbEntity
  8
実形
100
AcDbDimension
  2
*D52
 10
1070.481704972408
 20
1047.891333620135
 30
0.0
 11
1015.767479774875
 21
1018.736709673649
 31
0.0
 70
   160
  1
15
 71
     5
 42
779.9999999999998
  3
ISO-25
100
AcDbAlignedDimension
 13
1850.481704972408
 23
1178.547590588581
 33
0.0
 14
1070.481704972408
 24
1178.547590588581
 34
0.0
 50
180.0
100
AcDbRotatedDimension
1001
ACAD
1000
DSTYLE
1002
{
1070
    41
1040
10.0
1070
   140
1040
25.0
1070
   147
1040
6.599999999999998
1070
   279
1070
     2
1070
   342
1005
30D
1070
   371
1070
    18
1070
   372
1070
    18
1002
}
  0
DIMENSION
  5
8E29
330
1F
100
AcDbEntity
  8
実形
100
AcDbDimension
  2
*D53
 10
1634.481704972408
 20
1047.891333620135
 30
0.0
 11
1742.481704972408
 21
1066.991333620135
 31
0.0
 70
    32
 71
     5
 42
215.9999999999998
  3
ISO-25
100
AcDbAlignedDimension
 13
1850.481704972408
 23
1178.547590588581
 33
0.0
 14
1634.481704972408
 24
1178.547590588581
 34
0.0
 50
180.0
100
AcDbRotatedDimension
1001
ACAD
1000
DSTYLE
1002
{
1070
    41
1040
10.0
1070
   140
1040
25.0
1070
   147
1040
6.599999999999998
1070
   279
1070
     2
1070
   342
1005
30D
1070
   371
1070
    18
1070
   372
1070
    18
1002
}
  0
DIMENSION
  5
8E3F
330
1F
100
AcDbEntity
  8
実形
100
AcDbDimension
  2
*D54
 10
1614.481704972408
 20
1047.891333620135
 30
0.0
 11
1918.791712293843
 21
1013.866142094053
 31
0.0
 70
   160
  1
15
 71
     5
 42
256.0
  3
ISO-25
100
AcDbAlignedDimension
 13
1870.481704972408
 23
1178.547590588581
 33
0.0
 14
1614.481704972408
 24
1178.547590588581
 34
0.0
 50
180.0
100
AcDbRotatedDimension
1001
ACAD
1000
DSTYLE
1002
{
1070
    41
1040
10.0
1070
   140
1040
25.0
1070
   147
1040
6.599999999999998
1070
   279
1070
     2
1070
   342
1005
30D
1070
   371
1070
    18
1070
   372
1070
    18
1002
}
  0
DIMENSION
  5
8E81
330
1F
100
AcDbEntity
  8
実形
100
AcDbDimension
  2
*D55
 10
1090.481704972408
 20
1047.891333620135
 30
0.0
 11
1352.481704972408
 21
1066.991333620135
 31
0.0
 70
    32
 71
     5
 42
524.0
  3
ISO-25
100
AcDbAlignedDimension
 13
1614.481704972408
 23
1178.547590588581
 33
0.0
 14
1090.481704972408
 24
1178.547590588581
 34
0.0
 50
180.0
100
AcDbRotatedDimension
1001
ACAD
1000
DSTYLE
1002
{
1070
    41
1040
10.0
1070
   140
1040
25.0
1070
   147
1040
6.599999999999998
1070
   279
1070
     2
1070
   342
1005
30D
1070
   371
1070
    18
1070
   372
1070
    18
1002
}
  0
DIMENSION
  5
8EC8
330
1F
100
AcDbEntity
  8
実形
100
AcDbDimension
  2
*D57
 10
1070.481704972408
 20
986.8016468789756
 30
0.0
 11
1470.481704972408
 21
1005.901646878975
 31
0.0
 70
    32
 71
     5
 42
799.9999999999998
  3
ISO-25
100
AcDbAlignedDimension
 13
1870.481704972408
 23
1113.547590588581
 33
0.0
 14
1070.481704972408
 24
1113.547590588581
 34
0.0
 50
180.0
100
AcDbRotatedDimension
1001
ACAD
1000
DSTYLE
1002
{
1070
    41
1040
10.0
1070
   140
1040
25.0
1070
   147
1040
6.599999999999998
1070
   279
1070
     2
1070
   342
1005
30D
1070
   371
1070
    18
1070
   372
1070
    18
1002
}
  0
DIMENSION
  5
8EE7
330
1F
100
AcDbEntity
  8
実形
100
AcDbDimension
  2
*D58
 10
1055.481704972408
 20
924.7482854621702
 30
0.0
 11
1470.481704972408
 21
943.8482854621703
 31
0.0
 70
    32
 71
     5
 42
830.0
  3
ISO-25
100
AcDbAlignedDimension
 13
1885.481704972408
 23
1113.547590588581
 33
0.0
 14
1055.481704972408
 24
1113.547590588581
 34
0.0
 50
180.0
100
AcDbRotatedDimension
1001
ACAD
1000
DSTYLE
1002
{
1070
    41
1040
10.0
1070
   140
1040
25.0
1070
   147
1040
6.599999999999998
1070
   279
1070
     2
1070
   342
1005
30D
1070
   371
1070
    18
1070
   372
1070
    18
1002
}
  0
DIMENSION
  5
90B3
330
1F
100
AcDbEntity
  8
実形
100
AcDbDimension
  2
*D59
 10
922.9426947367164
 20
1213.547590588581
 30
0.0
 11
903.8426947367163
 21
1448.547590588581
 31
0.0
 70
    32
 71
     5
 42
469.9999999999993
  3
ISO-25
100
AcDbAlignedDimension
 13
1037.955187856792
 23
1683.547590588581
 33
0.0
 14
1037.955187856792
 24
1213.547590588581
 34
0.0
 50
90.0
100
AcDbRotatedDimension
1001
ACAD
1000
DSTYLE
1002
{
1070
    41
1040
10.0
1070
   140
1040
25.0
1070
   147
1040
6.599999999999998
1070
   279
1070
     2
1070
   342
1005
30D
1070
   371
1070
    18
1070
   372
1070
    18
1002
}
  0
DIMENSION
  5
90C0
330
1F
100
AcDbEntity
  8
実形
100
AcDbDimension
  2
*D60
 10
922.9426947367164
 20
1193.547590588581
 30
0.0
 11
899.9720763138194
 21
1676.339721068899
 31
0.0
 70
   160
  1
20
 71
     5
 42
509.9999999999995
  3
ISO-25
100
AcDbAlignedDimension
 13
1037.955187856792
 23
1703.547590588581
 33
0.0
 14
1037.955187856792
 24
1193.547590588581
 34
0.0
 50
90.0
100
AcDbRotatedDimension
1001
ACAD
1000
DSTYLE
1002
{
1070
    41
1040
10.0
1070
   140
1040
25.0
1070
   147
1040
6.599999999999998
1070
   279
1070
     2
1070
   342
1005
30D
1070
   371
1070
    18
1070
   372
1070
    18
1002
}
  0
ARC
  5
9714
330
1F
100
AcDbEntity
  8
実形
100
AcDbCircle
 10
1640.481704972408
 20
1219.547590588581
 30
0.0
 40
6.0
100
AcDbArc
 50
179.9999999999999
 51
270.0
  0
ARC
  5
9715
330
1F
100
AcDbEntity
  8
実形
100
AcDbCircle
 10
1640.481704972408
 20
1607.547590588581
 30
0.0
 40
6.0
100
AcDbArc
 50
90.00000000000012
 51
179.9999999999999
  0
ARC
  5
9716
330
1F
100
AcDbEntity
  8
実形
100
AcDbCircle
 10
1608.481704972408
 20
1219.547590588581
 30
0.0
 40
6.0
100
AcDbArc
 50
270.0
 51
0.000000000000007
  0
ARC
  5
9717
330
1F
100
AcDbEntity
  8
実形
100
AcDbCircle
 10
1608.481704972408
 20
1677.547590588582
 30
0.0
 40
6.0
100
AcDbArc
 50
0.000000000000007
 51
90.00000000000005
  0
TEXT
  5
9A9C
330
1F
100
AcDbEntity
  8
実形
100
AcDbText
 10
1169.488074175635
 20
1597.261698085302
 30
0.0
 40
25.0
  1
6R
 72
     2
 11
1211.154740842302
 21
1593.928364751968
 31
0.0
100
AcDbText
 73
     1
  0
TEXT
  5
9A9D
330
1F
100
AcDbEntity
  8
実形
100
AcDbText
 10
1168.301944099166
 20
1231.264101145338
 30
0.0
 40
25.0
  1
6R
 72
     2
 11
1209.968610765833
 21
1227.930767812005
 31
0.0
100
AcDbText
 73
     1
  0
TEXT
  5
9C1E
330
1F
100
AcDbEntity
  8
実形
 48
20.0
100
AcDbText
 10
1065.976849721632
 20
1122.241551542447
 30
0.0
 40
25.0
  1
20
100
AcDbText
  0
TEXT
  5
9C26
330
1F
100
AcDbEntity
  8
実形
 48
20.0
100
AcDbText
 10
1607.768172500498
 20
1124.406146975509
 30
0.0
 40
25.0
  1
20
100
AcDbText
  0
TEXT
  5
9C2E
330
1F
100
AcDbEntity
  8
実形
 48
20.0
100
AcDbText
 10
1827.631146280935
 20
1124.406146975509
 30
0.0
 40
25.0
  1
20
100
AcDbText
  0
TEXT
  5
9C51
330
1F
100
AcDbEntity
  8
実形
 48
20.0
100
AcDbText
 10
912.7893830679404
 20
1201.898624790102
 30
0.0
 40
25.0
  1
20
 50
90.0
100
AcDbText
  0
TEXT
  5
9C62
330
1F
100
AcDbEntity
  8
実形
 48
20.0
100
AcDbText
 10
856.687113466638
 20
1185.919038103699
 30
0.0
 40
25.0
  1
15
 50
90.0
100
AcDbText
  0
TEXT
  5
9FFB
330
1F
100
AcDbEntity
  8
実形
 48
20.0
100
AcDbText
 10
2462.853513666228
 20
1135.5107336203
 30
0.0
 40
25.0
  1
15
 50
90.0
100
AcDbText
  0
LINE
  5
AA35
330
1F
100
AcDbEntity
  8
実形
  6
ACAD_ISO08W100
 48
0.5
100
AcDbLine
 10
1742.481704972409
 20
1443.974410018073
 30
0.0
 11
1742.481704972409
 21
1601.93511273246
 31
0.0
  0
LINE
  5
AA36
330
1F
100
AcDbEntity
  8
実形
  6
ACAD_ISO08W100
 48
0.5
100
AcDbLine
 10
1671.999097828665
 20
1523.547590588581
 30
0.0
 11
1814.450474298055
 21
1523.547590588581
 31
0.0
  0
DIMENSION
  5
AA37
330
1F
100
AcDbEntity
  8
実形
100
AcDbDimension
  2
*D61
 10
1634.481704972409
 20
1400.878239022008
 30
0.0
 11
1689.934117617795
 21
1421.936882086931
 31
0.0
 70
   160
 71
     5
 42
108.0
  3
ISO-25
100
AcDbAlignedDimension
 13
1742.481704972409
 23
1497.750033250692
 33
0.0
 14
1634.481704972409
 24
1527.145337162553
 34
0.0
100
AcDbRotatedDimension
1001
ACAD
1000
DSTYLE
1002
{
1070
    41
1040
10.0
1070
   140
1040
25.0
1070
   147
1040
6.599999999999998
1070
   279
1070
     2
1070
   342
1005
30D
1070
   371
1070
    18
1070
   372
1070
    18
1002
}
  0
CIRCLE
  5
AA38
330
1F
100
AcDbEntity
  8
実形
100
AcDbCircle
 10
1742.481704972409
 20
1523.547590588581
 30
0.0
 40
47.0
  0
CIRCLE
  5
AA39
330
1F
100
AcDbEntity
  8
実形
100
AcDbCircle
 10
1742.481704972409
 20
1523.547590588581
 30
0.0
 40
57.5
  0
TEXT
  5
AA3A
330
1F
100
AcDbEntity
  8
実形
100
AcDbText
 10
1743.199374250952
 20
1269.645147763567
 30
0.0
 40
25.0
  1
6R
 72
     2
 11
1784.866040917619
 21
1266.311814430233
 31
0.0
100
AcDbText
 73
     1
  0
LEADER
  5
AA3B
330
1F
100
AcDbEntity
  8
実形
100
AcDbLeader
  3
ISO-25
 76
     2
 10
1836.865144728322
 20
1220.373826067541
 30
0.0
 10
1789.654427626797
 20
1268.550457018004
 30
0.0
1001
ACAD
1000
DSTYLE
1002
{
1070
    77
1070
     0
1070
    41
1040
10.0
1070
   140
1040
30.0
1070
   147
1040
6.599999999999998
1070
   279
1070
     2
1070
   342
1005
30D
1070
   371
1070
    18
1070
   372
1070
    18
1002
}
  0
DIMENSION
  5
AA3C
330
1F
100
AcDbEntity
  8
実形
100
AcDbDimension
  2
*D62
 10
1676.76285652282
 20
1613.547590588581
 30
0.0
 11
1657.662856522819
 21
1568.547590588581
 31
0.0
 70
    32
 71
     5
 42
90.0
  3
ISO-25
100
AcDbAlignedDimension
 13
1742.481704972409
 23
1523.547590588581
 33
0.0
 14
1742.481704972409
 24
1613.547590588581
 34
0.0
 50
90.0
100
AcDbRotatedDimension
1001
ACAD
1000
DSTYLE
1002
{
1070
    41
1040
10.0
1070
   140
1040
25.0
1070
   147
1040
6.599999999999998
1070
   279
1070
     2
1070
   342
1005
30D
1070
   371
1070
    18
1070
   372
1070
    18
1002
}
  0
LINE
  5
ABF7
330
1F
100
AcDbEntity
  8
実形
100
AcDbLine
 10
717.0475102793353
 20
1193.547590588581
 30
0.0
 11
702.0475102793352
 21
1193.547590588581
 31
0.0
  0
LINE
  5
ABF8
330
1F
100
AcDbEntity
  8
実形
100
AcDbLine
 10
702.0475102793352
 20
1213.54759058858
 30
0.0
 11
533.0475102793356
 21
1213.54759058858
 31
0.0
  0
LINE
  5
ABF9
330
1F
100
AcDbEntity
  8
実形
100
AcDbLine
 10
717.0475102793353
 20
1718.547590588581
 30
0.0
 11
717.0475102793353
 21
1178.547590588581
 31
0.0
  0
LINE
  5
ABFA
330
1F
100
AcDbEntity
  8
実形
100
AcDbLine
 10
702.0475102793352
 20
1703.547590588581
 30
0.0
 11
702.0475102793352
 21
1193.547590588581
 31
0.0
  0
LINE
  5
ABFB
330
1F
100
AcDbEntity
  8
実形
100
AcDbLine
 10
512.0475102793347
 20
1539.047590588581
 30
0.0
 11
512.0475102793352
 21
1358.047590588581
 31
0.0
  0
LINE
  5
ABFC
330
1F
100
AcDbEntity
  8
実形
100
AcDbLine
 10
502.0475102793352
 20
1539.047590588581
 30
0.0
 11
502.0475102793352
 21
1358.047590588581
 31
0.0
  0
LINE
  5
ABFD
330
1F
100
AcDbEntity
  8
実形
100
AcDbLine
 10
502.0475102793352
 20
1358.047590588581
 30
0.0
 11
502.0475102793352
 21
1539.047590588581
 31
0.0
  0
LINE
  5
ABFE
330
1F
100
AcDbEntity
  8
実形
100
AcDbLine
 10
512.0475102793352
 20
1539.047590588581
 30
0.0
 11
502.0475102793352
 21
1539.047590588581
 31
0.0
  0
DIMENSION
  5
ABFF
330
1F
100
AcDbEntity
  8
実形
100
AcDbDimension
  2
*D63
 10
385.1309117434776
 20
1528.547590588581
 30
0.0
 11
366.0309117434773
 21
1448.547590588581
 31
0.0
 70
    32
 71
     5
 42
160.0
  3
ISO-25
100
AcDbAlignedDimension
 13
502.0475102793352
 23
1368.547590588581
 33
0.0
 14
502.0475102793352
 24
1528.547590588581
 34
0.0
 50
90.0
100
AcDbRotatedDimension
1001
ACAD
1000
DSTYLE
1002
{
1070
    41
1040
10.0
1070
   140
1040
25.0
1070
   147
1040
6.599999999999998
1070
   279
1070
     2
1070
   342
1005
30D
1070
   371
1070
    18
1070
   372
1070
    18
1002
}
  0
DIMENSION
  5
AC00
330
1F
100
AcDbEntity
  8
実形
100
AcDbDimension
  2
*D64
 10
313.8886149282007
 20
1539.04759058858
 30
0.0
 11
294.7886149282004
 21
1448.547590588581
 31
0.0
 70
    32
 71
     5
 42
180.9999999999995
  3
ISO-25
100
AcDbAlignedDimension
 13
502.0475102793352
 23
1358.047590588581
 33
0.0
 14
502.0475102793307
 24
1539.04759058858
 34
0.0
 50
90.0
100
AcDbRotatedDimension
1001
ACAD
1000
DSTYLE
1002
{
1070
    41
1040
10.0
1070
   140
1040
25.0
1070
   147
1040
6.599999999999998
1070
   279
1070
     2
1070
   342
1005
30D
1070
   371
1070
    18
1070
   372
1070
    18
1002
}
  0
LINE
  5
AC01
330
1F
100
AcDbEntity
  8
実形
  6
ACAD_ISO08W100
 48
0.5
100
AcDbLine
 10
596.6029026984578
 20
1448.547590588581
 30
0.0
 11
447.0354700651987
 21
1448.547590588581
 31
0.0
  0
LEADER
  5
AC02
330
1F
100
AcDbEntity
  8
実形
100
AcDbLeader
  3
ISO-25
 76
     2
 10
538.1052852232769
 20
1222.640733148567
 30
0.0
 10
575.7693093403759
 20
1257.162795325235
 30
0.0
211
-1.0
221
0.0
231
0.0
1001
ACAD
1000
DSTYLE
1002
{
1070
    77
1070
     0
1070
    41
1040
10.0
1070
   140
1040
30.0
1070
   147
1040
6.599999999999998
1070
   279
1070
     2
1070
   342
1005
30D
1070
   371
1070
    18
1070
   372
1070
    18
1002
}
  0
LINE
  5
AC03
330
1F
100
AcDbEntity
  8
実形
100
AcDbLine
 10
717.0475102793353
 20
1718.547590588581
 30
0.0
 11
717.0475102793353
 21
1178.547590588581
 31
0.0
  0
LINE
  5
AC04
330
1F
100
AcDbEntity
  8
実形
  6
ACAD_ISO08W100
100
AcDbLine
 10
527.0475102793343
 20
1677.547590588582
 30
0.0
 11
527.0475102793357
 21
1219.54759058858
 31
0.0
  0
ARC
  5
AC05
330
1F
100
AcDbEntity
  8
実形
100
AcDbCircle
 10
533.0475102793356
 20
1219.54759058858
 30
0.0
 40
6.0
100
AcDbArc
 50
180.0
 51
270.0
  0
LINE
  5
AC06
330
1F
100
AcDbEntity
  8
実形
100
AcDbLine
 10
532.281626559813
 20
1213.54759058858
 30
0.0
 11
520.8987730896651
 21
1213.54759058858
 31
0.0
  0
LINE
  5
AC07
330
1F
100
AcDbEntity
  8
実形
100
AcDbLine
 10
512.0475102793347
 20
1358.047590588581
 30
0.0
 11
514.9006629196273
 21
1219.397010416947
 31
0.0
  0
ARC
  5
AC08
330
1F
100
AcDbEntity
  8
実形
100
AcDbCircle
 10
520.8987730896651
 20
1219.54759058858
 30
0.0
 40
6.0
100
AcDbArc
 50
181.4380857074062
 51
270.0
  0
LINE
  5
AC09
330
1F
100
AcDbEntity
  8
実形
100
AcDbLine
 10
512.0475102793352
 20
1358.047590588581
 30
0.0
 11
502.0475102793357
 21
1358.04759058858
 31
0.0
  0
LINE
  5
AC0A
330
1F
100
AcDbEntity
  8
実形
100
AcDbLine
 10
702.0475102793343
 20
1683.547590588583
 30
0.0
 11
533.0475102793343
 21
1683.547590588582
 31
0.0
  0
ARC
  5
AC0B
330
1F
100
AcDbEntity
  8
実形
100
AcDbCircle
 10
533.0475102793343
 20
1677.547590588582
 30
0.0
 40
6.0
100
AcDbArc
 50
90.0
 51
180.0
  0
LINE
  5
AC0C
330
1F
100
AcDbEntity
  8
実形
100
AcDbLine
 10
512.0475102793343
 20
1539.047590588581
 30
0.0
 11
514.9006629196264
 21
1677.698170760215
 31
0.0
  0
ARC
  5
AC0D
330
1F
100
AcDbEntity
  8
実形
100
AcDbCircle
 10
520.8987730896642
 20
1677.547590588582
 30
0.0
 40
6.0
100
AcDbArc
 50
90.0
 51
178.5619142925938
  0
LINE
  5
AC0E
330
1F
100
AcDbEntity
  8
実形
100
AcDbLine
 10
533.0475102793343
 20
1683.547590588582
 30
0.0
 11
520.8987730896642
 21
1683.547590588582
 31
0.0
  0
DIMENSION
  5
AC0F
330
1F
100
AcDbEntity
  8
実形
100
AcDbDimension
  2
*D65
 10
527.0475102793361
 20
1072.452372464183
 30
0.0
 11
755.6121170050028
 21
1094.052372464182
 31
0.0
 70
   160
  1
15
 71
     5
 42
189.9999999999991
  3
ISO-25
100
AcDbAlignedDimension
 13
717.0475102793353
 23
1192.275290622338
 33
0.0
 14
527.0475102793361
 24
1169.181921231253
 34
0.0
 50
180.0
100
AcDbRotatedDimension
1001
ACAD
1000
DSTYLE
1002
{
1070
    41
1040
10.0
1070
   140
1040
25.0
1070
   147
1040
6.599999999999998
1070
   279
1070
     2
1070
   342
1005
30D
1070
   371
1070
    18
1070
   372
1070
    18
1002
}
  0
DIMENSION
  5
AC10
330
1F
100
AcDbEntity
  8
実形
100
AcDbDimension
  2
*D66
 10
527.0475102793361
 20
1072.452372464183
 30
0.0
 11
618.0108238017019
 21
1094.137749975076
 31
0.0
 70
   160
 71
     5
 42
174.9999999999995
  3
ISO-25
100
AcDbAlignedDimension
 13
702.0475102793357
 23
1193.952859379639
 33
0.0
 14
527.0475102793361
 24
1193.114079728639
 34
0.0
 50
180.0
100
AcDbRotatedDimension
1001
ACAD
1000
DSTYLE
1002
{
1070
    41
1040
10.0
1070
   140
1040
25.0
1070
   147
1040
6.599999999999998
1070
   279
1070
     2
1070
   342
1005
30D
1070
   371
1070
    18
1070
   372
1070
    18
1002
}
  0
DIMENSION
  5
AC11
330
1F
100
AcDbEntity
  8
実形
100
AcDbDimension
  2
*D67
 10
527.0475102793357
 20
1020.441883224852
 30
0.0
 11
617.1718279786837
 21
1042.041883224852
 31
0.0
 70
   160
 71
     5
 42
189.9999999999995
  3
ISO-25
100
AcDbAlignedDimension
 13
717.0475102793353
 23
1130.257337209116
 33
0.0
 14
527.0475102793357
 24
1130.257337209116
 34
0.0
 50
180.0
100
AcDbRotatedDimension
1001
ACAD
1000
DSTYLE
1002
{
1070
    41
1040
10.0
1070
   140
1040
25.0
1070
   147
1040
6.599999999999998
1070
   279
1070
     2
1070
   342
1005
30D
1070
   371
1070
    18
1070
   372
1070
    18
1002
}
  0
DIMENSION
  5
AC12
330
1F
100
AcDbEntity
  8
実形
100
AcDbDimension
  2
*D68
 10
512.0475102793356
 20
1020.441883224852
 30
0.0
 11
477.0595593674843
 21
1042.041883224852
 31
0.0
 70
   160
  1
15
 71
     5
 42
204.9999999999995
  3
ISO-25
100
AcDbAlignedDimension
 13
717.0475102793353
 23
1130.257337209116
 33
0.0
 14
512.0475102793356
 24
1192.858682623992
 34
0.0
 50
180.0
100
AcDbRotatedDimension
1001
ACAD
1000
DSTYLE
1002
{
1070
    41
1040
10.0
1070
   140
1040
25.0
1070
   147
1040
6.599999999999998
1070
   279
1070
     2
1070
   342
1005
30D
1070
   371
1070
    18
1070
   372
1070
    18
1002
}
  0
DIMENSION
  5
AC13
330
1F
100
AcDbEntity
  8
実形
100
AcDbDimension
  2
*D69
 10
512.0475102793356
 20
967.1715996599672
 30
0.0
 11
614.2866424488768
 21
986.2715996599673
 31
0.0
 70
    32
  1
205
 71
     5
 42
204.4782643390822
  3
ISO-25
100
AcDbAlignedDimension
 13
716.5257746184179
 23
1098.310444763649
 33
0.0
 14
512.0475102793356
 24
1098.310444763649
 34
0.0
 50
180.0
100
AcDbRotatedDimension
1001
ACAD
1000
DSTYLE
1002
{
1070
    41
1040
10.0
1070
   140
1040
25.0
1070
   147
1040
6.599999999999998
1070
   279
1070
     2
1070
   342
1005
30D
1070
   371
1070
    18
1070
   372
1070
    18
1002
}
  0
DIMENSION
  5
AC14
330
1F
100
AcDbEntity
  8
実形
100
AcDbDimension
  2
*D70
 10
502.0475102793352
 20
967.1715996599672
 30
0.0
 11
478.2521857864194
 21
988.7715996599672
 31
0.0
 70
   160
  1
8
 71
     5
 42
215.0
  3
ISO-25
100
AcDbAlignedDimension
 13
717.0475102793353
 23
1163.310444763649
 33
0.0
 14
502.0475102793352
 24
1081.080513927556
 34
0.0
 50
180.0
100
AcDbRotatedDimension
1001
ACAD
1000
DSTYLE
1002
{
1070
    41
1040
10.0
1070
   140
1040
25.0
1070
   147
1040
6.599999999999998
1070
   279
1070
     2
1070
   342
1005
30D
1070
   371
1070
    18
1070
   372
1070
    18
1002
}
  0
DIMENSION
  5
AC15
330
1F
100
AcDbEntity
  8
実形
100
AcDbDimension
  2
*D71
 10
502.0475102793352
 20
912.4655882625397
 30
0.0
 11
614.6548405096364
 21
934.0655882625398
 31
0.0
 70
   160
  1
213
 71
     5
 42
215.0
  3
ISO-25
100
AcDbAlignedDimension
 13
717.0475102793353
 23
1098.310444763649
 33
0.0
 14
502.0475102793352
 24
1034.243031510845
 34
0.0
 50
180.0
100
AcDbRotatedDimension
1001
ACAD
1000
DSTYLE
1002
{
1070
    41
1040
10.0
1070
   140
1040
25.0
1070
   147
1040
6.599999999999998
1070
   279
1070
     2
1070
   342
1005
30D
1070
   371
1070
    18
1070
   372
1070
    18
1002
}
  0
TEXT
  5
AC16
330
1F
100
AcDbEntity
  8
実形
100
AcDbText
 10
586.0795201482106
 20
1262.013423365537
 30
0.0
 40
25.0
  1
6R
 72
     2
 11
627.7461868148772
 21
1258.680090032204
 31
0.0
100
AcDbText
 73
     1
  0
LINE
  5
ADE5
330
1F
100
AcDbEntity
  8
実形
100
AcDbLine
 10
702.0475102793352
 20
1703.547590588581
 30
0.0
 11
717.0475102793353
 21
1703.547590588581
 31
0.0
  0
LINE
  5
AE83
330
1F
100
AcDbEntity
  8
実形
100
AcDbLine
 10
1964.492799908219
 20
1703.547590588581
 30
0.0
 11
1979.492799908219
 21
1703.547590588581
 31
0.0
  0
LINE
  5
AE84
330
1F
100
AcDbEntity
  8
実形
100
AcDbLine
 10
1979.492799908219
 20
1213.547590588581
 30
0.0
 11
2153.782481889903
 21
1213.547590588581
 31
0.0
  0
ARC
  5
AE85
330
1F
100
AcDbEntity
  8
実形
100
AcDbCircle
 10
2153.782481889903
 20
1219.547590588581
 30
0.0
 40
6.0
100
AcDbArc
 50
270.0
 51
357.1658889836947
  0
LINE
  5
AE86
330
1F
100
AcDbEntity
  8
実形
100
AcDbLine
 10
1964.492799908219
 20
1718.547590588581
 30
0.0
 11
1964.492799908219
 21
1228.547590588581
 31
0.0
  0
LINE
  5
AE87
330
1F
100
AcDbEntity
  8
実形
100
AcDbLine
 10
1979.492799908219
 20
1703.547590588581
 30
0.0
 11
1979.492799908219
 21
1193.547590588581
 31
0.0
  0
LEADER
  5
AE88
330
1F
100
AcDbEntity
  8
実形
100
AcDbLeader
  3
ISO-25
 76
     2
 10
2148.361931658113
 20
1224.926484201073
 30
0.0
 10
2106.440221387207
 20
1263.112111990374
 30
0.0
1001
ACAD
1000
DSTYLE
1002
{
1070
    77
1070
     0
1070
    41
1040
10.0
1070
   140
1040
30.0
1070
   147
1040
6.599999999999998
1070
   279
1070
     2
1070
   342
1005
30D
1070
   371
1070
    18
1070
   372
1070
    18
1002
}
  0
LINE
  5
AE89
330
1F
100
AcDbEntity
  8
実形
100
AcDbLine
 10
1964.492799908219
 20
1718.547590588581
 30
0.0
 11
1964.492799908219
 21
1178.547590588581
 31
0.0
  0
LINE
  5
AE8A
330
1F
100
AcDbEntity
  8
実形
100
AcDbLine
 10
2169.492799908219
 20
1581.547590588581
 30
0.0
 11
2169.492799908219
 21
1465.547590588581
 31
0.0
  0
LINE
  5
AE8B
330
1F
100
AcDbEntity
  8
実形
100
AcDbLine
 10
2179.49279990822
 20
1581.047590588581
 30
0.0
 11
2179.492799908219
 21
1466.047590588581
 31
0.0
  0
LINE
  5
AE8C
330
1F
100
AcDbEntity
  8
実形
100
AcDbLine
 10
1979.492799908219
 20
1613.547590588582
 30
0.0
 11
2161.028990403224
 21
1613.547590588581
 31
0.0
  0
ARC
  5
AE8D
330
1F
100
AcDbEntity
  8
実形
100
AcDbCircle
 10
2161.028990403224
 20
1607.547590588582
 30
0.0
 40
6.0
100
AcDbArc
 50
5.355825042848704
 51
90.0
  0
DIMENSION
  5
AE90
330
1F
100
AcDbEntity
  8
実形
100
AcDbDimension
  2
*D72
 10
2255.698866437206
 20
1476.547590588581
 30
0.0
 11
2234.098866437205
 21
1523.547590588582
 31
0.0
 70
    32
 71
     5
 42
94.0
  3
ISO-25
100
AcDbAlignedDimension
 13
2147.698866437206
 23
1570.547590588581
 33
0.0
 14
2147.698866437206
 24
1476.547590588581
 34
0.0
 50
90.0
100
AcDbRotatedDimension
1001
ACAD
1000
DSTYLE
1002
{
1070
    41
1040
10.0
1070
   140
1040
30.0
1070
   147
1040
6.599999999999998
1070
   279
1070
     2
1070
   342
1005
30D
1070
   371
1070
    18
1070
   372
1070
    18
1002
}
  0
DIMENSION
  5
AE91
330
1F
100
AcDbEntity
  8
実形
100
AcDbDimension
  2
*D73
 10
2306.405937355386
 20
1466.047590588582
 30
0.0
 11
2284.805937355386
 21
1523.547590588582
 31
0.0
 70
    32
 71
     5
 42
114.9999999999995
  3
ISO-25
100
AcDbAlignedDimension
 13
2147.162565793728
 23
1581.047590588581
 33
0.0
 14
2148.701150483534
 24
1466.047590588582
 34
0.0
 50
90.0
100
AcDbRotatedDimension
1001
ACAD
1000
DSTYLE
1002
{
1070
    41
1040
10.0
1070
   140
1040
30.0
1070
   147
1040
6.599999999999998
1070
   279
1070
     2
1070
   342
1005
30D
1070
   371
1070
    18
1070
   372
1070
    18
1002
}
  0
LINE
  5
AE92
330
1F
100
AcDbEntity
  8
実形
100
AcDbLine
 10
2159.775143155779
 20
1219.25092418928
 30
0.0
 11
2169.492799908219
 21
1465.547590588581
 31
0.0
  0
LINE
  5
AE93
330
1F
100
AcDbEntity
  8
実形
100
AcDbLine
 10
2169.492799908219
 20
1581.547590588581
 30
0.0
 11
2167.00279575958
 21
1608.10763484074
 31
0.0
  0
LINE
  5
AE94
330
1F
100
AcDbEntity
  8
実形
  6
ACAD_ISO08W100
 48
0.5
100
AcDbLine
 10
2085.465898741857
 20
1523.547590588582
 30
0.0
 11
2209.920894456272
 21
1523.547590588581
 31
0.0
  0
TEXT
  5
AE95
330
1F
100
AcDbEntity
  8
実形
100
AcDbText
 10
2060.951976526942
 20
1265.31959776399
 30
0.0
 40
25.0
  1
6R
 72
     2
 11
2102.618643193608
 21
1261.986264430656
 31
0.0
100
AcDbText
 73
     1
  0
DIMENSION
  5
B021
330
1F
100
AcDbEntity
  8
実形
100
AcDbDimension
  2
*D74
 10
1979.694134241192
 20
1089.489621137806
 30
0.0
 11
2076.642704955575
 21
1110.475006752988
 31
0.0
 70
   160
  1
180
 71
     5
 42
180.2823432475591
  3
ISO-25
100
AcDbAlignedDimension
 13
2159.976477488751
 23
1211.664926213184
 33
0.0
 14
1979.694134241192
 24
1212.690712784909
 34
0.0
 50
180.0
100
AcDbRotatedDimension
1001
ACAD
1000
DSTYLE
1002
{
1070
    41
1040
10.0
1070
   140
1040
25.0
1070
   147
1040
6.599999999999998
1070
   279
1070
     2
1070
   342
1005
30D
1070
   371
1070
    18
1070
   372
1070
    18
1002
}
  0
DIMENSION
  5
B022
330
1F
100
AcDbEntity
  8
実形
100
AcDbDimension
  2
*D75
 10
1964.694134241192
 20
1089.489621137806
 30
0.0
 11
2007.798434311815
 21
1111.089621137806
 31
0.0
 70
   160
  1
15
 71
     5
 42
195.2823432475593
  3
ISO-25
100
AcDbAlignedDimension
 13
2159.976477488751
 23
1195.113016554904
 33
0.0
 14
1964.694134241192
 24
1195.113016554904
 34
0.0
 50
180.0
100
AcDbRotatedDimension
1001
ACAD
1000
DSTYLE
1002
{
1070
    41
1040
10.0
1070
   140
1040
25.0
1070
   147
1040
6.599999999999998
1070
   279
1070
     2
1070
   342
1005
30D
1070
   371
1070
    18
1070
   372
1070
    18
1002
}
  0
DIMENSION
  5
B023
330
1F
100
AcDbEntity
  8
実形
100
AcDbDimension
  2
*D76
 10
1964.694134241192
 20
1034.82136086567
 30
0.0
 11
2078.099577419165
 21
1053.497889809593
 31
0.0
 70
   160
  1
195
 71
     5
 42
195.2823432475593
  3
ISO-25
100
AcDbAlignedDimension
 13
2159.976477488751
 23
1191.687645072907
 33
0.0
 14
1964.694134241192
 24
1191.687645072907
 34
0.0
 50
180.0
100
AcDbRotatedDimension
1001
ACAD
1000
DSTYLE
1002
{
1070
    41
1040
10.0
1070
   140
1040
25.0
1070
   147
1040
6.599999999999998
1070
   279
1070
     2
1070
   342
1005
30D
1070
   371
1070
    18
1070
   372
1070
    18
1002
}
  0
DIMENSION
  5
B024
330
1F
100
AcDbEntity
  8
実形
100
AcDbDimension
  2
*D77
 10
1964.694134241192
 20
1034.82136086567
 30
0.0
 11
2198.414545987085
 21
1056.42136086567
 31
0.0
 70
   160
  1
10
 71
     5
 42
205.0
  3
ISO-25
100
AcDbAlignedDimension
 13
2169.694134241192
 23
1212.126335391285
 33
0.0
 14
1964.694134241192
 24
1191.687645072907
 34
0.0
 50
180.0
100
AcDbRotatedDimension
1001
ACAD
1000
DSTYLE
1002
{
1070
    41
1040
10.0
1070
   140
1040
25.0
1070
   147
1040
6.599999999999998
1070
   279
1070
     2
1070
   342
1005
30D
1070
   371
1070
    18
1070
   372
1070
    18
1002
}
  0
DIMENSION
  5
B025
330
1F
100
AcDbEntity
  8
実形
100
AcDbDimension
  2
*D78
 10
1964.694134241192
 20
980.401716778365
 30
0.0
 11
2078.099577419165
 21
999.501716778365
 31
0.0
 70
   160
 71
     5
 42
205.0
  3
ISO-25
100
AcDbAlignedDimension
 13
2169.694134241192
 23
1106.172036632599
 33
0.0
 14
1964.694134241192
 24
1126.687645072907
 34
0.0
 50
180.0
100
AcDbRotatedDimension
1001
ACAD
1000
DSTYLE
1002
{
1070
    41
1040
10.0
1070
   140
1040
25.0
1070
   147
1040
6.599999999999998
1070
   279
1070
     2
1070
   342
1005
30D
1070
   371
1070
    18
1070
   372
1070
    18
1002
}
  0
DIMENSION
  5
B026
330
1F
100
AcDbEntity
  8
実形
100
AcDbDimension
  2
*D79
 10
1964.694134241192
 20
980.401716778365
 30
0.0
 11
2204.781879208045
 21
1002.001716778365
 31
0.0
 70
   160
  1
10
 71
     5
 42
215.0
  3
ISO-25
100
AcDbAlignedDimension
 13
2179.694134241192
 23
1096.143187744635
 33
0.0
 14
1964.694134241192
 24
1212.690712784909
 34
0.0
 50
180.0
100
AcDbRotatedDimension
1001
ACAD
1000
DSTYLE
1002
{
1070
    41
1040
10.0
1070
   140
1040
25.0
1070
   147
1040
6.599999999999998
1070
   279
1070
     2
1070
   342
1005
30D
1070
   371
1070
    18
1070
   372
1070
    18
1002
}
  0
DIMENSION
  5
B027
330
1F
100
AcDbEntity
  8
実形
100
AcDbDimension
  2
*D80
 10
1964.694134241192
 20
921.4158920512026
 30
0.0
 11
2078.099577419165
 21
940.5158920512027
 31
0.0
 70
   160
  1
215
 71
     5
 42
215.0
  3
ISO-25
100
AcDbAlignedDimension
 13
2179.694134241192
 23
1064.67667905168
 33
0.0
 14
1964.694134241192
 24
1037.321360865671
 34
0.0
 50
180.0
100
AcDbRotatedDimension
1001
ACAD
1000
DSTYLE
1002
{
1070
    41
1040
10.0
1070
   140
1040
25.0
1070
   147
1040
6.599999999999998
1070
   279
1070
     2
1070
   342
1005
30D
1070
   371
1070
    18
1070
   372
1070
    18
1002
}
  0
LINE
  5
B0BD
330
1F
100
AcDbEntity
  8
実形
100
AcDbLine
 10
1979.492799908219
 20
1193.547590588581
 30
0.0
 11
1964.492799908219
 21
1193.547590588581
 31
0.0
  0
DIMENSION
  5
B1D7
330
1F
100
AcDbEntity
  8
実形
100
AcDbDimension
  2
*D81
 10
2541.587879706242
 20
1178.547590588581
 30
0.0
 11
2522.487879706241
 21
1448.547590588582
 31
0.0
 70
    32
 71
     5
 42
540.0
  3
ISO-25
100
AcDbAlignedDimension
 13
2356.873093860388
 23
1718.547590588581
 33
0.0
 14
2403.834791414681
 24
1178.547590588581
 34
0.0
 50
90.0
100
AcDbRotatedDimension
1001
ACAD
1000
DSTYLE
1002
{
1070
    41
1040
10.0
1070
   140
1040
25.00000000000002
1070
   147
1040
6.599999999999998
1070
   279
1070
     2
1070
   342
1005
30D
1070
   371
1070
    18
1070
   372
1070
    18
1002
}
  0
LINE
  5
B3C5
330
1F
100
AcDbEntity
  8
実形
100
AcDbLine
 10
1870.481704972408
 20
690.6580729330507
 30
0.0
 11
1870.481704972408
 21
675.6580729330508
 31
0.0
  0
LINE
  5
B3C6
330
1F
100
AcDbEntity
  8
実形
100
AcDbLine
 10
1850.481704972408
 20
675.6580729330505
 30
0.0
 11
1850.481704972408
 21
506.3552406133141
 31
0.0
  0
LINE
  5
B3C7
330
1F
100
AcDbEntity
  8
実形
100
AcDbLine
 10
1070.481704972408
 20
690.6580729330507
 30
0.0
 11
1070.481704972408
 21
675.6580729330508
 31
0.0
  0
LINE
  5
B3C8
330
1F
100
AcDbEntity
  8
実形
100
AcDbLine
 10
1090.481704972407
 20
675.6580729330508
 30
0.0
 11
1090.481704972408
 21
506.3552406133141
 31
0.0
  0
LINE
  5
B3C9
330
1F
100
AcDbEntity
  8
実形
100
AcDbLine
 10
1885.481704972408
 20
690.6580729330507
 30
0.0
 11
1055.481704972408
 21
690.6580729330507
 31
0.0
  0
LINE
  5
B3CA
330
1F
100
AcDbEntity
  8
実形
100
AcDbLine
 10
1800.481704972409
 20
485.6580729330508
 30
0.0
 11
1684.481704972408
 21
485.6580729330508
 31
0.0
  0
LINE
  5
B3CB
330
1F
100
AcDbEntity
  8
実形
100
AcDbLine
 10
1554.981704972408
 20
475.6580729330507
 30
0.0
 11
1373.981704972408
 21
475.6580729330507
 31
0.0
  0
LINE
  5
B3CC
330
1F
100
AcDbEntity
  8
実形
100
AcDbLine
 10
1870.481704972408
 20
675.6580729330508
 30
0.0
 11
1070.481704972408
 21
675.6580729330508
 31
0.0
  0
LINE
  5
B3CD
330
1F
100
AcDbEntity
  8
実形
  6
ACAD_ISO08W100
 48
0.5
100
AcDbLine
 10
1464.481704972408
 20
580.5107491055877
 30
0.0
 11
1464.481704972408
 21
423.8294687699817
 31
0.0
  0
LINE
  5
B3CE
330
1F
100
AcDbEntity
  8
実形
100
AcDbLine
 10
1373.981704972408
 20
485.6580729330508
 30
0.0
 11
1373.981704972408
 21
475.6580729330507
 31
0.0
  0
LINE
  5
B3CF
330
1F
100
AcDbEntity
  8
実形
100
AcDbLine
 10
1464.481704972408
 20
485.6580729330528
 30
0.0
 11
1464.481704972408
 21
475.6580729330528
 31
0.0
  0
LINE
  5
B3D0
330
1F
100
AcDbEntity
  8
実形
100
AcDbLine
 10
1554.981704972408
 20
485.6580729330508
 30
0.0
 11
1554.981704972408
 21
475.6580729330507
 31
0.0
  0
DIMENSION
  5
B3D1
330
1F
100
AcDbEntity
  8
実形
100
AcDbDimension
  2
*D82
 10
1384.481704972407
 20
358.7414743971931
 30
0.0
 11
1464.481704972408
 21
377.8414743971931
 31
0.0
 70
    32
 71
     5
 42
160.0000000000002
  3
ISO-25
100
AcDbAlignedDimension
 13
1544.481704972408
 23
475.6580729330506
 33
0.0
 14
1384.481704972407
 24
475.6580729330506
 34
0.0
 50
180.0
100
AcDbRotatedDimension
1001
ACAD
1000
DSTYLE
1002
{
1070
    41
1040
10.0
1070
   140
1040
25.0
1070
   147
1040
6.599999999999998
1070
   279
1070
     2
1070
   342
1005
30D
1070
   371
1070
    18
1070
   372
1070
    18
1002
}
  0
DIMENSION
  5
B3D2
330
1F
100
AcDbEntity
  8
実形
100
AcDbDimension
  2
*D83
 10
1373.981704972408
 20
287.4991775819162
 30
0.0
 11
1464.481704972408
 21
306.5991775819163
 31
0.0
 70
    32
 71
     5
 42
180.9999999999995
  3
ISO-25
100
AcDbAlignedDimension
 13
1554.981704972408
 23
475.6580729330507
 33
0.0
 14
1373.981704972408
 24
475.6580729330464
 34
0.0
 50
180.0
100
AcDbRotatedDimension
1001
ACAD
1000
DSTYLE
1002
{
1070
    41
1040
10.0
1070
   140
1040
25.0
1070
   147
1040
6.599999999999998
1070
   279
1070
     2
1070
   342
1005
30D
1070
   371
1070
    18
1070
   372
1070
    18
1002
}
  0
LEADER
  5
B3D3
330
1F
100
AcDbEntity
  8
実形
100
AcDbLeader
  3
ISO-25
 76
     2
 10
1837.100683138271
 20
511.0931465337853
 30
0.0
 10
1774.63086013459
 20
558.6771087601828
 30
0.0
211
-1.0
221
0.0
231
0.0
1001
ACAD
1000
DSTYLE
1002
{
1070
    77
1070
     0
1070
    41
1040
10.0
1070
   140
1040
30.0
1070
   147
1040
6.599999999999998
1070
   279
1070
     2
1070
   342
1005
30D
1070
   371
1070
    18
1070
   372
1070
    18
1002
}
  0
LEADER
  5
B3D4
330
1F
100
AcDbEntity
  8
実形
100
AcDbLeader
  3
ISO-25
 76
     2
 10
1103.862726806544
 20
511.0931465337853
 30
0.0
 10
1151.812238647449
 20
559.9376365357911
 30
0.0
1001
ACAD
1000
DSTYLE
1002
{
1070
    77
1070
     0
1070
    41
1040
10.0
1070
   140
1040
30.0
1070
   147
1040
6.599999999999998
1070
   279
1070
     2
1070
   342
1005
30D
1070
   371
1070
    18
1070
   372
1070
    18
1002
}
  0
LINE
  5
B3D5
330
1F
100
AcDbEntity
  8
実形
  6
ACAD_ISO08W100
 48
0.5
100
AcDbLine
 10
1464.481704972408
 20
574.4179089624922
 30
0.0
 11
1464.481704972408
 21
430.0808769214036
 31
0.0
  0
LINE
  5
B3D6
330
1F
100
AcDbEntity
  8
実形
100
AcDbLine
 10
1554.981704972407
 20
485.6580729330508
 30
0.0
 11
1379.981704972408
 21
485.6580729330508
 31
0.0
  0
LINE
  5
B3D7
330
1F
100
AcDbEntity
  8
実形
100
AcDbLine
 10
1850.481704972408
 20
675.6580729330508
 30
0.0
 11
1850.481704972408
 21
504.3268470596019
 31
0.0
  0
ARC
  5
B3D8
330
1F
100
AcDbEntity
  8
実形
100
AcDbCircle
 10
1844.481704972408
 20
504.3268470596019
 30
0.0
 40
6.0
100
AcDbArc
 50
273.4336303624495
 51
0.0
  0
ARC
  5
B3D9
330
1F
100
AcDbEntity
  8
実形
100
AcDbCircle
 10
1844.481704972408
 20
494.3088632305074
 30
0.0
 40
6.0
100
AcDbArc
 50
273.4336303624495
 51
0.0
  0
LINE
  5
B3DA
330
1F
100
AcDbEntity
  8
実形
100
AcDbLine
 10
1614.481704972408
 20
675.6580729330508
 30
0.0
 11
1614.481704972407
 21
494.3631736637824
 31
0.0
  0
ARC
  5
B3DB
330
1F
100
AcDbEntity
  8
実形
100
AcDbCircle
 10
1608.481704972408
 20
494.3631736637824
 30
0.0
 40
6.0
100
AcDbArc
 50
272.8864185438666
 51
0.0
  0
LINE
  5
B3DC
330
1F
100
AcDbEntity
  8
実形
100
AcDbLine
 10
1090.481704972408
 20
675.6580729330509
 30
0.0
 11
1090.481704972408
 21
506.3490051671106
 31
0.0
  0
ARC
  5
B3DD
330
1F
100
AcDbEntity
  8
実形
100
AcDbCircle
 10
1096.481704972408
 20
506.3490051671106
 30
0.0
 40
6.0
100
AcDbArc
 50
180.0
 51
266.9713014216538
  0
LINE
  5
B3DE
330
1F
100
AcDbEntity
  8
実形
100
AcDbLine
 10
1373.981704972408
 20
485.6580729330508
 30
0.0
 11
1554.981704972408
 21
485.6580729330508
 31
0.0
  0
LINE
  5
B3DF
330
1F
100
AcDbEntity
  8
実形
100
AcDbLine
 10
1684.481704972408
 20
485.6580729330508
 30
0.0
 11
1800.481704972408
 21
485.6580729330508
 31
0.0
  0
LINE
  5
B3E0
330
1F
100
AcDbEntity
  8
実形
100
AcDbLine
 10
1684.481704972408
 20
495.6580729330507
 30
0.0
 11
1719.111972303819
 21
495.6580729330507
 31
0.0
  0
LINE
  5
B3E1
330
1F
100
AcDbEntity
  8
実形
100
AcDbLine
 10
1728.25670904976
 20
495.6580729330507
 30
0.0
 11
1750.766868305267
 21
495.6580729330507
 31
0.0
  0
LINE
  5
B3E2
330
1F
100
AcDbEntity
  8
実形
100
AcDbLine
 10
1761.318510939114
 20
495.6580729330507
 30
0.0
 11
1800.481704972408
 21
495.6580729330507
 31
0.0
  0
DIMENSION
  5
B3E3
330
1F
100
AcDbEntity
  8
実形
100
AcDbDimension
  2
*D84
 10
1695.481704972408
 20
358.7414743971931
 30
0.0
 11
1742.481704972408
 21
377.8414743971931
 31
0.0
 70
    32
 71
     5
 42
93.99999999999977
  3
ISO-25
100
AcDbAlignedDimension
 13
1789.481704972408
 23
475.6580729330508
 33
0.0
 14
1695.481704972408
 24
475.6580729330508
 34
0.0
 50
180.0
100
AcDbRotatedDimension
1001
ACAD
1000
DSTYLE
1002
{
1070
    41
1040
10.0
1070
   140
1040
25.0
1070
   147
1040
6.599999999999998
1070
   279
1070
     2
1070
   342
1005
30D
1070
   371
1070
    18
1070
   372
1070
    18
1002
}
  0
DIMENSION
  5
B3E4
330
1F
100
AcDbEntity
  8
実形
100
AcDbDimension
  2
*D85
 10
1684.981704972408
 20
287.4991775819162
 30
0.0
 11
1742.481704972408
 21
306.5991775819163
 31
0.0
 70
    32
 71
     5
 42
115.0000000000002
  3
ISO-25
100
AcDbAlignedDimension
 13
1799.981704972408
 23
475.6580729330507
 33
0.0
 14
1684.981704972408
 24
475.6580729330507
 34
0.0
 50
180.0
100
AcDbRotatedDimension
1001
ACAD
1000
DSTYLE
1002
{
1070
    41
1040
10.0
1070
   140
1040
25.0
1070
   147
1040
6.599999999999998
1070
   279
1070
     2
1070
   342
1005
30D
1070
   371
1070
    18
1070
   372
1070
    18
1002
}
  0
LINE
  5
B3E5
330
1F
100
AcDbEntity
  8
実形
100
AcDbLine
 10
1373.981704972408
 20
485.6580729330508
 30
0.0
 11
1096.164688085041
 21
500.3573859958744
 31
0.0
  0
LINE
  5
B3E6
330
1F
100
AcDbEntity
  8
実形
  6
ACAD_ISO08W100
 48
0.5
100
AcDbLine
 10
1742.481704972408
 20
433.0235914437635
 30
0.0
 11
1742.481704972408
 21
537.8930933265792
 31
0.0
  0
LEADER
  5
B3E7
330
1F
100
AcDbEntity
  8
実形
100
AcDbLeader
  3
ISO-25
 76
     2
 10
1651.432600380053
 20
513.499244127548
 30
0.0
 10
1719.306588220045
 20
552.5682706688148
 30
0.0
211
-1.0
221
0.0
231
0.0
1001
ACAD
1000
DSTYLE
1002
{
1070
    77
1070
     0
1070
    41
1040
10.0
1070
   140
1040
30.0
1070
   147
1040
6.599999999999998
1070
   279
1070
     2
1070
   342
1005
30D
1070
   371
1070
    18
1070
   372
1070
    18
1002
}
  0
LEADER
  5
B3E8
330
1F
100
AcDbEntity
  8
実形
100
AcDbLeader
  3
ISO-25
 76
     2
 10
1601.464835397512
 20
509.2004517351496
 30
0.0
 10
1548.581781177851
 20
558.42388570842
 30
0.0
211
-1.0
221
0.0
231
0.0
1001
ACAD
1000
DSTYLE
1002
{
1070
    77
1070
     0
1070
    41
1040
10.0
1070
   140
1040
30.0
1070
   147
1040
6.599999999999998
1070
   279
1070
     2
1070
   342
1005
30D
1070
   371
1070
    18
1070
   372
1070
    18
1002
}
  0
LINE
  5
B3EB
330
1F
100
AcDbEntity
  8
実形
100
AcDbLine
 10
1800.481704972408
 20
485.6580729330508
 30
0.0
 11
1844.841058716776
 21
488.3196341577127
 31
0.0
  0
LINE
  5
B3EC
330
1F
100
AcDbEntity
  8
実形
100
AcDbLine
 10
1799.882782065129
 20
495.6401213877085
 30
0.0
 11
1844.841058716776
 21
498.3376179868073
 31
0.0
  0
LINE
  5
B3ED
330
1F
100
AcDbEntity
  8
実形
100
AcDbLine
 10
1634.481704972408
 20
675.6580729330508
 30
0.0
 11
1634.481704972409
 21
504.3268470596019
 31
0.0
  0
ARC
  5
B3EE
330
1F
100
AcDbEntity
  8
実形
100
AcDbCircle
 10
1640.481704972408
 20
504.3268470596019
 30
0.0
 40
6.0
100
AcDbArc
 50
180.0
 51
266.5663696375505
  0
ARC
  5
B3EF
330
1F
100
AcDbEntity
  8
実形
100
AcDbCircle
 10
1640.481704972408
 20
494.3088632305074
 30
0.0
 40
6.0
100
AcDbArc
 50
180.0
 51
266.5663696375505
  0
LINE
  5
B3F1
330
1F
100
AcDbEntity
  8
実形
100
AcDbLine
 10
1684.481704972408
 20
485.6580729330508
 30
0.0
 11
1640.122351228041
 21
488.3196341577127
 31
0.0
  0
LINE
  5
B3F2
330
1F
100
AcDbEntity
  8
実形
100
AcDbLine
 10
1685.080627879688
 20
495.6401213877085
 30
0.0
 11
1640.122351228041
 21
498.3376179868073
 31
0.0
  0
LINE
  5
B3F3
330
1F
100
AcDbEntity
  8
実形
100
AcDbLine
 10
1799.981704972408
 20
475.6580729330507
 30
0.0
 11
1684.981704972408
 21
475.658072933048
 31
0.0
  0
LINE
  5
B3F4
330
1F
100
AcDbEntity
  8
実形
100
AcDbLine
 10
1554.981704972408
 20
485.6580729330508
 30
0.0
 11
1608.783842178982
 21
488.3707857333824
 31
0.0
  0
DIMENSION
  5
B3F5
330
1F
100
AcDbEntity
  8
実形
100
AcDbDimension
  2
*D86
 10
955.1086425092162
 20
500.6580729330507
 30
0.0
 11
935.3396127793967
 21
667.8852156298617
 31
0.0
 70
   160
  1
15
 71
     5
 42
190.0000000000001
  3
ISO-25
100
AcDbAlignedDimension
 13
1079.365402347668
 23
690.6580729330508
 33
0.0
 14
1079.365402347668
 24
500.6580729330507
 34
0.0
 50
90.0
100
AcDbRotatedDimension
1001
ACAD
1000
DSTYLE
1002
{
1070
    41
1040
10.0
1070
   140
1040
25.0
1070
   147
1040
6.599999999999998
1070
   279
1070
     2
1070
   342
1005
30D
1070
   371
1070
    18
1070
   372
1070
    18
1002
}
  0
DIMENSION
  5
B3F6
330
1F
100
AcDbEntity
  8
実形
100
AcDbDimension
  2
*D87
 10
955.1086425092162
 20
500.6580729330507
 30
0.0
 11
936.0086425092161
 21
588.1580729330509
 31
0.0
 70
    32
 71
     5
 42
175.0
  3
ISO-25
100
AcDbAlignedDimension
 13
1079.365402347668
 23
675.6580729330508
 33
0.0
 14
1079.365402347668
 24
500.6580729330507
 34
0.0
 50
90.0
100
AcDbRotatedDimension
1001
ACAD
1000
DSTYLE
1002
{
1070
    41
1040
10.0
1070
   140
1040
25.0
1070
   147
1040
6.599999999999998
1070
   279
1070
     2
1070
   342
1005
30D
1070
   371
1070
    18
1070
   372
1070
    18
1002
}
  0
DIMENSION
  5
B3F7
330
1F
100
AcDbEntity
  8
実形
100
AcDbDimension
  2
*D88
 10
891.9357019185463
 20
500.6580729330508
 30
0.0
 11
871.6256907651604
 21
586.7417301816194
 31
0.0
 70
   160
 71
     5
 42
190.0000000000001
  3
ISO-25
100
AcDbAlignedDimension
 13
1014.365402347668
 23
690.6580729330508
 33
0.0
 14
1014.365402347668
 24
500.6580729330507
 34
0.0
 50
90.0
100
AcDbRotatedDimension
1001
ACAD
1000
DSTYLE
1002
{
1070
    41
1040
10.0
1070
   140
1040
25.0
1070
   147
1040
6.599999999999998
1070
   279
1070
     2
1070
   342
1005
30D
1070
   371
1070
    18
1070
   372
1070
    18
1002
}
  0
DIMENSION
  5
B3F8
330
1F
100
AcDbEntity
  8
実形
100
AcDbDimension
  2
*D89
 10
891.9357019185463
 20
690.6580729330508
 30
0.0
 11
872.2475725985022
 21
510.7691236751962
 31
0.0
 70
   160
  1
15
 71
     5
 42
205.0000000000001
  3
ISO-25
100
AcDbAlignedDimension
 13
1080.024737447658
 23
485.6580729330508
 33
0.0
 14
1079.365402347668
 24
690.6580729330508
 34
0.0
 50
90.0
100
AcDbRotatedDimension
1001
ACAD
1000
DSTYLE
1002
{
1070
    41
1040
10.0
1070
   140
1040
25.0
1070
   147
1040
6.599999999999998
1070
   279
1070
     2
1070
   342
1005
30D
1070
   371
1070
    18
1070
   372
1070
    18
1002
}
  0
DIMENSION
  5
B3F9
330
1F
100
AcDbEntity
  8
実形
100
AcDbDimension
  2
*D90
 10
831.5940224562528
 20
485.6580729330508
 30
0.0
 11
812.4940224562527
 21
588.158072933051
 31
0.0
 70
    32
 71
     5
 42
205.0000000000001
  3
ISO-25
100
AcDbAlignedDimension
 13
955.1086425092162
 23
690.6580729330508
 33
0.0
 14
955.1086425092162
 24
485.6580729330508
 34
0.0
 50
90.0
100
AcDbRotatedDimension
1001
ACAD
1000
DSTYLE
1002
{
1070
    41
1040
10.0
1070
   140
1040
25.0
1070
   147
1040
6.599999999999998
1070
   279
1070
     2
1070
   342
1005
30D
1070
   371
1070
    18
1070
   372
1070
    18
1002
}
  0
DIMENSION
  5
B3FA
330
1F
100
AcDbEntity
  8
実形
100
AcDbDimension
  2
*D91
 10
831.5940224562528
 20
690.6580729330508
 30
0.0
 11
811.9488950643463
 21
490.2179794909334
 31
0.0
 70
   160
  1
8
 71
     5
 42
215.0000000000001
  3
ISO-25
100
AcDbAlignedDimension
 13
950.0267179513521
 23
475.6580729330507
 33
0.0
 14
955.1086425092162
 24
690.6580729330508
 34
0.0
 50
90.0
100
AcDbRotatedDimension
1001
ACAD
1000
DSTYLE
1002
{
1070
    41
1040
10.0
1070
   140
1040
25.0
1070
   147
1040
6.599999999999998
1070
   279
1070
     2
1070
   342
1005
30D
1070
   371
1070
    18
1070
   372
1070
    18
1002
}
  0
DIMENSION
  5
B3FB
330
1F
100
AcDbEntity
  8
実形
100
AcDbDimension
  2
*D92
 10
776.7036234843708
 20
475.6580729330508
 30
0.0
 11
750.655609580921
 21
589.371334171702
 31
0.0
 70
   160
  1
213
 71
     5
 42
215.0000000000001
  3
ISO-25
100
AcDbAlignedDimension
 13
891.9357019185463
 23
690.6580729330508
 33
0.0
 14
902.2277256203651
 24
475.6580729330507
 34
0.0
 50
90.0
100
AcDbRotatedDimension
1001
ACAD
1000
DSTYLE
1002
{
1070
    41
1040
10.0
1070
   140
1040
25.0
1070
   147
1040
6.599999999999998
1070
   279
1070
     2
1070
   342
1005
30D
1070
   371
1070
    18
1070
   372
1070
    18
1002
}
  0
LINE
  5
B3FC
330
1F
100
AcDbEntity
  8
実形
100
AcDbLine
 10
1850.481704972408
 20
506.3552406133141
 30
0.0
 11
1850.481704972408
 21
494.3088632305074
 31
0.0
  0
LINE
  5
B3FD
330
1F
100
AcDbEntity
  8
実形
100
AcDbLine
 10
1634.481704972409
 20
504.3268470596019
 30
0.0
 11
1634.481704972408
 21
494.3088632305074
 31
0.0
  0
DIMENSION
  5
B3FE
330
1F
100
AcDbEntity
  8
実形
100
AcDbDimension
  2
*D93
 10
1976.384205538445
 20
498.3376179868074
 30
0.0
 11
1949.733374223613
 21
580.9427096768804
 31
0.0
 70
   160
  1
180
 71
     5
 42
192.3204549462434
  3
ISO-25
100
AcDbAlignedDimension
 13
1857.763746077759
 23
690.6580729330507
 33
0.0
 14
1857.763746077759
 24
498.3376179868074
 34
0.0
 50
90.0
100
AcDbRotatedDimension
1001
ACAD
1000
DSTYLE
1002
{
1070
    41
1040
10.0
1070
   140
1040
25.0
1070
   147
1040
6.599999999999998
1070
   279
1070
     2
1070
   342
1005
30D
1070
   371
1070
    18
1070
   372
1070
    18
1002
}
  0
DIMENSION
  5
B3FF
330
1F
100
AcDbEntity
  8
実形
100
AcDbDimension
  2
*D94
 10
1976.384205538445
 20
498.3376179868074
 30
0.0
 11
1952.59579058177
 21
716.9897814290735
 31
0.0
 70
   160
  1
15
 71
     5
 42
177.3204549462434
  3
ISO-25
100
AcDbAlignedDimension
 13
1857.763746077759
 23
675.6580729330508
 33
0.0
 14
1857.763746077759
 24
498.3376179868074
 34
0.0
 50
90.0
100
AcDbRotatedDimension
1001
ACAD
1000
DSTYLE
1002
{
1070
    41
1040
10.0
1070
   140
1040
25.0
1070
   147
1040
6.599999999999998
1070
   279
1070
     2
1070
   342
1005
30D
1070
   371
1070
    18
1070
   372
1070
    18
1002
}
  0
DIMENSION
  5
B400
330
1F
100
AcDbEntity
  8
実形
100
AcDbDimension
  2
*D95
 10
2041.085077957956
 20
498.3376179868074
 30
0.0
 11
2019.862552231036
 21
581.0596099278409
 31
0.0
 70
   160
  1
195
 71
     5
 42
192.3204549462434
  3
ISO-25
100
AcDbAlignedDimension
 13
1911.41989218691
 23
690.6580729330507
 33
0.0
 14
1912.026576239061
 24
498.3376179868074
 34
0.0
 50
90.0
100
AcDbRotatedDimension
1001
ACAD
1000
DSTYLE
1002
{
1070
    41
1040
10.0
1070
   140
1040
25.0
1070
   147
1040
6.599999999999998
1070
   279
1070
     2
1070
   342
1005
30D
1070
   371
1070
    18
1070
   372
1070
    18
1002
}
  0
DIMENSION
  5
B401
330
1F
100
AcDbEntity
  8
実形
100
AcDbDimension
  2
*D96
 10
2041.085077957956
 20
485.6580729330507
 30
0.0
 11
2021.293760410115
 21
518.6313137701081
 31
0.0
 70
   160
  1
10
 71
     5
 42
205.0000000000001
  3
ISO-25
100
AcDbAlignedDimension
 13
1929.868169929345
 23
690.6580729330507
 33
0.0
 14
1858.176812835987
 24
485.6580729330508
 34
0.0
 50
90.0
100
AcDbRotatedDimension
1001
ACAD
1000
DSTYLE
1002
{
1070
    41
1040
10.0
1070
   140
1040
25.0
1070
   147
1040
6.599999999999998
1070
   279
1070
     2
1070
   342
1005
30D
1070
   371
1070
    18
1070
   372
1070
    18
1002
}
  0
DIMENSION
  5
B402
330
1F
100
AcDbEntity
  8
実形
100
AcDbDimension
  2
*D97
 10
2104.14944332812
 20
485.6580729330508
 30
0.0
 11
2083.504619285101
 21
582.1143571087204
 31
0.0
 70
   160
 71
     5
 42
205.0
  3
ISO-25
100
AcDbAlignedDimension
 13
1929.868169929345
 23
690.6580729330507
 33
0.0
 14
1929.868169929345
 24
485.6580729330508
 34
0.0
 50
90.0
100
AcDbRotatedDimension
1001
ACAD
1000
DSTYLE
1002
{
1070
    41
1040
10.0
1070
   140
1040
25.0
1070
   147
1040
6.599999999999998
1070
   279
1070
     2
1070
   342
1005
30D
1070
   371
1070
    18
1070
   372
1070
    18
1002
}
  0
DIMENSION
  5
B403
330
1F
100
AcDbEntity
  8
実形
100
AcDbDimension
  2
*D98
 10
2104.14944332812
 20
690.6580729330507
 30
0.0
 11
2083.367776452471
 21
505.4923511574097
 31
0.0
 70
   160
  1
10
 71
     5
 42
215.0
  3
ISO-25
100
AcDbAlignedDimension
 13
1922.311012261476
 23
475.6580729330507
 33
0.0
 14
1929.868169929345
 24
690.6580729330507
 34
0.0
 50
90.0
100
AcDbRotatedDimension
1001
ACAD
1000
DSTYLE
1002
{
1070
    41
1040
10.0
1070
   140
1040
25.0
1070
   147
1040
6.599999999999998
1070
   279
1070
     2
1070
   342
1005
30D
1070
   371
1070
    18
1070
   372
1070
    18
1002
}
  0
DIMENSION
  5
B404
330
1F
100
AcDbEntity
  8
実形
100
AcDbDimension
  2
*D99
 10
2165.746795393769
 20
475.6580729330507
 30
0.0
 11
2146.646795393769
 21
583.1580729330511
 31
0.0
 70
    32
  1
215
 71
     5
 42
215.0
  3
ISO-25
100
AcDbAlignedDimension
 13
1929.868169929345
 23
690.6580729330507
 33
0.0
 14
2045.800892294972
 24
475.6580729330507
 34
0.0
 50
90.0
100
AcDbRotatedDimension
1001
ACAD
1000
DSTYLE
1002
{
1070
    41
1040
10.0
1070
   140
1040
25.0
1070
   147
1040
6.599999999999998
1070
   279
1070
     2
1070
   342
1005
30D
1070
   371
1070
    18
1070
   372
1070
    18
1002
}
  0
TEXT
  5
B405
330
1F
100
AcDbEntity
  8
実形
100
AcDbText
 10
1164.315739114909
 20
565.7800128081726
 30
0.0
 40
25.0
  1
6R
 72
     2
 11
1205.982405781575
 21
562.4466794748392
 31
0.0
100
AcDbText
 73
     1
  0
TEXT
  5
B406
330
1F
100
AcDbEntity
  8
実形
100
AcDbText
 10
1519.221478159786
 20
562.9070142176835
 30
0.0
 40
25.0
  1
6R
 72
     2
 11
1560.888144826453
 21
559.5736808843501
 31
0.0
100
AcDbText
 73
     1
  0
TEXT
  5
B407
330
1F
100
AcDbEntity
  8
実形
100
AcDbText
 10
1729.611767044923
 20
563.0943954485211
 30
0.0
 40
25.0
  1
6R
 72
     2
 11
1771.27843371159
 21
559.7610621151877
 31
0.0
100
AcDbText
 73
     1
  0
TEXT
  5
B5FD
330
1F
100
AcDbEntity
  8
実形
100
AcDbText
 10
234.9784467214322
 20
55.07438486928823
 30
0.0
 40
30.0
  1
※実寸には製造上の誤差が多少生ずる場合があります。シンクの穴あけ加工は現物合わせにてお願いします。
 72
     4
 11
1104.978446721432
 21
70.07438486928823
 31
0.0
100
AcDbText
  0
TEXT
  5
B619
330
1F
100
AcDbEntity
  8
実形
100
AcDbText
 10
234.6212219700337
 20
117.5456368237064
 30
0.0
 40
30.0
  1
※排水口外周W35ｍｍ,H3ｍｍラウンドテーパ－有り。
 72
     4
 11
688.1212219700337
 21
130.0456368237064
 31
0.0
100
AcDbText
  0
LINE
  5
B6EF
330
1F
100
AcDbEntity
  8
補助
 62
     0
100
AcDbLine
 10
2834.0
 20
1959.0
 30
0.0
 11
2069.387286519283
 21
1959.000000000001
 31
0.0
  0
LINE
  5
B6F0
330
1F
100
AcDbEntity
  8
補助
 62
     0
100
AcDbLine
 10
2834.0
 20
1894.0
 30
0.0
 11
2069.387286519283
 21
1894.0
 31
0.0
  0
LINE
  5
B6F1
330
1F
100
AcDbEntity
  8
補助
 62
     0
100
AcDbLine
 10
2252.547653420926
 20
1894.0
 30
0.0
 11
2252.547653420926
 21
2024.0
 31
0.0
  0
LINE
  5
B6F2
330
1F
100
AcDbEntity
  8
補助
 62
     0
100
AcDbLine
 10
2069.387286519283
 20
1894.0
 30
0.0
 11
2069.387286519283
 21
2024.0
 31
0.0
  0
TEXT
  5
B6F3
330
1F
100
AcDbEntity
  8
補助
 62
     0
100
AcDbText
 10
2100.295698850121
 20
1976.328571428572
 30
0.0
 40
30.0
  1
部品名
  7
明朝
 72
     4
 11
2166.124270278692
 21
1991.5
 31
0.0
100
AcDbText
  0
TEXT
  5
B6F4
330
1F
100
AcDbEntity
  8
補助
 62
     0
100
AcDbText
 10
2677.614285714286
 20
1976.071428571429
 30
0.0
 40
30.0
  1
厚さ
  7
明朝
 72
     4
 11
2721.5
 21
1991.5
 31
0.0
100
AcDbText
  0
LINE
  5
B6F5
330
1F
100
AcDbEntity
  8
補助
 62
     0
100
AcDbLine
 10
2609.0
 20
1894.0
 30
0.0
 11
2609.0
 21
2024.0
 31
0.0
  0
TEXT
  5
B6F6
330
1F
100
AcDbEntity
  8
補助
 62
     0
100
AcDbText
 10
2388.490869919937
 20
1975.947979478155
 30
0.0
 40
30.0
  1
材質
  7
明朝
 72
     4
 11
2432.376584205651
 21
1991.119408049583
 31
0.0
100
AcDbText
  0
TEXT
  5
B6F7
330
1F
100
AcDbEntity
  8
実形
 62
     0
100
AcDbText
 10
2098.227810657788
 20
1910.557142857143
 30
0.0
 40
30.0
  1
ボウル
  7
明朝
 72
     4
 11
2164.056382086359
 21
1926.5
 31
0.0
100
AcDbText
  0
TEXT
  5
B6F8
330
1F
100
AcDbEntity
  8
実形
 62
     0
100
AcDbText
 10
2644.700000000001
 20
1911.842857142857
 30
0.0
 40
30.0
  1
1.0ｍｍ
  7
明朝
 72
     4
 11
2721.500000000001
 21
1926.5
 31
0.0
100
AcDbText
  0
TEXT
  5
B6F9
330
1F
100
AcDbEntity
  8
実形
 62
     0
100
AcDbText
 10
2311.016869107866
 20
1910.728571428572
 30
0.0
 40
30.0
  1
SUS304（HL）
  7
明朝
 72
     4
 11
2442.674011965009
 21
1926.5
 31
0.0
100
AcDbText
  0
LINE
  5
B74A
330
1F
100
AcDbEntity
  8
実形
100
AcDbLine
 10
2169.492799908219
 20
1581.047590588581
 30
0.0
 11
2179.492799908219
 21
1581.047590588581
 31
0.0
  0
LINE
  5
B74B
330
1F
100
AcDbEntity
  8
実形
100
AcDbLine
 10
2169.492799908219
 20
1466.047590588582
 30
0.0
 11
2179.492799908219
 21
1466.047590588582
 31
0.0
  0
LINE
  5
B774
330
1F
100
AcDbEntity
  8
実形
100
AcDbLine
 10
1799.981704972408
 20
485.6580729330508
 30
0.0
 11
1799.981704972408
 21
475.6580729330507
 31
0.0
  0
LINE
  5
B775
330
1F
100
AcDbEntity
  8
実形
100
AcDbLine
 10
1684.981704972408
 20
485.6580729330508
 30
0.0
 11
1684.981704972408
 21
475.6580729330507
 31
0.0
  0
VIEWPORT
  5
2E
102
{ACAD_XDICTIONARY
360
B7A9
102
}
330
1B
100
AcDbEntity
 67
     1
  8
0
100
AcDbViewport
 10
144.7270812988281
 20
101.2295806407928
 30
0.0
 40
411.6736216682419
 41
222.1517806396485
 68
     1
 69
     1
 12
144.7270812988281
 22
101.2295806407928
 13
0.0
 23
0.0
 14
10.0
 24
10.0
 15
10.0
 25
10.0
 16
0.0
 26
0.0
 36
1.0
 17
0.0
 27
0.0
 37
0.0
 42
50.0
 43
0.0
 44
0.0
 45
222.1517806396485
 50
0.0
 51
0.0
 72
   100
 90
    32800
  1

281
     0
 71
     1
 74
     0
110
0.0
120
0.0
130
0.0
111
1.0
121
0.0
131
0.0
112
0.0
122
1.0
132
0.0
 79
     0
146
0.0
  0
VIEWPORT
  5
30
102
{ACAD_XDICTIONARY
360
B7AB
102
}
330
1B
100
AcDbEntity
 67
     1
  8
0
100
AcDbViewport
 10
139.2237563133239
 20
101.2295821905136
 30
0.0
 40
222.7580101013184
 41
161.9673315048218
 68
     2
 69
     2
 12
210.0
 22
148.5
 13
0.0
 23
0.0
 14
10.0
 24
10.0
 15
10.0
 25
10.0
 16
0.0
 26
0.0
 36
1.0
 17
0.0
 27
0.0
 37
0.0
 42
50.0
 43
0.0
 44
0.0
 45
309.0686705647124
 50
0.0
 51
0.0
 72
   100
 90
    32864
  1

281
     0
 71
     1
 74
     0
110
0.0
120
0.0
130
0.0
111
1.0
121
0.0
131
0.0
112
0.0
122
1.0
132
0.0
 79
     0
146
0.0
  0
ENDSEC
  0
SECTION
  2
OBJECTS
  0
DICTIONARY
  5
C
330
0
100
AcDbDictionary
281
     1
  3
ACAD_COLOR
350
22AD
  3
ACAD_GROUP
350
D
  3
ACAD_LAYOUT
350
1A
  3
ACAD_MATERIAL
350
22AC
  3
ACAD_MLINESTYLE
350
17
  3
ACAD_PLOTSETTINGS
350
19
  3
ACAD_PLOTSTYLENAME
350
E
  3
ACAD_TABLESTYLE
350
22AE
  3
AcadDim
350
124
  3
ACDBHEADERROUNDTRIPXREC
350
B7A2
  3
AcDbVariableDictionary
350
1589
  3
DWGPROPS
350
B7A1
  0
DICTIONARY
  5
24C4
330
2
100
AcDbDictionary
280
     1
281
     1
  3
ACAD_LAYERFILTERS
360
6C37
  3
ACAD_LAYERSTATES
360
24C5
  3
ACLYDICTIONARY
360
6C36
  0
DICTIONARY
  5
2396
330
1F
100
AcDbDictionary
280
     1
281
     1
  3
ACAD_SORTENTS
360
2397
  0
DICTIONARY
  5
313E
330
313C
100
AcDbDictionary
280
     1
281
     1
  3
ACAD_SORTENTS
360
80F9
  0
DICTIONARY
  5
3848
330
3846
100
AcDbDictionary
280
     1
281
     1
  3
ACAD_SORTENTS
360
80FA
  0
DICTIONARY
  5
6B89
330
6B87
100
AcDbDictionary
280
     1
281
     1
  3
ACAD_SORTENTS
360
80FB
  0
DICTIONARY
  5
6C02
330
6C00
100
AcDbDictionary
280
     1
281
     1
  3
ACAD_SORTENTS
360
80FC
  0
DICTIONARY
  5
7758
330
7752
100
AcDbDictionary
280
     1
281
     1
  3
ACAD_SORTENTS
360
80FD
  0
DICTIONARY
  5
79A2
330
79A0
100
AcDbDictionary
280
     1
281
     1
  3
ACAD_SORTENTS
360
80FE
  0
DICTIONARY
  5
80F8
330
8065
100
AcDbDictionary
280
     1
281
     1
  3
ACAD_SORTENTS
360
80FF
  0
DICTIONARY
  5
8EAA
330
8EA8
100
AcDbDictionary
280
     1
281
     1
  3
ACAD_SORTENTS
360
8EAB
  0
DICTIONARY
  5
B7A9
330
2E
100
AcDbDictionary
280
     1
281
     1
  3
ACAD_XREC_ROUNDTRIP
360
B7AA
  0
DICTIONARY
  5
B7AB
330
30
100
AcDbDictionary
280
     1
281
     1
  3
ACAD_XREC_ROUNDTRIP
360
B7AC
  0
DICTIONARY
  5
22AD
102
{ACAD_REACTORS
330
C
102
}
330
C
100
AcDbDictionary
281
     1
  0
DICTIONARY
  5
D
102
{ACAD_REACTORS
330
C
102
}
330
C
100
AcDbDictionary
281
     1
  0
DICTIONARY
  5
1A
102
{ACAD_REACTORS
330
C
102
}
330
C
100
AcDbDictionary
281
     1
  3
Model
350
22
  3
ﾚｲｱｳﾄ1
350
1E
  3
ﾚｲｱｳﾄ2
350
26
  0
DICTIONARY
  5
22AC
102
{ACAD_REACTORS
330
C
102
}
330
C
100
AcDbDictionary
281
     1
  0
DICTIONARY
  5
17
102
{ACAD_REACTORS
330
C
102
}
330
C
100
AcDbDictionary
281
     1
  3
Standard
350
18
  0
DICTIONARY
  5
19
102
{ACAD_REACTORS
330
C
102
}
330
C
100
AcDbDictionary
281
     1
  0
ACDBDICTIONARYWDFLT
  5
E
102
{ACAD_REACTORS
330
C
102
}
330
C
100
AcDbDictionary
281
     1
  3
Normal
350
F
100
AcDbDictionaryWithDefault
340
F
  0
DICTIONARY
  5
22AE
102
{ACAD_REACTORS
330
C
102
}
330
C
100
AcDbDictionary
281
     1
  3
Standard
350
22AF
  0
XRECORD
  5
124
102
{ACAD_REACTORS
330
C
102
}
330
C
100
AcDbXrecord
280
     1
 90
   990106
  3

 60
     0
 61
     0
 62
     1
 63
     3
 64
     0
 65
     0
 66
     0
 67
     3
 68
     1
 69
     0
 70
     0
 71
     0
 72
     0
 40
30.0
170
     0
  0
DICTIONARY
  5
B7A2
102
{ACAD_REACTORS
330
C
102
}
330
C
100
AcDbDictionary
281
     1
  0
DICTIONARY
  5
1589
102
{ACAD_REACTORS
330
C
102
}
330
C
100
AcDbDictionary
281
     1
  3
CTABLESTYLE
350
22B5
  3
DIMASSOC
350
B79E
  3
PROJECTNAME
350
B79F
  3
SORTENTS
350
158A
  0
XRECORD
  5
B7A1
102
{ACAD_REACTORS
330
C
102
}
330
C
100
AcDbXrecord
280
     1
  1
DWGPROPS COOKIE
  2

  3

  4

  6

  7

  8

  9

300
=
301
=
302
=
303
=
304
=
305
=
306
=
307
=
308
=
309
=
 40
2.789055532407407
 41
2451673.575802199
 42
2458808.783920578
  1

 90
        0
  0
DICTIONARY
  5
6C37
102
{ACAD_REACTORS
330
24C4
102
}
330
24C4
100
AcDbDictionary
281
     1
  0
DICTIONARY
  5
24C5
102
{ACAD_REACTORS
330
24C4
102
}
330
24C4
100
AcDbDictionary
281
     1
  0
DICTIONARY
  5
6C36
102
{ACAD_REACTORS
330
24C4
102
}
330
24C4
100
AcDbDictionary
281
     1
1001
ACAD
1000
<All
  0
SORTENTSTABLE
  5
2397
102
{ACAD_REACTORS
330
2396
102
}
330
2396
100
AcDbSortentsTable
330
1F
331
B3E6
  5
B3EB
331
B3EE
  5
B3F6
331
B3F6
  5
B3FF
331
7183
  5
7775
331
734B
  5
7798
331
9C51
  5
9C51
331
B6EF
  5
B6F7
331
7C40
  5
818C
331
8C4D
  5
8E05
331
ABF8
  5
ABF8
331
B3FE
  5
B407
331
B026
  5
B3C6
331
B3C7
  5
B3CC
331
B406
  5
B6F3
331
B3CF
  5
B3D4
331
B3D7
  5
B3DC
331
1B87
  5
1B91
331
702C
  5
7180
331
1B8F
  5
1B98
331
1B97
  5
1BA7
331
B6F7
  5
B761
331
B619
  5
B6F6
331
AC00
  5
AC00
331
AC08
  5
AC09
331
AC10
  5
AC11
331
AA39
  5
AA39
331
90B3
  5
91DD
331
AE87
  5
AE88
331
B3DF
  5
B3E4
331
B3E7
  5
B3EE
331
B3EF
  5
B3F7
331
B3F7
  5
B400
331
7184
  5
7776
331
8A86
  5
7102
331
9C62
  5
9C62
331
ABF9
  5
ABF9
331
B0BD
  5
B3C8
331
B3FF
  5
B58F
331
B027
  5
B3C7
331
B3C8
  5
B3CD
331
B407
  5
B6F4
331
B3D0
  5
B3D5
331
754C
  5
7028
331
1B88
  5
1B92
331
702D
  5
72AC
331
1B90
  5
1B99
331
68D6
  5
6E28
331
B6F0
  5
B6F8
331
B6F8
  5
B774
331
AC01
  5
AC01
331
AC09
  5
AC0A
331
AC11
  5
AC12
331
AA3A
  5
AA3A
331
8E06
  5
8F3D
331
B3D8
  5
B3DD
331
AE88
  5
AE89
331
B3E0
  5
B3E5
331
B3E8
  5
B3EF
331
1B98
  5
1BA8
331
7185
  5
7777
331
72ED
  5
7796
331
272
  5
1B7F
331
5E5F
  5
634E
331
ABFA
  5
ABFA
331
9714
  5
7773
331
AE90
  5
AE93
331
B3F8
  5
B401
331
B400
  5
B5FD
331
B3C9
  5
B3CE
331
B3D1
  5
B3D6
331
754D
  5
7774
331
7026
  5
7026
331
774D
  5
77AF
331
702E
  5
7316
331
1B91
  5
1B9B
331
B6F1
  5
B6F9
331
B6F9
  5
B775
331
AC02
  5
AC02
331
9A9C
  5
9A9C
331
9FFB
  5
9FFB
331
AC0A
  5
AC0B
331
AC12
  5
AC13
331
AA3B
  5
AA3B
331
B3D9
  5
B3DE
331
AE89
  5
AE8A
331
B3E1
  5
B3E6
331
B3F1
  5
B3FA
331
1B99
  5
37FF
331
A0
  5
1B74
331
ABFB
  5
ABFB
331
8E3F
  5
8F6D
331
9715
  5
7772
331
AE91
  5
AE94
331
B3F9
  5
B402
331
B021
  5
B026
331
B401
  5
B619
331
B3CA
  5
B3CF
331
B3D2
  5
B3D7
331
5E68
  5
634F
331
73F6
  5
77A5
331
754E
  5
72EE
331
7027
  5
703F
331
1B8A
  5
1B93
331
774E
  5
77BC
331
702F
  5
7029
331
1B92
  5
1B9C
331
7A0D
  5
8182
331
B6F2
  5
B735
331
8C70
  5
8E06
331
AC03
  5
AC03
331
9A9D
  5
9A9D
331
7BA4
  5
8189
331
B74A
  5
AE92
331
AC0B
  5
AC0C
331
AC13
  5
AC14
331
AA3C
  5
AA3C
331
B3DA
  5
B3DF
331
AE8A
  5
AE8B
331
B3E2
  5
B3E7
331
B3F2
  5
B3FB
331
7796
  5
7031
331
7A4D
  5
8186
331
78F6
  5
7BEB
331
8C49
  5
7181
331
ABFC
  5
ABFC
331
9716
  5
7132
331
AE92
  5
AE95
331
B3FA
  5
B403
331
B402
  5
B6EF
331
B022
  5
B027
331
B3CB
  5
B3D0
331
B3D3
  5
B3D8
331
1B73
  5
1B86
331
7028
  5
717F
331
1B8B
  5
1B94
331
7030
  5
70DF
331
1B93
  5
1B9D
331
774F
  5
77E0
331
B6F3
  5
B736
331
B5FD
  5
B6F5
331
AC04
  5
AC05
331
8EE7
  5
90B2
331
B74B
  5
AE90
331
9C1E
  5
9C1E
331
AA35
  5
AA35
331
AC0C
  5
AC0D
331
9C26
  5
9C26
331
AC14
  5
AC15
331
9C2E
  5
9C2E
331
B3DB
  5
B3E0
331
AE83
  5
AE84
331
B3E3
  5
B3E8
331
AE8B
  5
AE8C
331
B3EB
  5
B3F3
331
B3F3
  5
B3FC
331
7180
  5
729D
331
7A2E
  5
8185
331
8E29
  5
8F4E
331
8C4A
  5
7183
331
8EC8
  5
90B1
331
ABFD
  5
ABFD
331
9717
  5
702A
331
AE93
  5
B023
331
B3FB
  5
B404
331
B403
  5
B6F0
331
B023
  5
B0BD
331
B3CC
  5
B3D1
331
B3D4
  5
B3D9
331
6E31
  5
1B73
331
7548
  5
70D5
331
1B84
  5
1B8E
331
7029
  5
72AB
331
1B8C
  5
1B95
331
7750
  5
7844
331
7031
  5
729C
331
1B94
  5
1BA1
331
B6F4
  5
B74A
331
7B4E
  5
8187
331
AC05
  5
AC06
331
AA36
  5
AA36
331
8E81
  5
90AF
331
AC0D
  5
AC0E
331
AC15
  5
AC16
331
B3DC
  5
B3E1
331
AE84
  5
AE85
331
B3E4
  5
B3E9
331
AE8C
  5
AE8D
331
B3EC
  5
B3F4
331
B3F4
  5
B3FD
331
7C3E
  5
7032
331
8A83
  5
702F
331
90C0
  5
9201
331
B774
  5
B3F1
331
ABFE
  5
ABFE
331
AE94
  5
B024
331
B3FC
  5
B405
331
B024
  5
B1D7
331
B3C5
  5
B3CA
331
B404
  5
B6F1
331
B3CD
  5
B3D2
331
B3D5
  5
B3DA
331
7549
  5
7168
331
1B85
  5
1B8F
331
702A
  5
7027
331
1B8D
  5
1B96
331
7751
  5
7845
331
1B95
  5
1BA2
331
B6F5
  5
B74B
331
AC06
  5
AC07
331
AA37
  5
AA37
331
AC0E
  5
AC0F
331
AC16
  5
ADE5
331
8E13
  5
8F3E
331
ADE5
  5
AE83
331
B1D7
  5
B3C9
331
AE85
  5
AE86
331
B3DD
  5
B3E2
331
AE8D
  5
AE8E
331
B3E5
  5
B3EA
331
B3ED
  5
B3F5
331
B3F5
  5
B3FE
331
78E9
  5
7BCC
331
6D9B
  5
1B7B
331
9C
  5
9C
331
8A84
  5
7771
331
B775
  5
B3F9
331
ABF7
  5
ABF7
331
ABFF
  5
ABFF
331
AE95
  5
B025
331
B3FD
  5
B406
331
B025
  5
B3C5
331
B3C6
  5
B3CB
331
B405
  5
B6F2
331
B3CE
  5
B3D3
331
B3D6
  5
B3DB
331
754A
  5
7086
331
1B86
  5
1B90
331
68BC
  5
6D9A
331
702B
  5
7078
331
1B8E
  5
1B97
331
1B96
  5
1BA6
331
B6F6
  5
B760
331
AC07
  5
AC08
331
AC0F
  5
AC10
331
AA38
  5
AA38
331
AE86
  5
AE87
331
B3DE
  5
B3E3
  0
SORTENTSTABLE
  5
80F9
102
{ACAD_REACTORS
330
313E
102
}
330
313E
100
AcDbSortentsTable
330
313C
  0
SORTENTSTABLE
  5
80FA
102
{ACAD_REACTORS
330
3848
102
}
330
3848
100
AcDbSortentsTable
330
3846
  0
SORTENTSTABLE
  5
80FB
102
{ACAD_REACTORS
330
6B89
102
}
330
6B89
100
AcDbSortentsTable
330
6B87
  0
SORTENTSTABLE
  5
80FC
102
{ACAD_REACTORS
330
6C02
102
}
330
6C02
100
AcDbSortentsTable
330
6C00
  0
SORTENTSTABLE
  5
80FD
102
{ACAD_REACTORS
330
7758
102
}
330
7758
100
AcDbSortentsTable
330
7752
  0
SORTENTSTABLE
  5
80FE
102
{ACAD_REACTORS
330
79A2
102
}
330
79A2
100
AcDbSortentsTable
330
79A0
  0
SORTENTSTABLE
  5
80FF
102
{ACAD_REACTORS
330
80F8
102
}
330
80F8
100
AcDbSortentsTable
330
8065
331
8091
  5
809D
331
8099
  5
80A6
331
80CE
  5
80D4
331
80A1
  5
80B5
331
80D6
  5
80DC
331
806A
  5
806D
331
80DE
  5
80E1
331
80E6
  5
80E9
331
8072
  5
8075
331
807A
  5
807D
331
80EE
  5
80F1
331
8082
  5
8085
331
80AF
  5
80BF
331
80F6
  5
808F
331
80B7
  5
80C7
331
80BF
  5
80CB
331
80C7
  5
809E
331
8092
  5
809F
331
809A
  5
80A7
331
80A2
  5
80AD
331
80CF
  5
80D5
331
806B
  5
806E
331
80D7
  5
80DD
331
80DF
  5
80E2
331
80E7
  5
80EA
331
8073
  5
8076
331
807B
  5
807E
331
80A8
  5
80B7
331
8083
  5
8086
331
80B0
  5
80C0
331
80EF
  5
80F2
331
808B
  5
8092
331
80B8
  5
80B0
331
80C0
  5
80CC
331
8093
  5
808D
331
809B
  5
80A8
331
80C8
  5
80CE
331
80A3
  5
80B1
331
80D0
  5
80D6
331
806C
  5
806F
331
80D8
  5
80DE
331
80E0
  5
80E3
331
8074
  5
8077
331
80E8
  5
80EB
331
807C
  5
807F
331
80A9
  5
80B9
331
80F0
  5
80F3
331
8084
  5
8087
331
80B1
  5
80C1
331
808C
  5
8098
331
80B9
  5
80C8
331
80C1
  5
80CD
331
8094
  5
8096
331
809C
  5
80A9
331
80C9
  5
80CF
331
80A4
  5
80B8
331
80D1
  5
80D7
331
806D
  5
8070
331
80D9
  5
8090
331
80E1
  5
80E4
331
8075
  5
8078
331
80E9
  5
80EC
331
807D
  5
8080
331
80AA
  5
80BA
331
80F1
  5
80F4
331
8085
  5
8088
331
80B2
  5
80C2
331
808D
  5
809C
331
80BA
  5
80B4
331
80C2
  5
8095
331
8095
  5
809A
331
809D
  5
809B
331
80CA
  5
80D0
331
80A5
  5
80AE
331
80D2
  5
80D8
331
806E
  5
8071
331
80DA
  5
80DF
331
80E2
  5
80E5
331
8076
  5
8079
331
80EA
  5
80ED
331
807E
  5
8081
331
80AB
  5
80BB
331
80F2
  5
80F5
331
8086
  5
8089
331
80B3
  5
80C3
331
808E
  5
808B
331
80BB
  5
80C9
331
80C3
  5
8097
331
8096
  5
80A3
331
809E
  5
80AA
331
80CB
  5
80D1
331
80A6
  5
80B2
331
80D3
  5
80D9
331
806F
  5
8072
331
80DB
  5
80E0
331
80E3
  5
80E6
331
8077
  5
807A
331
80EB
  5
80EE
331
807F
  5
8082
331
80AC
  5
80BC
331
80F3
  5
80F6
331
8087
  5
806B
331
80B4
  5
80C4
331
808F
  5
8093
331
80BC
  5
80CA
331
80C4
  5
8094
331
8097
  5
80A4
331
809F
  5
80AB
331
80CC
  5
80D2
331
8068
  5
8069
331
80A7
  5
80B6
331
80D4
  5
80DA
331
80DC
  5
80A0
331
80E4
  5
80E7
331
8070
  5
8073
331
8078
  5
807B
331
80EC
  5
80EF
331
80AD
  5
80BD
331
8080
  5
8083
331
80F4
  5
808E
331
80B5
  5
80C6
331
8088
  5
806A
331
80BD
  5
80B3
331
80C5
  5
808C
331
8090
  5
8099
331
8098
  5
80A5
331
80CD
  5
80D3
331
80A0
  5
80AC
331
80D5
  5
80DB
331
8069
  5
806C
331
80DD
  5
80A1
331
80E5
  5
80E8
331
8071
  5
8074
331
8079
  5
807C
331
80ED
  5
80F0
331
80AE
  5
80BE
331
8081
  5
8084
331
80F5
  5
8091
331
80B6
  5
80C5
331
8089
  5
8068
331
80BE
  5
80AF
331
80C6
  5
80A2
  0
SORTENTSTABLE
  5
8EAB
102
{ACAD_REACTORS
330
8EAA
102
}
330
8EAA
100
AcDbSortentsTable
330
8EA8
  0
XRECORD
  5
B7AA
102
{ACAD_REACTORS
330
B7A9
102
}
330
B7A9
100
AcDbXrecord
280
     1
102
SHADEPLOT
 70
     0
  0
XRECORD
  5
B7AC
102
{ACAD_REACTORS
330
B7AB
102
}
330
B7AB
100
AcDbXrecord
280
     1
102
SHADEPLOT
 70
     0
  0
LAYOUT
  5
22
102
{ACAD_XDICTIONARY
360
B7A5
102
}
102
{ACAD_REACTORS
330
1A
102
}
330
1A
100
AcDbPlotSettings
  1

  2
EPSON PM-800C
  4
A4
  6

 40
3.757083177566528
 41
14.7637300491333
 42
3.757080078125
 43
3.757080078125
 44
209.9733276367187
 45
296.9683227539062
 46
0.0
 47
0.0
 48
0.0
 49
0.0
140
0.0
141
0.0
142
1.0
143
10.0
 70
 11952
 72
     1
 73
     1
 74
     2
  7

 75
    20
147
0.1
148
0.0
149
0.0
100
AcDbLayout
  1
Model
 70
     1
 71
     0
 10
0.0
 20
0.0
 11
12.0
 21
9.0
 12
0.0
 22
0.0
 32
0.0
 14
0.0
 24
0.0
 34
0.0
 15
0.0
 25
0.0
 35
0.0
146
0.0
 13
0.0
 23
0.0
 33
0.0
 16
1.0
 26
0.0
 36
0.0
 17
0.0
 27
1.0
 37
0.0
 76
     0
330
1F
  0
LAYOUT
  5
1E
102
{ACAD_XDICTIONARY
360
B7A3
102
}
102
{ACAD_REACTORS
330
1A
102
}
330
1A
100
AcDbPlotSettings
  1

  2
EPSON PM-800C
  4
A4
  6

 40
3.757083177566528
 41
14.7637300491333
 42
3.757080078125
 43
3.757080078125
 44
209.9733276367187
 45
296.9683227539062
 46
0.0
 47
0.0
 48
0.0
 49
0.0
140
0.0
141
0.0
142
1.0
143
1.0
 70
   688
 72
     1
 73
     1
 74
     5
  7

 75
    16
147
1.0
148
0.0
149
0.0
100
AcDbLayout
  1
ﾚｲｱｳﾄ1
 70
     1
 71
     1
 10
-3.757080078125
 20
-3.757083177566528
 11
293.2112426757813
 21
206.2162444591522
 12
0.0
 22
0.0
 32
0.0
 14
27.8447512626648
 24
20.24591643810271
 34
0.0
 15
250.6027613639831
 25
182.2132479429245
 35
0.0
146
0.0
 13
0.0
 23
0.0
 33
0.0
 16
1.0
 26
0.0
 36
0.0
 17
0.0
 27
1.0
 37
0.0
 76
     0
330
1B
331
2E
  0
LAYOUT
  5
26
102
{ACAD_XDICTIONARY
360
B7A7
102
}
102
{ACAD_REACTORS
330
1A
102
}
330
1A
100
AcDbPlotSettings
  1

  2
EPSON PM-800C
  4

  6

 40
0.0
 41
0.0
 42
0.0
 43
0.0
 44
0.0
 45
0.0
 46
0.0
 47
0.0
 48
0.0
 49
0.0
140
0.0
141
0.0
142
1.0
143
1.0
 70
   688
 72
     0
 73
     0
 74
     5
  7

 75
    16
147
1.0
148
0.0
149
0.0
100
AcDbLayout
  1
ﾚｲｱｳﾄ2
 70
     1
 71
     2
 10
0.0
 20
0.0
 11
12.0
 21
9.0
 12
0.0
 22
0.0
 32
0.0
 14
0.0
 24
0.0
 34
0.0
 15
0.0
 25
0.0
 35
0.0
146
0.0
 13
0.0
 23
0.0
 33
0.0
 16
1.0
 26
0.0
 36
0.0
 17
0.0
 27
1.0
 37
0.0
 76
     0
330
23
  0
MLINESTYLE
  5
18
102
{ACAD_REACTORS
330
17
102
}
330
17
100
AcDbMlineStyle
  2
STANDARD
 70
     0
  3

 62
   256
 51
90.0
 52
90.0
 71
     2
 49
0.5
 62
   256
  6
BYLAYER
 49
-0.5
 62
   256
  6
BYLAYER
  0
ACDBPLACEHOLDER
  5
F
102
{ACAD_REACTORS
330
E
102
}
330
E
  0
TABLESTYLE
  5
22AF
102
{ACAD_REACTORS
330
22AE
102
}
330
22AE
100
AcDbTableStyle
  3
Standard
 70
     0
 71
     0
 40
1.5
 41
1.5
280
     0
281
     0
  7
Standard
140
4.5
170
     2
 62
     0
 63
     7
283
     0
274
    -2
284
     1
 64
     0
275
    -2
285
     1
 65
     0
276
    -2
286
     1
 66
     0
277
    -2
287
     1
 67
     0
278
    -2
288
     1
 68
     0
279
    -2
289
     1
 69
     0
  7
Standard
140
6.0
170
     5
 62
     0
 63
     7
283
     0
274
    -2
284
     1
 64
     0
275
    -2
285
     1
 65
     0
276
    -2
286
     1
 66
     0
277
    -2
287
     1
 67
     0
278
    -2
288
     1
 68
     0
279
    -2
289
     1
 69
     0
  7
Standard
140
4.5
170
     5
 62
     0
 63
     7
283
     0
274
    -2
284
     1
 64
     0
275
    -2
285
     1
 65
     0
276
    -2
286
     1
 66
     0
277
    -2
287
     1
 67
     0
278
    -2
288
     1
 68
     0
279
    -2
289
     1
 69
     0
  0
DICTIONARYVAR
  5
22B5
102
{ACAD_REACTORS
330
1589
102
}
330
1589
100
DictionaryVariables
280
     0
  1
STANDARD
  0
DICTIONARYVAR
  5
B79E
102
{ACAD_REACTORS
330
1589
102
}
330
1589
100
DictionaryVariables
280
     0
  1
1
  0
DICTIONARYVAR
  5
B79F
102
{ACAD_REACTORS
330
1589
102
}
330
1589
100
DictionaryVariables
280
     0
  1

  0
DICTIONARYVAR
  5
158A
102
{ACAD_REACTORS
330
1589
102
}
330
1589
100
DictionaryVariables
280
     0
  1
96
  0
DICTIONARY
  5
B7A5
330
22
100
AcDbDictionary
280
     1
281
     1
  3
ACAD_XREC_ROUNDTRIP
360
B7A6
  0
DICTIONARY
  5
B7A3
330
1E
100
AcDbDictionary
280
     1
281
     1
  3
ACAD_XREC_ROUNDTRIP
360
B7A4
  0
DICTIONARY
  5
B7A7
330
26
100
AcDbDictionary
280
     1
281
     1
  3
ACAD_XREC_ROUNDTRIP
360
B7A8
  0
XRECORD
  5
B7A6
102
{ACAD_REACTORS
330
B7A5
102
}
330
B7A5
100
AcDbXrecord
280
     1
102
SHADEPLOT
 70
     0
102
SHADEPLOTRESLEVEL
 70
     2
102
SHADEPLOTCUSTOMDPI
 70
   300
  0
XRECORD
  5
B7A4
102
{ACAD_REACTORS
330
B7A3
102
}
330
B7A3
100
AcDbXrecord
280
     1
102
SHADEPLOT
 70
     0
102
SHADEPLOTRESLEVEL
 70
     2
102
SHADEPLOTCUSTOMDPI
 70
   300
  0
XRECORD
  5
B7A8
102
{ACAD_REACTORS
330
B7A7
102
}
330
B7A7
100
AcDbXrecord
280
     1
102
SHADEPLOT
 70
     0
102
SHADEPLOTRESLEVEL
 70
     2
102
SHADEPLOTCUSTOMDPI
 70
   300
  0
ENDSEC
  0
EOF
