  0
SECTION
  2
HEADER
  9
$ACADVER
  1
AC1015
  9
$ACADMAINTVER
 70
    20
  9
$DWGCODEPAGE
  3
ANSI_932
  9
$INSBASE
 10
0.0
 20
0.0
 30
0.0
  9
$EXTMIN
 10
174.0
 20
3.99999999999909
 30
0.0
  9
$EXTMAX
 10
2834.0
 20
2024.0
 30
0.0
  9
$LIMMIN
 10
54.0
 20
4.0
  9
$LIMMAX
 10
2834.0
 20
2024.0
  9
$ORTHOMODE
 70
     1
  9
$REGENMODE
 70
     1
  9
$FILLMODE
 70
     1
  9
$QTEXTMODE
 70
     0
  9
$MIRRTEXT
 70
     1
  9
$LTSCALE
 40
4.0
  9
$ATTMODE
 70
     1
  9
$TEXTSIZE
 40
30.0
  9
$TRACEWID
 40
1.0
  9
$TEXTSTYLE
  7
Standard
  9
$CLAYER
  8
実形
  9
$CELTYPE
  6
ByLayer
  9
$CECOLOR
 62
     3
  9
$CELTSCALE
 40
1.0
  9
$DISPSILH
 70
     0
  9
$DIMSCALE
 40
1.0
  9
$DIMASZ
 40
10.0
  9
$DIMEXO
 40
65.0
  9
$DIMDLI
 40
3.75
  9
$DIMRND
 40
0.0
  9
$DIMDLE
 40
0.0
  9
$DIMEXE
 40
0.0
  9
$DIMTP
 40
0.0
  9
$DIMTM
 40
0.0
  9
$DIMTXT
 40
25.0
  9
$DIMCEN
 40
2.5
  9
$DIMTSZ
 40
0.0
  9
$DIMTOL
 70
     0
  9
$DIMLIM
 70
     0
  9
$DIMTIH
 70
     0
  9
$DIMTOH
 70
     0
  9
$DIMSE1
 70
     0
  9
$DIMSE2
 70
     0
  9
$DIMTAD
 70
     1
  9
$DIMZIN
 70
     8
  9
$DIMBLK
  1
Dot
  9
$DIMASO
 70
     1
  9
$DIMSHO
 70
     1
  9
$DIMPOST
  1

  9
$DIMAPOST
  1

  9
$DIMALT
 70
     0
  9
$DIMALTD
 70
     3
  9
$DIMALTF
 40
0.03937007874016
  9
$DIMLFAC
 40
1.0
  9
$DIMTOFL
 70
     1
  9
$DIMTVP
 40
0.0
  9
$DIMTIX
 70
     0
  9
$DIMSOXD
 70
     0
  9
$DIMSAH
 70
     0
  9
$DIMBLK1
  1

  9
$DIMBLK2
  1

  9
$DIMSTYLE
  2
ISO-25
  9
$DIMCLRD
 70
     0
  9
$DIMCLRE
 70
     0
  9
$DIMCLRT
 70
     0
  9
$DIMTFAC
 40
1.0
  9
$DIMGAP
 40
6.599999999999998
  9
$DIMJUST
 70
     0
  9
$DIMSD1
 70
     0
  9
$DIMSD2
 70
     0
  9
$DIMTOLJ
 70
     0
  9
$DIMTZIN
 70
     8
  9
$DIMALTZ
 70
     0
  9
$DIMALTTZ
 70
     0
  9
$DIMUPT
 70
     0
  9
$DIMDEC
 70
     2
  9
$DIMTDEC
 70
     2
  9
$DIMALTU
 70
     2
  9
$DIMALTTD
 70
     3
  9
$DIMTXSTY
  7
Standard
  9
$DIMAUNIT
 70
     0
  9
$DIMADEC
 70
     0
  9
$DIMALTRND
 40
0.0
  9
$DIMAZIN
 70
     0
  9
$DIMDSEP
 70
    46
  9
$DIMATFIT
 70
     3
  9
$DIMFRAC
 70
     0
  9
$DIMLDRBLK
  1
Open30
  9
$DIMLUNIT
 70
     2
  9
$DIMLWD
 70
    18
  9
$DIMLWE
 70
    18
  9
$DIMTMOVE
 70
     2
  9
$LUNITS
 70
     2
  9
$LUPREC
 70
     2
  9
$SKETCHINC
 40
1.0
  9
$FILLETRAD
 40
6.0
  9
$AUNITS
 70
     0
  9
$AUPREC
 70
     0
  9
$MENU
  1
.
  9
$ELEVATION
 40
0.0
  9
$PELEVATION
 40
0.0
  9
$THICKNESS
 40
0.0
  9
$LIMCHECK
 70
     1
  9
$CHAMFERA
 40
10.0
  9
$CHAMFERB
 40
10.0
  9
$CHAMFERC
 40
20.0
  9
$CHAMFERD
 40
0.0
  9
$SKPOLY
 70
     0
  9
$TDCREATE
 40
2451673.575802199
  9
$TDUCREATE
 40
2451673.200802199
  9
$TDUPDATE
 40
2458809.725586274
  9
$TDUUPDATE
 40
2458809.350586273
  9
$TDINDWG
 40
2.7721186690
  9
$TDUSRTIMER
 40
2.7721179745
  9
$USRTIMER
 70
     1
  9
$ANGBASE
 50
0.0
  9
$ANGDIR
 70
     0
  9
$PDMODE
 70
     0
  9
$PDSIZE
 40
0.0
  9
$PLINEWID
 40
0.0
  9
$SPLFRAME
 70
     0
  9
$SPLINETYPE
 70
     6
  9
$SPLINESEGS
 70
     8
  9
$HANDSEED
  5
979C
  9
$SURFTAB1
 70
     6
  9
$SURFTAB2
 70
     6
  9
$SURFTYPE
 70
     6
  9
$SURFU
 70
     6
  9
$SURFV
 70
     6
  9
$UCSBASE
  2

  9
$UCSNAME
  2

  9
$UCSORG
 10
0.0
 20
0.0
 30
0.0
  9
$UCSXDIR
 10
1.0
 20
0.0
 30
0.0
  9
$UCSYDIR
 10
0.0
 20
1.0
 30
0.0
  9
$UCSORTHOREF
  2

  9
$UCSORTHOVIEW
 70
     0
  9
$UCSORGTOP
 10
0.0
 20
0.0
 30
0.0
  9
$UCSORGBOTTOM
 10
0.0
 20
0.0
 30
0.0
  9
$UCSORGLEFT
 10
0.0
 20
0.0
 30
0.0
  9
$UCSORGRIGHT
 10
0.0
 20
0.0
 30
0.0
  9
$UCSORGFRONT
 10
0.0
 20
0.0
 30
0.0
  9
$UCSORGBACK
 10
0.0
 20
0.0
 30
0.0
  9
$PUCSBASE
  2

  9
$PUCSNAME
  2

  9
$PUCSORG
 10
0.0
 20
0.0
 30
0.0
  9
$PUCSXDIR
 10
1.0
 20
0.0
 30
0.0
  9
$PUCSYDIR
 10
0.0
 20
1.0
 30
0.0
  9
$PUCSORTHOREF
  2

  9
$PUCSORTHOVIEW
 70
     0
  9
$PUCSORGTOP
 10
0.0
 20
0.0
 30
0.0
  9
$PUCSORGBOTTOM
 10
0.0
 20
0.0
 30
0.0
  9
$PUCSORGLEFT
 10
0.0
 20
0.0
 30
0.0
  9
$PUCSORGRIGHT
 10
0.0
 20
0.0
 30
0.0
  9
$PUCSORGFRONT
 10
0.0
 20
0.0
 30
0.0
  9
$PUCSORGBACK
 10
0.0
 20
0.0
 30
0.0
  9
$USERI1
 70
     0
  9
$USERI2
 70
     0
  9
$USERI3
 70
     0
  9
$USERI4
 70
     0
  9
$USERI5
 70
     0
  9
$USERR1
 40
0.0
  9
$USERR2
 40
0.0
  9
$USERR3
 40
0.0
  9
$USERR4
 40
0.0
  9
$USERR5
 40
0.0
  9
$WORLDVIEW
 70
     1
  9
$SHADEDGE
 70
     3
  9
$SHADEDIF
 70
    70
  9
$TILEMODE
 70
     1
  9
$MAXACTVP
 70
    64
  9
$PINSBASE
 10
0.0
 20
0.0
 30
0.0
  9
$PLIMCHECK
 70
     0
  9
$PEXTMIN
 10
27.8447512626648
 20
20.24591643810271
 30
0.0
  9
$PEXTMAX
 10
250.6027613639831
 20
182.2132479429245
 30
0.0
  9
$PLIMMIN
 10
-3.757080078125
 20
-3.757083177566528
  9
$PLIMMAX
 10
293.2112426757813
 20
206.2162444591522
  9
$UNITMODE
 70
     0
  9
$VISRETAIN
 70
     1
  9
$PLINEGEN
 70
     0
  9
$PSLTSCALE
 70
     1
  9
$TREEDEPTH
 70
  3020
  9
$CMLSTYLE
  2
Standard
  9
$CMLJUST
 70
     0
  9
$CMLSCALE
 40
20.0
  9
$PROXYGRAPHICS
 70
     1
  9
$MEASUREMENT
 70
     1
  9
$CELWEIGHT
370
    -1
  9
$ENDCAPS
280
     0
  9
$JOINSTYLE
280
     0
  9
$LWDISPLAY
290
     0
  9
$INSUNITS
 70
     4
  9
$HYPERLINKBASE
  1

  9
$STYLESHEET
  1

  9
$XEDIT
290
     1
  9
$CEPSNTYPE
380
     0
  9
$PSTYLEMODE
290
     1
  9
$FINGERPRINTGUID
  2
{C8EA1F16-24C9-11D4-9416-CE0A3B32152F}
  9
$VERSIONGUID
  2
{22EB94F7-6A83-44CB-8401-49C18E91D8E3}
  9
$EXTNAMES
290
     1
  9
$PSVPSCALE
 40
0.0
  9
$OLESTARTUP
290
     0
  0
ENDSEC
  0
SECTION
  2
CLASSES
  0
CLASS
  1
ACDBDICTIONARYWDFLT
  2
AcDbDictionaryWithDefault
  3
ObjectDBX Classes
 90
        0
280
     0
281
     0
  0
CLASS
  1
ACDBPLACEHOLDER
  2
AcDbPlaceHolder
  3
ObjectDBX Classes
 90
        0
280
     0
281
     0
  0
CLASS
  1
LAYOUT
  2
AcDbLayout
  3
ObjectDBX Classes
 90
        0
280
     0
281
     0
  0
CLASS
  1
DICTIONARYVAR
  2
AcDbDictionaryVar
  3
ObjectDBX Classes
 90
        0
280
     0
281
     0
  0
CLASS
  1
TABLESTYLE
  2
AcDbTableStyle
  3
ObjectDBX Classes
 90
     2047
280
     0
281
     0
  0
CLASS
  1
SORTENTSTABLE
  2
AcDbSortentsTable
  3
ObjectDBX Classes
 90
        0
280
     0
281
     0
  0
ENDSEC
  0
SECTION
  2
TABLES
  0
TABLE
  2
VPORT
  5
8
330
0
100
AcDbSymbolTable
 70
     2
  0
VPORT
  5
978F
330
8
100
AcDbSymbolTableRecord
100
AcDbViewportTableRecord
  2
*Active
 70
     0
 10
0.0
 20
0.0
 11
1.0
 21
1.0
 12
1445.07738519907
 22
1066.864391876659
 13
0.0
 23
0.0
 14
10.0
 24
10.0
 15
10.0
 25
10.0
 16
0.0
 26
0.0
 36
1.0
 17
0.0
 27
0.0
 37
0.0
 40
2555.11908171821
 41
1.29038112522686
 42
50.0
 43
0.0
 44
0.0
 50
0.0
 51
0.0
 71
     0
 72
   100
 73
     1
 74
     3
 75
     0
 76
     0
 77
     0
 78
     0
281
     0
 65
     1
110
0.0
120
0.0
130
0.0
111
1.0
121
0.0
131
0.0
112
0.0
122
1.0
132
0.0
 79
     0
146
0.0
  0
ENDTAB
  0
TABLE
  2
LTYPE
  5
5
330
0
100
AcDbSymbolTable
 70
    46
  0
LTYPE
  5
14
330
5
100
AcDbSymbolTableRecord
100
AcDbLinetypeTableRecord
  2
ByBlock
 70
     0
  3

 72
    65
 73
     0
 40
0.0
  0
LTYPE
  5
15
330
5
100
AcDbSymbolTableRecord
100
AcDbLinetypeTableRecord
  2
ByLayer
 70
     0
  3

 72
    65
 73
     0
 40
0.0
  0
LTYPE
  5
16
330
5
100
AcDbSymbolTableRecord
100
AcDbLinetypeTableRecord
  2
Continuous
 70
     0
  3
Solid line
 72
    65
 73
     0
 40
0.0
  0
LTYPE
  5
34
330
5
100
AcDbSymbolTableRecord
100
AcDbLinetypeTableRecord
  2
ACAD_ISO02W100
 70
     0
  3
ISO dash __ __ __ __ __ __ __ __ __ __ __ __ __
 72
    65
 73
     2
 40
15.0
 49
12.0
 74
     0
 49
-3.0
 74
     0
  0
LTYPE
  5
35
330
5
100
AcDbSymbolTableRecord
100
AcDbLinetypeTableRecord
  2
ACAD_ISO03W100
 70
     0
  3
ISO dash space __    __    __    __    __    __
 72
    65
 73
     2
 40
30.0
 49
12.0
 74
     0
 49
-18.0
 74
     0
  0
LTYPE
  5
36
330
5
100
AcDbSymbolTableRecord
100
AcDbLinetypeTableRecord
  2
ACAD_ISO04W100
 70
     0
  3
ISO long-dash dot ____ . ____ . ____ . ____ . _
 72
    65
 73
     4
 40
30.0
 49
24.0
 74
     0
 49
-3.0
 74
     0
 49
0.0
 74
     0
 49
-3.0
 74
     0
  0
LTYPE
  5
37
330
5
100
AcDbSymbolTableRecord
100
AcDbLinetypeTableRecord
  2
ACAD_ISO05W100
 70
     0
  3
ISO long-dash double-dot ____ .. ____ .. ____ .
 72
    65
 73
     6
 40
34.0
 49
24.0
 74
     0
 49
-3.0
 74
     0
 49
0.5
 74
     0
 49
-3.0
 74
     0
 49
0.5
 74
     0
 49
-3.0
 74
     0
  0
LTYPE
  5
38
330
5
100
AcDbSymbolTableRecord
100
AcDbLinetypeTableRecord
  2
ACAD_ISO06W100
 70
     0
  3
ISO long-dash triple-dot ____ ... ____ ... ____
 72
    65
 73
     8
 40
37.5
 49
24.0
 74
     0
 49
-3.0
 74
     0
 49
0.5
 74
     0
 49
-3.0
 74
     0
 49
0.5
 74
     0
 49
-3.0
 74
     0
 49
0.5
 74
     0
 49
-3.0
 74
     0
  0
LTYPE
  5
39
330
5
100
AcDbSymbolTableRecord
100
AcDbLinetypeTableRecord
  2
ACAD_ISO07W100
 70
     0
  3
ISO dot . . . . . . . . . . . . . . . . . . . .
 72
    65
 73
     2
 40
3.0
 49
0.0
 74
     0
 49
-3.0
 74
     0
  0
LTYPE
  5
3A
330
5
100
AcDbSymbolTableRecord
100
AcDbLinetypeTableRecord
  2
ACAD_ISO08W100
 70
     0
  3
ISO long-dash short-dash ____ __ ____ __ ____ _
 72
    65
 73
     4
 40
36.0
 49
24.0
 74
     0
 49
-3.0
 74
     0
 49
6.0
 74
     0
 49
-3.0
 74
     0
  0
LTYPE
  5
3B
330
5
100
AcDbSymbolTableRecord
100
AcDbLinetypeTableRecord
  2
ACAD_ISO09W100
 70
     0
  3
ISO long-dash double-short-dash ____ __ __ ____
 72
    65
 73
     6
 40
45.0
 49
24.0
 74
     0
 49
-3.0
 74
     0
 49
6.0
 74
     0
 49
-3.0
 74
     0
 49
6.0
 74
     0
 49
-3.0
 74
     0
  0
LTYPE
  5
3C
330
5
100
AcDbSymbolTableRecord
100
AcDbLinetypeTableRecord
  2
ACAD_ISO10W100
 70
     0
  3
ISO dash dot __ . __ . __ . __ . __ . __ . __ .
 72
    65
 73
     4
 40
18.0
 49
12.0
 74
     0
 49
-3.0
 74
     0
 49
0.0
 74
     0
 49
-3.0
 74
     0
  0
LTYPE
  5
3D
330
5
100
AcDbSymbolTableRecord
100
AcDbLinetypeTableRecord
  2
ACAD_ISO11W100
 70
     0
  3
ISO double-dash dot __ __ . __ __ . __ __ . __ 
 72
    65
 73
     6
 40
33.0
 49
12.0
 74
     0
 49
-3.0
 74
     0
 49
12.0
 74
     0
 49
-3.0
 74
     0
 49
0.0
 74
     0
 49
-3.0
 74
     0
  0
LTYPE
  5
3E
330
5
100
AcDbSymbolTableRecord
100
AcDbLinetypeTableRecord
  2
ACAD_ISO12W100
 70
     0
  3
ISO dash double-dot __ . . __ . . __ . . __ . .
 72
    65
 73
     6
 40
21.0
 49
12.0
 74
     0
 49
-3.0
 74
     0
 49
0.0
 74
     0
 49
-3.0
 74
     0
 49
0.0
 74
     0
 49
-3.0
 74
     0
  0
LTYPE
  5
3F
330
5
100
AcDbSymbolTableRecord
100
AcDbLinetypeTableRecord
  2
ACAD_ISO13W100
 70
     0
  3
ISO double-dash double-dot __ __ . . __ __ . . 
 72
    65
 73
     8
 40
36.0
 49
12.0
 74
     0
 49
-3.0
 74
     0
 49
12.0
 74
     0
 49
-3.0
 74
     0
 49
0.0
 74
     0
 49
-3.0
 74
     0
 49
0.0
 74
     0
 49
-3.0
 74
     0
  0
LTYPE
  5
40
330
5
100
AcDbSymbolTableRecord
100
AcDbLinetypeTableRecord
  2
ACAD_ISO14W100
 70
     0
  3
ISO dash triple-dot __ . . . __ . . . __ . . . 
 72
    65
 73
     8
 40
24.0
 49
12.0
 74
     0
 49
-3.0
 74
     0
 49
0.0
 74
     0
 49
-3.0
 74
     0
 49
0.0
 74
     0
 49
-3.0
 74
     0
 49
0.0
 74
     0
 49
-3.0
 74
     0
  0
LTYPE
  5
41
330
5
100
AcDbSymbolTableRecord
100
AcDbLinetypeTableRecord
  2
ACAD_ISO15W100
 70
     0
  3
ISO double-dash triple-dot __ __ . . . __ __ . 
 72
    65
 73
    10
 40
39.0
 49
12.0
 74
     0
 49
-3.0
 74
     0
 49
12.0
 74
     0
 49
-3.0
 74
     0
 49
0.0
 74
     0
 49
-3.0
 74
     0
 49
0.0
 74
     0
 49
-3.0
 74
     0
 49
0.0
 74
     0
 49
-3.0
 74
     0
  0
LTYPE
  5
42
330
5
100
AcDbSymbolTableRecord
100
AcDbLinetypeTableRecord
  2
BATTING
 70
     0
  3
Batting SSSSSSSSSSSSSSSSSSSSSSSSSSSSSSSSSSSSSSS
 72
    65
 73
     4
 40
10.16254
 49
0.00254
 74
     0
 49
-2.54
 74
     4
 75
   134
340
33
 46
2.54
 50
0.0
 44
-2.54
 45
0.0
 49
-5.08
 74
     4
 75
   134
340
33
 46
2.54
 50
180.0
 44
2.54
 45
0.0
 49
-2.54
 74
     0
  0
LTYPE
  5
43
330
5
100
AcDbSymbolTableRecord
100
AcDbLinetypeTableRecord
  2
BORDER
 70
     0
  3
Border __ __ . __ __ . __ __ . __ __ . __ __ .
 72
    65
 73
     6
 40
44.45
 49
12.7
 74
     0
 49
-6.349999999999999
 74
     0
 49
12.7
 74
     0
 49
-6.349999999999999
 74
     0
 49
0.0
 74
     0
 49
-6.349999999999999
 74
     0
  0
LTYPE
  5
44
330
5
100
AcDbSymbolTableRecord
100
AcDbLinetypeTableRecord
  2
BORDER2
 70
     0
  3
Border (.5x) __.__.__.__.__.__.__.__.__.__.__.
 72
    65
 73
     6
 40
22.225
 49
6.349999999999999
 74
     0
 49
-3.174999999999999
 74
     0
 49
6.349999999999999
 74
     0
 49
-3.174999999999999
 74
     0
 49
0.0
 74
     0
 49
-3.174999999999999
 74
     0
  0
LTYPE
  5
45
330
5
100
AcDbSymbolTableRecord
100
AcDbLinetypeTableRecord
  2
BORDERX2
 70
     0
  3
Border (2x) ____  ____  .  ____  ____  .  ___
 72
    65
 73
     6
 40
88.9
 49
25.4
 74
     0
 49
-12.7
 74
     0
 49
25.4
 74
     0
 49
-12.7
 74
     0
 49
0.0
 74
     0
 49
-12.7
 74
     0
  0
LTYPE
  5
46
330
5
100
AcDbSymbolTableRecord
100
AcDbLinetypeTableRecord
  2
CENTER
 70
     0
  3
Center ____ _ ____ _ ____ _ ____ _ ____ _ ____
 72
    65
 73
     4
 40
50.8
 49
31.75
 74
     0
 49
-6.349999999999999
 74
     0
 49
6.349999999999999
 74
     0
 49
-6.349999999999999
 74
     0
  0
LTYPE
  5
47
330
5
100
AcDbSymbolTableRecord
100
AcDbLinetypeTableRecord
  2
CENTER2
 70
     0
  3
Center (.5x) ___ _ ___ _ ___ _ ___ _ ___ _ ___
 72
    65
 73
     4
 40
28.575
 49
19.05
 74
     0
 49
-3.174999999999999
 74
     0
 49
3.174999999999999
 74
     0
 49
-3.174999999999999
 74
     0
  0
LTYPE
  5
48
330
5
100
AcDbSymbolTableRecord
100
AcDbLinetypeTableRecord
  2
CENTERX2
 70
     0
  3
Center (2x) ________  __  ________  __  _____
 72
    65
 73
     4
 40
101.6
 49
63.5
 74
     0
 49
-12.7
 74
     0
 49
12.7
 74
     0
 49
-12.7
 74
     0
  0
LTYPE
  5
49
330
5
100
AcDbSymbolTableRecord
100
AcDbLinetypeTableRecord
  2
DASHDOT
 70
     0
  3
Dash dot __ . __ . __ . __ . __ . __ . __ . __
 72
    65
 73
     4
 40
25.4
 49
12.7
 74
     0
 49
-6.349999999999999
 74
     0
 49
0.0
 74
     0
 49
-6.349999999999999
 74
     0
  0
LTYPE
  5
4A
330
5
100
AcDbSymbolTableRecord
100
AcDbLinetypeTableRecord
  2
DASHDOT2
 70
     0
  3
Dash dot (.5x) _._._._._._._._._._._._._._._.
 72
    65
 73
     4
 40
12.7
 49
6.349999999999999
 74
     0
 49
-3.174999999999999
 74
     0
 49
0.0
 74
     0
 49
-3.174999999999999
 74
     0
  0
LTYPE
  5
4B
330
5
100
AcDbSymbolTableRecord
100
AcDbLinetypeTableRecord
  2
DASHDOTX2
 70
     0
  3
Dash dot (2x) ____  .  ____  .  ____  .  ___
 72
    65
 73
     4
 40
50.8
 49
25.4
 74
     0
 49
-12.7
 74
     0
 49
0.0
 74
     0
 49
-12.7
 74
     0
  0
LTYPE
  5
4C
330
5
100
AcDbSymbolTableRecord
100
AcDbLinetypeTableRecord
  2
DASHED
 70
     0
  3
Dashed __ __ __ __ __ __ __ __ __ __ __ __ __ _
 72
    65
 73
     2
 40
19.05
 49
12.7
 74
     0
 49
-6.349999999999999
 74
     0
  0
LTYPE
  5
4D
330
5
100
AcDbSymbolTableRecord
100
AcDbLinetypeTableRecord
  2
DASHED2
 70
     0
  3
Dashed (.5x) _ _ _ _ _ _ _ _ _ _ _ _ _ _ _ _ _
 72
    65
 73
     2
 40
9.524999999999998
 49
6.349999999999999
 74
     0
 49
-3.174999999999999
 74
     0
  0
LTYPE
  5
4E
330
5
100
AcDbSymbolTableRecord
100
AcDbLinetypeTableRecord
  2
DASHEDX2
 70
     0
  3
Dashed (2x) ____  ____  ____  ____  ____  ___
 72
    65
 73
     2
 40
38.1
 49
25.4
 74
     0
 49
-12.7
 74
     0
  0
LTYPE
  5
4F
330
5
100
AcDbSymbolTableRecord
100
AcDbLinetypeTableRecord
  2
DIVIDE
 70
     0
  3
Divide ____ . . ____ . . ____ . . ____ . . ____
 72
    65
 73
     6
 40
31.75
 49
12.7
 74
     0
 49
-6.349999999999999
 74
     0
 49
0.0
 74
     0
 49
-6.349999999999999
 74
     0
 49
0.0
 74
     0
 49
-6.349999999999999
 74
     0
  0
LTYPE
  5
50
330
5
100
AcDbSymbolTableRecord
100
AcDbLinetypeTableRecord
  2
DIVIDE2
 70
     0
  3
Divide (.5x) __..__..__..__..__..__..__..__.._
 72
    65
 73
     6
 40
15.875
 49
6.349999999999999
 74
     0
 49
-3.174999999999999
 74
     0
 49
0.0
 74
     0
 49
-3.174999999999999
 74
     0
 49
0.0
 74
     0
 49
-3.174999999999999
 74
     0
  0
LTYPE
  5
51
330
5
100
AcDbSymbolTableRecord
100
AcDbLinetypeTableRecord
  2
DIVIDEX2
 70
     0
  3
Divide (2x) ________  .  .  ________  .  .  _
 72
    65
 73
     6
 40
63.49999999999999
 49
25.4
 74
     0
 49
-12.7
 74
     0
 49
0.0
 74
     0
 49
-12.7
 74
     0
 49
0.0
 74
     0
 49
-12.7
 74
     0
  0
LTYPE
  5
52
330
5
100
AcDbSymbolTableRecord
100
AcDbLinetypeTableRecord
  2
DOT
 70
     0
  3
Dot . . . . . . . . . . . . . . . . . . . . . .
 72
    65
 73
     2
 40
6.349999999999999
 49
0.0
 74
     0
 49
-6.349999999999999
 74
     0
  0
LTYPE
  5
53
330
5
100
AcDbSymbolTableRecord
100
AcDbLinetypeTableRecord
  2
DOT2
 70
     0
  3
Dot (.5x) .....................................
 72
    65
 73
     2
 40
3.174999999999999
 49
0.0
 74
     0
 49
-3.174999999999999
 74
     0
  0
LTYPE
  5
54
330
5
100
AcDbSymbolTableRecord
100
AcDbLinetypeTableRecord
  2
DOTX2
 70
     0
  3
Dot (2x) .  .  .  .  .  .  .  .  .  .  .  .  . 
 72
    65
 73
     2
 40
12.7
 49
0.0
 74
     0
 49
-12.7
 74
     0
  0
LTYPE
  5
55
330
5
100
AcDbSymbolTableRecord
100
AcDbLinetypeTableRecord
  2
FENCELINE1
 70
     0
  3
Fenceline circle ----0-----0----0-----0----0---
 72
    65
 73
     4
 40
36.83
 49
6.349999999999999
 74
     0
 49
-2.54
 74
     4
 75
   133
340
33
 46
2.54
 50
0.0
 44
-2.54
 45
0.0
 49
-2.54
 74
     0
 49
25.4
 74
     0
  0
LTYPE
  5
56
330
5
100
AcDbSymbolTableRecord
100
AcDbLinetypeTableRecord
  2
FENCELINE2
 70
     0
  3
Fenceline square ----[]-----[]----[]-----[]----
 72
    65
 73
     4
 40
36.83
 49
6.349999999999999
 74
     0
 49
-2.54
 74
     4
 75
   132
340
33
 46
2.54
 50
0.0
 44
-2.54
 45
0.0
 49
-2.54
 74
     0
 49
25.4
 74
     0
  0
LTYPE
  5
57
330
5
100
AcDbSymbolTableRecord
100
AcDbLinetypeTableRecord
  2
GAS_LINE
 70
     0
  3
Gas line ----GAS----GAS----GAS----GAS----GAS---
 72
    65
 73
     3
 40
24.13
 49
12.7
 74
     0
 49
-5.08
 74
     2
 75
     0
340
11
 46
2.54
 50
0.0
 44
-2.54
 45
-1.27
  9
GAS
 49
-6.349999999999999
 74
     0
  0
LTYPE
  5
58
330
5
100
AcDbSymbolTableRecord
100
AcDbLinetypeTableRecord
  2
HIDDEN
 70
     0
  3
Hidden __ __ __ __ __ __ __ __ __ __ __ __ __ _
 72
    65
 73
     2
 40
9.524999999999998
 49
6.349999999999999
 74
     0
 49
-3.174999999999999
 74
     0
  0
LTYPE
  5
59
330
5
100
AcDbSymbolTableRecord
100
AcDbLinetypeTableRecord
  2
HIDDEN2
 70
     0
  3
Hidden (.5x) _ _ _ _ _ _ _ _ _ _ _ _ _ _ _ _ _
 72
    65
 73
     2
 40
4.762499999999999
 49
3.174999999999999
 74
     0
 49
-1.587499999999999
 74
     0
  0
LTYPE
  5
5A
330
5
100
AcDbSymbolTableRecord
100
AcDbLinetypeTableRecord
  2
HIDDENX2
 70
     0
  3
Hidden (2x) ____ ____ ____ ____ ____ ____ ____
 72
    65
 73
     2
 40
19.05
 49
12.7
 74
     0
 49
-6.349999999999999
 74
     0
  0
LTYPE
  5
5B
330
5
100
AcDbSymbolTableRecord
100
AcDbLinetypeTableRecord
  2
HOT_WATER_SUPPLY
 70
     0
  3
Hot water supply ---- HW ---- HW ---- HW ----
 72
    65
 73
     3
 40
22.86
 49
12.7
 74
     0
 49
-5.08
 74
     2
 75
     0
340
11
 46
2.54
 50
0.0
 44
-2.54
 45
-1.27
  9
HW
 49
-5.08
 74
     0
  0
LTYPE
  5
5C
330
5
100
AcDbSymbolTableRecord
100
AcDbLinetypeTableRecord
  2
PHANTOM
 70
     0
  3
Phantom ______  __  __  ______  __  __  ______
 72
    65
 73
     6
 40
63.5
 49
31.75
 74
     0
 49
-6.349999999999999
 74
     0
 49
6.349999999999999
 74
     0
 49
-6.349999999999999
 74
     0
 49
6.349999999999999
 74
     0
 49
-6.349999999999999
 74
     0
  0
LTYPE
  5
5D
330
5
100
AcDbSymbolTableRecord
100
AcDbLinetypeTableRecord
  2
PHANTOM2
 70
     0
  3
Phantom (.5x) ___ _ _ ___ _ _ ___ _ _ ___ _ _
 72
    65
 73
     6
 40
31.75
 49
15.875
 74
     0
 49
-3.174999999999999
 74
     0
 49
3.174999999999999
 74
     0
 49
-3.174999999999999
 74
     0
 49
3.174999999999999
 74
     0
 49
-3.174999999999999
 74
     0
  0
LTYPE
  5
5E
330
5
100
AcDbSymbolTableRecord
100
AcDbLinetypeTableRecord
  2
PHANTOMX2
 70
     0
  3
Phantom (2x) ____________    ____    ____   _
 72
    65
 73
     6
 40
127.0
 49
63.5
 74
     0
 49
-12.7
 74
     0
 49
12.7
 74
     0
 49
-12.7
 74
     0
 49
12.7
 74
     0
 49
-12.7
 74
     0
  0
LTYPE
  5
5F
330
5
100
AcDbSymbolTableRecord
100
AcDbLinetypeTableRecord
  2
TRACKS
 70
     0
  3
Tracks -|-|-|-|-|-|-|-|-|-|-|-|-|-|-|-|-|-|-|-|
 72
    65
 73
     2
 40
7.62
 49
3.81
 74
     4
 75
   130
340
33
 46
6.349999999999999
 50
0.0
 44
0.0
 45
0.0
 49
3.81
 74
     0
  0
LTYPE
  5
60
330
5
100
AcDbSymbolTableRecord
100
AcDbLinetypeTableRecord
  2
ZIGZAG
 70
     0
  3
Zig zag /\/\/\/\/\/\/\/\/\/\/\/\/\/\/\/\/\/\/\/
 72
    65
 73
     4
 40
20.32254
 49
0.00254
 74
     0
 49
-5.08
 74
     4
 75
   131
340
33
 46
5.08
 50
0.0
 44
-5.08
 45
0.0
 49
-10.16
 74
     4
 75
   131
340
33
 46
5.08
 50
180.0
 44
5.08
 45
0.0
 49
-5.08
 74
     0
  0
ENDTAB
  0
TABLE
  2
LAYER
  5
2
102
{ACAD_XDICTIONARY
360
24C4
102
}
330
0
100
AcDbSymbolTable
 70
     9
  0
LAYER
  5
10
330
2
100
AcDbSymbolTableRecord
100
AcDbLayerTableRecord
  2
0
 70
     0
 62
     7
  6
Continuous
290
     0
370
    -3
390
F
  0
LAYER
  5
C3
330
2
100
AcDbSymbolTableRecord
100
AcDbLayerTableRecord
  2
Defpoints
 70
     0
 62
     7
  6
Continuous
290
     0
370
    -3
390
F
  0
LAYER
  5
256
330
2
100
AcDbSymbolTableRecord
100
AcDbLayerTableRecord
  2
センター
 70
     0
 62
     7
  6
CENTER2
370
    18
390
F
  0
LAYER
  5
268
330
2
100
AcDbSymbolTableRecord
100
AcDbLayerTableRecord
  2
実形
 70
     0
 62
     7
  6
Continuous
370
    -3
390
F
  0
LAYER
  5
269
330
2
100
AcDbSymbolTableRecord
100
AcDbLayerTableRecord
  2
補助
 70
     0
 62
     4
  6
Continuous
370
    -3
390
F
  0
LAYER
  5
26A
330
2
100
AcDbSymbolTableRecord
100
AcDbLayerTableRecord
  2
寸法
 70
     0
 62
     7
  6
Continuous
370
    18
390
F
  0
LAYER
  5
26B
330
2
100
AcDbSymbolTableRecord
100
AcDbLayerTableRecord
  2
ハッチング
 70
     0
 62
     7
  6
Continuous
370
    18
390
F
  0
LAYER
  5
26D
330
2
100
AcDbSymbolTableRecord
100
AcDbLayerTableRecord
  2
枠
 70
     0
 62
     7
  6
Continuous
370
    -3
390
F
  0
LAYER
  5
1B3D
330
2
100
AcDbSymbolTableRecord
100
AcDbLayerTableRecord
  2
Cen
 70
     0
 62
     7
  6
CENTER2
290
     0
370
    15
390
F
  0
ENDTAB
  0
TABLE
  2
STYLE
  5
3
330
0
100
AcDbSymbolTable
 70
     4
  0
STYLE
  5
11
330
3
100
AcDbSymbolTableRecord
100
AcDbTextStyleTableRecord
  2
Standard
 70
     0
 40
0.0
 41
1.0
 50
0.0
 71
     0
 42
30.0
  3
txt.shx
  4
bigfont.shx
  0
STYLE
  5
33
330
3
100
AcDbSymbolTableRecord
100
AcDbTextStyleTableRecord
  2

 70
     1
 40
0.0
 41
1.0
 50
0.0
 71
     0
 42
2.5
  3
ltypeshp.shx
  4

  0
STYLE
  5
35E2
330
3
100
AcDbSymbolTableRecord
100
AcDbTextStyleTableRecord
  2
ms明朝
 70
     0
 40
0.0
 41
1.0
 50
0.0
 71
     0
 42
25.0
  3
MS Mincho.ttf
  4

1001
ACAD
1000
MS Mincho
1071
    32785
  0
STYLE
  5
975C
330
3
100
AcDbSymbolTableRecord
100
AcDbTextStyleTableRecord
  2
明朝
 70
     0
 40
0.0
 41
1.0
 50
0.0
 71
     0
 42
25.0
  3
MS Mincho.ttf
  4

1001
ACAD
1000
MS Mincho
1071
    32785
  0
ENDTAB
  0
TABLE
  2
VIEW
  5
6
330
0
100
AcDbSymbolTable
 70
     0
  0
ENDTAB
  0
TABLE
  2
UCS
  5
7
330
0
100
AcDbSymbolTable
 70
     0
  0
ENDTAB
  0
TABLE
  2
APPID
  5
9
330
0
100
AcDbSymbolTable
 70
     3
  0
APPID
  5
12
330
9
100
AcDbSymbolTableRecord
100
AcDbRegAppTableRecord
  2
ACAD
 70
     0
  0
APPID
  5
24C3
330
9
100
AcDbSymbolTableRecord
100
AcDbRegAppTableRecord
  2
ACAD_PSEXT
 70
     0
  0
APPID
  5
7817
330
9
100
AcDbSymbolTableRecord
100
AcDbRegAppTableRecord
  2
ACAD_DSTYLE_DIMTEXT_FILL
 70
     0
  0
ENDTAB
  0
TABLE
  2
DIMSTYLE
  5
A
330
0
100
AcDbSymbolTable
 70
     1
100
AcDbDimStyleTable
 71
     1
340
27
  0
DIMSTYLE
105
27
102
{ACAD_REACTORS
330
7079
330
7086
330
70DF
330
77F4
330
7801
330
78B2
330
85DB
330
85FA
330
89D5
330
89D6
330
89DD
330
89DE
330
89EB
330
89EC
330
89F4
330
89F5
330
89F7
330
89F8
330
8B81
330
8D98
330
8D99
330
8EC2
330
8EC3
330
8EC4
330
8EC6
330
9226
102
}
330
A
100
AcDbSymbolTableRecord
100
AcDbDimStyleTableRecord
  2
ISO-25
 70
     0
 41
35.0
 42
65.0
 43
3.75
 44
0.0
 73
     0
 74
     0
 77
     1
 78
     8
140
25.0
141
2.5
143
0.03937007874016
147
6.25
171
     3
172
     1
271
     2
272
     2
274
     3
283
     0
284
     8
340
11
341
DA
342
D0
371
    15
372
    15
  0
ENDTAB
  0
TABLE
  2
BLOCK_RECORD
  5
1
330
0
100
AcDbSymbolTable
 70
    37
  0
BLOCK_RECORD
  5
1F
102
{ACAD_XDICTIONARY
360
2396
102
}
330
1
100
AcDbSymbolTableRecord
100
AcDbBlockTableRecord
  2
*Model_Space
340
22
  0
BLOCK_RECORD
  5
1B
330
1
100
AcDbSymbolTableRecord
100
AcDbBlockTableRecord
  2
*Paper_Space
340
1E
  0
BLOCK_RECORD
  5
23
330
1
100
AcDbSymbolTableRecord
100
AcDbBlockTableRecord
  2
*Paper_Space0
340
26
  0
BLOCK_RECORD
  5
D0
330
1
100
AcDbSymbolTableRecord
100
AcDbBlockTableRecord
  2
_DotSmall
340
0
  0
BLOCK_RECORD
  5
D4
330
1
100
AcDbSymbolTableRecord
100
AcDbBlockTableRecord
  2
_Origin2
340
0
  0
BLOCK_RECORD
  5
DA
330
1
100
AcDbSymbolTableRecord
100
AcDbBlockTableRecord
  2
_Open30
340
0
  0
BLOCK_RECORD
  5
2D6
330
1
100
AcDbSymbolTableRecord
100
AcDbBlockTableRecord
  2
A$C6CAC4411
340
0
  0
BLOCK_RECORD
  5
30D
330
1
100
AcDbSymbolTableRecord
100
AcDbBlockTableRecord
  2
_Dot
340
0
102
{BLKREFS
331
95F1
331
95F2
331
95FA
331
95FB
331
9604
331
9605
331
960C
331
960D
331
9615
331
9616
331
961E
331
961F
331
9627
331
9628
331
9631
331
9632
331
963A
331
963B
331
9643
331
9644
331
964C
331
964D
331
9666
331
9667
331
966F
331
9670
331
9678
331
9679
331
9682
331
9683
331
968B
331
968C
331
969D
331
969E
331
96A6
331
96A7
331
96B7
331
96B8
331
96C0
331
96C1
331
96C9
331
96CA
331
96D2
331
96D3
331
96F0
331
96F1
331
96F9
331
96FA
331
9702
331
9703
331
970B
331
970C
102
}
  0
BLOCK_RECORD
  5
313C
102
{ACAD_XDICTIONARY
360
313E
102
}
330
1
100
AcDbSymbolTableRecord
100
AcDbBlockTableRecord
  2
A$C6850087C
340
0
  0
BLOCK_RECORD
  5
3846
102
{ACAD_XDICTIONARY
360
3848
102
}
330
1
100
AcDbSymbolTableRecord
100
AcDbBlockTableRecord
  2
A$C71387EE1
340
0
  0
BLOCK_RECORD
  5
6B87
102
{ACAD_XDICTIONARY
360
6B89
102
}
330
1
100
AcDbSymbolTableRecord
100
AcDbBlockTableRecord
  2
A$C47AF373A
340
0
  0
BLOCK_RECORD
  5
6C00
102
{ACAD_XDICTIONARY
360
6C02
102
}
330
1
100
AcDbSymbolTableRecord
100
AcDbBlockTableRecord
  2
A$C2B9560D8
340
0
  0
BLOCK_RECORD
  5
707A
330
1
100
AcDbSymbolTableRecord
100
AcDbBlockTableRecord
  2
*D10
340
0
  0
BLOCK_RECORD
  5
7087
330
1
100
AcDbSymbolTableRecord
100
AcDbBlockTableRecord
  2
*D11
340
0
  0
BLOCK_RECORD
  5
70E0
330
1
100
AcDbSymbolTableRecord
100
AcDbBlockTableRecord
  2
*D12
340
0
  0
BLOCK_RECORD
  5
7752
102
{ACAD_XDICTIONARY
360
7758
102
}
330
1
100
AcDbSymbolTableRecord
100
AcDbBlockTableRecord
  2
A$C113940D1
340
0
  0
BLOCK_RECORD
  5
77F5
330
1
100
AcDbSymbolTableRecord
100
AcDbBlockTableRecord
  2
*D14
340
0
  0
BLOCK_RECORD
  5
7802
330
1
100
AcDbSymbolTableRecord
100
AcDbBlockTableRecord
  2
*D15
340
0
  0
BLOCK_RECORD
  5
78B3
330
1
100
AcDbSymbolTableRecord
100
AcDbBlockTableRecord
  2
*D16
340
0
  0
BLOCK_RECORD
  5
85DC
330
1
100
AcDbSymbolTableRecord
100
AcDbBlockTableRecord
  2
*D17
340
0
  0
BLOCK_RECORD
  5
85FB
330
1
100
AcDbSymbolTableRecord
100
AcDbBlockTableRecord
  2
*D18
340
0
  0
BLOCK_RECORD
  5
8A00
330
1
100
AcDbSymbolTableRecord
100
AcDbBlockTableRecord
  2
*D19
340
0
  0
BLOCK_RECORD
  5
8A0C
330
1
100
AcDbSymbolTableRecord
100
AcDbBlockTableRecord
  2
*D20
340
0
  0
BLOCK_RECORD
  5
8A18
330
1
100
AcDbSymbolTableRecord
100
AcDbBlockTableRecord
  2
*D21
340
0
  0
BLOCK_RECORD
  5
8A24
330
1
100
AcDbSymbolTableRecord
100
AcDbBlockTableRecord
  2
*D22
340
0
  0
BLOCK_RECORD
  5
8A54
330
1
100
AcDbSymbolTableRecord
100
AcDbBlockTableRecord
  2
*D23
340
0
  0
BLOCK_RECORD
  5
8A60
330
1
100
AcDbSymbolTableRecord
100
AcDbBlockTableRecord
  2
*D24
340
0
  0
BLOCK_RECORD
  5
8A6C
330
1
100
AcDbSymbolTableRecord
100
AcDbBlockTableRecord
  2
*D25
340
0
  0
BLOCK_RECORD
  5
8A78
330
1
100
AcDbSymbolTableRecord
100
AcDbBlockTableRecord
  2
*D26
340
0
  0
BLOCK_RECORD
  5
8A90
330
1
100
AcDbSymbolTableRecord
100
AcDbBlockTableRecord
  2
*D27
340
0
  0
BLOCK_RECORD
  5
8A9C
330
1
100
AcDbSymbolTableRecord
100
AcDbBlockTableRecord
  2
*D28
340
0
  0
BLOCK_RECORD
  5
8B82
330
1
100
AcDbSymbolTableRecord
100
AcDbBlockTableRecord
  2
*D29
340
0
  0
BLOCK_RECORD
  5
8DA4
330
1
100
AcDbSymbolTableRecord
100
AcDbBlockTableRecord
  2
*D30
340
0
  0
BLOCK_RECORD
  5
8DB0
330
1
100
AcDbSymbolTableRecord
100
AcDbBlockTableRecord
  2
*D31
340
0
  0
BLOCK_RECORD
  5
8EC7
330
1
100
AcDbSymbolTableRecord
100
AcDbBlockTableRecord
  2
*D32
340
0
  0
BLOCK_RECORD
  5
8ED3
330
1
100
AcDbSymbolTableRecord
100
AcDbBlockTableRecord
  2
*D33
340
0
  0
BLOCK_RECORD
  5
8EDF
330
1
100
AcDbSymbolTableRecord
100
AcDbBlockTableRecord
  2
*D34
340
0
  0
BLOCK_RECORD
  5
8EF7
330
1
100
AcDbSymbolTableRecord
100
AcDbBlockTableRecord
  2
*D35
340
0
  0
BLOCK_RECORD
  5
9227
330
1
100
AcDbSymbolTableRecord
100
AcDbBlockTableRecord
  2
*D36
340
0
  0
ENDTAB
  0
ENDSEC
  0
SECTION
  2
BLOCKS
  0
BLOCK
  5
20
330
1F
100
AcDbEntity
  8
0
100
AcDbBlockBegin
  2
*Model_Space
 70
     0
 10
0.0
 20
0.0
 30
0.0
  3
*Model_Space
  1

  0
ENDBLK
  5
21
330
1F
100
AcDbEntity
  8
0
100
AcDbBlockEnd
  0
BLOCK
  5
1C
330
1B
100
AcDbEntity
 67
     1
  8
0
100
AcDbBlockBegin
  2
*Paper_Space
 70
     0
 10
0.0
 20
0.0
 30
0.0
  3
*Paper_Space
  1

  0
ENDBLK
  5
1D
330
1B
100
AcDbEntity
 67
     1
  8
0
100
AcDbBlockEnd
  0
BLOCK
  5
24
330
23
100
AcDbEntity
  8
0
100
AcDbBlockBegin
  2
*Paper_Space0
 70
     0
 10
0.0
 20
0.0
 30
0.0
  3
*Paper_Space0
  1

  0
ENDBLK
  5
25
330
23
100
AcDbEntity
  8
0
100
AcDbBlockEnd
  0
BLOCK
  5
D2
330
D0
100
AcDbEntity
  8
0
100
AcDbBlockBegin
  2
_DotSmall
 70
     0
 10
0.0
 20
0.0
 30
0.0
  3
_DotSmall
  1

  0
LWPOLYLINE
  5
D1
330
D0
100
AcDbEntity
  8
0
 62
     0
100
AcDbPolyline
 90
        2
 70
     1
 43
0.5
 10
-0.0625
 20
0.0
 42
1.0
 10
0.0625
 20
0.0
 42
1.0
  0
ENDBLK
  5
D3
330
D0
100
AcDbEntity
  8
0
100
AcDbBlockEnd
  0
BLOCK
  5
D8
330
D4
100
AcDbEntity
  8
0
100
AcDbBlockBegin
  2
_Origin2
 70
     0
 10
0.0
 20
0.0
 30
0.0
  3
_Origin2
  1

  0
CIRCLE
  5
D5
330
D4
100
AcDbEntity
  8
0
 62
     0
370
    -2
100
AcDbCircle
 10
0.0
 20
0.0
 30
0.0
 40
0.5
  0
CIRCLE
  5
D6
330
D4
100
AcDbEntity
  8
0
 62
     0
370
    -2
100
AcDbCircle
 10
0.0
 20
0.0
 30
0.0
 40
0.25
  0
LINE
  5
D7
330
D4
100
AcDbEntity
  8
0
 62
     0
370
    -2
100
AcDbLine
 10
-0.5
 20
0.0
 30
0.0
 11
-1.0
 21
0.0
 31
0.0
  0
ENDBLK
  5
D9
330
D4
100
AcDbEntity
  8
0
100
AcDbBlockEnd
  0
BLOCK
  5
DE
330
DA
100
AcDbEntity
  8
0
100
AcDbBlockBegin
  2
_Open30
 70
     0
 10
0.0
 20
0.0
 30
0.0
  3
_Open30
  1

  0
LINE
  5
DB
330
DA
100
AcDbEntity
  8
0
 62
     0
370
    -2
100
AcDbLine
 10
-1.0
 20
0.26794919
 30
0.0
 11
0.0
 21
0.0
 31
0.0
  0
LINE
  5
DC
330
DA
100
AcDbEntity
  8
0
 62
     0
370
    -2
100
AcDbLine
 10
0.0
 20
0.0
 30
0.0
 11
-1.0
 21
-0.26794919
 31
0.0
  0
LINE
  5
DD
330
DA
100
AcDbEntity
  8
0
 62
     0
370
    -2
100
AcDbLine
 10
0.0
 20
0.0
 30
0.0
 11
-1.0
 21
0.0
 31
0.0
  0
ENDBLK
  5
DF
330
DA
100
AcDbEntity
  8
0
100
AcDbBlockEnd
  0
BLOCK
  5
2E7
330
2D6
100
AcDbEntity
  8
0
100
AcDbBlockBegin
  2
A$C6CAC4411
 70
     0
 10
0.0
 20
0.0
 30
0.0
  3
A$C6CAC4411
  1

  0
TEXT
  5
2D7
330
2D6
100
AcDbEntity
  8
0
100
AcDbText
 10
176.2557717918098
 20
0.0000022116982912
 30
0.0
 40
40.0
  1
中外交易株式会社
 72
     4
 11
364.2557717918098
 21
20.0000022116983
 31
0.0
100
AcDbText
  0
LINE
  5
2D8
330
2D6
100
AcDbEntity
  8
0
100
AcDbLine
 10
-0.0000028735375963
 20
52.5000022116983
 30
0.0
 11
599.9999971264624
 21
52.5000022116983
 31
0.0
  0
HATCH
  5
2D9
330
2D6
100
AcDbEntity
  8
実形
100
AcDbHatch
 10
0.0
 20
0.0
 30
0.0
210
0.0
220
0.0
230
1.0
  2
SOLID
 70
     1
 71
     1
 91
        3
 92
        1
 93
        4
 72
     2
 10
133.1661954404576
 20
20.0000022116983
 40
20.0
 50
11.64772366707622
 51
342.6561058784662
 73
     1
 72
     1
 10
152.2568494677857
 20
14.03787769028346
 11
128.1661954404576
 21
14.03787769028349
 72
     1
 10
128.1661954404576
 20
14.03787769028349
 11
128.1661954404576
 21
24.0378776902835
 72
     1
 10
128.1661954404576
 20
24.0378776902835
 11
152.7543439394721
 21
24.0378776902835
 97
        4
330
2DF
330
2DC
330
2E0
330
2DD
 92
        1
 93
        4
 72
     2
 10
64.25577179180982
 20
20.0000022116983
 40
20.0
 50
11.64772366707622
 51
342.6561058784662
 73
     1
 72
     1
 10
83.34642581913795
 20
14.03787769028346
 11
59.25577179180982
 21
14.03787769028349
 72
     1
 10
59.25577179180982
 20
14.03787769028349
 11
59.25577179180982
 21
24.0378776902835
 72
     1
 10
59.25577179180982
 20
24.0378776902835
 11
83.84392029082437
 21
24.0378776902835
 97
        4
330
2DE
330
2DB
330
2E1
330
2DA
 92
        1
 93
        5
 72
     1
 10
121.6418911694018
 20
40.0000022116983
 11
86.64189116940178
 21
40.0000022116983
 72
     1
 10
86.64189116940178
 20
40.0000022116983
 11
86.64189116940178
 21
0.0000022116983018
 72
     1
 10
86.64189116940178
 20
0.0000022116983018
 11
121.6418911694018
 21
0.0000022116983018
 72
     1
 10
121.6418911694018
 20
0.0000022116983018
 11
86.64189116940178
 21
20.0000022116983
 72
     1
 10
86.64189116940178
 20
20.0000022116983
 11
121.6418911694018
 21
40.0000022116983
 97
        5
330
2E2
330
2E3
330
2E5
330
2E6
330
2E4
 75
     0
 76
     1
 98
        1
 10
-2184.000002873538
 20
-16.4999977883017
  0
LINE
  5
2DA
102
{ACAD_REACTORS
330
2D9
102
}
330
2D6
100
AcDbEntity
  8
実形
370
     5
100
AcDbLine
 10
83.84392029082437
 20
24.0378776902835
 30
0.0
 11
59.25577179180982
 21
24.0378776902835
 31
0.0
  0
LINE
  5
2DB
102
{ACAD_REACTORS
330
2D9
102
}
330
2D6
100
AcDbEntity
  8
実形
370
     5
100
AcDbLine
 10
59.25577179180982
 20
14.03787769028349
 30
0.0
 11
83.34642581913795
 21
14.03787769028346
 31
0.0
  0
LINE
  5
2DC
102
{ACAD_REACTORS
330
2D9
102
}
330
2D6
100
AcDbEntity
  8
実形
370
     5
100
AcDbLine
 10
128.1661954404576
 20
14.03787769028349
 30
0.0
 11
152.2568494677857
 21
14.03787769028346
 31
0.0
  0
LINE
  5
2DD
102
{ACAD_REACTORS
330
2D9
102
}
330
2D6
100
AcDbEntity
  8
実形
370
     5
100
AcDbLine
 10
152.7543439394721
 20
24.0378776902835
 30
0.0
 11
128.1661954404576
 21
24.0378776902835
 31
0.0
  0
ARC
  5
2DE
102
{ACAD_REACTORS
330
2D9
102
}
330
2D6
100
AcDbEntity
  8
実形
370
     5
100
AcDbCircle
 10
64.25577179180982
 20
20.0000022116983
 30
0.0
 40
20.0
100
AcDbArc
 50
11.6477236670758
 51
342.6561058784691
  0
ARC
  5
2DF
102
{ACAD_REACTORS
330
2D9
102
}
330
2D6
100
AcDbEntity
  8
実形
370
     5
100
AcDbCircle
 10
133.1661954404576
 20
20.0000022116983
 30
0.0
 40
20.0
100
AcDbArc
 50
11.6477236670758
 51
342.6561058784691
  0
LINE
  5
2E0
102
{ACAD_REACTORS
330
2D9
102
}
330
2D6
100
AcDbEntity
  8
実形
370
     5
100
AcDbLine
 10
128.1661954404576
 20
24.0378776902835
 30
0.0
 11
128.1661954404576
 21
14.03787769028349
 31
0.0
  0
LINE
  5
2E1
102
{ACAD_REACTORS
330
2D9
102
}
330
2D6
100
AcDbEntity
  8
実形
370
     5
100
AcDbLine
 10
59.25577179180982
 20
24.0378776902835
 30
0.0
 11
59.25577179180982
 21
14.03787769028349
 31
0.0
  0
LINE
  5
2E2
102
{ACAD_REACTORS
330
2D9
102
}
330
2D6
100
AcDbEntity
  8
実形
370
     5
100
AcDbLine
 10
121.6418911694018
 20
40.0000022116983
 30
0.0
 11
86.64189116940178
 21
40.0000022116983
 31
0.0
  0
LINE
  5
2E3
102
{ACAD_REACTORS
330
2D9
102
}
330
2D6
100
AcDbEntity
  8
実形
370
     5
100
AcDbLine
 10
86.64189116940178
 20
40.0000022116983
 30
0.0
 11
86.64189116940178
 21
0.0000022116983018
 31
0.0
  0
LINE
  5
2E4
102
{ACAD_REACTORS
330
2D9
102
}
330
2D6
100
AcDbEntity
  8
実形
370
     5
100
AcDbLine
 10
86.64189116940178
 20
20.0000022116983
 30
0.0
 11
121.6418911694018
 21
40.0000022116983
 31
0.0
  0
LINE
  5
2E5
102
{ACAD_REACTORS
330
2D9
102
}
330
2D6
100
AcDbEntity
  8
実形
370
     5
100
AcDbLine
 10
86.64189116940178
 20
0.0000022116983018
 30
0.0
 11
121.6418911694018
 21
0.0000022116983018
 31
0.0
  0
LINE
  5
2E6
102
{ACAD_REACTORS
330
2D9
102
}
330
2D6
100
AcDbEntity
  8
実形
370
     5
100
AcDbLine
 10
121.6418911694018
 20
0.0000022116983018
 30
0.0
 11
86.64189116940178
 21
20.0000022116983
 31
0.0
  0
ENDBLK
  5
2E8
330
2D6
100
AcDbEntity
  8
0
100
AcDbBlockEnd
  0
BLOCK
  5
310
330
30D
100
AcDbEntity
  8
0
100
AcDbBlockBegin
  2
_Dot
 70
     0
 10
0.0
 20
0.0
 30
0.0
  3
_Dot
  1

  0
LWPOLYLINE
  5
30E
330
30D
100
AcDbEntity
  8
0
 62
     0
100
AcDbPolyline
 90
        2
 70
     1
 43
0.5
 10
-0.25
 20
0.0
 42
1.0
 10
0.25
 20
0.0
 42
1.0
  0
LINE
  5
30F
330
30D
100
AcDbEntity
  8
0
 62
     0
370
    -2
100
AcDbLine
 10
-0.5
 20
0.0
 30
0.0
 11
-1.0
 21
0.0
 31
0.0
  0
ENDBLK
  5
311
330
30D
100
AcDbEntity
  8
0
100
AcDbBlockEnd
  0
BLOCK
  5
3140
330
313C
100
AcDbEntity
  8
0
100
AcDbBlockBegin
  2
A$C6850087C
 70
     0
 10
0.0
 20
0.0
 30
0.0
  3
A$C6850087C
  1

  0
TEXT
  5
313D
330
313C
100
AcDbEntity
  8
実形
 62
     0
 48
20.0
100
AcDbText
 10
0.0
 20
0.0
 30
0.0
 40
40.0
  1
平面図
100
AcDbText
  0
ENDBLK
  5
3141
330
313C
100
AcDbEntity
  8
0
100
AcDbBlockEnd
  0
BLOCK
  5
384A
330
3846
100
AcDbEntity
  8
0
 62
     1
100
AcDbBlockBegin
  2
A$C71387EE1
 70
     0
 10
0.0
 20
0.0
 30
0.0
  3
A$C71387EE1
  1

  0
HATCH
  5
3847
330
3846
100
AcDbEntity
  8
実形
 62
     0
100
AcDbHatch
 10
0.0
 20
0.0
 30
0.0
210
0.0
220
0.0
230
1.0
  2
SOLID
 70
     1
 71
     0
 91
        1
 92
        7
 72
     1
 73
     1
 93
        2
 10
4.552685078746208
 20
-0.0000011660104065
 42
-1.0
 10
4.54872920619573
 20
9.101406589272301
 42
-1.0
 97
        0
 75
     0
 76
     1
 47
0.1166526434546944
 98
        1
 10
6.65106624868099
 20
3.151407247997667
  0
ENDBLK
  5
384B
330
3846
100
AcDbEntity
  8
0
 62
     1
100
AcDbBlockEnd
  0
BLOCK
  5
6B8B
330
6B87
100
AcDbEntity
  8
0
 62
     3
100
AcDbBlockBegin
  2
A$C47AF373A
 70
     0
 10
0.0
 20
0.0
 30
0.0
  3
A$C47AF373A
  1

  0
LINE
  5
6B88
330
6B87
100
AcDbEntity
  8
枠
 62
     0
100
AcDbLine
 10
-0.0000111344452307
 20
0.0000048001220421
 30
0.0
 11
-0.0000111344452307
 21
2020.000004800122
 31
0.0
  0
ENDBLK
  5
6B8C
330
6B87
100
AcDbEntity
  8
0
 62
     3
100
AcDbBlockEnd
  0
BLOCK
  5
6C04
330
6C00
100
AcDbEntity
  8
0
 62
     3
100
AcDbBlockBegin
  2
A$C2B9560D8
 70
     0
 10
0.0
 20
0.0
 30
0.0
  3
A$C2B9560D8
  1

  0
LINE
  5
6C01
330
6C00
100
AcDbEntity
  8
枠
 62
     0
100
AcDbLine
 10
-0.0000103150450741
 20
2020.000004800122
 30
0.0
 11
-0.0000103150450741
 21
0.0000048001220421
 31
0.0
  0
ENDBLK
  5
6C05
330
6C00
100
AcDbEntity
  8
0
 62
     3
100
AcDbBlockEnd
  0
BLOCK
  5
7084
330
707A
100
AcDbEntity
  8
0
 62
     3
100
AcDbBlockBegin
  2
*D10
 70
     1
 10
0.0
 20
0.0
 30
0.0
  3
*D10
  1

  0
LINE
  5
962D
330
707A
100
AcDbEntity
  8
実形
 62
     0
370
    18
100
AcDbLine
 10
780.8871529065436
 20
1691.67196328526
 30
0.0
 11
716.7032972300222
 21
1691.67196328526
 31
0.0
  0
LINE
  5
962E
330
707A
100
AcDbEntity
  8
実形
 62
     0
370
    18
100
AcDbLine
 10
780.8871529065436
 20
1251.67196328526
 30
0.0
 11
716.7032972300221
 21
1251.67196328526
 31
0.0
  0
LINE
  5
962F
330
707A
100
AcDbEntity
  8
実形
 62
     0
370
    18
100
AcDbLine
 10
716.7032972300222
 20
1681.67196328526
 30
0.0
 11
716.7032972300221
 21
1261.67196328526
 31
0.0
  0
MTEXT
  5
9630
330
707A
100
AcDbEntity
  8
実形
 62
     0
100
AcDbMText
 10
692.176455237377
 20
1681.630806356192
 30
0.0
 40
25.0
 41
0.0
 71
     5
 72
     1
  1
15
 11
0.0000000000000001
 21
1.0
 31
0.0
 73
     1
 44
1.0
1001
ACAD
1000
MTEXTBEGIN
1070
    73
1070
     1
1070
    44
1040
1.0
1070
    74
1070
     0
1000
MTEXTEND
  0
INSERT
  5
9631
330
707A
100
AcDbEntity
  8
実形
 62
     0
370
    18
100
AcDbBlockReference
  2
_Dot
 10
716.7032972300222
 20
1691.67196328526
 30
0.0
 41
10.0
 42
10.0
 43
10.0
 50
90.0
  0
INSERT
  5
9632
330
707A
100
AcDbEntity
  8
実形
 62
     0
370
    18
100
AcDbBlockReference
  2
_Dot
 10
716.7032972300221
 20
1251.67196328526
 30
0.0
 41
10.0
 42
10.0
 43
10.0
 50
270.0
  0
POINT
  5
9633
330
707A
100
AcDbEntity
  8
Defpoints
 62
     0
100
AcDbPoint
 10
930.8871529065436
 20
1691.67196328526
 30
0.0
  0
POINT
  5
9634
330
707A
100
AcDbEntity
  8
Defpoints
 62
     0
100
AcDbPoint
 10
930.8871529065436
 20
1251.67196328526
 30
0.0
  0
POINT
  5
9635
330
707A
100
AcDbEntity
  8
Defpoints
 62
     0
100
AcDbPoint
 10
716.7032972300221
 20
1251.67196328526
 30
0.0
  0
ENDBLK
  5
7085
330
707A
100
AcDbEntity
  8
0
 62
     3
100
AcDbBlockEnd
  0
BLOCK
  5
7091
330
7087
100
AcDbEntity
  8
0
 62
     3
100
AcDbBlockBegin
  2
*D11
 70
     1
 10
0.0
 20
0.0
 30
0.0
  3
*D11
  1

  0
LINE
  5
9624
330
7087
100
AcDbEntity
  8
実形
 62
     0
370
    18
100
AcDbLine
 10
780.8871529065436
 20
1706.67196328526
 30
0.0
 11
716.7032972300222
 21
1706.67196328526
 31
0.0
  0
LINE
  5
9625
330
7087
100
AcDbEntity
  8
実形
 62
     0
370
    18
100
AcDbLine
 10
780.8871529065436
 20
1236.67196328526
 30
0.0
 11
716.7032972300221
 21
1236.67196328526
 31
0.0
  0
LINE
  5
9626
330
7087
100
AcDbEntity
  8
実形
 62
     0
370
    18
100
AcDbLine
 10
716.7032972300222
 20
1696.67196328526
 30
0.0
 11
716.7032972300221
 21
1246.67196328526
 31
0.0
  0
INSERT
  5
9627
330
7087
100
AcDbEntity
  8
実形
 62
     0
370
    18
100
AcDbBlockReference
  2
_Dot
 10
716.7032972300222
 20
1706.67196328526
 30
0.0
 41
10.0
 42
10.0
 43
10.0
 50
90.0
  0
INSERT
  5
9628
330
7087
100
AcDbEntity
  8
実形
 62
     0
370
    18
100
AcDbBlockReference
  2
_Dot
 10
716.7032972300221
 20
1236.67196328526
 30
0.0
 41
10.0
 42
10.0
 43
10.0
 50
270.0
  0
MTEXT
  5
9629
330
7087
100
AcDbEntity
  8
実形
 62
     0
100
AcDbMText
 10
697.6032972300219
 20
1471.67196328526
 30
0.0
 40
25.0
 41
0.0
 71
     5
 72
     1
  1
440
 11
0.0000000000000001
 21
1.0
 31
0.0
 73
     1
 44
1.0
1001
ACAD
1000
MTEXTBEGIN
1070
    73
1070
     1
1070
    44
1040
1.0
1070
    74
1070
     0
1000
MTEXTEND
  0
POINT
  5
962A
330
7087
100
AcDbEntity
  8
Defpoints
 62
     0
100
AcDbPoint
 10
930.8871529065436
 20
1706.67196328526
 30
0.0
  0
POINT
  5
962B
330
7087
100
AcDbEntity
  8
Defpoints
 62
     0
100
AcDbPoint
 10
930.8871529065436
 20
1236.67196328526
 30
0.0
  0
POINT
  5
962C
330
7087
100
AcDbEntity
  8
Defpoints
 62
     0
100
AcDbPoint
 10
716.7032972300221
 20
1236.67196328526
 30
0.0
  0
ENDBLK
  5
7092
330
7087
100
AcDbEntity
  8
0
 62
     3
100
AcDbBlockEnd
  0
BLOCK
  5
70EA
330
70E0
100
AcDbEntity
  8
0
 62
     3
100
AcDbBlockBegin
  2
*D12
 70
     1
 10
0.0
 20
0.0
 30
0.0
  3
*D12
  1

  0
LINE
  5
961B
330
70E0
100
AcDbEntity
  8
実形
 62
     0
370
    18
100
AcDbLine
 10
780.8871529065436
 20
1706.67196328526
 30
0.0
 11
631.5464890513868
 21
1706.67196328526
 31
0.0
  0
LINE
  5
961C
330
70E0
100
AcDbEntity
  8
実形
 62
     0
370
    18
100
AcDbLine
 10
780.8871529065436
 20
1236.67196328526
 30
0.0
 11
631.5464890513867
 21
1236.67196328526
 31
0.0
  0
LINE
  5
961D
330
70E0
100
AcDbEntity
  8
実形
 62
     0
370
    18
100
AcDbLine
 10
631.5464890513868
 20
1696.67196328526
 30
0.0
 11
631.5464890513867
 21
1246.67196328526
 31
0.0
  0
INSERT
  5
961E
330
70E0
100
AcDbEntity
  8
実形
 62
     0
370
    18
100
AcDbBlockReference
  2
_Dot
 10
631.5464890513868
 20
1706.67196328526
 30
0.0
 41
10.0
 42
10.0
 43
10.0
 50
90.0
  0
INSERT
  5
961F
330
70E0
100
AcDbEntity
  8
実形
 62
     0
370
    18
100
AcDbBlockReference
  2
_Dot
 10
631.5464890513867
 20
1236.67196328526
 30
0.0
 41
10.0
 42
10.0
 43
10.0
 50
270.0
  0
MTEXT
  5
9620
330
70E0
100
AcDbEntity
  8
実形
 62
     0
100
AcDbMText
 10
612.4464890513865
 20
1471.67196328526
 30
0.0
 40
25.0
 41
0.0
 71
     5
 72
     1
  1
470
 11
0.0000000000000001
 21
1.0
 31
0.0
 73
     1
 44
1.0
1001
ACAD
1000
MTEXTBEGIN
1070
    73
1070
     1
1070
    44
1040
1.0
1070
    74
1070
     0
1000
MTEXTEND
  0
POINT
  5
9621
330
70E0
100
AcDbEntity
  8
Defpoints
 62
     0
100
AcDbPoint
 10
930.8871529065436
 20
1706.67196328526
 30
0.0
  0
POINT
  5
9622
330
70E0
100
AcDbEntity
  8
Defpoints
 62
     0
100
AcDbPoint
 10
930.8871529065436
 20
1236.67196328526
 30
0.0
  0
POINT
  5
9623
330
70E0
100
AcDbEntity
  8
Defpoints
 62
     0
100
AcDbPoint
 10
631.5464890513867
 20
1236.67196328526
 30
0.0
  0
ENDBLK
  5
70EB
330
70E0
100
AcDbEntity
  8
0
 62
     3
100
AcDbBlockEnd
  0
BLOCK
  5
775A
330
7752
100
AcDbEntity
  8
0
 62
     3
100
AcDbBlockBegin
  2
A$C113940D1
 70
     0
 10
0.0
 20
0.0
 30
0.0
  3
A$C113940D1
  1

  0
LINE
  5
7753
330
7752
100
AcDbEntity
  8
実形
 62
     0
100
AcDbLine
 10
0.0
 20
65.0
 30
0.0
 11
720.0
 21
65.0
 31
0.0
  0
LINE
  5
7754
330
7752
100
AcDbEntity
  8
実形
 62
     0
100
AcDbLine
 10
0.0
 20
-195.0
 30
0.0
 11
0.0
 21
65.0
 31
0.0
  0
LINE
  5
7755
330
7752
100
AcDbEntity
  8
実形
 62
     0
100
AcDbLine
 10
120.0
 20
-130.0
 30
0.0
 11
120.0
 21
65.00000000000006
 31
0.0
  0
TEXT
  5
7756
330
7752
100
AcDbEntity
  8
枠
 62
     0
100
AcDbText
 10
23.83333333333334
 20
15.00000000000001
 30
0.0
 40
35.0
  1
品名
 72
     4
 11
60.0
 21
32.5
 31
0.0
100
AcDbText
  0
TEXT
  5
7757
330
7752
100
AcDbEntity
  8
実形
100
AcDbText
 10
214.0405358305962
 20
13.16420861765831
 30
0.0
 40
40.0
  1
ｱﾝﾀﾞｰｼﾝｸ
 72
     4
 11
302.0405358305961
 21
31.83087528432498
 31
0.0
100
AcDbText
  0
ENDBLK
  5
775B
330
7752
100
AcDbEntity
  8
0
 62
     3
100
AcDbBlockEnd
  0
BLOCK
  5
77FF
330
77F5
100
AcDbEntity
  8
0
 62
     3
100
AcDbBlockBegin
  2
*D14
 70
     1
 10
0.0
 20
0.0
 30
0.0
  3
*D14
  1

  0
LINE
  5
9609
330
77F5
100
AcDbEntity
  8
実形
 62
     0
370
    18
100
AcDbLine
 10
842.6888502367837
 20
1171.67196328526
 30
0.0
 11
842.6888502367837
 21
1121.052064778423
 31
0.0
  0
LINE
  5
960A
330
77F5
100
AcDbEntity
  8
実形
 62
     0
370
    18
100
AcDbLine
 10
1642.688850236784
 20
1171.671963285269
 30
0.0
 11
1642.688850236784
 21
1121.052064778423
 31
0.0
  0
LINE
  5
960B
330
77F5
100
AcDbEntity
  8
実形
 62
     0
370
    18
100
AcDbLine
 10
852.6888502367837
 20
1121.052064778423
 30
0.0
 11
1632.688850236784
 21
1121.052064778423
 31
0.0
  0
INSERT
  5
960C
330
77F5
100
AcDbEntity
  8
実形
 62
     0
370
    18
100
AcDbBlockReference
  2
_Dot
 10
842.6888502367837
 20
1121.052064778423
 30
0.0
 41
10.0
 42
10.0
 43
10.0
 50
180.0
  0
INSERT
  5
960D
330
77F5
100
AcDbEntity
  8
実形
 62
     0
370
    18
100
AcDbBlockReference
  2
_Dot
 10
1642.688850236784
 20
1121.052064778423
 30
0.0
 41
10.0
 42
10.0
 43
10.0
  0
MTEXT
  5
960E
330
77F5
100
AcDbEntity
  8
実形
 62
     0
100
AcDbMText
 10
1242.688850236784
 20
1140.152064778423
 30
0.0
 40
25.0
 41
0.0
 71
     5
 72
     1
  1
800
 73
     1
 44
1.0
1001
ACAD
1000
MTEXTBEGIN
1070
    73
1070
     1
1070
    44
1040
1.0
1070
    74
1070
     0
1000
MTEXTEND
  0
POINT
  5
960F
330
77F5
100
AcDbEntity
  8
Defpoints
 62
     0
100
AcDbPoint
 10
842.6888502367837
 20
1236.67196328526
 30
0.0
  0
POINT
  5
9610
330
77F5
100
AcDbEntity
  8
Defpoints
 62
     0
100
AcDbPoint
 10
1642.688850236784
 20
1236.671963285269
 30
0.0
  0
POINT
  5
9611
330
77F5
100
AcDbEntity
  8
Defpoints
 62
     0
100
AcDbPoint
 10
1642.688850236784
 20
1121.052064778423
 30
0.0
  0
ENDBLK
  5
7800
330
77F5
100
AcDbEntity
  8
0
 62
     3
100
AcDbBlockEnd
  0
BLOCK
  5
780C
330
7802
100
AcDbEntity
  8
0
 62
     3
100
AcDbBlockBegin
  2
*D15
 70
     1
 10
0.0
 20
0.0
 30
0.0
  3
*D15
  1

  0
LINE
  5
9600
330
7802
100
AcDbEntity
  8
実形
 62
     0
370
    18
100
AcDbLine
 10
827.6888502367837
 20
1171.67196328526
 30
0.0
 11
827.6888502367837
 21
1121.052064778423
 31
0.0
  0
LINE
  5
9601
330
7802
100
AcDbEntity
  8
実形
 62
     0
370
    18
100
AcDbLine
 10
1657.688850236783
 20
1171.67196328526
 30
0.0
 11
1657.688850236783
 21
1121.052064778423
 31
0.0
  0
LINE
  5
9602
330
7802
100
AcDbEntity
  8
実形
 62
     0
370
    18
100
AcDbLine
 10
837.6888502367837
 20
1121.052064778423
 30
0.0
 11
1647.688850236784
 21
1121.052064778423
 31
0.0
  0
MTEXT
  5
9603
330
7802
100
AcDbEntity
  8
実形
 62
     0
100
AcDbMText
 10
1691.543132265513
 20
1142.652064778423
 30
0.0
 40
25.0
 41
0.0
 71
     5
 72
     1
  1
15
 73
     1
 44
1.0
1001
ACAD
1000
MTEXTBEGIN
1070
    73
1070
     1
1070
    44
1040
1.0
1070
    74
1070
     0
1000
MTEXTEND
  0
INSERT
  5
9604
330
7802
100
AcDbEntity
  8
実形
 62
     0
370
    18
100
AcDbBlockReference
  2
_Dot
 10
827.6888502367837
 20
1121.052064778423
 30
0.0
 41
10.0
 42
10.0
 43
10.0
 50
180.0
  0
INSERT
  5
9605
330
7802
100
AcDbEntity
  8
実形
 62
     0
370
    18
100
AcDbBlockReference
  2
_Dot
 10
1657.688850236783
 20
1121.052064778423
 30
0.0
 41
10.0
 42
10.0
 43
10.0
  0
POINT
  5
9606
330
7802
100
AcDbEntity
  8
Defpoints
 62
     0
100
AcDbPoint
 10
827.6888502367837
 20
1236.67196328526
 30
0.0
  0
POINT
  5
9607
330
7802
100
AcDbEntity
  8
Defpoints
 62
     0
100
AcDbPoint
 10
1657.688850236783
 20
1236.67196328526
 30
0.0
  0
POINT
  5
9608
330
7802
100
AcDbEntity
  8
Defpoints
 62
     0
100
AcDbPoint
 10
1657.688850236783
 20
1121.052064778423
 30
0.0
  0
ENDBLK
  5
780D
330
7802
100
AcDbEntity
  8
0
 62
     3
100
AcDbBlockEnd
  0
BLOCK
  5
78BD
330
78B3
100
AcDbEntity
  8
0
 62
     3
100
AcDbBlockBegin
  2
*D16
 70
     1
 10
0.0
 20
0.0
 30
0.0
  3
*D16
  1

  0
LINE
  5
95F7
330
78B3
100
AcDbEntity
  8
実形
 62
     0
370
    18
100
AcDbLine
 10
827.6888502367837
 20
1171.67196328526
 30
0.0
 11
827.6888502367837
 21
1061.620716934234
 31
0.0
  0
LINE
  5
95F8
330
78B3
100
AcDbEntity
  8
実形
 62
     0
370
    18
100
AcDbLine
 10
1657.688850236783
 20
1171.67196328526
 30
0.0
 11
1657.688850236783
 21
1061.620716934234
 31
0.0
  0
LINE
  5
95F9
330
78B3
100
AcDbEntity
  8
実形
 62
     0
370
    18
100
AcDbLine
 10
837.6888502367837
 20
1061.620716934234
 30
0.0
 11
1647.688850236784
 21
1061.620716934234
 31
0.0
  0
INSERT
  5
95FA
330
78B3
100
AcDbEntity
  8
実形
 62
     0
370
    18
100
AcDbBlockReference
  2
_Dot
 10
827.6888502367837
 20
1061.620716934234
 30
0.0
 41
10.0
 42
10.0
 43
10.0
 50
180.0
  0
INSERT
  5
95FB
330
78B3
100
AcDbEntity
  8
実形
 62
     0
370
    18
100
AcDbBlockReference
  2
_Dot
 10
1657.688850236783
 20
1061.620716934234
 30
0.0
 41
10.0
 42
10.0
 43
10.0
  0
MTEXT
  5
95FC
330
78B3
100
AcDbEntity
  8
実形
 62
     0
100
AcDbMText
 10
1242.688850236784
 20
1080.720716934234
 30
0.0
 40
25.0
 41
0.0
 71
     5
 72
     1
  1
830
 73
     1
 44
1.0
1001
ACAD
1000
MTEXTBEGIN
1070
    73
1070
     1
1070
    44
1040
1.0
1070
    74
1070
     0
1000
MTEXTEND
  0
POINT
  5
95FD
330
78B3
100
AcDbEntity
  8
Defpoints
 62
     0
100
AcDbPoint
 10
827.6888502367837
 20
1236.67196328526
 30
0.0
  0
POINT
  5
95FE
330
78B3
100
AcDbEntity
  8
Defpoints
 62
     0
100
AcDbPoint
 10
1657.688850236783
 20
1236.67196328526
 30
0.0
  0
POINT
  5
95FF
330
78B3
100
AcDbEntity
  8
Defpoints
 62
     0
100
AcDbPoint
 10
1657.688850236783
 20
1061.620716934234
 30
0.0
  0
ENDBLK
  5
78BE
330
78B3
100
AcDbEntity
  8
0
 62
     3
100
AcDbBlockEnd
  0
BLOCK
  5
85E6
330
85DC
100
AcDbEntity
  8
0
 62
     3
100
AcDbBlockBegin
  2
*D17
 70
     1
 10
0.0
 20
0.0
 30
0.0
  3
*D17
  1

  0
LINE
  5
95EE
330
85DC
100
AcDbEntity
  8
実形
 62
     0
370
    18
100
AcDbLine
 10
1371.905896593474
 20
1541.67196328526
 30
0.0
 11
1428.488268849105
 21
1541.67196328526
 31
0.0
  0
LINE
  5
95EF
330
85DC
100
AcDbEntity
  8
実形
 62
     0
370
    18
100
AcDbLine
 10
1371.905896593474
 20
1691.67196328526
 30
0.0
 11
1428.488268849105
 21
1691.67196328526
 31
0.0
  0
LINE
  5
95F0
330
85DC
100
AcDbEntity
  8
実形
 62
     0
370
    18
100
AcDbLine
 10
1428.488268849105
 20
1551.67196328526
 30
0.0
 11
1428.488268849105
 21
1681.67196328526
 31
0.0
  0
INSERT
  5
95F1
330
85DC
100
AcDbEntity
  8
実形
 62
     0
370
    18
100
AcDbBlockReference
  2
_Dot
 10
1428.488268849105
 20
1541.67196328526
 30
0.0
 41
10.0
 42
10.0
 43
10.0
 50
270.0
  0
INSERT
  5
95F2
330
85DC
100
AcDbEntity
  8
実形
 62
     0
370
    18
100
AcDbBlockReference
  2
_Dot
 10
1428.488268849105
 20
1691.67196328526
 30
0.0
 41
10.0
 42
10.0
 43
10.0
 50
90.0
  0
MTEXT
  5
95F3
330
85DC
100
AcDbEntity
  8
実形
 62
     0
100
AcDbMText
 10
1409.388268849105
 20
1616.67196328526
 30
0.0
 40
25.0
 41
0.0
 71
     5
 72
     1
  1
150
 11
0.0000000000000001
 21
1.0
 31
0.0
 73
     1
 44
1.0
1001
ACAD
1000
MTEXTBEGIN
1070
    73
1070
     1
1070
    44
1040
1.0
1070
    74
1070
     0
1000
MTEXTEND
  0
POINT
  5
95F4
330
85DC
100
AcDbEntity
  8
Defpoints
 62
     0
100
AcDbPoint
 10
1306.905896593474
 20
1541.67196328526
 30
0.0
  0
POINT
  5
95F5
330
85DC
100
AcDbEntity
  8
Defpoints
 62
     0
100
AcDbPoint
 10
1306.905896593474
 20
1691.67196328526
 30
0.0
  0
POINT
  5
95F6
330
85DC
100
AcDbEntity
  8
Defpoints
 62
     0
100
AcDbPoint
 10
1428.488268849105
 20
1691.67196328526
 30
0.0
  0
ENDBLK
  5
85E7
330
85DC
100
AcDbEntity
  8
0
 62
     3
100
AcDbBlockEnd
  0
BLOCK
  5
8605
330
85FB
100
AcDbEntity
  8
0
 62
     3
100
AcDbBlockBegin
  2
*D18
 70
     1
 10
0.0
 20
0.0
 30
0.0
  3
*D18
  1

  0
LINE
  5
9612
330
85FB
100
AcDbEntity
  8
実形
 62
     0
370
    18
100
AcDbLine
 10
1242.688850236784
 20
1389.970250377017
 30
0.0
 11
1242.688850236784
 21
1339.025319966123
 31
0.0
  0
LINE
  5
9613
330
85FB
100
AcDbEntity
  8
実形
 62
     0
370
    18
100
AcDbLine
 10
842.6888502367837
 20
1389.970250377017
 30
0.0
 11
842.6888502367837
 21
1339.025319966123
 31
0.0
  0
LINE
  5
9614
330
85FB
100
AcDbEntity
  8
実形
 62
     0
370
    18
100
AcDbLine
 10
1232.688850236784
 20
1339.025319966123
 30
0.0
 11
852.6888502367837
 21
1339.025319966123
 31
0.0
  0
INSERT
  5
9615
330
85FB
100
AcDbEntity
  8
実形
 62
     0
370
    18
100
AcDbBlockReference
  2
_Dot
 10
1242.688850236784
 20
1339.025319966123
 30
0.0
 41
10.0
 42
10.0
 43
10.0
  0
INSERT
  5
9616
330
85FB
100
AcDbEntity
  8
実形
 62
     0
370
    18
100
AcDbBlockReference
  2
_Dot
 10
842.6888502367837
 20
1339.025319966123
 30
0.0
 41
10.0
 42
10.0
 43
10.0
 50
180.0
  0
MTEXT
  5
9617
330
85FB
100
AcDbEntity
  8
実形
 62
     0
100
AcDbMText
 10
1042.688850236784
 20
1358.125319966123
 30
0.0
 40
25.0
 41
0.0
 71
     5
 72
     1
  1
400
 73
     1
 44
1.0
1001
ACAD
1000
MTEXTBEGIN
1070
    73
1070
     1
1070
    44
1040
1.0
1070
    74
1070
     0
1000
MTEXTEND
  0
POINT
  5
9618
330
85FB
100
AcDbEntity
  8
Defpoints
 62
     0
100
AcDbPoint
 10
1242.688850236784
 20
1454.970250377018
 30
0.0
  0
POINT
  5
9619
330
85FB
100
AcDbEntity
  8
Defpoints
 62
     0
100
AcDbPoint
 10
842.6888502367837
 20
1454.970250377017
 30
0.0
  0
POINT
  5
961A
330
85FB
100
AcDbEntity
  8
Defpoints
 62
     0
100
AcDbPoint
 10
842.6888502367837
 20
1339.025319966123
 30
0.0
  0
ENDBLK
  5
8606
330
85FB
100
AcDbEntity
  8
0
 62
     3
100
AcDbBlockEnd
  0
BLOCK
  5
8A0A
330
8A00
100
AcDbEntity
  8
0
 62
     3
100
AcDbBlockBegin
  2
*D19
 70
     1
 10
0.0
 20
0.0
 30
0.0
  3
*D19
  1

  0
LINE
  5
96CF
330
8A00
100
AcDbEntity
  8
実形
 62
     0
370
    18
100
AcDbLine
 10
1162.688850236784
 20
397.1335024047931
 30
0.0
 11
1162.688850236784
 21
345.2169038689353
 31
0.0
  0
LINE
  5
96D0
330
8A00
100
AcDbEntity
  8
実形
 62
     0
370
    18
100
AcDbLine
 10
1322.688850236784
 20
397.1335024047931
 30
0.0
 11
1322.688850236784
 21
345.2169038689353
 31
0.0
  0
LINE
  5
96D1
330
8A00
100
AcDbEntity
  8
実形
 62
     0
370
    18
100
AcDbLine
 10
1172.688850236784
 20
345.2169038689353
 30
0.0
 11
1312.688850236783
 21
345.2169038689353
 31
0.0
  0
INSERT
  5
96D2
330
8A00
100
AcDbEntity
  8
実形
 62
     0
370
    18
100
AcDbBlockReference
  2
_Dot
 10
1162.688850236784
 20
345.2169038689353
 30
0.0
 41
10.0
 42
10.0
 43
10.0
 50
180.0
  0
INSERT
  5
96D3
330
8A00
100
AcDbEntity
  8
実形
 62
     0
370
    18
100
AcDbBlockReference
  2
_Dot
 10
1322.688850236784
 20
345.2169038689353
 30
0.0
 41
10.0
 42
10.0
 43
10.0
  0
MTEXT
  5
96D4
330
8A00
100
AcDbEntity
  8
実形
 62
     0
100
AcDbMText
 10
1242.688850236784
 20
364.3169038689354
 30
0.0
 40
25.0
 41
0.0
 71
     5
 72
     1
  1
160
 73
     1
 44
1.0
1001
ACAD
1000
MTEXTBEGIN
1070
    73
1070
     1
1070
    44
1040
1.0
1070
    74
1070
     0
1000
MTEXTEND
  0
POINT
  5
96D5
330
8A00
100
AcDbEntity
  8
Defpoints
 62
     0
100
AcDbPoint
 10
1162.688850236784
 20
462.133502404793
 30
0.0
  0
POINT
  5
96D6
330
8A00
100
AcDbEntity
  8
Defpoints
 62
     0
100
AcDbPoint
 10
1322.688850236784
 20
462.133502404793
 30
0.0
  0
POINT
  5
96D7
330
8A00
100
AcDbEntity
  8
Defpoints
 62
     0
100
AcDbPoint
 10
1322.688850236784
 20
345.2169038689353
 30
0.0
  0
ENDBLK
  5
8A0B
330
8A00
100
AcDbEntity
  8
0
 62
     3
100
AcDbBlockEnd
  0
BLOCK
  5
8A16
330
8A0C
100
AcDbEntity
  8
0
 62
     3
100
AcDbBlockBegin
  2
*D20
 70
     1
 10
0.0
 20
0.0
 30
0.0
  3
*D20
  1

  0
LINE
  5
96C6
330
8A0C
100
AcDbEntity
  8
実形
 62
     0
370
    18
100
AcDbLine
 10
1152.188850236784
 20
397.1335024047931
 30
0.0
 11
1152.188850236784
 21
273.9746070536585
 31
0.0
  0
LINE
  5
96C7
330
8A0C
100
AcDbEntity
  8
実形
 62
     0
370
    18
100
AcDbLine
 10
1333.188850236783
 20
397.1335024047885
 30
0.0
 11
1333.188850236783
 21
273.9746070536585
 31
0.0
  0
LINE
  5
96C8
330
8A0C
100
AcDbEntity
  8
実形
 62
     0
370
    18
100
AcDbLine
 10
1162.188850236784
 20
273.9746070536585
 30
0.0
 11
1323.188850236783
 21
273.9746070536585
 31
0.0
  0
INSERT
  5
96C9
330
8A0C
100
AcDbEntity
  8
実形
 62
     0
370
    18
100
AcDbBlockReference
  2
_Dot
 10
1152.188850236784
 20
273.9746070536585
 30
0.0
 41
10.0
 42
10.0
 43
10.0
 50
180.0
  0
INSERT
  5
96CA
330
8A0C
100
AcDbEntity
  8
実形
 62
     0
370
    18
100
AcDbBlockReference
  2
_Dot
 10
1333.188850236783
 20
273.9746070536585
 30
0.0
 41
10.0
 42
10.0
 43
10.0
  0
MTEXT
  5
96CB
330
8A0C
100
AcDbEntity
  8
実形
 62
     0
100
AcDbMText
 10
1242.688850236783
 20
293.0746070536585
 30
0.0
 40
25.0
 41
0.0
 71
     5
 72
     1
  1
181
 73
     1
 44
1.0
1001
ACAD
1000
MTEXTBEGIN
1070
    73
1070
     1
1070
    44
1040
1.0
1070
    74
1070
     0
1000
MTEXTEND
  0
POINT
  5
96CC
330
8A0C
100
AcDbEntity
  8
Defpoints
 62
     0
100
AcDbPoint
 10
1152.188850236784
 20
462.133502404793
 30
0.0
  0
POINT
  5
96CD
330
8A0C
100
AcDbEntity
  8
Defpoints
 62
     0
100
AcDbPoint
 10
1333.188850236783
 20
462.1335024047884
 30
0.0
  0
POINT
  5
96CE
330
8A0C
100
AcDbEntity
  8
Defpoints
 62
     0
100
AcDbPoint
 10
1333.188850236783
 20
273.9746070536585
 30
0.0
  0
ENDBLK
  5
8A17
330
8A0C
100
AcDbEntity
  8
0
 62
     3
100
AcDbBlockEnd
  0
BLOCK
  5
8A22
330
8A18
100
AcDbEntity
  8
0
 62
     3
100
AcDbBlockBegin
  2
*D21
 70
     1
 10
0.0
 20
0.0
 30
0.0
  3
*D21
  1

  0
LINE
  5
96EC
330
8A18
100
AcDbEntity
  8
実形
 62
     0
370
    18
100
AcDbLine
 10
705.0171163581714
 20
677.1335024047931
 30
0.0
 11
724.3072502934488
 21
677.1335024047931
 31
0.0
  0
LINE
  5
96ED
330
8A18
100
AcDbEntity
  8
実形
 62
     0
370
    18
100
AcDbLine
 10
769.1227042777123
 20
487.1335024047935
 30
0.0
 11
724.3072502934488
 21
487.1335024047935
 31
0.0
  0
LINE
  5
96EE
330
8A18
100
AcDbEntity
  8
実形
 62
     0
370
    18
100
AcDbLine
 10
724.3072502934488
 20
667.1335024047931
 30
0.0
 11
724.3072502934488
 21
497.1335024047935
 31
0.0
  0
MTEXT
  5
96EF
330
8A18
100
AcDbEntity
  8
実形
 62
     0
100
AcDbMText
 10
701.6370246939714
 20
576.3117483346959
 30
0.0
 40
25.0
 41
0.0
 71
     5
 72
     1
  1
195
 11
0.0000000000000001
 21
1.0
 31
0.0
 73
     1
 44
1.0
1001
ACAD
1000
MTEXTBEGIN
1070
    73
1070
     1
1070
    44
1040
1.0
1070
    74
1070
     0
1000
MTEXTEND
  0
INSERT
  5
96F0
330
8A18
100
AcDbEntity
  8
実形
 62
     0
370
    18
100
AcDbBlockReference
  2
_Dot
 10
724.3072502934488
 20
677.1335024047931
 30
0.0
 41
10.0
 42
10.0
 43
10.0
 50
90.0
  0
INSERT
  5
96F1
330
8A18
100
AcDbEntity
  8
実形
 62
     0
370
    18
100
AcDbBlockReference
  2
_Dot
 10
724.3072502934488
 20
487.1335024047935
 30
0.0
 41
10.0
 42
10.0
 43
10.0
 50
270.0
  0
POINT
  5
96F2
330
8A18
100
AcDbEntity
  8
Defpoints
 62
     0
100
AcDbPoint
 10
770.0171163581714
 20
677.133502404793
 30
0.0
  0
POINT
  5
96F3
330
8A18
100
AcDbEntity
  8
Defpoints
 62
     0
100
AcDbPoint
 10
834.1227042777124
 20
487.1335024047935
 30
0.0
  0
POINT
  5
96F4
330
8A18
100
AcDbEntity
  8
Defpoints
 62
     0
100
AcDbPoint
 10
724.3072502934488
 20
487.1335024047935
 30
0.0
  0
ENDBLK
  5
8A23
330
8A18
100
AcDbEntity
  8
0
 62
     3
100
AcDbBlockEnd
  0
BLOCK
  5
8A2E
330
8A24
100
AcDbEntity
  8
0
 62
     3
100
AcDbBlockBegin
  2
*D22
 70
     1
 10
0.0
 20
0.0
 30
0.0
  3
*D22
  1

  0
LINE
  5
96A2
330
8A24
100
AcDbEntity
  8
実形
 62
     0
370
    18
100
AcDbLine
 10
769.1227042777123
 20
677.133502404793
 30
0.0
 11
724.3072502934488
 21
677.1335024047931
 31
0.0
  0
LINE
  5
96A3
330
8A24
100
AcDbEntity
  8
実形
 62
     0
370
    18
100
AcDbLine
 10
769.1713015931367
 20
472.1335024047935
 30
0.0
 11
724.3072502934488
 21
472.1335024047935
 31
0.0
  0
LINE
  5
96A4
330
8A24
100
AcDbEntity
  8
実形
 62
     0
370
    18
100
AcDbLine
 10
724.3072502934488
 20
667.1335024047931
 30
0.0
 11
724.3072502934488
 21
482.1335024047934
 31
0.0
  0
MTEXT
  5
96A5
330
8A24
100
AcDbEntity
  8
実形
 62
     0
100
AcDbMText
 10
745.9072502934487
 20
437.145551492942
 30
0.0
 40
25.0
 41
0.0
 71
     5
 72
     1
  1
    
 11
0.0000000000000001
 21
1.0
 31
0.0
 73
     1
 44
1.0
1001
ACAD
1000
MTEXTBEGIN
1070
    73
1070
     1
1070
    44
1040
1.0
1070
    74
1070
     0
1000
MTEXTEND
  0
INSERT
  5
96A6
330
8A24
100
AcDbEntity
  8
実形
 62
     0
370
    18
100
AcDbBlockReference
  2
_Dot
 10
724.3072502934488
 20
677.1335024047931
 30
0.0
 41
10.0
 42
10.0
 43
10.0
 50
90.0
  0
INSERT
  5
96A7
330
8A24
100
AcDbEntity
  8
実形
 62
     0
370
    18
100
AcDbBlockReference
  2
_Dot
 10
724.3072502934488
 20
472.1335024047935
 30
0.0
 41
10.0
 42
10.0
 43
10.0
 50
270.0
  0
POINT
  5
96A8
330
8A24
100
AcDbEntity
  8
Defpoints
 62
     0
100
AcDbPoint
 10
834.1227042777124
 20
677.133502404793
 30
0.0
  0
POINT
  5
96A9
330
8A24
100
AcDbEntity
  8
Defpoints
 62
     0
100
AcDbPoint
 10
834.1713015931366
 20
472.1335024047935
 30
0.0
  0
POINT
  5
96AA
330
8A24
100
AcDbEntity
  8
Defpoints
 62
     0
100
AcDbPoint
 10
724.3072502934488
 20
472.1335024047935
 30
0.0
  0
ENDBLK
  5
8A2F
330
8A24
100
AcDbEntity
  8
0
 62
     3
100
AcDbBlockEnd
  0
BLOCK
  5
8A5E
330
8A54
100
AcDbEntity
  8
0
 62
     3
100
AcDbBlockBegin
  2
*D23
 70
     1
 10
0.0
 20
0.0
 30
0.0
  3
*D23
  1

  0
LINE
  5
96BD
330
8A54
100
AcDbEntity
  8
実形
 62
     0
370
    18
100
AcDbLine
 10
1162.688850236784
 20
397.1335024047931
 30
0.0
 11
1162.688850236784
 21
345.2169038689353
 31
0.0
  0
LINE
  5
96BE
330
8A54
100
AcDbEntity
  8
実形
 62
     0
370
    18
100
AcDbLine
 10
1322.688850236784
 20
397.1335024047931
 30
0.0
 11
1322.688850236784
 21
345.2169038689353
 31
0.0
  0
LINE
  5
96BF
330
8A54
100
AcDbEntity
  8
実形
 62
     0
370
    18
100
AcDbLine
 10
1172.688850236784
 20
345.2169038689353
 30
0.0
 11
1312.688850236783
 21
345.2169038689353
 31
0.0
  0
INSERT
  5
96C0
330
8A54
100
AcDbEntity
  8
実形
 62
     0
370
    18
100
AcDbBlockReference
  2
_Dot
 10
1162.688850236784
 20
345.2169038689353
 30
0.0
 41
10.0
 42
10.0
 43
10.0
 50
180.0
  0
INSERT
  5
96C1
330
8A54
100
AcDbEntity
  8
実形
 62
     0
370
    18
100
AcDbBlockReference
  2
_Dot
 10
1322.688850236784
 20
345.2169038689353
 30
0.0
 41
10.0
 42
10.0
 43
10.0
  0
MTEXT
  5
96C2
330
8A54
100
AcDbEntity
  8
実形
 62
     0
100
AcDbMText
 10
1242.688850236784
 20
364.3169038689354
 30
0.0
 40
25.0
 41
0.0
 71
     5
 72
     1
  1
160
 73
     1
 44
1.0
1001
ACAD
1000
MTEXTBEGIN
1070
    73
1070
     1
1070
    44
1040
1.0
1070
    74
1070
     0
1000
MTEXTEND
  0
POINT
  5
96C3
330
8A54
100
AcDbEntity
  8
Defpoints
 62
     0
100
AcDbPoint
 10
1162.688850236784
 20
462.133502404793
 30
0.0
  0
POINT
  5
96C4
330
8A54
100
AcDbEntity
  8
Defpoints
 62
     0
100
AcDbPoint
 10
1322.688850236784
 20
462.133502404793
 30
0.0
  0
POINT
  5
96C5
330
8A54
100
AcDbEntity
  8
Defpoints
 62
     0
100
AcDbPoint
 10
1322.688850236784
 20
345.2169038689353
 30
0.0
  0
ENDBLK
  5
8A5F
330
8A54
100
AcDbEntity
  8
0
 62
     3
100
AcDbBlockEnd
  0
BLOCK
  5
8A6A
330
8A60
100
AcDbEntity
  8
0
 62
     3
100
AcDbBlockBegin
  2
*D24
 70
     1
 10
0.0
 20
0.0
 30
0.0
  3
*D24
  1

  0
LINE
  5
96B4
330
8A60
100
AcDbEntity
  8
実形
 62
     0
370
    18
100
AcDbLine
 10
1152.188850236784
 20
397.1335024047931
 30
0.0
 11
1152.188850236784
 21
273.9746070536585
 31
0.0
  0
LINE
  5
96B5
330
8A60
100
AcDbEntity
  8
実形
 62
     0
370
    18
100
AcDbLine
 10
1333.188850236783
 20
397.1335024047885
 30
0.0
 11
1333.188850236783
 21
273.9746070536585
 31
0.0
  0
LINE
  5
96B6
330
8A60
100
AcDbEntity
  8
実形
 62
     0
370
    18
100
AcDbLine
 10
1162.188850236784
 20
273.9746070536585
 30
0.0
 11
1323.188850236783
 21
273.9746070536585
 31
0.0
  0
INSERT
  5
96B7
330
8A60
100
AcDbEntity
  8
実形
 62
     0
370
    18
100
AcDbBlockReference
  2
_Dot
 10
1152.188850236784
 20
273.9746070536585
 30
0.0
 41
10.0
 42
10.0
 43
10.0
 50
180.0
  0
INSERT
  5
96B8
330
8A60
100
AcDbEntity
  8
実形
 62
     0
370
    18
100
AcDbBlockReference
  2
_Dot
 10
1333.188850236783
 20
273.9746070536585
 30
0.0
 41
10.0
 42
10.0
 43
10.0
  0
MTEXT
  5
96B9
330
8A60
100
AcDbEntity
  8
実形
 62
     0
100
AcDbMText
 10
1242.688850236783
 20
293.0746070536585
 30
0.0
 40
25.0
 41
0.0
 71
     5
 72
     1
  1
181
 73
     1
 44
1.0
1001
ACAD
1000
MTEXTBEGIN
1070
    73
1070
     1
1070
    44
1040
1.0
1070
    74
1070
     0
1000
MTEXTEND
  0
POINT
  5
96BA
330
8A60
100
AcDbEntity
  8
Defpoints
 62
     0
100
AcDbPoint
 10
1152.188850236784
 20
462.133502404793
 30
0.0
  0
POINT
  5
96BB
330
8A60
100
AcDbEntity
  8
Defpoints
 62
     0
100
AcDbPoint
 10
1333.188850236783
 20
462.1335024047884
 30
0.0
  0
POINT
  5
96BC
330
8A60
100
AcDbEntity
  8
Defpoints
 62
     0
100
AcDbPoint
 10
1333.188850236783
 20
273.9746070536585
 30
0.0
  0
ENDBLK
  5
8A6B
330
8A60
100
AcDbEntity
  8
0
 62
     3
100
AcDbBlockEnd
  0
BLOCK
  5
8A76
330
8A6C
100
AcDbEntity
  8
0
 62
     3
100
AcDbBlockBegin
  2
*D25
 70
     1
 10
0.0
 20
0.0
 30
0.0
  3
*D25
  1

  0
LINE
  5
9699
330
8A6C
100
AcDbEntity
  8
実形
 62
     0
370
    18
100
AcDbLine
 10
705.0171163581714
 20
677.1335024047931
 30
0.0
 11
724.3072502934488
 21
677.1335024047931
 31
0.0
  0
LINE
  5
969A
330
8A6C
100
AcDbEntity
  8
実形
 62
     0
370
    18
100
AcDbLine
 10
769.1227042777123
 20
487.1335024047935
 30
0.0
 11
724.3072502934488
 21
487.1335024047935
 31
0.0
  0
LINE
  5
969B
330
8A6C
100
AcDbEntity
  8
実形
 62
     0
370
    18
100
AcDbLine
 10
724.3072502934488
 20
667.1335024047931
 30
0.0
 11
724.3072502934488
 21
497.1335024047935
 31
0.0
  0
MTEXT
  5
969C
330
8A6C
100
AcDbEntity
  8
実形
 62
     0
100
AcDbMText
 10
652.2690004376472
 20
575.3439917483219
 30
0.0
 40
25.0
 41
0.0
 71
     5
 72
     1
  1
205
 11
0.0000000000000001
 21
1.0
 31
0.0
 73
     1
 44
1.0
1001
ACAD
1000
MTEXTBEGIN
1070
    73
1070
     1
1070
    44
1040
1.0
1070
    74
1070
     0
1000
MTEXTEND
  0
INSERT
  5
969D
330
8A6C
100
AcDbEntity
  8
実形
 62
     0
370
    18
100
AcDbBlockReference
  2
_Dot
 10
724.3072502934488
 20
677.1335024047931
 30
0.0
 41
10.0
 42
10.0
 43
10.0
 50
90.0
  0
INSERT
  5
969E
330
8A6C
100
AcDbEntity
  8
実形
 62
     0
370
    18
100
AcDbBlockReference
  2
_Dot
 10
724.3072502934488
 20
487.1335024047935
 30
0.0
 41
10.0
 42
10.0
 43
10.0
 50
270.0
  0
POINT
  5
969F
330
8A6C
100
AcDbEntity
  8
Defpoints
 62
     0
100
AcDbPoint
 10
770.0171163581714
 20
677.133502404793
 30
0.0
  0
POINT
  5
96A0
330
8A6C
100
AcDbEntity
  8
Defpoints
 62
     0
100
AcDbPoint
 10
834.1227042777124
 20
487.1335024047935
 30
0.0
  0
POINT
  5
96A1
330
8A6C
100
AcDbEntity
  8
Defpoints
 62
     0
100
AcDbPoint
 10
724.3072502934488
 20
487.1335024047935
 30
0.0
  0
ENDBLK
  5
8A77
330
8A6C
100
AcDbEntity
  8
0
 62
     3
100
AcDbBlockEnd
  0
BLOCK
  5
8A82
330
8A78
100
AcDbEntity
  8
0
 62
     3
100
AcDbBlockBegin
  2
*D26
 70
     1
 10
0.0
 20
0.0
 30
0.0
  3
*D26
  1

  0
LINE
  5
96F5
330
8A78
100
AcDbEntity
  8
実形
 62
     0
370
    18
100
AcDbLine
 10
769.1227042777123
 20
677.133502404793
 30
0.0
 11
724.3072502934488
 21
677.1335024047931
 31
0.0
  0
LINE
  5
96F6
330
8A78
100
AcDbEntity
  8
実形
 62
     0
370
    18
100
AcDbLine
 10
769.1713015931367
 20
472.1335024047935
 30
0.0
 11
724.3072502934488
 21
472.1335024047935
 31
0.0
  0
LINE
  5
96F7
330
8A78
100
AcDbEntity
  8
実形
 62
     0
370
    18
100
AcDbLine
 10
724.3072502934488
 20
667.1335024047931
 30
0.0
 11
724.3072502934488
 21
482.1335024047934
 31
0.0
  0
MTEXT
  5
96F8
330
8A78
100
AcDbEntity
  8
実形
 62
     0
100
AcDbMText
 10
702.3337384577053
 20
494.3907435117198
 30
0.0
 40
25.0
 41
0.0
 71
     5
 72
     1
  1
10
 11
0.0000000000000001
 21
1.0
 31
0.0
 73
     1
 44
1.0
1001
ACAD
1000
MTEXTBEGIN
1070
    73
1070
     1
1070
    44
1040
1.0
1070
    74
1070
     0
1000
MTEXTEND
  0
INSERT
  5
96F9
330
8A78
100
AcDbEntity
  8
実形
 62
     0
370
    18
100
AcDbBlockReference
  2
_Dot
 10
724.3072502934488
 20
677.1335024047931
 30
0.0
 41
10.0
 42
10.0
 43
10.0
 50
90.0
  0
INSERT
  5
96FA
330
8A78
100
AcDbEntity
  8
実形
 62
     0
370
    18
100
AcDbBlockReference
  2
_Dot
 10
724.3072502934488
 20
472.1335024047935
 30
0.0
 41
10.0
 42
10.0
 43
10.0
 50
270.0
  0
POINT
  5
96FB
330
8A78
100
AcDbEntity
  8
Defpoints
 62
     0
100
AcDbPoint
 10
834.1227042777124
 20
677.133502404793
 30
0.0
  0
POINT
  5
96FC
330
8A78
100
AcDbEntity
  8
Defpoints
 62
     0
100
AcDbPoint
 10
834.1713015931366
 20
472.1335024047935
 30
0.0
  0
POINT
  5
96FD
330
8A78
100
AcDbEntity
  8
Defpoints
 62
     0
100
AcDbPoint
 10
724.3072502934488
 20
472.1335024047935
 30
0.0
  0
ENDBLK
  5
8A83
330
8A78
100
AcDbEntity
  8
0
 62
     3
100
AcDbBlockEnd
  0
BLOCK
  5
8A9A
330
8A90
100
AcDbEntity
  8
0
 62
     3
100
AcDbBlockBegin
  2
*D27
 70
     1
 10
0.0
 20
0.0
 30
0.0
  3
*D27
  1

  0
LINE
  5
9687
330
8A90
100
AcDbEntity
  8
実形
 62
     0
370
    18
100
AcDbLine
 10
732.9443789335897
 20
677.1335024047931
 30
0.0
 11
671.0369667285637
 21
677.1335024047931
 31
0.0
  0
LINE
  5
9688
330
8A90
100
AcDbEntity
  8
実形
 62
     0
370
    18
100
AcDbLine
 10
719.945880996153
 20
462.133502404793
 30
0.0
 11
671.0369667285637
 21
462.133502404793
 31
0.0
  0
LINE
  5
9689
330
8A90
100
AcDbEntity
  8
実形
 62
     0
370
    18
100
AcDbLine
 10
671.0369667285637
 20
667.1335024047931
 30
0.0
 11
671.0369667285637
 21
472.133502404793
 31
0.0
  0
MTEXT
  5
968A
330
8A90
100
AcDbEntity
  8
実形
 62
     0
100
AcDbMText
 10
649.2574668639743
 20
478.190513992552
 30
0.0
 40
25.0
 41
0.0
 71
     5
 72
     1
  1
8
 11
0.0000000000000001
 21
1.0
 31
0.0
 73
     1
 44
1.0
1001
ACAD
1000
MTEXTBEGIN
1070
    73
1070
     1
1070
    44
1040
1.0
1070
    74
1070
     0
1000
MTEXTEND
  0
INSERT
  5
968B
330
8A90
100
AcDbEntity
  8
実形
 62
     0
370
    18
100
AcDbBlockReference
  2
_Dot
 10
671.0369667285637
 20
677.1335024047931
 30
0.0
 41
10.0
 42
10.0
 43
10.0
 50
90.0
  0
INSERT
  5
968C
330
8A90
100
AcDbEntity
  8
実形
 62
     0
370
    18
100
AcDbBlockReference
  2
_Dot
 10
671.0369667285637
 20
462.133502404793
 30
0.0
 41
10.0
 42
10.0
 43
10.0
 50
270.0
  0
POINT
  5
968D
330
8A90
100
AcDbEntity
  8
Defpoints
 62
     0
100
AcDbPoint
 10
797.9443789335897
 20
677.133502404793
 30
0.0
  0
POINT
  5
968E
330
8A90
100
AcDbEntity
  8
Defpoints
 62
     0
100
AcDbPoint
 10
784.9458809961531
 20
462.133502404793
 30
0.0
  0
POINT
  5
968F
330
8A90
100
AcDbEntity
  8
Defpoints
 62
     0
100
AcDbPoint
 10
671.0369667285637
 20
462.133502404793
 30
0.0
  0
ENDBLK
  5
8A9B
330
8A90
100
AcDbEntity
  8
0
 62
     3
100
AcDbBlockEnd
  0
BLOCK
  5
8AA6
330
8A9C
100
AcDbEntity
  8
0
 62
     3
100
AcDbBlockBegin
  2
*D28
 70
     1
 10
0.0
 20
0.0
 30
0.0
  3
*D28
  1

  0
LINE
  5
967E
330
8A9C
100
AcDbEntity
  8
実形
 62
     0
370
    18
100
AcDbLine
 10
737.1758118322455
 20
677.1335024047931
 30
0.0
 11
616.3309553311361
 21
677.1335024047931
 31
0.0
  0
LINE
  5
967F
330
8A9C
100
AcDbEntity
  8
実形
 62
     0
370
    18
100
AcDbLine
 10
673.1083985794417
 20
462.133502404793
 30
0.0
 11
616.3309553311361
 21
462.133502404793
 31
0.0
  0
LINE
  5
9680
330
8A9C
100
AcDbEntity
  8
実形
 62
     0
370
    18
100
AcDbLine
 10
616.3309553311361
 20
667.1335024047931
 30
0.0
 11
616.3309553311361
 21
472.133502404793
 31
0.0
  0
MTEXT
  5
9681
330
8A9C
100
AcDbEntity
  8
実形
 62
     0
100
AcDbMText
 10
592.6076230368853
 20
574.7408326350944
 30
0.0
 40
25.0
 41
0.0
 71
     5
 72
     1
  1
213
 11
0.0000000000000001
 21
1.0
 31
0.0
 73
     1
 44
1.0
1001
ACAD
1000
MTEXTBEGIN
1070
    73
1070
     1
1070
    44
1040
1.0
1070
    74
1070
     0
1000
MTEXTEND
  0
INSERT
  5
9682
330
8A9C
100
AcDbEntity
  8
実形
 62
     0
370
    18
100
AcDbBlockReference
  2
_Dot
 10
616.3309553311361
 20
677.1335024047931
 30
0.0
 41
10.0
 42
10.0
 43
10.0
 50
90.0
  0
INSERT
  5
9683
330
8A9C
100
AcDbEntity
  8
実形
 62
     0
370
    18
100
AcDbBlockReference
  2
_Dot
 10
616.3309553311361
 20
462.133502404793
 30
0.0
 41
10.0
 42
10.0
 43
10.0
 50
270.0
  0
POINT
  5
9684
330
8A9C
100
AcDbEntity
  8
Defpoints
 62
     0
100
AcDbPoint
 10
802.1758118322455
 20
677.133502404793
 30
0.0
  0
POINT
  5
9685
330
8A9C
100
AcDbEntity
  8
Defpoints
 62
     0
100
AcDbPoint
 10
738.1083985794417
 20
462.133502404793
 30
0.0
  0
POINT
  5
9686
330
8A9C
100
AcDbEntity
  8
Defpoints
 62
     0
100
AcDbPoint
 10
616.3309553311361
 20
462.133502404793
 30
0.0
  0
ENDBLK
  5
8AA7
330
8A9C
100
AcDbEntity
  8
0
 62
     3
100
AcDbBlockEnd
  0
BLOCK
  5
8B8C
330
8B82
100
AcDbEntity
  8
0
 62
     3
100
AcDbBlockBegin
  2
*D29
 70
     1
 10
0.0
 20
0.0
 30
0.0
  3
*D29
  1

  0
LINE
  5
9675
330
8B82
100
AcDbEntity
  8
実形
 62
     0
370
    18
100
AcDbLine
 10
722.8751864863498
 20
472.1335024047935
 30
0.0
 11
671.0369667285637
 21
472.1335024047935
 31
0.0
  0
LINE
  5
9676
330
8B82
100
AcDbEntity
  8
実形
 62
     0
370
    18
100
AcDbLine
 10
704.1713015931367
 20
677.1335024047931
 30
0.0
 11
671.0369667285637
 21
677.1335024047931
 31
0.0
  0
LINE
  5
9677
330
8B82
100
AcDbEntity
  8
実形
 62
     0
370
    18
100
AcDbLine
 10
671.0369667285637
 20
482.1335024047934
 30
0.0
 11
671.0369667285637
 21
667.1335024047931
 31
0.0
  0
INSERT
  5
9678
330
8B82
100
AcDbEntity
  8
実形
 62
     0
370
    18
100
AcDbBlockReference
  2
_Dot
 10
671.0369667285637
 20
472.1335024047935
 30
0.0
 41
10.0
 42
10.0
 43
10.0
 50
270.0
  0
INSERT
  5
9679
330
8B82
100
AcDbEntity
  8
実形
 62
     0
370
    18
100
AcDbBlockReference
  2
_Dot
 10
671.0369667285637
 20
677.1335024047931
 30
0.0
 41
10.0
 42
10.0
 43
10.0
 50
90.0
  0
MTEXT
  5
967A
330
8B82
100
AcDbEntity
  8
実形
 62
     0
100
AcDbMText
 10
651.9369667285635
 20
574.6335024047935
 30
0.0
 40
25.0
 41
0.0
 71
     5
 72
     1
  1
    
 11
0.0000000000000001
 21
1.0
 31
0.0
 73
     1
 44
1.0
1001
ACAD
1000
MTEXTBEGIN
1070
    73
1070
     1
1070
    44
1040
1.0
1070
    74
1070
     0
1000
MTEXTEND
  0
POINT
  5
967B
330
8B82
100
AcDbEntity
  8
Defpoints
 62
     0
100
AcDbPoint
 10
787.8751864863497
 20
472.1335024047935
 30
0.0
  0
POINT
  5
967C
330
8B82
100
AcDbEntity
  8
Defpoints
 62
     0
100
AcDbPoint
 10
769.1713015931367
 20
677.133502404793
 30
0.0
  0
POINT
  5
967D
330
8B82
100
AcDbEntity
  8
Defpoints
 62
     0
100
AcDbPoint
 10
671.0369667285637
 20
677.1335024047931
 30
0.0
  0
ENDBLK
  5
8B8D
330
8B82
100
AcDbEntity
  8
0
 62
     3
100
AcDbBlockEnd
  0
BLOCK
  5
8DAE
330
8DA4
100
AcDbEntity
  8
0
 62
     3
100
AcDbBlockBegin
  2
*D30
 70
     1
 10
0.0
 20
0.0
 30
0.0
  3
*D30
  1

  0
LINE
  5
966C
330
8DA4
100
AcDbEntity
  8
実形
 62
     0
370
    18
100
AcDbLine
 10
2140.482662534945
 20
1621.67196328526
 30
0.0
 11
2192.399261070802
 21
1621.67196328526
 31
0.0
  0
LINE
  5
966D
330
8DA4
100
AcDbEntity
  8
実形
 62
     0
370
    18
100
AcDbLine
 10
2140.482662534945
 20
1461.67196328526
 30
0.0
 11
2192.399261070802
 21
1461.67196328526
 31
0.0
  0
LINE
  5
966E
330
8DA4
100
AcDbEntity
  8
実形
 62
     0
370
    18
100
AcDbLine
 10
2192.399261070802
 20
1611.67196328526
 30
0.0
 11
2192.399261070802
 21
1471.67196328526
 31
0.0
  0
INSERT
  5
966F
330
8DA4
100
AcDbEntity
  8
実形
 62
     0
370
    18
100
AcDbBlockReference
  2
_Dot
 10
2192.399261070802
 20
1621.67196328526
 30
0.0
 41
10.0
 42
10.0
 43
10.0
 50
90.0
  0
INSERT
  5
9670
330
8DA4
100
AcDbEntity
  8
実形
 62
     0
370
    18
100
AcDbBlockReference
  2
_Dot
 10
2192.399261070802
 20
1461.67196328526
 30
0.0
 41
10.0
 42
10.0
 43
10.0
 50
270.0
  0
MTEXT
  5
9671
330
8DA4
100
AcDbEntity
  8
実形
 62
     0
100
AcDbMText
 10
2173.299261070802
 20
1541.67196328526
 30
0.0
 40
25.0
 41
0.0
 71
     5
 72
     1
  1
160
 11
0.0000000000000001
 21
1.0
 31
0.0
 73
     1
 44
1.0
1001
ACAD
1000
MTEXTBEGIN
1070
    73
1070
     1
1070
    44
1040
1.0
1070
    74
1070
     0
1000
MTEXTEND
  0
POINT
  5
9672
330
8DA4
100
AcDbEntity
  8
Defpoints
 62
     0
100
AcDbPoint
 10
2075.482662534945
 20
1621.67196328526
 30
0.0
  0
POINT
  5
9673
330
8DA4
100
AcDbEntity
  8
Defpoints
 62
     0
100
AcDbPoint
 10
2075.482662534945
 20
1461.67196328526
 30
0.0
  0
POINT
  5
9674
330
8DA4
100
AcDbEntity
  8
Defpoints
 62
     0
100
AcDbPoint
 10
2192.399261070802
 20
1461.67196328526
 30
0.0
  0
ENDBLK
  5
8DAF
330
8DA4
100
AcDbEntity
  8
0
 62
     3
100
AcDbBlockEnd
  0
BLOCK
  5
8DBA
330
8DB0
100
AcDbEntity
  8
0
 62
     3
100
AcDbBlockBegin
  2
*D31
 70
     1
 10
0.0
 20
0.0
 30
0.0
  3
*D31
  1

  0
LINE
  5
9663
330
8DB0
100
AcDbEntity
  8
実形
 62
     0
370
    18
100
AcDbLine
 10
2140.482662534945
 20
1632.17196328526
 30
0.0
 11
2263.641557886079
 21
1632.17196328526
 31
0.0
  0
LINE
  5
9664
330
8DB0
100
AcDbEntity
  8
実形
 62
     0
370
    18
100
AcDbLine
 10
2140.482662534949
 20
1451.171963285261
 30
0.0
 11
2263.641557886079
 21
1451.171963285261
 31
0.0
  0
LINE
  5
9665
330
8DB0
100
AcDbEntity
  8
実形
 62
     0
370
    18
100
AcDbLine
 10
2263.641557886079
 20
1622.17196328526
 30
0.0
 11
2263.641557886079
 21
1461.171963285261
 31
0.0
  0
INSERT
  5
9666
330
8DB0
100
AcDbEntity
  8
実形
 62
     0
370
    18
100
AcDbBlockReference
  2
_Dot
 10
2263.641557886079
 20
1632.17196328526
 30
0.0
 41
10.0
 42
10.0
 43
10.0
 50
90.0
  0
INSERT
  5
9667
330
8DB0
100
AcDbEntity
  8
実形
 62
     0
370
    18
100
AcDbBlockReference
  2
_Dot
 10
2263.641557886079
 20
1451.171963285261
 30
0.0
 41
10.0
 42
10.0
 43
10.0
 50
270.0
  0
MTEXT
  5
9668
330
8DB0
100
AcDbEntity
  8
実形
 62
     0
100
AcDbMText
 10
2244.541557886079
 20
1541.67196328526
 30
0.0
 40
25.0
 41
0.0
 71
     5
 72
     1
  1
181
 11
0.0000000000000001
 21
1.0
 31
0.0
 73
     1
 44
1.0
1001
ACAD
1000
MTEXTBEGIN
1070
    73
1070
     1
1070
    44
1040
1.0
1070
    74
1070
     0
1000
MTEXTEND
  0
POINT
  5
9669
330
8DB0
100
AcDbEntity
  8
Defpoints
 62
     0
100
AcDbPoint
 10
2075.482662534945
 20
1632.17196328526
 30
0.0
  0
POINT
  5
966A
330
8DB0
100
AcDbEntity
  8
Defpoints
 62
     0
100
AcDbPoint
 10
2075.482662534949
 20
1451.171963285261
 30
0.0
  0
POINT
  5
966B
330
8DB0
100
AcDbEntity
  8
Defpoints
 62
     0
100
AcDbPoint
 10
2263.641557886079
 20
1451.171963285261
 30
0.0
  0
ENDBLK
  5
8DBB
330
8DB0
100
AcDbEntity
  8
0
 62
     3
100
AcDbBlockEnd
  0
BLOCK
  5
8ED1
330
8EC7
100
AcDbEntity
  8
0
 62
     3
100
AcDbBlockBegin
  2
*D32
 70
     1
 10
0.0
 20
0.0
 30
0.0
  3
*D32
  1

  0
LINE
  5
96FE
330
8EC7
100
AcDbEntity
  8
実形
 62
     0
370
    18
100
AcDbLine
 10
1862.482662534944
 20
1138.752153897307
 30
0.0
 11
1862.482662534944
 21
1158.042287832584
 31
0.0
  0
LINE
  5
96FF
330
8EC7
100
AcDbEntity
  8
実形
 62
     0
370
    18
100
AcDbLine
 10
2052.482662534943
 20
1202.857741816848
 30
0.0
 11
2052.482662534943
 21
1158.042287832584
 31
0.0
  0
LINE
  5
9700
330
8EC7
100
AcDbEntity
  8
実形
 62
     0
370
    18
100
AcDbLine
 10
1872.482662534944
 20
1158.042287832584
 30
0.0
 11
2042.482662534943
 21
1158.042287832584
 31
0.0
  0
MTEXT
  5
9701
330
8EC7
100
AcDbEntity
  8
実形
 62
     0
100
AcDbMText
 10
1943.503109563226
 20
1179.642287832584
 30
0.0
 40
25.0
 41
0.0
 71
     5
 72
     1
  1
195
 73
     1
 44
1.0
1001
ACAD
1000
MTEXTBEGIN
1070
    73
1070
     1
1070
    44
1040
1.0
1070
    74
1070
     0
1000
MTEXTEND
  0
INSERT
  5
9702
330
8EC7
100
AcDbEntity
  8
実形
 62
     0
370
    18
100
AcDbBlockReference
  2
_Dot
 10
1862.482662534944
 20
1158.042287832584
 30
0.0
 41
10.0
 42
10.0
 43
10.0
 50
180.0
  0
INSERT
  5
9703
330
8EC7
100
AcDbEntity
  8
実形
 62
     0
370
    18
100
AcDbBlockReference
  2
_Dot
 10
2052.482662534943
 20
1158.042287832584
 30
0.0
 41
10.0
 42
10.0
 43
10.0
  0
POINT
  5
9704
330
8EC7
100
AcDbEntity
  8
Defpoints
 62
     0
100
AcDbPoint
 10
1862.482662534944
 20
1203.752153897307
 30
0.0
  0
POINT
  5
9705
330
8EC7
100
AcDbEntity
  8
Defpoints
 62
     0
100
AcDbPoint
 10
2052.482662534943
 20
1267.857741816848
 30
0.0
  0
POINT
  5
9706
330
8EC7
100
AcDbEntity
  8
Defpoints
 62
     0
100
AcDbPoint
 10
2052.482662534943
 20
1158.042287832584
 30
0.0
  0
ENDBLK
  5
8ED2
330
8EC7
100
AcDbEntity
  8
0
 62
     3
100
AcDbBlockEnd
  0
BLOCK
  5
8EDD
330
8ED3
100
AcDbEntity
  8
0
 62
     3
100
AcDbBlockBegin
  2
*D33
 70
     1
 10
0.0
 20
0.0
 30
0.0
  3
*D33
  1

  0
LINE
  5
9707
330
8ED3
100
AcDbEntity
  8
実形
 62
     0
370
    18
100
AcDbLine
 10
1862.482662534944
 20
1202.857741816848
 30
0.0
 11
1862.482662534944
 21
1158.042287832584
 31
0.0
  0
LINE
  5
9708
330
8ED3
100
AcDbEntity
  8
実形
 62
     0
370
    18
100
AcDbLine
 10
2067.482662534943
 20
1202.906339132272
 30
0.0
 11
2067.482662534943
 21
1158.042287832584
 31
0.0
  0
LINE
  5
9709
330
8ED3
100
AcDbEntity
  8
実形
 62
     0
370
    18
100
AcDbLine
 10
1872.482662534944
 20
1158.042287832584
 30
0.0
 11
2057.482662534944
 21
1158.042287832584
 31
0.0
  0
MTEXT
  5
970A
330
8ED3
100
AcDbEntity
  8
実形
 62
     0
100
AcDbMText
 10
2028.272786550872
 20
1179.642287832584
 30
0.0
 40
25.0
 41
0.0
 71
     5
 72
     1
  1
10
 73
     1
 44
1.0
1001
ACAD
1000
MTEXTBEGIN
1070
    73
1070
     1
1070
    44
1040
1.0
1070
    74
1070
     0
1000
MTEXTEND
  0
INSERT
  5
970B
330
8ED3
100
AcDbEntity
  8
実形
 62
     0
370
    18
100
AcDbBlockReference
  2
_Dot
 10
1862.482662534944
 20
1158.042287832584
 30
0.0
 41
10.0
 42
10.0
 43
10.0
 50
180.0
  0
INSERT
  5
970C
330
8ED3
100
AcDbEntity
  8
実形
 62
     0
370
    18
100
AcDbBlockReference
  2
_Dot
 10
2067.482662534943
 20
1158.042287832584
 30
0.0
 41
10.0
 42
10.0
 43
10.0
  0
POINT
  5
970D
330
8ED3
100
AcDbEntity
  8
Defpoints
 62
     0
100
AcDbPoint
 10
1862.482662534944
 20
1267.857741816848
 30
0.0
  0
POINT
  5
970E
330
8ED3
100
AcDbEntity
  8
Defpoints
 62
     0
100
AcDbPoint
 10
2067.482662534943
 20
1267.906339132272
 30
0.0
  0
POINT
  5
970F
330
8ED3
100
AcDbEntity
  8
Defpoints
 62
     0
100
AcDbPoint
 10
2067.482662534943
 20
1158.042287832584
 30
0.0
  0
ENDBLK
  5
8EDE
330
8ED3
100
AcDbEntity
  8
0
 62
     3
100
AcDbBlockEnd
  0
BLOCK
  5
8EE9
330
8EDF
100
AcDbEntity
  8
0
 62
     3
100
AcDbBlockBegin
  2
*D34
 70
     1
 10
0.0
 20
0.0
 30
0.0
  3
*D34
  1

  0
LINE
  5
9648
330
8EDF
100
AcDbEntity
  8
実形
 62
     0
370
    18
100
AcDbLine
 10
1862.392311479036
 20
1170.910849371381
 30
0.0
 11
1862.392311479036
 21
1104.772004267699
 31
0.0
  0
LINE
  5
9649
330
8EDF
100
AcDbEntity
  8
実形
 62
     0
370
    18
100
AcDbLine
 10
2067.482662534943
 20
1170.910849371381
 30
0.0
 11
2067.482662534943
 21
1104.772004267699
 31
0.0
  0
LINE
  5
964A
330
8EDF
100
AcDbEntity
  8
実形
 62
     0
370
    18
100
AcDbLine
 10
1872.392311479037
 20
1104.772004267699
 30
0.0
 11
2057.482662534944
 21
1104.772004267699
 31
0.0
  0
MTEXT
  5
964B
330
8EDF
100
AcDbEntity
  8
実形
 62
     0
100
AcDbMText
 10
1946.14003601336
 20
1123.872004267699
 30
0.0
 40
25.0
 41
0.0
 71
     5
 72
     1
  1
205
 73
     1
 44
1.0
1001
ACAD
1000
MTEXTBEGIN
1070
    73
1070
     1
1070
    44
1040
1.0
1070
    74
1070
     0
1000
MTEXTEND
  0
INSERT
  5
964C
330
8EDF
100
AcDbEntity
  8
実形
 62
     0
370
    18
100
AcDbBlockReference
  2
_Dot
 10
1862.392311479036
 20
1104.772004267699
 30
0.0
 41
10.0
 42
10.0
 43
10.0
 50
180.0
  0
INSERT
  5
964D
330
8EDF
100
AcDbEntity
  8
実形
 62
     0
370
    18
100
AcDbBlockReference
  2
_Dot
 10
2067.482662534943
 20
1104.772004267699
 30
0.0
 41
10.0
 42
10.0
 43
10.0
  0
POINT
  5
964E
330
8EDF
100
AcDbEntity
  8
Defpoints
 62
     0
100
AcDbPoint
 10
1862.392311479036
 20
1235.910849371381
 30
0.0
  0
POINT
  5
964F
330
8EDF
100
AcDbEntity
  8
Defpoints
 62
     0
100
AcDbPoint
 10
2067.482662534943
 20
1235.910849371381
 30
0.0
  0
POINT
  5
9650
330
8EDF
100
AcDbEntity
  8
Defpoints
 62
     0
100
AcDbPoint
 10
2067.482662534943
 20
1104.772004267699
 30
0.0
  0
ENDBLK
  5
8EEA
330
8EDF
100
AcDbEntity
  8
0
 62
     3
100
AcDbBlockEnd
  0
BLOCK
  5
8F01
330
8EF7
100
AcDbEntity
  8
0
 62
     3
100
AcDbBlockBegin
  2
*D35
 70
     1
 10
0.0
 20
0.0
 30
0.0
  3
*D35
  1

  0
LINE
  5
963F
330
8EF7
100
AcDbEntity
  8
実形
 62
     0
370
    18
100
AcDbLine
 10
1862.482662534944
 20
1170.910849371381
 30
0.0
 11
1862.482662534944
 21
1050.065992870272
 31
0.0
  0
LINE
  5
9640
330
8EF7
100
AcDbEntity
  8
実形
 62
     0
370
    18
100
AcDbLine
 10
2077.482662534944
 20
1106.843436118577
 30
0.0
 11
2077.482662534944
 21
1050.065992870272
 31
0.0
  0
LINE
  5
9641
330
8EF7
100
AcDbEntity
  8
実形
 62
     0
370
    18
100
AcDbLine
 10
1872.482662534944
 20
1050.065992870272
 30
0.0
 11
2067.482662534944
 21
1050.065992870272
 31
0.0
  0
MTEXT
  5
9642
330
8EF7
100
AcDbEntity
  8
実形
 62
     0
100
AcDbMText
 10
1945.93986777818
 20
1071.665992870272
 30
0.0
 40
25.0
 41
0.0
 71
     5
 72
     1
  1
213
 73
     1
 44
1.0
1001
ACAD
1000
MTEXTBEGIN
1070
    73
1070
     1
1070
    44
1040
1.0
1070
    74
1070
     0
1000
MTEXTEND
  0
INSERT
  5
9643
330
8EF7
100
AcDbEntity
  8
実形
 62
     0
370
    18
100
AcDbBlockReference
  2
_Dot
 10
1862.482662534944
 20
1050.065992870272
 30
0.0
 41
10.0
 42
10.0
 43
10.0
 50
180.0
  0
INSERT
  5
9644
330
8EF7
100
AcDbEntity
  8
実形
 62
     0
370
    18
100
AcDbBlockReference
  2
_Dot
 10
2077.482662534944
 20
1050.065992870272
 30
0.0
 41
10.0
 42
10.0
 43
10.0
  0
POINT
  5
9645
330
8EF7
100
AcDbEntity
  8
Defpoints
 62
     0
100
AcDbPoint
 10
1862.482662534944
 20
1235.910849371381
 30
0.0
  0
POINT
  5
9646
330
8EF7
100
AcDbEntity
  8
Defpoints
 62
     0
100
AcDbPoint
 10
2077.482662534944
 20
1171.843436118577
 30
0.0
  0
POINT
  5
9647
330
8EF7
100
AcDbEntity
  8
Defpoints
 62
     0
100
AcDbPoint
 10
2077.482662534944
 20
1050.065992870272
 30
0.0
  0
ENDBLK
  5
8F02
330
8EF7
100
AcDbEntity
  8
0
 62
     3
100
AcDbBlockEnd
  0
BLOCK
  5
9231
330
9227
100
AcDbEntity
  8
0
 62
     3
100
AcDbBlockBegin
  2
*D36
 70
     1
 10
0.0
 20
0.0
 30
0.0
  3
*D36
  1

  0
LINE
  5
9636
330
9227
100
AcDbEntity
  8
実形
 62
     0
370
    18
100
AcDbLine
 10
1862.482662534944
 20
1137.857741816848
 30
0.0
 11
1862.482662534944
 21
1158.042287832584
 31
0.0
  0
LINE
  5
9637
330
9227
100
AcDbEntity
  8
実形
 62
     0
370
    18
100
AcDbLine
 10
2077.482662534944
 20
1163.178776574084
 30
0.0
 11
2077.482662534944
 21
1158.042287832584
 31
0.0
  0
LINE
  5
9638
330
9227
100
AcDbEntity
  8
実形
 62
     0
370
    18
100
AcDbLine
 10
1872.482662534944
 20
1158.042287832584
 30
0.0
 11
2067.482662534944
 21
1158.042287832584
 31
0.0
  0
MTEXT
  5
9639
330
9227
100
AcDbEntity
  8
実形
 62
     0
100
AcDbMText
 10
2097.904289990986
 20
1177.142287832584
 30
0.0
 40
25.0
 41
0.0
 71
     5
 72
     1
  1
8
 73
     1
 44
1.0
1001
ACAD
1000
MTEXTBEGIN
1070
    73
1070
     1
1070
    44
1040
1.0
1070
    74
1070
     0
1000
MTEXTEND
  0
INSERT
  5
963A
330
9227
100
AcDbEntity
  8
実形
 62
     0
370
    18
100
AcDbBlockReference
  2
_Dot
 10
1862.482662534944
 20
1158.042287832584
 30
0.0
 41
10.0
 42
10.0
 43
10.0
 50
180.0
  0
INSERT
  5
963B
330
9227
100
AcDbEntity
  8
実形
 62
     0
370
    18
100
AcDbBlockReference
  2
_Dot
 10
2077.482662534944
 20
1158.042287832584
 30
0.0
 41
10.0
 42
10.0
 43
10.0
  0
POINT
  5
963C
330
9227
100
AcDbEntity
  8
Defpoints
 62
     0
100
AcDbPoint
 10
1862.482662534944
 20
1202.857741816848
 30
0.0
  0
POINT
  5
963D
330
9227
100
AcDbEntity
  8
Defpoints
 62
     0
100
AcDbPoint
 10
2077.482662534944
 20
1228.178776574085
 30
0.0
  0
POINT
  5
963E
330
9227
100
AcDbEntity
  8
Defpoints
 62
     0
100
AcDbPoint
 10
2077.482662534944
 20
1158.042287832584
 30
0.0
  0
ENDBLK
  5
9232
330
9227
100
AcDbEntity
  8
0
 62
     3
100
AcDbBlockEnd
  0
ENDSEC
  0
SECTION
  2
ENTITIES
  0
LINE
  5
9C
330
1F
100
AcDbEntity
  8
枠
 62
     0
100
AcDbLine
 10
174.0
 20
3.99999999999909
 30
0.0
 11
2834.0
 21
3.99999999999909
 31
0.0
  0
LINE
  5
A0
330
1F
100
AcDbEntity
  8
枠
 62
     0
100
AcDbLine
 10
2834.0
 20
2023.999999999999
 30
0.0
 11
174.0
 21
2023.999999999999
 31
0.0
  0
LINE
  5
272
330
1F
100
AcDbEntity
  8
枠
 62
     0
100
AcDbLine
 10
2234.0
 20
133.9999999999991
 30
0.0
 11
2234.0
 21
198.9999999999991
 31
0.0
  0
LINE
  5
1B73
330
1F
100
AcDbEntity
  8
枠
 62
     0
100
AcDbLine
 10
1944.0
 20
2023.999999999999
 30
0.0
 11
2834.0
 21
2023.999999999999
 31
0.0
  0
LINE
  5
1B84
330
1F
100
AcDbEntity
  8
枠
 62
     0
100
AcDbLine
 10
2114.0
 20
68.99999999999909
 30
0.0
 11
2834.0
 21
68.99999999999909
 31
0.0
  0
LINE
  5
1B85
330
1F
100
AcDbEntity
  8
枠
 62
     0
100
AcDbLine
 10
2114.0
 20
198.9999999999991
 30
0.0
 11
2834.0
 21
198.9999999999991
 31
0.0
  0
LINE
  5
1B86
330
1F
100
AcDbEntity
  8
枠
 62
     0
100
AcDbLine
 10
2114.0
 20
133.9999999999991
 30
0.0
 11
2834.0
 21
133.9999999999991
 31
0.0
  0
LINE
  5
1B87
330
1F
100
AcDbEntity
  8
枠
 62
     0
100
AcDbLine
 10
2114.0
 20
3.99999999999909
 30
0.0
 11
2114.0
 21
198.9999999999991
 31
0.0
  0
TEXT
  5
1B88
330
1F
100
AcDbEntity
  8
枠
 62
     0
100
AcDbText
 10
2346.234086982958
 20
18.49999999999909
 30
0.0
 40
35.0
  1
中外交易株式会社
  7
ms明朝
 72
     4
 11
2551.034086982959
 21
36.49999999999909
 31
0.0
100
AcDbText
  0
LINE
  5
1B8A
330
1F
100
AcDbEntity
  8
枠
 62
     0
100
AcDbLine
 10
2234.0
 20
68.99999999999909
 30
0.0
 11
2834.0
 21
68.99999999999909
 31
0.0
  0
LINE
  5
1B8B
102
{ACAD_REACTORS
330
1B98
102
}
330
1F
100
AcDbEntity
  8
枠
 62
     0
370
     5
100
AcDbLine
 10
2257.843923164362
 20
40.53787547858428
 30
0.0
 11
2233.255774665348
 21
40.53787547858428
 31
0.0
  0
LINE
  5
1B8C
102
{ACAD_REACTORS
330
1B98
102
}
330
1F
100
AcDbEntity
  8
枠
 62
     0
370
     5
100
AcDbLine
 10
2233.255774665348
 20
40.53787547858428
 30
0.0
 11
2233.255774665348
 21
30.53787547858429
 31
0.0
  0
LINE
  5
1B8D
102
{ACAD_REACTORS
330
1B98
102
}
330
1F
100
AcDbEntity
  8
枠
 62
     0
370
     5
100
AcDbLine
 10
2233.255774665348
 20
30.53787547858429
 30
0.0
 11
2257.346428692676
 21
30.53787547858429
 31
0.0
  0
LINE
  5
1B8E
102
{ACAD_REACTORS
330
1B98
102
}
330
1F
100
AcDbEntity
  8
枠
 62
     0
370
     5
100
AcDbLine
 10
2260.641894042939
 20
56.49999999999909
 30
0.0
 11
2260.641894042939
 21
16.49999999999909
 31
0.0
  0
LINE
  5
1B8F
102
{ACAD_REACTORS
330
1B98
102
}
330
1F
100
AcDbEntity
  8
枠
 62
     0
370
     5
100
AcDbLine
 10
2260.641894042939
 20
16.49999999999909
 30
0.0
 11
2295.641894042939
 21
16.49999999999909
 31
0.0
  0
LINE
  5
1B90
102
{ACAD_REACTORS
330
1B98
102
}
330
1F
100
AcDbEntity
  8
枠
 62
     0
370
     5
100
AcDbLine
 10
2295.641894042939
 20
16.49999999999909
 30
0.0
 11
2260.641894042939
 21
36.49999999999909
 31
0.0
  0
LINE
  5
1B91
102
{ACAD_REACTORS
330
1B98
102
}
330
1F
100
AcDbEntity
  8
枠
 62
     0
370
     5
100
AcDbLine
 10
2260.641894042939
 20
36.49999999999909
 30
0.0
 11
2295.641894042939
 21
56.49999999999909
 31
0.0
  0
LINE
  5
1B92
102
{ACAD_REACTORS
330
1B98
102
}
330
1F
100
AcDbEntity
  8
枠
 62
     0
370
     5
100
AcDbLine
 10
2295.641894042939
 20
56.49999999999909
 30
0.0
 11
2260.641894042939
 21
56.49999999999909
 31
0.0
  0
LINE
  5
1B93
102
{ACAD_REACTORS
330
1B98
102
}
330
1F
100
AcDbEntity
  8
枠
 62
     0
370
     5
100
AcDbLine
 10
2326.75434681301
 20
40.53787547858428
 30
0.0
 11
2302.166198313996
 21
40.53787547858428
 31
0.0
  0
LINE
  5
1B94
102
{ACAD_REACTORS
330
1B98
102
}
330
1F
100
AcDbEntity
  8
枠
 62
     0
370
     5
100
AcDbLine
 10
2302.166198313996
 20
40.53787547858428
 30
0.0
 11
2302.166198313996
 21
30.53787547858429
 31
0.0
  0
LINE
  5
1B95
102
{ACAD_REACTORS
330
1B98
102
}
330
1F
100
AcDbEntity
  8
枠
 62
     0
370
     5
100
AcDbLine
 10
2302.166198313996
 20
30.53787547858429
 30
0.0
 11
2326.256852341323
 21
30.53787547858429
 31
0.0
  0
ARC
  5
1B96
102
{ACAD_REACTORS
330
1B98
102
}
330
1F
100
AcDbEntity
  8
枠
 62
     0
370
     5
100
AcDbCircle
 10
2238.255774665347
 20
36.49999999999909
 30
0.0
 40
20.0
100
AcDbArc
 50
11.64772366708617
 51
342.6561058784773
  0
ARC
  5
1B97
102
{ACAD_REACTORS
330
1B98
102
}
330
1F
100
AcDbEntity
  8
枠
 62
     0
370
     5
100
AcDbCircle
 10
2307.166198313995
 20
36.49999999999909
 30
0.0
 40
20.0
100
AcDbArc
 50
11.64772366708617
 51
342.6561058784773
  0
HATCH
  5
1B98
330
1F
100
AcDbEntity
  8
枠
 62
     0
100
AcDbHatch
 10
0.0
 20
0.0
 30
0.0
210
0.0
220
0.0
230
1.0
  2
SOLID
 70
     1
 71
     1
 91
        3
 92
        1
 93
        4
 72
     2
 10
2307.166198313995
 20
36.49999999999909
 40
20.0
 50
11.64772366708617
 51
342.6561058784773
 73
     1
 72
     1
 10
2326.256852341323
 20
30.53787547858429
 11
2302.166198313996
 21
30.53787547858429
 72
     1
 10
2302.166198313996
 20
30.53787547858429
 11
2302.166198313996
 21
40.53787547858428
 72
     1
 10
2302.166198313996
 20
40.53787547858428
 11
2326.75434681301
 21
40.53787547858428
 97
        4
330
1B97
330
1B95
330
1B94
330
1B93
 92
        1
 93
        4
 72
     2
 10
2238.255774665347
 20
36.49999999999909
 40
20.0
 50
11.64772366708617
 51
342.6561058784773
 73
     1
 72
     1
 10
2257.346428692676
 20
30.53787547858429
 11
2233.255774665348
 21
30.53787547858429
 72
     1
 10
2233.255774665348
 20
30.53787547858429
 11
2233.255774665348
 21
40.53787547858428
 72
     1
 10
2233.255774665348
 20
40.53787547858428
 11
2257.843923164362
 21
40.53787547858428
 97
        4
330
1B96
330
1B8D
330
1B8C
330
1B8B
 92
        1
 93
        5
 72
     1
 10
2295.641894042939
 20
56.49999999999909
 11
2260.641894042939
 21
56.49999999999909
 72
     1
 10
2260.641894042939
 20
56.49999999999909
 11
2260.641894042939
 21
16.49999999999909
 72
     1
 10
2260.641894042939
 20
16.49999999999909
 11
2295.641894042939
 21
16.49999999999909
 72
     1
 10
2295.641894042939
 20
16.49999999999909
 11
2260.641894042939
 21
36.49999999999909
 72
     1
 10
2260.641894042939
 20
36.49999999999909
 11
2295.641894042939
 21
56.49999999999909
 97
        5
330
1B92
330
1B8E
330
1B8F
330
1B90
330
1B91
 75
     0
 76
     1
 98
        1
 10
-10.0
 20
-0.0000000000009095
  0
LINE
  5
1B99
330
1F
100
AcDbEntity
  8
枠
 62
     0
100
AcDbLine
 10
2234.0
 20
68.99999999999909
 30
0.0
 11
2234.0
 21
198.9999999999991
 31
0.0
  0
TEXT
  5
5D0B
330
1F
100
AcDbEntity
  8
実形
100
AcDbText
 10
235.1990899270441
 20
60.08511374856698
 30
0.0
 40
30.0
  1
※実寸には製造上の誤差が多少生ずる場合があります。シンクの穴あけ加工は現物合わせにてお願いします。
 72
     4
 11
1105.199089927044
 21
75.08511374856698
 31
0.0
100
AcDbText
  0
TEXT
  5
5E5F
330
1F
100
AcDbEntity
  8
枠
 62
     0
100
AcDbText
 10
2136.666666666667
 20
83.99999999999909
 30
0.0
 40
35.0
  1
尺度
 72
     4
 11
2174.0
 21
101.4999999999991
 31
0.0
100
AcDbText
  0
TEXT
  5
5E68
330
1F
100
AcDbEntity
  8
枠
 62
     0
100
AcDbText
 10
2136.666666666667
 20
148.9999999999991
 30
0.0
 40
35.0
  1
品番
 72
     4
 11
2174.0
 21
166.4999999999991
 31
0.0
100
AcDbText
  0
TEXT
  5
68BC
330
1F
100
AcDbEntity
  8
実形
100
AcDbText
 10
2443.255253185007
 20
84.68238670760312
 30
0.0
 40
35.0
  1
1：10
  7
ms明朝
 72
     4
 11
2507.255253185007
 21
101.7823867076031
 31
0.0
100
AcDbText
  0
TEXT
  5
68D6
330
1F
100
AcDbEntity
  8
実形
100
AcDbText
 10
2311.10004485435
 20
147.4557044673729
 30
0.0
 40
35.0
  1
RaS800-440HC
  7
ms明朝
 72
     4
 11
2464.70004485435
 21
164.5557044673729
 31
0.0
100
AcDbText
  0
LINE
  5
6D9B
330
1F
100
AcDbEntity
  8
実形
 62
     0
100
AcDbLine
 10
2834.0
 20
4.0
 30
0.0
 11
2834.0
 21
2024.0
 31
0.0
  0
LINE
  5
6E31
330
1F
100
AcDbEntity
  8
実形
 62
     0
100
AcDbLine
 10
174.0
 20
2024.0
 30
0.0
 11
174.0
 21
4.0
 31
0.0
  0
LINE
  5
7026
330
1F
100
AcDbEntity
  8
実形
100
AcDbLine
 10
827.6888502367837
 20
1706.67196328526
 30
0.0
 11
1657.688850236783
 21
1706.67196328526
 31
0.0
  0
LINE
  5
7027
330
1F
100
AcDbEntity
  8
実形
100
AcDbLine
 10
1657.688850236783
 20
1706.67196328526
 30
0.0
 11
1657.688850236783
 21
1236.67196328526
 31
0.0
  0
LINE
  5
7028
330
1F
100
AcDbEntity
  8
実形
100
AcDbLine
 10
1657.688850236783
 20
1236.67196328526
 30
0.0
 11
827.6888502367837
 21
1236.67196328526
 31
0.0
  0
LINE
  5
7029
330
1F
100
AcDbEntity
  8
実形
100
AcDbLine
 10
827.6888502367837
 20
1236.67196328526
 30
0.0
 11
827.6888502367837
 21
1706.67196328526
 31
0.0
  0
LINE
  5
702A
330
1F
100
AcDbEntity
  8
実形
100
AcDbLine
 10
848.6888502367838
 20
1691.67196328526
 30
0.0
 11
1636.688850236784
 21
1691.67196328526
 31
0.0
  0
LINE
  5
702B
330
1F
100
AcDbEntity
  8
実形
100
AcDbLine
 10
1642.688850236783
 20
1685.67196328526
 30
0.0
 11
1642.688850236783
 21
1257.67196328526
 31
0.0
  0
LINE
  5
702C
330
1F
100
AcDbEntity
  8
実形
100
AcDbLine
 10
1636.688850236783
 20
1251.67196328526
 30
0.0
 11
848.6888502367838
 21
1251.67196328526
 31
0.0
  0
LINE
  5
702D
330
1F
100
AcDbEntity
  8
実形
100
AcDbLine
 10
842.6888502367837
 20
1257.67196328526
 30
0.0
 11
842.6888502367837
 21
1685.67196328526
 31
0.0
  0
DIMENSION
  5
7079
330
1F
100
AcDbEntity
  8
実形
100
AcDbDimension
  2
*D10
 10
716.7032972300221
 20
1251.67196328526
 30
0.0
 11
692.176455237377
 21
1681.630806356192
 31
0.0
 70
   160
  1
15
 71
     5
 42
440.0
  3
ISO-25
100
AcDbAlignedDimension
 13
930.8871529065436
 23
1691.67196328526
 33
0.0
 14
930.8871529065436
 24
1251.67196328526
 34
0.0
 50
90.0
100
AcDbRotatedDimension
1001
ACAD
1000
DSTYLE
1002
{
1070
    42
1040
150.0
1070
    41
1040
10.0
1070
   140
1040
25.0
1070
   147
1040
6.599999999999998
1070
   279
1070
     2
1070
   342
1005
30D
1070
   371
1070
    18
1070
   372
1070
    18
1002
}
  0
DIMENSION
  5
7086
330
1F
100
AcDbEntity
  8
実形
100
AcDbDimension
  2
*D11
 10
716.7032972300221
 20
1236.67196328526
 30
0.0
 11
697.6032972300219
 21
1471.67196328526
 31
0.0
 70
    32
  1
440
 71
     5
 42
470.0
  3
ISO-25
100
AcDbAlignedDimension
 13
930.8871529065436
 23
1706.67196328526
 33
0.0
 14
930.8871529065436
 24
1236.67196328526
 34
0.0
 50
90.0
100
AcDbRotatedDimension
1001
ACAD
1000
DSTYLE
1002
{
1070
    42
1040
150.0
1070
    41
1040
10.0
1070
   140
1040
25.0
1070
   147
1040
6.599999999999998
1070
   279
1070
     2
1070
   342
1005
30D
1070
   371
1070
    18
1070
   372
1070
    18
1002
}
  0
TEXT
  5
70D5
330
1F
100
AcDbEntity
  8
実形
 48
20.0
100
AcDbText
 10
706.9442444867545
 20
1242.797268686647
 30
0.0
 40
25.0
  1
15
 50
90.0
100
AcDbText
  0
DIMENSION
  5
70DF
330
1F
100
AcDbEntity
  8
実形
100
AcDbDimension
  2
*D12
 10
631.5464890513867
 20
1236.67196328526
 30
0.0
 11
612.4464890513865
 21
1471.67196328526
 31
0.0
 70
    32
 71
     5
 42
470.0
  3
ISO-25
100
AcDbAlignedDimension
 13
930.8871529065436
 23
1706.67196328526
 33
0.0
 14
930.8871529065436
 24
1236.67196328526
 34
0.0
 50
90.0
100
AcDbRotatedDimension
1001
ACAD
1000
DSTYLE
1002
{
1070
    42
1040
150.0
1070
    41
1040
10.0
1070
   140
1040
25.0
1070
   147
1040
6.599999999999998
1070
   279
1070
     2
1070
   342
1005
30D
1070
   371
1070
    18
1070
   372
1070
    18
1002
}
  0
LINE
  5
7185
330
1F
100
AcDbEntity
  8
実形
100
AcDbLine
 10
862.6888502367837
 20
1706.67196328526
 30
0.0
 11
1012.688850236783
 21
1706.67196328526
 31
0.0
  0
TEXT
  5
73F5
330
1F
100
AcDbEntity
  8
実形
100
AcDbText
 10
1518.649133964417
 20
1338.472644132552
 30
0.0
 40
25.0
  1
6R
 72
     2
 11
1560.315800631084
 21
1335.139310799219
 31
0.0
100
AcDbText
 73
     1
  0
LEADER
  5
73F6
330
1F
100
AcDbEntity
  8
実形
100
AcDbLeader
  3
ISO-25
 76
     2
 10
1633.658786575861
 20
1258.756130021242
 30
0.0
 10
1562.519977826616
 20
1327.584390789378
 30
0.0
1001
ACAD
1000
DSTYLE
1002
{
1070
    77
1070
     0
1070
    41
1040
10.0
1070
   140
1040
30.0
1070
   147
1040
6.599999999999998
1070
   279
1070
     2
1070
   342
1005
30D
1070
   371
1070
    18
1070
   372
1070
    18
1002
}
  0
ARC
  5
7548
330
1F
100
AcDbEntity
  8
実形
100
AcDbCircle
 10
1636.688850236784
 20
1685.67196328526
 30
0.0
 40
6.0
100
AcDbArc
 50
0.0
 51
90.0
  0
ARC
  5
754A
330
1F
100
AcDbEntity
  8
実形
100
AcDbCircle
 10
1636.688850236783
 20
1257.67196328526
 30
0.0
 40
6.0
100
AcDbArc
 50
270.0
 51
0.0
  0
ARC
  5
754C
330
1F
100
AcDbEntity
  8
実形
100
AcDbCircle
 10
848.6888502367838
 20
1685.67196328526
 30
0.0
 40
6.0
100
AcDbArc
 50
89.99999999999998
 51
180.0
  0
ARC
  5
754E
330
1F
100
AcDbEntity
  8
実形
100
AcDbCircle
 10
848.6888502367838
 20
1257.67196328526
 30
0.0
 40
6.0
100
AcDbArc
 50
180.0
 51
270.0
  0
LINE
  5
774D
330
1F
100
AcDbEntity
  8
実形
 62
     0
100
AcDbLine
 10
2114.0
 20
263.9999999999991
 30
0.0
 11
2834.0
 21
263.9999999999991
 31
0.0
  0
LINE
  5
774E
330
1F
100
AcDbEntity
  8
実形
 62
     0
100
AcDbLine
 10
2114.0
 20
3.99999999999909
 30
0.0
 11
2114.0
 21
263.9999999999991
 31
0.0
  0
LINE
  5
774F
330
1F
100
AcDbEntity
  8
実形
 62
     0
100
AcDbLine
 10
2234.0
 20
68.99999999999909
 30
0.0
 11
2234.0
 21
263.9999999999992
 31
0.0
  0
TEXT
  5
7750
330
1F
100
AcDbEntity
  8
枠
 62
     0
100
AcDbText
 10
2137.833333333333
 20
213.9999999999991
 30
0.0
 40
35.0
  1
品名
 72
     4
 11
2174.0
 21
231.4999999999991
 31
0.0
100
AcDbText
  0
TEXT
  5
7751
330
1F
100
AcDbEntity
  8
実形
100
AcDbText
 10
2313.640535830596
 20
213.2308752843241
 30
0.0
 40
35.0
  1
ｱﾝﾀﾞｰｼﾝｸ
  7
ms明朝
 72
     4
 11
2416.040535830596
 21
230.8308752843241
 31
0.0
100
AcDbText
  0
DIMENSION
  5
77F4
330
1F
100
AcDbEntity
  8
実形
100
AcDbDimension
  2
*D14
 10
1642.688850236784
 20
1121.052064778423
 30
0.0
 11
1242.688850236784
 21
1140.152064778423
 31
0.0
 70
    32
 71
     5
 42
800.0000000000001
  3
ISO-25
100
AcDbAlignedDimension
 13
842.6888502367837
 23
1236.67196328526
 33
0.0
 14
1642.688850236784
 24
1236.671963285269
 34
0.0
100
AcDbRotatedDimension
1001
ACAD
1000
DSTYLE
1002
{
1070
    41
1040
10.0
1070
   140
1040
25.0
1070
   147
1040
6.599999999999998
1070
   279
1070
     2
1070
   342
1005
30D
1070
   371
1070
    18
1070
   372
1070
    18
1002
}
  0
DIMENSION
  5
7801
330
1F
100
AcDbEntity
  8
実形
100
AcDbDimension
  2
*D15
 10
1657.688850236783
 20
1121.052064778423
 30
0.0
 11
1691.543132265513
 21
1142.652064778423
 31
0.0
 70
   160
  1
15
 71
     5
 42
830.0
  3
ISO-25
100
AcDbAlignedDimension
 13
827.6888502367837
 23
1236.67196328526
 33
0.0
 14
1657.688850236783
 24
1236.67196328526
 34
0.0
100
AcDbRotatedDimension
1001
ACAD
1000
DSTYLE
1002
{
1070
    41
1040
10.0
1070
   140
1040
25.0
1070
   147
1040
6.599999999999998
1070
   279
1070
     2
1070
   342
1005
30D
1070
   371
1070
    18
1070
   372
1070
    18
1002
}
  0
TEXT
  5
7883
330
1F
100
AcDbEntity
  8
実形
 48
20.0
100
AcDbText
 10
775.3314665427041
 20
1128.791931437336
 30
0.0
 40
25.0
  1
15
100
AcDbText
  0
DIMENSION
  5
78B2
330
1F
100
AcDbEntity
  8
実形
100
AcDbDimension
  2
*D16
 10
1657.688850236783
 20
1061.620716934234
 30
0.0
 11
1242.688850236784
 21
1080.720716934234
 31
0.0
 70
    32
 71
     5
 42
830.0
  3
ISO-25
100
AcDbAlignedDimension
 13
827.6888502367837
 23
1236.67196328526
 33
0.0
 14
1657.688850236783
 24
1236.67196328526
 34
0.0
100
AcDbRotatedDimension
1001
ACAD
1000
DSTYLE
1002
{
1070
    41
1040
10.0
1070
   147
1040
6.599999999999998
1070
   279
1070
     2
1070
   342
1005
30D
1070
   371
1070
    18
1070
   372
1070
    18
1002
}
  0
TEXT
  5
7D8A
330
1F
100
AcDbEntity
  8
実形
100
AcDbText
 10
234.6212219700337
 20
117.5456368237055
 30
0.0
 40
30.0
  1
※排水口外周W35ｍｍ,H3ｍｍラウンドテーパ－有り。
 72
     4
 11
688.1212219700337
 21
130.0456368237055
 31
0.0
100
AcDbText
  0
LINE
  5
85D7
330
1F
100
AcDbEntity
  8
実形
  6
ACAD_ISO08W100
 48
0.5
100
AcDbLine
 10
1384.388547343282
 20
1541.67196328526
 30
0.0
 11
1109.360662745337
 21
1541.67196328526
 31
0.0
  0
LINE
  5
85D8
330
1F
100
AcDbEntity
  8
実形
  6
ACAD_ISO08W100
 48
0.5
100
AcDbLine
 10
1242.688850236784
 20
1408.07798952886
 30
0.0
 11
1242.688850236784
 21
1684.515619591015
 31
0.0
  0
CIRCLE
  5
85D9
330
1F
100
AcDbEntity
  8
実形
100
AcDbCircle
 10
1242.688850236784
 20
1541.67196328526
 30
0.0
 40
80.0
  0
CIRCLE
  5
85DA
330
1F
100
AcDbEntity
  8
実形
100
AcDbCircle
 10
1242.688850236784
 20
1541.67196328526
 30
0.0
 40
90.5
  0
DIMENSION
  5
85DB
330
1F
100
AcDbEntity
  8
実形
100
AcDbDimension
  2
*D17
 10
1428.488268849105
 20
1691.67196328526
 30
0.0
 11
1409.388268849105
 21
1616.67196328526
 31
0.0
 70
    32
 71
     5
 42
149.9999999999998
  3
ISO-25
100
AcDbAlignedDimension
 13
1306.905896593474
 23
1541.67196328526
 33
0.0
 14
1306.905896593474
 24
1691.67196328526
 34
0.0
 50
90.0
100
AcDbRotatedDimension
1001
ACAD
1000
DSTYLE
1002
{
1070
    41
1040
10.0
1070
   140
1040
25.0
1070
   147
1040
6.599999999999998
1070
   279
1070
     2
1070
   342
1005
30D
1070
   371
1070
    18
1070
   372
1070
    18
1002
}
  0
DIMENSION
  5
85FA
330
1F
100
AcDbEntity
  8
実形
100
AcDbDimension
  2
*D18
 10
842.6888502367837
 20
1339.025319966123
 30
0.0
 11
1042.688850236784
 21
1358.125319966123
 31
0.0
 70
    32
 71
     5
 42
400.0
  3
ISO-25
100
AcDbAlignedDimension
 13
1242.688850236784
 23
1454.970250377018
 33
0.0
 14
842.6888502367837
 24
1454.970250377017
 34
0.0
100
AcDbRotatedDimension
1001
ACAD
1000
DSTYLE
1002
{
1070
    41
1040
10.0
1070
   147
1040
6.599999999999998
1070
   279
1070
     2
1070
   342
1005
30D
1070
   371
1070
    18
1070
   372
1070
    18
1002
}
  0
LINE
  5
89D2
330
1F
100
AcDbEntity
  8
実形
100
AcDbLine
 10
1242.688850236784
 20
472.1335024047927
 30
0.0
 11
1152.188850236783
 21
472.133502404793
 31
0.0
  0
LINE
  5
89D4
330
1F
100
AcDbEntity
  8
実形
100
AcDbLine
 10
1152.188850236784
 20
462.133502404793
 30
0.0
 11
1242.688850236784
 21
462.133502404793
 31
0.0
  0
DIMENSION
  5
89D5
330
1F
100
AcDbEntity
  8
実形
100
AcDbDimension
  2
*D19
 10
1322.688850236784
 20
345.2169038689353
 30
0.0
 11
1242.688850236784
 21
364.3169038689354
 31
0.0
 70
    32
 71
     5
 42
160.0
  3
ISO-25
100
AcDbAlignedDimension
 13
1162.688850236784
 23
462.133502404793
 33
0.0
 14
1322.688850236784
 24
462.133502404793
 34
0.0
100
AcDbRotatedDimension
1001
ACAD
1000
DSTYLE
1002
{
1070
    41
1040
10.0
1070
   140
1040
25.0
1070
   147
1040
6.599999999999998
1070
   279
1070
     2
1070
   342
1005
30D
1070
   371
1070
    18
1070
   372
1070
    18
1002
}
  0
DIMENSION
  5
89D6
330
1F
100
AcDbEntity
  8
実形
100
AcDbDimension
  2
*D20
 10
1333.188850236783
 20
273.9746070536585
 30
0.0
 11
1242.688850236783
 21
293.0746070536585
 31
0.0
 70
    32
 71
     5
 42
180.9999999999995
  3
ISO-25
100
AcDbAlignedDimension
 13
1152.188850236784
 23
462.133502404793
 33
0.0
 14
1333.188850236783
 24
462.1335024047884
 34
0.0
100
AcDbRotatedDimension
1001
ACAD
1000
DSTYLE
1002
{
1070
    41
1040
10.0
1070
   140
1040
25.0
1070
   147
1040
6.599999999999998
1070
   279
1070
     2
1070
   342
1005
30D
1070
   371
1070
    18
1070
   372
1070
    18
1002
}
  0
LINE
  5
89D7
330
1F
100
AcDbEntity
  8
実形
  6
ACAD_ISO08W100
 48
0.5
100
AcDbLine
 10
1242.688850236784
 20
556.6888948239157
 30
0.0
 11
1242.688850236784
 21
407.1214621906565
 31
0.0
  0
LINE
  5
89DB
330
1F
100
AcDbEntity
  8
実形
100
AcDbLine
 10
1152.188850236783
 20
472.133502404793
 30
0.0
 11
1152.188850236783
 21
462.1335024047935
 31
0.0
  0
DIMENSION
  5
89DD
330
1F
100
AcDbEntity
  8
実形
100
AcDbDimension
  2
*D21
 10
724.3072502934488
 20
487.1335024047935
 30
0.0
 11
701.6370246939714
 21
576.3117483346959
 31
0.0
 70
   160
  1
195
 71
     5
 42
189.9999999999996
  3
ISO-25
100
AcDbAlignedDimension
 13
770.0171163581714
 23
677.133502404793
 33
0.0
 14
834.1227042777124
 24
487.1335024047935
 34
0.0
 50
270.0
100
AcDbRotatedDimension
1001
ACAD
1000
DSTYLE
1002
{
1070
    41
1040
10.0
1070
   140
1040
25.0
1070
   147
1040
6.599999999999998
1070
   279
1070
     2
1070
   342
1005
30D
1070
   371
1070
    18
1070
   372
1070
    18
1002
}
  0
DIMENSION
  5
89DE
330
1F
100
AcDbEntity
  8
実形
100
AcDbDimension
  2
*D22
 10
724.3072502934488
 20
472.1335024047935
 30
0.0
 11
745.9072502934487
 21
437.145551492942
 31
0.0
 70
   160
  1
    
 71
     5
 42
204.9999999999996
  3
ISO-25
100
AcDbAlignedDimension
 13
834.1227042777124
 23
677.133502404793
 33
0.0
 14
834.1713015931366
 24
472.1335024047935
 34
0.0
 50
270.0
100
AcDbRotatedDimension
1001
ACAD
1000
DSTYLE
1002
{
1070
    41
1040
10.0
1070
   140
1040
25.0
1070
   147
1040
6.599999999999998
1070
   279
1070
     2
1070
   342
1005
30D
1070
   371
1070
    18
1070
   372
1070
    18
1002
}
  0
LINE
  5
89E2
330
1F
100
AcDbEntity
  8
実形
  6
ACAD_ISO08W100
100
AcDbLine
 10
848.6888502367849
 20
487.1335024047913
 30
0.0
 11
1636.688850236782
 21
487.1335024047947
 31
0.0
  0
LINE
  5
89E8
330
1F
100
AcDbEntity
  8
実形
100
AcDbLine
 10
1242.688850236784
 20
472.1335024047927
 30
0.0
 11
1152.188850236783
 21
472.133502404793
 31
0.0
  0
LINE
  5
89E9
330
1F
100
AcDbEntity
  8
実形
100
AcDbLine
 10
1242.688850236784
 20
462.133502404793
 30
0.0
 11
1152.188850236783
 21
462.133502404793
 31
0.0
  0
LINE
  5
89EA
330
1F
100
AcDbEntity
  8
実形
100
AcDbLine
 10
1152.188850236784
 20
462.133502404793
 30
0.0
 11
1242.688850236784
 21
462.133502404793
 31
0.0
  0
DIMENSION
  5
89EB
330
1F
100
AcDbEntity
  8
実形
100
AcDbDimension
  2
*D23
 10
1322.688850236784
 20
345.2169038689353
 30
0.0
 11
1242.688850236784
 21
364.3169038689354
 31
0.0
 70
    32
 71
     5
 42
160.0
  3
ISO-25
100
AcDbAlignedDimension
 13
1162.688850236784
 23
462.133502404793
 33
0.0
 14
1322.688850236784
 24
462.133502404793
 34
0.0
100
AcDbRotatedDimension
1001
ACAD
1000
DSTYLE
1002
{
1070
    41
1040
10.0
1070
   140
1040
25.0
1070
   147
1040
6.599999999999998
1070
   279
1070
     2
1070
   342
1005
30D
1070
   371
1070
    18
1070
   372
1070
    18
1002
}
  0
DIMENSION
  5
89EC
330
1F
100
AcDbEntity
  8
実形
100
AcDbDimension
  2
*D24
 10
1333.188850236783
 20
273.9746070536585
 30
0.0
 11
1242.688850236783
 21
293.0746070536585
 31
0.0
 70
    32
 71
     5
 42
180.9999999999995
  3
ISO-25
100
AcDbAlignedDimension
 13
1152.188850236784
 23
462.133502404793
 33
0.0
 14
1333.188850236783
 24
462.1335024047884
 34
0.0
100
AcDbRotatedDimension
1001
ACAD
1000
DSTYLE
1002
{
1070
    41
1040
10.0
1070
   140
1040
25.0
1070
   147
1040
6.599999999999998
1070
   279
1070
     2
1070
   342
1005
30D
1070
   371
1070
    18
1070
   372
1070
    18
1002
}
  0
LINE
  5
89ED
330
1F
100
AcDbEntity
  8
実形
  6
ACAD_ISO08W100
 48
0.5
100
AcDbLine
 10
1242.688850236784
 20
556.6888948239157
 30
0.0
 11
1242.688850236784
 21
407.1214621906565
 31
0.0
  0
TEXT
  5
89EE
330
1F
100
AcDbEntity
  8
実形
100
AcDbText
 10
893.2727374398703
 20
578.965112151979
 30
0.0
 40
25.0
  1
6R
 72
     2
 11
934.9394041065369
 21
575.6317788186456
 31
0.0
100
AcDbText
 73
     1
  0
LEADER
  5
89EF
330
1F
100
AcDbEntity
  8
実形
100
AcDbLeader
  3
ISO-25
 76
     2
 10
863.2511945465612
 20
498.1912773487347
 30
0.0
 10
907.4386731267987
 20
566.4324994648122
 30
0.0
211
-0.0000000000000002
221
-1.0
231
0.0
1001
ACAD
1000
DSTYLE
1002
{
1070
    77
1070
     0
1070
    41
1040
10.0
1070
   140
1040
30.0
1070
   147
1040
6.599999999999998
1070
   279
1070
     2
1070
   342
1005
30D
1070
   371
1070
    18
1070
   372
1070
    18
1002
}
  0
LINE
  5
89F2
330
1F
100
AcDbEntity
  8
実形
100
AcDbLine
 10
1152.188850236783
 20
472.133502404793
 30
0.0
 11
1152.188850236783
 21
462.1335024047935
 31
0.0
  0
DIMENSION
  5
89F4
330
1F
100
AcDbEntity
  8
実形
100
AcDbDimension
  2
*D25
 10
724.3072502934488
 20
487.1335024047935
 30
0.0
 11
652.2690004376472
 21
575.3439917483219
 31
0.0
 70
   160
  1
205
 71
     5
 42
189.9999999999996
  3
ISO-25
100
AcDbAlignedDimension
 13
770.0171163581714
 23
677.133502404793
 33
0.0
 14
834.1227042777124
 24
487.1335024047935
 34
0.0
 50
270.0
100
AcDbRotatedDimension
1001
ACAD
1000
DSTYLE
1002
{
1070
    41
1040
10.0
1070
   140
1040
25.0
1070
   147
1040
6.599999999999998
1070
   279
1070
     2
1070
   342
1005
30D
1070
   371
1070
    18
1070
   372
1070
    18
1002
}
  0
DIMENSION
  5
89F5
330
1F
100
AcDbEntity
  8
実形
100
AcDbDimension
  2
*D26
 10
724.3072502934488
 20
472.1335024047935
 30
0.0
 11
702.3337384577053
 21
494.3907435117198
 31
0.0
 70
   160
  1
10
 71
     5
 42
204.9999999999996
  3
ISO-25
100
AcDbAlignedDimension
 13
834.1227042777124
 23
677.133502404793
 33
0.0
 14
834.1713015931366
 24
472.1335024047935
 34
0.0
 50
270.0
100
AcDbRotatedDimension
1001
ACAD
1000
DSTYLE
1002
{
1070
    41
1040
10.0
1070
   140
1040
25.0
1070
   147
1040
6.599999999999998
1070
   279
1070
     2
1070
   342
1005
30D
1070
   371
1070
    18
1070
   372
1070
    18
1002
}
  0
DIMENSION
  5
89F7
330
1F
100
AcDbEntity
  8
実形
100
AcDbDimension
  2
*D27
 10
671.0369667285637
 20
462.133502404793
 30
0.0
 11
649.2574668639743
 21
478.190513992552
 31
0.0
 70
   160
  1
8
 71
     5
 42
215.0
  3
ISO-25
100
AcDbAlignedDimension
 13
797.9443789335897
 23
677.133502404793
 33
0.0
 14
784.9458809961531
 24
462.133502404793
 34
0.0
 50
270.0
100
AcDbRotatedDimension
1001
ACAD
1000
DSTYLE
1002
{
1070
    41
1040
10.0
1070
   140
1040
25.0
1070
   147
1040
6.599999999999998
1070
   279
1070
     2
1070
   342
1005
30D
1070
   371
1070
    18
1070
   372
1070
    18
1002
}
  0
DIMENSION
  5
89F8
330
1F
100
AcDbEntity
  8
実形
100
AcDbDimension
  2
*D28
 10
616.3309553311361
 20
462.133502404793
 30
0.0
 11
592.6076230368853
 21
574.7408326350944
 31
0.0
 70
   160
  1
213
 71
     5
 42
215.0000000000001
  3
ISO-25
100
AcDbAlignedDimension
 13
802.1758118322455
 23
677.133502404793
 33
0.0
 14
738.1083985794417
 24
462.133502404793
 34
0.0
 50
270.0
100
AcDbRotatedDimension
1001
ACAD
1000
DSTYLE
1002
{
1070
    41
1040
10.0
1070
   140
1040
25.0
1070
   147
1040
6.599999999999998
1070
   279
1070
     2
1070
   342
1005
30D
1070
   371
1070
    18
1070
   372
1070
    18
1002
}
  0
LINE
  5
89F9
330
1F
100
AcDbEntity
  8
実形
100
AcDbLine
 10
827.6888502367837
 20
677.1335024047926
 30
0.0
 11
1242.688850236784
 21
677.133502404793
 31
0.0
  0
LINE
  5
89FB
330
1F
100
AcDbEntity
  8
実形
100
AcDbLine
 10
842.6888502367841
 20
677.1335024047929
 30
0.0
 11
842.6888502367848
 21
493.1335024047919
 31
0.0
  0
ARC
  5
89FC
330
1F
100
AcDbEntity
  8
実形
100
AcDbCircle
 10
848.6888502367849
 20
493.1335024047919
 30
0.0
 40
6.0
100
AcDbArc
 50
180.0
 51
270.0
  0
DIMENSION
  5
8B81
330
1F
100
AcDbEntity
  8
実形
100
AcDbDimension
  2
*D29
 10
671.0369667285637
 20
677.1335024047931
 30
0.0
 11
651.9369667285635
 21
574.6335024047935
 31
0.0
 70
    32
  1
    
 71
     5
 42
204.9999999999996
  3
ISO-25
100
AcDbAlignedDimension
 13
787.8751864863497
 23
472.1335024047935
 33
0.0
 14
769.1713015931367
 24
677.133502404793
 34
0.0
 50
90.0
100
AcDbRotatedDimension
1001
ACAD
1000
DSTYLE
1002
{
1070
    41
1040
10.0
1070
   147
1040
6.599999999999998
1070
   279
1070
     2
1070
   342
1005
30D
1070
   371
1070
    18
1070
   372
1070
    18
1002
}
  0
LINE
  5
8BEA
330
1F
100
AcDbEntity
  8
実形
100
AcDbLine
 10
842.6888502367848
 20
493.1335024047919
 30
0.0
 11
842.6888502367848
 21
478.1335024047921
 31
0.0
  0
LINE
  5
8BEB
330
1F
100
AcDbEntity
  8
実形
100
AcDbLine
 10
1152.188850236783
 20
472.1335024047921
 30
0.0
 11
848.6888502367849
 21
472.1335024047921
 31
0.0
  0
ARC
  5
8BEC
330
1F
100
AcDbEntity
  8
実形
100
AcDbCircle
 10
848.6888502367849
 20
478.1335024047921
 30
0.0
 40
6.0
100
AcDbArc
 50
180.0
 51
270.0
  0
LINE
  5
8BED
330
1F
100
AcDbEntity
  8
実形
100
AcDbLine
 10
1242.688850236784
 20
472.1335024047927
 30
0.0
 11
1333.188850236784
 21
472.1335024047927
 31
0.0
  0
LINE
  5
8BEE
330
1F
100
AcDbEntity
  8
実形
100
AcDbLine
 10
1333.188850236784
 20
462.1335024047928
 30
0.0
 11
1242.688850236784
 21
462.133502404793
 31
0.0
  0
LINE
  5
8BEF
330
1F
100
AcDbEntity
  8
実形
100
AcDbLine
 10
1333.188850236784
 20
472.1335024047927
 30
0.0
 11
1333.188850236784
 21
462.1335024047932
 31
0.0
  0
LINE
  5
8BF1
330
1F
100
AcDbEntity
  8
実形
100
AcDbLine
 10
1242.688850236784
 20
472.1335024047927
 30
0.0
 11
1333.188850236784
 21
472.1335024047927
 31
0.0
  0
LINE
  5
8BF2
330
1F
100
AcDbEntity
  8
実形
100
AcDbLine
 10
1242.688850236784
 20
462.133502404793
 30
0.0
 11
1333.188850236784
 21
462.1335024047928
 31
0.0
  0
LINE
  5
8BF3
330
1F
100
AcDbEntity
  8
実形
100
AcDbLine
 10
1333.188850236784
 20
462.1335024047928
 30
0.0
 11
1242.688850236784
 21
462.133502404793
 31
0.0
  0
LEADER
  5
8BF5
330
1F
100
AcDbEntity
  8
実形
100
AcDbLeader
  3
ISO-25
 76
     2
 10
1622.126505927006
 20
498.191277348734
 30
0.0
 10
1577.939027346769
 20
566.4324994648117
 30
0.0
211
-0.0000000000000015
221
-1.0
231
0.0
1001
ACAD
1000
DSTYLE
1002
{
1070
    77
1070
     0
1070
    41
1040
10.0
1070
   140
1040
30.0
1070
   147
1040
6.599999999999998
1070
   279
1070
     2
1070
   342
1005
30D
1070
   371
1070
    18
1070
   372
1070
    18
1002
}
  0
LINE
  5
8BF6
330
1F
100
AcDbEntity
  8
実形
100
AcDbLine
 10
1333.188850236784
 20
472.1335024047927
 30
0.0
 11
1333.188850236784
 21
462.1335024047932
 31
0.0
  0
LINE
  5
8BF7
330
1F
100
AcDbEntity
  8
実形
100
AcDbLine
 10
1657.688850236784
 20
677.133502404792
 30
0.0
 11
1242.688850236784
 21
677.133502404793
 31
0.0
  0
LINE
  5
8BF9
330
1F
100
AcDbEntity
  8
実形
100
AcDbLine
 10
1642.688850236783
 20
677.1335024047922
 30
0.0
 11
1642.688850236782
 21
493.1335024047913
 31
0.0
  0
ARC
  5
8BFA
330
1F
100
AcDbEntity
  8
実形
100
AcDbCircle
 10
1636.688850236782
 20
493.1335024047913
 30
0.0
 40
6.0
100
AcDbArc
 50
269.9999999999999
 51
359.9999999999999
  0
LINE
  5
8BFB
330
1F
100
AcDbEntity
  8
実形
100
AcDbLine
 10
1642.688850236782
 20
493.1335024047913
 30
0.0
 11
1642.688850236782
 21
478.1335024047914
 31
0.0
  0
ARC
  5
8BFC
330
1F
100
AcDbEntity
  8
実形
100
AcDbCircle
 10
1636.688850236782
 20
478.1335024047914
 30
0.0
 40
6.0
100
AcDbArc
 50
269.9999999999999
 51
359.9999999999999
  0
LINE
  5
8BFD
330
1F
100
AcDbEntity
  8
実形
100
AcDbLine
 10
1333.188850236784
 20
472.1335024047919
 30
0.0
 11
1636.688850236782
 21
472.1335024047914
 31
0.0
  0
TEXT
  5
8C06
330
1F
100
AcDbEntity
  8
実形
100
AcDbText
 10
1549.843907524311
 20
578.6072281265623
 30
0.0
 40
25.0
  1
6R
 72
     2
 11
1591.510574190977
 21
575.2738947932289
 31
0.0
100
AcDbText
 73
     1
  0
LINE
  5
8D8F
330
1F
100
AcDbEntity
  8
実形
100
AcDbLine
 10
1862.482662534944
 20
1691.67196328526
 30
0.0
 11
2059.482662534945
 21
1691.671963285258
 31
0.0
  0
ARC
  5
8D90
330
1F
100
AcDbEntity
  8
実形
100
AcDbCircle
 10
2059.482662534945
 20
1685.671963285258
 30
0.0
 40
6.0
100
AcDbArc
 50
0.0
 51
90.0
  0
LINE
  5
8D92
330
1F
100
AcDbEntity
  8
実形
100
AcDbLine
 10
1862.482662534944
 20
1706.67196328526
 30
0.0
 11
1862.482662534944
 21
1236.67196328526
 31
0.0
  0
LINE
  5
8D93
330
1F
100
AcDbEntity
  8
実形
100
AcDbLine
 10
2065.482662534944
 20
1632.171963285259
 30
0.0
 11
2065.482662534944
 21
1451.17196328526
 31
0.0
  0
LINE
  5
8D94
330
1F
100
AcDbEntity
  8
実形
100
AcDbLine
 10
2075.482662534944
 20
1632.17196328526
 30
0.0
 11
2075.482662534944
 21
1451.17196328526
 31
0.0
  0
LINE
  5
8D95
330
1F
100
AcDbEntity
  8
実形
  6
ACAD_ISO08W100
 48
0.5
100
AcDbLine
 10
1970.629986362407
 20
1541.67196328526
 30
0.0
 11
2127.311266698013
 21
1541.67196328526
 31
0.0
  0
LINE
  5
8D96
330
1F
100
AcDbEntity
  8
実形
100
AcDbLine
 10
2065.482662534944
 20
1451.17196328526
 30
0.0
 11
2075.482662534944
 21
1451.17196328526
 31
0.0
  0
LINE
  5
8D97
330
1F
100
AcDbEntity
  8
実形
100
AcDbLine
 10
2065.482662534944
 20
1632.17196328526
 30
0.0
 11
2075.482662534944
 21
1632.17196328526
 31
0.0
  0
DIMENSION
  5
8D98
330
1F
100
AcDbEntity
  8
実形
100
AcDbDimension
  2
*D30
 10
2192.399261070802
 20
1461.67196328526
 30
0.0
 11
2173.299261070802
 21
1541.67196328526
 31
0.0
 70
    32
 71
     5
 42
160.0
  3
ISO-25
100
AcDbAlignedDimension
 13
2075.482662534945
 23
1621.67196328526
 33
0.0
 14
2075.482662534945
 24
1461.67196328526
 34
0.0
 50
270.0
100
AcDbRotatedDimension
1001
ACAD
1000
DSTYLE
1002
{
1070
    41
1040
10.0
1070
   140
1040
25.0
1070
   147
1040
6.599999999999998
1070
   279
1070
     2
1070
   342
1005
30D
1070
   371
1070
    18
1070
   372
1070
    18
1002
}
  0
DIMENSION
  5
8D99
330
1F
100
AcDbEntity
  8
実形
100
AcDbDimension
  2
*D31
 10
2263.641557886079
 20
1451.171963285261
 30
0.0
 11
2244.541557886079
 21
1541.67196328526
 31
0.0
 70
    32
 71
     5
 42
180.9999999999991
  3
ISO-25
100
AcDbAlignedDimension
 13
2075.482662534945
 23
1632.17196328526
 33
0.0
 14
2075.482662534949
 24
1451.171963285261
 34
0.0
 50
270.0
100
AcDbRotatedDimension
1001
ACAD
1000
DSTYLE
1002
{
1070
    41
1040
10.0
1070
   140
1040
25.0
1070
   147
1040
6.599999999999998
1070
   279
1070
     2
1070
   342
1005
30D
1070
   371
1070
    18
1070
   372
1070
    18
1002
}
  0
LINE
  5
8DA3
330
1F
100
AcDbEntity
  8
実形
100
AcDbLine
 10
2065.482662534944
 20
1632.17196328526
 30
0.0
 11
2065.482662534945
 21
1685.671963285258
 31
0.0
  0
LINE
  5
8E77
330
1F
100
AcDbEntity
  8
実形
100
AcDbLine
 10
1862.482662534944
 20
1251.67196328526
 30
0.0
 11
2044.938829061883
 21
1251.67196328526
 31
0.0
  0
DIMENSION
  5
8EC2
330
1F
100
AcDbEntity
  8
実形
100
AcDbDimension
  2
*D32
 10
2052.482662534943
 20
1158.042287832584
 30
0.0
 11
1943.503109563226
 21
1179.642287832584
 31
0.0
 70
   160
  1
195
 71
     5
 42
189.9999999999993
  3
ISO-25
100
AcDbAlignedDimension
 13
1862.482662534944
 23
1203.752153897307
 33
0.0
 14
2052.482662534943
 24
1267.857741816848
 34
0.0
100
AcDbRotatedDimension
1001
ACAD
1000
DSTYLE
1002
{
1070
    41
1040
10.0
1070
   140
1040
25.0
1070
   147
1040
6.599999999999998
1070
   279
1070
     2
1070
   342
1005
30D
1070
   371
1070
    18
1070
   372
1070
    18
1002
}
  0
DIMENSION
  5
8EC3
330
1F
100
AcDbEntity
  8
実形
100
AcDbDimension
  2
*D33
 10
2067.482662534943
 20
1158.042287832584
 30
0.0
 11
2028.272786550872
 21
1179.642287832584
 31
0.0
 70
   160
  1
10
 71
     5
 42
204.9999999999993
  3
ISO-25
100
AcDbAlignedDimension
 13
1862.482662534944
 23
1267.857741816848
 33
0.0
 14
2067.482662534943
 24
1267.906339132272
 34
0.0
100
AcDbRotatedDimension
1001
ACAD
1000
DSTYLE
1002
{
1070
    41
1040
10.0
1070
   140
1040
25.0
1070
   147
1040
6.599999999999998
1070
   279
1070
     2
1070
   342
1005
30D
1070
   371
1070
    18
1070
   372
1070
    18
1002
}
  0
DIMENSION
  5
8EC4
330
1F
100
AcDbEntity
  8
実形
100
AcDbDimension
  2
*D34
 10
2067.482662534943
 20
1104.772004267699
 30
0.0
 11
1946.14003601336
 21
1123.872004267699
 31
0.0
 70
   160
  1
205
 71
     5
 42
205.0903510559067
  3
ISO-25
100
AcDbAlignedDimension
 13
1862.392311479036
 23
1235.910849371381
 33
0.0
 14
2067.482662534943
 24
1235.910849371381
 34
0.0
100
AcDbRotatedDimension
1001
ACAD
1000
DSTYLE
1002
{
1070
    41
1040
10.0
1070
   140
1040
25.0
1070
   147
1040
6.599999999999998
1070
   279
1070
     2
1070
   342
1005
30D
1070
   371
1070
    18
1070
   372
1070
    18
1002
}
  0
DIMENSION
  5
8EC6
330
1F
100
AcDbEntity
  8
実形
100
AcDbDimension
  2
*D35
 10
2077.482662534944
 20
1050.065992870272
 30
0.0
 11
1945.93986777818
 21
1071.665992870272
 31
0.0
 70
   160
  1
213
 71
     5
 42
215.0000000000002
  3
ISO-25
100
AcDbAlignedDimension
 13
1862.482662534944
 23
1235.910849371381
 33
0.0
 14
2077.482662534944
 24
1171.843436118577
 34
0.0
100
AcDbRotatedDimension
1001
ACAD
1000
DSTYLE
1002
{
1070
    41
1040
10.0
1070
   140
1040
25.0
1070
   147
1040
6.599999999999998
1070
   279
1070
     2
1070
   342
1005
30D
1070
   371
1070
    18
1070
   372
1070
    18
1002
}
  0
LINE
  5
8F30
330
1F
100
AcDbEntity
  8
実形
100
AcDbLine
 10
2050.920120072074
 20
1257.198510170997
 30
0.0
 11
2065.482662534944
 21
1451.17196328526
 31
0.0
  0
ARC
  5
8F31
330
1F
100
AcDbEntity
  8
実形
100
AcDbCircle
 10
2044.938829061883
 20
1257.67196328526
 30
0.0
 40
6.0
100
AcDbArc
 50
270.0
 51
355.4741506990451
  0
TEXT
  5
8F3C
330
1F
100
AcDbEntity
  8
実形
100
AcDbText
 10
1921.601724328647
 20
1340.304363873634
 30
0.0
 40
25.0
  1
6R
 72
     2
 11
1963.268390995314
 21
1336.9710305403
 31
0.0
100
AcDbText
 73
     1
  0
LEADER
  5
8F3D
330
1F
100
AcDbEntity
  8
実形
100
AcDbLeader
  3
ISO-25
 76
     2
 10
2036.611376940091
 20
1260.587849762323
 30
0.0
 10
1965.472568190846
 20
1329.416110530459
 30
0.0
1001
ACAD
1000
DSTYLE
1002
{
1070
    77
1070
     0
1070
    41
1040
10.0
1070
   140
1040
30.0
1070
   147
1040
6.599999999999998
1070
   279
1070
     2
1070
   342
1005
30D
1070
   371
1070
    18
1070
   372
1070
    18
1002
}
  0
LINE
  5
9224
330
1F
100
AcDbEntity
  8
実形
100
AcDbLine
 10
2067.482662534943
 20
1158.042287832584
 30
0.0
 11
2077.482662534944
 21
1158.042287832584
 31
0.0
  0
LINE
  5
9225
330
1F
100
AcDbEntity
  8
実形
100
AcDbLine
 10
2077.482662534944
 20
1158.042287832584
 30
0.0
 11
2077.482662534944
 21
1202.30040685834
 31
0.0
  0
DIMENSION
  5
9226
330
1F
100
AcDbEntity
  8
実形
100
AcDbDimension
  2
*D36
 10
2077.482662534944
 20
1158.042287832584
 30
0.0
 11
2097.904289990986
 21
1177.142287832584
 31
0.0
 70
   160
  1
8
 71
     5
 42
215.0000000000002
  3
ISO-25
100
AcDbAlignedDimension
 13
1862.482662534944
 23
1202.857741816848
 33
0.0
 14
2077.482662534944
 24
1228.178776574085
 34
0.0
100
AcDbRotatedDimension
1001
ACAD
1000
DSTYLE
1002
{
1070
    41
1040
10.0
1070
   147
1040
6.599999999999998
1070
   279
1070
     2
1070
   342
1005
30D
1070
   371
1070
    18
1070
   372
1070
    18
1002
}
  0
LINE
  5
976E
330
1F
100
AcDbEntity
  8
補助
 62
     0
100
AcDbLine
 10
2834.0
 20
1959.0
 30
0.0
 11
2069.387286519283
 21
1959.000000000001
 31
0.0
  0
LINE
  5
976F
330
1F
100
AcDbEntity
  8
補助
 62
     0
100
AcDbLine
 10
2834.0
 20
1894.0
 30
0.0
 11
2069.387286519283
 21
1894.0
 31
0.0
  0
LINE
  5
9770
330
1F
100
AcDbEntity
  8
補助
 62
     0
100
AcDbLine
 10
2252.547653420926
 20
1894.0
 30
0.0
 11
2252.547653420926
 21
2024.0
 31
0.0
  0
LINE
  5
9771
330
1F
100
AcDbEntity
  8
補助
 62
     0
100
AcDbLine
 10
2069.387286519283
 20
1894.0
 30
0.0
 11
2069.387286519283
 21
2024.0
 31
0.0
  0
TEXT
  5
9772
330
1F
100
AcDbEntity
  8
補助
 62
     0
100
AcDbText
 10
2100.295698850121
 20
1976.328571428572
 30
0.0
 40
30.0
  1
部品名
  7
明朝
 72
     4
 11
2166.124270278692
 21
1991.5
 31
0.0
100
AcDbText
  0
TEXT
  5
9773
330
1F
100
AcDbEntity
  8
補助
 62
     0
100
AcDbText
 10
2677.614285714286
 20
1976.071428571429
 30
0.0
 40
30.0
  1
厚さ
  7
明朝
 72
     4
 11
2721.5
 21
1991.5
 31
0.0
100
AcDbText
  0
LINE
  5
9774
330
1F
100
AcDbEntity
  8
補助
 62
     0
100
AcDbLine
 10
2609.0
 20
1894.0
 30
0.0
 11
2609.0
 21
2024.0
 31
0.0
  0
TEXT
  5
9775
330
1F
100
AcDbEntity
  8
補助
 62
     0
100
AcDbText
 10
2388.490869919937
 20
1975.947979478155
 30
0.0
 40
30.0
  1
材質
  7
明朝
 72
     4
 11
2432.376584205651
 21
1991.119408049583
 31
0.0
100
AcDbText
  0
TEXT
  5
9776
330
1F
100
AcDbEntity
  8
実形
 62
     0
100
AcDbText
 10
2098.227810657788
 20
1910.557142857143
 30
0.0
 40
30.0
  1
ボウル
  7
明朝
 72
     4
 11
2164.056382086359
 21
1926.5
 31
0.0
100
AcDbText
  0
TEXT
  5
9777
330
1F
100
AcDbEntity
  8
実形
 62
     0
100
AcDbText
 10
2644.700000000001
 20
1911.842857142857
 30
0.0
 40
30.0
  1
1.0ｍｍ
  7
明朝
 72
     4
 11
2721.500000000001
 21
1926.5
 31
0.0
100
AcDbText
  0
TEXT
  5
9778
330
1F
100
AcDbEntity
  8
実形
 62
     0
100
AcDbText
 10
2311.016869107866
 20
1910.728571428572
 30
0.0
 40
30.0
  1
SUS304（HL）
  7
明朝
 72
     4
 11
2442.674011965009
 21
1926.5
 31
0.0
100
AcDbText
  0
VIEWPORT
  5
2E
102
{ACAD_XDICTIONARY
360
9798
102
}
330
1B
100
AcDbEntity
 67
     1
  8
0
100
AcDbViewport
 10
144.7270812988281
 20
101.2295806407928
 30
0.0
 40
411.6736216682419
 41
222.1517806396485
 68
     1
 69
     1
 12
144.7270812988281
 22
101.2295806407928
 13
0.0
 23
0.0
 14
10.0
 24
10.0
 15
10.0
 25
10.0
 16
0.0
 26
0.0
 36
1.0
 17
0.0
 27
0.0
 37
0.0
 42
50.0
 43
0.0
 44
0.0
 45
222.1517806396485
 50
0.0
 51
0.0
 72
   100
 90
    32800
  1

281
     0
 71
     1
 74
     0
110
0.0
120
0.0
130
0.0
111
1.0
121
0.0
131
0.0
112
0.0
122
1.0
132
0.0
 79
     0
146
0.0
  0
VIEWPORT
  5
30
102
{ACAD_XDICTIONARY
360
979A
102
}
330
1B
100
AcDbEntity
 67
     1
  8
0
100
AcDbViewport
 10
139.2237563133239
 20
101.2295821905136
 30
0.0
 40
222.7580101013184
 41
161.9673315048218
 68
     2
 69
     2
 12
210.0
 22
148.5
 13
0.0
 23
0.0
 14
10.0
 24
10.0
 15
10.0
 25
10.0
 16
0.0
 26
0.0
 36
1.0
 17
0.0
 27
0.0
 37
0.0
 42
50.0
 43
0.0
 44
0.0
 45
309.0686705647124
 50
0.0
 51
0.0
 72
   100
 90
    32864
  1

281
     0
 71
     1
 74
     0
110
0.0
120
0.0
130
0.0
111
1.0
121
0.0
131
0.0
112
0.0
122
1.0
132
0.0
 79
     0
146
0.0
  0
ENDSEC
  0
SECTION
  2
OBJECTS
  0
DICTIONARY
  5
C
330
0
100
AcDbDictionary
281
     1
  3
ACAD_COLOR
350
22AD
  3
ACAD_GROUP
350
D
  3
ACAD_LAYOUT
350
1A
  3
ACAD_MATERIAL
350
22AC
  3
ACAD_MLINESTYLE
350
17
  3
ACAD_PLOTSETTINGS
350
19
  3
ACAD_PLOTSTYLENAME
350
E
  3
ACAD_TABLESTYLE
350
22AE
  3
AcadDim
350
124
  3
ACDBHEADERROUNDTRIPXREC
350
9791
  3
AcDbVariableDictionary
350
1589
  3
DWGPROPS
350
9790
  0
DICTIONARY
  5
24C4
330
2
100
AcDbDictionary
280
     1
281
     1
  3
ACAD_LAYERFILTERS
360
6C37
  3
ACAD_LAYERSTATES
360
24C5
  3
ACLYDICTIONARY
360
6C36
  0
DICTIONARY
  5
2396
330
1F
100
AcDbDictionary
280
     1
281
     1
  3
ACAD_SORTENTS
360
2397
  0
DICTIONARY
  5
313E
330
313C
100
AcDbDictionary
280
     1
281
     1
  3
ACAD_SORTENTS
360
313F
  0
DICTIONARY
  5
3848
330
3846
100
AcDbDictionary
280
     1
281
     1
  3
ACAD_SORTENTS
360
3849
  0
DICTIONARY
  5
6B89
330
6B87
100
AcDbDictionary
280
     1
281
     1
  3
ACAD_SORTENTS
360
6B8A
  0
DICTIONARY
  5
6C02
330
6C00
100
AcDbDictionary
280
     1
281
     1
  3
ACAD_SORTENTS
360
6C03
  0
DICTIONARY
  5
7758
330
7752
100
AcDbDictionary
280
     1
281
     1
  3
ACAD_SORTENTS
360
7759
  0
DICTIONARY
  5
9798
330
2E
100
AcDbDictionary
280
     1
281
     1
  3
ACAD_XREC_ROUNDTRIP
360
9799
  0
DICTIONARY
  5
979A
330
30
100
AcDbDictionary
280
     1
281
     1
  3
ACAD_XREC_ROUNDTRIP
360
979B
  0
DICTIONARY
  5
22AD
102
{ACAD_REACTORS
330
C
102
}
330
C
100
AcDbDictionary
281
     1
  0
DICTIONARY
  5
D
102
{ACAD_REACTORS
330
C
102
}
330
C
100
AcDbDictionary
281
     1
  0
DICTIONARY
  5
1A
102
{ACAD_REACTORS
330
C
102
}
330
C
100
AcDbDictionary
281
     1
  3
Model
350
22
  3
ﾚｲｱｳﾄ1
350
1E
  3
ﾚｲｱｳﾄ2
350
26
  0
DICTIONARY
  5
22AC
102
{ACAD_REACTORS
330
C
102
}
330
C
100
AcDbDictionary
281
     1
  0
DICTIONARY
  5
17
102
{ACAD_REACTORS
330
C
102
}
330
C
100
AcDbDictionary
281
     1
  3
Standard
350
18
  0
DICTIONARY
  5
19
102
{ACAD_REACTORS
330
C
102
}
330
C
100
AcDbDictionary
281
     1
  0
ACDBDICTIONARYWDFLT
  5
E
102
{ACAD_REACTORS
330
C
102
}
330
C
100
AcDbDictionary
281
     1
  3
Normal
350
F
100
AcDbDictionaryWithDefault
340
F
  0
DICTIONARY
  5
22AE
102
{ACAD_REACTORS
330
C
102
}
330
C
100
AcDbDictionary
281
     1
  3
Standard
350
22AF
  0
XRECORD
  5
124
102
{ACAD_REACTORS
330
C
102
}
330
C
100
AcDbXrecord
280
     1
 90
   990106
  3

 60
     0
 61
     0
 62
     1
 63
     3
 64
     0
 65
     0
 66
     0
 67
     3
 68
     1
 69
     0
 70
     0
 71
     0
 72
     0
 40
30.0
170
     0
  0
DICTIONARY
  5
9791
102
{ACAD_REACTORS
330
C
102
}
330
C
100
AcDbDictionary
281
     1
  0
DICTIONARY
  5
1589
102
{ACAD_REACTORS
330
C
102
}
330
C
100
AcDbDictionary
281
     1
  3
CTABLESTYLE
350
22B5
  3
DIMASSOC
350
978D
  3
PROJECTNAME
350
978E
  3
SORTENTS
350
158A
  0
XRECORD
  5
9790
102
{ACAD_REACTORS
330
C
102
}
330
C
100
AcDbXrecord
280
     1
  1
DWGPROPS COOKIE
  2

  3

  4

  6

  7

  8

  9

300
=
301
=
302
=
303
=
304
=
305
=
306
=
307
=
308
=
309
=
 40
2.772118321759259
 41
2451673.575802199
 42
2458809.725586274
  1

 90
        0
  0
DICTIONARY
  5
6C37
102
{ACAD_REACTORS
330
24C4
102
}
330
24C4
100
AcDbDictionary
281
     1
  0
DICTIONARY
  5
24C5
102
{ACAD_REACTORS
330
24C4
102
}
330
24C4
100
AcDbDictionary
281
     1
  0
DICTIONARY
  5
6C36
102
{ACAD_REACTORS
330
24C4
102
}
330
24C4
100
AcDbDictionary
281
     1
1001
ACAD
1000
<All
  0
SORTENTSTABLE
  5
2397
102
{ACAD_REACTORS
330
2396
102
}
330
2396
100
AcDbSortentsTable
330
1F
331
85D8
  5
85D8
331
89EF
  5
89EF
331
8BFC
  5
8BFC
331
89F7
  5
89F7
331
7801
  5
79AA
331
754A
  5
702F
331
8EC3
  5
8EC3
331
8D94
  5
8D94
331
8BED
  5
8BED
331
1B87
  5
1B91
331
1B8F
  5
1B98
331
1B97
  5
1BA7
331
702C
  5
7086
331
89E8
  5
89E8
331
8BF5
  5
8BF5
331
85D9
  5
85D9
331
89F8
  5
89F8
331
8BFD
  5
8BFD
331
A0
  5
1B74
331
8EC4
  5
8EC4
331
8D95
  5
8D95
331
78B2
  5
7B5C
331
7D8A
  5
7E90
331
8BEE
  5
8BEE
331
1B88
  5
1B92
331
1B90
  5
1B99
331
68D6
  5
6E28
331
702D
  5
7133
331
89E9
  5
89E9
331
8BF6
  5
8BF6
331
85DA
  5
85DA
331
89F9
  5
89F9
331
8C06
  5
8C06
331
85FA
  5
85FA
331
8F3C
  5
8F3C
331
1B98
  5
1BA8
331
272
  5
1B7F
331
754C
  5
702B
331
7883
  5
7B4F
331
9224
  5
9224
331
8D96
  5
8D96
331
89D2
  5
89D2
331
89E2
  5
89E2
331
8BEF
  5
8BEF
331
5E5F
  5
634E
331
70D5
  5
7299
331
77F4
  5
79A9
331
1B91
  5
1B9B
331
7026
  5
7026
331
89EA
  5
89EA
331
89F2
  5
89F2
331
8BF7
  5
8BF7
331
85DB
  5
85DB
331
8F3D
  5
8F3D
331
8D8F
  5
8D8F
331
1B99
  5
37FF
331
7185
  5
72AC
331
7086
  5
7298
331
73F5
  5
774D
331
774D
  5
7773
331
9225
  5
9225
331
8EC6
  5
8EC6
331
8D97
  5
8D97
331
89DB
  5
89DB
331
5E68
  5
634F
331
1B8A
  5
1B93
331
1B92
  5
1B9C
331
7027
  5
702C
331
89EB
  5
89EB
331
89FB
  5
89FB
331
8E77
  5
8E77
331
73F6
  5
774E
331
754E
  5
7180
331
774E
  5
7774
331
8D90
  5
8D90
331
9226
  5
9226
331
8D98
  5
8D98
331
89D4
  5
89D4
331
8B81
  5
8B81
331
1B73
  5
1B86
331
1B8B
  5
1B94
331
70DF
  5
729C
331
1B93
  5
1B9D
331
7028
  5
7078
331
8BF1
  5
8BF1
331
89EC
  5
89EC
331
89F4
  5
89F4
331
8BF9
  5
8BF9
331
89FC
  5
89FC
331
9C
  5
9C
331
774F
  5
7775
331
8D99
  5
8D99
331
89D5
  5
89D5
331
89DD
  5
89DD
331
8BEA
  5
8BEA
331
1B84
  5
1B8E
331
6E31
  5
1B73
331
1B8C
  5
1B95
331
1B94
  5
1BA1
331
7029
  5
70DF
331
8BF2
  5
8BF2
331
89ED
  5
89ED
331
89F5
  5
89F5
331
8BFA
  5
8BFA
331
8F30
  5
8F30
331
7079
  5
7183
331
5D0B
  5
604B
331
7548
  5
703F
331
8D92
  5
8D92
331
89D6
  5
89D6
331
89DE
  5
89DE
331
8BEB
  5
8BEC
331
7750
  5
7776
331
1B85
  5
1B8F
331
1B8D
  5
1B96
331
1B95
  5
1BA2
331
702A
  5
7027
331
8BF3
  5
8BF3
331
85D7
  5
85D7
331
89EE
  5
89EE
331
8BFB
  5
8BFB
331
8F31
  5
8F31
331
8EC2
  5
8EC2
331
8D93
  5
8D93
331
89D7
  5
89D7
331
8DA3
  5
8DA3
331
8BEC
  5
8BEB
331
7751
  5
7777
331
6D9B
  5
1B7B
331
1B86
  5
1B90
331
1B8E
  5
1B97
331
68BC
  5
6D9A
331
702B
  5
702E
331
1B96
  5
1BA6
  0
SORTENTSTABLE
  5
313F
102
{ACAD_REACTORS
330
313E
102
}
330
313E
100
AcDbSortentsTable
330
313C
  0
SORTENTSTABLE
  5
3849
102
{ACAD_REACTORS
330
3848
102
}
330
3848
100
AcDbSortentsTable
330
3846
  0
SORTENTSTABLE
  5
6B8A
102
{ACAD_REACTORS
330
6B89
102
}
330
6B89
100
AcDbSortentsTable
330
6B87
  0
SORTENTSTABLE
  5
6C03
102
{ACAD_REACTORS
330
6C02
102
}
330
6C02
100
AcDbSortentsTable
330
6C00
  0
SORTENTSTABLE
  5
7759
102
{ACAD_REACTORS
330
7758
102
}
330
7758
100
AcDbSortentsTable
330
7752
  0
XRECORD
  5
9799
102
{ACAD_REACTORS
330
9798
102
}
330
9798
100
AcDbXrecord
280
     1
102
SHADEPLOT
 70
     0
  0
XRECORD
  5
979B
102
{ACAD_REACTORS
330
979A
102
}
330
979A
100
AcDbXrecord
280
     1
102
SHADEPLOT
 70
     0
  0
LAYOUT
  5
22
102
{ACAD_XDICTIONARY
360
9794
102
}
102
{ACAD_REACTORS
330
1A
102
}
330
1A
100
AcDbPlotSettings
  1

  2
EPSON PM-800C
  4
A4
  6

 40
3.757083177566528
 41
14.7637300491333
 42
3.757080078125
 43
3.757080078125
 44
209.9733276367187
 45
296.9683227539062
 46
0.0
 47
0.0
 48
0.0
 49
0.0
140
0.0
141
0.0
142
1.0
143
10.0
 70
 11952
 72
     1
 73
     1
 74
     2
  7

 75
    20
147
0.1
148
0.0
149
0.0
100
AcDbLayout
  1
Model
 70
     1
 71
     0
 10
0.0
 20
0.0
 11
12.0
 21
9.0
 12
0.0
 22
0.0
 32
0.0
 14
0.0
 24
0.0
 34
0.0
 15
0.0
 25
0.0
 35
0.0
146
0.0
 13
0.0
 23
0.0
 33
0.0
 16
1.0
 26
0.0
 36
0.0
 17
0.0
 27
1.0
 37
0.0
 76
     0
330
1F
  0
LAYOUT
  5
1E
102
{ACAD_XDICTIONARY
360
9792
102
}
102
{ACAD_REACTORS
330
1A
102
}
330
1A
100
AcDbPlotSettings
  1

  2
EPSON PM-800C
  4
A4
  6

 40
3.757083177566528
 41
14.7637300491333
 42
3.757080078125
 43
3.757080078125
 44
209.9733276367187
 45
296.9683227539062
 46
0.0
 47
0.0
 48
0.0
 49
0.0
140
0.0
141
0.0
142
1.0
143
1.0
 70
   688
 72
     1
 73
     1
 74
     5
  7

 75
    16
147
1.0
148
0.0
149
0.0
100
AcDbLayout
  1
ﾚｲｱｳﾄ1
 70
     1
 71
     1
 10
-3.757080078125
 20
-3.757083177566528
 11
293.2112426757813
 21
206.2162444591522
 12
0.0
 22
0.0
 32
0.0
 14
27.8447512626648
 24
20.24591643810271
 34
0.0
 15
250.6027613639831
 25
182.2132479429245
 35
0.0
146
0.0
 13
0.0
 23
0.0
 33
0.0
 16
1.0
 26
0.0
 36
0.0
 17
0.0
 27
1.0
 37
0.0
 76
     0
330
1B
331
2E
  0
LAYOUT
  5
26
102
{ACAD_XDICTIONARY
360
9796
102
}
102
{ACAD_REACTORS
330
1A
102
}
330
1A
100
AcDbPlotSettings
  1

  2
EPSON PM-800C
  4

  6

 40
0.0
 41
0.0
 42
0.0
 43
0.0
 44
0.0
 45
0.0
 46
0.0
 47
0.0
 48
0.0
 49
0.0
140
0.0
141
0.0
142
1.0
143
1.0
 70
   688
 72
     0
 73
     0
 74
     5
  7

 75
    16
147
1.0
148
0.0
149
0.0
100
AcDbLayout
  1
ﾚｲｱｳﾄ2
 70
     1
 71
     2
 10
0.0
 20
0.0
 11
12.0
 21
9.0
 12
0.0
 22
0.0
 32
0.0
 14
0.0
 24
0.0
 34
0.0
 15
0.0
 25
0.0
 35
0.0
146
0.0
 13
0.0
 23
0.0
 33
0.0
 16
1.0
 26
0.0
 36
0.0
 17
0.0
 27
1.0
 37
0.0
 76
     0
330
23
  0
MLINESTYLE
  5
18
102
{ACAD_REACTORS
330
17
102
}
330
17
100
AcDbMlineStyle
  2
STANDARD
 70
     0
  3

 62
   256
 51
90.0
 52
90.0
 71
     2
 49
0.5
 62
   256
  6
BYLAYER
 49
-0.5
 62
   256
  6
BYLAYER
  0
ACDBPLACEHOLDER
  5
F
102
{ACAD_REACTORS
330
E
102
}
330
E
  0
TABLESTYLE
  5
22AF
102
{ACAD_REACTORS
330
22AE
102
}
330
22AE
100
AcDbTableStyle
  3
Standard
 70
     0
 71
     0
 40
1.5
 41
1.5
280
     0
281
     0
  7
Standard
140
4.5
170
     2
 62
     0
 63
     7
283
     0
274
    -2
284
     1
 64
     0
275
    -2
285
     1
 65
     0
276
    -2
286
     1
 66
     0
277
    -2
287
     1
 67
     0
278
    -2
288
     1
 68
     0
279
    -2
289
     1
 69
     0
  7
Standard
140
6.0
170
     5
 62
     0
 63
     7
283
     0
274
    -2
284
     1
 64
     0
275
    -2
285
     1
 65
     0
276
    -2
286
     1
 66
     0
277
    -2
287
     1
 67
     0
278
    -2
288
     1
 68
     0
279
    -2
289
     1
 69
     0
  7
Standard
140
4.5
170
     5
 62
     0
 63
     7
283
     0
274
    -2
284
     1
 64
     0
275
    -2
285
     1
 65
     0
276
    -2
286
     1
 66
     0
277
    -2
287
     1
 67
     0
278
    -2
288
     1
 68
     0
279
    -2
289
     1
 69
     0
  0
DICTIONARYVAR
  5
22B5
102
{ACAD_REACTORS
330
1589
102
}
330
1589
100
DictionaryVariables
280
     0
  1
STANDARD
  0
DICTIONARYVAR
  5
978D
102
{ACAD_REACTORS
330
1589
102
}
330
1589
100
DictionaryVariables
280
     0
  1
1
  0
DICTIONARYVAR
  5
978E
102
{ACAD_REACTORS
330
1589
102
}
330
1589
100
DictionaryVariables
280
     0
  1

  0
DICTIONARYVAR
  5
158A
102
{ACAD_REACTORS
330
1589
102
}
330
1589
100
DictionaryVariables
280
     0
  1
96
  0
DICTIONARY
  5
9794
330
22
100
AcDbDictionary
280
     1
281
     1
  3
ACAD_XREC_ROUNDTRIP
360
9795
  0
DICTIONARY
  5
9792
330
1E
100
AcDbDictionary
280
     1
281
     1
  3
ACAD_XREC_ROUNDTRIP
360
9793
  0
DICTIONARY
  5
9796
330
26
100
AcDbDictionary
280
     1
281
     1
  3
ACAD_XREC_ROUNDTRIP
360
9797
  0
XRECORD
  5
9795
102
{ACAD_REACTORS
330
9794
102
}
330
9794
100
AcDbXrecord
280
     1
102
SHADEPLOT
 70
     0
102
SHADEPLOTRESLEVEL
 70
     2
102
SHADEPLOTCUSTOMDPI
 70
   300
  0
XRECORD
  5
9793
102
{ACAD_REACTORS
330
9792
102
}
330
9792
100
AcDbXrecord
280
     1
102
SHADEPLOT
 70
     0
102
SHADEPLOTRESLEVEL
 70
     2
102
SHADEPLOTCUSTOMDPI
 70
   300
  0
XRECORD
  5
9797
102
{ACAD_REACTORS
330
9796
102
}
330
9796
100
AcDbXrecord
280
     1
102
SHADEPLOT
 70
     0
102
SHADEPLOTRESLEVEL
 70
     2
102
SHADEPLOTCUSTOMDPI
 70
   300
  0
ENDSEC
  0
EOF
