  0
SECTION
  2
HEADER
  9
$ACADVER
  1
AC1015
  9
$ACADMAINTVER
 70
    20
  9
$DWGCODEPAGE
  3
ANSI_932
  9
$INSBASE
 10
0.0
 20
0.0
 30
0.0
  9
$EXTMIN
 10
174.0
 20
3.99999999999909
 30
0.0
  9
$EXTMAX
 10
2834.0
 20
2024.0
 30
0.0
  9
$LIMMIN
 10
54.0
 20
4.0
  9
$LIMMAX
 10
2834.0
 20
2024.0
  9
$ORTHOMODE
 70
     1
  9
$REGENMODE
 70
     1
  9
$FILLMODE
 70
     1
  9
$QTEXTMODE
 70
     0
  9
$MIRRTEXT
 70
     1
  9
$LTSCALE
 40
4.0
  9
$ATTMODE
 70
     1
  9
$TEXTSIZE
 40
30.0
  9
$TRACEWID
 40
1.0
  9
$TEXTSTYLE
  7
Standard
  9
$CLAYER
  8
実形
  9
$CELTYPE
  6
ByLayer
  9
$CECOLOR
 62
     3
  9
$CELTSCALE
 40
1.0
  9
$DISPSILH
 70
     0
  9
$DIMSCALE
 40
1.0
  9
$DIMASZ
 40
10.0
  9
$DIMEXO
 40
65.0
  9
$DIMDLI
 40
3.75
  9
$DIMRND
 40
0.0
  9
$DIMDLE
 40
0.0
  9
$DIMEXE
 40
0.0
  9
$DIMTP
 40
0.0
  9
$DIMTM
 40
0.0
  9
$DIMTXT
 40
30.0
  9
$DIMCEN
 40
2.5
  9
$DIMTSZ
 40
0.0
  9
$DIMTOL
 70
     0
  9
$DIMLIM
 70
     0
  9
$DIMTIH
 70
     0
  9
$DIMTOH
 70
     0
  9
$DIMSE1
 70
     0
  9
$DIMSE2
 70
     0
  9
$DIMTAD
 70
     1
  9
$DIMZIN
 70
     8
  9
$DIMBLK
  1
Dot
  9
$DIMASO
 70
     1
  9
$DIMSHO
 70
     1
  9
$DIMPOST
  1

  9
$DIMAPOST
  1

  9
$DIMALT
 70
     0
  9
$DIMALTD
 70
     3
  9
$DIMALTF
 40
0.03937007874016
  9
$DIMLFAC
 40
1.0
  9
$DIMTOFL
 70
     1
  9
$DIMTVP
 40
0.0
  9
$DIMTIX
 70
     0
  9
$DIMSOXD
 70
     0
  9
$DIMSAH
 70
     0
  9
$DIMBLK1
  1

  9
$DIMBLK2
  1

  9
$DIMSTYLE
  2
ISO-25
  9
$DIMCLRD
 70
     0
  9
$DIMCLRE
 70
     0
  9
$DIMCLRT
 70
     0
  9
$DIMTFAC
 40
1.0
  9
$DIMGAP
 40
6.599999999999998
  9
$DIMJUST
 70
     0
  9
$DIMSD1
 70
     0
  9
$DIMSD2
 70
     0
  9
$DIMTOLJ
 70
     0
  9
$DIMTZIN
 70
     8
  9
$DIMALTZ
 70
     0
  9
$DIMALTTZ
 70
     0
  9
$DIMUPT
 70
     0
  9
$DIMDEC
 70
     2
  9
$DIMTDEC
 70
     2
  9
$DIMALTU
 70
     2
  9
$DIMALTTD
 70
     3
  9
$DIMTXSTY
  7
Standard
  9
$DIMAUNIT
 70
     0
  9
$DIMADEC
 70
     0
  9
$DIMALTRND
 40
0.0
  9
$DIMAZIN
 70
     0
  9
$DIMDSEP
 70
    46
  9
$DIMATFIT
 70
     3
  9
$DIMFRAC
 70
     0
  9
$DIMLDRBLK
  1
Open30
  9
$DIMLUNIT
 70
     2
  9
$DIMLWD
 70
    18
  9
$DIMLWE
 70
    18
  9
$DIMTMOVE
 70
     2
  9
$LUNITS
 70
     2
  9
$LUPREC
 70
     2
  9
$SKETCHINC
 40
1.0
  9
$FILLETRAD
 40
6.0
  9
$AUNITS
 70
     0
  9
$AUPREC
 70
     0
  9
$MENU
  1
.
  9
$ELEVATION
 40
0.0
  9
$PELEVATION
 40
0.0
  9
$THICKNESS
 40
0.0
  9
$LIMCHECK
 70
     1
  9
$CHAMFERA
 40
10.0
  9
$CHAMFERB
 40
10.0
  9
$CHAMFERC
 40
20.0
  9
$CHAMFERD
 40
0.0
  9
$SKPOLY
 70
     0
  9
$TDCREATE
 40
2451673.575802199
  9
$TDUCREATE
 40
2451673.200802199
  9
$TDUPDATE
 40
2458809.741915660
  9
$TDUUPDATE
 40
2458809.366915660
  9
$TDINDWG
 40
2.8326611690
  9
$TDUSRTIMER
 40
2.8326604745
  9
$USRTIMER
 70
     1
  9
$ANGBASE
 50
0.0
  9
$ANGDIR
 70
     0
  9
$PDMODE
 70
     0
  9
$PDSIZE
 40
0.0
  9
$PLINEWID
 40
0.0
  9
$SPLFRAME
 70
     0
  9
$SPLINETYPE
 70
     6
  9
$SPLINESEGS
 70
     8
  9
$HANDSEED
  5
94A7
  9
$SURFTAB1
 70
     6
  9
$SURFTAB2
 70
     6
  9
$SURFTYPE
 70
     6
  9
$SURFU
 70
     6
  9
$SURFV
 70
     6
  9
$UCSBASE
  2

  9
$UCSNAME
  2

  9
$UCSORG
 10
0.0
 20
0.0
 30
0.0
  9
$UCSXDIR
 10
1.0
 20
0.0
 30
0.0
  9
$UCSYDIR
 10
0.0
 20
1.0
 30
0.0
  9
$UCSORTHOREF
  2

  9
$UCSORTHOVIEW
 70
     0
  9
$UCSORGTOP
 10
0.0
 20
0.0
 30
0.0
  9
$UCSORGBOTTOM
 10
0.0
 20
0.0
 30
0.0
  9
$UCSORGLEFT
 10
0.0
 20
0.0
 30
0.0
  9
$UCSORGRIGHT
 10
0.0
 20
0.0
 30
0.0
  9
$UCSORGFRONT
 10
0.0
 20
0.0
 30
0.0
  9
$UCSORGBACK
 10
0.0
 20
0.0
 30
0.0
  9
$PUCSBASE
  2

  9
$PUCSNAME
  2

  9
$PUCSORG
 10
0.0
 20
0.0
 30
0.0
  9
$PUCSXDIR
 10
1.0
 20
0.0
 30
0.0
  9
$PUCSYDIR
 10
0.0
 20
1.0
 30
0.0
  9
$PUCSORTHOREF
  2

  9
$PUCSORTHOVIEW
 70
     0
  9
$PUCSORGTOP
 10
0.0
 20
0.0
 30
0.0
  9
$PUCSORGBOTTOM
 10
0.0
 20
0.0
 30
0.0
  9
$PUCSORGLEFT
 10
0.0
 20
0.0
 30
0.0
  9
$PUCSORGRIGHT
 10
0.0
 20
0.0
 30
0.0
  9
$PUCSORGFRONT
 10
0.0
 20
0.0
 30
0.0
  9
$PUCSORGBACK
 10
0.0
 20
0.0
 30
0.0
  9
$USERI1
 70
     0
  9
$USERI2
 70
     0
  9
$USERI3
 70
     0
  9
$USERI4
 70
     0
  9
$USERI5
 70
     0
  9
$USERR1
 40
0.0
  9
$USERR2
 40
0.0
  9
$USERR3
 40
0.0
  9
$USERR4
 40
0.0
  9
$USERR5
 40
0.0
  9
$WORLDVIEW
 70
     1
  9
$SHADEDGE
 70
     3
  9
$SHADEDIF
 70
    70
  9
$TILEMODE
 70
     1
  9
$MAXACTVP
 70
    64
  9
$PINSBASE
 10
0.0
 20
0.0
 30
0.0
  9
$PLIMCHECK
 70
     0
  9
$PEXTMIN
 10
27.8447512626648
 20
20.24591643810271
 30
0.0
  9
$PEXTMAX
 10
250.6027613639831
 20
182.2132479429245
 30
0.0
  9
$PLIMMIN
 10
-3.757080078125
 20
-3.757083177566528
  9
$PLIMMAX
 10
293.2112426757813
 20
206.2162444591522
  9
$UNITMODE
 70
     0
  9
$VISRETAIN
 70
     1
  9
$PLINEGEN
 70
     0
  9
$PSLTSCALE
 70
     1
  9
$TREEDEPTH
 70
  3020
  9
$CMLSTYLE
  2
Standard
  9
$CMLJUST
 70
     0
  9
$CMLSCALE
 40
20.0
  9
$PROXYGRAPHICS
 70
     1
  9
$MEASUREMENT
 70
     1
  9
$CELWEIGHT
370
    -1
  9
$ENDCAPS
280
     0
  9
$JOINSTYLE
280
     0
  9
$LWDISPLAY
290
     0
  9
$INSUNITS
 70
     4
  9
$HYPERLINKBASE
  1

  9
$STYLESHEET
  1

  9
$XEDIT
290
     1
  9
$CEPSNTYPE
380
     0
  9
$PSTYLEMODE
290
     1
  9
$FINGERPRINTGUID
  2
{C8EA1F16-24C9-11D4-9416-CE0A3B32152F}
  9
$VERSIONGUID
  2
{19E8184B-2921-44F0-B104-170B0C9E1162}
  9
$EXTNAMES
290
     1
  9
$PSVPSCALE
 40
0.0
  9
$OLESTARTUP
290
     0
  0
ENDSEC
  0
SECTION
  2
CLASSES
  0
CLASS
  1
ACDBDICTIONARYWDFLT
  2
AcDbDictionaryWithDefault
  3
ObjectDBX Classes
 90
        0
280
     0
281
     0
  0
CLASS
  1
ACDBPLACEHOLDER
  2
AcDbPlaceHolder
  3
ObjectDBX Classes
 90
        0
280
     0
281
     0
  0
CLASS
  1
LAYOUT
  2
AcDbLayout
  3
ObjectDBX Classes
 90
        0
280
     0
281
     0
  0
CLASS
  1
DICTIONARYVAR
  2
AcDbDictionaryVar
  3
ObjectDBX Classes
 90
        0
280
     0
281
     0
  0
CLASS
  1
TABLESTYLE
  2
AcDbTableStyle
  3
ObjectDBX Classes
 90
     2047
280
     0
281
     0
  0
CLASS
  1
SORTENTSTABLE
  2
AcDbSortentsTable
  3
ObjectDBX Classes
 90
        0
280
     0
281
     0
  0
ENDSEC
  0
SECTION
  2
TABLES
  0
TABLE
  2
VPORT
  5
8
330
0
100
AcDbSymbolTable
 70
     2
  0
VPORT
  5
949A
330
8
100
AcDbSymbolTableRecord
100
AcDbViewportTableRecord
  2
*Active
 70
     0
 10
0.0
 20
0.0
 11
1.0
 21
1.0
 12
1426.132619367755
 22
969.353489605659
 13
0.0
 23
0.0
 14
10.0
 24
10.0
 15
10.0
 25
10.0
 16
0.0
 26
0.0
 36
1.0
 17
0.0
 27
0.0
 37
0.0
 40
2324.175950496639
 41
1.29038112522686
 42
50.0
 43
0.0
 44
0.0
 50
0.0
 51
0.0
 71
     0
 72
   100
 73
     1
 74
     3
 75
     0
 76
     0
 77
     0
 78
     0
281
     0
 65
     1
110
0.0
120
0.0
130
0.0
111
1.0
121
0.0
131
0.0
112
0.0
122
1.0
132
0.0
 79
     0
146
0.0
  0
ENDTAB
  0
TABLE
  2
LTYPE
  5
5
330
0
100
AcDbSymbolTable
 70
    46
  0
LTYPE
  5
14
330
5
100
AcDbSymbolTableRecord
100
AcDbLinetypeTableRecord
  2
ByBlock
 70
     0
  3

 72
    65
 73
     0
 40
0.0
  0
LTYPE
  5
15
330
5
100
AcDbSymbolTableRecord
100
AcDbLinetypeTableRecord
  2
ByLayer
 70
     0
  3

 72
    65
 73
     0
 40
0.0
  0
LTYPE
  5
16
330
5
100
AcDbSymbolTableRecord
100
AcDbLinetypeTableRecord
  2
Continuous
 70
     0
  3
Solid line
 72
    65
 73
     0
 40
0.0
  0
LTYPE
  5
34
330
5
100
AcDbSymbolTableRecord
100
AcDbLinetypeTableRecord
  2
ACAD_ISO02W100
 70
     0
  3
ISO dash __ __ __ __ __ __ __ __ __ __ __ __ __
 72
    65
 73
     2
 40
15.0
 49
12.0
 74
     0
 49
-3.0
 74
     0
  0
LTYPE
  5
35
330
5
100
AcDbSymbolTableRecord
100
AcDbLinetypeTableRecord
  2
ACAD_ISO03W100
 70
     0
  3
ISO dash space __    __    __    __    __    __
 72
    65
 73
     2
 40
30.0
 49
12.0
 74
     0
 49
-18.0
 74
     0
  0
LTYPE
  5
36
330
5
100
AcDbSymbolTableRecord
100
AcDbLinetypeTableRecord
  2
ACAD_ISO04W100
 70
     0
  3
ISO long-dash dot ____ . ____ . ____ . ____ . _
 72
    65
 73
     4
 40
30.0
 49
24.0
 74
     0
 49
-3.0
 74
     0
 49
0.0
 74
     0
 49
-3.0
 74
     0
  0
LTYPE
  5
37
330
5
100
AcDbSymbolTableRecord
100
AcDbLinetypeTableRecord
  2
ACAD_ISO05W100
 70
     0
  3
ISO long-dash double-dot ____ .. ____ .. ____ .
 72
    65
 73
     6
 40
34.0
 49
24.0
 74
     0
 49
-3.0
 74
     0
 49
0.5
 74
     0
 49
-3.0
 74
     0
 49
0.5
 74
     0
 49
-3.0
 74
     0
  0
LTYPE
  5
38
330
5
100
AcDbSymbolTableRecord
100
AcDbLinetypeTableRecord
  2
ACAD_ISO06W100
 70
     0
  3
ISO long-dash triple-dot ____ ... ____ ... ____
 72
    65
 73
     8
 40
37.5
 49
24.0
 74
     0
 49
-3.0
 74
     0
 49
0.5
 74
     0
 49
-3.0
 74
     0
 49
0.5
 74
     0
 49
-3.0
 74
     0
 49
0.5
 74
     0
 49
-3.0
 74
     0
  0
LTYPE
  5
39
330
5
100
AcDbSymbolTableRecord
100
AcDbLinetypeTableRecord
  2
ACAD_ISO07W100
 70
     0
  3
ISO dot . . . . . . . . . . . . . . . . . . . .
 72
    65
 73
     2
 40
3.0
 49
0.0
 74
     0
 49
-3.0
 74
     0
  0
LTYPE
  5
3A
330
5
100
AcDbSymbolTableRecord
100
AcDbLinetypeTableRecord
  2
ACAD_ISO08W100
 70
     0
  3
ISO long-dash short-dash ____ __ ____ __ ____ _
 72
    65
 73
     4
 40
36.0
 49
24.0
 74
     0
 49
-3.0
 74
     0
 49
6.0
 74
     0
 49
-3.0
 74
     0
  0
LTYPE
  5
3B
330
5
100
AcDbSymbolTableRecord
100
AcDbLinetypeTableRecord
  2
ACAD_ISO09W100
 70
     0
  3
ISO long-dash double-short-dash ____ __ __ ____
 72
    65
 73
     6
 40
45.0
 49
24.0
 74
     0
 49
-3.0
 74
     0
 49
6.0
 74
     0
 49
-3.0
 74
     0
 49
6.0
 74
     0
 49
-3.0
 74
     0
  0
LTYPE
  5
3C
330
5
100
AcDbSymbolTableRecord
100
AcDbLinetypeTableRecord
  2
ACAD_ISO10W100
 70
     0
  3
ISO dash dot __ . __ . __ . __ . __ . __ . __ .
 72
    65
 73
     4
 40
18.0
 49
12.0
 74
     0
 49
-3.0
 74
     0
 49
0.0
 74
     0
 49
-3.0
 74
     0
  0
LTYPE
  5
3D
330
5
100
AcDbSymbolTableRecord
100
AcDbLinetypeTableRecord
  2
ACAD_ISO11W100
 70
     0
  3
ISO double-dash dot __ __ . __ __ . __ __ . __ 
 72
    65
 73
     6
 40
33.0
 49
12.0
 74
     0
 49
-3.0
 74
     0
 49
12.0
 74
     0
 49
-3.0
 74
     0
 49
0.0
 74
     0
 49
-3.0
 74
     0
  0
LTYPE
  5
3E
330
5
100
AcDbSymbolTableRecord
100
AcDbLinetypeTableRecord
  2
ACAD_ISO12W100
 70
     0
  3
ISO dash double-dot __ . . __ . . __ . . __ . .
 72
    65
 73
     6
 40
21.0
 49
12.0
 74
     0
 49
-3.0
 74
     0
 49
0.0
 74
     0
 49
-3.0
 74
     0
 49
0.0
 74
     0
 49
-3.0
 74
     0
  0
LTYPE
  5
3F
330
5
100
AcDbSymbolTableRecord
100
AcDbLinetypeTableRecord
  2
ACAD_ISO13W100
 70
     0
  3
ISO double-dash double-dot __ __ . . __ __ . . 
 72
    65
 73
     8
 40
36.0
 49
12.0
 74
     0
 49
-3.0
 74
     0
 49
12.0
 74
     0
 49
-3.0
 74
     0
 49
0.0
 74
     0
 49
-3.0
 74
     0
 49
0.0
 74
     0
 49
-3.0
 74
     0
  0
LTYPE
  5
40
330
5
100
AcDbSymbolTableRecord
100
AcDbLinetypeTableRecord
  2
ACAD_ISO14W100
 70
     0
  3
ISO dash triple-dot __ . . . __ . . . __ . . . 
 72
    65
 73
     8
 40
24.0
 49
12.0
 74
     0
 49
-3.0
 74
     0
 49
0.0
 74
     0
 49
-3.0
 74
     0
 49
0.0
 74
     0
 49
-3.0
 74
     0
 49
0.0
 74
     0
 49
-3.0
 74
     0
  0
LTYPE
  5
41
330
5
100
AcDbSymbolTableRecord
100
AcDbLinetypeTableRecord
  2
ACAD_ISO15W100
 70
     0
  3
ISO double-dash triple-dot __ __ . . . __ __ . 
 72
    65
 73
    10
 40
39.0
 49
12.0
 74
     0
 49
-3.0
 74
     0
 49
12.0
 74
     0
 49
-3.0
 74
     0
 49
0.0
 74
     0
 49
-3.0
 74
     0
 49
0.0
 74
     0
 49
-3.0
 74
     0
 49
0.0
 74
     0
 49
-3.0
 74
     0
  0
LTYPE
  5
42
330
5
100
AcDbSymbolTableRecord
100
AcDbLinetypeTableRecord
  2
BATTING
 70
     0
  3
Batting SSSSSSSSSSSSSSSSSSSSSSSSSSSSSSSSSSSSSSS
 72
    65
 73
     4
 40
10.16254
 49
0.00254
 74
     0
 49
-2.54
 74
     4
 75
   134
340
33
 46
2.54
 50
0.0
 44
-2.54
 45
0.0
 49
-5.08
 74
     4
 75
   134
340
33
 46
2.54
 50
180.0
 44
2.54
 45
0.0
 49
-2.54
 74
     0
  0
LTYPE
  5
43
330
5
100
AcDbSymbolTableRecord
100
AcDbLinetypeTableRecord
  2
BORDER
 70
     0
  3
Border __ __ . __ __ . __ __ . __ __ . __ __ .
 72
    65
 73
     6
 40
44.45
 49
12.7
 74
     0
 49
-6.349999999999999
 74
     0
 49
12.7
 74
     0
 49
-6.349999999999999
 74
     0
 49
0.0
 74
     0
 49
-6.349999999999999
 74
     0
  0
LTYPE
  5
44
330
5
100
AcDbSymbolTableRecord
100
AcDbLinetypeTableRecord
  2
BORDER2
 70
     0
  3
Border (.5x) __.__.__.__.__.__.__.__.__.__.__.
 72
    65
 73
     6
 40
22.225
 49
6.349999999999999
 74
     0
 49
-3.174999999999999
 74
     0
 49
6.349999999999999
 74
     0
 49
-3.174999999999999
 74
     0
 49
0.0
 74
     0
 49
-3.174999999999999
 74
     0
  0
LTYPE
  5
45
330
5
100
AcDbSymbolTableRecord
100
AcDbLinetypeTableRecord
  2
BORDERX2
 70
     0
  3
Border (2x) ____  ____  .  ____  ____  .  ___
 72
    65
 73
     6
 40
88.9
 49
25.4
 74
     0
 49
-12.7
 74
     0
 49
25.4
 74
     0
 49
-12.7
 74
     0
 49
0.0
 74
     0
 49
-12.7
 74
     0
  0
LTYPE
  5
46
330
5
100
AcDbSymbolTableRecord
100
AcDbLinetypeTableRecord
  2
CENTER
 70
     0
  3
Center ____ _ ____ _ ____ _ ____ _ ____ _ ____
 72
    65
 73
     4
 40
50.8
 49
31.75
 74
     0
 49
-6.349999999999999
 74
     0
 49
6.349999999999999
 74
     0
 49
-6.349999999999999
 74
     0
  0
LTYPE
  5
47
330
5
100
AcDbSymbolTableRecord
100
AcDbLinetypeTableRecord
  2
CENTER2
 70
     0
  3
Center (.5x) ___ _ ___ _ ___ _ ___ _ ___ _ ___
 72
    65
 73
     4
 40
28.575
 49
19.05
 74
     0
 49
-3.174999999999999
 74
     0
 49
3.174999999999999
 74
     0
 49
-3.174999999999999
 74
     0
  0
LTYPE
  5
48
330
5
100
AcDbSymbolTableRecord
100
AcDbLinetypeTableRecord
  2
CENTERX2
 70
     0
  3
Center (2x) ________  __  ________  __  _____
 72
    65
 73
     4
 40
101.6
 49
63.5
 74
     0
 49
-12.7
 74
     0
 49
12.7
 74
     0
 49
-12.7
 74
     0
  0
LTYPE
  5
49
330
5
100
AcDbSymbolTableRecord
100
AcDbLinetypeTableRecord
  2
DASHDOT
 70
     0
  3
Dash dot __ . __ . __ . __ . __ . __ . __ . __
 72
    65
 73
     4
 40
25.4
 49
12.7
 74
     0
 49
-6.349999999999999
 74
     0
 49
0.0
 74
     0
 49
-6.349999999999999
 74
     0
  0
LTYPE
  5
4A
330
5
100
AcDbSymbolTableRecord
100
AcDbLinetypeTableRecord
  2
DASHDOT2
 70
     0
  3
Dash dot (.5x) _._._._._._._._._._._._._._._.
 72
    65
 73
     4
 40
12.7
 49
6.349999999999999
 74
     0
 49
-3.174999999999999
 74
     0
 49
0.0
 74
     0
 49
-3.174999999999999
 74
     0
  0
LTYPE
  5
4B
330
5
100
AcDbSymbolTableRecord
100
AcDbLinetypeTableRecord
  2
DASHDOTX2
 70
     0
  3
Dash dot (2x) ____  .  ____  .  ____  .  ___
 72
    65
 73
     4
 40
50.8
 49
25.4
 74
     0
 49
-12.7
 74
     0
 49
0.0
 74
     0
 49
-12.7
 74
     0
  0
LTYPE
  5
4C
330
5
100
AcDbSymbolTableRecord
100
AcDbLinetypeTableRecord
  2
DASHED
 70
     0
  3
Dashed __ __ __ __ __ __ __ __ __ __ __ __ __ _
 72
    65
 73
     2
 40
19.05
 49
12.7
 74
     0
 49
-6.349999999999999
 74
     0
  0
LTYPE
  5
4D
330
5
100
AcDbSymbolTableRecord
100
AcDbLinetypeTableRecord
  2
DASHED2
 70
     0
  3
Dashed (.5x) _ _ _ _ _ _ _ _ _ _ _ _ _ _ _ _ _
 72
    65
 73
     2
 40
9.524999999999998
 49
6.349999999999999
 74
     0
 49
-3.174999999999999
 74
     0
  0
LTYPE
  5
4E
330
5
100
AcDbSymbolTableRecord
100
AcDbLinetypeTableRecord
  2
DASHEDX2
 70
     0
  3
Dashed (2x) ____  ____  ____  ____  ____  ___
 72
    65
 73
     2
 40
38.1
 49
25.4
 74
     0
 49
-12.7
 74
     0
  0
LTYPE
  5
4F
330
5
100
AcDbSymbolTableRecord
100
AcDbLinetypeTableRecord
  2
DIVIDE
 70
     0
  3
Divide ____ . . ____ . . ____ . . ____ . . ____
 72
    65
 73
     6
 40
31.75
 49
12.7
 74
     0
 49
-6.349999999999999
 74
     0
 49
0.0
 74
     0
 49
-6.349999999999999
 74
     0
 49
0.0
 74
     0
 49
-6.349999999999999
 74
     0
  0
LTYPE
  5
50
330
5
100
AcDbSymbolTableRecord
100
AcDbLinetypeTableRecord
  2
DIVIDE2
 70
     0
  3
Divide (.5x) __..__..__..__..__..__..__..__.._
 72
    65
 73
     6
 40
15.875
 49
6.349999999999999
 74
     0
 49
-3.174999999999999
 74
     0
 49
0.0
 74
     0
 49
-3.174999999999999
 74
     0
 49
0.0
 74
     0
 49
-3.174999999999999
 74
     0
  0
LTYPE
  5
51
330
5
100
AcDbSymbolTableRecord
100
AcDbLinetypeTableRecord
  2
DIVIDEX2
 70
     0
  3
Divide (2x) ________  .  .  ________  .  .  _
 72
    65
 73
     6
 40
63.49999999999999
 49
25.4
 74
     0
 49
-12.7
 74
     0
 49
0.0
 74
     0
 49
-12.7
 74
     0
 49
0.0
 74
     0
 49
-12.7
 74
     0
  0
LTYPE
  5
52
330
5
100
AcDbSymbolTableRecord
100
AcDbLinetypeTableRecord
  2
DOT
 70
     0
  3
Dot . . . . . . . . . . . . . . . . . . . . . .
 72
    65
 73
     2
 40
6.349999999999999
 49
0.0
 74
     0
 49
-6.349999999999999
 74
     0
  0
LTYPE
  5
53
330
5
100
AcDbSymbolTableRecord
100
AcDbLinetypeTableRecord
  2
DOT2
 70
     0
  3
Dot (.5x) .....................................
 72
    65
 73
     2
 40
3.174999999999999
 49
0.0
 74
     0
 49
-3.174999999999999
 74
     0
  0
LTYPE
  5
54
330
5
100
AcDbSymbolTableRecord
100
AcDbLinetypeTableRecord
  2
DOTX2
 70
     0
  3
Dot (2x) .  .  .  .  .  .  .  .  .  .  .  .  . 
 72
    65
 73
     2
 40
12.7
 49
0.0
 74
     0
 49
-12.7
 74
     0
  0
LTYPE
  5
55
330
5
100
AcDbSymbolTableRecord
100
AcDbLinetypeTableRecord
  2
FENCELINE1
 70
     0
  3
Fenceline circle ----0-----0----0-----0----0---
 72
    65
 73
     4
 40
36.83
 49
6.349999999999999
 74
     0
 49
-2.54
 74
     4
 75
   133
340
33
 46
2.54
 50
0.0
 44
-2.54
 45
0.0
 49
-2.54
 74
     0
 49
25.4
 74
     0
  0
LTYPE
  5
56
330
5
100
AcDbSymbolTableRecord
100
AcDbLinetypeTableRecord
  2
FENCELINE2
 70
     0
  3
Fenceline square ----[]-----[]----[]-----[]----
 72
    65
 73
     4
 40
36.83
 49
6.349999999999999
 74
     0
 49
-2.54
 74
     4
 75
   132
340
33
 46
2.54
 50
0.0
 44
-2.54
 45
0.0
 49
-2.54
 74
     0
 49
25.4
 74
     0
  0
LTYPE
  5
57
330
5
100
AcDbSymbolTableRecord
100
AcDbLinetypeTableRecord
  2
GAS_LINE
 70
     0
  3
Gas line ----GAS----GAS----GAS----GAS----GAS---
 72
    65
 73
     3
 40
24.13
 49
12.7
 74
     0
 49
-5.08
 74
     2
 75
     0
340
11
 46
2.54
 50
0.0
 44
-2.54
 45
-1.27
  9
GAS
 49
-6.349999999999999
 74
     0
  0
LTYPE
  5
58
330
5
100
AcDbSymbolTableRecord
100
AcDbLinetypeTableRecord
  2
HIDDEN
 70
     0
  3
Hidden __ __ __ __ __ __ __ __ __ __ __ __ __ _
 72
    65
 73
     2
 40
9.524999999999998
 49
6.349999999999999
 74
     0
 49
-3.174999999999999
 74
     0
  0
LTYPE
  5
59
330
5
100
AcDbSymbolTableRecord
100
AcDbLinetypeTableRecord
  2
HIDDEN2
 70
     0
  3
Hidden (.5x) _ _ _ _ _ _ _ _ _ _ _ _ _ _ _ _ _
 72
    65
 73
     2
 40
4.762499999999999
 49
3.174999999999999
 74
     0
 49
-1.587499999999999
 74
     0
  0
LTYPE
  5
5A
330
5
100
AcDbSymbolTableRecord
100
AcDbLinetypeTableRecord
  2
HIDDENX2
 70
     0
  3
Hidden (2x) ____ ____ ____ ____ ____ ____ ____
 72
    65
 73
     2
 40
19.05
 49
12.7
 74
     0
 49
-6.349999999999999
 74
     0
  0
LTYPE
  5
5B
330
5
100
AcDbSymbolTableRecord
100
AcDbLinetypeTableRecord
  2
HOT_WATER_SUPPLY
 70
     0
  3
Hot water supply ---- HW ---- HW ---- HW ----
 72
    65
 73
     3
 40
22.86
 49
12.7
 74
     0
 49
-5.08
 74
     2
 75
     0
340
11
 46
2.54
 50
0.0
 44
-2.54
 45
-1.27
  9
HW
 49
-5.08
 74
     0
  0
LTYPE
  5
5C
330
5
100
AcDbSymbolTableRecord
100
AcDbLinetypeTableRecord
  2
PHANTOM
 70
     0
  3
Phantom ______  __  __  ______  __  __  ______
 72
    65
 73
     6
 40
63.5
 49
31.75
 74
     0
 49
-6.349999999999999
 74
     0
 49
6.349999999999999
 74
     0
 49
-6.349999999999999
 74
     0
 49
6.349999999999999
 74
     0
 49
-6.349999999999999
 74
     0
  0
LTYPE
  5
5D
330
5
100
AcDbSymbolTableRecord
100
AcDbLinetypeTableRecord
  2
PHANTOM2
 70
     0
  3
Phantom (.5x) ___ _ _ ___ _ _ ___ _ _ ___ _ _
 72
    65
 73
     6
 40
31.75
 49
15.875
 74
     0
 49
-3.174999999999999
 74
     0
 49
3.174999999999999
 74
     0
 49
-3.174999999999999
 74
     0
 49
3.174999999999999
 74
     0
 49
-3.174999999999999
 74
     0
  0
LTYPE
  5
5E
330
5
100
AcDbSymbolTableRecord
100
AcDbLinetypeTableRecord
  2
PHANTOMX2
 70
     0
  3
Phantom (2x) ____________    ____    ____   _
 72
    65
 73
     6
 40
127.0
 49
63.5
 74
     0
 49
-12.7
 74
     0
 49
12.7
 74
     0
 49
-12.7
 74
     0
 49
12.7
 74
     0
 49
-12.7
 74
     0
  0
LTYPE
  5
5F
330
5
100
AcDbSymbolTableRecord
100
AcDbLinetypeTableRecord
  2
TRACKS
 70
     0
  3
Tracks -|-|-|-|-|-|-|-|-|-|-|-|-|-|-|-|-|-|-|-|
 72
    65
 73
     2
 40
7.62
 49
3.81
 74
     4
 75
   130
340
33
 46
6.349999999999999
 50
0.0
 44
0.0
 45
0.0
 49
3.81
 74
     0
  0
LTYPE
  5
60
330
5
100
AcDbSymbolTableRecord
100
AcDbLinetypeTableRecord
  2
ZIGZAG
 70
     0
  3
Zig zag /\/\/\/\/\/\/\/\/\/\/\/\/\/\/\/\/\/\/\/
 72
    65
 73
     4
 40
20.32254
 49
0.00254
 74
     0
 49
-5.08
 74
     4
 75
   131
340
33
 46
5.08
 50
0.0
 44
-5.08
 45
0.0
 49
-10.16
 74
     4
 75
   131
340
33
 46
5.08
 50
180.0
 44
5.08
 45
0.0
 49
-5.08
 74
     0
  0
ENDTAB
  0
TABLE
  2
LAYER
  5
2
102
{ACAD_XDICTIONARY
360
24C4
102
}
330
0
100
AcDbSymbolTable
 70
     9
  0
LAYER
  5
10
330
2
100
AcDbSymbolTableRecord
100
AcDbLayerTableRecord
  2
0
 70
     0
 62
     7
  6
Continuous
290
     0
370
    -3
390
F
  0
LAYER
  5
C3
330
2
100
AcDbSymbolTableRecord
100
AcDbLayerTableRecord
  2
Defpoints
 70
     0
 62
     7
  6
Continuous
290
     0
370
    -3
390
F
  0
LAYER
  5
256
330
2
100
AcDbSymbolTableRecord
100
AcDbLayerTableRecord
  2
センター
 70
     0
 62
     7
  6
CENTER2
370
    18
390
F
  0
LAYER
  5
268
330
2
100
AcDbSymbolTableRecord
100
AcDbLayerTableRecord
  2
実形
 70
     0
 62
     7
  6
Continuous
370
    -3
390
F
  0
LAYER
  5
269
330
2
100
AcDbSymbolTableRecord
100
AcDbLayerTableRecord
  2
補助
 70
     0
 62
     4
  6
Continuous
370
    -3
390
F
  0
LAYER
  5
26A
330
2
100
AcDbSymbolTableRecord
100
AcDbLayerTableRecord
  2
寸法
 70
     0
 62
     7
  6
Continuous
370
    18
390
F
  0
LAYER
  5
26B
330
2
100
AcDbSymbolTableRecord
100
AcDbLayerTableRecord
  2
ハッチング
 70
     0
 62
     7
  6
Continuous
370
    18
390
F
  0
LAYER
  5
26D
330
2
100
AcDbSymbolTableRecord
100
AcDbLayerTableRecord
  2
枠
 70
     0
 62
     7
  6
Continuous
370
    -3
390
F
  0
LAYER
  5
1B3D
330
2
100
AcDbSymbolTableRecord
100
AcDbLayerTableRecord
  2
Cen
 70
     0
 62
     7
  6
CENTER2
290
     0
370
    15
390
F
  0
ENDTAB
  0
TABLE
  2
STYLE
  5
3
330
0
100
AcDbSymbolTable
 70
     4
  0
STYLE
  5
11
330
3
100
AcDbSymbolTableRecord
100
AcDbTextStyleTableRecord
  2
Standard
 70
     0
 40
0.0
 41
1.0
 50
0.0
 71
     0
 42
30.0
  3
txt.shx
  4
bigfont.shx
  0
STYLE
  5
33
330
3
100
AcDbSymbolTableRecord
100
AcDbTextStyleTableRecord
  2

 70
     1
 40
0.0
 41
1.0
 50
0.0
 71
     0
 42
2.5
  3
ltypeshp.shx
  4

  0
STYLE
  5
35E2
330
3
100
AcDbSymbolTableRecord
100
AcDbTextStyleTableRecord
  2
ms明朝
 70
     0
 40
0.0
 41
1.0
 50
0.0
 71
     0
 42
25.0
  3
MS Mincho.ttf
  4

1001
ACAD
1000
MS Mincho
1071
    32785
  0
STYLE
  5
9467
330
3
100
AcDbSymbolTableRecord
100
AcDbTextStyleTableRecord
  2
明朝
 70
     0
 40
0.0
 41
1.0
 50
0.0
 71
     0
 42
25.0
  3
MS Mincho.ttf
  4

1001
ACAD
1000
MS Mincho
1071
    32785
  0
ENDTAB
  0
TABLE
  2
VIEW
  5
6
330
0
100
AcDbSymbolTable
 70
     0
  0
ENDTAB
  0
TABLE
  2
UCS
  5
7
330
0
100
AcDbSymbolTable
 70
     0
  0
ENDTAB
  0
TABLE
  2
APPID
  5
9
330
0
100
AcDbSymbolTable
 70
     2
  0
APPID
  5
12
330
9
100
AcDbSymbolTableRecord
100
AcDbRegAppTableRecord
  2
ACAD
 70
     0
  0
APPID
  5
24C3
330
9
100
AcDbSymbolTableRecord
100
AcDbRegAppTableRecord
  2
ACAD_PSEXT
 70
     0
  0
ENDTAB
  0
TABLE
  2
DIMSTYLE
  5
A
330
0
100
AcDbSymbolTable
 70
     1
100
AcDbDimStyleTable
 71
     1
340
27
  0
DIMSTYLE
105
27
102
{ACAD_REACTORS
330
7032
330
703F
330
7079
330
7086
330
70DF
330
70F5
330
7102
330
7133
330
7140
330
7172
330
719C
330
745C
330
7469
330
7DD3
330
7DD4
330
7DE4
330
7DE5
330
7DE6
330
7DE7
330
7DE8
330
7DE9
330
7DEA
330
8267
330
8274
330
8402
330
842A
330
8B83
330
8B90
330
8C7A
330
907D
330
907E
330
907F
330
9080
330
9081
330
9082
330
9083
330
9181
330
91A0
330
91BF
102
}
330
A
100
AcDbSymbolTableRecord
100
AcDbDimStyleTableRecord
  2
ISO-25
 70
     0
 41
35.0
 42
65.0
 43
3.75
 44
0.0
 73
     0
 74
     0
 77
     1
 78
     8
140
25.0
141
2.5
143
0.03937007874016
147
6.25
171
     3
172
     1
271
     2
272
     2
274
     3
283
     0
284
     8
340
11
341
DA
342
D0
371
    15
372
    15
  0
ENDTAB
  0
TABLE
  2
BLOCK_RECORD
  5
1
330
0
100
AcDbSymbolTable
 70
    49
  0
BLOCK_RECORD
  5
1F
102
{ACAD_XDICTIONARY
360
2396
102
}
330
1
100
AcDbSymbolTableRecord
100
AcDbBlockTableRecord
  2
*Model_Space
340
22
  0
BLOCK_RECORD
  5
1B
330
1
100
AcDbSymbolTableRecord
100
AcDbBlockTableRecord
  2
*Paper_Space
340
1E
  0
BLOCK_RECORD
  5
23
330
1
100
AcDbSymbolTableRecord
100
AcDbBlockTableRecord
  2
*Paper_Space0
340
26
  0
BLOCK_RECORD
  5
D0
330
1
100
AcDbSymbolTableRecord
100
AcDbBlockTableRecord
  2
_DotSmall
340
0
  0
BLOCK_RECORD
  5
D4
330
1
100
AcDbSymbolTableRecord
100
AcDbBlockTableRecord
  2
_Origin2
340
0
  0
BLOCK_RECORD
  5
DA
330
1
100
AcDbSymbolTableRecord
100
AcDbBlockTableRecord
  2
_Open30
340
0
  0
BLOCK_RECORD
  5
2D6
330
1
100
AcDbSymbolTableRecord
100
AcDbBlockTableRecord
  2
A$C6CAC4411
340
0
  0
BLOCK_RECORD
  5
30D
330
1
100
AcDbSymbolTableRecord
100
AcDbBlockTableRecord
  2
_Dot
340
0
102
{BLKREFS
331
90EE
331
90EF
331
90FF
331
9100
331
9109
331
910A
331
9112
331
9113
331
911A
331
911B
331
9123
331
9124
331
912D
331
912E
331
9136
331
9137
331
913E
331
913F
331
926E
331
926F
331
9276
331
9277
331
92A4
331
92A5
331
92AD
331
92AE
331
92B5
331
92B6
331
92BF
331
92C0
331
92C8
331
92C9
331
92D1
331
92D2
331
92D9
331
92DA
331
92FE
331
92FF
331
9307
331
9308
331
930F
331
9310
331
9319
331
931A
331
9321
331
9322
331
932B
331
932C
331
9333
331
9334
331
9346
331
9347
331
934E
331
934F
331
9361
331
9362
331
936A
331
936B
331
9372
331
9373
331
937B
331
937C
331
9384
331
9385
331
938E
331
938F
331
9397
331
9398
331
939F
331
93A0
331
93A8
331
93A9
331
93C4
331
93C5
331
9404
331
9405
331
9416
331
9417
102
}
  0
BLOCK_RECORD
  5
313C
102
{ACAD_XDICTIONARY
360
313E
102
}
330
1
100
AcDbSymbolTableRecord
100
AcDbBlockTableRecord
  2
A$C6850087C
340
0
  0
BLOCK_RECORD
  5
3846
102
{ACAD_XDICTIONARY
360
3848
102
}
330
1
100
AcDbSymbolTableRecord
100
AcDbBlockTableRecord
  2
A$C71387EE1
340
0
  0
BLOCK_RECORD
  5
6B87
102
{ACAD_XDICTIONARY
360
6B89
102
}
330
1
100
AcDbSymbolTableRecord
100
AcDbBlockTableRecord
  2
A$C47AF373A
340
0
  0
BLOCK_RECORD
  5
6C00
102
{ACAD_XDICTIONARY
360
6C02
102
}
330
1
100
AcDbSymbolTableRecord
100
AcDbBlockTableRecord
  2
A$C2B9560D8
340
0
  0
BLOCK_RECORD
  5
7033
330
1
100
AcDbSymbolTableRecord
100
AcDbBlockTableRecord
  2
*D10
340
0
  0
BLOCK_RECORD
  5
7040
330
1
100
AcDbSymbolTableRecord
100
AcDbBlockTableRecord
  2
*D11
340
0
  0
BLOCK_RECORD
  5
707A
330
1
100
AcDbSymbolTableRecord
100
AcDbBlockTableRecord
  2
*D12
340
0
  0
BLOCK_RECORD
  5
7087
330
1
100
AcDbSymbolTableRecord
100
AcDbBlockTableRecord
  2
*D13
340
0
  0
BLOCK_RECORD
  5
70E0
330
1
100
AcDbSymbolTableRecord
100
AcDbBlockTableRecord
  2
*D14
340
0
  0
BLOCK_RECORD
  5
70F6
330
1
100
AcDbSymbolTableRecord
100
AcDbBlockTableRecord
  2
*D15
340
0
  0
BLOCK_RECORD
  5
7103
330
1
100
AcDbSymbolTableRecord
100
AcDbBlockTableRecord
  2
*D16
340
0
  0
BLOCK_RECORD
  5
7134
330
1
100
AcDbSymbolTableRecord
100
AcDbBlockTableRecord
  2
*D17
340
0
  0
BLOCK_RECORD
  5
7141
330
1
100
AcDbSymbolTableRecord
100
AcDbBlockTableRecord
  2
*D18
340
0
  0
BLOCK_RECORD
  5
7173
330
1
100
AcDbSymbolTableRecord
100
AcDbBlockTableRecord
  2
*D19
340
0
  0
BLOCK_RECORD
  5
719D
330
1
100
AcDbSymbolTableRecord
100
AcDbBlockTableRecord
  2
*D20
340
0
  0
BLOCK_RECORD
  5
745D
330
1
100
AcDbSymbolTableRecord
100
AcDbBlockTableRecord
  2
*D21
340
0
  0
BLOCK_RECORD
  5
746A
330
1
100
AcDbSymbolTableRecord
100
AcDbBlockTableRecord
  2
*D22
340
0
  0
BLOCK_RECORD
  5
7DEB
330
1
100
AcDbSymbolTableRecord
100
AcDbBlockTableRecord
  2
*D23
340
0
  0
BLOCK_RECORD
  5
7DF7
330
1
100
AcDbSymbolTableRecord
100
AcDbBlockTableRecord
  2
*D24
340
0
  0
BLOCK_RECORD
  5
7E03
330
1
100
AcDbSymbolTableRecord
100
AcDbBlockTableRecord
  2
*D25
340
0
  0
BLOCK_RECORD
  5
7E0F
330
1
100
AcDbSymbolTableRecord
100
AcDbBlockTableRecord
  2
*D26
340
0
  0
BLOCK_RECORD
  5
7E1B
330
1
100
AcDbSymbolTableRecord
100
AcDbBlockTableRecord
  2
*D27
340
0
  0
BLOCK_RECORD
  5
7E27
330
1
100
AcDbSymbolTableRecord
100
AcDbBlockTableRecord
  2
*D28
340
0
  0
BLOCK_RECORD
  5
7E33
330
1
100
AcDbSymbolTableRecord
100
AcDbBlockTableRecord
  2
*D29
340
0
  0
BLOCK_RECORD
  5
7E3F
330
1
100
AcDbSymbolTableRecord
100
AcDbBlockTableRecord
  2
*D30
340
0
  0
BLOCK_RECORD
  5
7E4B
330
1
100
AcDbSymbolTableRecord
100
AcDbBlockTableRecord
  2
*D31
340
0
  0
BLOCK_RECORD
  5
8268
330
1
100
AcDbSymbolTableRecord
100
AcDbBlockTableRecord
  2
*D32
340
0
  0
BLOCK_RECORD
  5
8275
330
1
100
AcDbSymbolTableRecord
100
AcDbBlockTableRecord
  2
*D33
340
0
  0
BLOCK_RECORD
  5
8403
330
1
100
AcDbSymbolTableRecord
100
AcDbBlockTableRecord
  2
*D34
340
0
  0
BLOCK_RECORD
  5
842B
330
1
100
AcDbSymbolTableRecord
100
AcDbBlockTableRecord
  2
*D35
340
0
  0
BLOCK_RECORD
  5
8B84
330
1
100
AcDbSymbolTableRecord
100
AcDbBlockTableRecord
  2
*D36
340
0
  0
BLOCK_RECORD
  5
8B91
330
1
100
AcDbSymbolTableRecord
100
AcDbBlockTableRecord
  2
*D37
340
0
  0
BLOCK_RECORD
  5
8C7B
330
1
100
AcDbSymbolTableRecord
100
AcDbBlockTableRecord
  2
*D38
340
0
  0
BLOCK_RECORD
  5
9084
330
1
100
AcDbSymbolTableRecord
100
AcDbBlockTableRecord
  2
*D39
340
0
  0
BLOCK_RECORD
  5
9090
330
1
100
AcDbSymbolTableRecord
100
AcDbBlockTableRecord
  2
*D40
340
0
  0
BLOCK_RECORD
  5
909C
330
1
100
AcDbSymbolTableRecord
100
AcDbBlockTableRecord
  2
*D41
340
0
  0
BLOCK_RECORD
  5
90A8
330
1
100
AcDbSymbolTableRecord
100
AcDbBlockTableRecord
  2
*D42
340
0
  0
BLOCK_RECORD
  5
90B4
330
1
100
AcDbSymbolTableRecord
100
AcDbBlockTableRecord
  2
*D43
340
0
  0
BLOCK_RECORD
  5
90C0
330
1
100
AcDbSymbolTableRecord
100
AcDbBlockTableRecord
  2
*D44
340
0
  0
BLOCK_RECORD
  5
90CC
330
1
100
AcDbSymbolTableRecord
100
AcDbBlockTableRecord
  2
*D45
340
0
  0
BLOCK_RECORD
  5
9182
330
1
100
AcDbSymbolTableRecord
100
AcDbBlockTableRecord
  2
*D46
340
0
  0
BLOCK_RECORD
  5
91A1
330
1
100
AcDbSymbolTableRecord
100
AcDbBlockTableRecord
  2
*D47
340
0
  0
BLOCK_RECORD
  5
91C0
330
1
100
AcDbSymbolTableRecord
100
AcDbBlockTableRecord
  2
*D48
340
0
  0
ENDTAB
  0
ENDSEC
  0
SECTION
  2
BLOCKS
  0
BLOCK
  5
20
330
1F
100
AcDbEntity
  8
0
100
AcDbBlockBegin
  2
*Model_Space
 70
     0
 10
0.0
 20
0.0
 30
0.0
  3
*Model_Space
  1

  0
ENDBLK
  5
21
330
1F
100
AcDbEntity
  8
0
100
AcDbBlockEnd
  0
BLOCK
  5
1C
330
1B
100
AcDbEntity
 67
     1
  8
0
100
AcDbBlockBegin
  2
*Paper_Space
 70
     0
 10
0.0
 20
0.0
 30
0.0
  3
*Paper_Space
  1

  0
ENDBLK
  5
1D
330
1B
100
AcDbEntity
 67
     1
  8
0
100
AcDbBlockEnd
  0
BLOCK
  5
24
330
23
100
AcDbEntity
  8
0
100
AcDbBlockBegin
  2
*Paper_Space0
 70
     0
 10
0.0
 20
0.0
 30
0.0
  3
*Paper_Space0
  1

  0
ENDBLK
  5
25
330
23
100
AcDbEntity
  8
0
100
AcDbBlockEnd
  0
BLOCK
  5
D2
330
D0
100
AcDbEntity
  8
0
100
AcDbBlockBegin
  2
_DotSmall
 70
     0
 10
0.0
 20
0.0
 30
0.0
  3
_DotSmall
  1

  0
LWPOLYLINE
  5
D1
330
D0
100
AcDbEntity
  8
0
 62
     0
100
AcDbPolyline
 90
        2
 70
     1
 43
0.5
 10
-0.0625
 20
0.0
 42
1.0
 10
0.0625
 20
0.0
 42
1.0
  0
ENDBLK
  5
D3
330
D0
100
AcDbEntity
  8
0
100
AcDbBlockEnd
  0
BLOCK
  5
D8
330
D4
100
AcDbEntity
  8
0
100
AcDbBlockBegin
  2
_Origin2
 70
     0
 10
0.0
 20
0.0
 30
0.0
  3
_Origin2
  1

  0
CIRCLE
  5
D5
330
D4
100
AcDbEntity
  8
0
 62
     0
370
    -2
100
AcDbCircle
 10
0.0
 20
0.0
 30
0.0
 40
0.5
  0
CIRCLE
  5
D6
330
D4
100
AcDbEntity
  8
0
 62
     0
370
    -2
100
AcDbCircle
 10
0.0
 20
0.0
 30
0.0
 40
0.25
  0
LINE
  5
D7
330
D4
100
AcDbEntity
  8
0
 62
     0
370
    -2
100
AcDbLine
 10
-0.5
 20
0.0
 30
0.0
 11
-1.0
 21
0.0
 31
0.0
  0
ENDBLK
  5
D9
330
D4
100
AcDbEntity
  8
0
100
AcDbBlockEnd
  0
BLOCK
  5
DE
330
DA
100
AcDbEntity
  8
0
100
AcDbBlockBegin
  2
_Open30
 70
     0
 10
0.0
 20
0.0
 30
0.0
  3
_Open30
  1

  0
LINE
  5
DB
330
DA
100
AcDbEntity
  8
0
 62
     0
370
    -2
100
AcDbLine
 10
-1.0
 20
0.26794919
 30
0.0
 11
0.0
 21
0.0
 31
0.0
  0
LINE
  5
DC
330
DA
100
AcDbEntity
  8
0
 62
     0
370
    -2
100
AcDbLine
 10
0.0
 20
0.0
 30
0.0
 11
-1.0
 21
-0.26794919
 31
0.0
  0
LINE
  5
DD
330
DA
100
AcDbEntity
  8
0
 62
     0
370
    -2
100
AcDbLine
 10
0.0
 20
0.0
 30
0.0
 11
-1.0
 21
0.0
 31
0.0
  0
ENDBLK
  5
DF
330
DA
100
AcDbEntity
  8
0
100
AcDbBlockEnd
  0
BLOCK
  5
2E7
330
2D6
100
AcDbEntity
  8
0
100
AcDbBlockBegin
  2
A$C6CAC4411
 70
     0
 10
0.0
 20
0.0
 30
0.0
  3
A$C6CAC4411
  1

  0
TEXT
  5
2D7
330
2D6
100
AcDbEntity
  8
0
100
AcDbText
 10
176.2557717918098
 20
0.0000022116982912
 30
0.0
 40
40.0
  1
中外交易株式会社
 72
     4
 11
364.2557717918098
 21
20.0000022116983
 31
0.0
100
AcDbText
  0
LINE
  5
2D8
330
2D6
100
AcDbEntity
  8
0
100
AcDbLine
 10
-0.0000028735375963
 20
52.5000022116983
 30
0.0
 11
599.9999971264624
 21
52.5000022116983
 31
0.0
  0
HATCH
  5
2D9
330
2D6
100
AcDbEntity
  8
実形
100
AcDbHatch
 10
0.0
 20
0.0
 30
0.0
210
0.0
220
0.0
230
1.0
  2
SOLID
 70
     1
 71
     1
 91
        3
 92
        1
 93
        4
 72
     2
 10
133.1661954404576
 20
20.0000022116983
 40
20.0
 50
11.64772366707622
 51
342.6561058784662
 73
     1
 72
     1
 10
152.2568494677857
 20
14.03787769028346
 11
128.1661954404576
 21
14.03787769028349
 72
     1
 10
128.1661954404576
 20
14.03787769028349
 11
128.1661954404576
 21
24.0378776902835
 72
     1
 10
128.1661954404576
 20
24.0378776902835
 11
152.7543439394721
 21
24.0378776902835
 97
        4
330
2DF
330
2DC
330
2E0
330
2DD
 92
        1
 93
        4
 72
     2
 10
64.25577179180982
 20
20.0000022116983
 40
20.0
 50
11.64772366707622
 51
342.6561058784662
 73
     1
 72
     1
 10
83.34642581913795
 20
14.03787769028346
 11
59.25577179180982
 21
14.03787769028349
 72
     1
 10
59.25577179180982
 20
14.03787769028349
 11
59.25577179180982
 21
24.0378776902835
 72
     1
 10
59.25577179180982
 20
24.0378776902835
 11
83.84392029082437
 21
24.0378776902835
 97
        4
330
2DE
330
2DB
330
2E1
330
2DA
 92
        1
 93
        5
 72
     1
 10
121.6418911694018
 20
40.0000022116983
 11
86.64189116940178
 21
40.0000022116983
 72
     1
 10
86.64189116940178
 20
40.0000022116983
 11
86.64189116940178
 21
0.0000022116983018
 72
     1
 10
86.64189116940178
 20
0.0000022116983018
 11
121.6418911694018
 21
0.0000022116983018
 72
     1
 10
121.6418911694018
 20
0.0000022116983018
 11
86.64189116940178
 21
20.0000022116983
 72
     1
 10
86.64189116940178
 20
20.0000022116983
 11
121.6418911694018
 21
40.0000022116983
 97
        5
330
2E2
330
2E3
330
2E5
330
2E6
330
2E4
 75
     0
 76
     1
 98
        1
 10
-2184.000002873538
 20
-16.4999977883017
  0
LINE
  5
2DA
102
{ACAD_REACTORS
330
2D9
102
}
330
2D6
100
AcDbEntity
  8
実形
370
     5
100
AcDbLine
 10
83.84392029082437
 20
24.0378776902835
 30
0.0
 11
59.25577179180982
 21
24.0378776902835
 31
0.0
  0
LINE
  5
2DB
102
{ACAD_REACTORS
330
2D9
102
}
330
2D6
100
AcDbEntity
  8
実形
370
     5
100
AcDbLine
 10
59.25577179180982
 20
14.03787769028349
 30
0.0
 11
83.34642581913795
 21
14.03787769028346
 31
0.0
  0
LINE
  5
2DC
102
{ACAD_REACTORS
330
2D9
102
}
330
2D6
100
AcDbEntity
  8
実形
370
     5
100
AcDbLine
 10
128.1661954404576
 20
14.03787769028349
 30
0.0
 11
152.2568494677857
 21
14.03787769028346
 31
0.0
  0
LINE
  5
2DD
102
{ACAD_REACTORS
330
2D9
102
}
330
2D6
100
AcDbEntity
  8
実形
370
     5
100
AcDbLine
 10
152.7543439394721
 20
24.0378776902835
 30
0.0
 11
128.1661954404576
 21
24.0378776902835
 31
0.0
  0
ARC
  5
2DE
102
{ACAD_REACTORS
330
2D9
102
}
330
2D6
100
AcDbEntity
  8
実形
370
     5
100
AcDbCircle
 10
64.25577179180982
 20
20.0000022116983
 30
0.0
 40
20.0
100
AcDbArc
 50
11.6477236670758
 51
342.6561058784691
  0
ARC
  5
2DF
102
{ACAD_REACTORS
330
2D9
102
}
330
2D6
100
AcDbEntity
  8
実形
370
     5
100
AcDbCircle
 10
133.1661954404576
 20
20.0000022116983
 30
0.0
 40
20.0
100
AcDbArc
 50
11.6477236670758
 51
342.6561058784691
  0
LINE
  5
2E0
102
{ACAD_REACTORS
330
2D9
102
}
330
2D6
100
AcDbEntity
  8
実形
370
     5
100
AcDbLine
 10
128.1661954404576
 20
24.0378776902835
 30
0.0
 11
128.1661954404576
 21
14.03787769028349
 31
0.0
  0
LINE
  5
2E1
102
{ACAD_REACTORS
330
2D9
102
}
330
2D6
100
AcDbEntity
  8
実形
370
     5
100
AcDbLine
 10
59.25577179180982
 20
24.0378776902835
 30
0.0
 11
59.25577179180982
 21
14.03787769028349
 31
0.0
  0
LINE
  5
2E2
102
{ACAD_REACTORS
330
2D9
102
}
330
2D6
100
AcDbEntity
  8
実形
370
     5
100
AcDbLine
 10
121.6418911694018
 20
40.0000022116983
 30
0.0
 11
86.64189116940178
 21
40.0000022116983
 31
0.0
  0
LINE
  5
2E3
102
{ACAD_REACTORS
330
2D9
102
}
330
2D6
100
AcDbEntity
  8
実形
370
     5
100
AcDbLine
 10
86.64189116940178
 20
40.0000022116983
 30
0.0
 11
86.64189116940178
 21
0.0000022116983018
 31
0.0
  0
LINE
  5
2E4
102
{ACAD_REACTORS
330
2D9
102
}
330
2D6
100
AcDbEntity
  8
実形
370
     5
100
AcDbLine
 10
86.64189116940178
 20
20.0000022116983
 30
0.0
 11
121.6418911694018
 21
40.0000022116983
 31
0.0
  0
LINE
  5
2E5
102
{ACAD_REACTORS
330
2D9
102
}
330
2D6
100
AcDbEntity
  8
実形
370
     5
100
AcDbLine
 10
86.64189116940178
 20
0.0000022116983018
 30
0.0
 11
121.6418911694018
 21
0.0000022116983018
 31
0.0
  0
LINE
  5
2E6
102
{ACAD_REACTORS
330
2D9
102
}
330
2D6
100
AcDbEntity
  8
実形
370
     5
100
AcDbLine
 10
121.6418911694018
 20
0.0000022116983018
 30
0.0
 11
86.64189116940178
 21
20.0000022116983
 31
0.0
  0
ENDBLK
  5
2E8
330
2D6
100
AcDbEntity
  8
0
100
AcDbBlockEnd
  0
BLOCK
  5
310
330
30D
100
AcDbEntity
  8
0
100
AcDbBlockBegin
  2
_Dot
 70
     0
 10
0.0
 20
0.0
 30
0.0
  3
_Dot
  1

  0
LWPOLYLINE
  5
30E
330
30D
100
AcDbEntity
  8
0
 62
     0
100
AcDbPolyline
 90
        2
 70
     1
 43
0.5
 10
-0.25
 20
0.0
 42
1.0
 10
0.25
 20
0.0
 42
1.0
  0
LINE
  5
30F
330
30D
100
AcDbEntity
  8
0
 62
     0
370
    -2
100
AcDbLine
 10
-0.5
 20
0.0
 30
0.0
 11
-1.0
 21
0.0
 31
0.0
  0
ENDBLK
  5
311
330
30D
100
AcDbEntity
  8
0
100
AcDbBlockEnd
  0
BLOCK
  5
3140
330
313C
100
AcDbEntity
  8
0
100
AcDbBlockBegin
  2
A$C6850087C
 70
     0
 10
0.0
 20
0.0
 30
0.0
  3
A$C6850087C
  1

  0
TEXT
  5
313D
330
313C
100
AcDbEntity
  8
実形
 62
     0
 48
20.0
100
AcDbText
 10
0.0
 20
0.0
 30
0.0
 40
40.0
  1
平面図
100
AcDbText
  0
ENDBLK
  5
3141
330
313C
100
AcDbEntity
  8
0
100
AcDbBlockEnd
  0
BLOCK
  5
384A
330
3846
100
AcDbEntity
  8
0
 62
     1
100
AcDbBlockBegin
  2
A$C71387EE1
 70
     0
 10
0.0
 20
0.0
 30
0.0
  3
A$C71387EE1
  1

  0
HATCH
  5
3847
330
3846
100
AcDbEntity
  8
実形
 62
     0
100
AcDbHatch
 10
0.0
 20
0.0
 30
0.0
210
0.0
220
0.0
230
1.0
  2
SOLID
 70
     1
 71
     0
 91
        1
 92
        7
 72
     1
 73
     1
 93
        2
 10
4.552685078746208
 20
-0.0000011660104065
 42
-1.0
 10
4.54872920619573
 20
9.101406589272301
 42
-1.0
 97
        0
 75
     0
 76
     1
 47
0.1166526434546944
 98
        1
 10
6.65106624868099
 20
3.151407247997667
  0
ENDBLK
  5
384B
330
3846
100
AcDbEntity
  8
0
 62
     1
100
AcDbBlockEnd
  0
BLOCK
  5
6B8B
330
6B87
100
AcDbEntity
  8
0
 62
     3
100
AcDbBlockBegin
  2
A$C47AF373A
 70
     0
 10
0.0
 20
0.0
 30
0.0
  3
A$C47AF373A
  1

  0
LINE
  5
6B88
330
6B87
100
AcDbEntity
  8
枠
 62
     0
100
AcDbLine
 10
-0.0000111344452307
 20
0.0000048001220421
 30
0.0
 11
-0.0000111344452307
 21
2020.000004800122
 31
0.0
  0
ENDBLK
  5
6B8C
330
6B87
100
AcDbEntity
  8
0
 62
     3
100
AcDbBlockEnd
  0
BLOCK
  5
6C04
330
6C00
100
AcDbEntity
  8
0
 62
     3
100
AcDbBlockBegin
  2
A$C2B9560D8
 70
     0
 10
0.0
 20
0.0
 30
0.0
  3
A$C2B9560D8
  1

  0
LINE
  5
6C01
330
6C00
100
AcDbEntity
  8
枠
 62
     0
100
AcDbLine
 10
-0.0000103150450741
 20
2020.000004800122
 30
0.0
 11
-0.0000103150450741
 21
0.0000048001220421
 31
0.0
  0
ENDBLK
  5
6C05
330
6C00
100
AcDbEntity
  8
0
 62
     3
100
AcDbBlockEnd
  0
BLOCK
  5
703D
330
7033
100
AcDbEntity
  8
0
 62
     3
100
AcDbBlockBegin
  2
*D10
 70
     1
 10
0.0
 20
0.0
 30
0.0
  3
*D10
  1

  0
LINE
  5
939C
330
7033
100
AcDbEntity
  8
実形
 62
     0
370
    18
100
AcDbLine
 10
2091.699302930582
 20
1681.67196328526
 30
0.0
 11
2160.80146356597
 21
1681.67196328526
 31
0.0
  0
LINE
  5
939D
330
7033
100
AcDbEntity
  8
実形
 62
     0
370
    18
100
AcDbLine
 10
2091.699302930582
 20
1271.67196328526
 30
0.0
 11
2160.80146356597
 21
1271.67196328526
 31
0.0
  0
LINE
  5
939E
330
7033
100
AcDbEntity
  8
実形
 62
     0
370
    18
100
AcDbLine
 10
2160.80146356597
 20
1671.67196328526
 30
0.0
 11
2160.80146356597
 21
1281.67196328526
 31
0.0
  0
INSERT
  5
939F
330
7033
100
AcDbEntity
  8
実形
 62
     0
370
    18
100
AcDbBlockReference
  2
_Dot
 10
2160.80146356597
 20
1681.67196328526
 30
0.0
 41
10.0
 42
10.0
 43
10.0
 50
90.0
  0
INSERT
  5
93A0
330
7033
100
AcDbEntity
  8
実形
 62
     0
370
    18
100
AcDbBlockReference
  2
_Dot
 10
2160.80146356597
 20
1271.67196328526
 30
0.0
 41
10.0
 42
10.0
 43
10.0
 50
270.0
  0
MTEXT
  5
93A1
330
7033
100
AcDbEntity
  8
実形
 62
     0
100
AcDbMText
 10
2141.701463565969
 20
1476.67196328526
 30
0.0
 40
25.0
 41
0.0
 71
     5
 72
     1
  1
410
 11
0.0000000000000001
 21
1.0
 31
0.0
 73
     1
 44
1.0
1001
ACAD
1000
MTEXTBEGIN
1070
    73
1070
     1
1070
    44
1040
1.0
1070
    74
1070
     0
1000
MTEXTEND
  0
POINT
  5
93A2
330
7033
100
AcDbEntity
  8
Defpoints
 62
     0
100
AcDbPoint
 10
2026.699302930582
 20
1681.67196328526
 30
0.0
  0
POINT
  5
93A3
330
7033
100
AcDbEntity
  8
Defpoints
 62
     0
100
AcDbPoint
 10
2026.699302930582
 20
1271.67196328526
 30
0.0
  0
POINT
  5
93A4
330
7033
100
AcDbEntity
  8
Defpoints
 62
     0
100
AcDbPoint
 10
2160.80146356597
 20
1271.67196328526
 30
0.0
  0
ENDBLK
  5
703E
330
7033
100
AcDbEntity
  8
0
 62
     3
100
AcDbBlockEnd
  0
BLOCK
  5
704A
330
7040
100
AcDbEntity
  8
0
 62
     3
100
AcDbBlockBegin
  2
*D11
 70
     1
 10
0.0
 20
0.0
 30
0.0
  3
*D11
  1

  0
LINE
  5
9393
330
7040
100
AcDbEntity
  8
実形
 62
     0
370
    18
100
AcDbLine
 10
2091.699302930582
 20
1701.67196328526
 30
0.0
 11
2160.80146356597
 21
1701.67196328526
 31
0.0
  0
LINE
  5
9394
330
7040
100
AcDbEntity
  8
実形
 62
     0
370
    18
100
AcDbLine
 10
2091.699302930582
 20
1251.67196328526
 30
0.0
 11
2160.80146356597
 21
1251.67196328526
 31
0.0
  0
LINE
  5
9395
330
7040
100
AcDbEntity
  8
実形
 62
     0
370
    18
100
AcDbLine
 10
2160.80146356597
 20
1691.67196328526
 30
0.0
 11
2160.80146356597
 21
1261.67196328526
 31
0.0
  0
MTEXT
  5
9396
330
7040
100
AcDbEntity
  8
実形
 62
     0
100
AcDbMText
 10
2140.042933657793
 20
1656.103988468215
 30
0.0
 40
25.0
 41
0.0
 71
     5
 72
     1
  1
20
 11
0.0000000000000001
 21
1.0
 31
0.0
 73
     1
 44
1.0
1001
ACAD
1000
MTEXTBEGIN
1070
    73
1070
     1
1070
    44
1040
1.0
1070
    74
1070
     0
1000
MTEXTEND
  0
INSERT
  5
9397
330
7040
100
AcDbEntity
  8
実形
 62
     0
370
    18
100
AcDbBlockReference
  2
_Dot
 10
2160.80146356597
 20
1701.67196328526
 30
0.0
 41
10.0
 42
10.0
 43
10.0
 50
90.0
  0
INSERT
  5
9398
330
7040
100
AcDbEntity
  8
実形
 62
     0
370
    18
100
AcDbBlockReference
  2
_Dot
 10
2160.80146356597
 20
1251.67196328526
 30
0.0
 41
10.0
 42
10.0
 43
10.0
 50
270.0
  0
POINT
  5
9399
330
7040
100
AcDbEntity
  8
Defpoints
 62
     0
100
AcDbPoint
 10
2026.699302930582
 20
1701.67196328526
 30
0.0
  0
POINT
  5
939A
330
7040
100
AcDbEntity
  8
Defpoints
 62
     0
100
AcDbPoint
 10
2026.699302930582
 20
1251.67196328526
 30
0.0
  0
POINT
  5
939B
330
7040
100
AcDbEntity
  8
Defpoints
 62
     0
100
AcDbPoint
 10
2160.80146356597
 20
1251.67196328526
 30
0.0
  0
ENDBLK
  5
704B
330
7040
100
AcDbEntity
  8
0
 62
     3
100
AcDbBlockEnd
  0
BLOCK
  5
7084
330
707A
100
AcDbEntity
  8
0
 62
     3
100
AcDbBlockBegin
  2
*D12
 70
     1
 10
0.0
 20
0.0
 30
0.0
  3
*D12
  1

  0
LINE
  5
938A
330
707A
100
AcDbEntity
  8
実形
 62
     0
370
    18
100
AcDbLine
 10
2091.699302930582
 20
1701.67196328526
 30
0.0
 11
2240.883158607104
 21
1701.67196328526
 31
0.0
  0
LINE
  5
938B
330
707A
100
AcDbEntity
  8
実形
 62
     0
370
    18
100
AcDbLine
 10
2091.699302930582
 20
1251.67196328526
 30
0.0
 11
2240.883158607104
 21
1251.67196328526
 31
0.0
  0
LINE
  5
938C
330
707A
100
AcDbEntity
  8
実形
 62
     0
370
    18
100
AcDbLine
 10
2240.883158607104
 20
1691.67196328526
 30
0.0
 11
2240.883158607104
 21
1261.67196328526
 31
0.0
  0
MTEXT
  5
938D
330
707A
100
AcDbEntity
  8
実形
 62
     0
100
AcDbMText
 10
2217.587240987483
 20
1673.018438712079
 30
0.0
 40
25.0
 41
0.0
 71
     5
 72
     1
  1
15
 11
0.0000000000000001
 21
1.0
 31
0.0
 73
     1
 44
1.0
1001
ACAD
1000
MTEXTBEGIN
1070
    73
1070
     1
1070
    44
1040
1.0
1070
    74
1070
     0
1000
MTEXTEND
  0
INSERT
  5
938E
330
707A
100
AcDbEntity
  8
実形
 62
     0
370
    18
100
AcDbBlockReference
  2
_Dot
 10
2240.883158607104
 20
1701.67196328526
 30
0.0
 41
10.0
 42
10.0
 43
10.0
 50
90.0
  0
INSERT
  5
938F
330
707A
100
AcDbEntity
  8
実形
 62
     0
370
    18
100
AcDbBlockReference
  2
_Dot
 10
2240.883158607104
 20
1251.67196328526
 30
0.0
 41
10.0
 42
10.0
 43
10.0
 50
270.0
  0
POINT
  5
9390
330
707A
100
AcDbEntity
  8
Defpoints
 62
     0
100
AcDbPoint
 10
2026.699302930582
 20
1701.67196328526
 30
0.0
  0
POINT
  5
9391
330
707A
100
AcDbEntity
  8
Defpoints
 62
     0
100
AcDbPoint
 10
2026.699302930582
 20
1251.67196328526
 30
0.0
  0
POINT
  5
9392
330
707A
100
AcDbEntity
  8
Defpoints
 62
     0
100
AcDbPoint
 10
2240.883158607104
 20
1251.67196328526
 30
0.0
  0
ENDBLK
  5
7085
330
707A
100
AcDbEntity
  8
0
 62
     3
100
AcDbBlockEnd
  0
BLOCK
  5
7091
330
7087
100
AcDbEntity
  8
0
 62
     3
100
AcDbBlockBegin
  2
*D13
 70
     1
 10
0.0
 20
0.0
 30
0.0
  3
*D13
  1

  0
LINE
  5
9381
330
7087
100
AcDbEntity
  8
実形
 62
     0
370
    18
100
AcDbLine
 10
2091.699302930582
 20
1716.67196328526
 30
0.0
 11
2240.883158607104
 21
1716.67196328526
 31
0.0
  0
LINE
  5
9382
330
7087
100
AcDbEntity
  8
実形
 62
     0
370
    18
100
AcDbLine
 10
2091.699302930582
 20
1236.67196328526
 30
0.0
 11
2240.883158607104
 21
1236.67196328526
 31
0.0
  0
LINE
  5
9383
330
7087
100
AcDbEntity
  8
実形
 62
     0
370
    18
100
AcDbLine
 10
2240.883158607104
 20
1706.67196328526
 30
0.0
 11
2240.883158607104
 21
1246.67196328526
 31
0.0
  0
INSERT
  5
9384
330
7087
100
AcDbEntity
  8
実形
 62
     0
370
    18
100
AcDbBlockReference
  2
_Dot
 10
2240.883158607104
 20
1716.67196328526
 30
0.0
 41
10.0
 42
10.0
 43
10.0
 50
90.0
  0
INSERT
  5
9385
330
7087
100
AcDbEntity
  8
実形
 62
     0
370
    18
100
AcDbBlockReference
  2
_Dot
 10
2240.883158607104
 20
1236.67196328526
 30
0.0
 41
10.0
 42
10.0
 43
10.0
 50
270.0
  0
MTEXT
  5
9386
330
7087
100
AcDbEntity
  8
実形
 62
     0
100
AcDbMText
 10
2221.783158607103
 20
1476.67196328526
 30
0.0
 40
25.0
 41
0.0
 71
     5
 72
     1
  1
450
 11
0.0000000000000001
 21
1.0
 31
0.0
 73
     1
 44
1.0
1001
ACAD
1000
MTEXTBEGIN
1070
    73
1070
     1
1070
    44
1040
1.0
1070
    74
1070
     0
1000
MTEXTEND
  0
POINT
  5
9387
330
7087
100
AcDbEntity
  8
Defpoints
 62
     0
100
AcDbPoint
 10
2026.699302930582
 20
1716.67196328526
 30
0.0
  0
POINT
  5
9388
330
7087
100
AcDbEntity
  8
Defpoints
 62
     0
100
AcDbPoint
 10
2026.699302930582
 20
1236.67196328526
 30
0.0
  0
POINT
  5
9389
330
7087
100
AcDbEntity
  8
Defpoints
 62
     0
100
AcDbPoint
 10
2240.883158607104
 20
1236.67196328526
 30
0.0
  0
ENDBLK
  5
7092
330
7087
100
AcDbEntity
  8
0
 62
     3
100
AcDbBlockEnd
  0
BLOCK
  5
70EA
330
70E0
100
AcDbEntity
  8
0
 62
     3
100
AcDbBlockBegin
  2
*D14
 70
     1
 10
0.0
 20
0.0
 30
0.0
  3
*D14
  1

  0
LINE
  5
9378
330
70E0
100
AcDbEntity
  8
実形
 62
     0
370
    18
100
AcDbLine
 10
2091.699302930582
 20
1716.67196328526
 30
0.0
 11
2326.039966785739
 21
1716.67196328526
 31
0.0
  0
LINE
  5
9379
330
70E0
100
AcDbEntity
  8
実形
 62
     0
370
    18
100
AcDbLine
 10
2091.699302930582
 20
1236.67196328526
 30
0.0
 11
2326.039966785739
 21
1236.67196328526
 31
0.0
  0
LINE
  5
937A
330
70E0
100
AcDbEntity
  8
実形
 62
     0
370
    18
100
AcDbLine
 10
2326.039966785739
 20
1706.67196328526
 30
0.0
 11
2326.039966785739
 21
1246.67196328526
 31
0.0
  0
INSERT
  5
937B
330
70E0
100
AcDbEntity
  8
実形
 62
     0
370
    18
100
AcDbBlockReference
  2
_Dot
 10
2326.039966785739
 20
1716.67196328526
 30
0.0
 41
10.0
 42
10.0
 43
10.0
 50
90.0
  0
INSERT
  5
937C
330
70E0
100
AcDbEntity
  8
実形
 62
     0
370
    18
100
AcDbBlockReference
  2
_Dot
 10
2326.039966785739
 20
1236.67196328526
 30
0.0
 41
10.0
 42
10.0
 43
10.0
 50
270.0
  0
MTEXT
  5
937D
330
70E0
100
AcDbEntity
  8
実形
 62
     0
100
AcDbMText
 10
2306.939966785739
 20
1476.67196328526
 30
0.0
 40
25.0
 41
0.0
 71
     5
 72
     1
  1
480
 11
0.0000000000000001
 21
1.0
 31
0.0
 73
     1
 44
1.0
1001
ACAD
1000
MTEXTBEGIN
1070
    73
1070
     1
1070
    44
1040
1.0
1070
    74
1070
     0
1000
MTEXTEND
  0
POINT
  5
937E
330
70E0
100
AcDbEntity
  8
Defpoints
 62
     0
100
AcDbPoint
 10
2026.699302930582
 20
1716.67196328526
 30
0.0
  0
POINT
  5
937F
330
70E0
100
AcDbEntity
  8
Defpoints
 62
     0
100
AcDbPoint
 10
2026.699302930582
 20
1236.67196328526
 30
0.0
  0
POINT
  5
9380
330
70E0
100
AcDbEntity
  8
Defpoints
 62
     0
100
AcDbPoint
 10
2326.039966785739
 20
1236.67196328526
 30
0.0
  0
ENDBLK
  5
70EB
330
70E0
100
AcDbEntity
  8
0
 62
     3
100
AcDbBlockEnd
  0
BLOCK
  5
7100
330
70F6
100
AcDbEntity
  8
0
 62
     3
100
AcDbBlockBegin
  2
*D15
 70
     1
 10
0.0
 20
0.0
 30
0.0
  3
*D15
  1

  0
LINE
  5
9330
330
70F6
100
AcDbEntity
  8
実形
 62
     0
370
    18
100
AcDbLine
 10
1991.699302930582
 20
1171.67196328526
 30
0.0
 11
1991.699302930582
 21
1104.409261580873
 31
0.0
  0
LINE
  5
9331
330
70F6
100
AcDbEntity
  8
実形
 62
     0
370
    18
100
AcDbLine
 10
1231.699302930582
 20
1171.67196328526
 30
0.0
 11
1231.699302930582
 21
1104.409261580873
 31
0.0
  0
LINE
  5
9332
330
70F6
100
AcDbEntity
  8
実形
 62
     0
370
    18
100
AcDbLine
 10
1981.699302930582
 20
1104.409261580873
 30
0.0
 11
1241.699302930582
 21
1104.409261580873
 31
0.0
  0
INSERT
  5
9333
330
70F6
100
AcDbEntity
  8
実形
 62
     0
370
    18
100
AcDbBlockReference
  2
_Dot
 10
1991.699302930582
 20
1104.409261580873
 30
0.0
 41
10.0
 42
10.0
 43
10.0
  0
INSERT
  5
9334
330
70F6
100
AcDbEntity
  8
実形
 62
     0
370
    18
100
AcDbBlockReference
  2
_Dot
 10
1231.699302930582
 20
1104.409261580873
 30
0.0
 41
10.0
 42
10.0
 43
10.0
 50
180.0
  0
MTEXT
  5
9335
330
70F6
100
AcDbEntity
  8
実形
 62
     0
100
AcDbMText
 10
1611.699302930581
 20
1123.509261580873
 30
0.0
 40
25.0
 41
0.0
 71
     5
 72
     1
  1
760
 73
     1
 44
1.0
1001
ACAD
1000
MTEXTBEGIN
1070
    73
1070
     1
1070
    44
1040
1.0
1070
    74
1070
     0
1000
MTEXTEND
  0
POINT
  5
9336
330
70F6
100
AcDbEntity
  8
Defpoints
 62
     0
100
AcDbPoint
 10
1991.699302930582
 20
1236.67196328526
 30
0.0
  0
POINT
  5
9337
330
70F6
100
AcDbEntity
  8
Defpoints
 62
     0
100
AcDbPoint
 10
1231.699302930582
 20
1236.67196328526
 30
0.0
  0
POINT
  5
9338
330
70F6
100
AcDbEntity
  8
Defpoints
 62
     0
100
AcDbPoint
 10
1231.699302930582
 20
1104.409261580873
 30
0.0
  0
ENDBLK
  5
7101
330
70F6
100
AcDbEntity
  8
0
 62
     3
100
AcDbBlockEnd
  0
BLOCK
  5
710D
330
7103
100
AcDbEntity
  8
0
 62
     3
100
AcDbBlockBegin
  2
*D16
 70
     1
 10
0.0
 20
0.0
 30
0.0
  3
*D16
  1

  0
LINE
  5
9327
330
7103
100
AcDbEntity
  8
実形
 62
     0
370
    18
100
AcDbLine
 10
2011.699302930582
 20
1171.67196328526
 30
0.0
 11
2011.699302930582
 21
1104.409261580873
 31
0.0
  0
LINE
  5
9328
330
7103
100
AcDbEntity
  8
実形
 62
     0
370
    18
100
AcDbLine
 10
1211.699302930582
 20
1171.67196328526
 30
0.0
 11
1211.699302930582
 21
1104.409261580873
 31
0.0
  0
LINE
  5
9329
330
7103
100
AcDbEntity
  8
実形
 62
     0
370
    18
100
AcDbLine
 10
2001.699302930582
 20
1104.409261580873
 30
0.0
 11
1221.699302930582
 21
1104.409261580873
 31
0.0
  0
MTEXT
  5
932A
330
7103
100
AcDbEntity
  8
実形
 62
     0
100
AcDbMText
 10
1265.298149625862
 20
1126.009261580873
 30
0.0
 40
25.0
 41
0.0
 71
     5
 72
     1
  1
20
 73
     1
 44
1.0
1001
ACAD
1000
MTEXTBEGIN
1070
    73
1070
     1
1070
    44
1040
1.0
1070
    74
1070
     0
1000
MTEXTEND
  0
INSERT
  5
932B
330
7103
100
AcDbEntity
  8
実形
 62
     0
370
    18
100
AcDbBlockReference
  2
_Dot
 10
2011.699302930582
 20
1104.409261580873
 30
0.0
 41
10.0
 42
10.0
 43
10.0
  0
INSERT
  5
932C
330
7103
100
AcDbEntity
  8
実形
 62
     0
370
    18
100
AcDbBlockReference
  2
_Dot
 10
1211.699302930582
 20
1104.409261580873
 30
0.0
 41
10.0
 42
10.0
 43
10.0
 50
180.0
  0
POINT
  5
932D
330
7103
100
AcDbEntity
  8
Defpoints
 62
     0
100
AcDbPoint
 10
2011.699302930582
 20
1236.67196328526
 30
0.0
  0
POINT
  5
932E
330
7103
100
AcDbEntity
  8
Defpoints
 62
     0
100
AcDbPoint
 10
1211.699302930582
 20
1236.67196328526
 30
0.0
  0
POINT
  5
932F
330
7103
100
AcDbEntity
  8
Defpoints
 62
     0
100
AcDbPoint
 10
1211.699302930582
 20
1104.409261580873
 30
0.0
  0
ENDBLK
  5
710E
330
7103
100
AcDbEntity
  8
0
 62
     3
100
AcDbBlockEnd
  0
BLOCK
  5
713E
330
7134
100
AcDbEntity
  8
0
 62
     3
100
AcDbBlockBegin
  2
*D17
 70
     1
 10
0.0
 20
0.0
 30
0.0
  3
*D17
  1

  0
LINE
  5
931E
330
7134
100
AcDbEntity
  8
実形
 62
     0
370
    18
100
AcDbLine
 10
2011.699302930582
 20
1171.67196328526
 30
0.0
 11
2011.699302930582
 21
1041.998774224899
 31
0.0
  0
LINE
  5
931F
330
7134
100
AcDbEntity
  8
実形
 62
     0
370
    18
100
AcDbLine
 10
1211.699302930582
 20
1171.67196328526
 30
0.0
 11
1211.699302930582
 21
1041.998774224899
 31
0.0
  0
LINE
  5
9320
330
7134
100
AcDbEntity
  8
実形
 62
     0
370
    18
100
AcDbLine
 10
2001.699302930582
 20
1041.998774224899
 30
0.0
 11
1221.699302930582
 21
1041.998774224899
 31
0.0
  0
INSERT
  5
9321
330
7134
100
AcDbEntity
  8
実形
 62
     0
370
    18
100
AcDbBlockReference
  2
_Dot
 10
2011.699302930582
 20
1041.998774224899
 30
0.0
 41
10.0
 42
10.0
 43
10.0
  0
INSERT
  5
9322
330
7134
100
AcDbEntity
  8
実形
 62
     0
370
    18
100
AcDbBlockReference
  2
_Dot
 10
1211.699302930582
 20
1041.998774224899
 30
0.0
 41
10.0
 42
10.0
 43
10.0
 50
180.0
  0
MTEXT
  5
9323
330
7134
100
AcDbEntity
  8
実形
 62
     0
100
AcDbMText
 10
1611.699302930581
 20
1061.098774224899
 30
0.0
 40
25.0
 41
0.0
 71
     5
 72
     1
  1
800
 73
     1
 44
1.0
1001
ACAD
1000
MTEXTBEGIN
1070
    73
1070
     1
1070
    44
1040
1.0
1070
    74
1070
     0
1000
MTEXTEND
  0
POINT
  5
9324
330
7134
100
AcDbEntity
  8
Defpoints
 62
     0
100
AcDbPoint
 10
2011.699302930582
 20
1236.67196328526
 30
0.0
  0
POINT
  5
9325
330
7134
100
AcDbEntity
  8
Defpoints
 62
     0
100
AcDbPoint
 10
1211.699302930582
 20
1236.67196328526
 30
0.0
  0
POINT
  5
9326
330
7134
100
AcDbEntity
  8
Defpoints
 62
     0
100
AcDbPoint
 10
1211.699302930582
 20
1041.998774224899
 30
0.0
  0
ENDBLK
  5
713F
330
7134
100
AcDbEntity
  8
0
 62
     3
100
AcDbBlockEnd
  0
BLOCK
  5
714B
330
7141
100
AcDbEntity
  8
0
 62
     3
100
AcDbBlockBegin
  2
*D18
 70
     1
 10
0.0
 20
0.0
 30
0.0
  3
*D18
  1

  0
LINE
  5
9315
330
7141
100
AcDbEntity
  8
実形
 62
     0
370
    18
100
AcDbLine
 10
2026.699302930582
 20
1171.67196328526
 30
0.0
 11
2026.699302930582
 21
1041.998774224899
 31
0.0
  0
LINE
  5
9316
330
7141
100
AcDbEntity
  8
実形
 62
     0
370
    18
100
AcDbLine
 10
1196.699302930581
 20
1171.67196328526
 30
0.0
 11
1196.699302930581
 21
1041.998774224899
 31
0.0
  0
LINE
  5
9317
330
7141
100
AcDbEntity
  8
実形
 62
     0
370
    18
100
AcDbLine
 10
2016.699302930582
 20
1041.998774224899
 30
0.0
 11
1206.699302930581
 21
1041.998774224899
 31
0.0
  0
MTEXT
  5
9318
330
7141
100
AcDbEntity
  8
実形
 62
     0
100
AcDbMText
 10
1152.909769576035
 20
1063.598774224899
 30
0.0
 40
25.0
 41
0.0
 71
     5
 72
     1
  1
15
 73
     1
 44
1.0
1001
ACAD
1000
MTEXTBEGIN
1070
    73
1070
     1
1070
    44
1040
1.0
1070
    74
1070
     0
1000
MTEXTEND
  0
INSERT
  5
9319
330
7141
100
AcDbEntity
  8
実形
 62
     0
370
    18
100
AcDbBlockReference
  2
_Dot
 10
2026.699302930582
 20
1041.998774224899
 30
0.0
 41
10.0
 42
10.0
 43
10.0
  0
INSERT
  5
931A
330
7141
100
AcDbEntity
  8
実形
 62
     0
370
    18
100
AcDbBlockReference
  2
_Dot
 10
1196.699302930581
 20
1041.998774224899
 30
0.0
 41
10.0
 42
10.0
 43
10.0
 50
180.0
  0
POINT
  5
931B
330
7141
100
AcDbEntity
  8
Defpoints
 62
     0
100
AcDbPoint
 10
2026.699302930582
 20
1236.67196328526
 30
0.0
  0
POINT
  5
931C
330
7141
100
AcDbEntity
  8
Defpoints
 62
     0
100
AcDbPoint
 10
1196.699302930581
 20
1236.67196328526
 30
0.0
  0
POINT
  5
931D
330
7141
100
AcDbEntity
  8
Defpoints
 62
     0
100
AcDbPoint
 10
1196.699302930581
 20
1041.998774224899
 30
0.0
  0
ENDBLK
  5
714C
330
7141
100
AcDbEntity
  8
0
 62
     3
100
AcDbBlockEnd
  0
BLOCK
  5
717D
330
7173
100
AcDbEntity
  8
0
 62
     3
100
AcDbBlockBegin
  2
*D19
 70
     1
 10
0.0
 20
0.0
 30
0.0
  3
*D19
  1

  0
LINE
  5
930C
330
7173
100
AcDbEntity
  8
実形
 62
     0
370
    18
100
AcDbLine
 10
2026.699302930582
 20
1171.67196328526
 30
0.0
 11
2026.699302930582
 21
968.7771937547477
 31
0.0
  0
LINE
  5
930D
330
7173
100
AcDbEntity
  8
実形
 62
     0
370
    18
100
AcDbLine
 10
1196.699302930581
 20
1171.67196328526
 30
0.0
 11
1196.699302930581
 21
968.7771937547477
 31
0.0
  0
LINE
  5
930E
330
7173
100
AcDbEntity
  8
実形
 62
     0
370
    18
100
AcDbLine
 10
2016.699302930582
 20
968.7771937547477
 30
0.0
 11
1206.699302930581
 21
968.7771937547477
 31
0.0
  0
INSERT
  5
930F
330
7173
100
AcDbEntity
  8
実形
 62
     0
370
    18
100
AcDbBlockReference
  2
_Dot
 10
2026.699302930582
 20
968.7771937547477
 30
0.0
 41
10.0
 42
10.0
 43
10.0
  0
INSERT
  5
9310
330
7173
100
AcDbEntity
  8
実形
 62
     0
370
    18
100
AcDbBlockReference
  2
_Dot
 10
1196.699302930581
 20
968.7771937547477
 30
0.0
 41
10.0
 42
10.0
 43
10.0
 50
180.0
  0
MTEXT
  5
9311
330
7173
100
AcDbEntity
  8
実形
 62
     0
100
AcDbMText
 10
1611.699302930581
 20
987.8771937547478
 30
0.0
 40
25.0
 41
0.0
 71
     5
 72
     1
  1
830
 73
     1
 44
1.0
1001
ACAD
1000
MTEXTBEGIN
1070
    73
1070
     1
1070
    44
1040
1.0
1070
    74
1070
     0
1000
MTEXTEND
  0
POINT
  5
9312
330
7173
100
AcDbEntity
  8
Defpoints
 62
     0
100
AcDbPoint
 10
2026.699302930582
 20
1236.67196328526
 30
0.0
  0
POINT
  5
9313
330
7173
100
AcDbEntity
  8
Defpoints
 62
     0
100
AcDbPoint
 10
1196.699302930581
 20
1236.67196328526
 30
0.0
  0
POINT
  5
9314
330
7173
100
AcDbEntity
  8
Defpoints
 62
     0
100
AcDbPoint
 10
1196.699302930581
 20
968.7771937547477
 30
0.0
  0
ENDBLK
  5
717E
330
7173
100
AcDbEntity
  8
0
 62
     3
100
AcDbBlockEnd
  0
BLOCK
  5
71A7
330
719D
100
AcDbEntity
  8
0
 62
     3
100
AcDbBlockBegin
  2
*D20
 70
     1
 10
0.0
 20
0.0
 30
0.0
  3
*D20
  1

  0
LINE
  5
93A5
330
719D
100
AcDbEntity
  8
実形
 62
     0
370
    18
100
AcDbLine
 10
1712.482256573891
 20
1476.67196328526
 30
0.0
 11
1655.89988431826
 21
1476.67196328526
 31
0.0
  0
LINE
  5
93A6
330
719D
100
AcDbEntity
  8
実形
 62
     0
370
    18
100
AcDbLine
 10
1712.482256573891
 20
1271.67196328526
 30
0.0
 11
1655.89988431826
 21
1271.67196328526
 31
0.0
  0
LINE
  5
93A7
330
719D
100
AcDbEntity
  8
実形
 62
     0
370
    18
100
AcDbLine
 10
1655.89988431826
 20
1466.67196328526
 30
0.0
 11
1655.89988431826
 21
1281.67196328526
 31
0.0
  0
INSERT
  5
93A8
330
719D
100
AcDbEntity
  8
実形
 62
     0
370
    18
100
AcDbBlockReference
  2
_Dot
 10
1655.89988431826
 20
1476.67196328526
 30
0.0
 41
10.0
 42
10.0
 43
10.0
 50
90.0
  0
INSERT
  5
93A9
330
719D
100
AcDbEntity
  8
実形
 62
     0
370
    18
100
AcDbBlockReference
  2
_Dot
 10
1655.89988431826
 20
1271.67196328526
 30
0.0
 41
10.0
 42
10.0
 43
10.0
 50
270.0
  0
MTEXT
  5
93AA
330
719D
100
AcDbEntity
  8
実形
 62
     0
100
AcDbMText
 10
1636.79988431826
 20
1374.17196328526
 30
0.0
 40
25.0
 41
0.0
 71
     5
 72
     1
  1
205
 11
0.0000000000000001
 21
1.0
 31
0.0
 73
     1
 44
1.0
1001
ACAD
1000
MTEXTBEGIN
1070
    73
1070
     1
1070
    44
1040
1.0
1070
    74
1070
     0
1000
MTEXTEND
  0
POINT
  5
93AB
330
719D
100
AcDbEntity
  8
Defpoints
 62
     0
100
AcDbPoint
 10
1777.482256573891
 20
1476.67196328526
 30
0.0
  0
POINT
  5
93AC
330
719D
100
AcDbEntity
  8
Defpoints
 62
     0
100
AcDbPoint
 10
1777.482256573891
 20
1271.67196328526
 30
0.0
  0
POINT
  5
93AD
330
719D
100
AcDbEntity
  8
Defpoints
 62
     0
100
AcDbPoint
 10
1655.89988431826
 20
1271.67196328526
 30
0.0
  0
ENDBLK
  5
71A8
330
719D
100
AcDbEntity
  8
0
 62
     3
100
AcDbBlockEnd
  0
BLOCK
  5
7467
330
745D
100
AcDbEntity
  8
0
 62
     3
100
AcDbBlockBegin
  2
*D21
 70
     1
 10
0.0
 20
0.0
 30
0.0
  3
*D21
  1

  0
LINE
  5
9120
330
745D
100
AcDbEntity
  8
実形
 62
     0
370
    18
100
AcDbLine
 10
1921.699302930582
 20
395.1402142854657
 30
0.0
 11
1921.699302930582
 21
343.2236157496082
 31
0.0
  0
LINE
  5
9121
330
745D
100
AcDbEntity
  8
実形
 62
     0
370
    18
100
AcDbLine
 10
1761.699302930582
 20
395.1402142854657
 30
0.0
 11
1761.699302930582
 21
343.2236157496082
 31
0.0
  0
LINE
  5
9122
330
745D
100
AcDbEntity
  8
実形
 62
     0
370
    18
100
AcDbLine
 10
1911.699302930582
 20
343.2236157496082
 30
0.0
 11
1771.699302930581
 21
343.2236157496082
 31
0.0
  0
INSERT
  5
9123
330
745D
100
AcDbEntity
  8
実形
 62
     0
370
    18
100
AcDbBlockReference
  2
_Dot
 10
1921.699302930582
 20
343.2236157496082
 30
0.0
 41
10.0
 42
10.0
 43
10.0
  0
INSERT
  5
9124
330
745D
100
AcDbEntity
  8
実形
 62
     0
370
    18
100
AcDbBlockReference
  2
_Dot
 10
1761.699302930582
 20
343.2236157496082
 30
0.0
 41
10.0
 42
10.0
 43
10.0
 50
180.0
  0
MTEXT
  5
9125
330
745D
100
AcDbEntity
  8
実形
 62
     0
100
AcDbMText
 10
1841.699302930582
 20
362.3236157496082
 30
0.0
 40
25.0
 41
0.0
 71
     5
 72
     1
  1
160
 73
     1
 44
1.0
1001
ACAD
1000
MTEXTBEGIN
1070
    73
1070
     1
1070
    44
1040
1.0
1070
    74
1070
     0
1000
MTEXTEND
  0
POINT
  5
9126
330
745D
100
AcDbEntity
  8
Defpoints
 62
     0
100
AcDbPoint
 10
1921.699302930582
 20
460.1402142854657
 30
0.0
  0
POINT
  5
9127
330
745D
100
AcDbEntity
  8
Defpoints
 62
     0
100
AcDbPoint
 10
1761.699302930582
 20
460.1402142854657
 30
0.0
  0
POINT
  5
9128
330
745D
100
AcDbEntity
  8
Defpoints
 62
     0
100
AcDbPoint
 10
1761.699302930582
 20
343.2236157496082
 30
0.0
  0
ENDBLK
  5
7468
330
745D
100
AcDbEntity
  8
0
 62
     3
100
AcDbBlockEnd
  0
BLOCK
  5
7474
330
746A
100
AcDbEntity
  8
0
 62
     3
100
AcDbBlockBegin
  2
*D22
 70
     1
 10
0.0
 20
0.0
 30
0.0
  3
*D22
  1

  0
LINE
  5
9117
330
746A
100
AcDbEntity
  8
実形
 62
     0
370
    18
100
AcDbLine
 10
1932.199302930582
 20
395.1402142854658
 30
0.0
 11
1932.199302930582
 21
271.9813189343313
 31
0.0
  0
LINE
  5
9118
330
746A
100
AcDbEntity
  8
実形
 62
     0
370
    18
100
AcDbLine
 10
1751.199302930582
 20
395.1402142854616
 30
0.0
 11
1751.199302930582
 21
271.9813189343313
 31
0.0
  0
LINE
  5
9119
330
746A
100
AcDbEntity
  8
実形
 62
     0
370
    18
100
AcDbLine
 10
1922.199302930582
 20
271.9813189343313
 30
0.0
 11
1761.199302930582
 21
271.9813189343313
 31
0.0
  0
INSERT
  5
911A
330
746A
100
AcDbEntity
  8
実形
 62
     0
370
    18
100
AcDbBlockReference
  2
_Dot
 10
1932.199302930582
 20
271.9813189343313
 30
0.0
 41
10.0
 42
10.0
 43
10.0
  0
INSERT
  5
911B
330
746A
100
AcDbEntity
  8
実形
 62
     0
370
    18
100
AcDbBlockReference
  2
_Dot
 10
1751.199302930582
 20
271.9813189343313
 30
0.0
 41
10.0
 42
10.0
 43
10.0
 50
180.0
  0
MTEXT
  5
911C
330
746A
100
AcDbEntity
  8
実形
 62
     0
100
AcDbMText
 10
1841.699302930582
 20
291.0813189343313
 30
0.0
 40
25.0
 41
0.0
 71
     5
 72
     1
  1
181
 73
     1
 44
1.0
1001
ACAD
1000
MTEXTBEGIN
1070
    73
1070
     1
1070
    44
1040
1.0
1070
    74
1070
     0
1000
MTEXTEND
  0
POINT
  5
911D
330
746A
100
AcDbEntity
  8
Defpoints
 62
     0
100
AcDbPoint
 10
1932.199302930582
 20
460.1402142854658
 30
0.0
  0
POINT
  5
911E
330
746A
100
AcDbEntity
  8
Defpoints
 62
     0
100
AcDbPoint
 10
1751.199302930582
 20
460.1402142854616
 30
0.0
  0
POINT
  5
911F
330
746A
100
AcDbEntity
  8
Defpoints
 62
     0
100
AcDbPoint
 10
1751.199302930582
 20
271.9813189343313
 30
0.0
  0
ENDBLK
  5
7475
330
746A
100
AcDbEntity
  8
0
 62
     3
100
AcDbBlockEnd
  0
BLOCK
  5
7DF5
330
7DEB
100
AcDbEntity
  8
0
 62
     3
100
AcDbBlockBegin
  2
*D23
 70
     1
 10
0.0
 20
0.0
 30
0.0
  3
*D23
  1

  0
LINE
  5
92D6
330
7DEB
100
AcDbEntity
  8
実形
 62
     0
370
    18
100
AcDbLine
 10
671.9150877194479
 20
1396.67196328526
 30
0.0
 11
619.9984891835902
 21
1396.67196328526
 31
0.0
  0
LINE
  5
92D7
330
7DEB
100
AcDbEntity
  8
実形
 62
     0
370
    18
100
AcDbLine
 10
671.9150877194479
 20
1556.67196328526
 30
0.0
 11
619.9984891835902
 21
1556.67196328526
 31
0.0
  0
LINE
  5
92D8
330
7DEB
100
AcDbEntity
  8
実形
 62
     0
370
    18
100
AcDbLine
 10
619.9984891835902
 20
1406.67196328526
 30
0.0
 11
619.9984891835902
 21
1546.67196328526
 31
0.0
  0
INSERT
  5
92D9
330
7DEB
100
AcDbEntity
  8
実形
 62
     0
370
    18
100
AcDbBlockReference
  2
_Dot
 10
619.9984891835902
 20
1396.67196328526
 30
0.0
 41
10.0
 42
10.0
 43
10.0
 50
270.0
  0
INSERT
  5
92DA
330
7DEB
100
AcDbEntity
  8
実形
 62
     0
370
    18
100
AcDbBlockReference
  2
_Dot
 10
619.9984891835902
 20
1556.67196328526
 30
0.0
 41
10.0
 42
10.0
 43
10.0
 50
90.0
  0
MTEXT
  5
92DB
330
7DEB
100
AcDbEntity
  8
実形
 62
     0
100
AcDbMText
 10
600.89848918359
 20
1476.67196328526
 30
0.0
 40
25.0
 41
0.0
 71
     5
 72
     1
  1
160
 11
0.0000000000000001
 21
1.0
 31
0.0
 73
     1
 44
1.0
1001
ACAD
1000
MTEXTBEGIN
1070
    73
1070
     1
1070
    44
1040
1.0
1070
    74
1070
     0
1000
MTEXTEND
  0
POINT
  5
92DC
330
7DEB
100
AcDbEntity
  8
Defpoints
 62
     0
100
AcDbPoint
 10
736.9150877194479
 20
1396.67196328526
 30
0.0
  0
POINT
  5
92DD
330
7DEB
100
AcDbEntity
  8
Defpoints
 62
     0
100
AcDbPoint
 10
736.9150877194479
 20
1556.67196328526
 30
0.0
  0
POINT
  5
92DE
330
7DEB
100
AcDbEntity
  8
Defpoints
 62
     0
100
AcDbPoint
 10
619.9984891835902
 20
1556.67196328526
 30
0.0
  0
ENDBLK
  5
7DF6
330
7DEB
100
AcDbEntity
  8
0
 62
     3
100
AcDbBlockEnd
  0
BLOCK
  5
7E01
330
7DF7
100
AcDbEntity
  8
0
 62
     3
100
AcDbBlockBegin
  2
*D24
 70
     1
 10
0.0
 20
0.0
 30
0.0
  3
*D24
  1

  0
LINE
  5
9273
330
7DF7
100
AcDbEntity
  8
実形
 62
     0
370
    18
100
AcDbLine
 10
671.9150877194479
 20
1386.17196328526
 30
0.0
 11
548.7561923683133
 21
1386.17196328526
 31
0.0
  0
LINE
  5
9274
330
7DF7
100
AcDbEntity
  8
実形
 62
     0
370
    18
100
AcDbLine
 10
671.9150877194433
 20
1567.171963285259
 30
0.0
 11
548.7561923683133
 21
1567.171963285259
 31
0.0
  0
LINE
  5
9275
330
7DF7
100
AcDbEntity
  8
実形
 62
     0
370
    18
100
AcDbLine
 10
548.7561923683133
 20
1396.17196328526
 30
0.0
 11
548.7561923683133
 21
1557.17196328526
 31
0.0
  0
INSERT
  5
9276
330
7DF7
100
AcDbEntity
  8
実形
 62
     0
370
    18
100
AcDbBlockReference
  2
_Dot
 10
548.7561923683133
 20
1386.17196328526
 30
0.0
 41
10.0
 42
10.0
 43
10.0
 50
270.0
  0
INSERT
  5
9277
330
7DF7
100
AcDbEntity
  8
実形
 62
     0
370
    18
100
AcDbBlockReference
  2
_Dot
 10
548.7561923683133
 20
1567.171963285259
 30
0.0
 41
10.0
 42
10.0
 43
10.0
 50
90.0
  0
MTEXT
  5
9278
330
7DF7
100
AcDbEntity
  8
実形
 62
     0
100
AcDbMText
 10
529.6561923683131
 20
1476.67196328526
 30
0.0
 40
25.0
 41
0.0
 71
     5
 72
     1
  1
181
 11
0.0000000000000001
 21
1.0
 31
0.0
 73
     1
 44
1.0
1001
ACAD
1000
MTEXTBEGIN
1070
    73
1070
     1
1070
    44
1040
1.0
1070
    74
1070
     0
1000
MTEXTEND
  0
POINT
  5
9279
330
7DF7
100
AcDbEntity
  8
Defpoints
 62
     0
100
AcDbPoint
 10
736.9150877194479
 20
1386.17196328526
 30
0.0
  0
POINT
  5
927A
330
7DF7
100
AcDbEntity
  8
Defpoints
 62
     0
100
AcDbPoint
 10
736.9150877194433
 20
1567.171963285259
 30
0.0
  0
POINT
  5
927B
330
7DF7
100
AcDbEntity
  8
Defpoints
 62
     0
100
AcDbPoint
 10
548.7561923683133
 20
1567.171963285259
 30
0.0
  0
ENDBLK
  5
7E02
330
7DF7
100
AcDbEntity
  8
0
 62
     3
100
AcDbBlockEnd
  0
BLOCK
  5
7E0D
330
7E03
100
AcDbEntity
  8
0
 62
     3
100
AcDbBlockBegin
  2
*D25
 70
     1
 10
0.0
 20
0.0
 30
0.0
  3
*D25
  1

  0
LINE
  5
92A0
330
7E03
100
AcDbEntity
  8
実形
 62
     0
370
    18
100
AcDbLine
 10
951.9150877194478
 20
1201.285223460146
 30
0.0
 11
951.9150877194478
 21
1146.46230530199
 31
0.0
  0
LINE
  5
92A1
330
7E03
100
AcDbEntity
  8
実形
 62
     0
370
    18
100
AcDbLine
 10
761.9150877194488
 20
1178.191854069061
 30
0.0
 11
761.9150877194488
 21
1146.46230530199
 31
0.0
  0
LINE
  5
92A2
330
7E03
100
AcDbEntity
  8
実形
 62
     0
370
    18
100
AcDbLine
 10
941.9150877194478
 20
1146.46230530199
 30
0.0
 11
771.9150877194488
 21
1146.46230530199
 31
0.0
  0
MTEXT
  5
92A3
330
7E03
100
AcDbEntity
  8
実形
 62
     0
100
AcDbMText
 10
990.4796944451154
 20
1168.06230530199
 30
0.0
 40
25.0
 41
0.0
 71
     5
 72
     1
  1
15
 73
     1
 44
1.0
1001
ACAD
1000
MTEXTBEGIN
1070
    73
1070
     1
1070
    44
1040
1.0
1070
    74
1070
     0
1000
MTEXTEND
  0
INSERT
  5
92A4
330
7E03
100
AcDbEntity
  8
実形
 62
     0
370
    18
100
AcDbBlockReference
  2
_Dot
 10
951.9150877194478
 20
1146.46230530199
 30
0.0
 41
10.0
 42
10.0
 43
10.0
  0
INSERT
  5
92A5
330
7E03
100
AcDbEntity
  8
実形
 62
     0
370
    18
100
AcDbBlockReference
  2
_Dot
 10
761.9150877194488
 20
1146.46230530199
 30
0.0
 41
10.0
 42
10.0
 43
10.0
 50
180.0
  0
POINT
  5
92A6
330
7E03
100
AcDbEntity
  8
Defpoints
 62
     0
100
AcDbPoint
 10
951.9150877194478
 20
1266.285223460146
 30
0.0
  0
POINT
  5
92A7
330
7E03
100
AcDbEntity
  8
Defpoints
 62
     0
100
AcDbPoint
 10
761.9150877194488
 20
1243.191854069061
 30
0.0
  0
POINT
  5
92A8
330
7E03
100
AcDbEntity
  8
Defpoints
 62
     0
100
AcDbPoint
 10
761.9150877194488
 20
1146.46230530199
 30
0.0
  0
ENDBLK
  5
7E0E
330
7E03
100
AcDbEntity
  8
0
 62
     3
100
AcDbBlockEnd
  0
BLOCK
  5
7E19
330
7E0F
100
AcDbEntity
  8
0
 62
     3
100
AcDbBlockBegin
  2
*D26
 70
     1
 10
0.0
 20
0.0
 30
0.0
  3
*D26
  1

  0
LINE
  5
92CD
330
7E0F
100
AcDbEntity
  8
実形
 62
     0
370
    18
100
AcDbLine
 10
936.9150877194483
 20
1202.962792217446
 30
0.0
 11
936.9150877194483
 21
1146.46230530199
 31
0.0
  0
LINE
  5
92CE
330
7E0F
100
AcDbEntity
  8
実形
 62
     0
370
    18
100
AcDbLine
 10
761.9150877194488
 20
1202.124012566447
 30
0.0
 11
761.9150877194488
 21
1146.46230530199
 31
0.0
  0
LINE
  5
92CF
330
7E0F
100
AcDbEntity
  8
実形
 62
     0
370
    18
100
AcDbLine
 10
926.9150877194483
 20
1146.46230530199
 30
0.0
 11
771.9150877194488
 21
1146.46230530199
 31
0.0
  0
MTEXT
  5
92D0
330
7E0F
100
AcDbEntity
  8
実形
 62
     0
100
AcDbMText
 10
852.8784012418146
 20
1168.147682812884
 30
0.0
 40
25.0
 41
0.0
 71
     5
 72
     1
  1
175
 73
     1
 44
1.0
1001
ACAD
1000
MTEXTBEGIN
1070
    73
1070
     1
1070
    44
1040
1.0
1070
    74
1070
     0
1000
MTEXTEND
  0
INSERT
  5
92D1
330
7E0F
100
AcDbEntity
  8
実形
 62
     0
370
    18
100
AcDbBlockReference
  2
_Dot
 10
936.9150877194483
 20
1146.46230530199
 30
0.0
 41
10.0
 42
10.0
 43
10.0
  0
INSERT
  5
92D2
330
7E0F
100
AcDbEntity
  8
実形
 62
     0
370
    18
100
AcDbBlockReference
  2
_Dot
 10
761.9150877194488
 20
1146.46230530199
 30
0.0
 41
10.0
 42
10.0
 43
10.0
 50
180.0
  0
POINT
  5
92D3
330
7E0F
100
AcDbEntity
  8
Defpoints
 62
     0
100
AcDbPoint
 10
936.9150877194483
 20
1267.962792217447
 30
0.0
  0
POINT
  5
92D4
330
7E0F
100
AcDbEntity
  8
Defpoints
 62
     0
100
AcDbPoint
 10
761.9150877194488
 20
1267.124012566447
 30
0.0
  0
POINT
  5
92D5
330
7E0F
100
AcDbEntity
  8
Defpoints
 62
     0
100
AcDbPoint
 10
761.9150877194488
 20
1146.46230530199
 30
0.0
  0
ENDBLK
  5
7E1A
330
7E0F
100
AcDbEntity
  8
0
 62
     3
100
AcDbBlockEnd
  0
BLOCK
  5
7E25
330
7E1B
100
AcDbEntity
  8
0
 62
     3
100
AcDbBlockBegin
  2
*D27
 70
     1
 10
0.0
 20
0.0
 30
0.0
  3
*D27
  1

  0
LINE
  5
92C4
330
7E1B
100
AcDbEntity
  8
実形
 62
     0
370
    18
100
AcDbLine
 10
951.9150877194478
 20
1139.267270046923
 30
0.0
 11
951.9150877194478
 21
1094.45181606266
 31
0.0
  0
LINE
  5
92C5
330
7E1B
100
AcDbEntity
  8
実形
 62
     0
370
    18
100
AcDbLine
 10
761.9150877194483
 20
1139.267270046923
 30
0.0
 11
761.9150877194483
 21
1094.45181606266
 31
0.0
  0
LINE
  5
92C6
330
7E1B
100
AcDbEntity
  8
実形
 62
     0
370
    18
100
AcDbLine
 10
941.9150877194478
 20
1094.45181606266
 30
0.0
 11
771.9150877194484
 21
1094.45181606266
 31
0.0
  0
MTEXT
  5
92C7
330
7E1B
100
AcDbEntity
  8
実形
 62
     0
100
AcDbMText
 10
852.0394054187963
 20
1116.05181606266
 30
0.0
 40
25.0
 41
0.0
 71
     5
 72
     1
  1
190
 73
     1
 44
1.0
1001
ACAD
1000
MTEXTBEGIN
1070
    73
1070
     1
1070
    44
1040
1.0
1070
    74
1070
     0
1000
MTEXTEND
  0
INSERT
  5
92C8
330
7E1B
100
AcDbEntity
  8
実形
 62
     0
370
    18
100
AcDbBlockReference
  2
_Dot
 10
951.9150877194478
 20
1094.45181606266
 30
0.0
 41
10.0
 42
10.0
 43
10.0
  0
INSERT
  5
92C9
330
7E1B
100
AcDbEntity
  8
実形
 62
     0
370
    18
100
AcDbBlockReference
  2
_Dot
 10
761.9150877194483
 20
1094.45181606266
 30
0.0
 41
10.0
 42
10.0
 43
10.0
 50
180.0
  0
POINT
  5
92CA
330
7E1B
100
AcDbEntity
  8
Defpoints
 62
     0
100
AcDbPoint
 10
951.9150877194478
 20
1204.267270046923
 30
0.0
  0
POINT
  5
92CB
330
7E1B
100
AcDbEntity
  8
Defpoints
 62
     0
100
AcDbPoint
 10
761.9150877194483
 20
1204.267270046923
 30
0.0
  0
POINT
  5
92CC
330
7E1B
100
AcDbEntity
  8
Defpoints
 62
     0
100
AcDbPoint
 10
761.9150877194483
 20
1094.45181606266
 30
0.0
  0
ENDBLK
  5
7E26
330
7E1B
100
AcDbEntity
  8
0
 62
     3
100
AcDbBlockEnd
  0
BLOCK
  5
7E31
330
7E27
100
AcDbEntity
  8
0
 62
     3
100
AcDbBlockBegin
  2
*D28
 70
     1
 10
0.0
 20
0.0
 30
0.0
  3
*D28
  1

  0
LINE
  5
92BB
330
7E27
100
AcDbEntity
  8
実形
 62
     0
370
    18
100
AcDbLine
 10
951.9150877194478
 20
1139.267270046923
 30
0.0
 11
951.9150877194478
 21
1094.45181606266
 31
0.0
  0
LINE
  5
92BC
330
7E27
100
AcDbEntity
  8
実形
 62
     0
370
    18
100
AcDbLine
 10
746.9150877194484
 20
1201.8686154618
 30
0.0
 11
746.9150877194484
 21
1094.45181606266
 31
0.0
  0
LINE
  5
92BD
330
7E27
100
AcDbEntity
  8
実形
 62
     0
370
    18
100
AcDbLine
 10
941.9150877194478
 20
1094.45181606266
 30
0.0
 11
756.9150877194483
 21
1094.45181606266
 31
0.0
  0
MTEXT
  5
92BE
330
7E27
100
AcDbEntity
  8
実形
 62
     0
100
AcDbMText
 10
711.927136807597
 20
1116.05181606266
 30
0.0
 40
25.0
 41
0.0
 71
     5
 72
     1
  1
15
 73
     1
 44
1.0
1001
ACAD
1000
MTEXTBEGIN
1070
    73
1070
     1
1070
    44
1040
1.0
1070
    74
1070
     0
1000
MTEXTEND
  0
INSERT
  5
92BF
330
7E27
100
AcDbEntity
  8
実形
 62
     0
370
    18
100
AcDbBlockReference
  2
_Dot
 10
951.9150877194478
 20
1094.45181606266
 30
0.0
 41
10.0
 42
10.0
 43
10.0
  0
INSERT
  5
92C0
330
7E27
100
AcDbEntity
  8
実形
 62
     0
370
    18
100
AcDbBlockReference
  2
_Dot
 10
746.9150877194484
 20
1094.45181606266
 30
0.0
 41
10.0
 42
10.0
 43
10.0
 50
180.0
  0
POINT
  5
92C1
330
7E27
100
AcDbEntity
  8
Defpoints
 62
     0
100
AcDbPoint
 10
951.9150877194478
 20
1204.267270046923
 30
0.0
  0
POINT
  5
92C2
330
7E27
100
AcDbEntity
  8
Defpoints
 62
     0
100
AcDbPoint
 10
746.9150877194484
 20
1266.8686154618
 30
0.0
  0
POINT
  5
92C3
330
7E27
100
AcDbEntity
  8
Defpoints
 62
     0
100
AcDbPoint
 10
746.9150877194484
 20
1094.45181606266
 30
0.0
  0
ENDBLK
  5
7E32
330
7E27
100
AcDbEntity
  8
0
 62
     3
100
AcDbBlockEnd
  0
BLOCK
  5
7E3D
330
7E33
100
AcDbEntity
  8
0
 62
     3
100
AcDbBlockBegin
  2
*D29
 70
     1
 10
0.0
 20
0.0
 30
0.0
  3
*D29
  1

  0
LINE
  5
92B2
330
7E33
100
AcDbEntity
  8
実形
 62
     0
370
    18
100
AcDbLine
 10
951.3933520585306
 20
1107.320377601457
 30
0.0
 11
951.3933520585306
 21
1041.181532497775
 31
0.0
  0
LINE
  5
92B3
330
7E33
100
AcDbEntity
  8
実形
 62
     0
370
    18
100
AcDbLine
 10
746.9150877194484
 20
1107.320377601457
 30
0.0
 11
746.9150877194484
 21
1041.181532497775
 31
0.0
  0
LINE
  5
92B4
330
7E33
100
AcDbEntity
  8
実形
 62
     0
370
    18
100
AcDbLine
 10
941.3933520585306
 20
1041.181532497775
 30
0.0
 11
756.9150877194483
 21
1041.181532497775
 31
0.0
  0
INSERT
  5
92B5
330
7E33
100
AcDbEntity
  8
実形
 62
     0
370
    18
100
AcDbBlockReference
  2
_Dot
 10
951.3933520585306
 20
1041.181532497775
 30
0.0
 41
10.0
 42
10.0
 43
10.0
  0
INSERT
  5
92B6
330
7E33
100
AcDbEntity
  8
実形
 62
     0
370
    18
100
AcDbBlockReference
  2
_Dot
 10
746.9150877194484
 20
1041.181532497775
 30
0.0
 41
10.0
 42
10.0
 43
10.0
 50
180.0
  0
MTEXT
  5
92B7
330
7E33
100
AcDbEntity
  8
実形
 62
     0
100
AcDbMText
 10
849.1542198889895
 20
1060.281532497775
 30
0.0
 40
25.0
 41
0.0
 71
     5
 72
     1
  1
205
 73
     1
 44
1.0
1001
ACAD
1000
MTEXTBEGIN
1070
    73
1070
     1
1070
    44
1040
1.0
1070
    74
1070
     0
1000
MTEXTEND
  0
POINT
  5
92B8
330
7E33
100
AcDbEntity
  8
Defpoints
 62
     0
100
AcDbPoint
 10
951.3933520585306
 20
1172.320377601457
 30
0.0
  0
POINT
  5
92B9
330
7E33
100
AcDbEntity
  8
Defpoints
 62
     0
100
AcDbPoint
 10
746.9150877194484
 20
1172.320377601457
 30
0.0
  0
POINT
  5
92BA
330
7E33
100
AcDbEntity
  8
Defpoints
 62
     0
100
AcDbPoint
 10
746.9150877194484
 20
1041.181532497775
 30
0.0
  0
ENDBLK
  5
7E3E
330
7E33
100
AcDbEntity
  8
0
 62
     3
100
AcDbBlockEnd
  0
BLOCK
  5
7E49
330
7E3F
100
AcDbEntity
  8
0
 62
     3
100
AcDbBlockBegin
  2
*D30
 70
     1
 10
0.0
 20
0.0
 30
0.0
  3
*D30
  1

  0
LINE
  5
92A9
330
7E3F
100
AcDbEntity
  8
実形
 62
     0
370
    18
100
AcDbLine
 10
951.9150877194478
 20
1172.320377601457
 30
0.0
 11
951.9150877194478
 21
1041.181532497775
 31
0.0
  0
LINE
  5
92AA
330
7E3F
100
AcDbEntity
  8
実形
 62
     0
370
    18
100
AcDbLine
 10
736.9150877194479
 20
1090.090446765364
 30
0.0
 11
736.9150877194479
 21
1041.181532497775
 31
0.0
  0
LINE
  5
92AB
330
7E3F
100
AcDbEntity
  8
実形
 62
     0
370
    18
100
AcDbLine
 10
941.9150877194478
 20
1041.181532497775
 30
0.0
 11
746.9150877194479
 21
1041.181532497775
 31
0.0
  0
MTEXT
  5
92AC
330
7E3F
100
AcDbEntity
  8
実形
 62
     0
100
AcDbMText
 10
713.1197632265321
 20
1062.781532497774
 30
0.0
 40
25.0
 41
0.0
 71
     5
 72
     1
  1
8
 73
     1
 44
1.0
1001
ACAD
1000
MTEXTBEGIN
1070
    73
1070
     1
1070
    44
1040
1.0
1070
    74
1070
     0
1000
MTEXTEND
  0
INSERT
  5
92AD
330
7E3F
100
AcDbEntity
  8
実形
 62
     0
370
    18
100
AcDbBlockReference
  2
_Dot
 10
951.9150877194478
 20
1041.181532497775
 30
0.0
 41
10.0
 42
10.0
 43
10.0
  0
INSERT
  5
92AE
330
7E3F
100
AcDbEntity
  8
実形
 62
     0
370
    18
100
AcDbBlockReference
  2
_Dot
 10
736.9150877194479
 20
1041.181532497775
 30
0.0
 41
10.0
 42
10.0
 43
10.0
 50
180.0
  0
POINT
  5
92AF
330
7E3F
100
AcDbEntity
  8
Defpoints
 62
     0
100
AcDbPoint
 10
951.9150877194478
 20
1237.320377601457
 30
0.0
  0
POINT
  5
92B0
330
7E3F
100
AcDbEntity
  8
Defpoints
 62
     0
100
AcDbPoint
 10
736.9150877194479
 20
1155.090446765364
 30
0.0
  0
POINT
  5
92B1
330
7E3F
100
AcDbEntity
  8
Defpoints
 62
     0
100
AcDbPoint
 10
736.9150877194479
 20
1041.181532497775
 30
0.0
  0
ENDBLK
  5
7E4A
330
7E3F
100
AcDbEntity
  8
0
 62
     3
100
AcDbBlockEnd
  0
BLOCK
  5
7E55
330
7E4B
100
AcDbEntity
  8
0
 62
     3
100
AcDbBlockBegin
  2
*D31
 70
     1
 10
0.0
 20
0.0
 30
0.0
  3
*D31
  1

  0
LINE
  5
926A
330
7E4B
100
AcDbEntity
  8
実形
 62
     0
370
    18
100
AcDbLine
 10
951.9150877194478
 20
1107.320377601457
 30
0.0
 11
951.9150877194478
 21
986.4755211003473
 31
0.0
  0
LINE
  5
926B
330
7E4B
100
AcDbEntity
  8
実形
 62
     0
370
    18
100
AcDbLine
 10
736.9150877194479
 20
1043.252964348653
 30
0.0
 11
736.9150877194479
 21
986.4755211003473
 31
0.0
  0
LINE
  5
926C
330
7E4B
100
AcDbEntity
  8
実形
 62
     0
370
    18
100
AcDbLine
 10
941.9150877194478
 20
986.4755211003473
 30
0.0
 11
746.9150877194479
 21
986.4755211003473
 31
0.0
  0
MTEXT
  5
926D
330
7E4B
100
AcDbEntity
  8
実形
 62
     0
100
AcDbMText
 10
849.522417949749
 20
1008.075521100347
 30
0.0
 40
25.0
 41
0.0
 71
     5
 72
     1
  1
213
 73
     1
 44
1.0
1001
ACAD
1000
MTEXTBEGIN
1070
    73
1070
     1
1070
    44
1040
1.0
1070
    74
1070
     0
1000
MTEXTEND
  0
INSERT
  5
926E
330
7E4B
100
AcDbEntity
  8
実形
 62
     0
370
    18
100
AcDbBlockReference
  2
_Dot
 10
951.9150877194478
 20
986.4755211003473
 30
0.0
 41
10.0
 42
10.0
 43
10.0
  0
INSERT
  5
926F
330
7E4B
100
AcDbEntity
  8
実形
 62
     0
370
    18
100
AcDbBlockReference
  2
_Dot
 10
736.9150877194479
 20
986.4755211003473
 30
0.0
 41
10.0
 42
10.0
 43
10.0
 50
180.0
  0
POINT
  5
9270
330
7E4B
100
AcDbEntity
  8
Defpoints
 62
     0
100
AcDbPoint
 10
951.9150877194478
 20
1172.320377601457
 30
0.0
  0
POINT
  5
9271
330
7E4B
100
AcDbEntity
  8
Defpoints
 62
     0
100
AcDbPoint
 10
736.9150877194479
 20
1108.252964348653
 30
0.0
  0
POINT
  5
9272
330
7E4B
100
AcDbEntity
  8
Defpoints
 62
     0
100
AcDbPoint
 10
736.9150877194479
 20
986.4755211003473
 30
0.0
  0
ENDBLK
  5
7E56
330
7E4B
100
AcDbEntity
  8
0
 62
     3
100
AcDbBlockEnd
  0
BLOCK
  5
8272
330
8268
100
AcDbEntity
  8
0
 62
     3
100
AcDbBlockBegin
  2
*D32
 70
     1
 10
0.0
 20
0.0
 30
0.0
  3
*D32
  1

  0
LINE
  5
9303
330
8268
100
AcDbEntity
  8
実形
 62
     0
370
    18
100
AcDbLine
 10
1461.699302930581
 20
1746.67196328526
 30
0.0
 11
1461.699302930581
 21
1785.511640793593
 31
0.0
  0
LINE
  5
9304
330
8268
100
AcDbEntity
  8
実形
 62
     0
370
    18
100
AcDbLine
 10
1196.699302930582
 20
1746.67196328526
 30
0.0
 11
1196.699302930582
 21
1785.511640793593
 31
0.0
  0
LINE
  5
9305
330
8268
100
AcDbEntity
  8
実形
 62
     0
370
    18
100
AcDbLine
 10
1451.699302930581
 20
1785.511640793593
 30
0.0
 11
1206.699302930582
 21
1785.511640793593
 31
0.0
  0
MTEXT
  5
9306
330
8268
100
AcDbEntity
  8
実形
 62
     0
100
AcDbMText
 10
1205.833625993818
 20
1807.928717799575
 30
0.0
 40
25.0
 41
0.0
 71
     5
 72
     1
  1
15
 73
     1
 44
1.0
1001
ACAD
1000
MTEXTBEGIN
1070
    73
1070
     1
1070
    44
1040
1.0
1070
    74
1070
     0
1000
MTEXTEND
  0
INSERT
  5
9307
330
8268
100
AcDbEntity
  8
実形
 62
     0
370
    18
100
AcDbBlockReference
  2
_Dot
 10
1461.699302930581
 20
1785.511640793593
 30
0.0
 41
10.0
 42
10.0
 43
10.0
  0
INSERT
  5
9308
330
8268
100
AcDbEntity
  8
実形
 62
     0
370
    18
100
AcDbBlockReference
  2
_Dot
 10
1196.699302930582
 20
1785.511640793593
 30
0.0
 41
10.0
 42
10.0
 43
10.0
 50
180.0
  0
POINT
  5
9309
330
8268
100
AcDbEntity
  8
Defpoints
 62
     0
100
AcDbPoint
 10
1461.699302930581
 20
1681.67196328526
 30
0.0
  0
POINT
  5
930A
330
8268
100
AcDbEntity
  8
Defpoints
 62
     0
100
AcDbPoint
 10
1196.699302930582
 20
1681.67196328526
 30
0.0
  0
POINT
  5
930B
330
8268
100
AcDbEntity
  8
Defpoints
 62
     0
100
AcDbPoint
 10
1196.699302930582
 20
1785.511640793593
 30
0.0
  0
ENDBLK
  5
8273
330
8268
100
AcDbEntity
  8
0
 62
     3
100
AcDbBlockEnd
  0
BLOCK
  5
827F
330
8275
100
AcDbEntity
  8
0
 62
     3
100
AcDbBlockBegin
  2
*D33
 70
     1
 10
0.0
 20
0.0
 30
0.0
  3
*D33
  1

  0
LINE
  5
92FA
330
8275
100
AcDbEntity
  8
実形
 62
     0
370
    18
100
AcDbLine
 10
1461.699302930581
 20
1746.67196328526
 30
0.0
 11
1461.699302930581
 21
1785.511640793593
 31
0.0
  0
LINE
  5
92FB
330
8275
100
AcDbEntity
  8
実形
 62
     0
370
    18
100
AcDbLine
 10
1211.699302930581
 20
1746.67196328526
 30
0.0
 11
1211.699302930581
 21
1785.511640793593
 31
0.0
  0
LINE
  5
92FC
330
8275
100
AcDbEntity
  8
実形
 62
     0
370
    18
100
AcDbLine
 10
1451.699302930581
 20
1785.511640793593
 30
0.0
 11
1221.699302930581
 21
1785.511640793593
 31
0.0
  0
MTEXT
  5
92FD
330
8275
100
AcDbEntity
  8
実形
 62
     0
100
AcDbMText
 10
1338.985071808742
 20
1806.597540098196
 30
0.0
 40
25.0
 41
0.0
 71
     5
 72
     1
  1
250
 73
     1
 44
1.0
1001
ACAD
1000
MTEXTBEGIN
1070
    73
1070
     1
1070
    44
1040
1.0
1070
    74
1070
     0
1000
MTEXTEND
  0
INSERT
  5
92FE
330
8275
100
AcDbEntity
  8
実形
 62
     0
370
    18
100
AcDbBlockReference
  2
_Dot
 10
1461.699302930581
 20
1785.511640793593
 30
0.0
 41
10.0
 42
10.0
 43
10.0
  0
INSERT
  5
92FF
330
8275
100
AcDbEntity
  8
実形
 62
     0
370
    18
100
AcDbBlockReference
  2
_Dot
 10
1211.699302930581
 20
1785.511640793593
 30
0.0
 41
10.0
 42
10.0
 43
10.0
 50
180.0
  0
POINT
  5
9300
330
8275
100
AcDbEntity
  8
Defpoints
 62
     0
100
AcDbPoint
 10
1461.699302930581
 20
1681.67196328526
 30
0.0
  0
POINT
  5
9301
330
8275
100
AcDbEntity
  8
Defpoints
 62
     0
100
AcDbPoint
 10
1211.699302930581
 20
1681.67196328526
 30
0.0
  0
POINT
  5
9302
330
8275
100
AcDbEntity
  8
Defpoints
 62
     0
100
AcDbPoint
 10
1211.699302930581
 20
1785.511640793593
 30
0.0
  0
ENDBLK
  5
8280
330
8275
100
AcDbEntity
  8
0
 62
     3
100
AcDbBlockEnd
  0
BLOCK
  5
840D
330
8403
100
AcDbEntity
  8
0
 62
     3
100
AcDbBlockBegin
  2
*D34
 70
     1
 10
0.0
 20
0.0
 30
0.0
  3
*D34
  1

  0
LINE
  5
9342
330
8403
100
AcDbEntity
  8
実形
 62
     0
370
    18
100
AcDbLine
 10
1075.637906842119
 20
1611.67196328526
 30
0.0
 11
1030.465834646096
 21
1611.67196328526
 31
0.0
  0
LINE
  5
9343
330
8403
100
AcDbEntity
  8
実形
 62
     0
370
    18
100
AcDbLine
 10
1075.637906842119
 20
1701.67196328526
 30
0.0
 11
1030.465834646096
 21
1701.67196328526
 31
0.0
  0
LINE
  5
9344
330
8403
100
AcDbEntity
  8
実形
 62
     0
370
    18
100
AcDbLine
 10
1030.465834646096
 20
1621.67196328526
 30
0.0
 11
1030.465834646096
 21
1691.67196328526
 31
0.0
  0
MTEXT
  5
9345
330
8403
100
AcDbEntity
  8
実形
 62
     0
100
AcDbMText
 10
1000.117382904063
 20
1656.67196328526
 30
0.0
 40
25.0
 41
0.0
 71
     5
 72
     1
  1
90
 11
0.0000000000000001
 21
1.0
 31
0.0
 73
     1
 44
1.0
1001
ACAD
1000
MTEXTBEGIN
1070
    73
1070
     1
1070
    44
1040
1.0
1070
    74
1070
     0
1000
MTEXTEND
  0
INSERT
  5
9346
330
8403
100
AcDbEntity
  8
実形
 62
     0
370
    18
100
AcDbBlockReference
  2
_Dot
 10
1030.465834646096
 20
1611.67196328526
 30
0.0
 41
10.0
 42
10.0
 43
10.0
 50
270.0
  0
INSERT
  5
9347
330
8403
100
AcDbEntity
  8
実形
 62
     0
370
    18
100
AcDbBlockReference
  2
_Dot
 10
1030.465834646096
 20
1701.67196328526
 30
0.0
 41
10.0
 42
10.0
 43
10.0
 50
90.0
  0
POINT
  5
9348
330
8403
100
AcDbEntity
  8
Defpoints
 62
     0
100
AcDbPoint
 10
1140.637906842119
 20
1611.67196328526
 30
0.0
  0
POINT
  5
9349
330
8403
100
AcDbEntity
  8
Defpoints
 62
     0
100
AcDbPoint
 10
1140.637906842119
 20
1701.67196328526
 30
0.0
  0
POINT
  5
934A
330
8403
100
AcDbEntity
  8
Defpoints
 62
     0
100
AcDbPoint
 10
1030.465834646096
 20
1701.67196328526
 30
0.0
  0
ENDBLK
  5
840E
330
8403
100
AcDbEntity
  8
0
 62
     3
100
AcDbBlockEnd
  0
BLOCK
  5
8435
330
842B
100
AcDbEntity
  8
0
 62
     3
100
AcDbBlockBegin
  2
*D35
 70
     1
 10
0.0
 20
0.0
 30
0.0
  3
*D35
  1

  0
LINE
  5
9412
330
842B
100
AcDbEntity
  8
実形
 62
     0
370
    18
100
AcDbLine
 10
1120.796702859532
 20
1716.67196328526
 30
0.0
 11
1080.203733546001
 21
1716.67196328526
 31
0.0
  0
LINE
  5
9413
330
842B
100
AcDbEntity
  8
実形
 62
     0
370
    18
100
AcDbLine
 10
1090.375805742024
 20
1611.671963285259
 30
0.0
 11
1080.203733546001
 21
1611.671963285259
 31
0.0
  0
LINE
  5
9414
330
842B
100
AcDbEntity
  8
実形
 62
     0
370
    18
100
AcDbLine
 10
1080.203733546001
 20
1706.671963285259
 30
0.0
 11
1080.203733546001
 21
1621.671963285259
 31
0.0
  0
MTEXT
  5
9415
330
842B
100
AcDbEntity
  8
実形
 62
     0
100
AcDbMText
 10
1141.1234529962
 20
1737.095885593763
 30
0.0
 40
25.0
 41
0.0
 71
     5
 72
     1
  1
15
 11
0.0000000000000001
 21
1.0
 31
0.0
 73
     1
 44
1.0
1001
ACAD
1000
MTEXTBEGIN
1070
    73
1070
     1
1070
    44
1040
1.0
1070
    74
1070
     0
1000
MTEXTEND
  0
INSERT
  5
9416
330
842B
100
AcDbEntity
  8
実形
 62
     0
370
    18
100
AcDbBlockReference
  2
_Dot
 10
1080.203733546001
 20
1716.67196328526
 30
0.0
 41
10.0
 42
10.0
 43
10.0
 50
90.0
  0
INSERT
  5
9417
330
842B
100
AcDbEntity
  8
実形
 62
     0
370
    18
100
AcDbBlockReference
  2
_Dot
 10
1080.203733546001
 20
1611.671963285259
 30
0.0
 41
10.0
 42
10.0
 43
10.0
 50
270.0
  0
POINT
  5
9418
330
842B
100
AcDbEntity
  8
Defpoints
 62
     0
100
AcDbPoint
 10
1185.796702859532
 20
1716.67196328526
 30
0.0
  0
POINT
  5
9419
330
842B
100
AcDbEntity
  8
Defpoints
 62
     0
100
AcDbPoint
 10
1155.375805742024
 20
1611.671963285259
 30
0.0
  0
POINT
  5
941A
330
842B
100
AcDbEntity
  8
Defpoints
 62
     0
100
AcDbPoint
 10
1080.203733546001
 20
1611.671963285259
 30
0.0
  0
ENDBLK
  5
8436
330
842B
100
AcDbEntity
  8
0
 62
     3
100
AcDbBlockEnd
  0
BLOCK
  5
8B8E
330
8B84
100
AcDbEntity
  8
0
 62
     3
100
AcDbBlockBegin
  2
*D36
 70
     1
 10
0.0
 20
0.0
 30
0.0
  3
*D36
  1

  0
LINE
  5
9400
330
8B84
100
AcDbEntity
  8
実形
 62
     0
370
    18
100
AcDbLine
 10
1118.814574491308
 20
1701.67196328526
 30
0.0
 11
1080.203733546001
 21
1701.67196328526
 31
0.0
  0
LINE
  5
9401
330
8B84
100
AcDbEntity
  8
実形
 62
     0
370
    18
100
AcDbLine
 10
1118.814574491307
 20
1611.67196328526
 30
0.0
 11
1080.203733546001
 21
1611.67196328526
 31
0.0
  0
LINE
  5
9402
330
8B84
100
AcDbEntity
  8
実形
 62
     0
370
    18
100
AcDbLine
 10
1080.203733546001
 20
1691.67196328526
 30
0.0
 11
1080.203733546001
 21
1621.671963285259
 31
0.0
  0
MTEXT
  5
9403
330
8B84
100
AcDbEntity
  8
実形
 62
     0
100
AcDbMText
 10
1141.870461806471
 20
1674.957590598031
 30
0.0
 40
25.0
 41
0.0
 71
     5
 72
     1
  1
20
 11
0.0000000000000001
 21
1.0
 31
0.0
 73
     1
 44
1.0
1001
ACAD
1000
MTEXTBEGIN
1070
    73
1070
     1
1070
    44
1040
1.0
1070
    74
1070
     0
1000
MTEXTEND
  0
INSERT
  5
9404
330
8B84
100
AcDbEntity
  8
実形
 62
     0
370
    18
100
AcDbBlockReference
  2
_Dot
 10
1080.203733546001
 20
1701.67196328526
 30
0.0
 41
10.0
 42
10.0
 43
10.0
 50
90.0
  0
INSERT
  5
9405
330
8B84
100
AcDbEntity
  8
実形
 62
     0
370
    18
100
AcDbBlockReference
  2
_Dot
 10
1080.203733546001
 20
1611.67196328526
 30
0.0
 41
10.0
 42
10.0
 43
10.0
 50
270.0
  0
POINT
  5
9406
330
8B84
100
AcDbEntity
  8
Defpoints
 62
     0
100
AcDbPoint
 10
1183.814574491307
 20
1701.67196328526
 30
0.0
  0
POINT
  5
9407
330
8B84
100
AcDbEntity
  8
Defpoints
 62
     0
100
AcDbPoint
 10
1183.814574491307
 20
1611.67196328526
 30
0.0
  0
POINT
  5
9408
330
8B84
100
AcDbEntity
  8
Defpoints
 62
     0
100
AcDbPoint
 10
1080.203733546001
 20
1611.67196328526
 30
0.0
  0
ENDBLK
  5
8B8F
330
8B84
100
AcDbEntity
  8
0
 62
     3
100
AcDbBlockEnd
  0
BLOCK
  5
8B9B
330
8B91
100
AcDbEntity
  8
0
 62
     3
100
AcDbBlockBegin
  2
*D37
 70
     1
 10
0.0
 20
0.0
 30
0.0
  3
*D37
  1

  0
LINE
  5
934B
330
8B91
100
AcDbEntity
  8
実形
 62
     0
370
    18
100
AcDbLine
 10
1118.814574491308
 20
1681.67196328526
 30
0.0
 11
1080.203733546001
 21
1681.67196328526
 31
0.0
  0
LINE
  5
934C
330
8B91
100
AcDbEntity
  8
実形
 62
     0
370
    18
100
AcDbLine
 10
1118.814574491307
 20
1611.67196328526
 30
0.0
 11
1080.203733546001
 21
1611.67196328526
 31
0.0
  0
LINE
  5
934D
330
8B91
100
AcDbEntity
  8
実形
 62
     0
370
    18
100
AcDbLine
 10
1080.203733546001
 20
1671.67196328526
 30
0.0
 11
1080.203733546001
 21
1621.671963285259
 31
0.0
  0
INSERT
  5
934E
330
8B91
100
AcDbEntity
  8
実形
 62
     0
370
    18
100
AcDbBlockReference
  2
_Dot
 10
1080.203733546001
 20
1681.67196328526
 30
0.0
 41
10.0
 42
10.0
 43
10.0
 50
90.0
  0
INSERT
  5
934F
330
8B91
100
AcDbEntity
  8
実形
 62
     0
370
    18
100
AcDbBlockReference
  2
_Dot
 10
1080.203733546001
 20
1611.67196328526
 30
0.0
 41
10.0
 42
10.0
 43
10.0
 50
270.0
  0
MTEXT
  5
9350
330
8B91
100
AcDbEntity
  8
実形
 62
     0
100
AcDbMText
 10
1061.103733546
 20
1646.67196328526
 30
0.0
 40
25.0
 41
0.0
 71
     5
 72
     1
  1
70
 11
0.0000000000000001
 21
1.0
 31
0.0
 73
     1
 44
1.0
1001
ACAD
1000
MTEXTBEGIN
1070
    73
1070
     1
1070
    44
1040
1.0
1070
    74
1070
     0
1000
MTEXTEND
  0
POINT
  5
9351
330
8B91
100
AcDbEntity
  8
Defpoints
 62
     0
100
AcDbPoint
 10
1183.814574491307
 20
1681.67196328526
 30
0.0
  0
POINT
  5
9352
330
8B91
100
AcDbEntity
  8
Defpoints
 62
     0
100
AcDbPoint
 10
1183.814574491307
 20
1611.67196328526
 30
0.0
  0
POINT
  5
9353
330
8B91
100
AcDbEntity
  8
Defpoints
 62
     0
100
AcDbPoint
 10
1080.203733546001
 20
1611.67196328526
 30
0.0
  0
ENDBLK
  5
8B9C
330
8B91
100
AcDbEntity
  8
0
 62
     3
100
AcDbBlockEnd
  0
BLOCK
  5
8C85
330
8C7B
100
AcDbEntity
  8
0
 62
     3
100
AcDbBlockBegin
  2
*D38
 70
     1
 10
0.0
 20
0.0
 30
0.0
  3
*D38
  1

  0
LINE
  5
93C0
330
8C7B
100
AcDbEntity
  8
実形
 62
     0
370
    18
100
AcDbLine
 10
1841.699302930582
 20
1746.67196328526
 30
0.0
 11
1841.699302930582
 21
1785.511640793593
 31
0.0
  0
LINE
  5
93C1
330
8C7B
100
AcDbEntity
  8
実形
 62
     0
370
    18
100
AcDbLine
 10
1991.699302930581
 20
1746.671963285261
 30
0.0
 11
1991.699302930581
 21
1785.511640793593
 31
0.0
  0
LINE
  5
93C2
330
8C7B
100
AcDbEntity
  8
実形
 62
     0
370
    18
100
AcDbLine
 10
1851.699302930582
 20
1785.511640793593
 30
0.0
 11
1981.699302930582
 21
1785.511640793593
 31
0.0
  0
MTEXT
  5
93C3
330
8C7B
100
AcDbEntity
  8
実形
 62
     0
100
AcDbMText
 10
1916.699302930582
 20
1813.456262064457
 30
0.0
 40
25.0
 41
0.0
 71
     5
 72
     1
  1
150
 73
     1
 44
1.0
1001
ACAD
1000
MTEXTBEGIN
1070
    73
1070
     1
1070
    44
1040
1.0
1070
    74
1070
     0
1000
MTEXTEND
  0
INSERT
  5
93C4
330
8C7B
100
AcDbEntity
  8
実形
 62
     0
370
    18
100
AcDbBlockReference
  2
_Dot
 10
1841.699302930582
 20
1785.511640793593
 30
0.0
 41
10.0
 42
10.0
 43
10.0
 50
180.0
  0
INSERT
  5
93C5
330
8C7B
100
AcDbEntity
  8
実形
 62
     0
370
    18
100
AcDbBlockReference
  2
_Dot
 10
1991.699302930581
 20
1785.511640793593
 30
0.0
 41
10.0
 42
10.0
 43
10.0
  0
POINT
  5
93C6
330
8C7B
100
AcDbEntity
  8
Defpoints
 62
     0
100
AcDbPoint
 10
1841.699302930582
 20
1681.67196328526
 30
0.0
  0
POINT
  5
93C7
330
8C7B
100
AcDbEntity
  8
Defpoints
 62
     0
100
AcDbPoint
 10
1991.699302930581
 20
1681.671963285261
 30
0.0
  0
POINT
  5
93C8
330
8C7B
100
AcDbEntity
  8
Defpoints
 62
     0
100
AcDbPoint
 10
1991.699302930581
 20
1785.511640793593
 30
0.0
  0
ENDBLK
  5
8C86
330
8C7B
100
AcDbEntity
  8
0
 62
     3
100
AcDbBlockEnd
  0
BLOCK
  5
908E
330
9084
100
AcDbEntity
  8
0
 62
     3
100
AcDbBlockBegin
  2
*D39
 70
     1
 10
0.0
 20
0.0
 30
0.0
  3
*D39
  1

  0
LINE
  5
9129
330
9084
100
AcDbEntity
  8
実形
 62
     0
370
    18
100
AcDbLine
 10
2067.815605555321
 20
675.1402142854659
 30
0.0
 11
2127.072365393774
 21
675.1402142854659
 31
0.0
  0
LINE
  5
912A
330
9084
100
AcDbEntity
  8
実形
 62
     0
370
    18
100
AcDbLine
 10
2067.815605555322
 20
485.1402142854658
 30
0.0
 11
2127.072365393774
 21
485.1402142854658
 31
0.0
  0
LINE
  5
912B
330
9084
100
AcDbEntity
  8
実形
 62
     0
370
    18
100
AcDbLine
 10
2127.072365393774
 20
665.1402142854659
 30
0.0
 11
2127.072365393774
 21
495.1402142854658
 31
0.0
  0
MTEXT
  5
912C
330
9084
100
AcDbEntity
  8
実形
 62
     0
100
AcDbMText
 10
2105.472365393774
 20
704.6453504246082
 30
0.0
 40
25.0
 41
0.0
 71
     5
 72
     1
  1
15
 11
0.0000000000000001
 21
1.0
 31
0.0
 73
     1
 44
1.0
1001
ACAD
1000
MTEXTBEGIN
1070
    73
1070
     1
1070
    44
1040
1.0
1070
    74
1070
     0
1000
MTEXTEND
  0
INSERT
  5
912D
330
9084
100
AcDbEntity
  8
実形
 62
     0
370
    18
100
AcDbBlockReference
  2
_Dot
 10
2127.072365393774
 20
675.1402142854659
 30
0.0
 41
10.0
 42
10.0
 43
10.0
 50
90.0
  0
INSERT
  5
912E
330
9084
100
AcDbEntity
  8
実形
 62
     0
370
    18
100
AcDbBlockReference
  2
_Dot
 10
2127.072365393774
 20
485.1402142854658
 30
0.0
 41
10.0
 42
10.0
 43
10.0
 50
270.0
  0
POINT
  5
912F
330
9084
100
AcDbEntity
  8
Defpoints
 62
     0
100
AcDbPoint
 10
2002.815605555321
 20
675.1402142854659
 30
0.0
  0
POINT
  5
9130
330
9084
100
AcDbEntity
  8
Defpoints
 62
     0
100
AcDbPoint
 10
2002.815605555321
 20
485.1402142854658
 30
0.0
  0
POINT
  5
9131
330
9084
100
AcDbEntity
  8
Defpoints
 62
     0
100
AcDbPoint
 10
2127.072365393774
 20
485.1402142854658
 30
0.0
  0
ENDBLK
  5
908F
330
9084
100
AcDbEntity
  8
0
 62
     3
100
AcDbBlockEnd
  0
BLOCK
  5
909A
330
9090
100
AcDbEntity
  8
0
 62
     3
100
AcDbBlockBegin
  2
*D40
 70
     1
 10
0.0
 20
0.0
 30
0.0
  3
*D40
  1

  0
LINE
  5
913B
330
9090
100
AcDbEntity
  8
実形
 62
     0
370
    18
100
AcDbLine
 10
2067.815605555321
 20
660.1402142854658
 30
0.0
 11
2127.072365393774
 21
660.1402142854658
 31
0.0
  0
LINE
  5
913C
330
9090
100
AcDbEntity
  8
実形
 62
     0
370
    18
100
AcDbLine
 10
2067.815605555322
 20
485.1402142854658
 30
0.0
 11
2127.072365393774
 21
485.1402142854658
 31
0.0
  0
LINE
  5
913D
330
9090
100
AcDbEntity
  8
実形
 62
     0
370
    18
100
AcDbLine
 10
2127.072365393774
 20
650.1402142854658
 30
0.0
 11
2127.072365393774
 21
495.1402142854658
 31
0.0
  0
INSERT
  5
913E
330
9090
100
AcDbEntity
  8
実形
 62
     0
370
    18
100
AcDbBlockReference
  2
_Dot
 10
2127.072365393774
 20
660.1402142854658
 30
0.0
 41
10.0
 42
10.0
 43
10.0
 50
90.0
  0
INSERT
  5
913F
330
9090
100
AcDbEntity
  8
実形
 62
     0
370
    18
100
AcDbBlockReference
  2
_Dot
 10
2127.072365393774
 20
485.1402142854658
 30
0.0
 41
10.0
 42
10.0
 43
10.0
 50
270.0
  0
MTEXT
  5
9140
330
9090
100
AcDbEntity
  8
実形
 62
     0
100
AcDbMText
 10
2107.972365393774
 20
572.6402142854661
 30
0.0
 40
25.0
 41
0.0
 71
     5
 72
     1
  1
175
 11
0.0000000000000001
 21
1.0
 31
0.0
 73
     1
 44
1.0
1001
ACAD
1000
MTEXTBEGIN
1070
    73
1070
     1
1070
    44
1040
1.0
1070
    74
1070
     0
1000
MTEXTEND
  0
POINT
  5
9141
330
9090
100
AcDbEntity
  8
Defpoints
 62
     0
100
AcDbPoint
 10
2002.815605555321
 20
660.1402142854658
 30
0.0
  0
POINT
  5
9142
330
9090
100
AcDbEntity
  8
Defpoints
 62
     0
100
AcDbPoint
 10
2002.815605555321
 20
485.1402142854658
 30
0.0
  0
POINT
  5
9143
330
9090
100
AcDbEntity
  8
Defpoints
 62
     0
100
AcDbPoint
 10
2127.072365393774
 20
485.1402142854658
 30
0.0
  0
ENDBLK
  5
909B
330
9090
100
AcDbEntity
  8
0
 62
     3
100
AcDbBlockEnd
  0
BLOCK
  5
90A6
330
909C
100
AcDbEntity
  8
0
 62
     3
100
AcDbBlockBegin
  2
*D41
 70
     1
 10
0.0
 20
0.0
 30
0.0
  3
*D41
  1

  0
LINE
  5
90EA
330
909C
100
AcDbEntity
  8
実形
 62
     0
370
    18
100
AcDbLine
 10
2132.815605555322
 20
675.1402142854659
 30
0.0
 11
2190.245305984444
 21
675.1402142854659
 31
0.0
  0
LINE
  5
90EB
330
909C
100
AcDbEntity
  8
実形
 62
     0
370
    18
100
AcDbLine
 10
2132.815605555322
 20
485.1402142854658
 30
0.0
 11
2190.245305984444
 21
485.1402142854658
 31
0.0
  0
LINE
  5
90EC
330
909C
100
AcDbEntity
  8
実形
 62
     0
370
    18
100
AcDbLine
 10
2190.245305984444
 20
665.1402142854659
 30
0.0
 11
2190.245305984444
 21
495.1402142854657
 31
0.0
  0
MTEXT
  5
90ED
330
909C
100
AcDbEntity
  8
実形
 62
     0
100
AcDbMText
 10
2168.645305984444
 20
571.2238715340345
 30
0.0
 40
25.0
 41
0.0
 71
     5
 72
     1
  1
190
 11
0.0000000000000001
 21
1.0
 31
0.0
 73
     1
 44
1.0
1001
ACAD
1000
MTEXTBEGIN
1070
    73
1070
     1
1070
    44
1040
1.0
1070
    74
1070
     0
1000
MTEXTEND
  0
INSERT
  5
90EE
330
909C
100
AcDbEntity
  8
実形
 62
     0
370
    18
100
AcDbBlockReference
  2
_Dot
 10
2190.245305984444
 20
675.1402142854659
 30
0.0
 41
10.0
 42
10.0
 43
10.0
 50
90.0
  0
INSERT
  5
90EF
330
909C
100
AcDbEntity
  8
実形
 62
     0
370
    18
100
AcDbBlockReference
  2
_Dot
 10
2190.245305984444
 20
485.1402142854658
 30
0.0
 41
10.0
 42
10.0
 43
10.0
 50
270.0
  0
POINT
  5
90F0
330
909C
100
AcDbEntity
  8
Defpoints
 62
     0
100
AcDbPoint
 10
2067.815605555322
 20
675.1402142854659
 30
0.0
  0
POINT
  5
90F1
330
909C
100
AcDbEntity
  8
Defpoints
 62
     0
100
AcDbPoint
 10
2067.815605555322
 20
485.1402142854658
 30
0.0
  0
POINT
  5
90F2
330
909C
100
AcDbEntity
  8
Defpoints
 62
     0
100
AcDbPoint
 10
2190.245305984444
 20
485.1402142854658
 30
0.0
  0
ENDBLK
  5
90A7
330
909C
100
AcDbEntity
  8
0
 62
     3
100
AcDbBlockEnd
  0
BLOCK
  5
90B2
330
90A8
100
AcDbEntity
  8
0
 62
     3
100
AcDbBlockBegin
  2
*D42
 70
     1
 10
0.0
 20
0.0
 30
0.0
  3
*D42
  1

  0
LINE
  5
9132
330
90A8
100
AcDbEntity
  8
実形
 62
     0
370
    18
100
AcDbLine
 10
2069.064782031956
 20
470.1402142854658
 30
0.0
 11
2190.245305984444
 21
470.1402142854657
 31
0.0
  0
LINE
  5
9133
330
90A8
100
AcDbEntity
  8
実形
 62
     0
370
    18
100
AcDbLine
 10
2067.815605555321
 20
675.1402142854659
 30
0.0
 11
2190.245305984444
 21
675.1402142854659
 31
0.0
  0
LINE
  5
9134
330
90A8
100
AcDbEntity
  8
実形
 62
     0
370
    18
100
AcDbLine
 10
2190.245305984444
 20
480.1402142854658
 30
0.0
 11
2190.245305984444
 21
665.1402142854659
 31
0.0
  0
MTEXT
  5
9135
330
90A8
100
AcDbEntity
  8
実形
 62
     0
100
AcDbMText
 10
2168.645305984444
 20
442.2082372679605
 30
0.0
 40
25.0
 41
0.0
 71
     5
 72
     1
  1
15
 11
0.0000000000000001
 21
1.0
 31
0.0
 73
     1
 44
1.0
1001
ACAD
1000
MTEXTBEGIN
1070
    73
1070
     1
1070
    44
1040
1.0
1070
    74
1070
     0
1000
MTEXTEND
  0
INSERT
  5
9136
330
90A8
100
AcDbEntity
  8
実形
 62
     0
370
    18
100
AcDbBlockReference
  2
_Dot
 10
2190.245305984444
 20
470.1402142854657
 30
0.0
 41
10.0
 42
10.0
 43
10.0
 50
270.0
  0
INSERT
  5
9137
330
90A8
100
AcDbEntity
  8
実形
 62
     0
370
    18
100
AcDbBlockReference
  2
_Dot
 10
2190.245305984444
 20
675.1402142854659
 30
0.0
 41
10.0
 42
10.0
 43
10.0
 50
90.0
  0
POINT
  5
9138
330
90A8
100
AcDbEntity
  8
Defpoints
 62
     0
100
AcDbPoint
 10
2004.064782031957
 20
470.1402142854658
 30
0.0
  0
POINT
  5
9139
330
90A8
100
AcDbEntity
  8
Defpoints
 62
     0
100
AcDbPoint
 10
2002.815605555321
 20
675.1402142854659
 30
0.0
  0
POINT
  5
913A
330
90A8
100
AcDbEntity
  8
Defpoints
 62
     0
100
AcDbPoint
 10
2190.245305984444
 20
675.1402142854659
 30
0.0
  0
ENDBLK
  5
90B3
330
90A8
100
AcDbEntity
  8
0
 62
     3
100
AcDbBlockEnd
  0
BLOCK
  5
90BE
330
90B4
100
AcDbEntity
  8
0
 62
     3
100
AcDbBlockBegin
  2
*D43
 70
     1
 10
0.0
 20
0.0
 30
0.0
  3
*D43
  1

  0
LINE
  5
90FC
330
90B4
100
AcDbEntity
  8
実形
 62
     0
370
    18
100
AcDbLine
 10
2192.072365393774
 20
675.1402142854659
 30
0.0
 11
2250.586985446737
 21
675.1402142854659
 31
0.0
  0
LINE
  5
90FD
330
90B4
100
AcDbEntity
  8
実形
 62
     0
370
    18
100
AcDbLine
 10
2192.072365393774
 20
470.1402142854657
 30
0.0
 11
2250.586985446737
 21
470.1402142854657
 31
0.0
  0
LINE
  5
90FE
330
90B4
100
AcDbEntity
  8
実形
 62
     0
370
    18
100
AcDbLine
 10
2250.586985446737
 20
665.1402142854659
 30
0.0
 11
2250.586985446737
 21
480.1402142854658
 31
0.0
  0
INSERT
  5
90FF
330
90B4
100
AcDbEntity
  8
実形
 62
     0
370
    18
100
AcDbBlockReference
  2
_Dot
 10
2250.586985446737
 20
675.1402142854659
 30
0.0
 41
10.0
 42
10.0
 43
10.0
 50
90.0
  0
INSERT
  5
9100
330
90B4
100
AcDbEntity
  8
実形
 62
     0
370
    18
100
AcDbBlockReference
  2
_Dot
 10
2250.586985446737
 20
470.1402142854657
 30
0.0
 41
10.0
 42
10.0
 43
10.0
 50
270.0
  0
MTEXT
  5
9101
330
90B4
100
AcDbEntity
  8
実形
 62
     0
100
AcDbMText
 10
2231.486985446737
 20
572.6402142854661
 30
0.0
 40
25.0
 41
0.0
 71
     5
 72
     1
  1
205
 11
0.0000000000000001
 21
1.0
 31
0.0
 73
     1
 44
1.0
1001
ACAD
1000
MTEXTBEGIN
1070
    73
1070
     1
1070
    44
1040
1.0
1070
    74
1070
     0
1000
MTEXTEND
  0
POINT
  5
9102
330
90B4
100
AcDbEntity
  8
Defpoints
 62
     0
100
AcDbPoint
 10
2127.072365393774
 20
675.1402142854659
 30
0.0
  0
POINT
  5
9103
330
90B4
100
AcDbEntity
  8
Defpoints
 62
     0
100
AcDbPoint
 10
2127.072365393774
 20
470.1402142854658
 30
0.0
  0
POINT
  5
9104
330
90B4
100
AcDbEntity
  8
Defpoints
 62
     0
100
AcDbPoint
 10
2250.586985446737
 20
470.1402142854657
 30
0.0
  0
ENDBLK
  5
90BF
330
90B4
100
AcDbEntity
  8
0
 62
     3
100
AcDbBlockEnd
  0
BLOCK
  5
90CA
330
90C0
100
AcDbEntity
  8
0
 62
     3
100
AcDbBlockBegin
  2
*D44
 70
     1
 10
0.0
 20
0.0
 30
0.0
  3
*D44
  1

  0
LINE
  5
9105
330
90C0
100
AcDbEntity
  8
実形
 62
     0
370
    18
100
AcDbLine
 10
2197.154289951638
 20
460.1402142854658
 30
0.0
 11
2250.586985446737
 21
460.1402142854658
 31
0.0
  0
LINE
  5
9106
330
90C0
100
AcDbEntity
  8
実形
 62
     0
370
    18
100
AcDbLine
 10
2192.072365393774
 20
675.1402142854659
 30
0.0
 11
2250.586985446737
 21
675.1402142854659
 31
0.0
  0
LINE
  5
9107
330
90C0
100
AcDbEntity
  8
実形
 62
     0
370
    18
100
AcDbLine
 10
2250.586985446737
 20
470.1402142854657
 30
0.0
 11
2250.586985446737
 21
665.1402142854659
 31
0.0
  0
MTEXT
  5
9108
330
90C0
100
AcDbEntity
  8
実形
 62
     0
100
AcDbMText
 10
2228.986985446737
 20
439.6738363815939
 30
0.0
 40
25.0
 41
0.0
 71
     5
 72
     1
  1
8
 11
0.0000000000000001
 21
1.0
 31
0.0
 73
     1
 44
1.0
1001
ACAD
1000
MTEXTBEGIN
1070
    73
1070
     1
1070
    44
1040
1.0
1070
    74
1070
     0
1000
MTEXTEND
  0
INSERT
  5
9109
330
90C0
100
AcDbEntity
  8
実形
 62
     0
370
    18
100
AcDbBlockReference
  2
_Dot
 10
2250.586985446737
 20
460.1402142854658
 30
0.0
 41
10.0
 42
10.0
 43
10.0
 50
270.0
  0
INSERT
  5
910A
330
90C0
100
AcDbEntity
  8
実形
 62
     0
370
    18
100
AcDbBlockReference
  2
_Dot
 10
2250.586985446737
 20
675.1402142854659
 30
0.0
 41
10.0
 42
10.0
 43
10.0
 50
90.0
  0
POINT
  5
910B
330
90C0
100
AcDbEntity
  8
Defpoints
 62
     0
100
AcDbPoint
 10
2132.154289951638
 20
460.1402142854658
 30
0.0
  0
POINT
  5
910C
330
90C0
100
AcDbEntity
  8
Defpoints
 62
     0
100
AcDbPoint
 10
2127.072365393774
 20
675.1402142854659
 30
0.0
  0
POINT
  5
910D
330
90C0
100
AcDbEntity
  8
Defpoints
 62
     0
100
AcDbPoint
 10
2250.586985446737
 20
675.1402142854659
 30
0.0
  0
ENDBLK
  5
90CB
330
90C0
100
AcDbEntity
  8
0
 62
     3
100
AcDbBlockEnd
  0
BLOCK
  5
90D6
330
90CC
100
AcDbEntity
  8
0
 62
     3
100
AcDbBlockBegin
  2
*D45
 70
     1
 10
0.0
 20
0.0
 30
0.0
  3
*D45
  1

  0
LINE
  5
910E
330
90CC
100
AcDbEntity
  8
実形
 62
     0
370
    18
100
AcDbLine
 10
2255.245305984444
 20
675.1402142854659
 30
0.0
 11
2317.041370334902
 21
675.1402142854658
 31
0.0
  0
LINE
  5
910F
330
90CC
100
AcDbEntity
  8
実形
 62
     0
370
    18
100
AcDbLine
 10
2244.953282282625
 20
460.1402142854658
 30
0.0
 11
2317.041370334902
 21
460.1402142854658
 31
0.0
  0
LINE
  5
9110
330
90CC
100
AcDbEntity
  8
実形
 62
     0
370
    18
100
AcDbLine
 10
2317.041370334902
 20
665.1402142854658
 30
0.0
 11
2317.041370334902
 21
470.1402142854657
 31
0.0
  0
MTEXT
  5
9111
330
90CC
100
AcDbEntity
  8
実形
 62
     0
100
AcDbMText
 10
2295.441370334903
 20
573.8534755241171
 30
0.0
 40
25.0
 41
0.0
 71
     5
 72
     1
  1
213
 11
0.0000000000000001
 21
1.0
 31
0.0
 73
     1
 44
1.0
1001
ACAD
1000
MTEXTBEGIN
1070
    73
1070
     1
1070
    44
1040
1.0
1070
    74
1070
     0
1000
MTEXTEND
  0
INSERT
  5
9112
330
90CC
100
AcDbEntity
  8
実形
 62
     0
370
    18
100
AcDbBlockReference
  2
_Dot
 10
2317.041370334902
 20
675.1402142854658
 30
0.0
 41
10.0
 42
10.0
 43
10.0
 50
90.0
  0
INSERT
  5
9113
330
90CC
100
AcDbEntity
  8
実形
 62
     0
370
    18
100
AcDbBlockReference
  2
_Dot
 10
2317.041370334902
 20
460.1402142854658
 30
0.0
 41
10.0
 42
10.0
 43
10.0
 50
270.0
  0
POINT
  5
9114
330
90CC
100
AcDbEntity
  8
Defpoints
 62
     0
100
AcDbPoint
 10
2190.245305984444
 20
675.1402142854659
 30
0.0
  0
POINT
  5
9115
330
90CC
100
AcDbEntity
  8
Defpoints
 62
     0
100
AcDbPoint
 10
2179.953282282625
 20
460.1402142854658
 30
0.0
  0
POINT
  5
9116
330
90CC
100
AcDbEntity
  8
Defpoints
 62
     0
100
AcDbPoint
 10
2317.041370334902
 20
460.1402142854658
 30
0.0
  0
ENDBLK
  5
90D7
330
90CC
100
AcDbEntity
  8
0
 62
     3
100
AcDbBlockEnd
  0
BLOCK
  5
918C
330
9182
100
AcDbEntity
  8
0
 62
     3
100
AcDbBlockBegin
  2
*D46
 70
     1
 10
0.0
 20
0.0
 30
0.0
  3
*D46
  1

  0
LINE
  5
936F
330
9182
100
AcDbEntity
  8
実形
 62
     0
370
    18
100
AcDbLine
 10
1131.699302930581
 20
1611.671963285259
 30
0.0
 11
1080.203733546001
 21
1611.671963285259
 31
0.0
  0
LINE
  5
9370
330
9182
100
AcDbEntity
  8
実形
 62
     0
370
    18
100
AcDbLine
 10
1131.699302930581
 20
1236.67196328526
 30
0.0
 11
1080.203733546
 21
1236.67196328526
 31
0.0
  0
LINE
  5
9371
330
9182
100
AcDbEntity
  8
実形
 62
     0
370
    18
100
AcDbLine
 10
1080.203733546001
 20
1601.671963285259
 30
0.0
 11
1080.203733546
 21
1246.67196328526
 31
0.0
  0
INSERT
  5
9372
330
9182
100
AcDbEntity
  8
実形
 62
     0
370
    18
100
AcDbBlockReference
  2
_Dot
 10
1080.203733546001
 20
1611.671963285259
 30
0.0
 41
10.0
 42
10.0
 43
10.0
 50
90.0
  0
INSERT
  5
9373
330
9182
100
AcDbEntity
  8
実形
 62
     0
370
    18
100
AcDbBlockReference
  2
_Dot
 10
1080.203733546
 20
1236.67196328526
 30
0.0
 41
10.0
 42
10.0
 43
10.0
 50
270.0
  0
MTEXT
  5
9374
330
9182
100
AcDbEntity
  8
実形
 62
     0
100
AcDbMText
 10
1058.603733546
 20
1424.17196328526
 30
0.0
 40
30.0
 41
0.0
 71
     5
 72
     1
  1
340
 11
0.0000000000000001
 21
1.0
 31
0.0
 73
     1
 44
1.0
1001
ACAD
1000
MTEXTBEGIN
1070
    73
1070
     1
1070
    44
1040
1.0
1070
    74
1070
     0
1000
MTEXTEND
  0
POINT
  5
9375
330
9182
100
AcDbEntity
  8
Defpoints
 62
     0
100
AcDbPoint
 10
1196.699302930581
 20
1611.671963285259
 30
0.0
  0
POINT
  5
9376
330
9182
100
AcDbEntity
  8
Defpoints
 62
     0
100
AcDbPoint
 10
1196.699302930581
 20
1236.67196328526
 30
0.0
  0
POINT
  5
9377
330
9182
100
AcDbEntity
  8
Defpoints
 62
     0
100
AcDbPoint
 10
1080.203733546
 20
1236.67196328526
 30
0.0
  0
ENDBLK
  5
918D
330
9182
100
AcDbEntity
  8
0
 62
     3
100
AcDbBlockEnd
  0
BLOCK
  5
91AB
330
91A1
100
AcDbEntity
  8
0
 62
     3
100
AcDbBlockBegin
  2
*D47
 70
     1
 10
0.0
 20
0.0
 30
0.0
  3
*D47
  1

  0
LINE
  5
9366
330
91A1
100
AcDbEntity
  8
実形
 62
     0
370
    18
100
AcDbLine
 10
1131.699302930581
 20
1251.67196328526
 30
0.0
 11
1080.203733546
 21
1251.67196328526
 31
0.0
  0
LINE
  5
9367
330
91A1
100
AcDbEntity
  8
実形
 62
     0
370
    18
100
AcDbLine
 10
1131.699302930579
 20
1611.671963285259
 30
0.0
 11
1080.203733546001
 21
1611.671963285259
 31
0.0
  0
LINE
  5
9368
330
91A1
100
AcDbEntity
  8
実形
 62
     0
370
    18
100
AcDbLine
 10
1080.203733546
 20
1261.67196328526
 30
0.0
 11
1080.203733546001
 21
1601.671963285259
 31
0.0
  0
MTEXT
  5
9369
330
91A1
100
AcDbEntity
  8
実形
 62
     0
100
AcDbMText
 10
1054.708947420871
 20
1217.401294179468
 30
0.0
 40
30.0
 41
0.0
 71
     5
 72
     1
  1
15
 11
0.0000000000000001
 21
1.0
 31
0.0
 73
     1
 44
1.0
1001
ACAD
1000
MTEXTBEGIN
1070
    73
1070
     1
1070
    44
1040
1.0
1070
    74
1070
     0
1000
MTEXTEND
  0
INSERT
  5
936A
330
91A1
100
AcDbEntity
  8
実形
 62
     0
370
    18
100
AcDbBlockReference
  2
_Dot
 10
1080.203733546
 20
1251.67196328526
 30
0.0
 41
10.0
 42
10.0
 43
10.0
 50
270.0
  0
INSERT
  5
936B
330
91A1
100
AcDbEntity
  8
実形
 62
     0
370
    18
100
AcDbBlockReference
  2
_Dot
 10
1080.203733546001
 20
1611.671963285259
 30
0.0
 41
10.0
 42
10.0
 43
10.0
 50
90.0
  0
POINT
  5
936C
330
91A1
100
AcDbEntity
  8
Defpoints
 62
     0
100
AcDbPoint
 10
1196.699302930581
 20
1251.67196328526
 30
0.0
  0
POINT
  5
936D
330
91A1
100
AcDbEntity
  8
Defpoints
 62
     0
100
AcDbPoint
 10
1196.699302930579
 20
1611.671963285259
 30
0.0
  0
POINT
  5
936E
330
91A1
100
AcDbEntity
  8
Defpoints
 62
     0
100
AcDbPoint
 10
1080.203733546001
 20
1611.671963285259
 30
0.0
  0
ENDBLK
  5
91AC
330
91A1
100
AcDbEntity
  8
0
 62
     3
100
AcDbBlockEnd
  0
BLOCK
  5
91CA
330
91C0
100
AcDbEntity
  8
0
 62
     3
100
AcDbBlockBegin
  2
*D48
 70
     1
 10
0.0
 20
0.0
 30
0.0
  3
*D48
  1

  0
LINE
  5
935D
330
91C0
100
AcDbEntity
  8
実形
 62
     0
370
    18
100
AcDbLine
 10
1131.699302930581
 20
1271.67196328526
 30
0.0
 11
1080.203733546
 21
1271.67196328526
 31
0.0
  0
LINE
  5
935E
330
91C0
100
AcDbEntity
  8
実形
 62
     0
370
    18
100
AcDbLine
 10
1131.699302930581
 20
1611.671963285259
 30
0.0
 11
1080.203733546001
 21
1611.671963285259
 31
0.0
  0
LINE
  5
935F
330
91C0
100
AcDbEntity
  8
実形
 62
     0
370
    18
100
AcDbLine
 10
1080.203733546
 20
1281.67196328526
 30
0.0
 11
1080.203733546001
 21
1601.671963285259
 31
0.0
  0
MTEXT
  5
9360
330
91C0
100
AcDbEntity
  8
実形
 62
     0
100
AcDbMText
 10
1054.087536005052
 20
1279.871670467309
 30
0.0
 40
30.0
 41
0.0
 71
     5
 72
     1
  1
20
 11
0.0000000000000001
 21
1.0
 31
0.0
 73
     1
 44
1.0
1001
ACAD
1000
MTEXTBEGIN
1070
    73
1070
     1
1070
    44
1040
1.0
1070
    74
1070
     0
1000
MTEXTEND
  0
INSERT
  5
9361
330
91C0
100
AcDbEntity
  8
実形
 62
     0
370
    18
100
AcDbBlockReference
  2
_Dot
 10
1080.203733546
 20
1271.67196328526
 30
0.0
 41
10.0
 42
10.0
 43
10.0
 50
270.0
  0
INSERT
  5
9362
330
91C0
100
AcDbEntity
  8
実形
 62
     0
370
    18
100
AcDbBlockReference
  2
_Dot
 10
1080.203733546001
 20
1611.671963285259
 30
0.0
 41
10.0
 42
10.0
 43
10.0
 50
90.0
  0
POINT
  5
9363
330
91C0
100
AcDbEntity
  8
Defpoints
 62
     0
100
AcDbPoint
 10
1196.699302930581
 20
1271.67196328526
 30
0.0
  0
POINT
  5
9364
330
91C0
100
AcDbEntity
  8
Defpoints
 62
     0
100
AcDbPoint
 10
1196.699302930581
 20
1611.671963285259
 30
0.0
  0
POINT
  5
9365
330
91C0
100
AcDbEntity
  8
Defpoints
 62
     0
100
AcDbPoint
 10
1080.203733546001
 20
1611.671963285259
 30
0.0
  0
ENDBLK
  5
91CB
330
91C0
100
AcDbEntity
  8
0
 62
     3
100
AcDbBlockEnd
  0
ENDSEC
  0
SECTION
  2
ENTITIES
  0
LINE
  5
9C
330
1F
100
AcDbEntity
  8
枠
 62
     0
100
AcDbLine
 10
174.0
 20
3.99999999999909
 30
0.0
 11
2834.0
 21
3.99999999999909
 31
0.0
  0
LINE
  5
A0
330
1F
100
AcDbEntity
  8
枠
 62
     0
100
AcDbLine
 10
2834.0
 20
2023.999999999999
 30
0.0
 11
174.0
 21
2023.999999999999
 31
0.0
  0
LINE
  5
272
330
1F
100
AcDbEntity
  8
枠
 62
     0
100
AcDbLine
 10
2234.0
 20
133.9999999999991
 30
0.0
 11
2234.0
 21
198.9999999999991
 31
0.0
  0
LINE
  5
1B73
330
1F
100
AcDbEntity
  8
枠
 62
     0
100
AcDbLine
 10
1944.0
 20
2023.999999999999
 30
0.0
 11
2834.0
 21
2023.999999999999
 31
0.0
  0
LINE
  5
1B84
330
1F
100
AcDbEntity
  8
実形
 62
     0
100
AcDbLine
 10
2114.0
 20
68.99999999999909
 30
0.0
 11
2834.0
 21
68.99999999999909
 31
0.0
  0
LINE
  5
1B85
330
1F
100
AcDbEntity
  8
実形
 62
     0
100
AcDbLine
 10
2114.0
 20
198.9999999999991
 30
0.0
 11
2834.0
 21
198.9999999999991
 31
0.0
  0
LINE
  5
1B86
330
1F
100
AcDbEntity
  8
実形
 62
     0
100
AcDbLine
 10
2114.0
 20
133.9999999999991
 30
0.0
 11
2834.0
 21
133.9999999999991
 31
0.0
  0
LINE
  5
1B87
330
1F
100
AcDbEntity
  8
実形
 62
     0
100
AcDbLine
 10
2114.0
 20
3.99999999999909
 30
0.0
 11
2114.0
 21
263.9999999999991
 31
0.0
  0
TEXT
  5
1B88
330
1F
100
AcDbEntity
  8
枠
 62
     0
100
AcDbText
 10
2340.916476167013
 20
18.49999999999909
 30
0.0
 40
35.0
  1
中外交易株式会社
  7
ms明朝
 72
     4
 11
2545.716476167013
 21
36.49999999999909
 31
0.0
100
AcDbText
  0
LINE
  5
1B8A
330
1F
100
AcDbEntity
  8
実形
 62
     0
100
AcDbLine
 10
2234.0
 20
68.99999999999909
 30
0.0
 11
2834.0
 21
68.99999999999909
 31
0.0
  0
LINE
  5
1B8B
102
{ACAD_REACTORS
330
1B98
102
}
330
1F
100
AcDbEntity
  8
枠
 62
     0
370
     5
100
AcDbLine
 10
2257.843923164362
 20
40.53787547858428
 30
0.0
 11
2233.255774665348
 21
40.53787547858428
 31
0.0
  0
LINE
  5
1B8C
102
{ACAD_REACTORS
330
1B98
102
}
330
1F
100
AcDbEntity
  8
枠
 62
     0
370
     5
100
AcDbLine
 10
2233.255774665348
 20
40.53787547858428
 30
0.0
 11
2233.255774665348
 21
30.53787547858429
 31
0.0
  0
LINE
  5
1B8D
102
{ACAD_REACTORS
330
1B98
102
}
330
1F
100
AcDbEntity
  8
枠
 62
     0
370
     5
100
AcDbLine
 10
2233.255774665348
 20
30.53787547858429
 30
0.0
 11
2257.346428692676
 21
30.53787547858429
 31
0.0
  0
LINE
  5
1B8E
102
{ACAD_REACTORS
330
1B98
102
}
330
1F
100
AcDbEntity
  8
枠
 62
     0
370
     5
100
AcDbLine
 10
2260.641894042939
 20
56.49999999999909
 30
0.0
 11
2260.641894042939
 21
16.49999999999909
 31
0.0
  0
LINE
  5
1B8F
102
{ACAD_REACTORS
330
1B98
102
}
330
1F
100
AcDbEntity
  8
枠
 62
     0
370
     5
100
AcDbLine
 10
2260.641894042939
 20
16.49999999999909
 30
0.0
 11
2295.641894042939
 21
16.49999999999909
 31
0.0
  0
LINE
  5
1B90
102
{ACAD_REACTORS
330
1B98
102
}
330
1F
100
AcDbEntity
  8
枠
 62
     0
370
     5
100
AcDbLine
 10
2295.641894042939
 20
16.49999999999909
 30
0.0
 11
2260.641894042939
 21
36.49999999999909
 31
0.0
  0
LINE
  5
1B91
102
{ACAD_REACTORS
330
1B98
102
}
330
1F
100
AcDbEntity
  8
枠
 62
     0
370
     5
100
AcDbLine
 10
2260.641894042939
 20
36.49999999999909
 30
0.0
 11
2295.641894042939
 21
56.49999999999909
 31
0.0
  0
LINE
  5
1B92
102
{ACAD_REACTORS
330
1B98
102
}
330
1F
100
AcDbEntity
  8
枠
 62
     0
370
     5
100
AcDbLine
 10
2295.641894042939
 20
56.49999999999909
 30
0.0
 11
2260.641894042939
 21
56.49999999999909
 31
0.0
  0
LINE
  5
1B93
102
{ACAD_REACTORS
330
1B98
102
}
330
1F
100
AcDbEntity
  8
枠
 62
     0
370
     5
100
AcDbLine
 10
2326.75434681301
 20
40.53787547858428
 30
0.0
 11
2302.166198313996
 21
40.53787547858428
 31
0.0
  0
LINE
  5
1B94
102
{ACAD_REACTORS
330
1B98
102
}
330
1F
100
AcDbEntity
  8
枠
 62
     0
370
     5
100
AcDbLine
 10
2302.166198313996
 20
40.53787547858428
 30
0.0
 11
2302.166198313996
 21
30.53787547858429
 31
0.0
  0
LINE
  5
1B95
102
{ACAD_REACTORS
330
1B98
102
}
330
1F
100
AcDbEntity
  8
枠
 62
     0
370
     5
100
AcDbLine
 10
2302.166198313996
 20
30.53787547858429
 30
0.0
 11
2326.256852341323
 21
30.53787547858429
 31
0.0
  0
ARC
  5
1B96
102
{ACAD_REACTORS
330
1B98
102
}
330
1F
100
AcDbEntity
  8
枠
 62
     0
370
     5
100
AcDbCircle
 10
2238.255774665347
 20
36.49999999999909
 30
0.0
 40
20.0
100
AcDbArc
 50
11.64772366708617
 51
342.6561058784773
  0
ARC
  5
1B97
102
{ACAD_REACTORS
330
1B98
102
}
330
1F
100
AcDbEntity
  8
枠
 62
     0
370
     5
100
AcDbCircle
 10
2307.166198313995
 20
36.49999999999909
 30
0.0
 40
20.0
100
AcDbArc
 50
11.64772366708617
 51
342.6561058784773
  0
HATCH
  5
1B98
330
1F
100
AcDbEntity
  8
枠
 62
     0
100
AcDbHatch
 10
0.0
 20
0.0
 30
0.0
210
0.0
220
0.0
230
1.0
  2
SOLID
 70
     1
 71
     1
 91
        3
 92
        1
 93
        4
 72
     2
 10
2307.166198313995
 20
36.49999999999909
 40
20.0
 50
11.64772366708617
 51
342.6561058784773
 73
     1
 72
     1
 10
2326.256852341323
 20
30.53787547858429
 11
2302.166198313996
 21
30.53787547858429
 72
     1
 10
2302.166198313996
 20
30.53787547858429
 11
2302.166198313996
 21
40.53787547858428
 72
     1
 10
2302.166198313996
 20
40.53787547858428
 11
2326.75434681301
 21
40.53787547858428
 97
        4
330
1B97
330
1B95
330
1B94
330
1B93
 92
        1
 93
        4
 72
     2
 10
2238.255774665347
 20
36.49999999999909
 40
20.0
 50
11.64772366708617
 51
342.6561058784773
 73
     1
 72
     1
 10
2257.346428692676
 20
30.53787547858429
 11
2233.255774665348
 21
30.53787547858429
 72
     1
 10
2233.255774665348
 20
30.53787547858429
 11
2233.255774665348
 21
40.53787547858428
 72
     1
 10
2233.255774665348
 20
40.53787547858428
 11
2257.843923164362
 21
40.53787547858428
 97
        4
330
1B96
330
1B8D
330
1B8C
330
1B8B
 92
        1
 93
        5
 72
     1
 10
2295.641894042939
 20
56.49999999999909
 11
2260.641894042939
 21
56.49999999999909
 72
     1
 10
2260.641894042939
 20
56.49999999999909
 11
2260.641894042939
 21
16.49999999999909
 72
     1
 10
2260.641894042939
 20
16.49999999999909
 11
2295.641894042939
 21
16.49999999999909
 72
     1
 10
2295.641894042939
 20
16.49999999999909
 11
2260.641894042939
 21
36.49999999999909
 72
     1
 10
2260.641894042939
 20
36.49999999999909
 11
2295.641894042939
 21
56.49999999999909
 97
        5
330
1B92
330
1B8E
330
1B8F
330
1B90
330
1B91
 75
     0
 76
     1
 98
        1
 10
-10.0
 20
-0.0000000000009095
  0
LINE
  5
1B99
330
1F
100
AcDbEntity
  8
実形
 62
     0
100
AcDbLine
 10
2234.0
 20
68.99999999999909
 30
0.0
 11
2234.0
 21
263.9999999999992
 31
0.0
  0
TEXT
  5
5E5F
330
1F
100
AcDbEntity
  8
枠
 62
     0
100
AcDbText
 10
2136.666666666667
 20
83.99999999999909
 30
0.0
 40
35.0
  1
尺度
 72
     4
 11
2174.0
 21
101.4999999999991
 31
0.0
100
AcDbText
  0
TEXT
  5
5E68
330
1F
100
AcDbEntity
  8
枠
 62
     0
100
AcDbText
 10
2136.666666666667
 20
148.9999999999991
 30
0.0
 40
35.0
  1
品番
 72
     4
 11
2174.0
 21
166.4999999999991
 31
0.0
100
AcDbText
  0
TEXT
  5
68BC
330
1F
100
AcDbEntity
  8
実形
100
AcDbText
 10
2443.255253185007
 20
84.68238670760312
 30
0.0
 40
35.0
  1
1：10
  7
ms明朝
 72
     4
 11
2507.255253185007
 21
101.7823867076031
 31
0.0
100
AcDbText
  0
TEXT
  5
68D6
330
1F
100
AcDbEntity
  8
実形
100
AcDbText
 10
2312.652753507391
 20
150.6760053180751
 30
0.0
 40
35.0
  1
RaS800-450DAN-KDL
  7
ms明朝
 72
     4
 11
2530.252753507391
 21
167.7760053180751
 31
0.0
100
AcDbText
  0
LINE
  5
6D9B
330
1F
100
AcDbEntity
  8
実形
 62
     0
100
AcDbLine
 10
2834.0
 20
4.0
 30
0.0
 11
2834.0
 21
2024.0
 31
0.0
  0
LINE
  5
7026
330
1F
100
AcDbEntity
  8
実形
100
AcDbLine
 10
2026.699302930582
 20
1716.67196328526
 30
0.0
 11
1196.699302930581
 21
1716.67196328526
 31
0.0
  0
LINE
  5
7027
330
1F
100
AcDbEntity
  8
実形
100
AcDbLine
 10
1196.699302930581
 20
1716.67196328526
 30
0.0
 11
1196.699302930581
 21
1236.67196328526
 31
0.0
  0
LINE
  5
7028
330
1F
100
AcDbEntity
  8
実形
100
AcDbLine
 10
1196.699302930581
 20
1236.67196328526
 30
0.0
 11
2026.699302930582
 21
1236.67196328526
 31
0.0
  0
LINE
  5
7029
330
1F
100
AcDbEntity
  8
実形
100
AcDbLine
 10
2026.699302930582
 20
1236.67196328526
 30
0.0
 11
2026.699302930582
 21
1716.67196328526
 31
0.0
  0
LINE
  5
702A
330
1F
100
AcDbEntity
  8
実形
100
AcDbLine
 10
2005.699302930582
 20
1701.67196328526
 30
0.0
 11
1217.699302930581
 21
1701.67196328526
 31
0.0
  0
LINE
  5
702B
330
1F
100
AcDbEntity
  8
実形
100
AcDbLine
 10
1211.699302930581
 20
1695.67196328526
 30
0.0
 11
1211.699302930582
 21
1257.67196328526
 31
0.0
  0
LINE
  5
702C
330
1F
100
AcDbEntity
  8
実形
100
AcDbLine
 10
1217.699302930582
 20
1251.67196328526
 30
0.0
 11
2005.699302930582
 21
1251.67196328526
 31
0.0
  0
LINE
  5
702D
330
1F
100
AcDbEntity
  8
実形
100
AcDbLine
 10
2011.699302930582
 20
1257.67196328526
 30
0.0
 11
2011.699302930582
 21
1695.67196328526
 31
0.0
  0
LINE
  5
702E
330
1F
100
AcDbEntity
  8
実形
100
AcDbLine
 10
1991.699302930582
 20
1277.67196328526
 30
0.0
 11
1991.699302930582
 21
1675.67196328526
 31
0.0
  0
LINE
  5
702F
330
1F
100
AcDbEntity
  8
実形
100
AcDbLine
 10
1985.699302930582
 20
1681.67196328526
 30
0.0
 11
1467.699302930581
 21
1681.67196328526
 31
0.0
  0
LINE
  5
7030
330
1F
100
AcDbEntity
  8
実形
100
AcDbLine
 10
1231.699302930582
 20
1605.67196328526
 30
0.0
 11
1231.699302930582
 21
1277.67196328526
 31
0.0
  0
LINE
  5
7031
330
1F
100
AcDbEntity
  8
実形
100
AcDbLine
 10
1237.699302930581
 20
1271.67196328526
 30
0.0
 11
1985.699302930582
 21
1271.67196328526
 31
0.0
  0
DIMENSION
  5
7032
330
1F
100
AcDbEntity
  8
実形
100
AcDbDimension
  2
*D10
 10
2160.80146356597
 20
1271.67196328526
 30
0.0
 11
2141.701463565969
 21
1476.67196328526
 31
0.0
 70
    32
 71
     5
 42
410.0
  3
ISO-25
100
AcDbAlignedDimension
 13
2026.699302930582
 23
1681.67196328526
 33
0.0
 14
2026.699302930582
 24
1271.67196328526
 34
0.0
 50
90.0
100
AcDbRotatedDimension
1001
ACAD
1000
DSTYLE
1002
{
1070
    41
1040
10.0
1070
   140
1040
25.0
1070
   147
1040
6.599999999999998
1070
   279
1070
     2
1070
   342
1005
30D
1070
   371
1070
    18
1070
   372
1070
    18
1002
}
  0
DIMENSION
  5
703F
330
1F
100
AcDbEntity
  8
実形
100
AcDbDimension
  2
*D11
 10
2160.80146356597
 20
1251.67196328526
 30
0.0
 11
2140.042933657793
 21
1656.103988468215
 31
0.0
 70
   160
  1
20
 71
     5
 42
450.0
  3
ISO-25
100
AcDbAlignedDimension
 13
2026.699302930582
 23
1701.67196328526
 33
0.0
 14
2026.699302930582
 24
1251.67196328526
 34
0.0
 50
90.0
100
AcDbRotatedDimension
1001
ACAD
1000
DSTYLE
1002
{
1070
    41
1040
10.0
1070
   140
1040
25.0
1070
   147
1040
6.599999999999998
1070
   279
1070
     2
1070
   342
1005
30D
1070
   371
1070
    18
1070
   372
1070
    18
1002
}
  0
DIMENSION
  5
7079
330
1F
100
AcDbEntity
  8
実形
100
AcDbDimension
  2
*D12
 10
2240.883158607104
 20
1251.67196328526
 30
0.0
 11
2217.587240987483
 21
1673.018438712079
 31
0.0
 70
   160
  1
15
 71
     5
 42
450.0
  3
ISO-25
100
AcDbAlignedDimension
 13
2026.699302930582
 23
1701.67196328526
 33
0.0
 14
2026.699302930582
 24
1251.67196328526
 34
0.0
 50
90.0
100
AcDbRotatedDimension
1001
ACAD
1000
DSTYLE
1002
{
1070
    41
1040
10.0
1070
   140
1040
25.0
1070
   147
1040
6.599999999999998
1070
   279
1070
     2
1070
   342
1005
30D
1070
   371
1070
    18
1070
   372
1070
    18
1002
}
  0
DIMENSION
  5
7086
330
1F
100
AcDbEntity
  8
実形
100
AcDbDimension
  2
*D13
 10
2240.883158607104
 20
1236.67196328526
 30
0.0
 11
2221.783158607103
 21
1476.67196328526
 31
0.0
 70
    32
  1
450
 71
     5
 42
480.0
  3
ISO-25
100
AcDbAlignedDimension
 13
2026.699302930582
 23
1716.67196328526
 33
0.0
 14
2026.699302930582
 24
1236.67196328526
 34
0.0
 50
90.0
100
AcDbRotatedDimension
1001
ACAD
1000
DSTYLE
1002
{
1070
    41
1040
10.0
1070
   140
1040
25.0
1070
   147
1040
6.599999999999998
1070
   279
1070
     2
1070
   342
1005
30D
1070
   371
1070
    18
1070
   372
1070
    18
1002
}
  0
DIMENSION
  5
70DF
330
1F
100
AcDbEntity
  8
実形
100
AcDbDimension
  2
*D14
 10
2326.039966785739
 20
1236.67196328526
 30
0.0
 11
2306.939966785739
 21
1476.67196328526
 31
0.0
 70
    32
 71
     5
 42
480.0
  3
ISO-25
100
AcDbAlignedDimension
 13
2026.699302930582
 23
1716.67196328526
 33
0.0
 14
2026.699302930582
 24
1236.67196328526
 34
0.0
 50
90.0
100
AcDbRotatedDimension
1001
ACAD
1000
DSTYLE
1002
{
1070
    41
1040
10.0
1070
   140
1040
25.0
1070
   147
1040
6.599999999999998
1070
   279
1070
     2
1070
   342
1005
30D
1070
   371
1070
    18
1070
   372
1070
    18
1002
}
  0
DIMENSION
  5
70F5
330
1F
100
AcDbEntity
  8
実形
100
AcDbDimension
  2
*D15
 10
1231.699302930582
 20
1104.409261580873
 30
0.0
 11
1611.699302930581
 21
1123.509261580873
 31
0.0
 70
    32
 71
     5
 42
760.0
  3
ISO-25
100
AcDbAlignedDimension
 13
1991.699302930582
 23
1236.67196328526
 33
0.0
 14
1231.699302930582
 24
1236.67196328526
 34
0.0
 50
180.0
100
AcDbRotatedDimension
1001
ACAD
1000
DSTYLE
1002
{
1070
    41
1040
10.0
1070
   140
1040
25.0
1070
   147
1040
6.599999999999998
1070
   279
1070
     2
1070
   342
1005
30D
1070
   371
1070
    18
1070
   372
1070
    18
1002
}
  0
DIMENSION
  5
7102
330
1F
100
AcDbEntity
  8
実形
100
AcDbDimension
  2
*D16
 10
1211.699302930582
 20
1104.409261580873
 30
0.0
 11
1265.298149625862
 21
1126.009261580873
 31
0.0
 70
   160
  1
20
 71
     5
 42
800.0
  3
ISO-25
100
AcDbAlignedDimension
 13
2011.699302930582
 23
1236.67196328526
 33
0.0
 14
1211.699302930582
 24
1236.67196328526
 34
0.0
 50
180.0
100
AcDbRotatedDimension
1001
ACAD
1000
DSTYLE
1002
{
1070
    41
1040
10.0
1070
   140
1040
25.0
1070
   147
1040
6.599999999999998
1070
   279
1070
     2
1070
   342
1005
30D
1070
   371
1070
    18
1070
   372
1070
    18
1002
}
  0
DIMENSION
  5
7133
330
1F
100
AcDbEntity
  8
実形
100
AcDbDimension
  2
*D17
 10
1211.699302930582
 20
1041.998774224899
 30
0.0
 11
1611.699302930581
 21
1061.098774224899
 31
0.0
 70
    32
 71
     5
 42
800.0
  3
ISO-25
100
AcDbAlignedDimension
 13
2011.699302930582
 23
1236.67196328526
 33
0.0
 14
1211.699302930582
 24
1236.67196328526
 34
0.0
 50
180.0
100
AcDbRotatedDimension
1001
ACAD
1000
DSTYLE
1002
{
1070
    41
1040
10.0
1070
   140
1040
25.0
1070
   147
1040
6.599999999999998
1070
   279
1070
     2
1070
   342
1005
30D
1070
   371
1070
    18
1070
   372
1070
    18
1002
}
  0
DIMENSION
  5
7140
330
1F
100
AcDbEntity
  8
実形
100
AcDbDimension
  2
*D18
 10
1196.699302930581
 20
1041.998774224899
 30
0.0
 11
1152.909769576035
 21
1063.598774224899
 31
0.0
 70
   160
  1
15
 71
     5
 42
830.0000000000002
  3
ISO-25
100
AcDbAlignedDimension
 13
2026.699302930582
 23
1236.67196328526
 33
0.0
 14
1196.699302930581
 24
1236.67196328526
 34
0.0
 50
180.0
100
AcDbRotatedDimension
1001
ACAD
1000
DSTYLE
1002
{
1070
    41
1040
10.0
1070
   140
1040
25.0
1070
   147
1040
6.599999999999998
1070
   279
1070
     2
1070
   342
1005
30D
1070
   371
1070
    18
1070
   372
1070
    18
1002
}
  0
TEXT
  5
7168
330
1F
100
AcDbEntity
  8
実形
 48
20.0
100
AcDbText
 10
2042.992261712981
 20
1052.835879917193
 30
0.0
 40
25.0
  1
15
100
AcDbText
  0
DIMENSION
  5
7172
330
1F
100
AcDbEntity
  8
実形
100
AcDbDimension
  2
*D19
 10
1196.699302930581
 20
968.7771937547477
 30
0.0
 11
1611.699302930581
 21
987.8771937547478
 31
0.0
 70
    32
 71
     5
 42
830.0000000000002
  3
ISO-25
100
AcDbAlignedDimension
 13
2026.699302930582
 23
1236.67196328526
 33
0.0
 14
1196.699302930581
 24
1236.67196328526
 34
0.0
 50
180.0
100
AcDbRotatedDimension
1001
ACAD
1000
DSTYLE
1002
{
1070
    41
1040
10.0
1070
   140
1040
25.0
1070
   147
1040
6.599999999999998
1070
   279
1070
     2
1070
   342
1005
30D
1070
   371
1070
    18
1070
   372
1070
    18
1002
}
  0
LINE
  5
7180
330
1F
100
AcDbEntity
  8
実形
  6
ACAD_ISO08W100
 48
0.5
100
AcDbLine
 10
1699.999605824083
 20
1476.67196328526
 30
0.0
 11
1975.027490422028
 21
1476.67196328526
 31
0.0
  0
LINE
  5
7181
330
1F
100
AcDbEntity
  8
実形
  6
ACAD_ISO08W100
 48
0.5
100
AcDbLine
 10
1841.699302930582
 20
1323.07798952886
 30
0.0
 11
1841.699302930582
 21
1716.67196328526
 31
0.0
  0
CIRCLE
  5
7183
330
1F
100
AcDbEntity
  8
実形
100
AcDbCircle
 10
1841.699302930582
 20
1476.67196328526
 30
0.0
 40
80.0
  0
CIRCLE
  5
7184
330
1F
100
AcDbEntity
  8
実形
100
AcDbCircle
 10
1841.699302930582
 20
1476.67196328526
 30
0.0
 40
90.5
  0
LINE
  5
7185
330
1F
100
AcDbEntity
  8
実形
100
AcDbLine
 10
1991.699302930582
 20
1716.67196328526
 30
0.0
 11
1841.699302930582
 21
1716.67196328526
 31
0.0
  0
DIMENSION
  5
719C
330
1F
100
AcDbEntity
  8
実形
100
AcDbDimension
  2
*D20
 10
1655.89988431826
 20
1271.67196328526
 30
0.0
 11
1636.79988431826
 21
1374.17196328526
 31
0.0
 70
    32
 71
     5
 42
205.0
  3
ISO-25
100
AcDbAlignedDimension
 13
1777.482256573891
 23
1476.67196328526
 33
0.0
 14
1777.482256573891
 24
1271.67196328526
 34
0.0
 50
90.0
100
AcDbRotatedDimension
1001
ACAD
1000
DSTYLE
1002
{
1070
    41
1040
10.0
1070
   140
1040
25.0
1070
   147
1040
6.599999999999998
1070
   279
1070
     2
1070
   342
1005
30D
1070
   371
1070
    18
1070
   372
1070
    18
1002
}
  0
LINE
  5
7295
330
1F
100
AcDbEntity
  8
実形
100
AcDbLine
 10
2026.699302930582
 20
675.1402142854658
 30
0.0
 11
1196.699302930582
 21
675.1402142854658
 31
0.0
  0
LINE
  5
7296
330
1F
100
AcDbEntity
  8
実形
100
AcDbLine
 10
2011.699302930582
 20
675.1402142854658
 30
0.0
 11
2011.699302930582
 21
660.1402142854658
 31
0.0
  0
LINE
  5
7297
330
1F
100
AcDbEntity
  8
実形
100
AcDbLine
 10
1211.699302930581
 20
675.1402142854658
 30
0.0
 11
1211.699302930581
 21
660.1402142854658
 31
0.0
  0
LINE
  5
7298
330
1F
100
AcDbEntity
  8
実形
100
AcDbLine
 10
2011.699302930582
 20
660.1402142854658
 30
0.0
 11
1211.699302930581
 21
660.1402142854658
 31
0.0
  0
LINE
  5
7299
330
1F
100
AcDbEntity
  8
実形
100
AcDbLine
 10
1991.699302930582
 20
660.1402142854656
 30
0.0
 11
1991.699302930582
 21
476.1402142854658
 31
0.0
  0
LINE
  5
729A
330
1F
100
AcDbEntity
  8
実形
100
AcDbLine
 10
1231.699302930581
 20
660.1402142854658
 30
0.0
 11
1231.699302930582
 21
490.9694713703069
 31
0.0
  0
LINE
  5
72AB
330
1F
100
AcDbEntity
  8
実形
100
AcDbLine
 10
1932.199302930582
 20
470.1402142854658
 30
0.0
 11
1751.199302930581
 21
470.1402142854658
 31
0.0
  0
LINE
  5
72AD
330
1F
100
AcDbEntity
  8
実形
100
AcDbLine
 10
1932.199302930582
 20
460.1402142854658
 30
0.0
 11
1751.199302930582
 21
460.1402142854658
 31
0.0
  0
LEADER
  5
734B
330
1F
100
AcDbEntity
  8
実形
100
AcDbLeader
  3
ISO-25
 76
     2
 10
1242.99551023751
 20
1602.235674261879
 30
0.0
 10
1297.052456367554
 20
1543.339431388424
 30
0.0
211
-1.0
221
0.0
231
0.0
1001
ACAD
1000
DSTYLE
1002
{
1070
    77
1070
     0
1070
    41
1040
10.0
1070
   140
1040
30.0
1070
   147
1040
6.599999999999998
1070
   279
1070
     2
1070
   342
1005
30D
1070
   371
1070
    18
1070
   372
1070
    18
1002
}
  0
LEADER
  5
73F6
330
1F
100
AcDbEntity
  8
実形
100
AcDbLeader
  3
ISO-25
 76
     2
 10
1220.729366591504
 20
1258.756130021242
 30
0.0
 10
1291.868175340749
 20
1317.584390789378
 30
0.0
211
-1.0
221
0.0
231
0.0
1001
ACAD
1000
DSTYLE
1002
{
1070
    77
1070
     0
1070
    41
1040
10.0
1070
   140
1040
30.0
1070
   147
1040
6.599999999999998
1070
   279
1070
     2
1070
   342
1005
30D
1070
   371
1070
    18
1070
   372
1070
    18
1002
}
  0
LINE
  5
7452
330
1F
100
AcDbEntity
  8
実形
  6
ACAD_ISO08W100
 48
0.5
100
AcDbLine
 10
1841.699302930582
 20
564.9928904580028
 30
0.0
 11
1841.699302930582
 21
408.3116101223968
 31
0.0
  0
LINE
  5
7454
330
1F
100
AcDbEntity
  8
実形
100
AcDbLine
 10
1932.199302930582
 20
470.1402142854658
 30
0.0
 11
1932.199302930582
 21
460.1402142854658
 31
0.0
  0
LINE
  5
7455
330
1F
100
AcDbEntity
  8
実形
100
AcDbLine
 10
1751.199302930581
 20
470.1402142854658
 30
0.0
 11
1751.199302930582
 21
460.1402142854658
 31
0.0
  0
LINE
  5
7458
330
1F
100
AcDbEntity
  8
実形
100
AcDbLine
 10
1751.199302930581
 20
470.1402142854658
 30
0.0
 11
1237.526131598911
 21
484.9719709167941
 31
0.0
  0
ARC
  5
7459
330
1F
100
AcDbEntity
  8
実形
100
AcDbCircle
 10
1237.699302930581
 20
490.9694713703069
 30
0.0
 40
6.0
100
AcDbArc
 50
180.0000000000001
 51
268.3461059215527
  0
DIMENSION
  5
745C
330
1F
100
AcDbEntity
  8
実形
100
AcDbDimension
  2
*D21
 10
1761.699302930582
 20
343.2236157496082
 30
0.0
 11
1841.699302930582
 21
362.3236157496082
 31
0.0
 70
    32
 71
     5
 42
160.0000000000002
  3
ISO-25
100
AcDbAlignedDimension
 13
1921.699302930582
 23
460.1402142854657
 33
0.0
 14
1761.699302930582
 24
460.1402142854657
 34
0.0
 50
180.0
100
AcDbRotatedDimension
1001
ACAD
1000
DSTYLE
1002
{
1070
    41
1040
10.0
1070
   140
1040
25.0
1070
   147
1040
6.599999999999998
1070
   279
1070
     2
1070
   342
1005
30D
1070
   371
1070
    18
1070
   372
1070
    18
1002
}
  0
DIMENSION
  5
7469
330
1F
100
AcDbEntity
  8
実形
100
AcDbDimension
  2
*D22
 10
1751.199302930582
 20
271.9813189343313
 30
0.0
 11
1841.699302930582
 21
291.0813189343313
 31
0.0
 70
    32
 71
     5
 42
180.9999999999995
  3
ISO-25
100
AcDbAlignedDimension
 13
1932.199302930582
 23
460.1402142854658
 33
0.0
 14
1751.199302930582
 24
460.1402142854616
 34
0.0
 50
180.0
100
AcDbRotatedDimension
1001
ACAD
1000
DSTYLE
1002
{
1070
    41
1040
10.0
1070
   140
1040
25.0
1070
   147
1040
6.599999999999998
1070
   279
1070
     2
1070
   342
1005
30D
1070
   371
1070
    18
1070
   372
1070
    18
1002
}
  0
ARC
  5
74F4
330
1F
100
AcDbEntity
  8
実形
100
AcDbCircle
 10
1237.699302930582
 20
490.9694713703069
 30
0.0
 40
6.0
100
AcDbArc
 50
180.0000000000001
 51
268.3461059215527
  0
LEADER
  5
7507
330
1F
100
AcDbEntity
  8
実形
100
AcDbLeader
  3
ISO-25
 76
     2
 10
1978.318281096445
 20
495.5752878862003
 30
0.0
 10
1915.848458092764
 20
543.1592501125979
 30
0.0
211
-1.0
221
0.0
231
0.0
1001
ACAD
1000
DSTYLE
1002
{
1070
    77
1070
     0
1070
    41
1040
10.0
1070
   140
1040
30.0
1070
   147
1040
6.599999999999998
1070
   279
1070
     2
1070
   342
1005
30D
1070
   371
1070
    18
1070
   372
1070
    18
1002
}
  0
ARC
  5
7548
330
1F
100
AcDbEntity
  8
実形
100
AcDbCircle
 10
1217.699302930581
 20
1695.67196328526
 30
0.0
 40
6.0
100
AcDbArc
 50
90.0
 51
180.0
  0
ARC
  5
7549
330
1F
100
AcDbEntity
  8
実形
100
AcDbCircle
 10
1237.699302930581
 20
1277.67196328526
 30
0.0
 40
6.0
100
AcDbArc
 50
180.0
 51
270.0
  0
ARC
  5
754A
330
1F
100
AcDbEntity
  8
実形
100
AcDbCircle
 10
1217.699302930582
 20
1257.67196328526
 30
0.0
 40
6.0
100
AcDbArc
 50
180.0
 51
270.0
  0
ARC
  5
754B
330
1F
100
AcDbEntity
  8
実形
100
AcDbCircle
 10
1985.699302930582
 20
1675.67196328526
 30
0.0
 40
6.0
100
AcDbArc
 50
0.000000000000007
 51
90.00000000000003
  0
ARC
  5
754C
330
1F
100
AcDbEntity
  8
実形
100
AcDbCircle
 10
2005.699302930582
 20
1695.67196328526
 30
0.0
 40
6.0
100
AcDbArc
 50
0.000000000000007
 51
90.00000000000003
  0
ARC
  5
754D
330
1F
100
AcDbEntity
  8
実形
100
AcDbCircle
 10
1985.699302930582
 20
1277.67196328526
 30
0.0
 40
6.0
100
AcDbArc
 50
270.0
 51
0.000000000000007
  0
ARC
  5
754E
330
1F
100
AcDbEntity
  8
実形
100
AcDbCircle
 10
2005.699302930582
 20
1257.67196328526
 30
0.0
 40
6.0
100
AcDbArc
 50
270.0
 51
0.000000000000007
  0
LEADER
  5
76AF
330
1F
100
AcDbEntity
  8
実形
100
AcDbLeader
  3
ISO-25
 76
     2
 10
1245.080324764718
 20
495.5752878862003
 30
0.0
 10
1293.029836605623
 20
544.4197778882062
 30
0.0
1001
ACAD
1000
DSTYLE
1002
{
1070
    77
1070
     0
1070
    41
1040
10.0
1070
   140
1040
30.0
1070
   147
1040
6.599999999999998
1070
   279
1070
     2
1070
   342
1005
30D
1070
   371
1070
    18
1070
   372
1070
    18
1002
}
  0
LINE
  5
7B34
330
1F
100
AcDbEntity
  8
実形
 62
     0
100
AcDbLine
 10
2114.0
 20
263.9999999999991
 30
0.0
 11
2834.0
 21
263.9999999999991
 31
0.0
  0
TEXT
  5
7B3D
330
1F
100
AcDbEntity
  8
枠
 62
     0
100
AcDbText
 10
2137.833333333333
 20
213.9999999999991
 30
0.0
 40
35.0
  1
品名
 72
     4
 11
2174.0
 21
231.4999999999991
 31
0.0
100
AcDbText
  0
TEXT
  5
7B4F
330
1F
100
AcDbEntity
  8
実形
100
AcDbText
 10
2313.640535830596
 20
213.2308752843241
 30
0.0
 40
35.0
  1
ｱﾝﾀﾞｰｼﾝｸ
  7
ms明朝
 72
     4
 11
2416.040535830596
 21
230.8308752843241
 31
0.0
100
AcDbText
  0
TEXT
  5
7CE2
330
1F
100
AcDbEntity
  8
実形
100
AcDbText
 10
234.9784467214322
 20
55.07438486928823
 30
0.0
 40
30.0
  1
※実寸には製造上の誤差が多少生ずる場合があります。シンクの穴あけ加工は現物合わせにてお願いします。
 72
     4
 11
1104.978446721432
 21
70.07438486928823
 31
0.0
100
AcDbText
  0
LINE
  5
7CE4
330
1F
100
AcDbEntity
  8
実形
100
AcDbLine
 10
1932.199302930582
 20
470.1402142854658
 30
0.0
 11
1985.699302930582
 21
470.1402142854658
 31
0.0
  0
ARC
  5
7CE5
330
1F
100
AcDbEntity
  8
実形
100
AcDbCircle
 10
1985.699302930582
 20
476.1402142854658
 30
0.0
 40
6.0
100
AcDbArc
 50
270.0
 51
0.0000000000000579
  0
TEXT
  5
7D16
330
1F
100
AcDbEntity
  8
実形
100
AcDbText
 10
234.4197908184251
 20
117.5456368237055
 30
0.0
 40
30.0
  1
※排水口外周W35ｍｍ,H3ｍｍラウンドテーパ－有り。
 72
     4
 11
687.919790818425
 21
130.0456368237055
 31
0.0
100
AcDbText
  0
LINE
  5
7DCA
330
1F
100
AcDbEntity
  8
実形
100
AcDbLine
 10
951.9150877194478
 20
1701.671963285259
 30
0.0
 11
936.915087719448
 21
1701.671963285259
 31
0.0
  0
LINE
  5
7DCD
330
1F
100
AcDbEntity
  8
実形
100
AcDbLine
 10
951.9150877194478
 20
1716.67196328526
 30
0.0
 11
951.9150877194478
 21
1476.67196328526
 31
0.0
  0
LINE
  5
7DCE
330
1F
100
AcDbEntity
  8
実形
100
AcDbLine
 10
936.915087719448
 20
1701.671963285259
 30
0.0
 11
936.9150877194483
 21
1476.67196328526
 31
0.0
  0
LINE
  5
7DCF
330
1F
100
AcDbEntity
  8
実形
100
AcDbLine
 10
746.9150877194474
 20
1567.17196328526
 30
0.0
 11
746.9150877194479
 21
1386.17196328526
 31
0.0
  0
LINE
  5
7DD0
330
1F
100
AcDbEntity
  8
実形
100
AcDbLine
 10
736.9150877194479
 20
1567.17196328526
 30
0.0
 11
736.9150877194479
 21
1386.17196328526
 31
0.0
  0
LINE
  5
7DD1
330
1F
100
AcDbEntity
  8
実形
100
AcDbLine
 10
736.9150877194479
 20
1386.17196328526
 30
0.0
 11
736.9150877194479
 21
1567.17196328526
 31
0.0
  0
LINE
  5
7DD2
330
1F
100
AcDbEntity
  8
実形
100
AcDbLine
 10
746.9150877194479
 20
1567.17196328526
 30
0.0
 11
736.9150877194479
 21
1567.17196328526
 31
0.0
  0
DIMENSION
  5
7DD3
330
1F
100
AcDbEntity
  8
実形
100
AcDbDimension
  2
*D23
 10
619.9984891835902
 20
1556.67196328526
 30
0.0
 11
600.89848918359
 21
1476.67196328526
 31
0.0
 70
    32
 71
     5
 42
160.0
  3
ISO-25
100
AcDbAlignedDimension
 13
736.9150877194479
 23
1396.67196328526
 33
0.0
 14
736.9150877194479
 24
1556.67196328526
 34
0.0
 50
90.0
100
AcDbRotatedDimension
1001
ACAD
1000
DSTYLE
1002
{
1070
    41
1040
10.0
1070
   140
1040
25.0
1070
   147
1040
6.599999999999998
1070
   279
1070
     2
1070
   342
1005
30D
1070
   371
1070
    18
1070
   372
1070
    18
1002
}
  0
DIMENSION
  5
7DD4
330
1F
100
AcDbEntity
  8
実形
100
AcDbDimension
  2
*D24
 10
548.7561923683133
 20
1567.171963285259
 30
0.0
 11
529.6561923683131
 21
1476.67196328526
 31
0.0
 70
    32
 71
     5
 42
180.9999999999995
  3
ISO-25
100
AcDbAlignedDimension
 13
736.9150877194479
 23
1386.17196328526
 33
0.0
 14
736.9150877194433
 24
1567.171963285259
 34
0.0
 50
90.0
100
AcDbRotatedDimension
1001
ACAD
1000
DSTYLE
1002
{
1070
    41
1040
10.0
1070
   140
1040
25.0
1070
   147
1040
6.599999999999998
1070
   279
1070
     2
1070
   342
1005
30D
1070
   371
1070
    18
1070
   372
1070
    18
1002
}
  0
LINE
  5
7DD5
330
1F
100
AcDbEntity
  8
実形
  6
ACAD_ISO08W100
 48
0.5
100
AcDbLine
 10
831.4704801385705
 20
1476.67196328526
 30
0.0
 11
681.9030475053113
 21
1476.67196328526
 31
0.0
  0
LEADER
  5
7DD7
330
1F
100
AcDbEntity
  8
実形
100
AcDbLeader
  3
ISO-25
 76
     2
 10
772.9728626633896
 20
1299.252742984207
 30
0.0
 10
841.214084779467
 20
1353.440221564445
 30
0.0
211
-1.0
221
0.0
231
0.0
1001
ACAD
1000
DSTYLE
1002
{
1070
    77
1070
     0
1070
    41
1040
10.0
1070
   140
1040
30.0
1070
   147
1040
6.599999999999998
1070
   279
1070
     2
1070
   342
1005
30D
1070
   371
1070
    18
1070
   372
1070
    18
1002
}
  0
LINE
  5
7DD8
330
1F
100
AcDbEntity
  8
実形
100
AcDbLine
 10
951.9150877194478
 20
1716.67196328526
 30
0.0
 11
951.9150877194478
 21
1476.67196328526
 31
0.0
  0
LINE
  5
7DD9
330
1F
100
AcDbEntity
  8
実形
  6
ACAD_ISO08W100
100
AcDbLine
 10
761.915087719447
 20
1675.671963285261
 30
0.0
 11
761.9150877194479
 21
1476.67196328526
 31
0.0
  0
LINE
  5
7DDE
330
1F
100
AcDbEntity
  8
実形
100
AcDbLine
 10
746.9150877194479
 20
1386.17196328526
 30
0.0
 11
736.9150877194483
 21
1386.171963285259
 31
0.0
  0
LINE
  5
7DDF
330
1F
100
AcDbEntity
  8
実形
100
AcDbLine
 10
936.9150877194469
 20
1681.671963285262
 30
0.0
 11
767.9150877194469
 21
1681.671963285261
 31
0.0
  0
ARC
  5
7DE0
330
1F
100
AcDbEntity
  8
実形
100
AcDbCircle
 10
767.9150877194469
 20
1675.671963285261
 30
0.0
 40
6.0
100
AcDbArc
 50
90.0
 51
180.0
  0
LINE
  5
7DE1
330
1F
100
AcDbEntity
  8
実形
100
AcDbLine
 10
746.9150877194469
 20
1567.17196328526
 30
0.0
 11
749.7682403597391
 21
1675.822543456894
 31
0.0
  0
ARC
  5
7DE2
330
1F
100
AcDbEntity
  8
実形
100
AcDbCircle
 10
755.7663505297768
 20
1675.671963285261
 30
0.0
 40
6.0
100
AcDbArc
 50
90.0
 51
178.5619142925938
  0
LINE
  5
7DE3
330
1F
100
AcDbEntity
  8
実形
100
AcDbLine
 10
767.9150877194469
 20
1681.671963285261
 30
0.0
 11
755.7663505297768
 21
1681.671963285261
 31
0.0
  0
DIMENSION
  5
7DE4
330
1F
100
AcDbEntity
  8
実形
100
AcDbDimension
  2
*D25
 10
761.9150877194488
 20
1146.46230530199
 30
0.0
 11
990.4796944451154
 21
1168.06230530199
 31
0.0
 70
   160
  1
15
 71
     5
 42
189.9999999999991
  3
ISO-25
100
AcDbAlignedDimension
 13
951.9150877194478
 23
1266.285223460146
 33
0.0
 14
761.9150877194488
 24
1243.191854069061
 34
0.0
 50
180.0
100
AcDbRotatedDimension
1001
ACAD
1000
DSTYLE
1002
{
1070
    41
1040
10.0
1070
   140
1040
25.0
1070
   147
1040
6.599999999999998
1070
   279
1070
     2
1070
   342
1005
30D
1070
   371
1070
    18
1070
   372
1070
    18
1002
}
  0
DIMENSION
  5
7DE5
330
1F
100
AcDbEntity
  8
実形
100
AcDbDimension
  2
*D26
 10
761.9150877194488
 20
1146.46230530199
 30
0.0
 11
852.8784012418146
 21
1168.147682812884
 31
0.0
 70
   160
 71
     5
 42
174.9999999999995
  3
ISO-25
100
AcDbAlignedDimension
 13
936.9150877194483
 23
1267.962792217447
 33
0.0
 14
761.9150877194488
 24
1267.124012566447
 34
0.0
 50
180.0
100
AcDbRotatedDimension
1001
ACAD
1000
DSTYLE
1002
{
1070
    41
1040
10.0
1070
   140
1040
25.0
1070
   147
1040
6.599999999999998
1070
   279
1070
     2
1070
   342
1005
30D
1070
   371
1070
    18
1070
   372
1070
    18
1002
}
  0
DIMENSION
  5
7DE6
330
1F
100
AcDbEntity
  8
実形
100
AcDbDimension
  2
*D27
 10
761.9150877194483
 20
1094.45181606266
 30
0.0
 11
852.0394054187963
 21
1116.05181606266
 31
0.0
 70
   160
 71
     5
 42
189.9999999999995
  3
ISO-25
100
AcDbAlignedDimension
 13
951.9150877194478
 23
1204.267270046923
 33
0.0
 14
761.9150877194483
 24
1204.267270046923
 34
0.0
 50
180.0
100
AcDbRotatedDimension
1001
ACAD
1000
DSTYLE
1002
{
1070
    41
1040
10.0
1070
   140
1040
25.0
1070
   147
1040
6.599999999999998
1070
   279
1070
     2
1070
   342
1005
30D
1070
   371
1070
    18
1070
   372
1070
    18
1002
}
  0
DIMENSION
  5
7DE7
330
1F
100
AcDbEntity
  8
実形
100
AcDbDimension
  2
*D28
 10
746.9150877194484
 20
1094.45181606266
 30
0.0
 11
711.927136807597
 21
1116.05181606266
 31
0.0
 70
   160
  1
15
 71
     5
 42
204.9999999999995
  3
ISO-25
100
AcDbAlignedDimension
 13
951.9150877194478
 23
1204.267270046923
 33
0.0
 14
746.9150877194484
 24
1266.8686154618
 34
0.0
 50
180.0
100
AcDbRotatedDimension
1001
ACAD
1000
DSTYLE
1002
{
1070
    41
1040
10.0
1070
   140
1040
25.0
1070
   147
1040
6.599999999999998
1070
   279
1070
     2
1070
   342
1005
30D
1070
   371
1070
    18
1070
   372
1070
    18
1002
}
  0
DIMENSION
  5
7DE8
330
1F
100
AcDbEntity
  8
実形
100
AcDbDimension
  2
*D29
 10
746.9150877194484
 20
1041.181532497775
 30
0.0
 11
849.1542198889895
 21
1060.281532497775
 31
0.0
 70
    32
  1
205
 71
     5
 42
204.4782643390822
  3
ISO-25
100
AcDbAlignedDimension
 13
951.3933520585306
 23
1172.320377601457
 33
0.0
 14
746.9150877194484
 24
1172.320377601457
 34
0.0
 50
180.0
100
AcDbRotatedDimension
1001
ACAD
1000
DSTYLE
1002
{
1070
    41
1040
10.0
1070
   140
1040
25.0
1070
   147
1040
6.599999999999998
1070
   279
1070
     2
1070
   342
1005
30D
1070
   371
1070
    18
1070
   372
1070
    18
1002
}
  0
DIMENSION
  5
7DE9
330
1F
100
AcDbEntity
  8
実形
100
AcDbDimension
  2
*D30
 10
736.9150877194479
 20
1041.181532497775
 30
0.0
 11
713.1197632265321
 21
1062.781532497774
 31
0.0
 70
   160
  1
8
 71
     5
 42
215.0
  3
ISO-25
100
AcDbAlignedDimension
 13
951.9150877194478
 23
1237.320377601457
 33
0.0
 14
736.9150877194479
 24
1155.090446765364
 34
0.0
 50
180.0
100
AcDbRotatedDimension
1001
ACAD
1000
DSTYLE
1002
{
1070
    41
1040
10.0
1070
   140
1040
25.0
1070
   147
1040
6.599999999999998
1070
   279
1070
     2
1070
   342
1005
30D
1070
   371
1070
    18
1070
   372
1070
    18
1002
}
  0
DIMENSION
  5
7DEA
330
1F
100
AcDbEntity
  8
実形
100
AcDbDimension
  2
*D31
 10
736.9150877194479
 20
986.4755211003473
 30
0.0
 11
849.522417949749
 21
1008.075521100347
 31
0.0
 70
   160
  1
213
 71
     5
 42
215.0
  3
ISO-25
100
AcDbAlignedDimension
 13
951.9150877194478
 23
1172.320377601457
 33
0.0
 14
736.9150877194479
 24
1108.252964348653
 34
0.0
 50
180.0
100
AcDbRotatedDimension
1001
ACAD
1000
DSTYLE
1002
{
1070
    41
1040
10.0
1070
   140
1040
25.0
1070
   147
1040
6.599999999999998
1070
   279
1070
     2
1070
   342
1005
30D
1070
   371
1070
    18
1070
   372
1070
    18
1002
}
  0
LINE
  5
7EAE
330
1F
100
AcDbEntity
  8
実形
100
AcDbLine
 10
951.9150877194478
 20
1251.67196328526
 30
0.0
 11
936.915087719448
 21
1251.671963285261
 31
0.0
  0
LINE
  5
7EAF
330
1F
100
AcDbEntity
  8
実形
100
AcDbLine
 10
951.9150877194478
 20
1236.67196328526
 30
0.0
 11
951.9150877194478
 21
1476.67196328526
 31
0.0
  0
LINE
  5
7EB0
330
1F
100
AcDbEntity
  8
実形
100
AcDbLine
 10
936.915087719448
 20
1251.67196328526
 30
0.0
 11
936.9150877194483
 21
1476.67196328526
 31
0.0
  0
LINE
  5
7EB1
330
1F
100
AcDbEntity
  8
実形
100
AcDbLine
 10
951.9150877194478
 20
1236.67196328526
 30
0.0
 11
951.9150877194478
 21
1476.67196328526
 31
0.0
  0
LINE
  5
7EB2
330
1F
100
AcDbEntity
  8
実形
  6
ACAD_ISO08W100
100
AcDbLine
 10
761.915087719447
 20
1277.671963285259
 30
0.0
 11
761.9150877194479
 21
1476.67196328526
 31
0.0
  0
LINE
  5
7EB3
330
1F
100
AcDbEntity
  8
実形
100
AcDbLine
 10
936.9150877194469
 20
1271.671963285258
 30
0.0
 11
767.9150877194469
 21
1271.671963285259
 31
0.0
  0
ARC
  5
7EB4
330
1F
100
AcDbEntity
  8
実形
100
AcDbCircle
 10
767.9150877194469
 20
1277.671963285259
 30
0.0
 40
6.0
100
AcDbArc
 50
180.0
 51
270.0
  0
LINE
  5
7EB5
330
1F
100
AcDbEntity
  8
実形
100
AcDbLine
 10
746.9150877194469
 20
1386.171963285259
 30
0.0
 11
749.7682403597391
 21
1277.521383113626
 31
0.0
  0
ARC
  5
7EB6
330
1F
100
AcDbEntity
  8
実形
100
AcDbCircle
 10
755.7663505297768
 20
1277.671963285259
 30
0.0
 40
6.0
100
AcDbArc
 50
181.4380857074062
 51
270.0
  0
LINE
  5
7EB7
330
1F
100
AcDbEntity
  8
実形
100
AcDbLine
 10
767.9150877194469
 20
1271.671963285259
 30
0.0
 11
755.7663505297768
 21
1271.671963285259
 31
0.0
  0
LINE
  5
8249
330
1F
100
AcDbEntity
  8
実形
100
AcDbLine
 10
1461.699302930581
 20
1675.67196328526
 30
0.0
 11
1461.699302930582
 21
1613.67196328526
 31
0.0
  0
LINE
  5
8258
330
1F
100
AcDbEntity
  8
実形
100
AcDbLine
 10
1459.699302930582
 20
1611.67196328526
 30
0.0
 11
1237.699302930582
 21
1611.67196328526
 31
0.0
  0
DIMENSION
  5
8267
330
1F
100
AcDbEntity
  8
実形
100
AcDbDimension
  2
*D32
 10
1196.699302930582
 20
1785.511640793593
 30
0.0
 11
1205.833625993818
 21
1807.928717799575
 31
0.0
 70
   160
  1
15
 71
     5
 42
264.9999999999998
  3
ISO-25
100
AcDbAlignedDimension
 13
1461.699302930581
 23
1681.67196328526
 33
0.0
 14
1196.699302930582
 24
1681.67196328526
 34
0.0
 50
180.0
100
AcDbRotatedDimension
1001
ACAD
1000
DSTYLE
1002
{
1070
    41
1040
10.0
1070
   140
1040
25.0
1070
   147
1040
6.599999999999998
1070
   279
1070
     2
1070
   342
1005
30D
1070
   371
1070
    18
1070
   372
1070
    18
1002
}
  0
DIMENSION
  5
8274
330
1F
100
AcDbEntity
  8
実形
100
AcDbDimension
  2
*D33
 10
1211.699302930581
 20
1785.511640793593
 30
0.0
 11
1338.985071808742
 21
1806.597540098196
 31
0.0
 70
   160
 71
     5
 42
250.0000000000002
  3
ISO-25
100
AcDbAlignedDimension
 13
1461.699302930581
 23
1681.67196328526
 33
0.0
 14
1211.699302930581
 24
1681.67196328526
 34
0.0
 50
180.0
100
AcDbRotatedDimension
1001
ACAD
1000
DSTYLE
1002
{
1070
    41
1040
10.0
1070
   140
1040
25.0
1070
   147
1040
6.599999999999998
1070
   279
1070
     2
1070
   342
1005
30D
1070
   371
1070
    18
1070
   372
1070
    18
1002
}
  0
ARC
  5
83E2
330
1F
100
AcDbEntity
  8
実形
100
AcDbCircle
 10
1459.699302930582
 20
1613.67196328526
 30
0.0
 40
2.0
100
AcDbArc
 50
270.0
 51
0.0000000000001088
  0
LEADER
  5
83ED
330
1F
100
AcDbEntity
  8
実形
100
AcDbLeader
  3
ISO-25
 76
     2
 10
1467.277330873301
 20
1605.319893835263
 30
0.0
 10
1521.334277003345
 20
1546.423650961808
 30
0.0
211
-1.0
221
0.0
231
0.0
1001
ACAD
1000
DSTYLE
1002
{
1070
    77
1070
     0
1070
    41
1040
10.0
1070
   140
1040
30.0
1070
   147
1040
6.599999999999998
1070
   279
1070
     2
1070
   342
1005
30D
1070
   371
1070
    18
1070
   372
1070
    18
1002
}
  0
LEADER
  5
83F8
330
1F
100
AcDbEntity
  8
実形
100
AcDbLeader
  3
ISO-25
 76
     2
 10
1475.252299684689
 20
1668.336471633303
 30
0.0
 10
1529.309245814733
 20
1619.440228759848
 30
0.0
211
-1.0
221
0.0
231
0.0
1001
ACAD
1000
DSTYLE
1002
{
1070
    77
1070
     0
1070
    41
1040
10.0
1070
   140
1040
30.0
1070
   147
1040
6.599999999999998
1070
   279
1070
     2
1070
   342
1005
30D
1070
   371
1070
    18
1070
   372
1070
    18
1002
}
  0
DIMENSION
  5
8402
330
1F
100
AcDbEntity
  8
実形
100
AcDbDimension
  2
*D34
 10
1030.465834646096
 20
1701.67196328526
 30
0.0
 11
1000.117382904063
 21
1656.67196328526
 31
0.0
 70
   160
 71
     5
 42
90.0
  3
ISO-25
100
AcDbAlignedDimension
 13
1140.637906842119
 23
1611.67196328526
 33
0.0
 14
1140.637906842119
 24
1701.67196328526
 34
0.0
 50
90.0
100
AcDbRotatedDimension
1001
ACAD
1000
DSTYLE
1002
{
1070
    41
1040
10.0
1070
   140
1040
25.0
1070
   147
1040
6.599999999999998
1070
   279
1070
     2
1070
   342
1005
30D
1070
   371
1070
    18
1070
   372
1070
    18
1002
}
  0
DIMENSION
  5
842A
330
1F
100
AcDbEntity
  8
実形
100
AcDbDimension
  2
*D35
 10
1080.203733546001
 20
1611.671963285259
 30
0.0
 11
1141.1234529962
 21
1737.095885593763
 31
0.0
 70
   160
  1
15
 71
     5
 42
105.0000000000002
  3
ISO-25
100
AcDbAlignedDimension
 13
1185.796702859532
 23
1716.67196328526
 33
0.0
 14
1155.375805742024
 24
1611.671963285259
 34
0.0
 50
90.0
100
AcDbRotatedDimension
1001
ACAD
1000
DSTYLE
1002
{
1070
    41
1040
10.0
1070
   140
1040
25.0
1070
   147
1040
6.599999999999998
1070
   279
1070
     2
1070
   342
1005
30D
1070
   371
1070
    18
1070
   372
1070
    18
1002
}
  0
ARC
  5
845D
330
1F
100
AcDbEntity
  8
実形
100
AcDbCircle
 10
1467.699302930581
 20
1675.67196328526
 30
0.0
 40
6.0
100
AcDbArc
 50
90.00000000000003
 51
180.0000000000003
  0
ARC
  5
845E
330
1F
100
AcDbEntity
  8
実形
100
AcDbCircle
 10
1237.699302930582
 20
1605.67196328526
 30
0.0
 40
6.0
100
AcDbArc
 50
90.0
 51
180.0
  0
LINE
  5
84D4
330
1F
100
AcDbEntity
  8
実形
100
AcDbLine
 10
936.9150877194483
 20
1611.671963285259
 30
0.0
 11
761.9150877194474
 21
1611.671963285259
 31
0.0
  0
TEXT
  5
8743
330
1F
100
AcDbEntity
  8
実形
 48
20.0
100
AcDbText
 10
2151.842689135305
 20
1287.138722699859
 30
0.0
 40
25.0
  1
20
 50
90.0
100
AcDbText
  0
TEXT
  5
8767
330
1F
100
AcDbEntity
  8
実形
 48
20.0
100
AcDbText
 10
2232.730167143029
 20
1266.890315450184
 30
0.0
 40
25.0
  1
15
 50
90.0
100
AcDbText
  0
TEXT
  5
879C
330
1F
100
AcDbEntity
  8
実形
100
AcDbText
 10
1529.830925389291
 20
1516.307194065975
 30
0.0
 40
25.0
  1
2R
 72
     2
 11
1571.497592055958
 21
1512.973860732641
 31
0.0
100
AcDbText
 73
     1
  0
TEXT
  5
87A5
330
1F
100
AcDbEntity
  8
実形
100
AcDbText
 10
1313.128698548625
 20
1511.793713618474
 30
0.0
 40
25.0
  1
6R
 72
     2
 11
1354.795365215292
 21
1508.46038028514
 31
0.0
100
AcDbText
 73
     1
  0
TEXT
  5
87AD
330
1F
100
AcDbEntity
  8
実形
100
AcDbText
 10
1532.840677617402
 20
1582.504941759115
 30
0.0
 40
25.0
  1
6R
 72
     2
 11
1574.507344284068
 21
1579.171608425782
 31
0.0
100
AcDbText
 73
     1
  0
TEXT
  5
87B5
330
1F
100
AcDbEntity
  8
実形
100
AcDbText
 10
1305.604317978348
 20
1315.236435630615
 30
0.0
 40
25.0
  1
6R
 72
     2
 11
1347.270984645015
 21
1311.903102297282
 31
0.0
100
AcDbText
 73
     1
  0
TEXT
  5
87EB
330
1F
100
AcDbEntity
  8
実形
100
AcDbText
 10
853.9610042897669
 20
1351.299915159593
 30
0.0
 40
25.0
  1
6R
 72
     2
 11
895.6276709564335
 21
1347.96658182626
 31
0.0
100
AcDbText
 73
     1
  0
TEXT
  5
8869
330
1F
100
AcDbEntity
  8
実形
100
AcDbText
 10
1309.898031110035
 20
548.4916333957829
 30
0.0
 40
25.0
  1
6R
 72
     2
 11
1351.564697776702
 21
545.1583000624496
 31
0.0
100
AcDbText
 73
     1
  0
TEXT
  5
8871
330
1F
100
AcDbEntity
  8
実形
100
AcDbText
 10
1863.988427083098
 20
553.7925905144588
 30
0.0
 40
25.0
  1
6R
 72
     2
 11
1905.655093749765
 21
550.4592571811254
 31
0.0
100
AcDbText
 73
     1
  0
TEXT
  5
88D6
330
1F
100
AcDbEntity
  8
実形
 48
20.0
100
AcDbText
 10
1941.606500048813
 20
1113.751853681803
 30
0.0
 40
25.0
  1
20
100
AcDbText
  0
DIMENSION
  5
8B83
330
1F
100
AcDbEntity
  8
実形
100
AcDbDimension
  2
*D36
 10
1080.203733546001
 20
1611.67196328526
 30
0.0
 11
1141.870461806471
 21
1674.957590598031
 31
0.0
 70
   160
  1
20
 71
     5
 42
90.00000000000023
  3
ISO-25
100
AcDbAlignedDimension
 13
1183.814574491307
 23
1701.67196328526
 33
0.0
 14
1183.814574491307
 24
1611.67196328526
 34
0.0
 50
90.0
100
AcDbRotatedDimension
1001
ACAD
1000
DSTYLE
1002
{
1070
    41
1040
10.0
1070
   140
1040
25.0
1070
   147
1040
6.599999999999998
1070
   279
1070
     2
1070
   342
1005
30D
1070
   371
1070
    18
1070
   372
1070
    18
1002
}
  0
DIMENSION
  5
8B90
330
1F
100
AcDbEntity
  8
実形
100
AcDbDimension
  2
*D37
 10
1080.203733546001
 20
1611.67196328526
 30
0.0
 11
1061.103733546
 21
1646.67196328526
 31
0.0
 70
    32
 71
     5
 42
70.00000000000046
  3
ISO-25
100
AcDbAlignedDimension
 13
1183.814574491307
 23
1681.67196328526
 33
0.0
 14
1183.814574491307
 24
1611.67196328526
 34
0.0
 50
90.0
100
AcDbRotatedDimension
1001
ACAD
1000
DSTYLE
1002
{
1070
    41
1040
10.0
1070
   140
1040
25.0
1070
   147
1040
6.599999999999998
1070
   279
1070
     2
1070
   342
1005
30D
1070
   371
1070
    18
1070
   372
1070
    18
1002
}
  0
DIMENSION
  5
8C7A
330
1F
100
AcDbEntity
  8
実形
100
AcDbDimension
  2
*D38
 10
1991.699302930581
 20
1785.511640793593
 30
0.0
 11
1916.699302930582
 21
1813.456262064457
 31
0.0
 70
   160
 71
     5
 42
149.9999999999998
  3
ISO-25
100
AcDbAlignedDimension
 13
1841.699302930582
 23
1681.67196328526
 33
0.0
 14
1991.699302930581
 24
1681.671963285261
 34
0.0
100
AcDbRotatedDimension
1001
ACAD
1000
DSTYLE
1002
{
1070
    41
1040
10.0
1070
   140
1040
25.0
1070
   147
1040
6.599999999999998
1070
   279
1070
     2
1070
   342
1005
30D
1070
   371
1070
    18
1070
   372
1070
    18
1002
}
  0
DIMENSION
  5
907D
330
1F
100
AcDbEntity
  8
実形
100
AcDbDimension
  2
*D39
 10
2127.072365393774
 20
485.1402142854658
 30
0.0
 11
2105.472365393774
 21
704.6453504246082
 31
0.0
 70
   160
  1
15
 71
     5
 42
190.0000000000001
  3
ISO-25
100
AcDbAlignedDimension
 13
2002.815605555321
 23
675.1402142854659
 33
0.0
 14
2002.815605555321
 24
485.1402142854658
 34
0.0
 50
90.0
100
AcDbRotatedDimension
1001
ACAD
1000
DSTYLE
1002
{
1070
    41
1040
10.0
1070
   140
1040
25.0
1070
   147
1040
6.599999999999998
1070
   279
1070
     2
1070
   342
1005
30D
1070
   371
1070
    18
1070
   372
1070
    18
1002
}
  0
DIMENSION
  5
907E
330
1F
100
AcDbEntity
  8
実形
100
AcDbDimension
  2
*D40
 10
2127.072365393774
 20
485.1402142854658
 30
0.0
 11
2107.972365393774
 21
572.6402142854661
 31
0.0
 70
    32
 71
     5
 42
175.0
  3
ISO-25
100
AcDbAlignedDimension
 13
2002.815605555321
 23
660.1402142854658
 33
0.0
 14
2002.815605555321
 24
485.1402142854658
 34
0.0
 50
90.0
100
AcDbRotatedDimension
1001
ACAD
1000
DSTYLE
1002
{
1070
    41
1040
10.0
1070
   140
1040
25.0
1070
   147
1040
6.599999999999998
1070
   279
1070
     2
1070
   342
1005
30D
1070
   371
1070
    18
1070
   372
1070
    18
1002
}
  0
DIMENSION
  5
907F
330
1F
100
AcDbEntity
  8
実形
100
AcDbDimension
  2
*D41
 10
2190.245305984444
 20
485.1402142854658
 30
0.0
 11
2168.645305984444
 21
571.2238715340345
 31
0.0
 70
   160
 71
     5
 42
190.0000000000001
  3
ISO-25
100
AcDbAlignedDimension
 13
2067.815605555322
 23
675.1402142854659
 33
0.0
 14
2067.815605555322
 24
485.1402142854658
 34
0.0
 50
90.0
100
AcDbRotatedDimension
1001
ACAD
1000
DSTYLE
1002
{
1070
    41
1040
10.0
1070
   140
1040
25.0
1070
   147
1040
6.599999999999998
1070
   279
1070
     2
1070
   342
1005
30D
1070
   371
1070
    18
1070
   372
1070
    18
1002
}
  0
DIMENSION
  5
9080
330
1F
100
AcDbEntity
  8
実形
100
AcDbDimension
  2
*D42
 10
2190.245305984444
 20
675.1402142854659
 30
0.0
 11
2168.645305984444
 21
442.2082372679605
 31
0.0
 70
   160
  1
15
 71
     5
 42
205.0000000000001
  3
ISO-25
100
AcDbAlignedDimension
 13
2004.064782031957
 23
470.1402142854658
 33
0.0
 14
2002.815605555321
 24
675.1402142854659
 34
0.0
 50
90.0
100
AcDbRotatedDimension
1001
ACAD
1000
DSTYLE
1002
{
1070
    41
1040
10.0
1070
   140
1040
25.0
1070
   147
1040
6.599999999999998
1070
   279
1070
     2
1070
   342
1005
30D
1070
   371
1070
    18
1070
   372
1070
    18
1002
}
  0
DIMENSION
  5
9081
330
1F
100
AcDbEntity
  8
実形
100
AcDbDimension
  2
*D43
 10
2250.586985446737
 20
470.1402142854657
 30
0.0
 11
2231.486985446737
 21
572.6402142854661
 31
0.0
 70
    32
 71
     5
 42
205.0000000000001
  3
ISO-25
100
AcDbAlignedDimension
 13
2127.072365393774
 23
675.1402142854659
 33
0.0
 14
2127.072365393774
 24
470.1402142854658
 34
0.0
 50
90.0
100
AcDbRotatedDimension
1001
ACAD
1000
DSTYLE
1002
{
1070
    41
1040
10.0
1070
   140
1040
25.0
1070
   147
1040
6.599999999999998
1070
   279
1070
     2
1070
   342
1005
30D
1070
   371
1070
    18
1070
   372
1070
    18
1002
}
  0
DIMENSION
  5
9082
330
1F
100
AcDbEntity
  8
実形
100
AcDbDimension
  2
*D44
 10
2250.586985446737
 20
675.1402142854659
 30
0.0
 11
2228.986985446737
 21
439.6738363815939
 31
0.0
 70
   160
  1
8
 71
     5
 42
215.0000000000001
  3
ISO-25
100
AcDbAlignedDimension
 13
2132.154289951638
 23
460.1402142854658
 33
0.0
 14
2127.072365393774
 24
675.1402142854659
 34
0.0
 50
90.0
100
AcDbRotatedDimension
1001
ACAD
1000
DSTYLE
1002
{
1070
    41
1040
10.0
1070
   140
1040
25.0
1070
   147
1040
6.599999999999998
1070
   279
1070
     2
1070
   342
1005
30D
1070
   371
1070
    18
1070
   372
1070
    18
1002
}
  0
DIMENSION
  5
9083
330
1F
100
AcDbEntity
  8
実形
100
AcDbDimension
  2
*D45
 10
2317.041370334902
 20
460.1402142854658
 30
0.0
 11
2295.441370334903
 21
573.8534755241171
 31
0.0
 70
   160
  1
213
 71
     5
 42
215.0000000000001
  3
ISO-25
100
AcDbAlignedDimension
 13
2190.245305984444
 23
675.1402142854659
 33
0.0
 14
2179.953282282625
 24
460.1402142854658
 34
0.0
 50
90.0
100
AcDbRotatedDimension
1001
ACAD
1000
DSTYLE
1002
{
1070
    41
1040
10.0
1070
   140
1040
25.0
1070
   147
1040
6.599999999999998
1070
   279
1070
     2
1070
   342
1005
30D
1070
   371
1070
    18
1070
   372
1070
    18
1002
}
  0
DIMENSION
  5
9181
330
1F
100
AcDbEntity
  8
実形
100
AcDbDimension
  2
*D46
 10
1080.203733546
 20
1236.67196328526
 30
0.0
 11
1058.603733546
 21
1424.17196328526
 31
0.0
 70
    32
  1
340
 71
     5
 42
374.9999999999993
  3
ISO-25
100
AcDbAlignedDimension
 13
1196.699302930581
 23
1611.671963285259
 33
0.0
 14
1196.699302930581
 24
1236.67196328526
 34
0.0
 50
90.0
100
AcDbRotatedDimension
1001
ACAD
1000
DSTYLE
1002
{
1070
    41
1040
10.0
1070
   140
1040
30.0
1070
   147
1040
6.599999999999998
1070
   279
1070
     2
1070
   342
1005
30D
1070
   371
1070
    18
1070
   372
1070
    18
1002
}
  0
DIMENSION
  5
91A0
330
1F
100
AcDbEntity
  8
実形
100
AcDbDimension
  2
*D47
 10
1080.203733546001
 20
1611.671963285259
 30
0.0
 11
1054.708947420871
 21
1217.401294179468
 31
0.0
 70
   160
  1
15
 71
     5
 42
359.9999999999993
  3
ISO-25
100
AcDbAlignedDimension
 13
1196.699302930581
 23
1251.67196328526
 33
0.0
 14
1196.699302930579
 24
1611.671963285259
 34
0.0
 50
90.0
100
AcDbRotatedDimension
1001
ACAD
1000
DSTYLE
1002
{
1070
    41
1040
10.0
1070
   140
1040
30.0
1070
   147
1040
6.599999999999998
1070
   279
1070
     2
1070
   342
1005
30D
1070
   371
1070
    18
1070
   372
1070
    18
1002
}
  0
DIMENSION
  5
91BF
330
1F
100
AcDbEntity
  8
実形
100
AcDbDimension
  2
*D48
 10
1080.203733546001
 20
1611.671963285259
 30
0.0
 11
1054.087536005052
 21
1279.871670467309
 31
0.0
 70
   160
  1
20
 71
     5
 42
339.9999999999993
  3
ISO-25
100
AcDbAlignedDimension
 13
1196.699302930581
 23
1271.67196328526
 33
0.0
 14
1196.699302930581
 24
1611.671963285259
 34
0.0
 50
90.0
100
AcDbRotatedDimension
1001
ACAD
1000
DSTYLE
1002
{
1070
    41
1040
10.0
1070
   140
1040
30.0
1070
   147
1040
6.599999999999998
1070
   279
1070
     2
1070
   342
1005
30D
1070
   371
1070
    18
1070
   372
1070
    18
1002
}
  0
LINE
  5
9451
330
1F
100
AcDbEntity
  8
実形
 62
     3
100
AcDbLine
 10
174.0
 20
4.0
 30
0.0
 11
174.0
 21
3.99999999999909
 31
0.0
  0
LINE
  5
945B
330
1F
100
AcDbEntity
  8
実形
100
AcDbLine
 10
174.0
 20
2023.999999999999
 30
0.0
 11
174.0
 21
4.0
 31
0.0
  0
LINE
  5
9479
330
1F
100
AcDbEntity
  8
補助
 62
     0
100
AcDbLine
 10
2834.0
 20
1959.0
 30
0.0
 11
2069.387286519283
 21
1959.000000000001
 31
0.0
  0
LINE
  5
947A
330
1F
100
AcDbEntity
  8
補助
 62
     0
100
AcDbLine
 10
2834.0
 20
1894.0
 30
0.0
 11
2069.387286519283
 21
1894.0
 31
0.0
  0
LINE
  5
947B
330
1F
100
AcDbEntity
  8
補助
 62
     0
100
AcDbLine
 10
2252.547653420926
 20
1894.0
 30
0.0
 11
2252.547653420926
 21
2024.0
 31
0.0
  0
LINE
  5
947C
330
1F
100
AcDbEntity
  8
補助
 62
     0
100
AcDbLine
 10
2069.387286519283
 20
1894.0
 30
0.0
 11
2069.387286519283
 21
2024.0
 31
0.0
  0
TEXT
  5
947D
330
1F
100
AcDbEntity
  8
補助
 62
     0
100
AcDbText
 10
2100.295698850121
 20
1976.328571428572
 30
0.0
 40
30.0
  1
部品名
  7
明朝
 72
     4
 11
2166.124270278692
 21
1991.5
 31
0.0
100
AcDbText
  0
TEXT
  5
947E
330
1F
100
AcDbEntity
  8
補助
 62
     0
100
AcDbText
 10
2677.614285714286
 20
1976.071428571429
 30
0.0
 40
30.0
  1
厚さ
  7
明朝
 72
     4
 11
2721.5
 21
1991.5
 31
0.0
100
AcDbText
  0
LINE
  5
947F
330
1F
100
AcDbEntity
  8
補助
 62
     0
100
AcDbLine
 10
2609.0
 20
1894.0
 30
0.0
 11
2609.0
 21
2024.0
 31
0.0
  0
TEXT
  5
9480
330
1F
100
AcDbEntity
  8
補助
 62
     0
100
AcDbText
 10
2388.490869919937
 20
1975.947979478155
 30
0.0
 40
30.0
  1
材質
  7
明朝
 72
     4
 11
2432.376584205651
 21
1991.119408049583
 31
0.0
100
AcDbText
  0
TEXT
  5
9481
330
1F
100
AcDbEntity
  8
実形
 62
     0
100
AcDbText
 10
2098.227810657788
 20
1910.557142857143
 30
0.0
 40
30.0
  1
ボウル
  7
明朝
 72
     4
 11
2164.056382086359
 21
1926.5
 31
0.0
100
AcDbText
  0
TEXT
  5
9482
330
1F
100
AcDbEntity
  8
実形
 62
     0
100
AcDbText
 10
2644.700000000001
 20
1911.842857142857
 30
0.0
 40
30.0
  1
1.0ｍｍ
  7
明朝
 72
     4
 11
2721.500000000001
 21
1926.5
 31
0.0
100
AcDbText
  0
TEXT
  5
9483
330
1F
100
AcDbEntity
  8
実形
 62
     0
100
AcDbText
 10
2311.016869107866
 20
1910.728571428572
 30
0.0
 40
30.0
  1
SUS304（HL）
  7
明朝
 72
     4
 11
2442.674011965009
 21
1926.5
 31
0.0
100
AcDbText
  0
VIEWPORT
  5
2E
102
{ACAD_XDICTIONARY
360
94A3
102
}
330
1B
100
AcDbEntity
 67
     1
  8
0
100
AcDbViewport
 10
144.7270812988281
 20
101.2295806407928
 30
0.0
 40
411.6736216682419
 41
222.1517806396485
 68
     1
 69
     1
 12
144.7270812988281
 22
101.2295806407928
 13
0.0
 23
0.0
 14
10.0
 24
10.0
 15
10.0
 25
10.0
 16
0.0
 26
0.0
 36
1.0
 17
0.0
 27
0.0
 37
0.0
 42
50.0
 43
0.0
 44
0.0
 45
222.1517806396485
 50
0.0
 51
0.0
 72
   100
 90
    32800
  1

281
     0
 71
     1
 74
     0
110
0.0
120
0.0
130
0.0
111
1.0
121
0.0
131
0.0
112
0.0
122
1.0
132
0.0
 79
     0
146
0.0
  0
VIEWPORT
  5
30
102
{ACAD_XDICTIONARY
360
94A5
102
}
330
1B
100
AcDbEntity
 67
     1
  8
0
100
AcDbViewport
 10
139.2237563133239
 20
101.2295821905136
 30
0.0
 40
222.7580101013184
 41
161.9673315048218
 68
     2
 69
     2
 12
210.0
 22
148.5
 13
0.0
 23
0.0
 14
10.0
 24
10.0
 15
10.0
 25
10.0
 16
0.0
 26
0.0
 36
1.0
 17
0.0
 27
0.0
 37
0.0
 42
50.0
 43
0.0
 44
0.0
 45
309.0686705647124
 50
0.0
 51
0.0
 72
   100
 90
    32864
  1

281
     0
 71
     1
 74
     0
110
0.0
120
0.0
130
0.0
111
1.0
121
0.0
131
0.0
112
0.0
122
1.0
132
0.0
 79
     0
146
0.0
  0
ENDSEC
  0
SECTION
  2
OBJECTS
  0
DICTIONARY
  5
C
330
0
100
AcDbDictionary
281
     1
  3
ACAD_COLOR
350
22AD
  3
ACAD_GROUP
350
D
  3
ACAD_LAYOUT
350
1A
  3
ACAD_MATERIAL
350
22AC
  3
ACAD_MLINESTYLE
350
17
  3
ACAD_PLOTSETTINGS
350
19
  3
ACAD_PLOTSTYLENAME
350
E
  3
ACAD_TABLESTYLE
350
22AE
  3
AcadDim
350
124
  3
ACDBHEADERROUNDTRIPXREC
350
949C
  3
AcDbVariableDictionary
350
1589
  3
DWGPROPS
350
949B
  0
DICTIONARY
  5
24C4
330
2
100
AcDbDictionary
280
     1
281
     1
  3
ACAD_LAYERFILTERS
360
6C37
  3
ACAD_LAYERSTATES
360
24C5
  3
ACLYDICTIONARY
360
6C36
  0
DICTIONARY
  5
2396
330
1F
100
AcDbDictionary
280
     1
281
     1
  3
ACAD_SORTENTS
360
2397
  0
DICTIONARY
  5
313E
330
313C
100
AcDbDictionary
280
     1
281
     1
  3
ACAD_SORTENTS
360
313F
  0
DICTIONARY
  5
3848
330
3846
100
AcDbDictionary
280
     1
281
     1
  3
ACAD_SORTENTS
360
3849
  0
DICTIONARY
  5
6B89
330
6B87
100
AcDbDictionary
280
     1
281
     1
  3
ACAD_SORTENTS
360
6B8A
  0
DICTIONARY
  5
6C02
330
6C00
100
AcDbDictionary
280
     1
281
     1
  3
ACAD_SORTENTS
360
6C03
  0
DICTIONARY
  5
94A3
330
2E
100
AcDbDictionary
280
     1
281
     1
  3
ACAD_XREC_ROUNDTRIP
360
94A4
  0
DICTIONARY
  5
94A5
330
30
100
AcDbDictionary
280
     1
281
     1
  3
ACAD_XREC_ROUNDTRIP
360
94A6
  0
DICTIONARY
  5
22AD
102
{ACAD_REACTORS
330
C
102
}
330
C
100
AcDbDictionary
281
     1
  0
DICTIONARY
  5
D
102
{ACAD_REACTORS
330
C
102
}
330
C
100
AcDbDictionary
281
     1
  0
DICTIONARY
  5
1A
102
{ACAD_REACTORS
330
C
102
}
330
C
100
AcDbDictionary
281
     1
  3
Model
350
22
  3
ﾚｲｱｳﾄ1
350
1E
  3
ﾚｲｱｳﾄ2
350
26
  0
DICTIONARY
  5
22AC
102
{ACAD_REACTORS
330
C
102
}
330
C
100
AcDbDictionary
281
     1
  0
DICTIONARY
  5
17
102
{ACAD_REACTORS
330
C
102
}
330
C
100
AcDbDictionary
281
     1
  3
Standard
350
18
  0
DICTIONARY
  5
19
102
{ACAD_REACTORS
330
C
102
}
330
C
100
AcDbDictionary
281
     1
  0
ACDBDICTIONARYWDFLT
  5
E
102
{ACAD_REACTORS
330
C
102
}
330
C
100
AcDbDictionary
281
     1
  3
Normal
350
F
100
AcDbDictionaryWithDefault
340
F
  0
DICTIONARY
  5
22AE
102
{ACAD_REACTORS
330
C
102
}
330
C
100
AcDbDictionary
281
     1
  3
Standard
350
22AF
  0
XRECORD
  5
124
102
{ACAD_REACTORS
330
C
102
}
330
C
100
AcDbXrecord
280
     1
 90
   990106
  3

 60
     0
 61
     0
 62
     1
 63
     3
 64
     0
 65
     0
 66
     0
 67
     3
 68
     1
 69
     0
 70
     0
 71
     0
 72
     0
 40
30.0
170
     0
  0
DICTIONARY
  5
949C
102
{ACAD_REACTORS
330
C
102
}
330
C
100
AcDbDictionary
281
     1
  0
DICTIONARY
  5
1589
102
{ACAD_REACTORS
330
C
102
}
330
C
100
AcDbDictionary
281
     1
  3
CTABLESTYLE
350
22B5
  3
DIMASSOC
350
9498
  3
PROJECTNAME
350
9499
  3
SORTENTS
350
158A
  0
XRECORD
  5
949B
102
{ACAD_REACTORS
330
C
102
}
330
C
100
AcDbXrecord
280
     1
  1
DWGPROPS COOKIE
  2

  3

  4

  6

  7

  8

  9

300
=
301
=
302
=
303
=
304
=
305
=
306
=
307
=
308
=
309
=
 40
2.832660821759259
 41
2451673.575802199
 42
2458809.74191566
  1

 90
        0
  0
DICTIONARY
  5
6C37
102
{ACAD_REACTORS
330
24C4
102
}
330
24C4
100
AcDbDictionary
281
     1
  0
DICTIONARY
  5
24C5
102
{ACAD_REACTORS
330
24C4
102
}
330
24C4
100
AcDbDictionary
281
     1
  0
DICTIONARY
  5
6C36
102
{ACAD_REACTORS
330
24C4
102
}
330
24C4
100
AcDbDictionary
281
     1
1001
ACAD
1000
<All
  0
SORTENTSTABLE
  5
2397
102
{ACAD_REACTORS
330
2396
102
}
330
2396
100
AcDbSortentsTable
330
1F
331
272
  5
1B7F
331
7EAE
  5
7EB5
331
5E5F
  5
634F
331
7183
  5
7316
331
7EB6
  5
8274
331
7DD0
  5
7DD7
331
7452
  5
76AF
331
7549
  5
7102
331
7DD8
  5
7DE3
331
7DE0
  5
7DE7
331
83ED
  5
83F8
331
7026
  5
7027
331
702E
  5
7181
331
1B91
  5
1B9C
331
7DE8
  5
7EB2
331
72AB
  5
745B
331
1B99
  5
3800
331
734B
  5
754B
331
7EAF
  5
7EB6
331
70F5
  5
7299
331
9C
  5
9C
331
7184
  5
7323
331
845D
  5
703F
331
7EB7
  5
8311
331
7DD1
  5
7DD8
331
754A
  5
7079
331
719C
  5
73F5
331
7DD9
  5
7DE4
331
5E68
  5
6C24
331
7DE1
  5
7DE8
331
7027
  5
702F
331
7086
  5
7295
331
702F
  5
702C
331
8267
  5
83EC
331
1B8A
  5
1B94
331
1B92
  5
1B9D
331
703F
  5
7186
331
7DE9
  5
7EB3
331
7CE2
  5
7DD0
331
7EB0
  5
7EB7
331
7DCA
  5
7DD3
331
7185
  5
734A
331
845E
  5
70F5
331
7DD2
  5
7DD9
331
7454
  5
7B27
331
754B
  5
702E
331
8258
  5
7029
331
745C
  5
7B33
331
1B73
  5
1B86
331
7DE2
  5
7DE9
331
7028
  5
7132
331
7030
  5
70DF
331
1B8B
  5
1B95
331
70DF
  5
7298
331
1B93
  5
1BA1
331
7DEA
  5
7EB4
331
7295
  5
745A
331
74F4
  5
7458
331
72AD
  5
745C
331
7EB1
  5
8248
331
7DD3
  5
7DDE
331
8249
  5
7031
331
7455
  5
7B26
331
754C
  5
702B
331
7029
  5
7172
331
7DE3
  5
7DEA
331
83F8
  5
842A
331
7B34
  5
1B90
331
1B84
  5
1B8E
331
7031
  5
7140
331
1B8C
  5
1B96
331
1B94
  5
1BA2
331
7296
  5
73F6
331
7CE4
  5
7DD1
331
7079
  5
7293
331
7EB2
  5
8249
331
73F6
  5
754D
331
7DD4
  5
7DDF
331
754D
  5
7183
331
702A
  5
7028
331
7DE4
  5
7EAE
331
1B85
  5
1B8F
331
7140
  5
72AC
331
7032
  5
7185
331
1B8D
  5
1B97
331
1B95
  5
1BA6
331
7B3D
  5
7DCE
331
7297
  5
7454
331
7CE5
  5
7452
331
7168
  5
72BB
331
6D9B
  5
1B7B
331
A0
  5
1B74
331
7180
  5
7168
331
7EB3
  5
824A
331
7DCD
  5
7DD4
331
83E2
  5
7078
331
7DD5
  5
7DE0
331
754E
  5
7180
331
68BC
  5
6E28
331
702B
  5
7030
331
7DE5
  5
7EAF
331
1B86
  5
1B91
331
1B8E
  5
1B98
331
1B96
  5
1BA7
331
8402
  5
845D
331
7298
  5
7469
331
842A
  5
845E
331
7D16
  5
7DD2
331
7102
  5
729C
331
7181
  5
7184
331
7EB4
  5
8258
331
7DCE
  5
7DD5
331
7507
  5
7CE2
331
7458
  5
7B32
331
7DDE
  5
7DE5
331
76AF
  5
7CE3
331
702C
  5
7133
331
7DE6
  5
7EB0
331
1B87
  5
1B92
331
1B8F
  5
1B99
331
1B97
  5
1BA8
331
7299
  5
73F7
331
8274
  5
83ED
331
7B4F
  5
7DCF
331
7172
  5
72EB
331
7EB5
  5
8267
331
7DCF
  5
7DD6
331
7548
  5
7086
331
7DD7
  5
7DE2
331
7133
  5
72AB
331
7DDF
  5
7DE6
331
702D
  5
717F
331
1B88
  5
1B93
331
7DE7
  5
7EB1
331
68D6
  5
6E31
331
1B90
  5
1B9B
331
7469
  5
7B34
331
729A
  5
7455
331
1B98
  5
37FF
  0
SORTENTSTABLE
  5
313F
102
{ACAD_REACTORS
330
313E
102
}
330
313E
100
AcDbSortentsTable
330
313C
  0
SORTENTSTABLE
  5
3849
102
{ACAD_REACTORS
330
3848
102
}
330
3848
100
AcDbSortentsTable
330
3846
  0
SORTENTSTABLE
  5
6B8A
102
{ACAD_REACTORS
330
6B89
102
}
330
6B89
100
AcDbSortentsTable
330
6B87
  0
SORTENTSTABLE
  5
6C03
102
{ACAD_REACTORS
330
6C02
102
}
330
6C02
100
AcDbSortentsTable
330
6C00
  0
XRECORD
  5
94A4
102
{ACAD_REACTORS
330
94A3
102
}
330
94A3
100
AcDbXrecord
280
     1
102
SHADEPLOT
 70
     0
  0
XRECORD
  5
94A6
102
{ACAD_REACTORS
330
94A5
102
}
330
94A5
100
AcDbXrecord
280
     1
102
SHADEPLOT
 70
     0
  0
LAYOUT
  5
22
102
{ACAD_XDICTIONARY
360
949F
102
}
102
{ACAD_REACTORS
330
1A
102
}
330
1A
100
AcDbPlotSettings
  1

  2
EPSON PM-800C
  4
A4
  6

 40
3.757083177566528
 41
14.7637300491333
 42
3.757080078125
 43
3.757080078125
 44
209.9733276367187
 45
296.9683227539062
 46
0.0
 47
0.0
 48
0.0
 49
0.0
140
0.0
141
0.0
142
1.0
143
10.0
 70
 11952
 72
     1
 73
     1
 74
     2
  7

 75
    20
147
0.1
148
0.0
149
0.0
100
AcDbLayout
  1
Model
 70
     1
 71
     0
 10
0.0
 20
0.0
 11
12.0
 21
9.0
 12
0.0
 22
0.0
 32
0.0
 14
0.0
 24
0.0
 34
0.0
 15
0.0
 25
0.0
 35
0.0
146
0.0
 13
0.0
 23
0.0
 33
0.0
 16
1.0
 26
0.0
 36
0.0
 17
0.0
 27
1.0
 37
0.0
 76
     0
330
1F
  0
LAYOUT
  5
1E
102
{ACAD_XDICTIONARY
360
949D
102
}
102
{ACAD_REACTORS
330
1A
102
}
330
1A
100
AcDbPlotSettings
  1

  2
EPSON PM-800C
  4
A4
  6

 40
3.757083177566528
 41
14.7637300491333
 42
3.757080078125
 43
3.757080078125
 44
209.9733276367187
 45
296.9683227539062
 46
0.0
 47
0.0
 48
0.0
 49
0.0
140
0.0
141
0.0
142
1.0
143
1.0
 70
   688
 72
     1
 73
     1
 74
     5
  7

 75
    16
147
1.0
148
0.0
149
0.0
100
AcDbLayout
  1
ﾚｲｱｳﾄ1
 70
     1
 71
     1
 10
-3.757080078125
 20
-3.757083177566528
 11
293.2112426757813
 21
206.2162444591522
 12
0.0
 22
0.0
 32
0.0
 14
27.8447512626648
 24
20.24591643810271
 34
0.0
 15
250.6027613639831
 25
182.2132479429245
 35
0.0
146
0.0
 13
0.0
 23
0.0
 33
0.0
 16
1.0
 26
0.0
 36
0.0
 17
0.0
 27
1.0
 37
0.0
 76
     0
330
1B
331
2E
  0
LAYOUT
  5
26
102
{ACAD_XDICTIONARY
360
94A1
102
}
102
{ACAD_REACTORS
330
1A
102
}
330
1A
100
AcDbPlotSettings
  1

  2
EPSON PM-800C
  4

  6

 40
0.0
 41
0.0
 42
0.0
 43
0.0
 44
0.0
 45
0.0
 46
0.0
 47
0.0
 48
0.0
 49
0.0
140
0.0
141
0.0
142
1.0
143
1.0
 70
   688
 72
     0
 73
     0
 74
     5
  7

 75
    16
147
1.0
148
0.0
149
0.0
100
AcDbLayout
  1
ﾚｲｱｳﾄ2
 70
     1
 71
     2
 10
0.0
 20
0.0
 11
12.0
 21
9.0
 12
0.0
 22
0.0
 32
0.0
 14
0.0
 24
0.0
 34
0.0
 15
0.0
 25
0.0
 35
0.0
146
0.0
 13
0.0
 23
0.0
 33
0.0
 16
1.0
 26
0.0
 36
0.0
 17
0.0
 27
1.0
 37
0.0
 76
     0
330
23
  0
MLINESTYLE
  5
18
102
{ACAD_REACTORS
330
17
102
}
330
17
100
AcDbMlineStyle
  2
STANDARD
 70
     0
  3

 62
   256
 51
90.0
 52
90.0
 71
     2
 49
0.5
 62
   256
  6
BYLAYER
 49
-0.5
 62
   256
  6
BYLAYER
  0
ACDBPLACEHOLDER
  5
F
102
{ACAD_REACTORS
330
E
102
}
330
E
  0
TABLESTYLE
  5
22AF
102
{ACAD_REACTORS
330
22AE
102
}
330
22AE
100
AcDbTableStyle
  3
Standard
 70
     0
 71
     0
 40
1.5
 41
1.5
280
     0
281
     0
  7
Standard
140
4.5
170
     2
 62
     0
 63
     7
283
     0
274
    -2
284
     1
 64
     0
275
    -2
285
     1
 65
     0
276
    -2
286
     1
 66
     0
277
    -2
287
     1
 67
     0
278
    -2
288
     1
 68
     0
279
    -2
289
     1
 69
     0
  7
Standard
140
6.0
170
     5
 62
     0
 63
     7
283
     0
274
    -2
284
     1
 64
     0
275
    -2
285
     1
 65
     0
276
    -2
286
     1
 66
     0
277
    -2
287
     1
 67
     0
278
    -2
288
     1
 68
     0
279
    -2
289
     1
 69
     0
  7
Standard
140
4.5
170
     5
 62
     0
 63
     7
283
     0
274
    -2
284
     1
 64
     0
275
    -2
285
     1
 65
     0
276
    -2
286
     1
 66
     0
277
    -2
287
     1
 67
     0
278
    -2
288
     1
 68
     0
279
    -2
289
     1
 69
     0
  0
DICTIONARYVAR
  5
22B5
102
{ACAD_REACTORS
330
1589
102
}
330
1589
100
DictionaryVariables
280
     0
  1
STANDARD
  0
DICTIONARYVAR
  5
9498
102
{ACAD_REACTORS
330
1589
102
}
330
1589
100
DictionaryVariables
280
     0
  1
1
  0
DICTIONARYVAR
  5
9499
102
{ACAD_REACTORS
330
1589
102
}
330
1589
100
DictionaryVariables
280
     0
  1

  0
DICTIONARYVAR
  5
158A
102
{ACAD_REACTORS
330
1589
102
}
330
1589
100
DictionaryVariables
280
     0
  1
96
  0
DICTIONARY
  5
949F
330
22
100
AcDbDictionary
280
     1
281
     1
  3
ACAD_XREC_ROUNDTRIP
360
94A0
  0
DICTIONARY
  5
949D
330
1E
100
AcDbDictionary
280
     1
281
     1
  3
ACAD_XREC_ROUNDTRIP
360
949E
  0
DICTIONARY
  5
94A1
330
26
100
AcDbDictionary
280
     1
281
     1
  3
ACAD_XREC_ROUNDTRIP
360
94A2
  0
XRECORD
  5
94A0
102
{ACAD_REACTORS
330
949F
102
}
330
949F
100
AcDbXrecord
280
     1
102
SHADEPLOT
 70
     0
102
SHADEPLOTRESLEVEL
 70
     2
102
SHADEPLOTCUSTOMDPI
 70
   300
  0
XRECORD
  5
949E
102
{ACAD_REACTORS
330
949D
102
}
330
949D
100
AcDbXrecord
280
     1
102
SHADEPLOT
 70
     0
102
SHADEPLOTRESLEVEL
 70
     2
102
SHADEPLOTCUSTOMDPI
 70
   300
  0
XRECORD
  5
94A2
102
{ACAD_REACTORS
330
94A1
102
}
330
94A1
100
AcDbXrecord
280
     1
102
SHADEPLOT
 70
     0
102
SHADEPLOTRESLEVEL
 70
     2
102
SHADEPLOTCUSTOMDPI
 70
   300
  0
ENDSEC
  0
EOF
