  0
SECTION
  2
HEADER
  9
$ACADVER
  1
AC1015
  9
$ACADMAINTVER
 70
    20
  9
$DWGCODEPAGE
  3
ANSI_932
  9
$INSBASE
 10
0.0
 20
0.0
 30
0.0
  9
$EXTMIN
 10
174.0
 20
3.99999999999909
 30
0.0
  9
$EXTMAX
 10
2834.0
 20
2024.000000000002
 30
0.0
  9
$LIMMIN
 10
54.0
 20
4.0
  9
$LIMMAX
 10
2834.0
 20
2024.0
  9
$ORTHOMODE
 70
     1
  9
$REGENMODE
 70
     1
  9
$FILLMODE
 70
     1
  9
$QTEXTMODE
 70
     0
  9
$MIRRTEXT
 70
     1
  9
$LTSCALE
 40
4.0
  9
$ATTMODE
 70
     1
  9
$TEXTSIZE
 40
30.0
  9
$TRACEWID
 40
1.0
  9
$TEXTSTYLE
  7
Standard
  9
$CLAYER
  8
実形
  9
$CELTYPE
  6
ByLayer
  9
$CECOLOR
 62
     3
  9
$CELTSCALE
 40
1.0
  9
$DISPSILH
 70
     0
  9
$DIMSCALE
 40
1.0
  9
$DIMASZ
 40
10.0
  9
$DIMEXO
 40
65.0
  9
$DIMDLI
 40
3.75
  9
$DIMRND
 40
0.0
  9
$DIMDLE
 40
0.0
  9
$DIMEXE
 40
0.0
  9
$DIMTP
 40
0.0
  9
$DIMTM
 40
0.0
  9
$DIMTXT
 40
30.0
  9
$DIMCEN
 40
2.5
  9
$DIMTSZ
 40
0.0
  9
$DIMTOL
 70
     0
  9
$DIMLIM
 70
     0
  9
$DIMTIH
 70
     0
  9
$DIMTOH
 70
     0
  9
$DIMSE1
 70
     0
  9
$DIMSE2
 70
     0
  9
$DIMTAD
 70
     1
  9
$DIMZIN
 70
     8
  9
$DIMBLK
  1
Dot
  9
$DIMASO
 70
     1
  9
$DIMSHO
 70
     1
  9
$DIMPOST
  1

  9
$DIMAPOST
  1

  9
$DIMALT
 70
     0
  9
$DIMALTD
 70
     3
  9
$DIMALTF
 40
0.03937007874016
  9
$DIMLFAC
 40
1.0
  9
$DIMTOFL
 70
     1
  9
$DIMTVP
 40
0.0
  9
$DIMTIX
 70
     0
  9
$DIMSOXD
 70
     0
  9
$DIMSAH
 70
     0
  9
$DIMBLK1
  1

  9
$DIMBLK2
  1

  9
$DIMSTYLE
  2
ISO-25
  9
$DIMCLRD
 70
     0
  9
$DIMCLRE
 70
     0
  9
$DIMCLRT
 70
     0
  9
$DIMTFAC
 40
1.0
  9
$DIMGAP
 40
6.599999999999998
  9
$DIMJUST
 70
     0
  9
$DIMSD1
 70
     0
  9
$DIMSD2
 70
     0
  9
$DIMTOLJ
 70
     0
  9
$DIMTZIN
 70
     8
  9
$DIMALTZ
 70
     0
  9
$DIMALTTZ
 70
     0
  9
$DIMUPT
 70
     0
  9
$DIMDEC
 70
     2
  9
$DIMTDEC
 70
     2
  9
$DIMALTU
 70
     2
  9
$DIMALTTD
 70
     3
  9
$DIMTXSTY
  7
Standard
  9
$DIMAUNIT
 70
     0
  9
$DIMADEC
 70
     0
  9
$DIMALTRND
 40
0.0
  9
$DIMAZIN
 70
     0
  9
$DIMDSEP
 70
    46
  9
$DIMATFIT
 70
     3
  9
$DIMFRAC
 70
     0
  9
$DIMLDRBLK
  1
Open30
  9
$DIMLUNIT
 70
     2
  9
$DIMLWD
 70
    18
  9
$DIMLWE
 70
    18
  9
$DIMTMOVE
 70
     2
  9
$LUNITS
 70
     2
  9
$LUPREC
 70
     2
  9
$SKETCHINC
 40
1.0
  9
$FILLETRAD
 40
6.0
  9
$AUNITS
 70
     0
  9
$AUPREC
 70
     0
  9
$MENU
  1
.
  9
$ELEVATION
 40
0.0
  9
$PELEVATION
 40
0.0
  9
$THICKNESS
 40
0.0
  9
$LIMCHECK
 70
     1
  9
$CHAMFERA
 40
10.0
  9
$CHAMFERB
 40
10.0
  9
$CHAMFERC
 40
20.0
  9
$CHAMFERD
 40
0.0
  9
$SKPOLY
 70
     0
  9
$TDCREATE
 40
2451673.575802199
  9
$TDUCREATE
 40
2451673.200802199
  9
$TDUPDATE
 40
2458809.742401539
  9
$TDUUPDATE
 40
2458809.367401539
  9
$TDINDWG
 40
2.6560975810
  9
$TDUSRTIMER
 40
2.6560968866
  9
$USRTIMER
 70
     1
  9
$ANGBASE
 50
0.0
  9
$ANGDIR
 70
     0
  9
$PDMODE
 70
     0
  9
$PDSIZE
 40
0.0
  9
$PLINEWID
 40
0.0
  9
$SPLFRAME
 70
     0
  9
$SPLINETYPE
 70
     6
  9
$SPLINESEGS
 70
     8
  9
$HANDSEED
  5
8DA5
  9
$SURFTAB1
 70
     6
  9
$SURFTAB2
 70
     6
  9
$SURFTYPE
 70
     6
  9
$SURFU
 70
     6
  9
$SURFV
 70
     6
  9
$UCSBASE
  2

  9
$UCSNAME
  2

  9
$UCSORG
 10
0.0
 20
0.0
 30
0.0
  9
$UCSXDIR
 10
1.0
 20
0.0
 30
0.0
  9
$UCSYDIR
 10
0.0
 20
1.0
 30
0.0
  9
$UCSORTHOREF
  2

  9
$UCSORTHOVIEW
 70
     0
  9
$UCSORGTOP
 10
0.0
 20
0.0
 30
0.0
  9
$UCSORGBOTTOM
 10
0.0
 20
0.0
 30
0.0
  9
$UCSORGLEFT
 10
0.0
 20
0.0
 30
0.0
  9
$UCSORGRIGHT
 10
0.0
 20
0.0
 30
0.0
  9
$UCSORGFRONT
 10
0.0
 20
0.0
 30
0.0
  9
$UCSORGBACK
 10
0.0
 20
0.0
 30
0.0
  9
$PUCSBASE
  2

  9
$PUCSNAME
  2

  9
$PUCSORG
 10
0.0
 20
0.0
 30
0.0
  9
$PUCSXDIR
 10
1.0
 20
0.0
 30
0.0
  9
$PUCSYDIR
 10
0.0
 20
1.0
 30
0.0
  9
$PUCSORTHOREF
  2

  9
$PUCSORTHOVIEW
 70
     0
  9
$PUCSORGTOP
 10
0.0
 20
0.0
 30
0.0
  9
$PUCSORGBOTTOM
 10
0.0
 20
0.0
 30
0.0
  9
$PUCSORGLEFT
 10
0.0
 20
0.0
 30
0.0
  9
$PUCSORGRIGHT
 10
0.0
 20
0.0
 30
0.0
  9
$PUCSORGFRONT
 10
0.0
 20
0.0
 30
0.0
  9
$PUCSORGBACK
 10
0.0
 20
0.0
 30
0.0
  9
$USERI1
 70
     0
  9
$USERI2
 70
     0
  9
$USERI3
 70
     0
  9
$USERI4
 70
     0
  9
$USERI5
 70
     0
  9
$USERR1
 40
0.0
  9
$USERR2
 40
0.0
  9
$USERR3
 40
0.0
  9
$USERR4
 40
0.0
  9
$USERR5
 40
0.0
  9
$WORLDVIEW
 70
     1
  9
$SHADEDGE
 70
     3
  9
$SHADEDIF
 70
    70
  9
$TILEMODE
 70
     1
  9
$MAXACTVP
 70
    64
  9
$PINSBASE
 10
0.0
 20
0.0
 30
0.0
  9
$PLIMCHECK
 70
     0
  9
$PEXTMIN
 10
27.8447512626648
 20
20.24591643810271
 30
0.0
  9
$PEXTMAX
 10
250.6027613639831
 20
182.2132479429245
 30
0.0
  9
$PLIMMIN
 10
-3.757080078125
 20
-3.757083177566528
  9
$PLIMMAX
 10
293.2112426757813
 20
206.2162444591522
  9
$UNITMODE
 70
     0
  9
$VISRETAIN
 70
     1
  9
$PLINEGEN
 70
     0
  9
$PSLTSCALE
 70
     1
  9
$TREEDEPTH
 70
  3020
  9
$CMLSTYLE
  2
Standard
  9
$CMLJUST
 70
     0
  9
$CMLSCALE
 40
20.0
  9
$PROXYGRAPHICS
 70
     1
  9
$MEASUREMENT
 70
     1
  9
$CELWEIGHT
370
    -1
  9
$ENDCAPS
280
     0
  9
$JOINSTYLE
280
     0
  9
$LWDISPLAY
290
     0
  9
$INSUNITS
 70
     4
  9
$HYPERLINKBASE
  1

  9
$STYLESHEET
  1

  9
$XEDIT
290
     1
  9
$CEPSNTYPE
380
     0
  9
$PSTYLEMODE
290
     1
  9
$FINGERPRINTGUID
  2
{C8EA1F16-24C9-11D4-9416-CE0A3B32152F}
  9
$VERSIONGUID
  2
{0A3238AD-B13C-466C-ACD0-82D445C20250}
  9
$EXTNAMES
290
     1
  9
$PSVPSCALE
 40
0.0
  9
$OLESTARTUP
290
     0
  0
ENDSEC
  0
SECTION
  2
CLASSES
  0
CLASS
  1
ACDBDICTIONARYWDFLT
  2
AcDbDictionaryWithDefault
  3
ObjectDBX Classes
 90
        0
280
     0
281
     0
  0
CLASS
  1
ACDBPLACEHOLDER
  2
AcDbPlaceHolder
  3
ObjectDBX Classes
 90
        0
280
     0
281
     0
  0
CLASS
  1
LAYOUT
  2
AcDbLayout
  3
ObjectDBX Classes
 90
        0
280
     0
281
     0
  0
CLASS
  1
DICTIONARYVAR
  2
AcDbDictionaryVar
  3
ObjectDBX Classes
 90
        0
280
     0
281
     0
  0
CLASS
  1
TABLESTYLE
  2
AcDbTableStyle
  3
ObjectDBX Classes
 90
     2047
280
     0
281
     0
  0
CLASS
  1
SORTENTSTABLE
  2
AcDbSortentsTable
  3
ObjectDBX Classes
 90
        0
280
     0
281
     0
  0
ENDSEC
  0
SECTION
  2
TABLES
  0
TABLE
  2
VPORT
  5
8
330
0
100
AcDbSymbolTable
 70
     2
  0
VPORT
  5
8D98
330
8
100
AcDbSymbolTableRecord
100
AcDbViewportTableRecord
  2
*Active
 70
     0
 10
0.0
 20
0.0
 11
1.0
 21
1.0
 12
1414.581537835044
 22
1052.410569016823
 13
0.0
 23
0.0
 14
10.0
 24
10.0
 15
10.0
 25
10.0
 16
0.0
 26
0.0
 36
1.0
 17
0.0
 27
0.0
 37
0.0
 40
2288.490980255208
 41
1.29038112522686
 42
50.0
 43
0.0
 44
0.0
 50
0.0
 51
0.0
 71
     0
 72
   100
 73
     1
 74
     3
 75
     0
 76
     0
 77
     0
 78
     0
281
     0
 65
     1
110
0.0
120
0.0
130
0.0
111
1.0
121
0.0
131
0.0
112
0.0
122
1.0
132
0.0
 79
     0
146
0.0
  0
ENDTAB
  0
TABLE
  2
LTYPE
  5
5
330
0
100
AcDbSymbolTable
 70
    46
  0
LTYPE
  5
14
330
5
100
AcDbSymbolTableRecord
100
AcDbLinetypeTableRecord
  2
ByBlock
 70
     0
  3

 72
    65
 73
     0
 40
0.0
  0
LTYPE
  5
15
330
5
100
AcDbSymbolTableRecord
100
AcDbLinetypeTableRecord
  2
ByLayer
 70
     0
  3

 72
    65
 73
     0
 40
0.0
  0
LTYPE
  5
16
330
5
100
AcDbSymbolTableRecord
100
AcDbLinetypeTableRecord
  2
Continuous
 70
     0
  3
Solid line
 72
    65
 73
     0
 40
0.0
  0
LTYPE
  5
34
330
5
100
AcDbSymbolTableRecord
100
AcDbLinetypeTableRecord
  2
ACAD_ISO02W100
 70
     0
  3
ISO dash __ __ __ __ __ __ __ __ __ __ __ __ __
 72
    65
 73
     2
 40
15.0
 49
12.0
 74
     0
 49
-3.0
 74
     0
  0
LTYPE
  5
35
330
5
100
AcDbSymbolTableRecord
100
AcDbLinetypeTableRecord
  2
ACAD_ISO03W100
 70
     0
  3
ISO dash space __    __    __    __    __    __
 72
    65
 73
     2
 40
30.0
 49
12.0
 74
     0
 49
-18.0
 74
     0
  0
LTYPE
  5
36
330
5
100
AcDbSymbolTableRecord
100
AcDbLinetypeTableRecord
  2
ACAD_ISO04W100
 70
     0
  3
ISO long-dash dot ____ . ____ . ____ . ____ . _
 72
    65
 73
     4
 40
30.0
 49
24.0
 74
     0
 49
-3.0
 74
     0
 49
0.0
 74
     0
 49
-3.0
 74
     0
  0
LTYPE
  5
37
330
5
100
AcDbSymbolTableRecord
100
AcDbLinetypeTableRecord
  2
ACAD_ISO05W100
 70
     0
  3
ISO long-dash double-dot ____ .. ____ .. ____ .
 72
    65
 73
     6
 40
34.0
 49
24.0
 74
     0
 49
-3.0
 74
     0
 49
0.5
 74
     0
 49
-3.0
 74
     0
 49
0.5
 74
     0
 49
-3.0
 74
     0
  0
LTYPE
  5
38
330
5
100
AcDbSymbolTableRecord
100
AcDbLinetypeTableRecord
  2
ACAD_ISO06W100
 70
     0
  3
ISO long-dash triple-dot ____ ... ____ ... ____
 72
    65
 73
     8
 40
37.5
 49
24.0
 74
     0
 49
-3.0
 74
     0
 49
0.5
 74
     0
 49
-3.0
 74
     0
 49
0.5
 74
     0
 49
-3.0
 74
     0
 49
0.5
 74
     0
 49
-3.0
 74
     0
  0
LTYPE
  5
39
330
5
100
AcDbSymbolTableRecord
100
AcDbLinetypeTableRecord
  2
ACAD_ISO07W100
 70
     0
  3
ISO dot . . . . . . . . . . . . . . . . . . . .
 72
    65
 73
     2
 40
3.0
 49
0.0
 74
     0
 49
-3.0
 74
     0
  0
LTYPE
  5
3A
330
5
100
AcDbSymbolTableRecord
100
AcDbLinetypeTableRecord
  2
ACAD_ISO08W100
 70
     0
  3
ISO long-dash short-dash ____ __ ____ __ ____ _
 72
    65
 73
     4
 40
36.0
 49
24.0
 74
     0
 49
-3.0
 74
     0
 49
6.0
 74
     0
 49
-3.0
 74
     0
  0
LTYPE
  5
3B
330
5
100
AcDbSymbolTableRecord
100
AcDbLinetypeTableRecord
  2
ACAD_ISO09W100
 70
     0
  3
ISO long-dash double-short-dash ____ __ __ ____
 72
    65
 73
     6
 40
45.0
 49
24.0
 74
     0
 49
-3.0
 74
     0
 49
6.0
 74
     0
 49
-3.0
 74
     0
 49
6.0
 74
     0
 49
-3.0
 74
     0
  0
LTYPE
  5
3C
330
5
100
AcDbSymbolTableRecord
100
AcDbLinetypeTableRecord
  2
ACAD_ISO10W100
 70
     0
  3
ISO dash dot __ . __ . __ . __ . __ . __ . __ .
 72
    65
 73
     4
 40
18.0
 49
12.0
 74
     0
 49
-3.0
 74
     0
 49
0.0
 74
     0
 49
-3.0
 74
     0
  0
LTYPE
  5
3D
330
5
100
AcDbSymbolTableRecord
100
AcDbLinetypeTableRecord
  2
ACAD_ISO11W100
 70
     0
  3
ISO double-dash dot __ __ . __ __ . __ __ . __ 
 72
    65
 73
     6
 40
33.0
 49
12.0
 74
     0
 49
-3.0
 74
     0
 49
12.0
 74
     0
 49
-3.0
 74
     0
 49
0.0
 74
     0
 49
-3.0
 74
     0
  0
LTYPE
  5
3E
330
5
100
AcDbSymbolTableRecord
100
AcDbLinetypeTableRecord
  2
ACAD_ISO12W100
 70
     0
  3
ISO dash double-dot __ . . __ . . __ . . __ . .
 72
    65
 73
     6
 40
21.0
 49
12.0
 74
     0
 49
-3.0
 74
     0
 49
0.0
 74
     0
 49
-3.0
 74
     0
 49
0.0
 74
     0
 49
-3.0
 74
     0
  0
LTYPE
  5
3F
330
5
100
AcDbSymbolTableRecord
100
AcDbLinetypeTableRecord
  2
ACAD_ISO13W100
 70
     0
  3
ISO double-dash double-dot __ __ . . __ __ . . 
 72
    65
 73
     8
 40
36.0
 49
12.0
 74
     0
 49
-3.0
 74
     0
 49
12.0
 74
     0
 49
-3.0
 74
     0
 49
0.0
 74
     0
 49
-3.0
 74
     0
 49
0.0
 74
     0
 49
-3.0
 74
     0
  0
LTYPE
  5
40
330
5
100
AcDbSymbolTableRecord
100
AcDbLinetypeTableRecord
  2
ACAD_ISO14W100
 70
     0
  3
ISO dash triple-dot __ . . . __ . . . __ . . . 
 72
    65
 73
     8
 40
24.0
 49
12.0
 74
     0
 49
-3.0
 74
     0
 49
0.0
 74
     0
 49
-3.0
 74
     0
 49
0.0
 74
     0
 49
-3.0
 74
     0
 49
0.0
 74
     0
 49
-3.0
 74
     0
  0
LTYPE
  5
41
330
5
100
AcDbSymbolTableRecord
100
AcDbLinetypeTableRecord
  2
ACAD_ISO15W100
 70
     0
  3
ISO double-dash triple-dot __ __ . . . __ __ . 
 72
    65
 73
    10
 40
39.0
 49
12.0
 74
     0
 49
-3.0
 74
     0
 49
12.0
 74
     0
 49
-3.0
 74
     0
 49
0.0
 74
     0
 49
-3.0
 74
     0
 49
0.0
 74
     0
 49
-3.0
 74
     0
 49
0.0
 74
     0
 49
-3.0
 74
     0
  0
LTYPE
  5
42
330
5
100
AcDbSymbolTableRecord
100
AcDbLinetypeTableRecord
  2
BATTING
 70
     0
  3
Batting SSSSSSSSSSSSSSSSSSSSSSSSSSSSSSSSSSSSSSS
 72
    65
 73
     4
 40
10.16254
 49
0.00254
 74
     0
 49
-2.54
 74
     4
 75
   134
340
33
 46
2.54
 50
0.0
 44
-2.54
 45
0.0
 49
-5.08
 74
     4
 75
   134
340
33
 46
2.54
 50
180.0
 44
2.54
 45
0.0
 49
-2.54
 74
     0
  0
LTYPE
  5
43
330
5
100
AcDbSymbolTableRecord
100
AcDbLinetypeTableRecord
  2
BORDER
 70
     0
  3
Border __ __ . __ __ . __ __ . __ __ . __ __ .
 72
    65
 73
     6
 40
44.45
 49
12.7
 74
     0
 49
-6.349999999999999
 74
     0
 49
12.7
 74
     0
 49
-6.349999999999999
 74
     0
 49
0.0
 74
     0
 49
-6.349999999999999
 74
     0
  0
LTYPE
  5
44
330
5
100
AcDbSymbolTableRecord
100
AcDbLinetypeTableRecord
  2
BORDER2
 70
     0
  3
Border (.5x) __.__.__.__.__.__.__.__.__.__.__.
 72
    65
 73
     6
 40
22.225
 49
6.349999999999999
 74
     0
 49
-3.174999999999999
 74
     0
 49
6.349999999999999
 74
     0
 49
-3.174999999999999
 74
     0
 49
0.0
 74
     0
 49
-3.174999999999999
 74
     0
  0
LTYPE
  5
45
330
5
100
AcDbSymbolTableRecord
100
AcDbLinetypeTableRecord
  2
BORDERX2
 70
     0
  3
Border (2x) ____  ____  .  ____  ____  .  ___
 72
    65
 73
     6
 40
88.9
 49
25.4
 74
     0
 49
-12.7
 74
     0
 49
25.4
 74
     0
 49
-12.7
 74
     0
 49
0.0
 74
     0
 49
-12.7
 74
     0
  0
LTYPE
  5
46
330
5
100
AcDbSymbolTableRecord
100
AcDbLinetypeTableRecord
  2
CENTER
 70
     0
  3
Center ____ _ ____ _ ____ _ ____ _ ____ _ ____
 72
    65
 73
     4
 40
50.8
 49
31.75
 74
     0
 49
-6.349999999999999
 74
     0
 49
6.349999999999999
 74
     0
 49
-6.349999999999999
 74
     0
  0
LTYPE
  5
47
330
5
100
AcDbSymbolTableRecord
100
AcDbLinetypeTableRecord
  2
CENTER2
 70
     0
  3
Center (.5x) ___ _ ___ _ ___ _ ___ _ ___ _ ___
 72
    65
 73
     4
 40
28.575
 49
19.05
 74
     0
 49
-3.174999999999999
 74
     0
 49
3.174999999999999
 74
     0
 49
-3.174999999999999
 74
     0
  0
LTYPE
  5
48
330
5
100
AcDbSymbolTableRecord
100
AcDbLinetypeTableRecord
  2
CENTERX2
 70
     0
  3
Center (2x) ________  __  ________  __  _____
 72
    65
 73
     4
 40
101.6
 49
63.5
 74
     0
 49
-12.7
 74
     0
 49
12.7
 74
     0
 49
-12.7
 74
     0
  0
LTYPE
  5
49
330
5
100
AcDbSymbolTableRecord
100
AcDbLinetypeTableRecord
  2
DASHDOT
 70
     0
  3
Dash dot __ . __ . __ . __ . __ . __ . __ . __
 72
    65
 73
     4
 40
25.4
 49
12.7
 74
     0
 49
-6.349999999999999
 74
     0
 49
0.0
 74
     0
 49
-6.349999999999999
 74
     0
  0
LTYPE
  5
4A
330
5
100
AcDbSymbolTableRecord
100
AcDbLinetypeTableRecord
  2
DASHDOT2
 70
     0
  3
Dash dot (.5x) _._._._._._._._._._._._._._._.
 72
    65
 73
     4
 40
12.7
 49
6.349999999999999
 74
     0
 49
-3.174999999999999
 74
     0
 49
0.0
 74
     0
 49
-3.174999999999999
 74
     0
  0
LTYPE
  5
4B
330
5
100
AcDbSymbolTableRecord
100
AcDbLinetypeTableRecord
  2
DASHDOTX2
 70
     0
  3
Dash dot (2x) ____  .  ____  .  ____  .  ___
 72
    65
 73
     4
 40
50.8
 49
25.4
 74
     0
 49
-12.7
 74
     0
 49
0.0
 74
     0
 49
-12.7
 74
     0
  0
LTYPE
  5
4C
330
5
100
AcDbSymbolTableRecord
100
AcDbLinetypeTableRecord
  2
DASHED
 70
     0
  3
Dashed __ __ __ __ __ __ __ __ __ __ __ __ __ _
 72
    65
 73
     2
 40
19.05
 49
12.7
 74
     0
 49
-6.349999999999999
 74
     0
  0
LTYPE
  5
4D
330
5
100
AcDbSymbolTableRecord
100
AcDbLinetypeTableRecord
  2
DASHED2
 70
     0
  3
Dashed (.5x) _ _ _ _ _ _ _ _ _ _ _ _ _ _ _ _ _
 72
    65
 73
     2
 40
9.524999999999998
 49
6.349999999999999
 74
     0
 49
-3.174999999999999
 74
     0
  0
LTYPE
  5
4E
330
5
100
AcDbSymbolTableRecord
100
AcDbLinetypeTableRecord
  2
DASHEDX2
 70
     0
  3
Dashed (2x) ____  ____  ____  ____  ____  ___
 72
    65
 73
     2
 40
38.1
 49
25.4
 74
     0
 49
-12.7
 74
     0
  0
LTYPE
  5
4F
330
5
100
AcDbSymbolTableRecord
100
AcDbLinetypeTableRecord
  2
DIVIDE
 70
     0
  3
Divide ____ . . ____ . . ____ . . ____ . . ____
 72
    65
 73
     6
 40
31.75
 49
12.7
 74
     0
 49
-6.349999999999999
 74
     0
 49
0.0
 74
     0
 49
-6.349999999999999
 74
     0
 49
0.0
 74
     0
 49
-6.349999999999999
 74
     0
  0
LTYPE
  5
50
330
5
100
AcDbSymbolTableRecord
100
AcDbLinetypeTableRecord
  2
DIVIDE2
 70
     0
  3
Divide (.5x) __..__..__..__..__..__..__..__.._
 72
    65
 73
     6
 40
15.875
 49
6.349999999999999
 74
     0
 49
-3.174999999999999
 74
     0
 49
0.0
 74
     0
 49
-3.174999999999999
 74
     0
 49
0.0
 74
     0
 49
-3.174999999999999
 74
     0
  0
LTYPE
  5
51
330
5
100
AcDbSymbolTableRecord
100
AcDbLinetypeTableRecord
  2
DIVIDEX2
 70
     0
  3
Divide (2x) ________  .  .  ________  .  .  _
 72
    65
 73
     6
 40
63.49999999999999
 49
25.4
 74
     0
 49
-12.7
 74
     0
 49
0.0
 74
     0
 49
-12.7
 74
     0
 49
0.0
 74
     0
 49
-12.7
 74
     0
  0
LTYPE
  5
52
330
5
100
AcDbSymbolTableRecord
100
AcDbLinetypeTableRecord
  2
DOT
 70
     0
  3
Dot . . . . . . . . . . . . . . . . . . . . . .
 72
    65
 73
     2
 40
6.349999999999999
 49
0.0
 74
     0
 49
-6.349999999999999
 74
     0
  0
LTYPE
  5
53
330
5
100
AcDbSymbolTableRecord
100
AcDbLinetypeTableRecord
  2
DOT2
 70
     0
  3
Dot (.5x) .....................................
 72
    65
 73
     2
 40
3.174999999999999
 49
0.0
 74
     0
 49
-3.174999999999999
 74
     0
  0
LTYPE
  5
54
330
5
100
AcDbSymbolTableRecord
100
AcDbLinetypeTableRecord
  2
DOTX2
 70
     0
  3
Dot (2x) .  .  .  .  .  .  .  .  .  .  .  .  . 
 72
    65
 73
     2
 40
12.7
 49
0.0
 74
     0
 49
-12.7
 74
     0
  0
LTYPE
  5
55
330
5
100
AcDbSymbolTableRecord
100
AcDbLinetypeTableRecord
  2
FENCELINE1
 70
     0
  3
Fenceline circle ----0-----0----0-----0----0---
 72
    65
 73
     4
 40
36.83
 49
6.349999999999999
 74
     0
 49
-2.54
 74
     4
 75
   133
340
33
 46
2.54
 50
0.0
 44
-2.54
 45
0.0
 49
-2.54
 74
     0
 49
25.4
 74
     0
  0
LTYPE
  5
56
330
5
100
AcDbSymbolTableRecord
100
AcDbLinetypeTableRecord
  2
FENCELINE2
 70
     0
  3
Fenceline square ----[]-----[]----[]-----[]----
 72
    65
 73
     4
 40
36.83
 49
6.349999999999999
 74
     0
 49
-2.54
 74
     4
 75
   132
340
33
 46
2.54
 50
0.0
 44
-2.54
 45
0.0
 49
-2.54
 74
     0
 49
25.4
 74
     0
  0
LTYPE
  5
57
330
5
100
AcDbSymbolTableRecord
100
AcDbLinetypeTableRecord
  2
GAS_LINE
 70
     0
  3
Gas line ----GAS----GAS----GAS----GAS----GAS---
 72
    65
 73
     3
 40
24.13
 49
12.7
 74
     0
 49
-5.08
 74
     2
 75
     0
340
11
 46
2.54
 50
0.0
 44
-2.54
 45
-1.27
  9
GAS
 49
-6.349999999999999
 74
     0
  0
LTYPE
  5
58
330
5
100
AcDbSymbolTableRecord
100
AcDbLinetypeTableRecord
  2
HIDDEN
 70
     0
  3
Hidden __ __ __ __ __ __ __ __ __ __ __ __ __ _
 72
    65
 73
     2
 40
9.524999999999998
 49
6.349999999999999
 74
     0
 49
-3.174999999999999
 74
     0
  0
LTYPE
  5
59
330
5
100
AcDbSymbolTableRecord
100
AcDbLinetypeTableRecord
  2
HIDDEN2
 70
     0
  3
Hidden (.5x) _ _ _ _ _ _ _ _ _ _ _ _ _ _ _ _ _
 72
    65
 73
     2
 40
4.762499999999999
 49
3.174999999999999
 74
     0
 49
-1.587499999999999
 74
     0
  0
LTYPE
  5
5A
330
5
100
AcDbSymbolTableRecord
100
AcDbLinetypeTableRecord
  2
HIDDENX2
 70
     0
  3
Hidden (2x) ____ ____ ____ ____ ____ ____ ____
 72
    65
 73
     2
 40
19.05
 49
12.7
 74
     0
 49
-6.349999999999999
 74
     0
  0
LTYPE
  5
5B
330
5
100
AcDbSymbolTableRecord
100
AcDbLinetypeTableRecord
  2
HOT_WATER_SUPPLY
 70
     0
  3
Hot water supply ---- HW ---- HW ---- HW ----
 72
    65
 73
     3
 40
22.86
 49
12.7
 74
     0
 49
-5.08
 74
     2
 75
     0
340
11
 46
2.54
 50
0.0
 44
-2.54
 45
-1.27
  9
HW
 49
-5.08
 74
     0
  0
LTYPE
  5
5C
330
5
100
AcDbSymbolTableRecord
100
AcDbLinetypeTableRecord
  2
PHANTOM
 70
     0
  3
Phantom ______  __  __  ______  __  __  ______
 72
    65
 73
     6
 40
63.5
 49
31.75
 74
     0
 49
-6.349999999999999
 74
     0
 49
6.349999999999999
 74
     0
 49
-6.349999999999999
 74
     0
 49
6.349999999999999
 74
     0
 49
-6.349999999999999
 74
     0
  0
LTYPE
  5
5D
330
5
100
AcDbSymbolTableRecord
100
AcDbLinetypeTableRecord
  2
PHANTOM2
 70
     0
  3
Phantom (.5x) ___ _ _ ___ _ _ ___ _ _ ___ _ _
 72
    65
 73
     6
 40
31.75
 49
15.875
 74
     0
 49
-3.174999999999999
 74
     0
 49
3.174999999999999
 74
     0
 49
-3.174999999999999
 74
     0
 49
3.174999999999999
 74
     0
 49
-3.174999999999999
 74
     0
  0
LTYPE
  5
5E
330
5
100
AcDbSymbolTableRecord
100
AcDbLinetypeTableRecord
  2
PHANTOMX2
 70
     0
  3
Phantom (2x) ____________    ____    ____   _
 72
    65
 73
     6
 40
127.0
 49
63.5
 74
     0
 49
-12.7
 74
     0
 49
12.7
 74
     0
 49
-12.7
 74
     0
 49
12.7
 74
     0
 49
-12.7
 74
     0
  0
LTYPE
  5
5F
330
5
100
AcDbSymbolTableRecord
100
AcDbLinetypeTableRecord
  2
TRACKS
 70
     0
  3
Tracks -|-|-|-|-|-|-|-|-|-|-|-|-|-|-|-|-|-|-|-|
 72
    65
 73
     2
 40
7.62
 49
3.81
 74
     4
 75
   130
340
33
 46
6.349999999999999
 50
0.0
 44
0.0
 45
0.0
 49
3.81
 74
     0
  0
LTYPE
  5
60
330
5
100
AcDbSymbolTableRecord
100
AcDbLinetypeTableRecord
  2
ZIGZAG
 70
     0
  3
Zig zag /\/\/\/\/\/\/\/\/\/\/\/\/\/\/\/\/\/\/\/
 72
    65
 73
     4
 40
20.32254
 49
0.00254
 74
     0
 49
-5.08
 74
     4
 75
   131
340
33
 46
5.08
 50
0.0
 44
-5.08
 45
0.0
 49
-10.16
 74
     4
 75
   131
340
33
 46
5.08
 50
180.0
 44
5.08
 45
0.0
 49
-5.08
 74
     0
  0
ENDTAB
  0
TABLE
  2
LAYER
  5
2
102
{ACAD_XDICTIONARY
360
24C4
102
}
330
0
100
AcDbSymbolTable
 70
     9
  0
LAYER
  5
10
330
2
100
AcDbSymbolTableRecord
100
AcDbLayerTableRecord
  2
0
 70
     0
 62
     7
  6
Continuous
290
     0
370
    -3
390
F
  0
LAYER
  5
C3
330
2
100
AcDbSymbolTableRecord
100
AcDbLayerTableRecord
  2
Defpoints
 70
     0
 62
     7
  6
Continuous
290
     0
370
    -3
390
F
  0
LAYER
  5
256
330
2
100
AcDbSymbolTableRecord
100
AcDbLayerTableRecord
  2
センター
 70
     0
 62
     7
  6
CENTER2
370
    18
390
F
  0
LAYER
  5
268
330
2
100
AcDbSymbolTableRecord
100
AcDbLayerTableRecord
  2
実形
 70
     0
 62
     7
  6
Continuous
370
    -3
390
F
  0
LAYER
  5
269
330
2
100
AcDbSymbolTableRecord
100
AcDbLayerTableRecord
  2
補助
 70
     0
 62
     4
  6
Continuous
370
    -3
390
F
  0
LAYER
  5
26A
330
2
100
AcDbSymbolTableRecord
100
AcDbLayerTableRecord
  2
寸法
 70
     0
 62
     7
  6
Continuous
370
    18
390
F
  0
LAYER
  5
26B
330
2
100
AcDbSymbolTableRecord
100
AcDbLayerTableRecord
  2
ハッチング
 70
     0
 62
     7
  6
Continuous
370
    18
390
F
  0
LAYER
  5
26D
330
2
100
AcDbSymbolTableRecord
100
AcDbLayerTableRecord
  2
枠
 70
     0
 62
     7
  6
Continuous
370
    -3
390
F
  0
LAYER
  5
1B3D
330
2
100
AcDbSymbolTableRecord
100
AcDbLayerTableRecord
  2
Cen
 70
     0
 62
     7
  6
CENTER2
290
     0
370
    15
390
F
  0
ENDTAB
  0
TABLE
  2
STYLE
  5
3
330
0
100
AcDbSymbolTable
 70
     4
  0
STYLE
  5
11
330
3
100
AcDbSymbolTableRecord
100
AcDbTextStyleTableRecord
  2
Standard
 70
     0
 40
0.0
 41
1.0
 50
0.0
 71
     0
 42
30.0
  3
txt.shx
  4
bigfont.shx
  0
STYLE
  5
33
330
3
100
AcDbSymbolTableRecord
100
AcDbTextStyleTableRecord
  2

 70
     1
 40
0.0
 41
1.0
 50
0.0
 71
     0
 42
2.5
  3
ltypeshp.shx
  4

  0
STYLE
  5
35E2
330
3
100
AcDbSymbolTableRecord
100
AcDbTextStyleTableRecord
  2
ms明朝
 70
     0
 40
0.0
 41
1.0
 50
0.0
 71
     0
 42
25.0
  3
MS Mincho.ttf
  4

1001
ACAD
1000
MS Mincho
1071
    32785
  0
STYLE
  5
8D5A
330
3
100
AcDbSymbolTableRecord
100
AcDbTextStyleTableRecord
  2
明朝
 70
     0
 40
0.0
 41
1.0
 50
0.0
 71
     0
 42
25.0
  3
MS Mincho.ttf
  4

1001
ACAD
1000
MS Mincho
1071
    32785
  0
ENDTAB
  0
TABLE
  2
VIEW
  5
6
330
0
100
AcDbSymbolTable
 70
     0
  0
ENDTAB
  0
TABLE
  2
UCS
  5
7
330
0
100
AcDbSymbolTable
 70
     0
  0
ENDTAB
  0
TABLE
  2
APPID
  5
9
330
0
100
AcDbSymbolTable
 70
     2
  0
APPID
  5
12
330
9
100
AcDbSymbolTableRecord
100
AcDbRegAppTableRecord
  2
ACAD
 70
     0
  0
APPID
  5
24C3
330
9
100
AcDbSymbolTableRecord
100
AcDbRegAppTableRecord
  2
ACAD_PSEXT
 70
     0
  0
ENDTAB
  0
TABLE
  2
DIMSTYLE
  5
A
330
0
100
AcDbSymbolTable
 70
     1
100
AcDbDimStyleTable
 71
     1
340
27
  0
DIMSTYLE
105
27
102
{ACAD_REACTORS
330
7032
330
703F
330
7079
330
7086
330
70DF
330
70F5
330
7102
330
7133
330
7140
330
7172
330
719C
330
745C
330
7469
330
7DD3
330
7DD4
330
7DE4
330
7DE5
330
7DE6
330
7DE7
330
7DE8
330
7DE9
330
7DEA
330
8267
330
8274
330
8402
330
842A
330
8513
330
8529
330
861C
330
89A1
330
89C0
330
89DF
330
8C3C
330
8C3D
330
8C3E
330
8C3F
330
8C40
330
8C41
330
8C42
102
}
330
A
100
AcDbSymbolTableRecord
100
AcDbDimStyleTableRecord
  2
ISO-25
 70
     0
 41
35.0
 42
65.0
 43
3.75
 44
0.0
 73
     0
 74
     0
 77
     1
 78
     8
140
25.0
141
2.5
143
0.03937007874016
147
6.25
171
     3
172
     1
271
     2
272
     2
274
     3
283
     0
284
     8
340
11
341
DA
342
D0
371
    15
372
    15
  0
ENDTAB
  0
TABLE
  2
BLOCK_RECORD
  5
1
330
0
100
AcDbSymbolTable
 70
    49
  0
BLOCK_RECORD
  5
1F
102
{ACAD_XDICTIONARY
360
2396
102
}
330
1
100
AcDbSymbolTableRecord
100
AcDbBlockTableRecord
  2
*Model_Space
340
22
  0
BLOCK_RECORD
  5
1B
330
1
100
AcDbSymbolTableRecord
100
AcDbBlockTableRecord
  2
*Paper_Space
340
1E
  0
BLOCK_RECORD
  5
23
330
1
100
AcDbSymbolTableRecord
100
AcDbBlockTableRecord
  2
*Paper_Space0
340
26
  0
BLOCK_RECORD
  5
D0
330
1
100
AcDbSymbolTableRecord
100
AcDbBlockTableRecord
  2
_DotSmall
340
0
  0
BLOCK_RECORD
  5
D4
330
1
100
AcDbSymbolTableRecord
100
AcDbBlockTableRecord
  2
_Origin2
340
0
  0
BLOCK_RECORD
  5
DA
330
1
100
AcDbSymbolTableRecord
100
AcDbBlockTableRecord
  2
_Open30
340
0
  0
BLOCK_RECORD
  5
2D6
330
1
100
AcDbSymbolTableRecord
100
AcDbBlockTableRecord
  2
A$C6CAC4411
340
0
  0
BLOCK_RECORD
  5
30D
330
1
100
AcDbSymbolTableRecord
100
AcDbBlockTableRecord
  2
_Dot
340
0
102
{BLKREFS
331
8A58
331
8A59
331
8A62
331
8A63
331
8A6A
331
8A6B
331
8A7D
331
8A7E
331
8A85
331
8A86
331
8A8E
331
8A8F
331
8A98
331
8A99
331
8AA1
331
8AA2
331
8AA9
331
8AAA
331
8AB2
331
8AB3
331
8ABC
331
8ABD
331
8AD7
331
8AD8
331
8ADF
331
8AE0
331
8AF1
331
8AF2
331
8B03
331
8B04
331
8B0D
331
8B0E
331
8B16
331
8B17
331
8B1E
331
8B1F
331
8B28
331
8B29
331
8B30
331
8B31
331
8B3A
331
8B3B
331
8B43
331
8B44
331
8B4C
331
8B4D
331
8B55
331
8B56
331
8B5D
331
8B5E
331
8B67
331
8B68
331
8B70
331
8B71
331
8B78
331
8B79
331
8B81
331
8B82
331
8B8A
331
8B8B
331
8C9B
331
8C9C
331
8CA3
331
8CA4
331
8CAD
331
8CAE
331
8CB6
331
8CB7
331
8CBE
331
8CBF
331
8CC8
331
8CC9
331
8CD1
331
8CD2
331
8D23
331
8D24
331
8D2C
331
8D2D
102
}
  0
BLOCK_RECORD
  5
313C
102
{ACAD_XDICTIONARY
360
313E
102
}
330
1
100
AcDbSymbolTableRecord
100
AcDbBlockTableRecord
  2
A$C6850087C
340
0
  0
BLOCK_RECORD
  5
3846
102
{ACAD_XDICTIONARY
360
3848
102
}
330
1
100
AcDbSymbolTableRecord
100
AcDbBlockTableRecord
  2
A$C71387EE1
340
0
  0
BLOCK_RECORD
  5
6B87
102
{ACAD_XDICTIONARY
360
6B89
102
}
330
1
100
AcDbSymbolTableRecord
100
AcDbBlockTableRecord
  2
A$C47AF373A
340
0
  0
BLOCK_RECORD
  5
6C00
102
{ACAD_XDICTIONARY
360
6C02
102
}
330
1
100
AcDbSymbolTableRecord
100
AcDbBlockTableRecord
  2
A$C2B9560D8
340
0
  0
BLOCK_RECORD
  5
7033
330
1
100
AcDbSymbolTableRecord
100
AcDbBlockTableRecord
  2
*D10
340
0
  0
BLOCK_RECORD
  5
7040
330
1
100
AcDbSymbolTableRecord
100
AcDbBlockTableRecord
  2
*D11
340
0
  0
BLOCK_RECORD
  5
707A
330
1
100
AcDbSymbolTableRecord
100
AcDbBlockTableRecord
  2
*D12
340
0
  0
BLOCK_RECORD
  5
7087
330
1
100
AcDbSymbolTableRecord
100
AcDbBlockTableRecord
  2
*D13
340
0
  0
BLOCK_RECORD
  5
70E0
330
1
100
AcDbSymbolTableRecord
100
AcDbBlockTableRecord
  2
*D14
340
0
  0
BLOCK_RECORD
  5
70F6
330
1
100
AcDbSymbolTableRecord
100
AcDbBlockTableRecord
  2
*D15
340
0
  0
BLOCK_RECORD
  5
7103
330
1
100
AcDbSymbolTableRecord
100
AcDbBlockTableRecord
  2
*D16
340
0
  0
BLOCK_RECORD
  5
7134
330
1
100
AcDbSymbolTableRecord
100
AcDbBlockTableRecord
  2
*D17
340
0
  0
BLOCK_RECORD
  5
7141
330
1
100
AcDbSymbolTableRecord
100
AcDbBlockTableRecord
  2
*D18
340
0
  0
BLOCK_RECORD
  5
7173
330
1
100
AcDbSymbolTableRecord
100
AcDbBlockTableRecord
  2
*D19
340
0
  0
BLOCK_RECORD
  5
719D
330
1
100
AcDbSymbolTableRecord
100
AcDbBlockTableRecord
  2
*D20
340
0
  0
BLOCK_RECORD
  5
745D
330
1
100
AcDbSymbolTableRecord
100
AcDbBlockTableRecord
  2
*D21
340
0
  0
BLOCK_RECORD
  5
746A
330
1
100
AcDbSymbolTableRecord
100
AcDbBlockTableRecord
  2
*D22
340
0
  0
BLOCK_RECORD
  5
7DEB
330
1
100
AcDbSymbolTableRecord
100
AcDbBlockTableRecord
  2
*D23
340
0
  0
BLOCK_RECORD
  5
7DF7
330
1
100
AcDbSymbolTableRecord
100
AcDbBlockTableRecord
  2
*D24
340
0
  0
BLOCK_RECORD
  5
7E03
330
1
100
AcDbSymbolTableRecord
100
AcDbBlockTableRecord
  2
*D25
340
0
  0
BLOCK_RECORD
  5
7E0F
330
1
100
AcDbSymbolTableRecord
100
AcDbBlockTableRecord
  2
*D26
340
0
  0
BLOCK_RECORD
  5
7E1B
330
1
100
AcDbSymbolTableRecord
100
AcDbBlockTableRecord
  2
*D27
340
0
  0
BLOCK_RECORD
  5
7E27
330
1
100
AcDbSymbolTableRecord
100
AcDbBlockTableRecord
  2
*D28
340
0
  0
BLOCK_RECORD
  5
7E33
330
1
100
AcDbSymbolTableRecord
100
AcDbBlockTableRecord
  2
*D29
340
0
  0
BLOCK_RECORD
  5
7E3F
330
1
100
AcDbSymbolTableRecord
100
AcDbBlockTableRecord
  2
*D30
340
0
  0
BLOCK_RECORD
  5
7E4B
330
1
100
AcDbSymbolTableRecord
100
AcDbBlockTableRecord
  2
*D31
340
0
  0
BLOCK_RECORD
  5
8268
330
1
100
AcDbSymbolTableRecord
100
AcDbBlockTableRecord
  2
*D32
340
0
  0
BLOCK_RECORD
  5
8275
330
1
100
AcDbSymbolTableRecord
100
AcDbBlockTableRecord
  2
*D33
340
0
  0
BLOCK_RECORD
  5
8403
330
1
100
AcDbSymbolTableRecord
100
AcDbBlockTableRecord
  2
*D34
340
0
  0
BLOCK_RECORD
  5
842B
330
1
100
AcDbSymbolTableRecord
100
AcDbBlockTableRecord
  2
*D35
340
0
  0
BLOCK_RECORD
  5
8514
330
1
100
AcDbSymbolTableRecord
100
AcDbBlockTableRecord
  2
*D36
340
0
  0
BLOCK_RECORD
  5
852A
330
1
100
AcDbSymbolTableRecord
100
AcDbBlockTableRecord
  2
*D37
340
0
  0
BLOCK_RECORD
  5
861D
330
1
100
AcDbSymbolTableRecord
100
AcDbBlockTableRecord
  2
*D38
340
0
  0
BLOCK_RECORD
  5
89A2
330
1
100
AcDbSymbolTableRecord
100
AcDbBlockTableRecord
  2
*D39
340
0
  0
BLOCK_RECORD
  5
89C1
330
1
100
AcDbSymbolTableRecord
100
AcDbBlockTableRecord
  2
*D40
340
0
  0
BLOCK_RECORD
  5
89E0
330
1
100
AcDbSymbolTableRecord
100
AcDbBlockTableRecord
  2
*D41
340
0
  0
BLOCK_RECORD
  5
8C43
330
1
100
AcDbSymbolTableRecord
100
AcDbBlockTableRecord
  2
*D42
340
0
  0
BLOCK_RECORD
  5
8C4F
330
1
100
AcDbSymbolTableRecord
100
AcDbBlockTableRecord
  2
*D43
340
0
  0
BLOCK_RECORD
  5
8C5B
330
1
100
AcDbSymbolTableRecord
100
AcDbBlockTableRecord
  2
*D44
340
0
  0
BLOCK_RECORD
  5
8C67
330
1
100
AcDbSymbolTableRecord
100
AcDbBlockTableRecord
  2
*D45
340
0
  0
BLOCK_RECORD
  5
8C73
330
1
100
AcDbSymbolTableRecord
100
AcDbBlockTableRecord
  2
*D46
340
0
  0
BLOCK_RECORD
  5
8C7F
330
1
100
AcDbSymbolTableRecord
100
AcDbBlockTableRecord
  2
*D47
340
0
  0
BLOCK_RECORD
  5
8C8B
330
1
100
AcDbSymbolTableRecord
100
AcDbBlockTableRecord
  2
*D48
340
0
  0
ENDTAB
  0
ENDSEC
  0
SECTION
  2
BLOCKS
  0
BLOCK
  5
20
330
1F
100
AcDbEntity
  8
0
100
AcDbBlockBegin
  2
*Model_Space
 70
     0
 10
0.0
 20
0.0
 30
0.0
  3
*Model_Space
  1

  0
ENDBLK
  5
21
330
1F
100
AcDbEntity
  8
0
100
AcDbBlockEnd
  0
BLOCK
  5
1C
330
1B
100
AcDbEntity
 67
     1
  8
0
100
AcDbBlockBegin
  2
*Paper_Space
 70
     0
 10
0.0
 20
0.0
 30
0.0
  3
*Paper_Space
  1

  0
ENDBLK
  5
1D
330
1B
100
AcDbEntity
 67
     1
  8
0
100
AcDbBlockEnd
  0
BLOCK
  5
24
330
23
100
AcDbEntity
  8
0
100
AcDbBlockBegin
  2
*Paper_Space0
 70
     0
 10
0.0
 20
0.0
 30
0.0
  3
*Paper_Space0
  1

  0
ENDBLK
  5
25
330
23
100
AcDbEntity
  8
0
100
AcDbBlockEnd
  0
BLOCK
  5
D2
330
D0
100
AcDbEntity
  8
0
100
AcDbBlockBegin
  2
_DotSmall
 70
     0
 10
0.0
 20
0.0
 30
0.0
  3
_DotSmall
  1

  0
LWPOLYLINE
  5
D1
330
D0
100
AcDbEntity
  8
0
 62
     0
100
AcDbPolyline
 90
        2
 70
     1
 43
0.5
 10
-0.0625
 20
0.0
 42
1.0
 10
0.0625
 20
0.0
 42
1.0
  0
ENDBLK
  5
D3
330
D0
100
AcDbEntity
  8
0
100
AcDbBlockEnd
  0
BLOCK
  5
D8
330
D4
100
AcDbEntity
  8
0
100
AcDbBlockBegin
  2
_Origin2
 70
     0
 10
0.0
 20
0.0
 30
0.0
  3
_Origin2
  1

  0
CIRCLE
  5
D5
330
D4
100
AcDbEntity
  8
0
 62
     0
370
    -2
100
AcDbCircle
 10
0.0
 20
0.0
 30
0.0
 40
0.5
  0
CIRCLE
  5
D6
330
D4
100
AcDbEntity
  8
0
 62
     0
370
    -2
100
AcDbCircle
 10
0.0
 20
0.0
 30
0.0
 40
0.25
  0
LINE
  5
D7
330
D4
100
AcDbEntity
  8
0
 62
     0
370
    -2
100
AcDbLine
 10
-0.5
 20
0.0
 30
0.0
 11
-1.0
 21
0.0
 31
0.0
  0
ENDBLK
  5
D9
330
D4
100
AcDbEntity
  8
0
100
AcDbBlockEnd
  0
BLOCK
  5
DE
330
DA
100
AcDbEntity
  8
0
100
AcDbBlockBegin
  2
_Open30
 70
     0
 10
0.0
 20
0.0
 30
0.0
  3
_Open30
  1

  0
LINE
  5
DB
330
DA
100
AcDbEntity
  8
0
 62
     0
370
    -2
100
AcDbLine
 10
-1.0
 20
0.26794919
 30
0.0
 11
0.0
 21
0.0
 31
0.0
  0
LINE
  5
DC
330
DA
100
AcDbEntity
  8
0
 62
     0
370
    -2
100
AcDbLine
 10
0.0
 20
0.0
 30
0.0
 11
-1.0
 21
-0.26794919
 31
0.0
  0
LINE
  5
DD
330
DA
100
AcDbEntity
  8
0
 62
     0
370
    -2
100
AcDbLine
 10
0.0
 20
0.0
 30
0.0
 11
-1.0
 21
0.0
 31
0.0
  0
ENDBLK
  5
DF
330
DA
100
AcDbEntity
  8
0
100
AcDbBlockEnd
  0
BLOCK
  5
2E7
330
2D6
100
AcDbEntity
  8
0
100
AcDbBlockBegin
  2
A$C6CAC4411
 70
     0
 10
0.0
 20
0.0
 30
0.0
  3
A$C6CAC4411
  1

  0
TEXT
  5
2D7
330
2D6
100
AcDbEntity
  8
0
100
AcDbText
 10
176.2557717918098
 20
0.0000022116982912
 30
0.0
 40
40.0
  1
中外交易株式会社
 72
     4
 11
364.2557717918098
 21
20.0000022116983
 31
0.0
100
AcDbText
  0
LINE
  5
2D8
330
2D6
100
AcDbEntity
  8
0
100
AcDbLine
 10
-0.0000028735375963
 20
52.5000022116983
 30
0.0
 11
599.9999971264624
 21
52.5000022116983
 31
0.0
  0
HATCH
  5
2D9
330
2D6
100
AcDbEntity
  8
実形
100
AcDbHatch
 10
0.0
 20
0.0
 30
0.0
210
0.0
220
0.0
230
1.0
  2
SOLID
 70
     1
 71
     1
 91
        3
 92
        1
 93
        4
 72
     2
 10
133.1661954404576
 20
20.0000022116983
 40
20.0
 50
11.64772366707622
 51
342.6561058784662
 73
     1
 72
     1
 10
152.2568494677857
 20
14.03787769028346
 11
128.1661954404576
 21
14.03787769028349
 72
     1
 10
128.1661954404576
 20
14.03787769028349
 11
128.1661954404576
 21
24.0378776902835
 72
     1
 10
128.1661954404576
 20
24.0378776902835
 11
152.7543439394721
 21
24.0378776902835
 97
        4
330
2DF
330
2DC
330
2E0
330
2DD
 92
        1
 93
        4
 72
     2
 10
64.25577179180982
 20
20.0000022116983
 40
20.0
 50
11.64772366707622
 51
342.6561058784662
 73
     1
 72
     1
 10
83.34642581913795
 20
14.03787769028346
 11
59.25577179180982
 21
14.03787769028349
 72
     1
 10
59.25577179180982
 20
14.03787769028349
 11
59.25577179180982
 21
24.0378776902835
 72
     1
 10
59.25577179180982
 20
24.0378776902835
 11
83.84392029082437
 21
24.0378776902835
 97
        4
330
2DE
330
2DB
330
2E1
330
2DA
 92
        1
 93
        5
 72
     1
 10
121.6418911694018
 20
40.0000022116983
 11
86.64189116940178
 21
40.0000022116983
 72
     1
 10
86.64189116940178
 20
40.0000022116983
 11
86.64189116940178
 21
0.0000022116983018
 72
     1
 10
86.64189116940178
 20
0.0000022116983018
 11
121.6418911694018
 21
0.0000022116983018
 72
     1
 10
121.6418911694018
 20
0.0000022116983018
 11
86.64189116940178
 21
20.0000022116983
 72
     1
 10
86.64189116940178
 20
20.0000022116983
 11
121.6418911694018
 21
40.0000022116983
 97
        5
330
2E2
330
2E3
330
2E5
330
2E6
330
2E4
 75
     0
 76
     1
 98
        1
 10
-2184.000002873538
 20
-16.4999977883017
  0
LINE
  5
2DA
102
{ACAD_REACTORS
330
2D9
102
}
330
2D6
100
AcDbEntity
  8
実形
370
     5
100
AcDbLine
 10
83.84392029082437
 20
24.0378776902835
 30
0.0
 11
59.25577179180982
 21
24.0378776902835
 31
0.0
  0
LINE
  5
2DB
102
{ACAD_REACTORS
330
2D9
102
}
330
2D6
100
AcDbEntity
  8
実形
370
     5
100
AcDbLine
 10
59.25577179180982
 20
14.03787769028349
 30
0.0
 11
83.34642581913795
 21
14.03787769028346
 31
0.0
  0
LINE
  5
2DC
102
{ACAD_REACTORS
330
2D9
102
}
330
2D6
100
AcDbEntity
  8
実形
370
     5
100
AcDbLine
 10
128.1661954404576
 20
14.03787769028349
 30
0.0
 11
152.2568494677857
 21
14.03787769028346
 31
0.0
  0
LINE
  5
2DD
102
{ACAD_REACTORS
330
2D9
102
}
330
2D6
100
AcDbEntity
  8
実形
370
     5
100
AcDbLine
 10
152.7543439394721
 20
24.0378776902835
 30
0.0
 11
128.1661954404576
 21
24.0378776902835
 31
0.0
  0
ARC
  5
2DE
102
{ACAD_REACTORS
330
2D9
102
}
330
2D6
100
AcDbEntity
  8
実形
370
     5
100
AcDbCircle
 10
64.25577179180982
 20
20.0000022116983
 30
0.0
 40
20.0
100
AcDbArc
 50
11.6477236670758
 51
342.6561058784691
  0
ARC
  5
2DF
102
{ACAD_REACTORS
330
2D9
102
}
330
2D6
100
AcDbEntity
  8
実形
370
     5
100
AcDbCircle
 10
133.1661954404576
 20
20.0000022116983
 30
0.0
 40
20.0
100
AcDbArc
 50
11.6477236670758
 51
342.6561058784691
  0
LINE
  5
2E0
102
{ACAD_REACTORS
330
2D9
102
}
330
2D6
100
AcDbEntity
  8
実形
370
     5
100
AcDbLine
 10
128.1661954404576
 20
24.0378776902835
 30
0.0
 11
128.1661954404576
 21
14.03787769028349
 31
0.0
  0
LINE
  5
2E1
102
{ACAD_REACTORS
330
2D9
102
}
330
2D6
100
AcDbEntity
  8
実形
370
     5
100
AcDbLine
 10
59.25577179180982
 20
24.0378776902835
 30
0.0
 11
59.25577179180982
 21
14.03787769028349
 31
0.0
  0
LINE
  5
2E2
102
{ACAD_REACTORS
330
2D9
102
}
330
2D6
100
AcDbEntity
  8
実形
370
     5
100
AcDbLine
 10
121.6418911694018
 20
40.0000022116983
 30
0.0
 11
86.64189116940178
 21
40.0000022116983
 31
0.0
  0
LINE
  5
2E3
102
{ACAD_REACTORS
330
2D9
102
}
330
2D6
100
AcDbEntity
  8
実形
370
     5
100
AcDbLine
 10
86.64189116940178
 20
40.0000022116983
 30
0.0
 11
86.64189116940178
 21
0.0000022116983018
 31
0.0
  0
LINE
  5
2E4
102
{ACAD_REACTORS
330
2D9
102
}
330
2D6
100
AcDbEntity
  8
実形
370
     5
100
AcDbLine
 10
86.64189116940178
 20
20.0000022116983
 30
0.0
 11
121.6418911694018
 21
40.0000022116983
 31
0.0
  0
LINE
  5
2E5
102
{ACAD_REACTORS
330
2D9
102
}
330
2D6
100
AcDbEntity
  8
実形
370
     5
100
AcDbLine
 10
86.64189116940178
 20
0.0000022116983018
 30
0.0
 11
121.6418911694018
 21
0.0000022116983018
 31
0.0
  0
LINE
  5
2E6
102
{ACAD_REACTORS
330
2D9
102
}
330
2D6
100
AcDbEntity
  8
実形
370
     5
100
AcDbLine
 10
121.6418911694018
 20
0.0000022116983018
 30
0.0
 11
86.64189116940178
 21
20.0000022116983
 31
0.0
  0
ENDBLK
  5
2E8
330
2D6
100
AcDbEntity
  8
0
100
AcDbBlockEnd
  0
BLOCK
  5
310
330
30D
100
AcDbEntity
  8
0
100
AcDbBlockBegin
  2
_Dot
 70
     0
 10
0.0
 20
0.0
 30
0.0
  3
_Dot
  1

  0
LWPOLYLINE
  5
30E
330
30D
100
AcDbEntity
  8
0
 62
     0
100
AcDbPolyline
 90
        2
 70
     1
 43
0.5
 10
-0.25
 20
0.0
 42
1.0
 10
0.25
 20
0.0
 42
1.0
  0
LINE
  5
30F
330
30D
100
AcDbEntity
  8
0
 62
     0
370
    -2
100
AcDbLine
 10
-0.5
 20
0.0
 30
0.0
 11
-1.0
 21
0.0
 31
0.0
  0
ENDBLK
  5
311
330
30D
100
AcDbEntity
  8
0
100
AcDbBlockEnd
  0
BLOCK
  5
3140
330
313C
100
AcDbEntity
  8
0
100
AcDbBlockBegin
  2
A$C6850087C
 70
     0
 10
0.0
 20
0.0
 30
0.0
  3
A$C6850087C
  1

  0
TEXT
  5
313D
330
313C
100
AcDbEntity
  8
実形
 62
     0
 48
20.0
100
AcDbText
 10
0.0
 20
0.0
 30
0.0
 40
40.0
  1
平面図
100
AcDbText
  0
ENDBLK
  5
3141
330
313C
100
AcDbEntity
  8
0
100
AcDbBlockEnd
  0
BLOCK
  5
384A
330
3846
100
AcDbEntity
  8
0
 62
     1
100
AcDbBlockBegin
  2
A$C71387EE1
 70
     0
 10
0.0
 20
0.0
 30
0.0
  3
A$C71387EE1
  1

  0
HATCH
  5
3847
330
3846
100
AcDbEntity
  8
実形
 62
     0
100
AcDbHatch
 10
0.0
 20
0.0
 30
0.0
210
0.0
220
0.0
230
1.0
  2
SOLID
 70
     1
 71
     0
 91
        1
 92
        7
 72
     1
 73
     1
 93
        2
 10
4.552685078746208
 20
-0.0000011660104065
 42
-1.0
 10
4.54872920619573
 20
9.101406589272301
 42
-1.0
 97
        0
 75
     0
 76
     1
 47
0.1166526434546944
 98
        1
 10
6.65106624868099
 20
3.151407247997667
  0
ENDBLK
  5
384B
330
3846
100
AcDbEntity
  8
0
 62
     1
100
AcDbBlockEnd
  0
BLOCK
  5
6B8B
330
6B87
100
AcDbEntity
  8
0
 62
     3
100
AcDbBlockBegin
  2
A$C47AF373A
 70
     0
 10
0.0
 20
0.0
 30
0.0
  3
A$C47AF373A
  1

  0
LINE
  5
6B88
330
6B87
100
AcDbEntity
  8
枠
 62
     0
100
AcDbLine
 10
-0.0000111344452307
 20
0.0000048001220421
 30
0.0
 11
-0.0000111344452307
 21
2020.000004800122
 31
0.0
  0
ENDBLK
  5
6B8C
330
6B87
100
AcDbEntity
  8
0
 62
     3
100
AcDbBlockEnd
  0
BLOCK
  5
6C04
330
6C00
100
AcDbEntity
  8
0
 62
     3
100
AcDbBlockBegin
  2
A$C2B9560D8
 70
     0
 10
0.0
 20
0.0
 30
0.0
  3
A$C2B9560D8
  1

  0
LINE
  5
6C01
330
6C00
100
AcDbEntity
  8
枠
 62
     0
100
AcDbLine
 10
-0.0000103150450741
 20
2020.000004800122
 30
0.0
 11
-0.0000103150450741
 21
0.0000048001220421
 31
0.0
  0
ENDBLK
  5
6C05
330
6C00
100
AcDbEntity
  8
0
 62
     3
100
AcDbBlockEnd
  0
BLOCK
  5
703D
330
7033
100
AcDbEntity
  8
0
 62
     3
100
AcDbBlockBegin
  2
*D10
 70
     1
 10
0.0
 20
0.0
 30
0.0
  3
*D10
  1

  0
LINE
  5
8AA6
330
7033
100
AcDbEntity
  8
実形
 62
     0
370
    18
100
AcDbLine
 10
852.0693431839136
 20
1681.67196328526
 30
0.0
 11
782.9671825485258
 21
1681.67196328526
 31
0.0
  0
LINE
  5
8AA7
330
7033
100
AcDbEntity
  8
実形
 62
     0
370
    18
100
AcDbLine
 10
852.0693431839136
 20
1271.67196328526
 30
0.0
 11
782.9671825485257
 21
1271.67196328526
 31
0.0
  0
LINE
  5
8AA8
330
7033
100
AcDbEntity
  8
実形
 62
     0
370
    18
100
AcDbLine
 10
782.9671825485258
 20
1671.67196328526
 30
0.0
 11
782.9671825485258
 21
1281.67196328526
 31
0.0
  0
INSERT
  5
8AA9
330
7033
100
AcDbEntity
  8
実形
 62
     0
370
    18
100
AcDbBlockReference
  2
_Dot
 10
782.9671825485258
 20
1681.67196328526
 30
0.0
 41
10.0
 42
10.0
 43
10.0
 50
90.0
  0
INSERT
  5
8AAA
330
7033
100
AcDbEntity
  8
実形
 62
     0
370
    18
100
AcDbBlockReference
  2
_Dot
 10
782.9671825485257
 20
1271.67196328526
 30
0.0
 41
10.0
 42
10.0
 43
10.0
 50
270.0
  0
MTEXT
  5
8AAB
330
7033
100
AcDbEntity
  8
実形
 62
     0
100
AcDbMText
 10
763.8671825485255
 20
1476.67196328526
 30
0.0
 40
25.0
 41
0.0
 71
     5
 72
     1
  1
410
 11
0.0000000000000001
 21
1.0
 31
0.0
 73
     1
 44
1.0
1001
ACAD
1000
MTEXTBEGIN
1070
    73
1070
     1
1070
    44
1040
1.0
1070
    74
1070
     0
1000
MTEXTEND
  0
POINT
  5
8AAC
330
7033
100
AcDbEntity
  8
Defpoints
 62
     0
100
AcDbPoint
 10
917.0693431839136
 20
1681.67196328526
 30
0.0
  0
POINT
  5
8AAD
330
7033
100
AcDbEntity
  8
Defpoints
 62
     0
100
AcDbPoint
 10
917.0693431839136
 20
1271.67196328526
 30
0.0
  0
POINT
  5
8AAE
330
7033
100
AcDbEntity
  8
Defpoints
 62
     0
100
AcDbPoint
 10
782.9671825485257
 20
1271.67196328526
 30
0.0
  0
ENDBLK
  5
703E
330
7033
100
AcDbEntity
  8
0
 62
     3
100
AcDbBlockEnd
  0
BLOCK
  5
704A
330
7040
100
AcDbEntity
  8
0
 62
     3
100
AcDbBlockBegin
  2
*D11
 70
     1
 10
0.0
 20
0.0
 30
0.0
  3
*D11
  1

  0
LINE
  5
8A9D
330
7040
100
AcDbEntity
  8
実形
 62
     0
370
    18
100
AcDbLine
 10
852.0693431839136
 20
1701.67196328526
 30
0.0
 11
782.9671825485257
 21
1701.67196328526
 31
0.0
  0
LINE
  5
8A9E
330
7040
100
AcDbEntity
  8
実形
 62
     0
370
    18
100
AcDbLine
 10
852.0693431839136
 20
1251.67196328526
 30
0.0
 11
782.9671825485255
 21
1251.67196328526
 31
0.0
  0
LINE
  5
8A9F
330
7040
100
AcDbEntity
  8
実形
 62
     0
370
    18
100
AcDbLine
 10
782.9671825485257
 20
1691.67196328526
 30
0.0
 11
782.9671825485255
 21
1261.67196328526
 31
0.0
  0
MTEXT
  5
8AA0
330
7040
100
AcDbEntity
  8
実形
 62
     0
100
AcDbMText
 10
761.3671825485255
 20
1671.310682487132
 30
0.0
 40
25.0
 41
0.0
 71
     5
 72
     1
  1
20
 11
0.0000000000000001
 21
1.0
 31
0.0
 73
     1
 44
1.0
1001
ACAD
1000
MTEXTBEGIN
1070
    73
1070
     1
1070
    44
1040
1.0
1070
    74
1070
     0
1000
MTEXTEND
  0
INSERT
  5
8AA1
330
7040
100
AcDbEntity
  8
実形
 62
     0
370
    18
100
AcDbBlockReference
  2
_Dot
 10
782.9671825485257
 20
1701.67196328526
 30
0.0
 41
10.0
 42
10.0
 43
10.0
 50
90.0
  0
INSERT
  5
8AA2
330
7040
100
AcDbEntity
  8
実形
 62
     0
370
    18
100
AcDbBlockReference
  2
_Dot
 10
782.9671825485255
 20
1251.67196328526
 30
0.0
 41
10.0
 42
10.0
 43
10.0
 50
270.0
  0
POINT
  5
8AA3
330
7040
100
AcDbEntity
  8
Defpoints
 62
     0
100
AcDbPoint
 10
917.0693431839136
 20
1701.67196328526
 30
0.0
  0
POINT
  5
8AA4
330
7040
100
AcDbEntity
  8
Defpoints
 62
     0
100
AcDbPoint
 10
917.0693431839136
 20
1251.67196328526
 30
0.0
  0
POINT
  5
8AA5
330
7040
100
AcDbEntity
  8
Defpoints
 62
     0
100
AcDbPoint
 10
782.9671825485255
 20
1251.67196328526
 30
0.0
  0
ENDBLK
  5
704B
330
7040
100
AcDbEntity
  8
0
 62
     3
100
AcDbBlockEnd
  0
BLOCK
  5
7084
330
707A
100
AcDbEntity
  8
0
 62
     3
100
AcDbBlockBegin
  2
*D12
 70
     1
 10
0.0
 20
0.0
 30
0.0
  3
*D12
  1

  0
LINE
  5
8A94
330
707A
100
AcDbEntity
  8
実形
 62
     0
370
    18
100
AcDbLine
 10
852.0693431839136
 20
1701.67196328526
 30
0.0
 11
702.885487507392
 21
1701.67196328526
 31
0.0
  0
LINE
  5
8A95
330
707A
100
AcDbEntity
  8
実形
 62
     0
370
    18
100
AcDbLine
 10
852.0693431839136
 20
1251.67196328526
 30
0.0
 11
702.8854875073919
 21
1251.67196328526
 31
0.0
  0
LINE
  5
8A96
330
707A
100
AcDbEntity
  8
実形
 62
     0
370
    18
100
AcDbLine
 10
702.885487507392
 20
1691.67196328526
 30
0.0
 11
702.8854875073919
 21
1261.67196328526
 31
0.0
  0
MTEXT
  5
8A97
330
707A
100
AcDbEntity
  8
実形
 62
     0
100
AcDbMText
 10
678.3586455147469
 20
1691.630806356192
 30
0.0
 40
25.0
 41
0.0
 71
     5
 72
     1
  1
15
 11
0.0000000000000001
 21
1.0
 31
0.0
 73
     1
 44
1.0
1001
ACAD
1000
MTEXTBEGIN
1070
    73
1070
     1
1070
    44
1040
1.0
1070
    74
1070
     0
1000
MTEXTEND
  0
INSERT
  5
8A98
330
707A
100
AcDbEntity
  8
実形
 62
     0
370
    18
100
AcDbBlockReference
  2
_Dot
 10
702.885487507392
 20
1701.67196328526
 30
0.0
 41
10.0
 42
10.0
 43
10.0
 50
90.0
  0
INSERT
  5
8A99
330
707A
100
AcDbEntity
  8
実形
 62
     0
370
    18
100
AcDbBlockReference
  2
_Dot
 10
702.8854875073919
 20
1251.67196328526
 30
0.0
 41
10.0
 42
10.0
 43
10.0
 50
270.0
  0
POINT
  5
8A9A
330
707A
100
AcDbEntity
  8
Defpoints
 62
     0
100
AcDbPoint
 10
917.0693431839136
 20
1701.67196328526
 30
0.0
  0
POINT
  5
8A9B
330
707A
100
AcDbEntity
  8
Defpoints
 62
     0
100
AcDbPoint
 10
917.0693431839136
 20
1251.67196328526
 30
0.0
  0
POINT
  5
8A9C
330
707A
100
AcDbEntity
  8
Defpoints
 62
     0
100
AcDbPoint
 10
702.8854875073919
 20
1251.67196328526
 30
0.0
  0
ENDBLK
  5
7085
330
707A
100
AcDbEntity
  8
0
 62
     3
100
AcDbBlockEnd
  0
BLOCK
  5
7091
330
7087
100
AcDbEntity
  8
0
 62
     3
100
AcDbBlockBegin
  2
*D13
 70
     1
 10
0.0
 20
0.0
 30
0.0
  3
*D13
  1

  0
LINE
  5
8A8B
330
7087
100
AcDbEntity
  8
実形
 62
     0
370
    18
100
AcDbLine
 10
852.0693431839136
 20
1716.67196328526
 30
0.0
 11
702.8854875073922
 21
1716.67196328526
 31
0.0
  0
LINE
  5
8A8C
330
7087
100
AcDbEntity
  8
実形
 62
     0
370
    18
100
AcDbLine
 10
852.0693431839136
 20
1236.67196328526
 30
0.0
 11
702.885487507392
 21
1236.67196328526
 31
0.0
  0
LINE
  5
8A8D
330
7087
100
AcDbEntity
  8
実形
 62
     0
370
    18
100
AcDbLine
 10
702.8854875073922
 20
1706.67196328526
 30
0.0
 11
702.885487507392
 21
1246.67196328526
 31
0.0
  0
INSERT
  5
8A8E
330
7087
100
AcDbEntity
  8
実形
 62
     0
370
    18
100
AcDbBlockReference
  2
_Dot
 10
702.8854875073922
 20
1716.67196328526
 30
0.0
 41
10.0
 42
10.0
 43
10.0
 50
90.0
  0
INSERT
  5
8A8F
330
7087
100
AcDbEntity
  8
実形
 62
     0
370
    18
100
AcDbBlockReference
  2
_Dot
 10
702.885487507392
 20
1236.67196328526
 30
0.0
 41
10.0
 42
10.0
 43
10.0
 50
270.0
  0
MTEXT
  5
8A90
330
7087
100
AcDbEntity
  8
実形
 62
     0
100
AcDbMText
 10
683.785487507392
 20
1476.67196328526
 30
0.0
 40
25.0
 41
0.0
 71
     5
 72
     1
  1
450
 11
0.0000000000000001
 21
1.0
 31
0.0
 73
     1
 44
1.0
1001
ACAD
1000
MTEXTBEGIN
1070
    73
1070
     1
1070
    44
1040
1.0
1070
    74
1070
     0
1000
MTEXTEND
  0
POINT
  5
8A91
330
7087
100
AcDbEntity
  8
Defpoints
 62
     0
100
AcDbPoint
 10
917.0693431839136
 20
1716.67196328526
 30
0.0
  0
POINT
  5
8A92
330
7087
100
AcDbEntity
  8
Defpoints
 62
     0
100
AcDbPoint
 10
917.0693431839136
 20
1236.67196328526
 30
0.0
  0
POINT
  5
8A93
330
7087
100
AcDbEntity
  8
Defpoints
 62
     0
100
AcDbPoint
 10
702.885487507392
 20
1236.67196328526
 30
0.0
  0
ENDBLK
  5
7092
330
7087
100
AcDbEntity
  8
0
 62
     3
100
AcDbBlockEnd
  0
BLOCK
  5
70EA
330
70E0
100
AcDbEntity
  8
0
 62
     3
100
AcDbBlockBegin
  2
*D14
 70
     1
 10
0.0
 20
0.0
 30
0.0
  3
*D14
  1

  0
LINE
  5
8A82
330
70E0
100
AcDbEntity
  8
実形
 62
     0
370
    18
100
AcDbLine
 10
852.0693431839136
 20
1716.67196328526
 30
0.0
 11
617.7286793287568
 21
1716.67196328526
 31
0.0
  0
LINE
  5
8A83
330
70E0
100
AcDbEntity
  8
実形
 62
     0
370
    18
100
AcDbLine
 10
852.0693431839136
 20
1236.67196328526
 30
0.0
 11
617.7286793287566
 21
1236.67196328526
 31
0.0
  0
LINE
  5
8A84
330
70E0
100
AcDbEntity
  8
実形
 62
     0
370
    18
100
AcDbLine
 10
617.7286793287568
 20
1706.67196328526
 30
0.0
 11
617.7286793287566
 21
1246.67196328526
 31
0.0
  0
INSERT
  5
8A85
330
70E0
100
AcDbEntity
  8
実形
 62
     0
370
    18
100
AcDbBlockReference
  2
_Dot
 10
617.7286793287568
 20
1716.67196328526
 30
0.0
 41
10.0
 42
10.0
 43
10.0
 50
90.0
  0
INSERT
  5
8A86
330
70E0
100
AcDbEntity
  8
実形
 62
     0
370
    18
100
AcDbBlockReference
  2
_Dot
 10
617.7286793287566
 20
1236.67196328526
 30
0.0
 41
10.0
 42
10.0
 43
10.0
 50
270.0
  0
MTEXT
  5
8A87
330
70E0
100
AcDbEntity
  8
実形
 62
     0
100
AcDbMText
 10
598.6286793287566
 20
1476.67196328526
 30
0.0
 40
25.0
 41
0.0
 71
     5
 72
     1
  1
480
 11
0.0000000000000001
 21
1.0
 31
0.0
 73
     1
 44
1.0
1001
ACAD
1000
MTEXTBEGIN
1070
    73
1070
     1
1070
    44
1040
1.0
1070
    74
1070
     0
1000
MTEXTEND
  0
POINT
  5
8A88
330
70E0
100
AcDbEntity
  8
Defpoints
 62
     0
100
AcDbPoint
 10
917.0693431839136
 20
1716.67196328526
 30
0.0
  0
POINT
  5
8A89
330
70E0
100
AcDbEntity
  8
Defpoints
 62
     0
100
AcDbPoint
 10
917.0693431839136
 20
1236.67196328526
 30
0.0
  0
POINT
  5
8A8A
330
70E0
100
AcDbEntity
  8
Defpoints
 62
     0
100
AcDbPoint
 10
617.7286793287566
 20
1236.67196328526
 30
0.0
  0
ENDBLK
  5
70EB
330
70E0
100
AcDbEntity
  8
0
 62
     3
100
AcDbBlockEnd
  0
BLOCK
  5
7100
330
70F6
100
AcDbEntity
  8
0
 62
     3
100
AcDbBlockBegin
  2
*D15
 70
     1
 10
0.0
 20
0.0
 30
0.0
  3
*D15
  1

  0
LINE
  5
8A67
330
70F6
100
AcDbEntity
  8
実形
 62
     0
370
    18
100
AcDbLine
 10
952.0693431839136
 20
1171.67196328526
 30
0.0
 11
952.0693431839136
 21
1104.409261580873
 31
0.0
  0
LINE
  5
8A68
330
70F6
100
AcDbEntity
  8
実形
 62
     0
370
    18
100
AcDbLine
 10
1712.069343183913
 20
1171.67196328526
 30
0.0
 11
1712.069343183913
 21
1104.409261580873
 31
0.0
  0
LINE
  5
8A69
330
70F6
100
AcDbEntity
  8
実形
 62
     0
370
    18
100
AcDbLine
 10
962.0693431839136
 20
1104.409261580873
 30
0.0
 11
1702.069343183913
 21
1104.409261580873
 31
0.0
  0
INSERT
  5
8A6A
330
70F6
100
AcDbEntity
  8
実形
 62
     0
370
    18
100
AcDbBlockReference
  2
_Dot
 10
952.0693431839136
 20
1104.409261580873
 30
0.0
 41
10.0
 42
10.0
 43
10.0
 50
180.0
  0
INSERT
  5
8A6B
330
70F6
100
AcDbEntity
  8
実形
 62
     0
370
    18
100
AcDbBlockReference
  2
_Dot
 10
1712.069343183913
 20
1104.409261580873
 30
0.0
 41
10.0
 42
10.0
 43
10.0
  0
MTEXT
  5
8A6C
330
70F6
100
AcDbEntity
  8
実形
 62
     0
100
AcDbMText
 10
1332.069343183913
 20
1123.509261580873
 30
0.0
 40
25.0
 41
0.0
 71
     5
 72
     1
  1
760
 73
     1
 44
1.0
1001
ACAD
1000
MTEXTBEGIN
1070
    73
1070
     1
1070
    44
1040
1.0
1070
    74
1070
     0
1000
MTEXTEND
  0
POINT
  5
8A6D
330
70F6
100
AcDbEntity
  8
Defpoints
 62
     0
100
AcDbPoint
 10
952.0693431839136
 20
1236.67196328526
 30
0.0
  0
POINT
  5
8A6E
330
70F6
100
AcDbEntity
  8
Defpoints
 62
     0
100
AcDbPoint
 10
1712.069343183913
 20
1236.67196328526
 30
0.0
  0
POINT
  5
8A6F
330
70F6
100
AcDbEntity
  8
Defpoints
 62
     0
100
AcDbPoint
 10
1712.069343183913
 20
1104.409261580873
 30
0.0
  0
ENDBLK
  5
7101
330
70F6
100
AcDbEntity
  8
0
 62
     3
100
AcDbBlockEnd
  0
BLOCK
  5
710D
330
7103
100
AcDbEntity
  8
0
 62
     3
100
AcDbBlockBegin
  2
*D16
 70
     1
 10
0.0
 20
0.0
 30
0.0
  3
*D16
  1

  0
LINE
  5
8A5E
330
7103
100
AcDbEntity
  8
実形
 62
     0
370
    18
100
AcDbLine
 10
932.0693431839135
 20
1171.67196328526
 30
0.0
 11
932.0693431839135
 21
1104.409261580873
 31
0.0
  0
LINE
  5
8A5F
330
7103
100
AcDbEntity
  8
実形
 62
     0
370
    18
100
AcDbLine
 10
1732.069343183913
 20
1171.67196328526
 30
0.0
 11
1732.069343183913
 21
1104.409261580873
 31
0.0
  0
LINE
  5
8A60
330
7103
100
AcDbEntity
  8
実形
 62
     0
370
    18
100
AcDbLine
 10
942.0693431839136
 20
1104.409261580873
 30
0.0
 11
1722.069343183913
 21
1104.409261580873
 31
0.0
  0
MTEXT
  5
8A61
330
7103
100
AcDbEntity
  8
実形
 62
     0
100
AcDbMText
 10
1678.470496488633
 20
1126.009261580873
 30
0.0
 40
25.0
 41
0.0
 71
     5
 72
     1
  1
20
 73
     1
 44
1.0
1001
ACAD
1000
MTEXTBEGIN
1070
    73
1070
     1
1070
    44
1040
1.0
1070
    74
1070
     0
1000
MTEXTEND
  0
INSERT
  5
8A62
330
7103
100
AcDbEntity
  8
実形
 62
     0
370
    18
100
AcDbBlockReference
  2
_Dot
 10
932.0693431839135
 20
1104.409261580873
 30
0.0
 41
10.0
 42
10.0
 43
10.0
 50
180.0
  0
INSERT
  5
8A63
330
7103
100
AcDbEntity
  8
実形
 62
     0
370
    18
100
AcDbBlockReference
  2
_Dot
 10
1732.069343183913
 20
1104.409261580873
 30
0.0
 41
10.0
 42
10.0
 43
10.0
  0
POINT
  5
8A64
330
7103
100
AcDbEntity
  8
Defpoints
 62
     0
100
AcDbPoint
 10
932.0693431839135
 20
1236.67196328526
 30
0.0
  0
POINT
  5
8A65
330
7103
100
AcDbEntity
  8
Defpoints
 62
     0
100
AcDbPoint
 10
1732.069343183913
 20
1236.67196328526
 30
0.0
  0
POINT
  5
8A66
330
7103
100
AcDbEntity
  8
Defpoints
 62
     0
100
AcDbPoint
 10
1732.069343183913
 20
1104.409261580873
 30
0.0
  0
ENDBLK
  5
710E
330
7103
100
AcDbEntity
  8
0
 62
     3
100
AcDbBlockEnd
  0
BLOCK
  5
713E
330
7134
100
AcDbEntity
  8
0
 62
     3
100
AcDbBlockBegin
  2
*D17
 70
     1
 10
0.0
 20
0.0
 30
0.0
  3
*D17
  1

  0
LINE
  5
8A55
330
7134
100
AcDbEntity
  8
実形
 62
     0
370
    18
100
AcDbLine
 10
932.0693431839135
 20
1171.67196328526
 30
0.0
 11
932.0693431839135
 21
1041.998774224899
 31
0.0
  0
LINE
  5
8A56
330
7134
100
AcDbEntity
  8
実形
 62
     0
370
    18
100
AcDbLine
 10
1732.069343183913
 20
1171.67196328526
 30
0.0
 11
1732.069343183913
 21
1041.998774224899
 31
0.0
  0
LINE
  5
8A57
330
7134
100
AcDbEntity
  8
実形
 62
     0
370
    18
100
AcDbLine
 10
942.0693431839136
 20
1041.998774224899
 30
0.0
 11
1722.069343183913
 21
1041.998774224899
 31
0.0
  0
INSERT
  5
8A58
330
7134
100
AcDbEntity
  8
実形
 62
     0
370
    18
100
AcDbBlockReference
  2
_Dot
 10
932.0693431839135
 20
1041.998774224899
 30
0.0
 41
10.0
 42
10.0
 43
10.0
 50
180.0
  0
INSERT
  5
8A59
330
7134
100
AcDbEntity
  8
実形
 62
     0
370
    18
100
AcDbBlockReference
  2
_Dot
 10
1732.069343183913
 20
1041.998774224899
 30
0.0
 41
10.0
 42
10.0
 43
10.0
  0
MTEXT
  5
8A5A
330
7134
100
AcDbEntity
  8
実形
 62
     0
100
AcDbMText
 10
1332.069343183913
 20
1061.098774224899
 30
0.0
 40
25.0
 41
0.0
 71
     5
 72
     1
  1
800
 73
     1
 44
1.0
1001
ACAD
1000
MTEXTBEGIN
1070
    73
1070
     1
1070
    44
1040
1.0
1070
    74
1070
     0
1000
MTEXTEND
  0
POINT
  5
8A5B
330
7134
100
AcDbEntity
  8
Defpoints
 62
     0
100
AcDbPoint
 10
932.0693431839135
 20
1236.67196328526
 30
0.0
  0
POINT
  5
8A5C
330
7134
100
AcDbEntity
  8
Defpoints
 62
     0
100
AcDbPoint
 10
1732.069343183913
 20
1236.67196328526
 30
0.0
  0
POINT
  5
8A5D
330
7134
100
AcDbEntity
  8
Defpoints
 62
     0
100
AcDbPoint
 10
1732.069343183913
 20
1041.998774224899
 30
0.0
  0
ENDBLK
  5
713F
330
7134
100
AcDbEntity
  8
0
 62
     3
100
AcDbBlockEnd
  0
BLOCK
  5
714B
330
7141
100
AcDbEntity
  8
0
 62
     3
100
AcDbBlockBegin
  2
*D18
 70
     1
 10
0.0
 20
0.0
 30
0.0
  3
*D18
  1

  0
LINE
  5
8A79
330
7141
100
AcDbEntity
  8
実形
 62
     0
370
    18
100
AcDbLine
 10
917.0693431839136
 20
1171.67196328526
 30
0.0
 11
917.0693431839136
 21
1041.998774224899
 31
0.0
  0
LINE
  5
8A7A
330
7141
100
AcDbEntity
  8
実形
 62
     0
370
    18
100
AcDbLine
 10
1747.069343183914
 20
1171.67196328526
 30
0.0
 11
1747.069343183914
 21
1041.998774224899
 31
0.0
  0
LINE
  5
8A7B
330
7141
100
AcDbEntity
  8
実形
 62
     0
370
    18
100
AcDbLine
 10
927.0693431839136
 20
1041.998774224899
 30
0.0
 11
1737.069343183913
 21
1041.998774224899
 31
0.0
  0
MTEXT
  5
8A7C
330
7141
100
AcDbEntity
  8
実形
 62
     0
100
AcDbMText
 10
1790.858876538459
 20
1063.598774224899
 30
0.0
 40
25.0
 41
0.0
 71
     5
 72
     1
  1
15
 73
     1
 44
1.0
1001
ACAD
1000
MTEXTBEGIN
1070
    73
1070
     1
1070
    44
1040
1.0
1070
    74
1070
     0
1000
MTEXTEND
  0
INSERT
  5
8A7D
330
7141
100
AcDbEntity
  8
実形
 62
     0
370
    18
100
AcDbBlockReference
  2
_Dot
 10
917.0693431839136
 20
1041.998774224899
 30
0.0
 41
10.0
 42
10.0
 43
10.0
 50
180.0
  0
INSERT
  5
8A7E
330
7141
100
AcDbEntity
  8
実形
 62
     0
370
    18
100
AcDbBlockReference
  2
_Dot
 10
1747.069343183914
 20
1041.998774224899
 30
0.0
 41
10.0
 42
10.0
 43
10.0
  0
POINT
  5
8A7F
330
7141
100
AcDbEntity
  8
Defpoints
 62
     0
100
AcDbPoint
 10
917.0693431839136
 20
1236.67196328526
 30
0.0
  0
POINT
  5
8A80
330
7141
100
AcDbEntity
  8
Defpoints
 62
     0
100
AcDbPoint
 10
1747.069343183914
 20
1236.67196328526
 30
0.0
  0
POINT
  5
8A81
330
7141
100
AcDbEntity
  8
Defpoints
 62
     0
100
AcDbPoint
 10
1747.069343183914
 20
1041.998774224899
 30
0.0
  0
ENDBLK
  5
714C
330
7141
100
AcDbEntity
  8
0
 62
     3
100
AcDbBlockEnd
  0
BLOCK
  5
717D
330
7173
100
AcDbEntity
  8
0
 62
     3
100
AcDbBlockBegin
  2
*D19
 70
     1
 10
0.0
 20
0.0
 30
0.0
  3
*D19
  1

  0
LINE
  5
8B75
330
7173
100
AcDbEntity
  8
実形
 62
     0
370
    18
100
AcDbLine
 10
917.0693431839136
 20
1171.67196328526
 30
0.0
 11
917.0693431839136
 21
968.7771937547477
 31
0.0
  0
LINE
  5
8B76
330
7173
100
AcDbEntity
  8
実形
 62
     0
370
    18
100
AcDbLine
 10
1747.069343183914
 20
1171.67196328526
 30
0.0
 11
1747.069343183914
 21
968.7771937547477
 31
0.0
  0
LINE
  5
8B77
330
7173
100
AcDbEntity
  8
実形
 62
     0
370
    18
100
AcDbLine
 10
927.0693431839136
 20
968.7771937547477
 30
0.0
 11
1737.069343183913
 21
968.7771937547477
 31
0.0
  0
INSERT
  5
8B78
330
7173
100
AcDbEntity
  8
実形
 62
     0
370
    18
100
AcDbBlockReference
  2
_Dot
 10
917.0693431839136
 20
968.7771937547477
 30
0.0
 41
10.0
 42
10.0
 43
10.0
 50
180.0
  0
INSERT
  5
8B79
330
7173
100
AcDbEntity
  8
実形
 62
     0
370
    18
100
AcDbBlockReference
  2
_Dot
 10
1747.069343183914
 20
968.7771937547477
 30
0.0
 41
10.0
 42
10.0
 43
10.0
  0
MTEXT
  5
8B7A
330
7173
100
AcDbEntity
  8
実形
 62
     0
100
AcDbMText
 10
1332.069343183913
 20
987.8771937547478
 30
0.0
 40
25.0
 41
0.0
 71
     5
 72
     1
  1
830
 73
     1
 44
1.0
1001
ACAD
1000
MTEXTBEGIN
1070
    73
1070
     1
1070
    44
1040
1.0
1070
    74
1070
     0
1000
MTEXTEND
  0
POINT
  5
8B7B
330
7173
100
AcDbEntity
  8
Defpoints
 62
     0
100
AcDbPoint
 10
917.0693431839136
 20
1236.67196328526
 30
0.0
  0
POINT
  5
8B7C
330
7173
100
AcDbEntity
  8
Defpoints
 62
     0
100
AcDbPoint
 10
1747.069343183914
 20
1236.67196328526
 30
0.0
  0
POINT
  5
8B7D
330
7173
100
AcDbEntity
  8
Defpoints
 62
     0
100
AcDbPoint
 10
1747.069343183914
 20
968.7771937547477
 30
0.0
  0
ENDBLK
  5
717E
330
7173
100
AcDbEntity
  8
0
 62
     3
100
AcDbBlockEnd
  0
BLOCK
  5
71A7
330
719D
100
AcDbEntity
  8
0
 62
     3
100
AcDbBlockBegin
  2
*D20
 70
     1
 10
0.0
 20
0.0
 30
0.0
  3
*D20
  1

  0
LINE
  5
8AAF
330
719D
100
AcDbEntity
  8
実形
 62
     0
370
    18
100
AcDbLine
 10
1231.286389540604
 20
1476.67196328526
 30
0.0
 11
1287.868761796235
 21
1476.67196328526
 31
0.0
  0
LINE
  5
8AB0
330
719D
100
AcDbEntity
  8
実形
 62
     0
370
    18
100
AcDbLine
 10
1231.286389540604
 20
1271.67196328526
 30
0.0
 11
1287.868761796235
 21
1271.67196328526
 31
0.0
  0
LINE
  5
8AB1
330
719D
100
AcDbEntity
  8
実形
 62
     0
370
    18
100
AcDbLine
 10
1287.868761796235
 20
1466.67196328526
 30
0.0
 11
1287.868761796235
 21
1281.67196328526
 31
0.0
  0
INSERT
  5
8AB2
330
719D
100
AcDbEntity
  8
実形
 62
     0
370
    18
100
AcDbBlockReference
  2
_Dot
 10
1287.868761796235
 20
1476.67196328526
 30
0.0
 41
10.0
 42
10.0
 43
10.0
 50
90.0
  0
INSERT
  5
8AB3
330
719D
100
AcDbEntity
  8
実形
 62
     0
370
    18
100
AcDbBlockReference
  2
_Dot
 10
1287.868761796235
 20
1271.67196328526
 30
0.0
 41
10.0
 42
10.0
 43
10.0
 50
270.0
  0
MTEXT
  5
8AB4
330
719D
100
AcDbEntity
  8
実形
 62
     0
100
AcDbMText
 10
1268.768761796235
 20
1374.17196328526
 30
0.0
 40
25.0
 41
0.0
 71
     5
 72
     1
  1
205
 11
0.0000000000000001
 21
1.0
 31
0.0
 73
     1
 44
1.0
1001
ACAD
1000
MTEXTBEGIN
1070
    73
1070
     1
1070
    44
1040
1.0
1070
    74
1070
     0
1000
MTEXTEND
  0
POINT
  5
8AB5
330
719D
100
AcDbEntity
  8
Defpoints
 62
     0
100
AcDbPoint
 10
1166.286389540604
 20
1476.67196328526
 30
0.0
  0
POINT
  5
8AB6
330
719D
100
AcDbEntity
  8
Defpoints
 62
     0
100
AcDbPoint
 10
1166.286389540604
 20
1271.67196328526
 30
0.0
  0
POINT
  5
8AB7
330
719D
100
AcDbEntity
  8
Defpoints
 62
     0
100
AcDbPoint
 10
1287.868761796235
 20
1271.67196328526
 30
0.0
  0
ENDBLK
  5
71A8
330
719D
100
AcDbEntity
  8
0
 62
     3
100
AcDbBlockEnd
  0
BLOCK
  5
7467
330
745D
100
AcDbEntity
  8
0
 62
     3
100
AcDbBlockBegin
  2
*D21
 70
     1
 10
0.0
 20
0.0
 30
0.0
  3
*D21
  1

  0
LINE
  5
8B87
330
745D
100
AcDbEntity
  8
実形
 62
     0
370
    18
100
AcDbLine
 10
1022.069343183913
 20
395.1402142854657
 30
0.0
 11
1022.069343183913
 21
343.2236157496082
 31
0.0
  0
LINE
  5
8B88
330
745D
100
AcDbEntity
  8
実形
 62
     0
370
    18
100
AcDbLine
 10
1182.069343183914
 20
395.1402142854657
 30
0.0
 11
1182.069343183914
 21
343.2236157496082
 31
0.0
  0
LINE
  5
8B89
330
745D
100
AcDbEntity
  8
実形
 62
     0
370
    18
100
AcDbLine
 10
1032.069343183913
 20
343.2236157496082
 30
0.0
 11
1172.069343183913
 21
343.2236157496082
 31
0.0
  0
INSERT
  5
8B8A
330
745D
100
AcDbEntity
  8
実形
 62
     0
370
    18
100
AcDbBlockReference
  2
_Dot
 10
1022.069343183913
 20
343.2236157496082
 30
0.0
 41
10.0
 42
10.0
 43
10.0
 50
180.0
  0
INSERT
  5
8B8B
330
745D
100
AcDbEntity
  8
実形
 62
     0
370
    18
100
AcDbBlockReference
  2
_Dot
 10
1182.069343183914
 20
343.2236157496082
 30
0.0
 41
10.0
 42
10.0
 43
10.0
  0
MTEXT
  5
8B8C
330
745D
100
AcDbEntity
  8
実形
 62
     0
100
AcDbMText
 10
1102.069343183913
 20
362.3236157496082
 30
0.0
 40
25.0
 41
0.0
 71
     5
 72
     1
  1
160
 73
     1
 44
1.0
1001
ACAD
1000
MTEXTBEGIN
1070
    73
1070
     1
1070
    44
1040
1.0
1070
    74
1070
     0
1000
MTEXTEND
  0
POINT
  5
8B8D
330
745D
100
AcDbEntity
  8
Defpoints
 62
     0
100
AcDbPoint
 10
1022.069343183913
 20
460.1402142854657
 30
0.0
  0
POINT
  5
8B8E
330
745D
100
AcDbEntity
  8
Defpoints
 62
     0
100
AcDbPoint
 10
1182.069343183914
 20
460.1402142854657
 30
0.0
  0
POINT
  5
8B8F
330
745D
100
AcDbEntity
  8
Defpoints
 62
     0
100
AcDbPoint
 10
1182.069343183914
 20
343.2236157496082
 30
0.0
  0
ENDBLK
  5
7468
330
745D
100
AcDbEntity
  8
0
 62
     3
100
AcDbBlockEnd
  0
BLOCK
  5
7474
330
746A
100
AcDbEntity
  8
0
 62
     3
100
AcDbBlockBegin
  2
*D22
 70
     1
 10
0.0
 20
0.0
 30
0.0
  3
*D22
  1

  0
LINE
  5
8B7E
330
746A
100
AcDbEntity
  8
実形
 62
     0
370
    18
100
AcDbLine
 10
1011.569343183913
 20
395.1402142854658
 30
0.0
 11
1011.569343183913
 21
271.9813189343313
 31
0.0
  0
LINE
  5
8B7F
330
746A
100
AcDbEntity
  8
実形
 62
     0
370
    18
100
AcDbLine
 10
1192.569343183913
 20
395.1402142854616
 30
0.0
 11
1192.569343183913
 21
271.9813189343313
 31
0.0
  0
LINE
  5
8B80
330
746A
100
AcDbEntity
  8
実形
 62
     0
370
    18
100
AcDbLine
 10
1021.569343183913
 20
271.9813189343313
 30
0.0
 11
1182.569343183913
 21
271.9813189343313
 31
0.0
  0
INSERT
  5
8B81
330
746A
100
AcDbEntity
  8
実形
 62
     0
370
    18
100
AcDbBlockReference
  2
_Dot
 10
1011.569343183913
 20
271.9813189343313
 30
0.0
 41
10.0
 42
10.0
 43
10.0
 50
180.0
  0
INSERT
  5
8B82
330
746A
100
AcDbEntity
  8
実形
 62
     0
370
    18
100
AcDbBlockReference
  2
_Dot
 10
1192.569343183913
 20
271.9813189343313
 30
0.0
 41
10.0
 42
10.0
 43
10.0
  0
MTEXT
  5
8B83
330
746A
100
AcDbEntity
  8
実形
 62
     0
100
AcDbMText
 10
1102.069343183913
 20
291.0813189343313
 30
0.0
 40
25.0
 41
0.0
 71
     5
 72
     1
  1
181
 73
     1
 44
1.0
1001
ACAD
1000
MTEXTBEGIN
1070
    73
1070
     1
1070
    44
1040
1.0
1070
    74
1070
     0
1000
MTEXTEND
  0
POINT
  5
8B84
330
746A
100
AcDbEntity
  8
Defpoints
 62
     0
100
AcDbPoint
 10
1011.569343183913
 20
460.1402142854658
 30
0.0
  0
POINT
  5
8B85
330
746A
100
AcDbEntity
  8
Defpoints
 62
     0
100
AcDbPoint
 10
1192.569343183913
 20
460.1402142854616
 30
0.0
  0
POINT
  5
8B86
330
746A
100
AcDbEntity
  8
Defpoints
 62
     0
100
AcDbPoint
 10
1192.569343183913
 20
271.9813189343313
 30
0.0
  0
ENDBLK
  5
7475
330
746A
100
AcDbEntity
  8
0
 62
     3
100
AcDbBlockEnd
  0
BLOCK
  5
7DF5
330
7DEB
100
AcDbEntity
  8
0
 62
     3
100
AcDbBlockBegin
  2
*D23
 70
     1
 10
0.0
 20
0.0
 30
0.0
  3
*D23
  1

  0
LINE
  5
8B5A
330
7DEB
100
AcDbEntity
  8
実形
 62
     0
370
    18
100
AcDbLine
 10
2214.904219265809
 20
1396.67196328526
 30
0.0
 11
2266.820817801667
 21
1396.67196328526
 31
0.0
  0
LINE
  5
8B5B
330
7DEB
100
AcDbEntity
  8
実形
 62
     0
370
    18
100
AcDbLine
 10
2214.904219265809
 20
1556.67196328526
 30
0.0
 11
2266.820817801667
 21
1556.67196328526
 31
0.0
  0
LINE
  5
8B5C
330
7DEB
100
AcDbEntity
  8
実形
 62
     0
370
    18
100
AcDbLine
 10
2266.820817801667
 20
1406.67196328526
 30
0.0
 11
2266.820817801667
 21
1546.67196328526
 31
0.0
  0
INSERT
  5
8B5D
330
7DEB
100
AcDbEntity
  8
実形
 62
     0
370
    18
100
AcDbBlockReference
  2
_Dot
 10
2266.820817801667
 20
1396.67196328526
 30
0.0
 41
10.0
 42
10.0
 43
10.0
 50
270.0
  0
INSERT
  5
8B5E
330
7DEB
100
AcDbEntity
  8
実形
 62
     0
370
    18
100
AcDbBlockReference
  2
_Dot
 10
2266.820817801667
 20
1556.67196328526
 30
0.0
 41
10.0
 42
10.0
 43
10.0
 50
90.0
  0
MTEXT
  5
8B5F
330
7DEB
100
AcDbEntity
  8
実形
 62
     0
100
AcDbMText
 10
2247.720817801666
 20
1476.67196328526
 30
0.0
 40
25.0
 41
0.0
 71
     5
 72
     1
  1
160
 11
0.0000000000000001
 21
1.0
 31
0.0
 73
     1
 44
1.0
1001
ACAD
1000
MTEXTBEGIN
1070
    73
1070
     1
1070
    44
1040
1.0
1070
    74
1070
     0
1000
MTEXTEND
  0
POINT
  5
8B60
330
7DEB
100
AcDbEntity
  8
Defpoints
 62
     0
100
AcDbPoint
 10
2149.904219265809
 20
1396.67196328526
 30
0.0
  0
POINT
  5
8B61
330
7DEB
100
AcDbEntity
  8
Defpoints
 62
     0
100
AcDbPoint
 10
2149.904219265809
 20
1556.67196328526
 30
0.0
  0
POINT
  5
8B62
330
7DEB
100
AcDbEntity
  8
Defpoints
 62
     0
100
AcDbPoint
 10
2266.820817801667
 20
1556.67196328526
 30
0.0
  0
ENDBLK
  5
7DF6
330
7DEB
100
AcDbEntity
  8
0
 62
     3
100
AcDbBlockEnd
  0
BLOCK
  5
7E01
330
7DF7
100
AcDbEntity
  8
0
 62
     3
100
AcDbBlockBegin
  2
*D24
 70
     1
 10
0.0
 20
0.0
 30
0.0
  3
*D24
  1

  0
LINE
  5
8ADC
330
7DF7
100
AcDbEntity
  8
実形
 62
     0
370
    18
100
AcDbLine
 10
2214.904219265809
 20
1386.17196328526
 30
0.0
 11
2338.063114616943
 21
1386.17196328526
 31
0.0
  0
LINE
  5
8ADD
330
7DF7
100
AcDbEntity
  8
実形
 62
     0
370
    18
100
AcDbLine
 10
2214.904219265814
 20
1567.171963285259
 30
0.0
 11
2338.063114616943
 21
1567.171963285259
 31
0.0
  0
LINE
  5
8ADE
330
7DF7
100
AcDbEntity
  8
実形
 62
     0
370
    18
100
AcDbLine
 10
2338.063114616943
 20
1396.17196328526
 30
0.0
 11
2338.063114616943
 21
1557.17196328526
 31
0.0
  0
INSERT
  5
8ADF
330
7DF7
100
AcDbEntity
  8
実形
 62
     0
370
    18
100
AcDbBlockReference
  2
_Dot
 10
2338.063114616943
 20
1386.17196328526
 30
0.0
 41
10.0
 42
10.0
 43
10.0
 50
270.0
  0
INSERT
  5
8AE0
330
7DF7
100
AcDbEntity
  8
実形
 62
     0
370
    18
100
AcDbBlockReference
  2
_Dot
 10
2338.063114616943
 20
1567.171963285259
 30
0.0
 41
10.0
 42
10.0
 43
10.0
 50
90.0
  0
MTEXT
  5
8AE1
330
7DF7
100
AcDbEntity
  8
実形
 62
     0
100
AcDbMText
 10
2318.963114616943
 20
1476.67196328526
 30
0.0
 40
25.0
 41
0.0
 71
     5
 72
     1
  1
181
 11
0.0000000000000001
 21
1.0
 31
0.0
 73
     1
 44
1.0
1001
ACAD
1000
MTEXTBEGIN
1070
    73
1070
     1
1070
    44
1040
1.0
1070
    74
1070
     0
1000
MTEXTEND
  0
POINT
  5
8AE2
330
7DF7
100
AcDbEntity
  8
Defpoints
 62
     0
100
AcDbPoint
 10
2149.904219265809
 20
1386.17196328526
 30
0.0
  0
POINT
  5
8AE3
330
7DF7
100
AcDbEntity
  8
Defpoints
 62
     0
100
AcDbPoint
 10
2149.904219265813
 20
1567.171963285259
 30
0.0
  0
POINT
  5
8AE4
330
7DF7
100
AcDbEntity
  8
Defpoints
 62
     0
100
AcDbPoint
 10
2338.063114616943
 20
1567.171963285259
 30
0.0
  0
ENDBLK
  5
7E02
330
7DF7
100
AcDbEntity
  8
0
 62
     3
100
AcDbBlockEnd
  0
BLOCK
  5
7E0D
330
7E03
100
AcDbEntity
  8
0
 62
     3
100
AcDbBlockBegin
  2
*D25
 70
     1
 10
0.0
 20
0.0
 30
0.0
  3
*D25
  1

  0
LINE
  5
8B51
330
7E03
100
AcDbEntity
  8
実形
 62
     0
370
    18
100
AcDbLine
 10
1934.904219265809
 20
1201.285223460146
 30
0.0
 11
1934.904219265809
 21
1146.46230530199
 31
0.0
  0
LINE
  5
8B52
330
7E03
100
AcDbEntity
  8
実形
 62
     0
370
    18
100
AcDbLine
 10
2124.904219265808
 20
1178.191854069061
 30
0.0
 11
2124.904219265808
 21
1146.46230530199
 31
0.0
  0
LINE
  5
8B53
330
7E03
100
AcDbEntity
  8
実形
 62
     0
370
    18
100
AcDbLine
 10
1944.904219265809
 20
1146.46230530199
 30
0.0
 11
2114.904219265808
 21
1146.46230530199
 31
0.0
  0
MTEXT
  5
8B54
330
7E03
100
AcDbEntity
  8
実形
 62
     0
100
AcDbMText
 10
1896.339612540141
 20
1168.06230530199
 30
0.0
 40
25.0
 41
0.0
 71
     5
 72
     1
  1
15
 73
     1
 44
1.0
1001
ACAD
1000
MTEXTBEGIN
1070
    73
1070
     1
1070
    44
1040
1.0
1070
    74
1070
     0
1000
MTEXTEND
  0
INSERT
  5
8B55
330
7E03
100
AcDbEntity
  8
実形
 62
     0
370
    18
100
AcDbBlockReference
  2
_Dot
 10
1934.904219265809
 20
1146.46230530199
 30
0.0
 41
10.0
 42
10.0
 43
10.0
 50
180.0
  0
INSERT
  5
8B56
330
7E03
100
AcDbEntity
  8
実形
 62
     0
370
    18
100
AcDbBlockReference
  2
_Dot
 10
2124.904219265808
 20
1146.46230530199
 30
0.0
 41
10.0
 42
10.0
 43
10.0
  0
POINT
  5
8B57
330
7E03
100
AcDbEntity
  8
Defpoints
 62
     0
100
AcDbPoint
 10
1934.904219265809
 20
1266.285223460146
 30
0.0
  0
POINT
  5
8B58
330
7E03
100
AcDbEntity
  8
Defpoints
 62
     0
100
AcDbPoint
 10
2124.904219265808
 20
1243.191854069061
 30
0.0
  0
POINT
  5
8B59
330
7E03
100
AcDbEntity
  8
Defpoints
 62
     0
100
AcDbPoint
 10
2124.904219265808
 20
1146.46230530199
 30
0.0
  0
ENDBLK
  5
7E0E
330
7E03
100
AcDbEntity
  8
0
 62
     3
100
AcDbBlockEnd
  0
BLOCK
  5
7E19
330
7E0F
100
AcDbEntity
  8
0
 62
     3
100
AcDbBlockBegin
  2
*D26
 70
     1
 10
0.0
 20
0.0
 30
0.0
  3
*D26
  1

  0
LINE
  5
8B48
330
7E0F
100
AcDbEntity
  8
実形
 62
     0
370
    18
100
AcDbLine
 10
1949.904219265808
 20
1202.962792217446
 30
0.0
 11
1949.904219265808
 21
1146.46230530199
 31
0.0
  0
LINE
  5
8B49
330
7E0F
100
AcDbEntity
  8
実形
 62
     0
370
    18
100
AcDbLine
 10
2124.904219265808
 20
1202.124012566447
 30
0.0
 11
2124.904219265808
 21
1146.46230530199
 31
0.0
  0
LINE
  5
8B4A
330
7E0F
100
AcDbEntity
  8
実形
 62
     0
370
    18
100
AcDbLine
 10
1959.904219265808
 20
1146.46230530199
 30
0.0
 11
2114.904219265808
 21
1146.46230530199
 31
0.0
  0
MTEXT
  5
8B4B
330
7E0F
100
AcDbEntity
  8
実形
 62
     0
100
AcDbMText
 10
2033.940905743442
 20
1168.147682812884
 30
0.0
 40
25.0
 41
0.0
 71
     5
 72
     1
  1
175
 73
     1
 44
1.0
1001
ACAD
1000
MTEXTBEGIN
1070
    73
1070
     1
1070
    44
1040
1.0
1070
    74
1070
     0
1000
MTEXTEND
  0
INSERT
  5
8B4C
330
7E0F
100
AcDbEntity
  8
実形
 62
     0
370
    18
100
AcDbBlockReference
  2
_Dot
 10
1949.904219265808
 20
1146.46230530199
 30
0.0
 41
10.0
 42
10.0
 43
10.0
 50
180.0
  0
INSERT
  5
8B4D
330
7E0F
100
AcDbEntity
  8
実形
 62
     0
370
    18
100
AcDbBlockReference
  2
_Dot
 10
2124.904219265808
 20
1146.46230530199
 30
0.0
 41
10.0
 42
10.0
 43
10.0
  0
POINT
  5
8B4E
330
7E0F
100
AcDbEntity
  8
Defpoints
 62
     0
100
AcDbPoint
 10
1949.904219265808
 20
1267.962792217447
 30
0.0
  0
POINT
  5
8B4F
330
7E0F
100
AcDbEntity
  8
Defpoints
 62
     0
100
AcDbPoint
 10
2124.904219265808
 20
1267.124012566447
 30
0.0
  0
POINT
  5
8B50
330
7E0F
100
AcDbEntity
  8
Defpoints
 62
     0
100
AcDbPoint
 10
2124.904219265808
 20
1146.46230530199
 30
0.0
  0
ENDBLK
  5
7E1A
330
7E0F
100
AcDbEntity
  8
0
 62
     3
100
AcDbBlockEnd
  0
BLOCK
  5
7E25
330
7E1B
100
AcDbEntity
  8
0
 62
     3
100
AcDbBlockBegin
  2
*D27
 70
     1
 10
0.0
 20
0.0
 30
0.0
  3
*D27
  1

  0
LINE
  5
8B3F
330
7E1B
100
AcDbEntity
  8
実形
 62
     0
370
    18
100
AcDbLine
 10
1934.904219265809
 20
1139.267270046923
 30
0.0
 11
1934.904219265809
 21
1094.45181606266
 31
0.0
  0
LINE
  5
8B40
330
7E1B
100
AcDbEntity
  8
実形
 62
     0
370
    18
100
AcDbLine
 10
2124.904219265808
 20
1139.267270046923
 30
0.0
 11
2124.904219265808
 21
1094.45181606266
 31
0.0
  0
LINE
  5
8B41
330
7E1B
100
AcDbEntity
  8
実形
 62
     0
370
    18
100
AcDbLine
 10
1944.904219265809
 20
1094.45181606266
 30
0.0
 11
2114.904219265809
 21
1094.45181606266
 31
0.0
  0
MTEXT
  5
8B42
330
7E1B
100
AcDbEntity
  8
実形
 62
     0
100
AcDbMText
 10
2034.77990156646
 20
1116.05181606266
 30
0.0
 40
25.0
 41
0.0
 71
     5
 72
     1
  1
190
 73
     1
 44
1.0
1001
ACAD
1000
MTEXTBEGIN
1070
    73
1070
     1
1070
    44
1040
1.0
1070
    74
1070
     0
1000
MTEXTEND
  0
INSERT
  5
8B43
330
7E1B
100
AcDbEntity
  8
実形
 62
     0
370
    18
100
AcDbBlockReference
  2
_Dot
 10
1934.904219265809
 20
1094.45181606266
 30
0.0
 41
10.0
 42
10.0
 43
10.0
 50
180.0
  0
INSERT
  5
8B44
330
7E1B
100
AcDbEntity
  8
実形
 62
     0
370
    18
100
AcDbBlockReference
  2
_Dot
 10
2124.904219265808
 20
1094.45181606266
 30
0.0
 41
10.0
 42
10.0
 43
10.0
  0
POINT
  5
8B45
330
7E1B
100
AcDbEntity
  8
Defpoints
 62
     0
100
AcDbPoint
 10
1934.904219265809
 20
1204.267270046923
 30
0.0
  0
POINT
  5
8B46
330
7E1B
100
AcDbEntity
  8
Defpoints
 62
     0
100
AcDbPoint
 10
2124.904219265808
 20
1204.267270046923
 30
0.0
  0
POINT
  5
8B47
330
7E1B
100
AcDbEntity
  8
Defpoints
 62
     0
100
AcDbPoint
 10
2124.904219265808
 20
1094.45181606266
 30
0.0
  0
ENDBLK
  5
7E26
330
7E1B
100
AcDbEntity
  8
0
 62
     3
100
AcDbBlockEnd
  0
BLOCK
  5
7E31
330
7E27
100
AcDbEntity
  8
0
 62
     3
100
AcDbBlockBegin
  2
*D28
 70
     1
 10
0.0
 20
0.0
 30
0.0
  3
*D28
  1

  0
LINE
  5
8B36
330
7E27
100
AcDbEntity
  8
実形
 62
     0
370
    18
100
AcDbLine
 10
1934.904219265809
 20
1139.267270046923
 30
0.0
 11
1934.904219265809
 21
1094.45181606266
 31
0.0
  0
LINE
  5
8B37
330
7E27
100
AcDbEntity
  8
実形
 62
     0
370
    18
100
AcDbLine
 10
2139.904219265809
 20
1201.8686154618
 30
0.0
 11
2139.904219265809
 21
1094.45181606266
 31
0.0
  0
LINE
  5
8B38
330
7E27
100
AcDbEntity
  8
実形
 62
     0
370
    18
100
AcDbLine
 10
1944.904219265809
 20
1094.45181606266
 30
0.0
 11
2129.904219265808
 21
1094.45181606266
 31
0.0
  0
MTEXT
  5
8B39
330
7E27
100
AcDbEntity
  8
実形
 62
     0
100
AcDbMText
 10
2174.89217017766
 20
1116.05181606266
 30
0.0
 40
25.0
 41
0.0
 71
     5
 72
     1
  1
15
 73
     1
 44
1.0
1001
ACAD
1000
MTEXTBEGIN
1070
    73
1070
     1
1070
    44
1040
1.0
1070
    74
1070
     0
1000
MTEXTEND
  0
INSERT
  5
8B3A
330
7E27
100
AcDbEntity
  8
実形
 62
     0
370
    18
100
AcDbBlockReference
  2
_Dot
 10
1934.904219265809
 20
1094.45181606266
 30
0.0
 41
10.0
 42
10.0
 43
10.0
 50
180.0
  0
INSERT
  5
8B3B
330
7E27
100
AcDbEntity
  8
実形
 62
     0
370
    18
100
AcDbBlockReference
  2
_Dot
 10
2139.904219265809
 20
1094.45181606266
 30
0.0
 41
10.0
 42
10.0
 43
10.0
  0
POINT
  5
8B3C
330
7E27
100
AcDbEntity
  8
Defpoints
 62
     0
100
AcDbPoint
 10
1934.904219265809
 20
1204.267270046923
 30
0.0
  0
POINT
  5
8B3D
330
7E27
100
AcDbEntity
  8
Defpoints
 62
     0
100
AcDbPoint
 10
2139.904219265809
 20
1266.8686154618
 30
0.0
  0
POINT
  5
8B3E
330
7E27
100
AcDbEntity
  8
Defpoints
 62
     0
100
AcDbPoint
 10
2139.904219265809
 20
1094.45181606266
 30
0.0
  0
ENDBLK
  5
7E32
330
7E27
100
AcDbEntity
  8
0
 62
     3
100
AcDbBlockEnd
  0
BLOCK
  5
7E3D
330
7E33
100
AcDbEntity
  8
0
 62
     3
100
AcDbBlockBegin
  2
*D29
 70
     1
 10
0.0
 20
0.0
 30
0.0
  3
*D29
  1

  0
LINE
  5
8B2D
330
7E33
100
AcDbEntity
  8
実形
 62
     0
370
    18
100
AcDbLine
 10
1935.425954926726
 20
1107.320377601457
 30
0.0
 11
1935.425954926726
 21
1041.181532497775
 31
0.0
  0
LINE
  5
8B2E
330
7E33
100
AcDbEntity
  8
実形
 62
     0
370
    18
100
AcDbLine
 10
2139.904219265809
 20
1107.320377601457
 30
0.0
 11
2139.904219265809
 21
1041.181532497775
 31
0.0
  0
LINE
  5
8B2F
330
7E33
100
AcDbEntity
  8
実形
 62
     0
370
    18
100
AcDbLine
 10
1945.425954926726
 20
1041.181532497775
 30
0.0
 11
2129.904219265808
 21
1041.181532497775
 31
0.0
  0
INSERT
  5
8B30
330
7E33
100
AcDbEntity
  8
実形
 62
     0
370
    18
100
AcDbBlockReference
  2
_Dot
 10
1935.425954926726
 20
1041.181532497775
 30
0.0
 41
10.0
 42
10.0
 43
10.0
 50
180.0
  0
INSERT
  5
8B31
330
7E33
100
AcDbEntity
  8
実形
 62
     0
370
    18
100
AcDbBlockReference
  2
_Dot
 10
2139.904219265809
 20
1041.181532497775
 30
0.0
 41
10.0
 42
10.0
 43
10.0
  0
MTEXT
  5
8B32
330
7E33
100
AcDbEntity
  8
実形
 62
     0
100
AcDbMText
 10
2037.665087096268
 20
1060.281532497775
 30
0.0
 40
25.0
 41
0.0
 71
     5
 72
     1
  1
205
 73
     1
 44
1.0
1001
ACAD
1000
MTEXTBEGIN
1070
    73
1070
     1
1070
    44
1040
1.0
1070
    74
1070
     0
1000
MTEXTEND
  0
POINT
  5
8B33
330
7E33
100
AcDbEntity
  8
Defpoints
 62
     0
100
AcDbPoint
 10
1935.425954926726
 20
1172.320377601457
 30
0.0
  0
POINT
  5
8B34
330
7E33
100
AcDbEntity
  8
Defpoints
 62
     0
100
AcDbPoint
 10
2139.904219265809
 20
1172.320377601457
 30
0.0
  0
POINT
  5
8B35
330
7E33
100
AcDbEntity
  8
Defpoints
 62
     0
100
AcDbPoint
 10
2139.904219265809
 20
1041.181532497775
 30
0.0
  0
ENDBLK
  5
7E3E
330
7E33
100
AcDbEntity
  8
0
 62
     3
100
AcDbBlockEnd
  0
BLOCK
  5
7E49
330
7E3F
100
AcDbEntity
  8
0
 62
     3
100
AcDbBlockBegin
  2
*D30
 70
     1
 10
0.0
 20
0.0
 30
0.0
  3
*D30
  1

  0
LINE
  5
8B24
330
7E3F
100
AcDbEntity
  8
実形
 62
     0
370
    18
100
AcDbLine
 10
1934.904219265809
 20
1172.320377601457
 30
0.0
 11
1934.904219265809
 21
1041.181532497775
 31
0.0
  0
LINE
  5
8B25
330
7E3F
100
AcDbEntity
  8
実形
 62
     0
370
    18
100
AcDbLine
 10
2149.904219265809
 20
1090.090446765364
 30
0.0
 11
2149.904219265809
 21
1041.181532497775
 31
0.0
  0
LINE
  5
8B26
330
7E3F
100
AcDbEntity
  8
実形
 62
     0
370
    18
100
AcDbLine
 10
1944.904219265809
 20
1041.181532497775
 30
0.0
 11
2139.904219265809
 21
1041.181532497775
 31
0.0
  0
MTEXT
  5
8B27
330
7E3F
100
AcDbEntity
  8
実形
 62
     0
100
AcDbMText
 10
2173.699543758725
 20
1062.781532497774
 30
0.0
 40
25.0
 41
0.0
 71
     5
 72
     1
  1
8
 73
     1
 44
1.0
1001
ACAD
1000
MTEXTBEGIN
1070
    73
1070
     1
1070
    44
1040
1.0
1070
    74
1070
     0
1000
MTEXTEND
  0
INSERT
  5
8B28
330
7E3F
100
AcDbEntity
  8
実形
 62
     0
370
    18
100
AcDbBlockReference
  2
_Dot
 10
1934.904219265809
 20
1041.181532497775
 30
0.0
 41
10.0
 42
10.0
 43
10.0
 50
180.0
  0
INSERT
  5
8B29
330
7E3F
100
AcDbEntity
  8
実形
 62
     0
370
    18
100
AcDbBlockReference
  2
_Dot
 10
2149.904219265809
 20
1041.181532497775
 30
0.0
 41
10.0
 42
10.0
 43
10.0
  0
POINT
  5
8B2A
330
7E3F
100
AcDbEntity
  8
Defpoints
 62
     0
100
AcDbPoint
 10
1934.904219265809
 20
1237.320377601457
 30
0.0
  0
POINT
  5
8B2B
330
7E3F
100
AcDbEntity
  8
Defpoints
 62
     0
100
AcDbPoint
 10
2149.904219265809
 20
1155.090446765364
 30
0.0
  0
POINT
  5
8B2C
330
7E3F
100
AcDbEntity
  8
Defpoints
 62
     0
100
AcDbPoint
 10
2149.904219265809
 20
1041.181532497775
 30
0.0
  0
ENDBLK
  5
7E4A
330
7E3F
100
AcDbEntity
  8
0
 62
     3
100
AcDbBlockEnd
  0
BLOCK
  5
7E55
330
7E4B
100
AcDbEntity
  8
0
 62
     3
100
AcDbBlockBegin
  2
*D31
 70
     1
 10
0.0
 20
0.0
 30
0.0
  3
*D31
  1

  0
LINE
  5
8AD3
330
7E4B
100
AcDbEntity
  8
実形
 62
     0
370
    18
100
AcDbLine
 10
1934.904219265809
 20
1107.320377601457
 30
0.0
 11
1934.904219265809
 21
986.4755211003473
 31
0.0
  0
LINE
  5
8AD4
330
7E4B
100
AcDbEntity
  8
実形
 62
     0
370
    18
100
AcDbLine
 10
2149.904219265809
 20
1043.252964348653
 30
0.0
 11
2149.904219265809
 21
986.4755211003473
 31
0.0
  0
LINE
  5
8AD5
330
7E4B
100
AcDbEntity
  8
実形
 62
     0
370
    18
100
AcDbLine
 10
1944.904219265809
 20
986.4755211003473
 30
0.0
 11
2139.904219265809
 21
986.4755211003473
 31
0.0
  0
MTEXT
  5
8AD6
330
7E4B
100
AcDbEntity
  8
実形
 62
     0
100
AcDbMText
 10
2037.296889035508
 20
1008.075521100347
 30
0.0
 40
25.0
 41
0.0
 71
     5
 72
     1
  1
213
 73
     1
 44
1.0
1001
ACAD
1000
MTEXTBEGIN
1070
    73
1070
     1
1070
    44
1040
1.0
1070
    74
1070
     0
1000
MTEXTEND
  0
INSERT
  5
8AD7
330
7E4B
100
AcDbEntity
  8
実形
 62
     0
370
    18
100
AcDbBlockReference
  2
_Dot
 10
1934.904219265809
 20
986.4755211003473
 30
0.0
 41
10.0
 42
10.0
 43
10.0
 50
180.0
  0
INSERT
  5
8AD8
330
7E4B
100
AcDbEntity
  8
実形
 62
     0
370
    18
100
AcDbBlockReference
  2
_Dot
 10
2149.904219265809
 20
986.4755211003473
 30
0.0
 41
10.0
 42
10.0
 43
10.0
  0
POINT
  5
8AD9
330
7E4B
100
AcDbEntity
  8
Defpoints
 62
     0
100
AcDbPoint
 10
1934.904219265809
 20
1172.320377601457
 30
0.0
  0
POINT
  5
8ADA
330
7E4B
100
AcDbEntity
  8
Defpoints
 62
     0
100
AcDbPoint
 10
2149.904219265809
 20
1108.252964348653
 30
0.0
  0
POINT
  5
8ADB
330
7E4B
100
AcDbEntity
  8
Defpoints
 62
     0
100
AcDbPoint
 10
2149.904219265809
 20
986.4755211003473
 30
0.0
  0
ENDBLK
  5
7E56
330
7E4B
100
AcDbEntity
  8
0
 62
     3
100
AcDbBlockEnd
  0
BLOCK
  5
8272
330
8268
100
AcDbEntity
  8
0
 62
     3
100
AcDbBlockBegin
  2
*D32
 70
     1
 10
0.0
 20
0.0
 30
0.0
  3
*D32
  1

  0
LINE
  5
8B6C
330
8268
100
AcDbEntity
  8
実形
 62
     0
370
    18
100
AcDbLine
 10
1482.069343183913
 20
1746.67196328526
 30
0.0
 11
1482.069343183913
 21
1785.511640793593
 31
0.0
  0
LINE
  5
8B6D
330
8268
100
AcDbEntity
  8
実形
 62
     0
370
    18
100
AcDbLine
 10
1747.069343183913
 20
1746.67196328526
 30
0.0
 11
1747.069343183913
 21
1785.511640793593
 31
0.0
  0
LINE
  5
8B6E
330
8268
100
AcDbEntity
  8
実形
 62
     0
370
    18
100
AcDbLine
 10
1492.069343183914
 20
1785.511640793593
 30
0.0
 11
1737.069343183913
 21
1785.511640793593
 31
0.0
  0
MTEXT
  5
8B6F
330
8268
100
AcDbEntity
  8
実形
 62
     0
100
AcDbMText
 10
1738.300620881757
 20
1813.540762967295
 30
0.0
 40
25.0
 41
0.0
 71
     5
 72
     1
  1
15
 73
     1
 44
1.0
1001
ACAD
1000
MTEXTBEGIN
1070
    73
1070
     1
1070
    44
1040
1.0
1070
    74
1070
     0
1000
MTEXTEND
  0
INSERT
  5
8B70
330
8268
100
AcDbEntity
  8
実形
 62
     0
370
    18
100
AcDbBlockReference
  2
_Dot
 10
1482.069343183913
 20
1785.511640793593
 30
0.0
 41
10.0
 42
10.0
 43
10.0
 50
180.0
  0
INSERT
  5
8B71
330
8268
100
AcDbEntity
  8
実形
 62
     0
370
    18
100
AcDbBlockReference
  2
_Dot
 10
1747.069343183913
 20
1785.511640793593
 30
0.0
 41
10.0
 42
10.0
 43
10.0
  0
POINT
  5
8B72
330
8268
100
AcDbEntity
  8
Defpoints
 62
     0
100
AcDbPoint
 10
1482.069343183913
 20
1681.67196328526
 30
0.0
  0
POINT
  5
8B73
330
8268
100
AcDbEntity
  8
Defpoints
 62
     0
100
AcDbPoint
 10
1747.069343183913
 20
1681.67196328526
 30
0.0
  0
POINT
  5
8B74
330
8268
100
AcDbEntity
  8
Defpoints
 62
     0
100
AcDbPoint
 10
1747.069343183913
 20
1785.511640793593
 30
0.0
  0
ENDBLK
  5
8273
330
8268
100
AcDbEntity
  8
0
 62
     3
100
AcDbBlockEnd
  0
BLOCK
  5
827F
330
8275
100
AcDbEntity
  8
0
 62
     3
100
AcDbBlockBegin
  2
*D33
 70
     1
 10
0.0
 20
0.0
 30
0.0
  3
*D33
  1

  0
LINE
  5
8B63
330
8275
100
AcDbEntity
  8
実形
 62
     0
370
    18
100
AcDbLine
 10
1482.069343183913
 20
1746.67196328526
 30
0.0
 11
1482.069343183913
 21
1785.511640793593
 31
0.0
  0
LINE
  5
8B64
330
8275
100
AcDbEntity
  8
実形
 62
     0
370
    18
100
AcDbLine
 10
1732.069343183914
 20
1746.67196328526
 30
0.0
 11
1732.069343183914
 21
1785.511640793593
 31
0.0
  0
LINE
  5
8B65
330
8275
100
AcDbEntity
  8
実形
 62
     0
370
    18
100
AcDbLine
 10
1492.069343183914
 20
1785.511640793593
 30
0.0
 11
1722.069343183914
 21
1785.511640793593
 31
0.0
  0
MTEXT
  5
8B66
330
8275
100
AcDbEntity
  8
実形
 62
     0
100
AcDbMText
 10
1606.265089941191
 20
1812.803321276995
 30
0.0
 40
25.0
 41
0.0
 71
     5
 72
     1
  1
250
 73
     1
 44
1.0
1001
ACAD
1000
MTEXTBEGIN
1070
    73
1070
     1
1070
    44
1040
1.0
1070
    74
1070
     0
1000
MTEXTEND
  0
INSERT
  5
8B67
330
8275
100
AcDbEntity
  8
実形
 62
     0
370
    18
100
AcDbBlockReference
  2
_Dot
 10
1482.069343183913
 20
1785.511640793593
 30
0.0
 41
10.0
 42
10.0
 43
10.0
 50
180.0
  0
INSERT
  5
8B68
330
8275
100
AcDbEntity
  8
実形
 62
     0
370
    18
100
AcDbBlockReference
  2
_Dot
 10
1732.069343183914
 20
1785.511640793593
 30
0.0
 41
10.0
 42
10.0
 43
10.0
  0
POINT
  5
8B69
330
8275
100
AcDbEntity
  8
Defpoints
 62
     0
100
AcDbPoint
 10
1482.069343183913
 20
1681.67196328526
 30
0.0
  0
POINT
  5
8B6A
330
8275
100
AcDbEntity
  8
Defpoints
 62
     0
100
AcDbPoint
 10
1732.069343183914
 20
1681.67196328526
 30
0.0
  0
POINT
  5
8B6B
330
8275
100
AcDbEntity
  8
Defpoints
 62
     0
100
AcDbPoint
 10
1732.069343183914
 20
1785.511640793593
 30
0.0
  0
ENDBLK
  5
8280
330
8275
100
AcDbEntity
  8
0
 62
     3
100
AcDbBlockEnd
  0
BLOCK
  5
840D
330
8403
100
AcDbEntity
  8
0
 62
     3
100
AcDbBlockBegin
  2
*D34
 70
     1
 10
0.0
 20
0.0
 30
0.0
  3
*D34
  1

  0
LINE
  5
8B00
330
8403
100
AcDbEntity
  8
実形
 62
     0
370
    18
100
AcDbLine
 10
1857.398879677636
 20
1611.67196328526
 30
0.0
 11
1902.570951873659
 21
1611.67196328526
 31
0.0
  0
LINE
  5
8B01
330
8403
100
AcDbEntity
  8
実形
 62
     0
370
    18
100
AcDbLine
 10
1857.398879677636
 20
1701.67196328526
 30
0.0
 11
1902.570951873659
 21
1701.67196328526
 31
0.0
  0
LINE
  5
8B02
330
8403
100
AcDbEntity
  8
実形
 62
     0
370
    18
100
AcDbLine
 10
1902.570951873659
 20
1621.67196328526
 30
0.0
 11
1902.570951873659
 21
1691.67196328526
 31
0.0
  0
INSERT
  5
8B03
330
8403
100
AcDbEntity
  8
実形
 62
     0
370
    18
100
AcDbBlockReference
  2
_Dot
 10
1902.570951873659
 20
1611.67196328526
 30
0.0
 41
10.0
 42
10.0
 43
10.0
 50
270.0
  0
INSERT
  5
8B04
330
8403
100
AcDbEntity
  8
実形
 62
     0
370
    18
100
AcDbBlockReference
  2
_Dot
 10
1902.570951873659
 20
1701.67196328526
 30
0.0
 41
10.0
 42
10.0
 43
10.0
 50
90.0
  0
MTEXT
  5
8B05
330
8403
100
AcDbEntity
  8
実形
 62
     0
100
AcDbMText
 10
1883.470951873659
 20
1656.67196328526
 30
0.0
 40
25.0
 41
0.0
 71
     5
 72
     1
  1
90
 11
0.0000000000000001
 21
1.0
 31
0.0
 73
     1
 44
1.0
1001
ACAD
1000
MTEXTBEGIN
1070
    73
1070
     1
1070
    44
1040
1.0
1070
    74
1070
     0
1000
MTEXTEND
  0
POINT
  5
8B06
330
8403
100
AcDbEntity
  8
Defpoints
 62
     0
100
AcDbPoint
 10
1792.398879677637
 20
1611.67196328526
 30
0.0
  0
POINT
  5
8B07
330
8403
100
AcDbEntity
  8
Defpoints
 62
     0
100
AcDbPoint
 10
1792.398879677637
 20
1701.67196328526
 30
0.0
  0
POINT
  5
8B08
330
8403
100
AcDbEntity
  8
Defpoints
 62
     0
100
AcDbPoint
 10
1902.570951873659
 20
1701.67196328526
 30
0.0
  0
ENDBLK
  5
840E
330
8403
100
AcDbEntity
  8
0
 62
     3
100
AcDbBlockEnd
  0
BLOCK
  5
8435
330
842B
100
AcDbEntity
  8
0
 62
     3
100
AcDbBlockBegin
  2
*D35
 70
     1
 10
0.0
 20
0.0
 30
0.0
  3
*D35
  1

  0
LINE
  5
8D28
330
842B
100
AcDbEntity
  8
実形
 62
     0
370
    18
100
AcDbLine
 10
1808.53140065097
 20
1716.67196328526
 30
0.0
 11
1853.984069907109
 21
1716.67196328526
 31
0.0
  0
LINE
  5
8D29
330
842B
100
AcDbEntity
  8
実形
 62
     0
370
    18
100
AcDbLine
 10
1843.811997711086
 20
1611.671963285259
 30
0.0
 11
1853.984069907109
 21
1611.671963285259
 31
0.0
  0
LINE
  5
8D2A
330
842B
100
AcDbEntity
  8
実形
 62
     0
370
    18
100
AcDbLine
 10
1853.984069907109
 20
1706.671963285259
 30
0.0
 11
1853.984069907109
 21
1621.671963285259
 31
0.0
  0
MTEXT
  5
8D2B
330
842B
100
AcDbEntity
  8
実形
 62
     0
100
AcDbMText
 10
1785.070568766399
 20
1737.811969917097
 30
0.0
 40
25.0
 41
0.0
 71
     5
 72
     1
  1
15
 11
0.0000000000000001
 21
1.0
 31
0.0
 73
     1
 44
1.0
1001
ACAD
1000
MTEXTBEGIN
1070
    73
1070
     1
1070
    44
1040
1.0
1070
    74
1070
     0
1000
MTEXTEND
  0
INSERT
  5
8D2C
330
842B
100
AcDbEntity
  8
実形
 62
     0
370
    18
100
AcDbBlockReference
  2
_Dot
 10
1853.984069907109
 20
1716.67196328526
 30
0.0
 41
10.0
 42
10.0
 43
10.0
 50
90.0
  0
INSERT
  5
8D2D
330
842B
100
AcDbEntity
  8
実形
 62
     0
370
    18
100
AcDbBlockReference
  2
_Dot
 10
1853.984069907109
 20
1611.671963285259
 30
0.0
 41
10.0
 42
10.0
 43
10.0
 50
270.0
  0
POINT
  5
8D2E
330
842B
100
AcDbEntity
  8
Defpoints
 62
     0
100
AcDbPoint
 10
1743.53140065097
 20
1716.67196328526
 30
0.0
  0
POINT
  5
8D2F
330
842B
100
AcDbEntity
  8
Defpoints
 62
     0
100
AcDbPoint
 10
1778.811997711086
 20
1611.671963285259
 30
0.0
  0
POINT
  5
8D30
330
842B
100
AcDbEntity
  8
Defpoints
 62
     0
100
AcDbPoint
 10
1853.984069907109
 20
1611.671963285259
 30
0.0
  0
ENDBLK
  5
8436
330
842B
100
AcDbEntity
  8
0
 62
     3
100
AcDbBlockEnd
  0
BLOCK
  5
851E
330
8514
100
AcDbEntity
  8
0
 62
     3
100
AcDbBlockBegin
  2
*D36
 70
     1
 10
0.0
 20
0.0
 30
0.0
  3
*D36
  1

  0
LINE
  5
8AEE
330
8514
100
AcDbEntity
  8
実形
 62
     0
370
    18
100
AcDbLine
 10
1807.213664431253
 20
1681.67196328526
 30
0.0
 11
1853.984069907109
 21
1681.67196328526
 31
0.0
  0
LINE
  5
8AEF
330
8514
100
AcDbEntity
  8
実形
 62
     0
370
    18
100
AcDbLine
 10
1807.213664431253
 20
1611.671963285259
 30
0.0
 11
1853.984069907109
 21
1611.671963285259
 31
0.0
  0
LINE
  5
8AF0
330
8514
100
AcDbEntity
  8
実形
 62
     0
370
    18
100
AcDbLine
 10
1853.984069907109
 20
1671.67196328526
 30
0.0
 11
1853.984069907109
 21
1621.671963285259
 31
0.0
  0
INSERT
  5
8AF1
330
8514
100
AcDbEntity
  8
実形
 62
     0
370
    18
100
AcDbBlockReference
  2
_Dot
 10
1853.984069907109
 20
1681.67196328526
 30
0.0
 41
10.0
 42
10.0
 43
10.0
 50
90.0
  0
INSERT
  5
8AF2
330
8514
100
AcDbEntity
  8
実形
 62
     0
370
    18
100
AcDbBlockReference
  2
_Dot
 10
1853.984069907109
 20
1611.671963285259
 30
0.0
 41
10.0
 42
10.0
 43
10.0
 50
270.0
  0
MTEXT
  5
8AF3
330
8514
100
AcDbEntity
  8
実形
 62
     0
100
AcDbMText
 10
1834.884069907109
 20
1646.67196328526
 30
0.0
 40
25.0
 41
0.0
 71
     5
 72
     1
  1
70
 11
0.0000000000000001
 21
1.0
 31
0.0
 73
     1
 44
1.0
1001
ACAD
1000
MTEXTBEGIN
1070
    73
1070
     1
1070
    44
1040
1.0
1070
    74
1070
     0
1000
MTEXTEND
  0
POINT
  5
8AF4
330
8514
100
AcDbEntity
  8
Defpoints
 62
     0
100
AcDbPoint
 10
1742.213664431253
 20
1681.67196328526
 30
0.0
  0
POINT
  5
8AF5
330
8514
100
AcDbEntity
  8
Defpoints
 62
     0
100
AcDbPoint
 10
1742.213664431252
 20
1611.671963285259
 30
0.0
  0
POINT
  5
8AF6
330
8514
100
AcDbEntity
  8
Defpoints
 62
     0
100
AcDbPoint
 10
1853.984069907109
 20
1611.671963285259
 30
0.0
  0
ENDBLK
  5
851F
330
8514
100
AcDbEntity
  8
0
 62
     3
100
AcDbBlockEnd
  0
BLOCK
  5
8534
330
852A
100
AcDbEntity
  8
0
 62
     3
100
AcDbBlockBegin
  2
*D37
 70
     1
 10
0.0
 20
0.0
 30
0.0
  3
*D37
  1

  0
LINE
  5
8D1F
330
852A
100
AcDbEntity
  8
実形
 62
     0
370
    18
100
AcDbLine
 10
1807.296253884137
 20
1611.67196328526
 30
0.0
 11
1853.984069907109
 21
1611.67196328526
 31
0.0
  0
LINE
  5
8D20
330
852A
100
AcDbEntity
  8
実形
 62
     0
370
    18
100
AcDbLine
 10
1806.556960861116
 20
1701.67196328526
 30
0.0
 11
1853.984069907109
 21
1701.67196328526
 31
0.0
  0
LINE
  5
8D21
330
852A
100
AcDbEntity
  8
実形
 62
     0
370
    18
100
AcDbLine
 10
1853.984069907109
 20
1621.671963285259
 30
0.0
 11
1853.984069907109
 21
1691.67196328526
 31
0.0
  0
MTEXT
  5
8D22
330
852A
100
AcDbEntity
  8
実形
 62
     0
100
AcDbMText
 10
1782.957432318142
 20
1677.86257632943
 30
0.0
 40
25.0
 41
0.0
 71
     5
 72
     1
  1
20
 11
0.0000000000000001
 21
1.0
 31
0.0
 73
     1
 44
1.0
1001
ACAD
1000
MTEXTBEGIN
1070
    73
1070
     1
1070
    44
1040
1.0
1070
    74
1070
     0
1000
MTEXTEND
  0
INSERT
  5
8D23
330
852A
100
AcDbEntity
  8
実形
 62
     0
370
    18
100
AcDbBlockReference
  2
_Dot
 10
1853.984069907109
 20
1611.67196328526
 30
0.0
 41
10.0
 42
10.0
 43
10.0
 50
270.0
  0
INSERT
  5
8D24
330
852A
100
AcDbEntity
  8
実形
 62
     0
370
    18
100
AcDbBlockReference
  2
_Dot
 10
1853.984069907109
 20
1701.67196328526
 30
0.0
 41
10.0
 42
10.0
 43
10.0
 50
90.0
  0
POINT
  5
8D25
330
852A
100
AcDbEntity
  8
Defpoints
 62
     0
100
AcDbPoint
 10
1742.296253884137
 20
1611.67196328526
 30
0.0
  0
POINT
  5
8D26
330
852A
100
AcDbEntity
  8
Defpoints
 62
     0
100
AcDbPoint
 10
1741.556960861116
 20
1701.67196328526
 30
0.0
  0
POINT
  5
8D27
330
852A
100
AcDbEntity
  8
Defpoints
 62
     0
100
AcDbPoint
 10
1853.984069907109
 20
1701.67196328526
 30
0.0
  0
ENDBLK
  5
8535
330
852A
100
AcDbEntity
  8
0
 62
     3
100
AcDbBlockEnd
  0
BLOCK
  5
8627
330
861D
100
AcDbEntity
  8
0
 62
     3
100
AcDbBlockBegin
  2
*D38
 70
     1
 10
0.0
 20
0.0
 30
0.0
  3
*D38
  1

  0
LINE
  5
8AB8
330
861D
100
AcDbEntity
  8
実形
 62
     0
370
    18
100
AcDbLine
 10
952.0693431839136
 20
1746.67196328526
 30
0.0
 11
952.0693431839136
 21
1785.511640793593
 31
0.0
  0
LINE
  5
8AB9
330
861D
100
AcDbEntity
  8
実形
 62
     0
370
    18
100
AcDbLine
 10
1102.069343183913
 20
1746.67196328526
 30
0.0
 11
1102.069343183913
 21
1785.511640793593
 31
0.0
  0
LINE
  5
8ABA
330
861D
100
AcDbEntity
  8
実形
 62
     0
370
    18
100
AcDbLine
 10
962.0693431839136
 20
1785.511640793593
 30
0.0
 11
1092.069343183913
 21
1785.511640793593
 31
0.0
  0
MTEXT
  5
8ABB
330
861D
100
AcDbEntity
  8
実形
 62
     0
100
AcDbMText
 10
1027.069343183913
 20
1813.455574092207
 30
0.0
 40
25.0
 41
0.0
 71
     5
 72
     1
  1
150
 73
     1
 44
1.0
1001
ACAD
1000
MTEXTBEGIN
1070
    73
1070
     1
1070
    44
1040
1.0
1070
    74
1070
     0
1000
MTEXTEND
  0
INSERT
  5
8ABC
330
861D
100
AcDbEntity
  8
実形
 62
     0
370
    18
100
AcDbBlockReference
  2
_Dot
 10
952.0693431839136
 20
1785.511640793593
 30
0.0
 41
10.0
 42
10.0
 43
10.0
 50
180.0
  0
INSERT
  5
8ABD
330
861D
100
AcDbEntity
  8
実形
 62
     0
370
    18
100
AcDbBlockReference
  2
_Dot
 10
1102.069343183913
 20
1785.511640793593
 30
0.0
 41
10.0
 42
10.0
 43
10.0
  0
POINT
  5
8ABE
330
861D
100
AcDbEntity
  8
Defpoints
 62
     0
100
AcDbPoint
 10
952.0693431839136
 20
1681.67196328526
 30
0.0
  0
POINT
  5
8ABF
330
861D
100
AcDbEntity
  8
Defpoints
 62
     0
100
AcDbPoint
 10
1102.069343183913
 20
1681.67196328526
 30
0.0
  0
POINT
  5
8AC0
330
861D
100
AcDbEntity
  8
Defpoints
 62
     0
100
AcDbPoint
 10
1102.069343183913
 20
1785.511640793593
 30
0.0
  0
ENDBLK
  5
8628
330
861D
100
AcDbEntity
  8
0
 62
     3
100
AcDbBlockEnd
  0
BLOCK
  5
89AC
330
89A2
100
AcDbEntity
  8
0
 62
     3
100
AcDbBlockBegin
  2
*D39
 70
     1
 10
0.0
 20
0.0
 30
0.0
  3
*D39
  1

  0
LINE
  5
8B1B
330
89A2
100
AcDbEntity
  8
実形
 62
     0
370
    18
100
AcDbLine
 10
1812.069343183913
 20
1236.67196328526
 30
0.0
 11
1853.984069907109
 21
1236.67196328526
 31
0.0
  0
LINE
  5
8B1C
330
89A2
100
AcDbEntity
  8
実形
 62
     0
370
    18
100
AcDbLine
 10
1812.069343183916
 20
1611.671963285259
 30
0.0
 11
1853.984069907109
 21
1611.671963285259
 31
0.0
  0
LINE
  5
8B1D
330
89A2
100
AcDbEntity
  8
実形
 62
     0
370
    18
100
AcDbLine
 10
1853.984069907109
 20
1246.67196328526
 30
0.0
 11
1853.984069907109
 21
1601.671963285259
 31
0.0
  0
INSERT
  5
8B1E
330
89A2
100
AcDbEntity
  8
実形
 62
     0
370
    18
100
AcDbBlockReference
  2
_Dot
 10
1853.984069907109
 20
1236.67196328526
 30
0.0
 41
10.0
 42
10.0
 43
10.0
 50
270.0
  0
INSERT
  5
8B1F
330
89A2
100
AcDbEntity
  8
実形
 62
     0
370
    18
100
AcDbBlockReference
  2
_Dot
 10
1853.984069907109
 20
1611.671963285259
 30
0.0
 41
10.0
 42
10.0
 43
10.0
 50
90.0
  0
MTEXT
  5
8B20
330
89A2
100
AcDbEntity
  8
実形
 62
     0
100
AcDbMText
 10
1832.384069907108
 20
1424.17196328526
 30
0.0
 40
30.0
 41
0.0
 71
     5
 72
     1
  1
340
 11
0.0000000000000001
 21
1.0
 31
0.0
 73
     1
 44
1.0
1001
ACAD
1000
MTEXTBEGIN
1070
    73
1070
     1
1070
    44
1040
1.0
1070
    74
1070
     0
1000
MTEXTEND
  0
POINT
  5
8B21
330
89A2
100
AcDbEntity
  8
Defpoints
 62
     0
100
AcDbPoint
 10
1747.069343183914
 20
1236.67196328526
 30
0.0
  0
POINT
  5
8B22
330
89A2
100
AcDbEntity
  8
Defpoints
 62
     0
100
AcDbPoint
 10
1747.069343183916
 20
1611.671963285259
 30
0.0
  0
POINT
  5
8B23
330
89A2
100
AcDbEntity
  8
Defpoints
 62
     0
100
AcDbPoint
 10
1853.984069907109
 20
1611.671963285259
 30
0.0
  0
ENDBLK
  5
89AD
330
89A2
100
AcDbEntity
  8
0
 62
     3
100
AcDbBlockEnd
  0
BLOCK
  5
89CB
330
89C1
100
AcDbEntity
  8
0
 62
     3
100
AcDbBlockBegin
  2
*D40
 70
     1
 10
0.0
 20
0.0
 30
0.0
  3
*D40
  1

  0
LINE
  5
8B12
330
89C1
100
AcDbEntity
  8
実形
 62
     0
370
    18
100
AcDbLine
 10
1812.069343183913
 20
1251.67196328526
 30
0.0
 11
1853.984069907109
 21
1251.67196328526
 31
0.0
  0
LINE
  5
8B13
330
89C1
100
AcDbEntity
  8
実形
 62
     0
370
    18
100
AcDbLine
 10
1812.069343183915
 20
1611.671963285259
 30
0.0
 11
1853.984069907109
 21
1611.671963285259
 31
0.0
  0
LINE
  5
8B14
330
89C1
100
AcDbEntity
  8
実形
 62
     0
370
    18
100
AcDbLine
 10
1853.984069907109
 20
1261.67196328526
 30
0.0
 11
1853.984069907109
 21
1601.671963285259
 31
0.0
  0
MTEXT
  5
8B15
330
89C1
100
AcDbEntity
  8
実形
 62
     0
100
AcDbMText
 10
1832.47525135178
 20
1203.535137087769
 30
0.0
 40
30.0
 41
0.0
 71
     5
 72
     1
  1
15
 11
0.0000000000000001
 21
1.0
 31
0.0
 73
     1
 44
1.0
1001
ACAD
1000
MTEXTBEGIN
1070
    73
1070
     1
1070
    44
1040
1.0
1070
    74
1070
     0
1000
MTEXTEND
  0
INSERT
  5
8B16
330
89C1
100
AcDbEntity
  8
実形
 62
     0
370
    18
100
AcDbBlockReference
  2
_Dot
 10
1853.984069907109
 20
1251.67196328526
 30
0.0
 41
10.0
 42
10.0
 43
10.0
 50
270.0
  0
INSERT
  5
8B17
330
89C1
100
AcDbEntity
  8
実形
 62
     0
370
    18
100
AcDbBlockReference
  2
_Dot
 10
1853.984069907109
 20
1611.671963285259
 30
0.0
 41
10.0
 42
10.0
 43
10.0
 50
90.0
  0
POINT
  5
8B18
330
89C1
100
AcDbEntity
  8
Defpoints
 62
     0
100
AcDbPoint
 10
1747.069343183914
 20
1251.67196328526
 30
0.0
  0
POINT
  5
8B19
330
89C1
100
AcDbEntity
  8
Defpoints
 62
     0
100
AcDbPoint
 10
1747.069343183915
 20
1611.671963285259
 30
0.0
  0
POINT
  5
8B1A
330
89C1
100
AcDbEntity
  8
Defpoints
 62
     0
100
AcDbPoint
 10
1853.984069907109
 20
1611.671963285259
 30
0.0
  0
ENDBLK
  5
89CC
330
89C1
100
AcDbEntity
  8
0
 62
     3
100
AcDbBlockEnd
  0
BLOCK
  5
89EA
330
89E0
100
AcDbEntity
  8
0
 62
     3
100
AcDbBlockBegin
  2
*D41
 70
     1
 10
0.0
 20
0.0
 30
0.0
  3
*D41
  1

  0
LINE
  5
8B09
330
89E0
100
AcDbEntity
  8
実形
 62
     0
370
    18
100
AcDbLine
 10
1812.069343183913
 20
1611.671963285259
 30
0.0
 11
1853.984069907109
 21
1611.671963285259
 31
0.0
  0
LINE
  5
8B0A
330
89E0
100
AcDbEntity
  8
実形
 62
     0
370
    18
100
AcDbLine
 10
1812.069343183913
 20
1271.67196328526
 30
0.0
 11
1853.984069907109
 21
1271.67196328526
 31
0.0
  0
LINE
  5
8B0B
330
89E0
100
AcDbEntity
  8
実形
 62
     0
370
    18
100
AcDbLine
 10
1853.984069907109
 20
1601.671963285259
 30
0.0
 11
1853.984069907109
 21
1281.67196328526
 31
0.0
  0
MTEXT
  5
8B0C
330
89E0
100
AcDbEntity
  8
実形
 62
     0
100
AcDbMText
 10
1831.032304478753
 20
1305.889333904241
 30
0.0
 40
30.0
 41
0.0
 71
     5
 72
     1
  1
20
 11
0.0000000000000001
 21
1.0
 31
0.0
 73
     1
 44
1.0
1001
ACAD
1000
MTEXTBEGIN
1070
    73
1070
     1
1070
    44
1040
1.0
1070
    74
1070
     0
1000
MTEXTEND
  0
INSERT
  5
8B0D
330
89E0
100
AcDbEntity
  8
実形
 62
     0
370
    18
100
AcDbBlockReference
  2
_Dot
 10
1853.984069907109
 20
1611.671963285259
 30
0.0
 41
10.0
 42
10.0
 43
10.0
 50
90.0
  0
INSERT
  5
8B0E
330
89E0
100
AcDbEntity
  8
実形
 62
     0
370
    18
100
AcDbBlockReference
  2
_Dot
 10
1853.984069907109
 20
1271.67196328526
 30
0.0
 41
10.0
 42
10.0
 43
10.0
 50
270.0
  0
POINT
  5
8B0F
330
89E0
100
AcDbEntity
  8
Defpoints
 62
     0
100
AcDbPoint
 10
1747.069343183914
 20
1611.671963285259
 30
0.0
  0
POINT
  5
8B10
330
89E0
100
AcDbEntity
  8
Defpoints
 62
     0
100
AcDbPoint
 10
1747.069343183914
 20
1271.67196328526
 30
0.0
  0
POINT
  5
8B11
330
89E0
100
AcDbEntity
  8
Defpoints
 62
     0
100
AcDbPoint
 10
1853.984069907109
 20
1271.67196328526
 30
0.0
  0
ENDBLK
  5
89EB
330
89E0
100
AcDbEntity
  8
0
 62
     3
100
AcDbBlockEnd
  0
BLOCK
  5
8C4D
330
8C43
100
AcDbEntity
  8
0
 62
     3
100
AcDbBlockBegin
  2
*D42
 70
     1
 10
0.0
 20
0.0
 30
0.0
  3
*D42
  1

  0
LINE
  5
8C97
330
8C43
100
AcDbEntity
  8
実形
 62
     0
370
    18
100
AcDbLine
 10
875.9530405591737
 20
675.1402142854659
 30
0.0
 11
816.6962807207216
 21
675.1402142854659
 31
0.0
  0
LINE
  5
8C98
330
8C43
100
AcDbEntity
  8
実形
 62
     0
370
    18
100
AcDbLine
 10
875.9530405591737
 20
485.1402142854658
 30
0.0
 11
816.6962807207216
 21
485.1402142854658
 31
0.0
  0
LINE
  5
8C99
330
8C43
100
AcDbEntity
  8
実形
 62
     0
370
    18
100
AcDbLine
 10
816.6962807207216
 20
665.1402142854659
 30
0.0
 11
816.6962807207216
 21
495.1402142854659
 31
0.0
  0
MTEXT
  5
8C9A
330
8C43
100
AcDbEntity
  8
実形
 62
     0
100
AcDbMText
 10
796.9272509909021
 20
652.3673569822768
 30
0.0
 40
25.0
 41
0.0
 71
     5
 72
     1
  1
15
 11
0.0000000000000001
 21
1.0
 31
0.0
 73
     1
 44
1.0
1001
ACAD
1000
MTEXTBEGIN
1070
    73
1070
     1
1070
    44
1040
1.0
1070
    74
1070
     0
1000
MTEXTEND
  0
INSERT
  5
8C9B
330
8C43
100
AcDbEntity
  8
実形
 62
     0
370
    18
100
AcDbBlockReference
  2
_Dot
 10
816.6962807207216
 20
675.1402142854659
 30
0.0
 41
10.0
 42
10.0
 43
10.0
 50
90.0
  0
INSERT
  5
8C9C
330
8C43
100
AcDbEntity
  8
実形
 62
     0
370
    18
100
AcDbBlockReference
  2
_Dot
 10
816.6962807207216
 20
485.1402142854658
 30
0.0
 41
10.0
 42
10.0
 43
10.0
 50
270.0
  0
POINT
  5
8C9D
330
8C43
100
AcDbEntity
  8
Defpoints
 62
     0
100
AcDbPoint
 10
940.9530405591738
 20
675.1402142854659
 30
0.0
  0
POINT
  5
8C9E
330
8C43
100
AcDbEntity
  8
Defpoints
 62
     0
100
AcDbPoint
 10
940.9530405591738
 20
485.1402142854658
 30
0.0
  0
POINT
  5
8C9F
330
8C43
100
AcDbEntity
  8
Defpoints
 62
     0
100
AcDbPoint
 10
816.6962807207216
 20
485.1402142854658
 30
0.0
  0
ENDBLK
  5
8C4E
330
8C43
100
AcDbEntity
  8
0
 62
     3
100
AcDbBlockEnd
  0
BLOCK
  5
8C59
330
8C4F
100
AcDbEntity
  8
0
 62
     3
100
AcDbBlockBegin
  2
*D43
 70
     1
 10
0.0
 20
0.0
 30
0.0
  3
*D43
  1

  0
LINE
  5
8CA0
330
8C4F
100
AcDbEntity
  8
実形
 62
     0
370
    18
100
AcDbLine
 10
875.9530405591737
 20
660.1402142854658
 30
0.0
 11
816.6962807207216
 21
660.1402142854658
 31
0.0
  0
LINE
  5
8CA1
330
8C4F
100
AcDbEntity
  8
実形
 62
     0
370
    18
100
AcDbLine
 10
875.9530405591737
 20
485.1402142854658
 30
0.0
 11
816.6962807207216
 21
485.1402142854658
 31
0.0
  0
LINE
  5
8CA2
330
8C4F
100
AcDbEntity
  8
実形
 62
     0
370
    18
100
AcDbLine
 10
816.6962807207216
 20
650.1402142854658
 30
0.0
 11
816.6962807207216
 21
495.1402142854659
 31
0.0
  0
INSERT
  5
8CA3
330
8C4F
100
AcDbEntity
  8
実形
 62
     0
370
    18
100
AcDbBlockReference
  2
_Dot
 10
816.6962807207216
 20
660.1402142854658
 30
0.0
 41
10.0
 42
10.0
 43
10.0
 50
90.0
  0
INSERT
  5
8CA4
330
8C4F
100
AcDbEntity
  8
実形
 62
     0
370
    18
100
AcDbBlockReference
  2
_Dot
 10
816.6962807207216
 20
485.1402142854658
 30
0.0
 41
10.0
 42
10.0
 43
10.0
 50
270.0
  0
MTEXT
  5
8CA5
330
8C4F
100
AcDbEntity
  8
実形
 62
     0
100
AcDbMText
 10
797.5962807207215
 20
572.640214285466
 30
0.0
 40
25.0
 41
0.0
 71
     5
 72
     1
  1
175
 11
0.0000000000000001
 21
1.0
 31
0.0
 73
     1
 44
1.0
1001
ACAD
1000
MTEXTBEGIN
1070
    73
1070
     1
1070
    44
1040
1.0
1070
    74
1070
     0
1000
MTEXTEND
  0
POINT
  5
8CA6
330
8C4F
100
AcDbEntity
  8
Defpoints
 62
     0
100
AcDbPoint
 10
940.9530405591738
 20
660.1402142854658
 30
0.0
  0
POINT
  5
8CA7
330
8C4F
100
AcDbEntity
  8
Defpoints
 62
     0
100
AcDbPoint
 10
940.9530405591738
 20
485.1402142854658
 30
0.0
  0
POINT
  5
8CA8
330
8C4F
100
AcDbEntity
  8
Defpoints
 62
     0
100
AcDbPoint
 10
816.6962807207216
 20
485.1402142854658
 30
0.0
  0
ENDBLK
  5
8C5A
330
8C4F
100
AcDbEntity
  8
0
 62
     3
100
AcDbBlockEnd
  0
BLOCK
  5
8C65
330
8C5B
100
AcDbEntity
  8
0
 62
     3
100
AcDbBlockBegin
  2
*D44
 70
     1
 10
0.0
 20
0.0
 30
0.0
  3
*D44
  1

  0
LINE
  5
8CA9
330
8C5B
100
AcDbEntity
  8
実形
 62
     0
370
    18
100
AcDbLine
 10
810.9530405591737
 20
675.1402142854659
 30
0.0
 11
753.5233401300517
 21
675.1402142854661
 31
0.0
  0
LINE
  5
8CAA
330
8C5B
100
AcDbEntity
  8
実形
 62
     0
370
    18
100
AcDbLine
 10
810.9530405591737
 20
485.1402142854658
 30
0.0
 11
753.5233401300517
 21
485.1402142854658
 31
0.0
  0
LINE
  5
8CAB
330
8C5B
100
AcDbEntity
  8
実形
 62
     0
370
    18
100
AcDbLine
 10
753.5233401300517
 20
665.140214285466
 30
0.0
 11
753.5233401300517
 21
495.1402142854658
 31
0.0
  0
MTEXT
  5
8CAC
330
8C5B
100
AcDbEntity
  8
実形
 62
     0
100
AcDbMText
 10
733.2133289766659
 20
571.2238715340345
 30
0.0
 40
25.0
 41
0.0
 71
     5
 72
     1
  1
190
 11
0.0000000000000001
 21
1.0
 31
0.0
 73
     1
 44
1.0
1001
ACAD
1000
MTEXTBEGIN
1070
    73
1070
     1
1070
    44
1040
1.0
1070
    74
1070
     0
1000
MTEXTEND
  0
INSERT
  5
8CAD
330
8C5B
100
AcDbEntity
  8
実形
 62
     0
370
    18
100
AcDbBlockReference
  2
_Dot
 10
753.5233401300517
 20
675.1402142854661
 30
0.0
 41
10.0
 42
10.0
 43
10.0
 50
90.0
  0
INSERT
  5
8CAE
330
8C5B
100
AcDbEntity
  8
実形
 62
     0
370
    18
100
AcDbBlockReference
  2
_Dot
 10
753.5233401300517
 20
485.1402142854658
 30
0.0
 41
10.0
 42
10.0
 43
10.0
 50
270.0
  0
POINT
  5
8CAF
330
8C5B
100
AcDbEntity
  8
Defpoints
 62
     0
100
AcDbPoint
 10
875.9530405591737
 20
675.1402142854659
 30
0.0
  0
POINT
  5
8CB0
330
8C5B
100
AcDbEntity
  8
Defpoints
 62
     0
100
AcDbPoint
 10
875.9530405591737
 20
485.1402142854658
 30
0.0
  0
POINT
  5
8CB1
330
8C5B
100
AcDbEntity
  8
Defpoints
 62
     0
100
AcDbPoint
 10
753.5233401300517
 20
485.1402142854658
 30
0.0
  0
ENDBLK
  5
8C66
330
8C5B
100
AcDbEntity
  8
0
 62
     3
100
AcDbBlockEnd
  0
BLOCK
  5
8C71
330
8C67
100
AcDbEntity
  8
0
 62
     3
100
AcDbBlockBegin
  2
*D45
 70
     1
 10
0.0
 20
0.0
 30
0.0
  3
*D45
  1

  0
LINE
  5
8CB2
330
8C67
100
AcDbEntity
  8
実形
 62
     0
370
    18
100
AcDbLine
 10
876.6123756591639
 20
470.1402142854659
 30
0.0
 11
753.5233401300517
 21
470.1402142854659
 31
0.0
  0
LINE
  5
8CB3
330
8C67
100
AcDbEntity
  8
実形
 62
     0
370
    18
100
AcDbLine
 10
875.9530405591737
 20
675.1402142854659
 30
0.0
 11
753.5233401300517
 21
675.1402142854661
 31
0.0
  0
LINE
  5
8CB4
330
8C67
100
AcDbEntity
  8
実形
 62
     0
370
    18
100
AcDbLine
 10
753.5233401300517
 20
480.1402142854659
 30
0.0
 11
753.5233401300517
 21
665.140214285466
 31
0.0
  0
MTEXT
  5
8CB5
330
8C67
100
AcDbEntity
  8
実形
 62
     0
100
AcDbMText
 10
733.8352108100077
 20
495.2512650276112
 30
0.0
 40
25.0
 41
0.0
 71
     5
 72
     1
  1
15
 11
0.0000000000000001
 21
1.0
 31
0.0
 73
     1
 44
1.0
1001
ACAD
1000
MTEXTBEGIN
1070
    73
1070
     1
1070
    44
1040
1.0
1070
    74
1070
     0
1000
MTEXTEND
  0
INSERT
  5
8CB6
330
8C67
100
AcDbEntity
  8
実形
 62
     0
370
    18
100
AcDbBlockReference
  2
_Dot
 10
753.5233401300517
 20
470.1402142854659
 30
0.0
 41
10.0
 42
10.0
 43
10.0
 50
270.0
  0
INSERT
  5
8CB7
330
8C67
100
AcDbEntity
  8
実形
 62
     0
370
    18
100
AcDbBlockReference
  2
_Dot
 10
753.5233401300517
 20
675.1402142854661
 30
0.0
 41
10.0
 42
10.0
 43
10.0
 50
90.0
  0
POINT
  5
8CB8
330
8C67
100
AcDbEntity
  8
Defpoints
 62
     0
100
AcDbPoint
 10
941.6123756591639
 20
470.1402142854658
 30
0.0
  0
POINT
  5
8CB9
330
8C67
100
AcDbEntity
  8
Defpoints
 62
     0
100
AcDbPoint
 10
940.9530405591738
 20
675.1402142854659
 30
0.0
  0
POINT
  5
8CBA
330
8C67
100
AcDbEntity
  8
Defpoints
 62
     0
100
AcDbPoint
 10
753.5233401300517
 20
675.1402142854661
 30
0.0
  0
ENDBLK
  5
8C72
330
8C67
100
AcDbEntity
  8
0
 62
     3
100
AcDbBlockEnd
  0
BLOCK
  5
8C7D
330
8C73
100
AcDbEntity
  8
0
 62
     3
100
AcDbBlockBegin
  2
*D46
 70
     1
 10
0.0
 20
0.0
 30
0.0
  3
*D46
  1

  0
LINE
  5
8CBB
330
8C73
100
AcDbEntity
  8
実形
 62
     0
370
    18
100
AcDbLine
 10
751.6962807207216
 20
675.1402142854661
 30
0.0
 11
693.1816606677582
 21
675.1402142854661
 31
0.0
  0
LINE
  5
8CBC
330
8C73
100
AcDbEntity
  8
実形
 62
     0
370
    18
100
AcDbLine
 10
751.6962807207216
 20
470.1402142854658
 30
0.0
 11
693.1816606677582
 21
470.1402142854658
 31
0.0
  0
LINE
  5
8CBD
330
8C73
100
AcDbEntity
  8
実形
 62
     0
370
    18
100
AcDbLine
 10
693.1816606677582
 20
665.140214285466
 30
0.0
 11
693.1816606677582
 21
480.1402142854658
 31
0.0
  0
INSERT
  5
8CBE
330
8C73
100
AcDbEntity
  8
実形
 62
     0
370
    18
100
AcDbBlockReference
  2
_Dot
 10
693.1816606677582
 20
675.1402142854661
 30
0.0
 41
10.0
 42
10.0
 43
10.0
 50
90.0
  0
INSERT
  5
8CBF
330
8C73
100
AcDbEntity
  8
実形
 62
     0
370
    18
100
AcDbBlockReference
  2
_Dot
 10
693.1816606677582
 20
470.1402142854658
 30
0.0
 41
10.0
 42
10.0
 43
10.0
 50
270.0
  0
MTEXT
  5
8CC0
330
8C73
100
AcDbEntity
  8
実形
 62
     0
100
AcDbMText
 10
674.0816606677581
 20
572.640214285466
 30
0.0
 40
25.0
 41
0.0
 71
     5
 72
     1
  1
205
 11
0.0000000000000001
 21
1.0
 31
0.0
 73
     1
 44
1.0
1001
ACAD
1000
MTEXTBEGIN
1070
    73
1070
     1
1070
    44
1040
1.0
1070
    74
1070
     0
1000
MTEXTEND
  0
POINT
  5
8CC1
330
8C73
100
AcDbEntity
  8
Defpoints
 62
     0
100
AcDbPoint
 10
816.6962807207216
 20
675.1402142854659
 30
0.0
  0
POINT
  5
8CC2
330
8C73
100
AcDbEntity
  8
Defpoints
 62
     0
100
AcDbPoint
 10
816.6962807207216
 20
470.1402142854658
 30
0.0
  0
POINT
  5
8CC3
330
8C73
100
AcDbEntity
  8
Defpoints
 62
     0
100
AcDbPoint
 10
693.1816606677582
 20
470.1402142854658
 30
0.0
  0
ENDBLK
  5
8C7E
330
8C73
100
AcDbEntity
  8
0
 62
     3
100
AcDbBlockEnd
  0
BLOCK
  5
8C89
330
8C7F
100
AcDbEntity
  8
0
 62
     3
100
AcDbBlockBegin
  2
*D47
 70
     1
 10
0.0
 20
0.0
 30
0.0
  3
*D47
  1

  0
LINE
  5
8CC4
330
8C7F
100
AcDbEntity
  8
実形
 62
     0
370
    18
100
AcDbLine
 10
746.6143561628576
 20
460.1402142854658
 30
0.0
 11
693.1816606677582
 21
460.1402142854658
 31
0.0
  0
LINE
  5
8CC5
330
8C7F
100
AcDbEntity
  8
実形
 62
     0
370
    18
100
AcDbLine
 10
751.6962807207216
 20
675.1402142854661
 30
0.0
 11
693.1816606677582
 21
675.1402142854661
 31
0.0
  0
LINE
  5
8CC6
330
8C7F
100
AcDbEntity
  8
実形
 62
     0
370
    18
100
AcDbLine
 10
693.1816606677582
 20
470.1402142854658
 30
0.0
 11
693.1816606677582
 21
665.140214285466
 31
0.0
  0
MTEXT
  5
8CC7
330
8C7F
100
AcDbEntity
  8
実形
 62
     0
100
AcDbMText
 10
673.5365332758517
 20
474.7001208433484
 30
0.0
 40
25.0
 41
0.0
 71
     5
 72
     1
  1
8
 11
0.0000000000000001
 21
1.0
 31
0.0
 73
     1
 44
1.0
1001
ACAD
1000
MTEXTBEGIN
1070
    73
1070
     1
1070
    44
1040
1.0
1070
    74
1070
     0
1000
MTEXTEND
  0
INSERT
  5
8CC8
330
8C7F
100
AcDbEntity
  8
実形
 62
     0
370
    18
100
AcDbBlockReference
  2
_Dot
 10
693.1816606677582
 20
460.1402142854658
 30
0.0
 41
10.0
 42
10.0
 43
10.0
 50
270.0
  0
INSERT
  5
8CC9
330
8C7F
100
AcDbEntity
  8
実形
 62
     0
370
    18
100
AcDbBlockReference
  2
_Dot
 10
693.1816606677582
 20
675.1402142854661
 30
0.0
 41
10.0
 42
10.0
 43
10.0
 50
90.0
  0
POINT
  5
8CCA
330
8C7F
100
AcDbEntity
  8
Defpoints
 62
     0
100
AcDbPoint
 10
811.6143561628575
 20
460.1402142854658
 30
0.0
  0
POINT
  5
8CCB
330
8C7F
100
AcDbEntity
  8
Defpoints
 62
     0
100
AcDbPoint
 10
816.6962807207216
 20
675.1402142854659
 30
0.0
  0
POINT
  5
8CCC
330
8C7F
100
AcDbEntity
  8
Defpoints
 62
     0
100
AcDbPoint
 10
693.1816606677582
 20
675.1402142854661
 30
0.0
  0
ENDBLK
  5
8C8A
330
8C7F
100
AcDbEntity
  8
0
 62
     3
100
AcDbBlockEnd
  0
BLOCK
  5
8C95
330
8C8B
100
AcDbEntity
  8
0
 62
     3
100
AcDbBlockBegin
  2
*D48
 70
     1
 10
0.0
 20
0.0
 30
0.0
  3
*D48
  1

  0
LINE
  5
8CCD
330
8C8B
100
AcDbEntity
  8
実形
 62
     0
370
    18
100
AcDbLine
 10
688.5233401300517
 20
675.1402142854659
 30
0.0
 11
638.2912616958763
 21
675.1402142854659
 31
0.0
  0
LINE
  5
8CCE
330
8C8B
100
AcDbEntity
  8
実形
 62
     0
370
    18
100
AcDbLine
 10
698.8153638318706
 20
460.1402142854658
 30
0.0
 11
638.2912616958763
 21
460.1402142854658
 31
0.0
  0
LINE
  5
8CCF
330
8C8B
100
AcDbEntity
  8
実形
 62
     0
370
    18
100
AcDbLine
 10
638.2912616958763
 20
665.1402142854659
 30
0.0
 11
638.2912616958763
 21
470.1402142854658
 31
0.0
  0
MTEXT
  5
8CD0
330
8C8B
100
AcDbEntity
  8
実形
 62
     0
100
AcDbMText
 10
612.2432477924264
 20
573.8534755241171
 30
0.0
 40
25.0
 41
0.0
 71
     5
 72
     1
  1
213
 11
0.0000000000000001
 21
1.0
 31
0.0
 73
     1
 44
1.0
1001
ACAD
1000
MTEXTBEGIN
1070
    73
1070
     1
1070
    44
1040
1.0
1070
    74
1070
     0
1000
MTEXTEND
  0
INSERT
  5
8CD1
330
8C8B
100
AcDbEntity
  8
実形
 62
     0
370
    18
100
AcDbBlockReference
  2
_Dot
 10
638.2912616958763
 20
675.1402142854659
 30
0.0
 41
10.0
 42
10.0
 43
10.0
 50
90.0
  0
INSERT
  5
8CD2
330
8C8B
100
AcDbEntity
  8
実形
 62
     0
370
    18
100
AcDbBlockReference
  2
_Dot
 10
638.2912616958763
 20
460.1402142854658
 30
0.0
 41
10.0
 42
10.0
 43
10.0
 50
270.0
  0
POINT
  5
8CD3
330
8C8B
100
AcDbEntity
  8
Defpoints
 62
     0
100
AcDbPoint
 10
753.5233401300517
 20
675.1402142854659
 30
0.0
  0
POINT
  5
8CD4
330
8C8B
100
AcDbEntity
  8
Defpoints
 62
     0
100
AcDbPoint
 10
763.8153638318706
 20
460.1402142854658
 30
0.0
  0
POINT
  5
8CD5
330
8C8B
100
AcDbEntity
  8
Defpoints
 62
     0
100
AcDbPoint
 10
638.2912616958763
 20
460.1402142854658
 30
0.0
  0
ENDBLK
  5
8C96
330
8C8B
100
AcDbEntity
  8
0
 62
     3
100
AcDbBlockEnd
  0
ENDSEC
  0
SECTION
  2
ENTITIES
  0
LINE
  5
9C
330
1F
100
AcDbEntity
  8
枠
 62
     0
100
AcDbLine
 10
174.0
 20
3.99999999999909
 30
0.0
 11
2834.0
 21
3.99999999999909
 31
0.0
  0
LINE
  5
A0
330
1F
100
AcDbEntity
  8
枠
 62
     0
100
AcDbLine
 10
2834.0
 20
2023.999999999999
 30
0.0
 11
174.0
 21
2023.999999999999
 31
0.0
  0
LINE
  5
272
330
1F
100
AcDbEntity
  8
枠
 62
     0
100
AcDbLine
 10
2234.0
 20
133.9999999999991
 30
0.0
 11
2234.0
 21
198.9999999999991
 31
0.0
  0
LINE
  5
1B73
330
1F
100
AcDbEntity
  8
枠
 62
     0
100
AcDbLine
 10
1944.0
 20
2023.999999999999
 30
0.0
 11
2834.0
 21
2023.999999999999
 31
0.0
  0
LINE
  5
1B84
330
1F
100
AcDbEntity
  8
実形
 62
     0
100
AcDbLine
 10
2114.0
 20
68.99999999999909
 30
0.0
 11
2834.0
 21
68.99999999999909
 31
0.0
  0
LINE
  5
1B85
330
1F
100
AcDbEntity
  8
実形
 62
     0
100
AcDbLine
 10
2114.0
 20
198.9999999999991
 30
0.0
 11
2834.0
 21
198.9999999999991
 31
0.0
  0
LINE
  5
1B86
330
1F
100
AcDbEntity
  8
実形
 62
     0
100
AcDbLine
 10
2114.0
 20
133.9999999999991
 30
0.0
 11
2834.0
 21
133.9999999999991
 31
0.0
  0
LINE
  5
1B87
330
1F
100
AcDbEntity
  8
実形
 62
     0
100
AcDbLine
 10
2114.0
 20
3.99999999999909
 30
0.0
 11
2114.0
 21
263.9999999999991
 31
0.0
  0
TEXT
  5
1B88
330
1F
100
AcDbEntity
  8
枠
 62
     0
100
AcDbText
 10
2340.916476167013
 20
18.49999999999909
 30
0.0
 40
35.0
  1
中外交易株式会社
  7
ms明朝
 72
     4
 11
2545.716476167013
 21
36.49999999999909
 31
0.0
100
AcDbText
  0
LINE
  5
1B8A
330
1F
100
AcDbEntity
  8
実形
 62
     0
100
AcDbLine
 10
2234.0
 20
68.99999999999909
 30
0.0
 11
2834.0
 21
68.99999999999909
 31
0.0
  0
LINE
  5
1B8B
102
{ACAD_REACTORS
330
1B98
102
}
330
1F
100
AcDbEntity
  8
枠
 62
     0
370
     5
100
AcDbLine
 10
2257.843923164362
 20
40.53787547858428
 30
0.0
 11
2233.255774665348
 21
40.53787547858428
 31
0.0
  0
LINE
  5
1B8C
102
{ACAD_REACTORS
330
1B98
102
}
330
1F
100
AcDbEntity
  8
枠
 62
     0
370
     5
100
AcDbLine
 10
2233.255774665348
 20
40.53787547858428
 30
0.0
 11
2233.255774665348
 21
30.53787547858429
 31
0.0
  0
LINE
  5
1B8D
102
{ACAD_REACTORS
330
1B98
102
}
330
1F
100
AcDbEntity
  8
枠
 62
     0
370
     5
100
AcDbLine
 10
2233.255774665348
 20
30.53787547858429
 30
0.0
 11
2257.346428692676
 21
30.53787547858429
 31
0.0
  0
LINE
  5
1B8E
102
{ACAD_REACTORS
330
1B98
102
}
330
1F
100
AcDbEntity
  8
枠
 62
     0
370
     5
100
AcDbLine
 10
2260.641894042939
 20
56.49999999999909
 30
0.0
 11
2260.641894042939
 21
16.49999999999909
 31
0.0
  0
LINE
  5
1B8F
102
{ACAD_REACTORS
330
1B98
102
}
330
1F
100
AcDbEntity
  8
枠
 62
     0
370
     5
100
AcDbLine
 10
2260.641894042939
 20
16.49999999999909
 30
0.0
 11
2295.641894042939
 21
16.49999999999909
 31
0.0
  0
LINE
  5
1B90
102
{ACAD_REACTORS
330
1B98
102
}
330
1F
100
AcDbEntity
  8
枠
 62
     0
370
     5
100
AcDbLine
 10
2295.641894042939
 20
16.49999999999909
 30
0.0
 11
2260.641894042939
 21
36.49999999999909
 31
0.0
  0
LINE
  5
1B91
102
{ACAD_REACTORS
330
1B98
102
}
330
1F
100
AcDbEntity
  8
枠
 62
     0
370
     5
100
AcDbLine
 10
2260.641894042939
 20
36.49999999999909
 30
0.0
 11
2295.641894042939
 21
56.49999999999909
 31
0.0
  0
LINE
  5
1B92
102
{ACAD_REACTORS
330
1B98
102
}
330
1F
100
AcDbEntity
  8
枠
 62
     0
370
     5
100
AcDbLine
 10
2295.641894042939
 20
56.49999999999909
 30
0.0
 11
2260.641894042939
 21
56.49999999999909
 31
0.0
  0
LINE
  5
1B93
102
{ACAD_REACTORS
330
1B98
102
}
330
1F
100
AcDbEntity
  8
枠
 62
     0
370
     5
100
AcDbLine
 10
2326.75434681301
 20
40.53787547858428
 30
0.0
 11
2302.166198313996
 21
40.53787547858428
 31
0.0
  0
LINE
  5
1B94
102
{ACAD_REACTORS
330
1B98
102
}
330
1F
100
AcDbEntity
  8
枠
 62
     0
370
     5
100
AcDbLine
 10
2302.166198313996
 20
40.53787547858428
 30
0.0
 11
2302.166198313996
 21
30.53787547858429
 31
0.0
  0
LINE
  5
1B95
102
{ACAD_REACTORS
330
1B98
102
}
330
1F
100
AcDbEntity
  8
枠
 62
     0
370
     5
100
AcDbLine
 10
2302.166198313996
 20
30.53787547858429
 30
0.0
 11
2326.256852341323
 21
30.53787547858429
 31
0.0
  0
ARC
  5
1B96
102
{ACAD_REACTORS
330
1B98
102
}
330
1F
100
AcDbEntity
  8
枠
 62
     0
370
     5
100
AcDbCircle
 10
2238.255774665347
 20
36.49999999999909
 30
0.0
 40
20.0
100
AcDbArc
 50
11.64772366708617
 51
342.6561058784773
  0
ARC
  5
1B97
102
{ACAD_REACTORS
330
1B98
102
}
330
1F
100
AcDbEntity
  8
枠
 62
     0
370
     5
100
AcDbCircle
 10
2307.166198313995
 20
36.49999999999909
 30
0.0
 40
20.0
100
AcDbArc
 50
11.64772366708617
 51
342.6561058784773
  0
HATCH
  5
1B98
330
1F
100
AcDbEntity
  8
枠
 62
     0
100
AcDbHatch
 10
0.0
 20
0.0
 30
0.0
210
0.0
220
0.0
230
1.0
  2
SOLID
 70
     1
 71
     1
 91
        3
 92
        1
 93
        4
 72
     2
 10
2307.166198313995
 20
36.49999999999909
 40
20.0
 50
11.64772366708617
 51
342.6561058784773
 73
     1
 72
     1
 10
2326.256852341323
 20
30.53787547858429
 11
2302.166198313996
 21
30.53787547858429
 72
     1
 10
2302.166198313996
 20
30.53787547858429
 11
2302.166198313996
 21
40.53787547858428
 72
     1
 10
2302.166198313996
 20
40.53787547858428
 11
2326.75434681301
 21
40.53787547858428
 97
        4
330
1B97
330
1B95
330
1B94
330
1B93
 92
        1
 93
        4
 72
     2
 10
2238.255774665347
 20
36.49999999999909
 40
20.0
 50
11.64772366708617
 51
342.6561058784773
 73
     1
 72
     1
 10
2257.346428692676
 20
30.53787547858429
 11
2233.255774665348
 21
30.53787547858429
 72
     1
 10
2233.255774665348
 20
30.53787547858429
 11
2233.255774665348
 21
40.53787547858428
 72
     1
 10
2233.255774665348
 20
40.53787547858428
 11
2257.843923164362
 21
40.53787547858428
 97
        4
330
1B96
330
1B8D
330
1B8C
330
1B8B
 92
        1
 93
        5
 72
     1
 10
2295.641894042939
 20
56.49999999999909
 11
2260.641894042939
 21
56.49999999999909
 72
     1
 10
2260.641894042939
 20
56.49999999999909
 11
2260.641894042939
 21
16.49999999999909
 72
     1
 10
2260.641894042939
 20
16.49999999999909
 11
2295.641894042939
 21
16.49999999999909
 72
     1
 10
2295.641894042939
 20
16.49999999999909
 11
2260.641894042939
 21
36.49999999999909
 72
     1
 10
2260.641894042939
 20
36.49999999999909
 11
2295.641894042939
 21
56.49999999999909
 97
        5
330
1B92
330
1B8E
330
1B8F
330
1B90
330
1B91
 75
     0
 76
     1
 98
        1
 10
-10.0
 20
-0.0000000000009095
  0
LINE
  5
1B99
330
1F
100
AcDbEntity
  8
実形
 62
     0
100
AcDbLine
 10
2234.0
 20
68.99999999999909
 30
0.0
 11
2234.0
 21
263.9999999999992
 31
0.0
  0
TEXT
  5
5E5F
330
1F
100
AcDbEntity
  8
枠
 62
     0
100
AcDbText
 10
2136.666666666667
 20
83.99999999999909
 30
0.0
 40
35.0
  1
尺度
 72
     4
 11
2174.0
 21
101.4999999999991
 31
0.0
100
AcDbText
  0
TEXT
  5
5E68
330
1F
100
AcDbEntity
  8
枠
 62
     0
100
AcDbText
 10
2136.666666666667
 20
148.9999999999991
 30
0.0
 40
35.0
  1
品番
 72
     4
 11
2174.0
 21
166.4999999999991
 31
0.0
100
AcDbText
  0
TEXT
  5
68BC
330
1F
100
AcDbEntity
  8
実形
100
AcDbText
 10
2443.255253185007
 20
84.68238670760312
 30
0.0
 40
35.0
  1
1：10
  7
ms明朝
 72
     4
 11
2507.255253185007
 21
101.7823867076031
 31
0.0
100
AcDbText
  0
TEXT
  5
68D6
330
1F
100
AcDbEntity
  8
実形
100
AcDbText
 10
2312.652753507391
 20
150.6760053180751
 30
0.0
 40
35.0
  1
RaS800-450DAN-KDR
  7
ms明朝
 72
     4
 11
2530.252753507391
 21
167.7760053180751
 31
0.0
100
AcDbText
  0
LINE
  5
6D9B
330
1F
100
AcDbEntity
  8
実形
 62
     0
100
AcDbLine
 10
2834.0
 20
4.0
 30
0.0
 11
2834.0
 21
2024.0
 31
0.0
  0
LINE
  5
6E31
330
1F
100
AcDbEntity
  8
実形
 62
     0
100
AcDbLine
 10
174.0
 20
2024.0
 30
0.0
 11
174.0
 21
4.0
 31
0.0
  0
LINE
  5
7026
330
1F
100
AcDbEntity
  8
実形
100
AcDbLine
 10
917.0693431839136
 20
1716.67196328526
 30
0.0
 11
1747.069343183914
 21
1716.67196328526
 31
0.0
  0
LINE
  5
7027
330
1F
100
AcDbEntity
  8
実形
100
AcDbLine
 10
1747.069343183914
 20
1716.67196328526
 30
0.0
 11
1747.069343183914
 21
1236.67196328526
 31
0.0
  0
LINE
  5
7028
330
1F
100
AcDbEntity
  8
実形
100
AcDbLine
 10
1747.069343183914
 20
1236.67196328526
 30
0.0
 11
917.0693431839136
 21
1236.67196328526
 31
0.0
  0
LINE
  5
7029
330
1F
100
AcDbEntity
  8
実形
100
AcDbLine
 10
917.0693431839136
 20
1236.67196328526
 30
0.0
 11
917.0693431839136
 21
1716.67196328526
 31
0.0
  0
LINE
  5
702A
330
1F
100
AcDbEntity
  8
実形
100
AcDbLine
 10
938.0693431839134
 20
1701.67196328526
 30
0.0
 11
1726.069343183914
 21
1701.67196328526
 31
0.0
  0
LINE
  5
702B
330
1F
100
AcDbEntity
  8
実形
100
AcDbLine
 10
1732.069343183913
 20
1695.67196328526
 30
0.0
 11
1732.069343183913
 21
1257.67196328526
 31
0.0
  0
LINE
  5
702C
330
1F
100
AcDbEntity
  8
実形
100
AcDbLine
 10
1726.069343183913
 20
1251.67196328526
 30
0.0
 11
938.0693431839135
 21
1251.67196328526
 31
0.0
  0
LINE
  5
702D
330
1F
100
AcDbEntity
  8
実形
100
AcDbLine
 10
932.0693431839135
 20
1257.67196328526
 30
0.0
 11
932.0693431839135
 21
1695.67196328526
 31
0.0
  0
LINE
  5
702E
330
1F
100
AcDbEntity
  8
実形
100
AcDbLine
 10
952.0693431839134
 20
1277.67196328526
 30
0.0
 11
952.0693431839136
 21
1675.67196328526
 31
0.0
  0
LINE
  5
702F
330
1F
100
AcDbEntity
  8
実形
100
AcDbLine
 10
958.0693431839135
 20
1681.67196328526
 30
0.0
 11
1476.069343183914
 21
1681.67196328526
 31
0.0
  0
LINE
  5
7030
330
1F
100
AcDbEntity
  8
実形
100
AcDbLine
 10
1712.069343183913
 20
1595.67196328526
 30
0.0
 11
1712.069343183913
 21
1277.67196328526
 31
0.0
  0
LINE
  5
7031
330
1F
100
AcDbEntity
  8
実形
100
AcDbLine
 10
1706.069343183914
 20
1271.67196328526
 30
0.0
 11
958.0693431839135
 21
1271.67196328526
 31
0.0
  0
DIMENSION
  5
7032
330
1F
100
AcDbEntity
  8
実形
100
AcDbDimension
  2
*D10
 10
782.9671825485257
 20
1271.67196328526
 30
0.0
 11
763.8671825485255
 21
1476.67196328526
 31
0.0
 70
    32
 71
     5
 42
410.0
  3
ISO-25
100
AcDbAlignedDimension
 13
917.0693431839136
 23
1681.67196328526
 33
0.0
 14
917.0693431839136
 24
1271.67196328526
 34
0.0
 50
90.0
100
AcDbRotatedDimension
1001
ACAD
1000
DSTYLE
1002
{
1070
    41
1040
10.0
1070
   140
1040
25.0
1070
   147
1040
6.599999999999998
1070
   279
1070
     2
1070
   342
1005
30D
1070
   371
1070
    18
1070
   372
1070
    18
1002
}
  0
DIMENSION
  5
703F
330
1F
100
AcDbEntity
  8
実形
100
AcDbDimension
  2
*D11
 10
782.9671825485255
 20
1251.67196328526
 30
0.0
 11
761.3671825485255
 21
1671.310682487132
 31
0.0
 70
   160
  1
20
 71
     5
 42
450.0
  3
ISO-25
100
AcDbAlignedDimension
 13
917.0693431839136
 23
1701.67196328526
 33
0.0
 14
917.0693431839136
 24
1251.67196328526
 34
0.0
 50
90.0
100
AcDbRotatedDimension
1001
ACAD
1000
DSTYLE
1002
{
1070
    41
1040
10.0
1070
   140
1040
25.0
1070
   147
1040
6.599999999999998
1070
   279
1070
     2
1070
   342
1005
30D
1070
   371
1070
    18
1070
   372
1070
    18
1002
}
  0
TEXT
  5
7078
330
1F
100
AcDbEntity
  8
実形
 48
20.0
100
AcDbText
 10
770.5975133222928
 20
1259.957339797378
 30
0.0
 40
25.0
  1
20
 50
90.0
100
AcDbText
  0
DIMENSION
  5
7079
330
1F
100
AcDbEntity
  8
実形
100
AcDbDimension
  2
*D12
 10
702.8854875073919
 20
1251.67196328526
 30
0.0
 11
678.3586455147469
 21
1691.630806356192
 31
0.0
 70
   160
  1
15
 71
     5
 42
450.0
  3
ISO-25
100
AcDbAlignedDimension
 13
917.0693431839136
 23
1701.67196328526
 33
0.0
 14
917.0693431839136
 24
1251.67196328526
 34
0.0
 50
90.0
100
AcDbRotatedDimension
1001
ACAD
1000
DSTYLE
1002
{
1070
    41
1040
10.0
1070
   140
1040
25.0
1070
   147
1040
6.599999999999998
1070
   279
1070
     2
1070
   342
1005
30D
1070
   371
1070
    18
1070
   372
1070
    18
1002
}
  0
DIMENSION
  5
7086
330
1F
100
AcDbEntity
  8
実形
100
AcDbDimension
  2
*D13
 10
702.885487507392
 20
1236.67196328526
 30
0.0
 11
683.785487507392
 21
1476.67196328526
 31
0.0
 70
    32
  1
450
 71
     5
 42
480.0
  3
ISO-25
100
AcDbAlignedDimension
 13
917.0693431839136
 23
1716.67196328526
 33
0.0
 14
917.0693431839136
 24
1236.67196328526
 34
0.0
 50
90.0
100
AcDbRotatedDimension
1001
ACAD
1000
DSTYLE
1002
{
1070
    41
1040
10.0
1070
   140
1040
25.0
1070
   147
1040
6.599999999999998
1070
   279
1070
     2
1070
   342
1005
30D
1070
   371
1070
    18
1070
   372
1070
    18
1002
}
  0
TEXT
  5
70D5
330
1F
100
AcDbEntity
  8
実形
 48
20.0
100
AcDbText
 10
693.1264347641245
 20
1242.797268686647
 30
0.0
 40
25.0
  1
15
 50
90.0
100
AcDbText
  0
DIMENSION
  5
70DF
330
1F
100
AcDbEntity
  8
実形
100
AcDbDimension
  2
*D14
 10
617.7286793287566
 20
1236.67196328526
 30
0.0
 11
598.6286793287566
 21
1476.67196328526
 31
0.0
 70
    32
 71
     5
 42
480.0
  3
ISO-25
100
AcDbAlignedDimension
 13
917.0693431839136
 23
1716.67196328526
 33
0.0
 14
917.0693431839136
 24
1236.67196328526
 34
0.0
 50
90.0
100
AcDbRotatedDimension
1001
ACAD
1000
DSTYLE
1002
{
1070
    41
1040
10.0
1070
   140
1040
25.0
1070
   147
1040
6.599999999999998
1070
   279
1070
     2
1070
   342
1005
30D
1070
   371
1070
    18
1070
   372
1070
    18
1002
}
  0
DIMENSION
  5
70F5
330
1F
100
AcDbEntity
  8
実形
100
AcDbDimension
  2
*D15
 10
1712.069343183913
 20
1104.409261580873
 30
0.0
 11
1332.069343183913
 21
1123.509261580873
 31
0.0
 70
    32
 71
     5
 42
759.9999999999997
  3
ISO-25
100
AcDbAlignedDimension
 13
952.0693431839136
 23
1236.67196328526
 33
0.0
 14
1712.069343183913
 24
1236.67196328526
 34
0.0
100
AcDbRotatedDimension
1001
ACAD
1000
DSTYLE
1002
{
1070
    41
1040
10.0
1070
   140
1040
25.0
1070
   147
1040
6.599999999999998
1070
   279
1070
     2
1070
   342
1005
30D
1070
   371
1070
    18
1070
   372
1070
    18
1002
}
  0
DIMENSION
  5
7102
330
1F
100
AcDbEntity
  8
実形
100
AcDbDimension
  2
*D16
 10
1732.069343183913
 20
1104.409261580873
 30
0.0
 11
1678.470496488633
 21
1126.009261580873
 31
0.0
 70
   160
  1
20
 71
     5
 42
799.9999999999998
  3
ISO-25
100
AcDbAlignedDimension
 13
932.0693431839135
 23
1236.67196328526
 33
0.0
 14
1732.069343183913
 24
1236.67196328526
 34
0.0
100
AcDbRotatedDimension
1001
ACAD
1000
DSTYLE
1002
{
1070
    41
1040
10.0
1070
   140
1040
25.0
1070
   147
1040
6.599999999999998
1070
   279
1070
     2
1070
   342
1005
30D
1070
   371
1070
    18
1070
   372
1070
    18
1002
}
  0
TEXT
  5
7132
330
1F
100
AcDbEntity
  8
実形
 48
20.0
100
AcDbText
 10
967.0690435945653
 20
1115.468210640325
 30
0.0
 40
25.0
  1
20
100
AcDbText
  0
DIMENSION
  5
7133
330
1F
100
AcDbEntity
  8
実形
100
AcDbDimension
  2
*D17
 10
1732.069343183913
 20
1041.998774224899
 30
0.0
 11
1332.069343183913
 21
1061.098774224899
 31
0.0
 70
    32
 71
     5
 42
799.9999999999998
  3
ISO-25
100
AcDbAlignedDimension
 13
932.0693431839135
 23
1236.67196328526
 33
0.0
 14
1732.069343183913
 24
1236.67196328526
 34
0.0
100
AcDbRotatedDimension
1001
ACAD
1000
DSTYLE
1002
{
1070
    41
1040
10.0
1070
   140
1040
25.0
1070
   147
1040
6.599999999999998
1070
   279
1070
     2
1070
   342
1005
30D
1070
   371
1070
    18
1070
   372
1070
    18
1002
}
  0
DIMENSION
  5
7140
330
1F
100
AcDbEntity
  8
実形
100
AcDbDimension
  2
*D18
 10
1747.069343183914
 20
1041.998774224899
 30
0.0
 11
1790.858876538459
 21
1063.598774224899
 31
0.0
 70
   160
  1
15
 71
     5
 42
830.0
  3
ISO-25
100
AcDbAlignedDimension
 13
917.0693431839136
 23
1236.67196328526
 33
0.0
 14
1747.069343183914
 24
1236.67196328526
 34
0.0
100
AcDbRotatedDimension
1001
ACAD
1000
DSTYLE
1002
{
1070
    41
1040
10.0
1070
   140
1040
25.0
1070
   147
1040
6.599999999999998
1070
   279
1070
     2
1070
   342
1005
30D
1070
   371
1070
    18
1070
   372
1070
    18
1002
}
  0
TEXT
  5
7168
330
1F
100
AcDbEntity
  8
実形
 48
20.0
100
AcDbText
 10
860.01012159329
 20
1052.835879917193
 30
0.0
 40
25.0
  1
15
100
AcDbText
  0
DIMENSION
  5
7172
330
1F
100
AcDbEntity
  8
実形
100
AcDbDimension
  2
*D19
 10
1747.069343183914
 20
968.7771937547477
 30
0.0
 11
1332.069343183913
 21
987.8771937547478
 31
0.0
 70
    32
 71
     5
 42
830.0
  3
ISO-25
100
AcDbAlignedDimension
 13
917.0693431839136
 23
1236.67196328526
 33
0.0
 14
1747.069343183914
 24
1236.67196328526
 34
0.0
100
AcDbRotatedDimension
1001
ACAD
1000
DSTYLE
1002
{
1070
    41
1040
10.0
1070
   140
1040
25.0
1070
   147
1040
6.599999999999998
1070
   279
1070
     2
1070
   342
1005
30D
1070
   371
1070
    18
1070
   372
1070
    18
1002
}
  0
LINE
  5
7180
330
1F
100
AcDbEntity
  8
実形
  6
ACAD_ISO08W100
 48
0.5
100
AcDbLine
 10
1243.769040290412
 20
1476.67196328526
 30
0.0
 11
968.741155692467
 21
1476.67196328526
 31
0.0
  0
LINE
  5
7181
330
1F
100
AcDbEntity
  8
実形
  6
ACAD_ISO08W100
 48
0.5
100
AcDbLine
 10
1102.069343183913
 20
1333.07798952886
 30
0.0
 11
1102.069343183913
 21
1716.67196328526
 31
0.0
  0
CIRCLE
  5
7183
330
1F
100
AcDbEntity
  8
実形
100
AcDbCircle
 10
1102.069343183913
 20
1476.67196328526
 30
0.0
 40
80.0
  0
CIRCLE
  5
7184
330
1F
100
AcDbEntity
  8
実形
100
AcDbCircle
 10
1102.069343183913
 20
1476.67196328526
 30
0.0
 40
90.5
  0
LINE
  5
7185
330
1F
100
AcDbEntity
  8
実形
100
AcDbLine
 10
952.0693431839136
 20
1716.67196328526
 30
0.0
 11
1102.069343183913
 21
1716.67196328526
 31
0.0
  0
DIMENSION
  5
719C
330
1F
100
AcDbEntity
  8
実形
100
AcDbDimension
  2
*D20
 10
1287.868761796235
 20
1271.67196328526
 30
0.0
 11
1268.768761796235
 21
1374.17196328526
 31
0.0
 70
    32
 71
     5
 42
205.0
  3
ISO-25
100
AcDbAlignedDimension
 13
1166.286389540604
 23
1476.67196328526
 33
0.0
 14
1166.286389540604
 24
1271.67196328526
 34
0.0
 50
90.0
100
AcDbRotatedDimension
1001
ACAD
1000
DSTYLE
1002
{
1070
    41
1040
10.0
1070
   140
1040
25.0
1070
   147
1040
6.599999999999998
1070
   279
1070
     2
1070
   342
1005
30D
1070
   371
1070
    18
1070
   372
1070
    18
1002
}
  0
LINE
  5
7295
330
1F
100
AcDbEntity
  8
実形
100
AcDbLine
 10
917.0693431839136
 20
675.1402142854658
 30
0.0
 11
1747.069343183913
 21
675.1402142854658
 31
0.0
  0
LINE
  5
7296
330
1F
100
AcDbEntity
  8
実形
100
AcDbLine
 10
932.0693431839137
 20
675.1402142854658
 30
0.0
 11
932.0693431839139
 21
660.1402142854658
 31
0.0
  0
LINE
  5
7297
330
1F
100
AcDbEntity
  8
実形
100
AcDbLine
 10
1732.069343183914
 20
675.1402142854658
 30
0.0
 11
1732.069343183914
 21
660.1402142854658
 31
0.0
  0
LINE
  5
7298
330
1F
100
AcDbEntity
  8
実形
100
AcDbLine
 10
932.0693431839139
 20
660.1402142854658
 30
0.0
 11
1732.069343183914
 21
660.1402142854658
 31
0.0
  0
LINE
  5
7299
330
1F
100
AcDbEntity
  8
実形
100
AcDbLine
 10
952.0693431839136
 20
660.1402142854656
 30
0.0
 11
952.0693431839132
 21
476.1402142854659
 31
0.0
  0
LINE
  5
729A
330
1F
100
AcDbEntity
  8
実形
100
AcDbLine
 10
1712.069343183914
 20
660.1402142854658
 30
0.0
 11
1712.069343183913
 21
490.9694713703069
 31
0.0
  0
LINE
  5
72AB
330
1F
100
AcDbEntity
  8
実形
100
AcDbLine
 10
1011.569343183913
 20
470.1402142854658
 30
0.0
 11
1192.569343183913
 21
470.1402142854658
 31
0.0
  0
LINE
  5
72AD
330
1F
100
AcDbEntity
  8
実形
100
AcDbLine
 10
1011.569343183913
 20
460.1402142854658
 30
0.0
 11
1192.569343183913
 21
460.1402142854658
 31
0.0
  0
TEXT
  5
734A
330
1F
100
AcDbEntity
  8
実形
100
AcDbText
 10
1595.844291597293
 20
1524.21742907759
 30
0.0
 40
25.0
  1
6R
 72
     2
 11
1637.51095826396
 21
1520.884095744257
 31
0.0
100
AcDbText
 73
     1
  0
LEADER
  5
734B
330
1F
100
AcDbEntity
  8
実形
100
AcDbLeader
  3
ISO-25
 76
     2
 10
1700.773135876985
 20
1592.235674261879
 30
0.0
 10
1646.716189746941
 20
1543.339431388424
 30
0.0
1001
ACAD
1000
DSTYLE
1002
{
1070
    77
1070
     0
1070
    41
1040
10.0
1070
   140
1040
30.0
1070
   147
1040
6.599999999999998
1070
   279
1070
     2
1070
   342
1005
30D
1070
   371
1070
    18
1070
   372
1070
    18
1002
}
  0
TEXT
  5
73F5
330
1F
100
AcDbEntity
  8
実形
100
AcDbText
 10
1608.029626911547
 20
1323.472644132552
 30
0.0
 40
25.0
  1
6R
 72
     2
 11
1649.696293578214
 21
1320.139310799219
 31
0.0
100
AcDbText
 73
     1
  0
LEADER
  5
73F6
330
1F
100
AcDbEntity
  8
実形
100
AcDbLeader
  3
ISO-25
 76
     2
 10
1723.039279522991
 20
1258.756130021242
 30
0.0
 10
1651.900470773746
 20
1317.584390789378
 30
0.0
1001
ACAD
1000
DSTYLE
1002
{
1070
    77
1070
     0
1070
    41
1040
10.0
1070
   140
1040
30.0
1070
   147
1040
6.599999999999998
1070
   279
1070
     2
1070
   342
1005
30D
1070
   371
1070
    18
1070
   372
1070
    18
1002
}
  0
LINE
  5
7452
330
1F
100
AcDbEntity
  8
実形
  6
ACAD_ISO08W100
 48
0.5
100
AcDbLine
 10
1102.069343183913
 20
564.9928904580028
 30
0.0
 11
1102.069343183913
 21
408.3116101223968
 31
0.0
  0
LINE
  5
7454
330
1F
100
AcDbEntity
  8
実形
100
AcDbLine
 10
1011.569343183913
 20
470.1402142854658
 30
0.0
 11
1011.569343183913
 21
460.1402142854658
 31
0.0
  0
LINE
  5
7455
330
1F
100
AcDbEntity
  8
実形
100
AcDbLine
 10
1192.569343183913
 20
470.1402142854658
 30
0.0
 11
1192.569343183913
 21
460.1402142854658
 31
0.0
  0
LINE
  5
7458
330
1F
100
AcDbEntity
  8
実形
100
AcDbLine
 10
1192.569343183913
 20
470.1402142854658
 30
0.0
 11
1706.242514515584
 21
484.9719709167941
 31
0.0
  0
ARC
  5
7459
330
1F
100
AcDbEntity
  8
実形
100
AcDbCircle
 10
1706.069343183914
 20
490.9694713703069
 30
0.0
 40
6.0
100
AcDbArc
 50
271.6538940784474
 51
360.0
  0
DIMENSION
  5
745C
330
1F
100
AcDbEntity
  8
実形
100
AcDbDimension
  2
*D21
 10
1182.069343183914
 20
343.2236157496082
 30
0.0
 11
1102.069343183913
 21
362.3236157496082
 31
0.0
 70
    32
 71
     5
 42
160.0000000000002
  3
ISO-25
100
AcDbAlignedDimension
 13
1022.069343183913
 23
460.1402142854657
 33
0.0
 14
1182.069343183914
 24
460.1402142854657
 34
0.0
100
AcDbRotatedDimension
1001
ACAD
1000
DSTYLE
1002
{
1070
    41
1040
10.0
1070
   140
1040
25.0
1070
   147
1040
6.599999999999998
1070
   279
1070
     2
1070
   342
1005
30D
1070
   371
1070
    18
1070
   372
1070
    18
1002
}
  0
DIMENSION
  5
7469
330
1F
100
AcDbEntity
  8
実形
100
AcDbDimension
  2
*D22
 10
1192.569343183913
 20
271.9813189343313
 30
0.0
 11
1102.069343183913
 21
291.0813189343313
 31
0.0
 70
    32
 71
     5
 42
180.9999999999995
  3
ISO-25
100
AcDbAlignedDimension
 13
1011.569343183913
 23
460.1402142854658
 33
0.0
 14
1192.569343183913
 24
460.1402142854616
 34
0.0
100
AcDbRotatedDimension
1001
ACAD
1000
DSTYLE
1002
{
1070
    41
1040
10.0
1070
   140
1040
25.0
1070
   147
1040
6.599999999999998
1070
   279
1070
     2
1070
   342
1005
30D
1070
   371
1070
    18
1070
   372
1070
    18
1002
}
  0
ARC
  5
74F4
330
1F
100
AcDbEntity
  8
実形
100
AcDbCircle
 10
1706.069343183913
 20
490.9694713703069
 30
0.0
 40
6.0
100
AcDbArc
 50
271.6538940784474
 51
360.0
  0
TEXT
  5
74FE
330
1F
100
AcDbEntity
  8
実形
100
AcDbText
 10
1042.683555881774
 20
547.9639136687577
 30
0.0
 40
25.0
  1
6R
 72
     2
 11
1084.350222548441
 21
544.6305803354244
 31
0.0
100
AcDbText
 73
     1
  0
TEXT
  5
7506
330
1F
100
AcDbEntity
  8
実形
100
AcDbText
 10
1595.621696234116
 20
546.056214591173
 30
0.0
 40
25.0
  1
6R
 72
     2
 11
1637.288362900783
 21
542.7228812578396
 31
0.0
100
AcDbText
 73
     1
  0
LEADER
  5
7507
330
1F
100
AcDbEntity
  8
実形
100
AcDbLeader
  3
ISO-25
 76
     2
 10
965.4503650180505
 20
495.5752878862003
 30
0.0
 10
1027.920188021731
 20
543.1592501125979
 30
0.0
1001
ACAD
1000
DSTYLE
1002
{
1070
    77
1070
     0
1070
    41
1040
10.0
1070
   140
1040
30.0
1070
   147
1040
6.599999999999998
1070
   279
1070
     2
1070
   342
1005
30D
1070
   371
1070
    18
1070
   372
1070
    18
1002
}
  0
ARC
  5
7548
330
1F
100
AcDbEntity
  8
実形
100
AcDbCircle
 10
1726.069343183914
 20
1695.67196328526
 30
0.0
 40
6.0
100
AcDbArc
 50
0.0
 51
90.0
  0
ARC
  5
7549
330
1F
100
AcDbEntity
  8
実形
100
AcDbCircle
 10
1706.069343183914
 20
1277.67196328526
 30
0.0
 40
6.0
100
AcDbArc
 50
270.0
 51
0.0
  0
ARC
  5
754A
330
1F
100
AcDbEntity
  8
実形
100
AcDbCircle
 10
1726.069343183913
 20
1257.67196328526
 30
0.0
 40
6.0
100
AcDbArc
 50
270.0
 51
0.0
  0
ARC
  5
754B
330
1F
100
AcDbEntity
  8
実形
100
AcDbCircle
 10
958.0693431839135
 20
1675.67196328526
 30
0.0
 40
6.0
100
AcDbArc
 50
89.99999999999998
 51
180.0
  0
ARC
  5
754C
330
1F
100
AcDbEntity
  8
実形
100
AcDbCircle
 10
938.0693431839134
 20
1695.67196328526
 30
0.0
 40
6.0
100
AcDbArc
 50
89.99999999999998
 51
180.0
  0
ARC
  5
754D
330
1F
100
AcDbEntity
  8
実形
100
AcDbCircle
 10
958.0693431839135
 20
1277.67196328526
 30
0.0
 40
6.0
100
AcDbArc
 50
180.0
 51
270.0
  0
ARC
  5
754E
330
1F
100
AcDbEntity
  8
実形
100
AcDbCircle
 10
938.0693431839135
 20
1257.67196328526
 30
0.0
 40
6.0
100
AcDbArc
 50
180.0
 51
270.0
  0
LEADER
  5
76AF
330
1F
100
AcDbEntity
  8
実形
100
AcDbLeader
  3
ISO-25
 76
     2
 10
1698.688321349777
 20
495.5752878862003
 30
0.0
 10
1650.738809508872
 20
544.4197778882062
 30
0.0
211
-1.0
221
0.0
231
0.0
1001
ACAD
1000
DSTYLE
1002
{
1070
    77
1070
     0
1070
    41
1040
10.0
1070
   140
1040
30.0
1070
   147
1040
6.599999999999998
1070
   279
1070
     2
1070
   342
1005
30D
1070
   371
1070
    18
1070
   372
1070
    18
1002
}
  0
LINE
  5
7B34
330
1F
100
AcDbEntity
  8
実形
 62
     0
100
AcDbLine
 10
2114.0
 20
263.9999999999991
 30
0.0
 11
2834.0
 21
263.9999999999991
 31
0.0
  0
TEXT
  5
7B3D
330
1F
100
AcDbEntity
  8
枠
 62
     0
100
AcDbText
 10
2137.833333333333
 20
213.9999999999991
 30
0.0
 40
35.0
  1
品名
 72
     4
 11
2174.0
 21
231.4999999999991
 31
0.0
100
AcDbText
  0
TEXT
  5
7B4F
330
1F
100
AcDbEntity
  8
実形
100
AcDbText
 10
2313.640535830596
 20
213.2308752843241
 30
0.0
 40
35.0
  1
ｱﾝﾀﾞｰｼﾝｸ
  7
ms明朝
 72
     4
 11
2416.040535830596
 21
230.8308752843241
 31
0.0
100
AcDbText
  0
TEXT
  5
7CE2
330
1F
100
AcDbEntity
  8
実形
100
AcDbText
 10
234.9784467214322
 20
55.07438486928823
 30
0.0
 40
30.0
  1
※実寸には製造上の誤差が多少生ずる場合があります。シンクの穴あけ加工は現物合わせにてお願いします。
 72
     4
 11
1104.978446721432
 21
70.07438486928823
 31
0.0
100
AcDbText
  0
LINE
  5
7CE4
330
1F
100
AcDbEntity
  8
実形
100
AcDbLine
 10
1011.569343183913
 20
470.1402142854658
 30
0.0
 11
958.0693431839133
 21
470.1402142854659
 31
0.0
  0
ARC
  5
7CE5
330
1F
100
AcDbEntity
  8
実形
100
AcDbCircle
 10
958.0693431839133
 20
476.1402142854659
 30
0.0
 40
6.0
100
AcDbArc
 50
179.9999999999999
 51
270.0
  0
TEXT
  5
7D16
330
1F
100
AcDbEntity
  8
実形
100
AcDbText
 10
234.4197908184251
 20
117.5456368237055
 30
0.0
 40
30.0
  1
※排水口外周W35ｍｍ,H3ｍｍラウンドテーパ－有り。
 72
     4
 11
687.919790818425
 21
130.0456368237055
 31
0.0
100
AcDbText
  0
LINE
  5
7DCA
330
1F
100
AcDbEntity
  8
実形
100
AcDbLine
 10
1934.904219265809
 20
1701.671963285259
 30
0.0
 11
1949.904219265809
 21
1701.671963285259
 31
0.0
  0
LINE
  5
7DCD
330
1F
100
AcDbEntity
  8
実形
100
AcDbLine
 10
1934.904219265809
 20
1716.67196328526
 30
0.0
 11
1934.904219265809
 21
1476.67196328526
 31
0.0
  0
LINE
  5
7DCE
330
1F
100
AcDbEntity
  8
実形
100
AcDbLine
 10
1949.904219265809
 20
1701.671963285259
 30
0.0
 11
1949.904219265808
 21
1476.67196328526
 31
0.0
  0
LINE
  5
7DCF
330
1F
100
AcDbEntity
  8
実形
100
AcDbLine
 10
2139.904219265809
 20
1567.17196328526
 30
0.0
 11
2139.904219265809
 21
1386.17196328526
 31
0.0
  0
LINE
  5
7DD0
330
1F
100
AcDbEntity
  8
実形
100
AcDbLine
 10
2149.904219265809
 20
1567.17196328526
 30
0.0
 11
2149.904219265809
 21
1386.17196328526
 31
0.0
  0
LINE
  5
7DD1
330
1F
100
AcDbEntity
  8
実形
100
AcDbLine
 10
2149.904219265809
 20
1386.17196328526
 30
0.0
 11
2149.904219265809
 21
1567.17196328526
 31
0.0
  0
LINE
  5
7DD2
330
1F
100
AcDbEntity
  8
実形
100
AcDbLine
 10
2139.904219265809
 20
1567.17196328526
 30
0.0
 11
2149.904219265809
 21
1567.17196328526
 31
0.0
  0
DIMENSION
  5
7DD3
330
1F
100
AcDbEntity
  8
実形
100
AcDbDimension
  2
*D23
 10
2266.820817801667
 20
1556.67196328526
 30
0.0
 11
2247.720817801666
 21
1476.67196328526
 31
0.0
 70
    32
 71
     5
 42
160.0
  3
ISO-25
100
AcDbAlignedDimension
 13
2149.904219265809
 23
1396.67196328526
 33
0.0
 14
2149.904219265809
 24
1556.67196328526
 34
0.0
 50
90.0
100
AcDbRotatedDimension
1001
ACAD
1000
DSTYLE
1002
{
1070
    41
1040
10.0
1070
   140
1040
25.0
1070
   147
1040
6.599999999999998
1070
   279
1070
     2
1070
   342
1005
30D
1070
   371
1070
    18
1070
   372
1070
    18
1002
}
  0
DIMENSION
  5
7DD4
330
1F
100
AcDbEntity
  8
実形
100
AcDbDimension
  2
*D24
 10
2338.063114616943
 20
1567.171963285259
 30
0.0
 11
2318.963114616943
 21
1476.67196328526
 31
0.0
 70
    32
 71
     5
 42
180.9999999999995
  3
ISO-25
100
AcDbAlignedDimension
 13
2149.904219265809
 23
1386.17196328526
 33
0.0
 14
2149.904219265813
 24
1567.171963285259
 34
0.0
 50
90.0
100
AcDbRotatedDimension
1001
ACAD
1000
DSTYLE
1002
{
1070
    41
1040
10.0
1070
   140
1040
25.0
1070
   147
1040
6.599999999999998
1070
   279
1070
     2
1070
   342
1005
30D
1070
   371
1070
    18
1070
   372
1070
    18
1002
}
  0
LINE
  5
7DD5
330
1F
100
AcDbEntity
  8
実形
  6
ACAD_ISO08W100
 48
0.5
100
AcDbLine
 10
2055.348826846687
 20
1476.67196328526
 30
0.0
 11
2204.916259479945
 21
1476.67196328526
 31
0.0
  0
TEXT
  5
7DD6
330
1F
100
AcDbEntity
  8
実形
100
AcDbText
 10
2004.697295346165
 20
1375.099593140302
 30
0.0
 40
25.0
  1
6R
 72
     2
 11
2046.363962012831
 21
1371.766259806969
 31
0.0
100
AcDbText
 73
     1
  0
LEADER
  5
7DD7
330
1F
100
AcDbEntity
  8
実形
100
AcDbLeader
  3
ISO-25
 76
     2
 10
2113.846444321867
 20
1299.252742984207
 30
0.0
 10
2045.60522220579
 20
1353.440221564445
 30
0.0
1001
ACAD
1000
DSTYLE
1002
{
1070
    77
1070
     0
1070
    41
1040
10.0
1070
   140
1040
30.0
1070
   147
1040
6.599999999999998
1070
   279
1070
     2
1070
   342
1005
30D
1070
   371
1070
    18
1070
   372
1070
    18
1002
}
  0
LINE
  5
7DD8
330
1F
100
AcDbEntity
  8
実形
100
AcDbLine
 10
1934.904219265809
 20
1716.67196328526
 30
0.0
 11
1934.904219265809
 21
1476.67196328526
 31
0.0
  0
LINE
  5
7DD9
330
1F
100
AcDbEntity
  8
実形
  6
ACAD_ISO08W100
100
AcDbLine
 10
2124.90421926581
 20
1675.671963285261
 30
0.0
 11
2124.904219265809
 21
1476.67196328526
 31
0.0
  0
LINE
  5
7DDE
330
1F
100
AcDbEntity
  8
実形
100
AcDbLine
 10
2139.904219265809
 20
1386.17196328526
 30
0.0
 11
2149.904219265808
 21
1386.171963285259
 31
0.0
  0
LINE
  5
7DDF
330
1F
100
AcDbEntity
  8
実形
100
AcDbLine
 10
1949.90421926581
 20
1681.671963285262
 30
0.0
 11
2118.90421926581
 21
1681.671963285261
 31
0.0
  0
ARC
  5
7DE0
330
1F
100
AcDbEntity
  8
実形
100
AcDbCircle
 10
2118.90421926581
 20
1675.671963285261
 30
0.0
 40
6.0
100
AcDbArc
 50
0.0
 51
90.0
  0
LINE
  5
7DE1
330
1F
100
AcDbEntity
  8
実形
100
AcDbLine
 10
2139.90421926581
 20
1567.17196328526
 30
0.0
 11
2137.051066625518
 21
1675.822543456894
 31
0.0
  0
ARC
  5
7DE2
330
1F
100
AcDbEntity
  8
実形
100
AcDbCircle
 10
2131.05295645548
 20
1675.671963285261
 30
0.0
 40
6.0
100
AcDbArc
 50
1.438085707406163
 51
90.0
  0
LINE
  5
7DE3
330
1F
100
AcDbEntity
  8
実形
100
AcDbLine
 10
2118.90421926581
 20
1681.671963285261
 30
0.0
 11
2131.05295645548
 21
1681.671963285261
 31
0.0
  0
DIMENSION
  5
7DE4
330
1F
100
AcDbEntity
  8
実形
100
AcDbDimension
  2
*D25
 10
2124.904219265808
 20
1146.46230530199
 30
0.0
 11
1896.339612540141
 21
1168.06230530199
 31
0.0
 70
   160
  1
15
 71
     5
 42
189.9999999999991
  3
ISO-25
100
AcDbAlignedDimension
 13
1934.904219265809
 23
1266.285223460146
 33
0.0
 14
2124.904219265808
 24
1243.191854069061
 34
0.0
100
AcDbRotatedDimension
1001
ACAD
1000
DSTYLE
1002
{
1070
    41
1040
10.0
1070
   140
1040
25.0
1070
   147
1040
6.599999999999998
1070
   279
1070
     2
1070
   342
1005
30D
1070
   371
1070
    18
1070
   372
1070
    18
1002
}
  0
DIMENSION
  5
7DE5
330
1F
100
AcDbEntity
  8
実形
100
AcDbDimension
  2
*D26
 10
2124.904219265808
 20
1146.46230530199
 30
0.0
 11
2033.940905743442
 21
1168.147682812884
 31
0.0
 70
   160
 71
     5
 42
174.9999999999995
  3
ISO-25
100
AcDbAlignedDimension
 13
1949.904219265808
 23
1267.962792217447
 33
0.0
 14
2124.904219265808
 24
1267.124012566447
 34
0.0
100
AcDbRotatedDimension
1001
ACAD
1000
DSTYLE
1002
{
1070
    41
1040
10.0
1070
   140
1040
25.0
1070
   147
1040
6.599999999999998
1070
   279
1070
     2
1070
   342
1005
30D
1070
   371
1070
    18
1070
   372
1070
    18
1002
}
  0
DIMENSION
  5
7DE6
330
1F
100
AcDbEntity
  8
実形
100
AcDbDimension
  2
*D27
 10
2124.904219265808
 20
1094.45181606266
 30
0.0
 11
2034.77990156646
 21
1116.05181606266
 31
0.0
 70
   160
 71
     5
 42
189.9999999999995
  3
ISO-25
100
AcDbAlignedDimension
 13
1934.904219265809
 23
1204.267270046923
 33
0.0
 14
2124.904219265808
 24
1204.267270046923
 34
0.0
100
AcDbRotatedDimension
1001
ACAD
1000
DSTYLE
1002
{
1070
    41
1040
10.0
1070
   140
1040
25.0
1070
   147
1040
6.599999999999998
1070
   279
1070
     2
1070
   342
1005
30D
1070
   371
1070
    18
1070
   372
1070
    18
1002
}
  0
DIMENSION
  5
7DE7
330
1F
100
AcDbEntity
  8
実形
100
AcDbDimension
  2
*D28
 10
2139.904219265809
 20
1094.45181606266
 30
0.0
 11
2174.89217017766
 21
1116.05181606266
 31
0.0
 70
   160
  1
15
 71
     5
 42
204.9999999999995
  3
ISO-25
100
AcDbAlignedDimension
 13
1934.904219265809
 23
1204.267270046923
 33
0.0
 14
2139.904219265809
 24
1266.8686154618
 34
0.0
100
AcDbRotatedDimension
1001
ACAD
1000
DSTYLE
1002
{
1070
    41
1040
10.0
1070
   140
1040
25.0
1070
   147
1040
6.599999999999998
1070
   279
1070
     2
1070
   342
1005
30D
1070
   371
1070
    18
1070
   372
1070
    18
1002
}
  0
DIMENSION
  5
7DE8
330
1F
100
AcDbEntity
  8
実形
100
AcDbDimension
  2
*D29
 10
2139.904219265809
 20
1041.181532497775
 30
0.0
 11
2037.665087096268
 21
1060.281532497775
 31
0.0
 70
    32
  1
205
 71
     5
 42
204.4782643390822
  3
ISO-25
100
AcDbAlignedDimension
 13
1935.425954926726
 23
1172.320377601457
 33
0.0
 14
2139.904219265809
 24
1172.320377601457
 34
0.0
100
AcDbRotatedDimension
1001
ACAD
1000
DSTYLE
1002
{
1070
    41
1040
10.0
1070
   140
1040
25.0
1070
   147
1040
6.599999999999998
1070
   279
1070
     2
1070
   342
1005
30D
1070
   371
1070
    18
1070
   372
1070
    18
1002
}
  0
DIMENSION
  5
7DE9
330
1F
100
AcDbEntity
  8
実形
100
AcDbDimension
  2
*D30
 10
2149.904219265809
 20
1041.181532497775
 30
0.0
 11
2173.699543758725
 21
1062.781532497774
 31
0.0
 70
   160
  1
8
 71
     5
 42
215.0
  3
ISO-25
100
AcDbAlignedDimension
 13
1934.904219265809
 23
1237.320377601457
 33
0.0
 14
2149.904219265809
 24
1155.090446765364
 34
0.0
100
AcDbRotatedDimension
1001
ACAD
1000
DSTYLE
1002
{
1070
    41
1040
10.0
1070
   140
1040
25.0
1070
   147
1040
6.599999999999998
1070
   279
1070
     2
1070
   342
1005
30D
1070
   371
1070
    18
1070
   372
1070
    18
1002
}
  0
DIMENSION
  5
7DEA
330
1F
100
AcDbEntity
  8
実形
100
AcDbDimension
  2
*D31
 10
2149.904219265809
 20
986.4755211003473
 30
0.0
 11
2037.296889035508
 21
1008.075521100347
 31
0.0
 70
   160
  1
213
 71
     5
 42
215.0
  3
ISO-25
100
AcDbAlignedDimension
 13
1934.904219265809
 23
1172.320377601457
 33
0.0
 14
2149.904219265809
 24
1108.252964348653
 34
0.0
100
AcDbRotatedDimension
1001
ACAD
1000
DSTYLE
1002
{
1070
    41
1040
10.0
1070
   140
1040
25.0
1070
   147
1040
6.599999999999998
1070
   279
1070
     2
1070
   342
1005
30D
1070
   371
1070
    18
1070
   372
1070
    18
1002
}
  0
LINE
  5
7EAE
330
1F
100
AcDbEntity
  8
実形
100
AcDbLine
 10
1934.904219265809
 20
1251.67196328526
 30
0.0
 11
1949.904219265809
 21
1251.671963285261
 31
0.0
  0
LINE
  5
7EAF
330
1F
100
AcDbEntity
  8
実形
100
AcDbLine
 10
1934.904219265809
 20
1236.67196328526
 30
0.0
 11
1934.904219265809
 21
1476.67196328526
 31
0.0
  0
LINE
  5
7EB0
330
1F
100
AcDbEntity
  8
実形
100
AcDbLine
 10
1949.904219265809
 20
1251.67196328526
 30
0.0
 11
1949.904219265808
 21
1476.67196328526
 31
0.0
  0
LINE
  5
7EB1
330
1F
100
AcDbEntity
  8
実形
100
AcDbLine
 10
1934.904219265809
 20
1236.67196328526
 30
0.0
 11
1934.904219265809
 21
1476.67196328526
 31
0.0
  0
LINE
  5
7EB2
330
1F
100
AcDbEntity
  8
実形
  6
ACAD_ISO08W100
100
AcDbLine
 10
2124.90421926581
 20
1277.671963285259
 30
0.0
 11
2124.904219265809
 21
1476.67196328526
 31
0.0
  0
LINE
  5
7EB3
330
1F
100
AcDbEntity
  8
実形
100
AcDbLine
 10
1949.90421926581
 20
1271.671963285258
 30
0.0
 11
2118.90421926581
 21
1271.671963285259
 31
0.0
  0
ARC
  5
7EB4
330
1F
100
AcDbEntity
  8
実形
100
AcDbCircle
 10
2118.90421926581
 20
1277.671963285259
 30
0.0
 40
6.0
100
AcDbArc
 50
270.0
 51
0.0
  0
LINE
  5
7EB5
330
1F
100
AcDbEntity
  8
実形
100
AcDbLine
 10
2139.90421926581
 20
1386.171963285259
 30
0.0
 11
2137.051066625518
 21
1277.521383113626
 31
0.0
  0
ARC
  5
7EB6
330
1F
100
AcDbEntity
  8
実形
100
AcDbCircle
 10
2131.05295645548
 20
1277.671963285259
 30
0.0
 40
6.0
100
AcDbArc
 50
270.0
 51
358.5619142925938
  0
LINE
  5
7EB7
330
1F
100
AcDbEntity
  8
実形
100
AcDbLine
 10
2118.90421926581
 20
1271.671963285259
 30
0.0
 11
2131.05295645548
 21
1271.671963285259
 31
0.0
  0
LINE
  5
8249
330
1F
100
AcDbEntity
  8
実形
100
AcDbLine
 10
1482.069343183914
 20
1675.67196328526
 30
0.0
 11
1482.069343183913
 21
1613.67196328526
 31
0.0
  0
LINE
  5
8258
330
1F
100
AcDbEntity
  8
実形
100
AcDbLine
 10
1484.069343183913
 20
1611.67196328526
 30
0.0
 11
1706.069343183913
 21
1611.67196328526
 31
0.0
  0
DIMENSION
  5
8267
330
1F
100
AcDbEntity
  8
実形
100
AcDbDimension
  2
*D32
 10
1747.069343183913
 20
1785.511640793593
 30
0.0
 11
1738.300620881757
 21
1813.540762967295
 31
0.0
 70
   160
  1
15
 71
     5
 42
264.9999999999998
  3
ISO-25
100
AcDbAlignedDimension
 13
1482.069343183913
 23
1681.67196328526
 33
0.0
 14
1747.069343183913
 24
1681.67196328526
 34
0.0
100
AcDbRotatedDimension
1001
ACAD
1000
DSTYLE
1002
{
1070
    41
1040
10.0
1070
   140
1040
25.0
1070
   147
1040
6.599999999999998
1070
   279
1070
     2
1070
   342
1005
30D
1070
   371
1070
    18
1070
   372
1070
    18
1002
}
  0
DIMENSION
  5
8274
330
1F
100
AcDbEntity
  8
実形
100
AcDbDimension
  2
*D33
 10
1732.069343183914
 20
1785.511640793593
 30
0.0
 11
1606.265089941191
 21
1812.803321276995
 31
0.0
 70
   160
 71
     5
 42
250.0000000000002
  3
ISO-25
100
AcDbAlignedDimension
 13
1482.069343183913
 23
1681.67196328526
 33
0.0
 14
1732.069343183914
 24
1681.67196328526
 34
0.0
100
AcDbRotatedDimension
1001
ACAD
1000
DSTYLE
1002
{
1070
    41
1040
10.0
1070
   140
1040
25.0
1070
   147
1040
6.599999999999998
1070
   279
1070
     2
1070
   342
1005
30D
1070
   371
1070
    18
1070
   372
1070
    18
1002
}
  0
ARC
  5
83E2
330
1F
100
AcDbEntity
  8
実形
100
AcDbCircle
 10
1484.069343183913
 20
1613.67196328526
 30
0.0
 40
2.0
100
AcDbArc
 50
179.9999999999999
 51
270.0
  0
TEXT
  5
83EC
330
1F
100
AcDbEntity
  8
実形
100
AcDbText
 10
1371.562470961501
 20
1527.301648650974
 30
0.0
 40
25.0
  1
2R
 72
     2
 11
1413.229137628168
 21
1523.968315317641
 31
0.0
100
AcDbText
 73
     1
  0
LEADER
  5
83ED
330
1F
100
AcDbEntity
  8
実形
100
AcDbLeader
  3
ISO-25
 76
     2
 10
1476.491315241194
 20
1595.319893835263
 30
0.0
 10
1422.43436911115
 20
1546.423650961808
 30
0.0
1001
ACAD
1000
DSTYLE
1002
{
1070
    77
1070
     0
1070
    41
1040
10.0
1070
   140
1040
30.0
1070
   147
1040
6.599999999999998
1070
   279
1070
     2
1070
   342
1005
30D
1070
   371
1070
    18
1070
   372
1070
    18
1002
}
  0
TEXT
  5
83F7
330
1F
100
AcDbEntity
  8
実形
100
AcDbText
 10
1363.587502150113
 20
1590.318226449014
 30
0.0
 40
25.0
  1
6R
 72
     2
 11
1405.25416881678
 21
1586.984893115681
 31
0.0
100
AcDbText
 73
     1
  0
LEADER
  5
83F8
330
1F
100
AcDbEntity
  8
実形
100
AcDbLeader
  3
ISO-25
 76
     2
 10
1468.516346429806
 20
1668.336471633303
 30
0.0
 10
1414.459400299762
 20
1619.440228759848
 30
0.0
1001
ACAD
1000
DSTYLE
1002
{
1070
    77
1070
     0
1070
    41
1040
10.0
1070
   140
1040
30.0
1070
   147
1040
6.599999999999998
1070
   279
1070
     2
1070
   342
1005
30D
1070
   371
1070
    18
1070
   372
1070
    18
1002
}
  0
DIMENSION
  5
8402
330
1F
100
AcDbEntity
  8
実形
100
AcDbDimension
  2
*D34
 10
1902.570951873659
 20
1701.67196328526
 30
0.0
 11
1883.470951873659
 21
1656.67196328526
 31
0.0
 70
    32
 71
     5
 42
90.0
  3
ISO-25
100
AcDbAlignedDimension
 13
1792.398879677637
 23
1611.67196328526
 33
0.0
 14
1792.398879677637
 24
1701.67196328526
 34
0.0
 50
90.0
100
AcDbRotatedDimension
1001
ACAD
1000
DSTYLE
1002
{
1070
    41
1040
10.0
1070
   140
1040
25.0
1070
   147
1040
6.599999999999998
1070
   279
1070
     2
1070
   342
1005
30D
1070
   371
1070
    18
1070
   372
1070
    18
1002
}
  0
DIMENSION
  5
842A
330
1F
100
AcDbEntity
  8
実形
100
AcDbDimension
  2
*D35
 10
1853.984069907109
 20
1611.671963285259
 30
0.0
 11
1785.070568766399
 21
1737.811969917097
 31
0.0
 70
   160
  1
15
 71
     5
 42
105.0000000000002
  3
ISO-25
100
AcDbAlignedDimension
 13
1743.53140065097
 23
1716.67196328526
 33
0.0
 14
1778.811997711086
 24
1611.671963285259
 34
0.0
 50
90.0
100
AcDbRotatedDimension
1001
ACAD
1000
DSTYLE
1002
{
1070
    41
1040
10.0
1070
   140
1040
25.0
1070
   147
1040
6.599999999999998
1070
   279
1070
     2
1070
   342
1005
30D
1070
   371
1070
    18
1070
   372
1070
    18
1002
}
  0
ARC
  5
845D
330
1F
100
AcDbEntity
  8
実形
100
AcDbCircle
 10
1476.069343183914
 20
1675.67196328526
 30
0.0
 40
6.0
100
AcDbArc
 50
359.9999999999997
 51
89.99999999999998
  0
ARC
  5
845E
330
1F
100
AcDbEntity
  8
実形
100
AcDbCircle
 10
1690.444707607821
 20
1596.687724944225
 30
0.0
 40
21.64847882754329
100
AcDbArc
 50
357.3106548350166
 51
43.80143560415048
  0
LINE
  5
84D4
330
1F
100
AcDbEntity
  8
実形
100
AcDbLine
 10
1949.904219265808
 20
1611.671963285259
 30
0.0
 11
2124.904219265809
 21
1611.671963285259
 31
0.0
  0
DIMENSION
  5
8513
330
1F
100
AcDbEntity
  8
実形
100
AcDbDimension
  2
*D36
 10
1853.984069907109
 20
1611.671963285259
 30
0.0
 11
1834.884069907109
 21
1646.67196328526
 31
0.0
 70
    32
 71
     5
 42
70.00000000000046
  3
ISO-25
100
AcDbAlignedDimension
 13
1742.213664431253
 23
1681.67196328526
 33
0.0
 14
1742.213664431252
 24
1611.671963285259
 34
0.0
 50
90.0
100
AcDbRotatedDimension
1001
ACAD
1000
DSTYLE
1002
{
1070
    41
1040
10.0
1070
   140
1040
25.0
1070
   147
1040
6.599999999999998
1070
   279
1070
     2
1070
   342
1005
30D
1070
   371
1070
    18
1070
   372
1070
    18
1002
}
  0
DIMENSION
  5
8529
330
1F
100
AcDbEntity
  8
実形
100
AcDbDimension
  2
*D37
 10
1853.984069907109
 20
1701.67196328526
 30
0.0
 11
1782.957432318142
 21
1677.86257632943
 31
0.0
 70
   160
  1
20
 71
     5
 42
90.00000000000023
  3
ISO-25
100
AcDbAlignedDimension
 13
1742.296253884137
 23
1611.67196328526
 33
0.0
 14
1741.556960861116
 24
1701.67196328526
 34
0.0
 50
90.0
100
AcDbRotatedDimension
1001
ACAD
1000
DSTYLE
1002
{
1070
    41
1040
10.0
1070
   140
1040
25.0
1070
   147
1040
6.599999999999998
1070
   279
1070
     2
1070
   342
1005
30D
1070
   371
1070
    18
1070
   372
1070
    18
1002
}
  0
DIMENSION
  5
861C
330
1F
100
AcDbEntity
  8
実形
100
AcDbDimension
  2
*D38
 10
1102.069343183913
 20
1785.511640793593
 30
0.0
 11
1027.069343183913
 21
1813.455574092207
 31
0.0
 70
   160
 71
     5
 42
150.0
  3
ISO-25
100
AcDbAlignedDimension
 13
952.0693431839136
 23
1681.67196328526
 33
0.0
 14
1102.069343183913
 24
1681.67196328526
 34
0.0
100
AcDbRotatedDimension
1001
ACAD
1000
DSTYLE
1002
{
1070
    41
1040
10.0
1070
   140
1040
25.0
1070
   147
1040
6.599999999999998
1070
   279
1070
     2
1070
   342
1005
30D
1070
   371
1070
    18
1070
   372
1070
    18
1002
}
  0
DIMENSION
  5
89A1
330
1F
100
AcDbEntity
  8
実形
100
AcDbDimension
  2
*D39
 10
1853.984069907109
 20
1611.671963285259
 30
0.0
 11
1832.384069907108
 21
1424.17196328526
 31
0.0
 70
    32
  1
340
 71
     5
 42
374.9999999999993
  3
ISO-25
100
AcDbAlignedDimension
 13
1747.069343183914
 23
1236.67196328526
 33
0.0
 14
1747.069343183916
 24
1611.671963285259
 34
0.0
 50
90.0
100
AcDbRotatedDimension
1001
ACAD
1000
DSTYLE
1002
{
1070
    41
1040
10.0
1070
   140
1040
30.0
1070
   147
1040
6.599999999999998
1070
   279
1070
     2
1070
   342
1005
30D
1070
   371
1070
    18
1070
   372
1070
    18
1002
}
  0
DIMENSION
  5
89C0
330
1F
100
AcDbEntity
  8
実形
100
AcDbDimension
  2
*D40
 10
1853.984069907109
 20
1611.671963285259
 30
0.0
 11
1832.47525135178
 21
1203.535137087769
 31
0.0
 70
   160
  1
15
 71
     5
 42
359.9999999999993
  3
ISO-25
100
AcDbAlignedDimension
 13
1747.069343183914
 23
1251.67196328526
 33
0.0
 14
1747.069343183915
 24
1611.671963285259
 34
0.0
 50
90.0
100
AcDbRotatedDimension
1001
ACAD
1000
DSTYLE
1002
{
1070
    41
1040
10.0
1070
   140
1040
30.0
1070
   147
1040
6.599999999999998
1070
   279
1070
     2
1070
   342
1005
30D
1070
   371
1070
    18
1070
   372
1070
    18
1002
}
  0
DIMENSION
  5
89DF
330
1F
100
AcDbEntity
  8
実形
100
AcDbDimension
  2
*D41
 10
1853.984069907109
 20
1271.67196328526
 30
0.0
 11
1831.032304478753
 21
1305.889333904241
 31
0.0
 70
   160
  1
20
 71
     5
 42
339.9999999999993
  3
ISO-25
100
AcDbAlignedDimension
 13
1747.069343183914
 23
1611.671963285259
 33
0.0
 14
1747.069343183914
 24
1271.67196328526
 34
0.0
 50
90.0
100
AcDbRotatedDimension
1001
ACAD
1000
DSTYLE
1002
{
1070
    41
1040
10.0
1070
   140
1040
30.0
1070
   147
1040
6.599999999999998
1070
   279
1070
     2
1070
   342
1005
30D
1070
   371
1070
    18
1070
   372
1070
    18
1002
}
  0
DIMENSION
  5
8C3C
330
1F
100
AcDbEntity
  8
実形
100
AcDbDimension
  2
*D42
 10
816.6962807207216
 20
485.1402142854658
 30
0.0
 11
796.9272509909021
 21
652.3673569822768
 31
0.0
 70
   160
  1
15
 71
     5
 42
190.0000000000001
  3
ISO-25
100
AcDbAlignedDimension
 13
940.9530405591738
 23
675.1402142854659
 33
0.0
 14
940.9530405591738
 24
485.1402142854658
 34
0.0
 50
90.0
100
AcDbRotatedDimension
1001
ACAD
1000
DSTYLE
1002
{
1070
    41
1040
10.0
1070
   140
1040
25.0
1070
   147
1040
6.599999999999998
1070
   279
1070
     2
1070
   342
1005
30D
1070
   371
1070
    18
1070
   372
1070
    18
1002
}
  0
DIMENSION
  5
8C3D
330
1F
100
AcDbEntity
  8
実形
100
AcDbDimension
  2
*D43
 10
816.6962807207216
 20
485.1402142854658
 30
0.0
 11
797.5962807207215
 21
572.640214285466
 31
0.0
 70
    32
 71
     5
 42
175.0
  3
ISO-25
100
AcDbAlignedDimension
 13
940.9530405591738
 23
660.1402142854658
 33
0.0
 14
940.9530405591738
 24
485.1402142854658
 34
0.0
 50
90.0
100
AcDbRotatedDimension
1001
ACAD
1000
DSTYLE
1002
{
1070
    41
1040
10.0
1070
   140
1040
25.0
1070
   147
1040
6.599999999999998
1070
   279
1070
     2
1070
   342
1005
30D
1070
   371
1070
    18
1070
   372
1070
    18
1002
}
  0
DIMENSION
  5
8C3E
330
1F
100
AcDbEntity
  8
実形
100
AcDbDimension
  2
*D44
 10
753.5233401300517
 20
485.1402142854658
 30
0.0
 11
733.2133289766659
 21
571.2238715340345
 31
0.0
 70
   160
 71
     5
 42
190.0000000000001
  3
ISO-25
100
AcDbAlignedDimension
 13
875.9530405591737
 23
675.1402142854659
 33
0.0
 14
875.9530405591737
 24
485.1402142854658
 34
0.0
 50
90.0
100
AcDbRotatedDimension
1001
ACAD
1000
DSTYLE
1002
{
1070
    41
1040
10.0
1070
   140
1040
25.0
1070
   147
1040
6.599999999999998
1070
   279
1070
     2
1070
   342
1005
30D
1070
   371
1070
    18
1070
   372
1070
    18
1002
}
  0
DIMENSION
  5
8C3F
330
1F
100
AcDbEntity
  8
実形
100
AcDbDimension
  2
*D45
 10
753.5233401300517
 20
675.1402142854661
 30
0.0
 11
733.8352108100077
 21
495.2512650276112
 31
0.0
 70
   160
  1
15
 71
     5
 42
205.0000000000001
  3
ISO-25
100
AcDbAlignedDimension
 13
941.6123756591639
 23
470.1402142854658
 33
0.0
 14
940.9530405591738
 24
675.1402142854659
 34
0.0
 50
90.0
100
AcDbRotatedDimension
1001
ACAD
1000
DSTYLE
1002
{
1070
    41
1040
10.0
1070
   140
1040
25.0
1070
   147
1040
6.599999999999998
1070
   279
1070
     2
1070
   342
1005
30D
1070
   371
1070
    18
1070
   372
1070
    18
1002
}
  0
DIMENSION
  5
8C40
330
1F
100
AcDbEntity
  8
実形
100
AcDbDimension
  2
*D46
 10
693.1816606677582
 20
470.1402142854658
 30
0.0
 11
674.0816606677581
 21
572.640214285466
 31
0.0
 70
    32
 71
     5
 42
205.0000000000002
  3
ISO-25
100
AcDbAlignedDimension
 13
816.6962807207216
 23
675.1402142854659
 33
0.0
 14
816.6962807207216
 24
470.1402142854658
 34
0.0
 50
90.0
100
AcDbRotatedDimension
1001
ACAD
1000
DSTYLE
1002
{
1070
    41
1040
10.0
1070
   140
1040
25.0
1070
   147
1040
6.599999999999998
1070
   279
1070
     2
1070
   342
1005
30D
1070
   371
1070
    18
1070
   372
1070
    18
1002
}
  0
DIMENSION
  5
8C41
330
1F
100
AcDbEntity
  8
実形
100
AcDbDimension
  2
*D47
 10
693.1816606677582
 20
675.1402142854661
 30
0.0
 11
673.5365332758517
 21
474.7001208433484
 31
0.0
 70
   160
  1
8
 71
     5
 42
215.0000000000002
  3
ISO-25
100
AcDbAlignedDimension
 13
811.6143561628575
 23
460.1402142854658
 33
0.0
 14
816.6962807207216
 24
675.1402142854659
 34
0.0
 50
90.0
100
AcDbRotatedDimension
1001
ACAD
1000
DSTYLE
1002
{
1070
    41
1040
10.0
1070
   140
1040
25.0
1070
   147
1040
6.599999999999998
1070
   279
1070
     2
1070
   342
1005
30D
1070
   371
1070
    18
1070
   372
1070
    18
1002
}
  0
DIMENSION
  5
8C42
330
1F
100
AcDbEntity
  8
実形
100
AcDbDimension
  2
*D48
 10
638.2912616958763
 20
460.1402142854658
 30
0.0
 11
612.2432477924264
 21
573.8534755241171
 31
0.0
 70
   160
  1
213
 71
     5
 42
215.0000000000001
  3
ISO-25
100
AcDbAlignedDimension
 13
753.5233401300517
 23
675.1402142854659
 33
0.0
 14
763.8153638318706
 24
460.1402142854658
 34
0.0
 50
90.0
100
AcDbRotatedDimension
1001
ACAD
1000
DSTYLE
1002
{
1070
    41
1040
10.0
1070
   140
1040
25.0
1070
   147
1040
6.599999999999998
1070
   279
1070
     2
1070
   342
1005
30D
1070
   371
1070
    18
1070
   372
1070
    18
1002
}
  0
LINE
  5
8D6C
330
1F
100
AcDbEntity
  8
補助
 62
     0
100
AcDbLine
 10
2834.0
 20
1959.000000000001
 30
0.0
 11
2069.387286519283
 21
1959.000000000002
 31
0.0
  0
LINE
  5
8D6D
330
1F
100
AcDbEntity
  8
補助
 62
     0
100
AcDbLine
 10
2834.0
 20
1894.000000000001
 30
0.0
 11
2069.387286519283
 21
1894.000000000001
 31
0.0
  0
LINE
  5
8D6E
330
1F
100
AcDbEntity
  8
補助
 62
     0
100
AcDbLine
 10
2252.547653420926
 20
1894.000000000001
 30
0.0
 11
2252.547653420926
 21
2024.000000000002
 31
0.0
  0
LINE
  5
8D6F
330
1F
100
AcDbEntity
  8
補助
 62
     0
100
AcDbLine
 10
2069.387286519283
 20
1894.000000000001
 30
0.0
 11
2069.387286519283
 21
2024.000000000002
 31
0.0
  0
TEXT
  5
8D70
330
1F
100
AcDbEntity
  8
補助
 62
     0
100
AcDbText
 10
2100.295698850121
 20
1976.328571428573
 30
0.0
 40
30.0
  1
部品名
  7
明朝
 72
     4
 11
2166.124270278692
 21
1991.500000000002
 31
0.0
100
AcDbText
  0
TEXT
  5
8D71
330
1F
100
AcDbEntity
  8
補助
 62
     0
100
AcDbText
 10
2677.614285714286
 20
1976.07142857143
 30
0.0
 40
30.0
  1
厚さ
  7
明朝
 72
     4
 11
2721.5
 21
1991.500000000002
 31
0.0
100
AcDbText
  0
LINE
  5
8D72
330
1F
100
AcDbEntity
  8
補助
 62
     0
100
AcDbLine
 10
2609.0
 20
1894.000000000001
 30
0.0
 11
2609.0
 21
2024.000000000002
 31
0.0
  0
TEXT
  5
8D73
330
1F
100
AcDbEntity
  8
補助
 62
     0
100
AcDbText
 10
2388.490869919937
 20
1975.947979478156
 30
0.0
 40
30.0
  1
材質
  7
明朝
 72
     4
 11
2432.376584205651
 21
1991.119408049584
 31
0.0
100
AcDbText
  0
TEXT
  5
8D74
330
1F
100
AcDbEntity
  8
実形
 62
     0
100
AcDbText
 10
2098.227810657788
 20
1910.557142857144
 30
0.0
 40
30.0
  1
ボウル
  7
明朝
 72
     4
 11
2164.056382086359
 21
1926.500000000001
 31
0.0
100
AcDbText
  0
TEXT
  5
8D75
330
1F
100
AcDbEntity
  8
実形
 62
     0
100
AcDbText
 10
2644.700000000001
 20
1911.842857142858
 30
0.0
 40
30.0
  1
1.0ｍｍ
  7
明朝
 72
     4
 11
2721.500000000001
 21
1926.500000000001
 31
0.0
100
AcDbText
  0
TEXT
  5
8D76
330
1F
100
AcDbEntity
  8
実形
 62
     0
100
AcDbText
 10
2311.016869107866
 20
1910.728571428572
 30
0.0
 40
30.0
  1
SUS304（HL）
  7
明朝
 72
     4
 11
2442.674011965009
 21
1926.500000000001
 31
0.0
100
AcDbText
  0
VIEWPORT
  5
2E
102
{ACAD_XDICTIONARY
360
8DA1
102
}
330
1B
100
AcDbEntity
 67
     1
  8
0
100
AcDbViewport
 10
144.7270812988281
 20
101.2295806407928
 30
0.0
 40
411.6736216682419
 41
222.1517806396485
 68
     1
 69
     1
 12
144.7270812988281
 22
101.2295806407928
 13
0.0
 23
0.0
 14
10.0
 24
10.0
 15
10.0
 25
10.0
 16
0.0
 26
0.0
 36
1.0
 17
0.0
 27
0.0
 37
0.0
 42
50.0
 43
0.0
 44
0.0
 45
222.1517806396485
 50
0.0
 51
0.0
 72
   100
 90
    32800
  1

281
     0
 71
     1
 74
     0
110
0.0
120
0.0
130
0.0
111
1.0
121
0.0
131
0.0
112
0.0
122
1.0
132
0.0
 79
     0
146
0.0
  0
VIEWPORT
  5
30
102
{ACAD_XDICTIONARY
360
8DA3
102
}
330
1B
100
AcDbEntity
 67
     1
  8
0
100
AcDbViewport
 10
139.2237563133239
 20
101.2295821905136
 30
0.0
 40
222.7580101013184
 41
161.9673315048218
 68
     2
 69
     2
 12
210.0
 22
148.5
 13
0.0
 23
0.0
 14
10.0
 24
10.0
 15
10.0
 25
10.0
 16
0.0
 26
0.0
 36
1.0
 17
0.0
 27
0.0
 37
0.0
 42
50.0
 43
0.0
 44
0.0
 45
309.0686705647124
 50
0.0
 51
0.0
 72
   100
 90
    32864
  1

281
     0
 71
     1
 74
     0
110
0.0
120
0.0
130
0.0
111
1.0
121
0.0
131
0.0
112
0.0
122
1.0
132
0.0
 79
     0
146
0.0
  0
ENDSEC
  0
SECTION
  2
OBJECTS
  0
DICTIONARY
  5
C
330
0
100
AcDbDictionary
281
     1
  3
ACAD_COLOR
350
22AD
  3
ACAD_GROUP
350
D
  3
ACAD_LAYOUT
350
1A
  3
ACAD_MATERIAL
350
22AC
  3
ACAD_MLINESTYLE
350
17
  3
ACAD_PLOTSETTINGS
350
19
  3
ACAD_PLOTSTYLENAME
350
E
  3
ACAD_TABLESTYLE
350
22AE
  3
AcadDim
350
124
  3
ACDBHEADERROUNDTRIPXREC
350
8D9A
  3
AcDbVariableDictionary
350
1589
  3
DWGPROPS
350
8D99
  0
DICTIONARY
  5
24C4
330
2
100
AcDbDictionary
280
     1
281
     1
  3
ACAD_LAYERFILTERS
360
6C37
  3
ACAD_LAYERSTATES
360
24C5
  3
ACLYDICTIONARY
360
6C36
  0
DICTIONARY
  5
2396
330
1F
100
AcDbDictionary
280
     1
281
     1
  3
ACAD_SORTENTS
360
2397
  0
DICTIONARY
  5
313E
330
313C
100
AcDbDictionary
280
     1
281
     1
  3
ACAD_SORTENTS
360
313F
  0
DICTIONARY
  5
3848
330
3846
100
AcDbDictionary
280
     1
281
     1
  3
ACAD_SORTENTS
360
3849
  0
DICTIONARY
  5
6B89
330
6B87
100
AcDbDictionary
280
     1
281
     1
  3
ACAD_SORTENTS
360
6B8A
  0
DICTIONARY
  5
6C02
330
6C00
100
AcDbDictionary
280
     1
281
     1
  3
ACAD_SORTENTS
360
6C03
  0
DICTIONARY
  5
8DA1
330
2E
100
AcDbDictionary
280
     1
281
     1
  3
ACAD_XREC_ROUNDTRIP
360
8DA2
  0
DICTIONARY
  5
8DA3
330
30
100
AcDbDictionary
280
     1
281
     1
  3
ACAD_XREC_ROUNDTRIP
360
8DA4
  0
DICTIONARY
  5
22AD
102
{ACAD_REACTORS
330
C
102
}
330
C
100
AcDbDictionary
281
     1
  0
DICTIONARY
  5
D
102
{ACAD_REACTORS
330
C
102
}
330
C
100
AcDbDictionary
281
     1
  0
DICTIONARY
  5
1A
102
{ACAD_REACTORS
330
C
102
}
330
C
100
AcDbDictionary
281
     1
  3
Model
350
22
  3
ﾚｲｱｳﾄ1
350
1E
  3
ﾚｲｱｳﾄ2
350
26
  0
DICTIONARY
  5
22AC
102
{ACAD_REACTORS
330
C
102
}
330
C
100
AcDbDictionary
281
     1
  0
DICTIONARY
  5
17
102
{ACAD_REACTORS
330
C
102
}
330
C
100
AcDbDictionary
281
     1
  3
Standard
350
18
  0
DICTIONARY
  5
19
102
{ACAD_REACTORS
330
C
102
}
330
C
100
AcDbDictionary
281
     1
  0
ACDBDICTIONARYWDFLT
  5
E
102
{ACAD_REACTORS
330
C
102
}
330
C
100
AcDbDictionary
281
     1
  3
Normal
350
F
100
AcDbDictionaryWithDefault
340
F
  0
DICTIONARY
  5
22AE
102
{ACAD_REACTORS
330
C
102
}
330
C
100
AcDbDictionary
281
     1
  3
Standard
350
22AF
  0
XRECORD
  5
124
102
{ACAD_REACTORS
330
C
102
}
330
C
100
AcDbXrecord
280
     1
 90
   990106
  3

 60
     0
 61
     0
 62
     1
 63
     3
 64
     0
 65
     0
 66
     0
 67
     3
 68
     1
 69
     0
 70
     0
 71
     0
 72
     0
 40
30.0
170
     0
  0
DICTIONARY
  5
8D9A
102
{ACAD_REACTORS
330
C
102
}
330
C
100
AcDbDictionary
281
     1
  0
DICTIONARY
  5
1589
102
{ACAD_REACTORS
330
C
102
}
330
C
100
AcDbDictionary
281
     1
  3
CTABLESTYLE
350
22B5
  3
DIMASSOC
350
8D96
  3
PROJECTNAME
350
8D97
  3
SORTENTS
350
158A
  0
XRECORD
  5
8D99
102
{ACAD_REACTORS
330
C
102
}
330
C
100
AcDbXrecord
280
     1
  1
DWGPROPS COOKIE
  2

  3

  4

  6

  7

  8

  9

300
=
301
=
302
=
303
=
304
=
305
=
306
=
307
=
308
=
309
=
 40
2.656097222222222
 41
2451673.575802199
 42
2458809.742401539
  1

 90
        0
  0
DICTIONARY
  5
6C37
102
{ACAD_REACTORS
330
24C4
102
}
330
24C4
100
AcDbDictionary
281
     1
  0
DICTIONARY
  5
24C5
102
{ACAD_REACTORS
330
24C4
102
}
330
24C4
100
AcDbDictionary
281
     1
  0
DICTIONARY
  5
6C36
102
{ACAD_REACTORS
330
24C4
102
}
330
24C4
100
AcDbDictionary
281
     1
1001
ACAD
1000
<All
  0
SORTENTSTABLE
  5
2397
102
{ACAD_REACTORS
330
2396
102
}
330
2396
100
AcDbSortentsTable
330
1F
331
754A
  5
7079
331
7DD1
  5
7DD8
331
845D
  5
703F
331
7DD9
  5
7DE4
331
7DE1
  5
7DE8
331
8267
  5
83EC
331
7079
  5
7293
331
1B85
  5
1B8F
331
1B8D
  5
1B97
331
702A
  5
7028
331
1B95
  5
1BA6
331
7032
  5
7185
331
7DE9
  5
7EB3
331
7CE2
  5
7DD0
331
7185
  5
734A
331
7454
  5
7B27
331
7DCA
  5
7DD3
331
7EB0
  5
7EB7
331
7140
  5
72AC
331
7168
  5
72BB
331
754B
  5
702E
331
6D9B
  5
1B7B
331
745C
  5
7B33
331
7DD2
  5
7DD9
331
845E
  5
70F5
331
8258
  5
7029
331
7295
  5
745A
331
7DE2
  5
7DE9
331
83F7
  5
8402
331
68BC
  5
6E28
331
1B86
  5
1B91
331
702B
  5
7030
331
1B8E
  5
1B98
331
7DEA
  5
7EB4
331
1B96
  5
1BA7
331
72AD
  5
745C
331
74F4
  5
7458
331
73F5
  5
754C
331
7455
  5
7B26
331
7EB1
  5
8248
331
8249
  5
7031
331
754C
  5
702B
331
7DD3
  5
7DDE
331
7296
  5
73F6
331
7B34
  5
1B90
331
7DE3
  5
7DEA
331
83F8
  5
842A
331
7102
  5
729C
331
1B87
  5
1B92
331
1B8F
  5
1B99
331
702C
  5
7133
331
7132
  5
729D
331
1B97
  5
1BA8
331
7CE4
  5
7DD1
331
73F6
  5
754D
331
7EB2
  5
8249
331
754D
  5
7183
331
7DD4
  5
7DDF
331
A0
  5
1B74
331
7297
  5
7454
331
7DE4
  5
7EAE
331
7B3D
  5
7DCE
331
1B88
  5
1B93
331
702D
  5
717F
331
1B90
  5
1B9B
331
68D6
  5
6E31
331
7133
  5
72AB
331
7180
  5
7168
331
7CE5
  5
7452
331
74FE
  5
7B3D
331
7EB3
  5
824A
331
7506
  5
7B4F
331
7DCD
  5
7DD4
331
1B98
  5
37FF
331
272
  5
1B7F
331
5E5F
  5
634F
331
83E2
  5
7078
331
754E
  5
7180
331
7DD5
  5
7DE0
331
7298
  5
7469
331
7DE5
  5
7EAF
331
7026
  5
7027
331
1B91
  5
1B9C
331
702E
  5
7181
331
70D5
  5
7297
331
8402
  5
845D
331
7181
  5
7184
331
842A
  5
845E
331
7D16
  5
7DD2
331
7507
  5
7CE2
331
7DCE
  5
7DD5
331
7EB4
  5
8258
331
1B99
  5
3800
331
7458
  5
7B32
331
70F5
  5
7299
331
7DD6
  5
7DE1
331
76AF
  5
7CE3
331
7DDE
  5
7DE5
331
7299
  5
73F7
331
7DE6
  5
7EB0
331
5E68
  5
6C24
331
7086
  5
7295
331
1B8A
  5
1B94
331
7027
  5
702F
331
1B92
  5
1B9D
331
702F
  5
702C
331
7172
  5
72EB
331
7B4F
  5
7DCF
331
8274
  5
83ED
331
7DCF
  5
7DD6
331
7EB5
  5
8267
331
703F
  5
7186
331
7548
  5
7086
331
7DD7
  5
7DE2
331
83EC
  5
83F7
331
7469
  5
7B34
331
7DDF
  5
7DE6
331
729A
  5
7455
331
7DE7
  5
7EB1
331
1B73
  5
1B86
331
1B8B
  5
1B95
331
7028
  5
7132
331
1B93
  5
1BA1
331
7030
  5
70DF
331
734A
  5
754A
331
7183
  5
7316
331
7452
  5
76AF
331
7EAE
  5
7EB5
331
7EB6
  5
8274
331
70DF
  5
7298
331
7549
  5
7102
331
7DD0
  5
7DD7
331
7DD8
  5
7DE3
331
9C
  5
9C
331
83ED
  5
83F8
331
7DE0
  5
7DE7
331
7078
  5
719C
331
6E31
  5
1B73
331
1B84
  5
1B8E
331
1B8C
  5
1B96
331
7029
  5
7172
331
72AB
  5
745B
331
7DE8
  5
7EB2
331
1B94
  5
1BA2
331
7031
  5
7140
331
734B
  5
754B
331
7184
  5
7323
331
719C
  5
73F5
331
7EAF
  5
7EB6
331
7EB7
  5
8311
  0
SORTENTSTABLE
  5
313F
102
{ACAD_REACTORS
330
313E
102
}
330
313E
100
AcDbSortentsTable
330
313C
  0
SORTENTSTABLE
  5
3849
102
{ACAD_REACTORS
330
3848
102
}
330
3848
100
AcDbSortentsTable
330
3846
  0
SORTENTSTABLE
  5
6B8A
102
{ACAD_REACTORS
330
6B89
102
}
330
6B89
100
AcDbSortentsTable
330
6B87
  0
SORTENTSTABLE
  5
6C03
102
{ACAD_REACTORS
330
6C02
102
}
330
6C02
100
AcDbSortentsTable
330
6C00
  0
XRECORD
  5
8DA2
102
{ACAD_REACTORS
330
8DA1
102
}
330
8DA1
100
AcDbXrecord
280
     1
102
SHADEPLOT
 70
     0
  0
XRECORD
  5
8DA4
102
{ACAD_REACTORS
330
8DA3
102
}
330
8DA3
100
AcDbXrecord
280
     1
102
SHADEPLOT
 70
     0
  0
LAYOUT
  5
22
102
{ACAD_XDICTIONARY
360
8D9D
102
}
102
{ACAD_REACTORS
330
1A
102
}
330
1A
100
AcDbPlotSettings
  1

  2
EPSON PM-800C
  4
A4
  6

 40
3.757083177566528
 41
14.7637300491333
 42
3.757080078125
 43
3.757080078125
 44
209.9733276367187
 45
296.9683227539062
 46
0.0
 47
0.0
 48
0.0
 49
0.0
140
0.0
141
0.0
142
1.0
143
10.0
 70
 11952
 72
     1
 73
     1
 74
     2
  7

 75
    20
147
0.1
148
0.0
149
0.0
100
AcDbLayout
  1
Model
 70
     1
 71
     0
 10
0.0
 20
0.0
 11
12.0
 21
9.0
 12
0.0
 22
0.0
 32
0.0
 14
0.0
 24
0.0
 34
0.0
 15
0.0
 25
0.0
 35
0.0
146
0.0
 13
0.0
 23
0.0
 33
0.0
 16
1.0
 26
0.0
 36
0.0
 17
0.0
 27
1.0
 37
0.0
 76
     0
330
1F
  0
LAYOUT
  5
1E
102
{ACAD_XDICTIONARY
360
8D9B
102
}
102
{ACAD_REACTORS
330
1A
102
}
330
1A
100
AcDbPlotSettings
  1

  2
EPSON PM-800C
  4
A4
  6

 40
3.757083177566528
 41
14.7637300491333
 42
3.757080078125
 43
3.757080078125
 44
209.9733276367187
 45
296.9683227539062
 46
0.0
 47
0.0
 48
0.0
 49
0.0
140
0.0
141
0.0
142
1.0
143
1.0
 70
   688
 72
     1
 73
     1
 74
     5
  7

 75
    16
147
1.0
148
0.0
149
0.0
100
AcDbLayout
  1
ﾚｲｱｳﾄ1
 70
     1
 71
     1
 10
-3.757080078125
 20
-3.757083177566528
 11
293.2112426757813
 21
206.2162444591522
 12
0.0
 22
0.0
 32
0.0
 14
27.8447512626648
 24
20.24591643810271
 34
0.0
 15
250.6027613639831
 25
182.2132479429245
 35
0.0
146
0.0
 13
0.0
 23
0.0
 33
0.0
 16
1.0
 26
0.0
 36
0.0
 17
0.0
 27
1.0
 37
0.0
 76
     0
330
1B
331
2E
  0
LAYOUT
  5
26
102
{ACAD_XDICTIONARY
360
8D9F
102
}
102
{ACAD_REACTORS
330
1A
102
}
330
1A
100
AcDbPlotSettings
  1

  2
EPSON PM-800C
  4

  6

 40
0.0
 41
0.0
 42
0.0
 43
0.0
 44
0.0
 45
0.0
 46
0.0
 47
0.0
 48
0.0
 49
0.0
140
0.0
141
0.0
142
1.0
143
1.0
 70
   688
 72
     0
 73
     0
 74
     5
  7

 75
    16
147
1.0
148
0.0
149
0.0
100
AcDbLayout
  1
ﾚｲｱｳﾄ2
 70
     1
 71
     2
 10
0.0
 20
0.0
 11
12.0
 21
9.0
 12
0.0
 22
0.0
 32
0.0
 14
0.0
 24
0.0
 34
0.0
 15
0.0
 25
0.0
 35
0.0
146
0.0
 13
0.0
 23
0.0
 33
0.0
 16
1.0
 26
0.0
 36
0.0
 17
0.0
 27
1.0
 37
0.0
 76
     0
330
23
  0
MLINESTYLE
  5
18
102
{ACAD_REACTORS
330
17
102
}
330
17
100
AcDbMlineStyle
  2
STANDARD
 70
     0
  3

 62
   256
 51
90.0
 52
90.0
 71
     2
 49
0.5
 62
   256
  6
BYLAYER
 49
-0.5
 62
   256
  6
BYLAYER
  0
ACDBPLACEHOLDER
  5
F
102
{ACAD_REACTORS
330
E
102
}
330
E
  0
TABLESTYLE
  5
22AF
102
{ACAD_REACTORS
330
22AE
102
}
330
22AE
100
AcDbTableStyle
  3
Standard
 70
     0
 71
     0
 40
1.5
 41
1.5
280
     0
281
     0
  7
Standard
140
4.5
170
     2
 62
     0
 63
     7
283
     0
274
    -2
284
     1
 64
     0
275
    -2
285
     1
 65
     0
276
    -2
286
     1
 66
     0
277
    -2
287
     1
 67
     0
278
    -2
288
     1
 68
     0
279
    -2
289
     1
 69
     0
  7
Standard
140
6.0
170
     5
 62
     0
 63
     7
283
     0
274
    -2
284
     1
 64
     0
275
    -2
285
     1
 65
     0
276
    -2
286
     1
 66
     0
277
    -2
287
     1
 67
     0
278
    -2
288
     1
 68
     0
279
    -2
289
     1
 69
     0
  7
Standard
140
4.5
170
     5
 62
     0
 63
     7
283
     0
274
    -2
284
     1
 64
     0
275
    -2
285
     1
 65
     0
276
    -2
286
     1
 66
     0
277
    -2
287
     1
 67
     0
278
    -2
288
     1
 68
     0
279
    -2
289
     1
 69
     0
  0
DICTIONARYVAR
  5
22B5
102
{ACAD_REACTORS
330
1589
102
}
330
1589
100
DictionaryVariables
280
     0
  1
STANDARD
  0
DICTIONARYVAR
  5
8D96
102
{ACAD_REACTORS
330
1589
102
}
330
1589
100
DictionaryVariables
280
     0
  1
1
  0
DICTIONARYVAR
  5
8D97
102
{ACAD_REACTORS
330
1589
102
}
330
1589
100
DictionaryVariables
280
     0
  1

  0
DICTIONARYVAR
  5
158A
102
{ACAD_REACTORS
330
1589
102
}
330
1589
100
DictionaryVariables
280
     0
  1
96
  0
DICTIONARY
  5
8D9D
330
22
100
AcDbDictionary
280
     1
281
     1
  3
ACAD_XREC_ROUNDTRIP
360
8D9E
  0
DICTIONARY
  5
8D9B
330
1E
100
AcDbDictionary
280
     1
281
     1
  3
ACAD_XREC_ROUNDTRIP
360
8D9C
  0
DICTIONARY
  5
8D9F
330
26
100
AcDbDictionary
280
     1
281
     1
  3
ACAD_XREC_ROUNDTRIP
360
8DA0
  0
XRECORD
  5
8D9E
102
{ACAD_REACTORS
330
8D9D
102
}
330
8D9D
100
AcDbXrecord
280
     1
102
SHADEPLOT
 70
     0
102
SHADEPLOTRESLEVEL
 70
     2
102
SHADEPLOTCUSTOMDPI
 70
   300
  0
XRECORD
  5
8D9C
102
{ACAD_REACTORS
330
8D9B
102
}
330
8D9B
100
AcDbXrecord
280
     1
102
SHADEPLOT
 70
     0
102
SHADEPLOTRESLEVEL
 70
     2
102
SHADEPLOTCUSTOMDPI
 70
   300
  0
XRECORD
  5
8DA0
102
{ACAD_REACTORS
330
8D9F
102
}
330
8D9F
100
AcDbXrecord
280
     1
102
SHADEPLOT
 70
     0
102
SHADEPLOTRESLEVEL
 70
     2
102
SHADEPLOTCUSTOMDPI
 70
   300
  0
ENDSEC
  0
EOF
