  0
SECTION
  2
HEADER
  9
$ACADVER
  1
AC1015
  9
$ACADMAINTVER
 70
    20
  9
$DWGCODEPAGE
  3
ANSI_932
  9
$INSBASE
 10
0.0
 20
0.0
 30
0.0
  9
$EXTMIN
 10
174.0
 20
3.99999999999909
 30
0.0
  9
$EXTMAX
 10
2834.0
 20
2024.0
 30
0.0
  9
$LIMMIN
 10
54.0
 20
4.0
  9
$LIMMAX
 10
2834.0
 20
2024.0
  9
$ORTHOMODE
 70
     1
  9
$REGENMODE
 70
     1
  9
$FILLMODE
 70
     1
  9
$QTEXTMODE
 70
     0
  9
$MIRRTEXT
 70
     1
  9
$LTSCALE
 40
4.0
  9
$ATTMODE
 70
     1
  9
$TEXTSIZE
 40
30.0
  9
$TRACEWID
 40
1.0
  9
$TEXTSTYLE
  7
Standard
  9
$CLAYER
  8
実形
  9
$CELTYPE
  6
ByLayer
  9
$CECOLOR
 62
     3
  9
$CELTSCALE
 40
1.0
  9
$DISPSILH
 70
     0
  9
$DIMSCALE
 40
1.0
  9
$DIMASZ
 40
10.0
  9
$DIMEXO
 40
65.0
  9
$DIMDLI
 40
3.75
  9
$DIMRND
 40
0.0
  9
$DIMDLE
 40
0.0
  9
$DIMEXE
 40
0.0
  9
$DIMTP
 40
0.0
  9
$DIMTM
 40
0.0
  9
$DIMTXT
 40
25.0
  9
$DIMCEN
 40
2.5
  9
$DIMTSZ
 40
0.0
  9
$DIMTOL
 70
     0
  9
$DIMLIM
 70
     0
  9
$DIMTIH
 70
     0
  9
$DIMTOH
 70
     0
  9
$DIMSE1
 70
     0
  9
$DIMSE2
 70
     0
  9
$DIMTAD
 70
     1
  9
$DIMZIN
 70
     8
  9
$DIMBLK
  1
Dot
  9
$DIMASO
 70
     1
  9
$DIMSHO
 70
     1
  9
$DIMPOST
  1

  9
$DIMAPOST
  1

  9
$DIMALT
 70
     0
  9
$DIMALTD
 70
     3
  9
$DIMALTF
 40
0.03937007874016
  9
$DIMLFAC
 40
1.0
  9
$DIMTOFL
 70
     1
  9
$DIMTVP
 40
0.0
  9
$DIMTIX
 70
     0
  9
$DIMSOXD
 70
     0
  9
$DIMSAH
 70
     0
  9
$DIMBLK1
  1

  9
$DIMBLK2
  1

  9
$DIMSTYLE
  2
ISO-25
  9
$DIMCLRD
 70
     0
  9
$DIMCLRE
 70
     0
  9
$DIMCLRT
 70
     0
  9
$DIMTFAC
 40
1.0
  9
$DIMGAP
 40
6.599999999999998
  9
$DIMJUST
 70
     0
  9
$DIMSD1
 70
     0
  9
$DIMSD2
 70
     0
  9
$DIMTOLJ
 70
     0
  9
$DIMTZIN
 70
     8
  9
$DIMALTZ
 70
     0
  9
$DIMALTTZ
 70
     0
  9
$DIMUPT
 70
     0
  9
$DIMDEC
 70
     2
  9
$DIMTDEC
 70
     2
  9
$DIMALTU
 70
     2
  9
$DIMALTTD
 70
     3
  9
$DIMTXSTY
  7
Standard
  9
$DIMAUNIT
 70
     0
  9
$DIMADEC
 70
     0
  9
$DIMALTRND
 40
0.0
  9
$DIMAZIN
 70
     0
  9
$DIMDSEP
 70
    46
  9
$DIMATFIT
 70
     3
  9
$DIMFRAC
 70
     0
  9
$DIMLDRBLK
  1
Open30
  9
$DIMLUNIT
 70
     2
  9
$DIMLWD
 70
    18
  9
$DIMLWE
 70
    18
  9
$DIMTMOVE
 70
     2
  9
$LUNITS
 70
     2
  9
$LUPREC
 70
     2
  9
$SKETCHINC
 40
1.0
  9
$FILLETRAD
 40
6.0
  9
$AUNITS
 70
     0
  9
$AUPREC
 70
     0
  9
$MENU
  1
.
  9
$ELEVATION
 40
0.0
  9
$PELEVATION
 40
0.0
  9
$THICKNESS
 40
0.0
  9
$LIMCHECK
 70
     1
  9
$CHAMFERA
 40
10.0
  9
$CHAMFERB
 40
10.0
  9
$CHAMFERC
 40
20.0
  9
$CHAMFERD
 40
0.0
  9
$SKPOLY
 70
     0
  9
$TDCREATE
 40
2451673.575802199
  9
$TDUCREATE
 40
2451673.200802199
  9
$TDUPDATE
 40
2458808.786252165
  9
$TDUUPDATE
 40
2458808.411252165
  9
$TDINDWG
 40
2.4916053472
  9
$TDUSRTIMER
 40
2.4916046528
  9
$USRTIMER
 70
     1
  9
$ANGBASE
 50
0.0
  9
$ANGDIR
 70
     0
  9
$PDMODE
 70
     0
  9
$PDSIZE
 40
0.0
  9
$PLINEWID
 40
0.0
  9
$SPLFRAME
 70
     0
  9
$SPLINETYPE
 70
     6
  9
$SPLINESEGS
 70
     8
  9
$HANDSEED
  5
7E4B
  9
$SURFTAB1
 70
     6
  9
$SURFTAB2
 70
     6
  9
$SURFTYPE
 70
     6
  9
$SURFU
 70
     6
  9
$SURFV
 70
     6
  9
$UCSBASE
  2

  9
$UCSNAME
  2

  9
$UCSORG
 10
0.0
 20
0.0
 30
0.0
  9
$UCSXDIR
 10
1.0
 20
0.0
 30
0.0
  9
$UCSYDIR
 10
0.0
 20
1.0
 30
0.0
  9
$UCSORTHOREF
  2

  9
$UCSORTHOVIEW
 70
     0
  9
$UCSORGTOP
 10
0.0
 20
0.0
 30
0.0
  9
$UCSORGBOTTOM
 10
0.0
 20
0.0
 30
0.0
  9
$UCSORGLEFT
 10
0.0
 20
0.0
 30
0.0
  9
$UCSORGRIGHT
 10
0.0
 20
0.0
 30
0.0
  9
$UCSORGFRONT
 10
0.0
 20
0.0
 30
0.0
  9
$UCSORGBACK
 10
0.0
 20
0.0
 30
0.0
  9
$PUCSBASE
  2

  9
$PUCSNAME
  2

  9
$PUCSORG
 10
0.0
 20
0.0
 30
0.0
  9
$PUCSXDIR
 10
1.0
 20
0.0
 30
0.0
  9
$PUCSYDIR
 10
0.0
 20
1.0
 30
0.0
  9
$PUCSORTHOREF
  2

  9
$PUCSORTHOVIEW
 70
     0
  9
$PUCSORGTOP
 10
0.0
 20
0.0
 30
0.0
  9
$PUCSORGBOTTOM
 10
0.0
 20
0.0
 30
0.0
  9
$PUCSORGLEFT
 10
0.0
 20
0.0
 30
0.0
  9
$PUCSORGRIGHT
 10
0.0
 20
0.0
 30
0.0
  9
$PUCSORGFRONT
 10
0.0
 20
0.0
 30
0.0
  9
$PUCSORGBACK
 10
0.0
 20
0.0
 30
0.0
  9
$USERI1
 70
     0
  9
$USERI2
 70
     0
  9
$USERI3
 70
     0
  9
$USERI4
 70
     0
  9
$USERI5
 70
     0
  9
$USERR1
 40
0.0
  9
$USERR2
 40
0.0
  9
$USERR3
 40
0.0
  9
$USERR4
 40
0.0
  9
$USERR5
 40
0.0
  9
$WORLDVIEW
 70
     1
  9
$SHADEDGE
 70
     3
  9
$SHADEDIF
 70
    70
  9
$TILEMODE
 70
     1
  9
$MAXACTVP
 70
    64
  9
$PINSBASE
 10
0.0
 20
0.0
 30
0.0
  9
$PLIMCHECK
 70
     0
  9
$PEXTMIN
 10
27.8447512626648
 20
20.24591643810271
 30
0.0
  9
$PEXTMAX
 10
250.6027613639831
 20
182.2132479429245
 30
0.0
  9
$PLIMMIN
 10
-3.757080078125
 20
-3.757083177566528
  9
$PLIMMAX
 10
293.2112426757813
 20
206.2162444591522
  9
$UNITMODE
 70
     0
  9
$VISRETAIN
 70
     1
  9
$PLINEGEN
 70
     0
  9
$PSLTSCALE
 70
     1
  9
$TREEDEPTH
 70
  3020
  9
$CMLSTYLE
  2
Standard
  9
$CMLJUST
 70
     0
  9
$CMLSCALE
 40
20.0
  9
$PROXYGRAPHICS
 70
     1
  9
$MEASUREMENT
 70
     1
  9
$CELWEIGHT
370
    -1
  9
$ENDCAPS
280
     0
  9
$JOINSTYLE
280
     0
  9
$LWDISPLAY
290
     0
  9
$INSUNITS
 70
     4
  9
$HYPERLINKBASE
  1

  9
$STYLESHEET
  1

  9
$XEDIT
290
     1
  9
$CEPSNTYPE
380
     0
  9
$PSTYLEMODE
290
     1
  9
$FINGERPRINTGUID
  2
{C8EA1F16-24C9-11D4-9416-CE0A3B32152F}
  9
$VERSIONGUID
  2
{ED470FEB-30A3-44BC-9834-71C4F4D488B6}
  9
$EXTNAMES
290
     1
  9
$PSVPSCALE
 40
0.0
  9
$OLESTARTUP
290
     0
  0
ENDSEC
  0
SECTION
  2
CLASSES
  0
CLASS
  1
ACDBDICTIONARYWDFLT
  2
AcDbDictionaryWithDefault
  3
ObjectDBX Classes
 90
        0
280
     0
281
     0
  0
CLASS
  1
ACDBPLACEHOLDER
  2
AcDbPlaceHolder
  3
ObjectDBX Classes
 90
        0
280
     0
281
     0
  0
CLASS
  1
LAYOUT
  2
AcDbLayout
  3
ObjectDBX Classes
 90
        0
280
     0
281
     0
  0
CLASS
  1
DICTIONARYVAR
  2
AcDbDictionaryVar
  3
ObjectDBX Classes
 90
        0
280
     0
281
     0
  0
CLASS
  1
TABLESTYLE
  2
AcDbTableStyle
  3
ObjectDBX Classes
 90
     2047
280
     0
281
     0
  0
CLASS
  1
SORTENTSTABLE
  2
AcDbSortentsTable
  3
ObjectDBX Classes
 90
        0
280
     0
281
     0
  0
ENDSEC
  0
SECTION
  2
TABLES
  0
TABLE
  2
VPORT
  5
8
330
0
100
AcDbSymbolTable
 70
     2
  0
VPORT
  5
7E3E
330
8
100
AcDbSymbolTableRecord
100
AcDbViewportTableRecord
  2
*Active
 70
     0
 10
0.0
 20
0.0
 11
1.0
 21
1.0
 12
1403.524202394596
 22
986.4170900265166
 13
0.0
 23
0.0
 14
10.0
 24
10.0
 15
10.0
 25
10.0
 16
0.0
 26
0.0
 36
1.0
 17
0.0
 27
0.0
 37
0.0
 40
2221.732419627942
 41
1.29038112522686
 42
50.0
 43
0.0
 44
0.0
 50
0.0
 51
0.0
 71
     0
 72
   100
 73
     1
 74
     3
 75
     0
 76
     0
 77
     0
 78
     0
281
     0
 65
     1
110
0.0
120
0.0
130
0.0
111
1.0
121
0.0
131
0.0
112
0.0
122
1.0
132
0.0
 79
     0
146
0.0
  0
ENDTAB
  0
TABLE
  2
LTYPE
  5
5
330
0
100
AcDbSymbolTable
 70
    46
  0
LTYPE
  5
14
330
5
100
AcDbSymbolTableRecord
100
AcDbLinetypeTableRecord
  2
ByBlock
 70
     0
  3

 72
    65
 73
     0
 40
0.0
  0
LTYPE
  5
15
330
5
100
AcDbSymbolTableRecord
100
AcDbLinetypeTableRecord
  2
ByLayer
 70
     0
  3

 72
    65
 73
     0
 40
0.0
  0
LTYPE
  5
16
330
5
100
AcDbSymbolTableRecord
100
AcDbLinetypeTableRecord
  2
Continuous
 70
     0
  3
Solid line
 72
    65
 73
     0
 40
0.0
  0
LTYPE
  5
34
330
5
100
AcDbSymbolTableRecord
100
AcDbLinetypeTableRecord
  2
ACAD_ISO02W100
 70
     0
  3
ISO dash __ __ __ __ __ __ __ __ __ __ __ __ __
 72
    65
 73
     2
 40
15.0
 49
12.0
 74
     0
 49
-3.0
 74
     0
  0
LTYPE
  5
35
330
5
100
AcDbSymbolTableRecord
100
AcDbLinetypeTableRecord
  2
ACAD_ISO03W100
 70
     0
  3
ISO dash space __    __    __    __    __    __
 72
    65
 73
     2
 40
30.0
 49
12.0
 74
     0
 49
-18.0
 74
     0
  0
LTYPE
  5
36
330
5
100
AcDbSymbolTableRecord
100
AcDbLinetypeTableRecord
  2
ACAD_ISO04W100
 70
     0
  3
ISO long-dash dot ____ . ____ . ____ . ____ . _
 72
    65
 73
     4
 40
30.0
 49
24.0
 74
     0
 49
-3.0
 74
     0
 49
0.0
 74
     0
 49
-3.0
 74
     0
  0
LTYPE
  5
37
330
5
100
AcDbSymbolTableRecord
100
AcDbLinetypeTableRecord
  2
ACAD_ISO05W100
 70
     0
  3
ISO long-dash double-dot ____ .. ____ .. ____ .
 72
    65
 73
     6
 40
34.0
 49
24.0
 74
     0
 49
-3.0
 74
     0
 49
0.5
 74
     0
 49
-3.0
 74
     0
 49
0.5
 74
     0
 49
-3.0
 74
     0
  0
LTYPE
  5
38
330
5
100
AcDbSymbolTableRecord
100
AcDbLinetypeTableRecord
  2
ACAD_ISO06W100
 70
     0
  3
ISO long-dash triple-dot ____ ... ____ ... ____
 72
    65
 73
     8
 40
37.5
 49
24.0
 74
     0
 49
-3.0
 74
     0
 49
0.5
 74
     0
 49
-3.0
 74
     0
 49
0.5
 74
     0
 49
-3.0
 74
     0
 49
0.5
 74
     0
 49
-3.0
 74
     0
  0
LTYPE
  5
39
330
5
100
AcDbSymbolTableRecord
100
AcDbLinetypeTableRecord
  2
ACAD_ISO07W100
 70
     0
  3
ISO dot . . . . . . . . . . . . . . . . . . . .
 72
    65
 73
     2
 40
3.0
 49
0.0
 74
     0
 49
-3.0
 74
     0
  0
LTYPE
  5
3A
330
5
100
AcDbSymbolTableRecord
100
AcDbLinetypeTableRecord
  2
ACAD_ISO08W100
 70
     0
  3
ISO long-dash short-dash ____ __ ____ __ ____ _
 72
    65
 73
     4
 40
36.0
 49
24.0
 74
     0
 49
-3.0
 74
     0
 49
6.0
 74
     0
 49
-3.0
 74
     0
  0
LTYPE
  5
3B
330
5
100
AcDbSymbolTableRecord
100
AcDbLinetypeTableRecord
  2
ACAD_ISO09W100
 70
     0
  3
ISO long-dash double-short-dash ____ __ __ ____
 72
    65
 73
     6
 40
45.0
 49
24.0
 74
     0
 49
-3.0
 74
     0
 49
6.0
 74
     0
 49
-3.0
 74
     0
 49
6.0
 74
     0
 49
-3.0
 74
     0
  0
LTYPE
  5
3C
330
5
100
AcDbSymbolTableRecord
100
AcDbLinetypeTableRecord
  2
ACAD_ISO10W100
 70
     0
  3
ISO dash dot __ . __ . __ . __ . __ . __ . __ .
 72
    65
 73
     4
 40
18.0
 49
12.0
 74
     0
 49
-3.0
 74
     0
 49
0.0
 74
     0
 49
-3.0
 74
     0
  0
LTYPE
  5
3D
330
5
100
AcDbSymbolTableRecord
100
AcDbLinetypeTableRecord
  2
ACAD_ISO11W100
 70
     0
  3
ISO double-dash dot __ __ . __ __ . __ __ . __ 
 72
    65
 73
     6
 40
33.0
 49
12.0
 74
     0
 49
-3.0
 74
     0
 49
12.0
 74
     0
 49
-3.0
 74
     0
 49
0.0
 74
     0
 49
-3.0
 74
     0
  0
LTYPE
  5
3E
330
5
100
AcDbSymbolTableRecord
100
AcDbLinetypeTableRecord
  2
ACAD_ISO12W100
 70
     0
  3
ISO dash double-dot __ . . __ . . __ . . __ . .
 72
    65
 73
     6
 40
21.0
 49
12.0
 74
     0
 49
-3.0
 74
     0
 49
0.0
 74
     0
 49
-3.0
 74
     0
 49
0.0
 74
     0
 49
-3.0
 74
     0
  0
LTYPE
  5
3F
330
5
100
AcDbSymbolTableRecord
100
AcDbLinetypeTableRecord
  2
ACAD_ISO13W100
 70
     0
  3
ISO double-dash double-dot __ __ . . __ __ . . 
 72
    65
 73
     8
 40
36.0
 49
12.0
 74
     0
 49
-3.0
 74
     0
 49
12.0
 74
     0
 49
-3.0
 74
     0
 49
0.0
 74
     0
 49
-3.0
 74
     0
 49
0.0
 74
     0
 49
-3.0
 74
     0
  0
LTYPE
  5
40
330
5
100
AcDbSymbolTableRecord
100
AcDbLinetypeTableRecord
  2
ACAD_ISO14W100
 70
     0
  3
ISO dash triple-dot __ . . . __ . . . __ . . . 
 72
    65
 73
     8
 40
24.0
 49
12.0
 74
     0
 49
-3.0
 74
     0
 49
0.0
 74
     0
 49
-3.0
 74
     0
 49
0.0
 74
     0
 49
-3.0
 74
     0
 49
0.0
 74
     0
 49
-3.0
 74
     0
  0
LTYPE
  5
41
330
5
100
AcDbSymbolTableRecord
100
AcDbLinetypeTableRecord
  2
ACAD_ISO15W100
 70
     0
  3
ISO double-dash triple-dot __ __ . . . __ __ . 
 72
    65
 73
    10
 40
39.0
 49
12.0
 74
     0
 49
-3.0
 74
     0
 49
12.0
 74
     0
 49
-3.0
 74
     0
 49
0.0
 74
     0
 49
-3.0
 74
     0
 49
0.0
 74
     0
 49
-3.0
 74
     0
 49
0.0
 74
     0
 49
-3.0
 74
     0
  0
LTYPE
  5
42
330
5
100
AcDbSymbolTableRecord
100
AcDbLinetypeTableRecord
  2
BATTING
 70
     0
  3
Batting SSSSSSSSSSSSSSSSSSSSSSSSSSSSSSSSSSSSSSS
 72
    65
 73
     4
 40
10.16254
 49
0.00254
 74
     0
 49
-2.54
 74
     4
 75
   134
340
33
 46
2.54
 50
0.0
 44
-2.54
 45
0.0
 49
-5.08
 74
     4
 75
   134
340
33
 46
2.54
 50
180.0
 44
2.54
 45
0.0
 49
-2.54
 74
     0
  0
LTYPE
  5
43
330
5
100
AcDbSymbolTableRecord
100
AcDbLinetypeTableRecord
  2
BORDER
 70
     0
  3
Border __ __ . __ __ . __ __ . __ __ . __ __ .
 72
    65
 73
     6
 40
44.45
 49
12.7
 74
     0
 49
-6.349999999999999
 74
     0
 49
12.7
 74
     0
 49
-6.349999999999999
 74
     0
 49
0.0
 74
     0
 49
-6.349999999999999
 74
     0
  0
LTYPE
  5
44
330
5
100
AcDbSymbolTableRecord
100
AcDbLinetypeTableRecord
  2
BORDER2
 70
     0
  3
Border (.5x) __.__.__.__.__.__.__.__.__.__.__.
 72
    65
 73
     6
 40
22.225
 49
6.349999999999999
 74
     0
 49
-3.174999999999999
 74
     0
 49
6.349999999999999
 74
     0
 49
-3.174999999999999
 74
     0
 49
0.0
 74
     0
 49
-3.174999999999999
 74
     0
  0
LTYPE
  5
45
330
5
100
AcDbSymbolTableRecord
100
AcDbLinetypeTableRecord
  2
BORDERX2
 70
     0
  3
Border (2x) ____  ____  .  ____  ____  .  ___
 72
    65
 73
     6
 40
88.9
 49
25.4
 74
     0
 49
-12.7
 74
     0
 49
25.4
 74
     0
 49
-12.7
 74
     0
 49
0.0
 74
     0
 49
-12.7
 74
     0
  0
LTYPE
  5
46
330
5
100
AcDbSymbolTableRecord
100
AcDbLinetypeTableRecord
  2
CENTER
 70
     0
  3
Center ____ _ ____ _ ____ _ ____ _ ____ _ ____
 72
    65
 73
     4
 40
50.8
 49
31.75
 74
     0
 49
-6.349999999999999
 74
     0
 49
6.349999999999999
 74
     0
 49
-6.349999999999999
 74
     0
  0
LTYPE
  5
47
330
5
100
AcDbSymbolTableRecord
100
AcDbLinetypeTableRecord
  2
CENTER2
 70
     0
  3
Center (.5x) ___ _ ___ _ ___ _ ___ _ ___ _ ___
 72
    65
 73
     4
 40
28.575
 49
19.05
 74
     0
 49
-3.174999999999999
 74
     0
 49
3.174999999999999
 74
     0
 49
-3.174999999999999
 74
     0
  0
LTYPE
  5
48
330
5
100
AcDbSymbolTableRecord
100
AcDbLinetypeTableRecord
  2
CENTERX2
 70
     0
  3
Center (2x) ________  __  ________  __  _____
 72
    65
 73
     4
 40
101.6
 49
63.5
 74
     0
 49
-12.7
 74
     0
 49
12.7
 74
     0
 49
-12.7
 74
     0
  0
LTYPE
  5
49
330
5
100
AcDbSymbolTableRecord
100
AcDbLinetypeTableRecord
  2
DASHDOT
 70
     0
  3
Dash dot __ . __ . __ . __ . __ . __ . __ . __
 72
    65
 73
     4
 40
25.4
 49
12.7
 74
     0
 49
-6.349999999999999
 74
     0
 49
0.0
 74
     0
 49
-6.349999999999999
 74
     0
  0
LTYPE
  5
4A
330
5
100
AcDbSymbolTableRecord
100
AcDbLinetypeTableRecord
  2
DASHDOT2
 70
     0
  3
Dash dot (.5x) _._._._._._._._._._._._._._._.
 72
    65
 73
     4
 40
12.7
 49
6.349999999999999
 74
     0
 49
-3.174999999999999
 74
     0
 49
0.0
 74
     0
 49
-3.174999999999999
 74
     0
  0
LTYPE
  5
4B
330
5
100
AcDbSymbolTableRecord
100
AcDbLinetypeTableRecord
  2
DASHDOTX2
 70
     0
  3
Dash dot (2x) ____  .  ____  .  ____  .  ___
 72
    65
 73
     4
 40
50.8
 49
25.4
 74
     0
 49
-12.7
 74
     0
 49
0.0
 74
     0
 49
-12.7
 74
     0
  0
LTYPE
  5
4C
330
5
100
AcDbSymbolTableRecord
100
AcDbLinetypeTableRecord
  2
DASHED
 70
     0
  3
Dashed __ __ __ __ __ __ __ __ __ __ __ __ __ _
 72
    65
 73
     2
 40
19.05
 49
12.7
 74
     0
 49
-6.349999999999999
 74
     0
  0
LTYPE
  5
4D
330
5
100
AcDbSymbolTableRecord
100
AcDbLinetypeTableRecord
  2
DASHED2
 70
     0
  3
Dashed (.5x) _ _ _ _ _ _ _ _ _ _ _ _ _ _ _ _ _
 72
    65
 73
     2
 40
9.524999999999998
 49
6.349999999999999
 74
     0
 49
-3.174999999999999
 74
     0
  0
LTYPE
  5
4E
330
5
100
AcDbSymbolTableRecord
100
AcDbLinetypeTableRecord
  2
DASHEDX2
 70
     0
  3
Dashed (2x) ____  ____  ____  ____  ____  ___
 72
    65
 73
     2
 40
38.1
 49
25.4
 74
     0
 49
-12.7
 74
     0
  0
LTYPE
  5
4F
330
5
100
AcDbSymbolTableRecord
100
AcDbLinetypeTableRecord
  2
DIVIDE
 70
     0
  3
Divide ____ . . ____ . . ____ . . ____ . . ____
 72
    65
 73
     6
 40
31.75
 49
12.7
 74
     0
 49
-6.349999999999999
 74
     0
 49
0.0
 74
     0
 49
-6.349999999999999
 74
     0
 49
0.0
 74
     0
 49
-6.349999999999999
 74
     0
  0
LTYPE
  5
50
330
5
100
AcDbSymbolTableRecord
100
AcDbLinetypeTableRecord
  2
DIVIDE2
 70
     0
  3
Divide (.5x) __..__..__..__..__..__..__..__.._
 72
    65
 73
     6
 40
15.875
 49
6.349999999999999
 74
     0
 49
-3.174999999999999
 74
     0
 49
0.0
 74
     0
 49
-3.174999999999999
 74
     0
 49
0.0
 74
     0
 49
-3.174999999999999
 74
     0
  0
LTYPE
  5
51
330
5
100
AcDbSymbolTableRecord
100
AcDbLinetypeTableRecord
  2
DIVIDEX2
 70
     0
  3
Divide (2x) ________  .  .  ________  .  .  _
 72
    65
 73
     6
 40
63.49999999999999
 49
25.4
 74
     0
 49
-12.7
 74
     0
 49
0.0
 74
     0
 49
-12.7
 74
     0
 49
0.0
 74
     0
 49
-12.7
 74
     0
  0
LTYPE
  5
52
330
5
100
AcDbSymbolTableRecord
100
AcDbLinetypeTableRecord
  2
DOT
 70
     0
  3
Dot . . . . . . . . . . . . . . . . . . . . . .
 72
    65
 73
     2
 40
6.349999999999999
 49
0.0
 74
     0
 49
-6.349999999999999
 74
     0
  0
LTYPE
  5
53
330
5
100
AcDbSymbolTableRecord
100
AcDbLinetypeTableRecord
  2
DOT2
 70
     0
  3
Dot (.5x) .....................................
 72
    65
 73
     2
 40
3.174999999999999
 49
0.0
 74
     0
 49
-3.174999999999999
 74
     0
  0
LTYPE
  5
54
330
5
100
AcDbSymbolTableRecord
100
AcDbLinetypeTableRecord
  2
DOTX2
 70
     0
  3
Dot (2x) .  .  .  .  .  .  .  .  .  .  .  .  . 
 72
    65
 73
     2
 40
12.7
 49
0.0
 74
     0
 49
-12.7
 74
     0
  0
LTYPE
  5
55
330
5
100
AcDbSymbolTableRecord
100
AcDbLinetypeTableRecord
  2
FENCELINE1
 70
     0
  3
Fenceline circle ----0-----0----0-----0----0---
 72
    65
 73
     4
 40
36.83
 49
6.349999999999999
 74
     0
 49
-2.54
 74
     4
 75
   133
340
33
 46
2.54
 50
0.0
 44
-2.54
 45
0.0
 49
-2.54
 74
     0
 49
25.4
 74
     0
  0
LTYPE
  5
56
330
5
100
AcDbSymbolTableRecord
100
AcDbLinetypeTableRecord
  2
FENCELINE2
 70
     0
  3
Fenceline square ----[]-----[]----[]-----[]----
 72
    65
 73
     4
 40
36.83
 49
6.349999999999999
 74
     0
 49
-2.54
 74
     4
 75
   132
340
33
 46
2.54
 50
0.0
 44
-2.54
 45
0.0
 49
-2.54
 74
     0
 49
25.4
 74
     0
  0
LTYPE
  5
57
330
5
100
AcDbSymbolTableRecord
100
AcDbLinetypeTableRecord
  2
GAS_LINE
 70
     0
  3
Gas line ----GAS----GAS----GAS----GAS----GAS---
 72
    65
 73
     3
 40
24.13
 49
12.7
 74
     0
 49
-5.08
 74
     2
 75
     0
340
11
 46
2.54
 50
0.0
 44
-2.54
 45
-1.27
  9
GAS
 49
-6.349999999999999
 74
     0
  0
LTYPE
  5
58
330
5
100
AcDbSymbolTableRecord
100
AcDbLinetypeTableRecord
  2
HIDDEN
 70
     0
  3
Hidden __ __ __ __ __ __ __ __ __ __ __ __ __ _
 72
    65
 73
     2
 40
9.524999999999998
 49
6.349999999999999
 74
     0
 49
-3.174999999999999
 74
     0
  0
LTYPE
  5
59
330
5
100
AcDbSymbolTableRecord
100
AcDbLinetypeTableRecord
  2
HIDDEN2
 70
     0
  3
Hidden (.5x) _ _ _ _ _ _ _ _ _ _ _ _ _ _ _ _ _
 72
    65
 73
     2
 40
4.762499999999999
 49
3.174999999999999
 74
     0
 49
-1.587499999999999
 74
     0
  0
LTYPE
  5
5A
330
5
100
AcDbSymbolTableRecord
100
AcDbLinetypeTableRecord
  2
HIDDENX2
 70
     0
  3
Hidden (2x) ____ ____ ____ ____ ____ ____ ____
 72
    65
 73
     2
 40
19.05
 49
12.7
 74
     0
 49
-6.349999999999999
 74
     0
  0
LTYPE
  5
5B
330
5
100
AcDbSymbolTableRecord
100
AcDbLinetypeTableRecord
  2
HOT_WATER_SUPPLY
 70
     0
  3
Hot water supply ---- HW ---- HW ---- HW ----
 72
    65
 73
     3
 40
22.86
 49
12.7
 74
     0
 49
-5.08
 74
     2
 75
     0
340
11
 46
2.54
 50
0.0
 44
-2.54
 45
-1.27
  9
HW
 49
-5.08
 74
     0
  0
LTYPE
  5
5C
330
5
100
AcDbSymbolTableRecord
100
AcDbLinetypeTableRecord
  2
PHANTOM
 70
     0
  3
Phantom ______  __  __  ______  __  __  ______
 72
    65
 73
     6
 40
63.5
 49
31.75
 74
     0
 49
-6.349999999999999
 74
     0
 49
6.349999999999999
 74
     0
 49
-6.349999999999999
 74
     0
 49
6.349999999999999
 74
     0
 49
-6.349999999999999
 74
     0
  0
LTYPE
  5
5D
330
5
100
AcDbSymbolTableRecord
100
AcDbLinetypeTableRecord
  2
PHANTOM2
 70
     0
  3
Phantom (.5x) ___ _ _ ___ _ _ ___ _ _ ___ _ _
 72
    65
 73
     6
 40
31.75
 49
15.875
 74
     0
 49
-3.174999999999999
 74
     0
 49
3.174999999999999
 74
     0
 49
-3.174999999999999
 74
     0
 49
3.174999999999999
 74
     0
 49
-3.174999999999999
 74
     0
  0
LTYPE
  5
5E
330
5
100
AcDbSymbolTableRecord
100
AcDbLinetypeTableRecord
  2
PHANTOMX2
 70
     0
  3
Phantom (2x) ____________    ____    ____   _
 72
    65
 73
     6
 40
127.0
 49
63.5
 74
     0
 49
-12.7
 74
     0
 49
12.7
 74
     0
 49
-12.7
 74
     0
 49
12.7
 74
     0
 49
-12.7
 74
     0
  0
LTYPE
  5
5F
330
5
100
AcDbSymbolTableRecord
100
AcDbLinetypeTableRecord
  2
TRACKS
 70
     0
  3
Tracks -|-|-|-|-|-|-|-|-|-|-|-|-|-|-|-|-|-|-|-|
 72
    65
 73
     2
 40
7.62
 49
3.81
 74
     4
 75
   130
340
33
 46
6.349999999999999
 50
0.0
 44
0.0
 45
0.0
 49
3.81
 74
     0
  0
LTYPE
  5
60
330
5
100
AcDbSymbolTableRecord
100
AcDbLinetypeTableRecord
  2
ZIGZAG
 70
     0
  3
Zig zag /\/\/\/\/\/\/\/\/\/\/\/\/\/\/\/\/\/\/\/
 72
    65
 73
     4
 40
20.32254
 49
0.00254
 74
     0
 49
-5.08
 74
     4
 75
   131
340
33
 46
5.08
 50
0.0
 44
-5.08
 45
0.0
 49
-10.16
 74
     4
 75
   131
340
33
 46
5.08
 50
180.0
 44
5.08
 45
0.0
 49
-5.08
 74
     0
  0
ENDTAB
  0
TABLE
  2
LAYER
  5
2
102
{ACAD_XDICTIONARY
360
24C4
102
}
330
0
100
AcDbSymbolTable
 70
     9
  0
LAYER
  5
10
330
2
100
AcDbSymbolTableRecord
100
AcDbLayerTableRecord
  2
0
 70
     0
 62
     7
  6
Continuous
290
     0
370
    -3
390
F
  0
LAYER
  5
C3
330
2
100
AcDbSymbolTableRecord
100
AcDbLayerTableRecord
  2
Defpoints
 70
     0
 62
     7
  6
Continuous
290
     0
370
    -3
390
F
  0
LAYER
  5
256
330
2
100
AcDbSymbolTableRecord
100
AcDbLayerTableRecord
  2
センター
 70
     0
 62
     7
  6
CENTER2
370
    18
390
F
  0
LAYER
  5
268
330
2
100
AcDbSymbolTableRecord
100
AcDbLayerTableRecord
  2
実形
 70
     0
 62
     7
  6
Continuous
370
    -3
390
F
  0
LAYER
  5
269
330
2
100
AcDbSymbolTableRecord
100
AcDbLayerTableRecord
  2
補助
 70
     0
 62
     4
  6
Continuous
370
    -3
390
F
  0
LAYER
  5
26A
330
2
100
AcDbSymbolTableRecord
100
AcDbLayerTableRecord
  2
寸法
 70
     0
 62
     7
  6
Continuous
370
    18
390
F
  0
LAYER
  5
26B
330
2
100
AcDbSymbolTableRecord
100
AcDbLayerTableRecord
  2
ハッチング
 70
     0
 62
     7
  6
Continuous
370
    18
390
F
  0
LAYER
  5
26D
330
2
100
AcDbSymbolTableRecord
100
AcDbLayerTableRecord
  2
枠
 70
     0
 62
     7
  6
Continuous
370
    -3
390
F
  0
LAYER
  5
1B3D
330
2
100
AcDbSymbolTableRecord
100
AcDbLayerTableRecord
  2
Cen
 70
     0
 62
     7
  6
CENTER2
290
     0
370
    15
390
F
  0
ENDTAB
  0
TABLE
  2
STYLE
  5
3
330
0
100
AcDbSymbolTable
 70
     4
  0
STYLE
  5
11
330
3
100
AcDbSymbolTableRecord
100
AcDbTextStyleTableRecord
  2
Standard
 70
     0
 40
0.0
 41
1.0
 50
0.0
 71
     0
 42
30.0
  3
txt.shx
  4
bigfont.shx
  0
STYLE
  5
33
330
3
100
AcDbSymbolTableRecord
100
AcDbTextStyleTableRecord
  2

 70
     1
 40
0.0
 41
1.0
 50
0.0
 71
     0
 42
2.5
  3
ltypeshp.shx
  4

  0
STYLE
  5
35E2
330
3
100
AcDbSymbolTableRecord
100
AcDbTextStyleTableRecord
  2
ms明朝
 70
     0
 40
0.0
 41
1.0
 50
0.0
 71
     0
 42
25.0
  3
MS Mincho.ttf
  4

1001
ACAD
1000
MS Mincho
1071
    32785
  0
STYLE
  5
7DB5
330
3
100
AcDbSymbolTableRecord
100
AcDbTextStyleTableRecord
  2
明朝
 70
     0
 40
0.0
 41
1.0
 50
0.0
 71
     0
 42
25.0
  3
MS Mincho.ttf
  4

1001
ACAD
1000
MS Mincho
1071
    32785
  0
ENDTAB
  0
TABLE
  2
VIEW
  5
6
330
0
100
AcDbSymbolTable
 70
     0
  0
ENDTAB
  0
TABLE
  2
UCS
  5
7
330
0
100
AcDbSymbolTable
 70
     0
  0
ENDTAB
  0
TABLE
  2
APPID
  5
9
330
0
100
AcDbSymbolTable
 70
     3
  0
APPID
  5
12
330
9
100
AcDbSymbolTableRecord
100
AcDbRegAppTableRecord
  2
ACAD
 70
     0
  0
APPID
  5
24C3
330
9
100
AcDbSymbolTableRecord
100
AcDbRegAppTableRecord
  2
ACAD_PSEXT
 70
     0
  0
APPID
  5
7817
330
9
100
AcDbSymbolTableRecord
100
AcDbRegAppTableRecord
  2
ACAD_DSTYLE_DIMTEXT_FILL
 70
     0
  0
ENDTAB
  0
TABLE
  2
DIMSTYLE
  5
A
330
0
100
AcDbSymbolTable
 70
     1
100
AcDbDimStyleTable
 71
     1
340
27
  0
DIMSTYLE
105
27
102
{ACAD_REACTORS
330
7079
330
7086
330
70DF
330
7186
330
719C
330
77F4
330
7801
330
78B2
330
7AE5
330
7AE6
330
7AED
330
7AEE
330
7AEF
330
7AF0
330
7AF1
330
7C85
330
7C86
330
7C92
330
7C93
330
7C94
330
7C95
330
7C96
102
}
330
A
100
AcDbSymbolTableRecord
100
AcDbDimStyleTableRecord
  2
ISO-25
 70
     0
 41
35.0
 42
65.0
 43
3.75
 44
0.0
 73
     0
 74
     0
 77
     1
 78
     8
140
25.0
141
2.5
143
0.03937007874016
147
6.25
171
     3
172
     1
271
     2
272
     2
274
     3
283
     0
284
     8
340
11
341
DA
342
D0
371
    15
372
    15
  0
ENDTAB
  0
TABLE
  2
BLOCK_RECORD
  5
1
330
0
100
AcDbSymbolTable
 70
    33
  0
BLOCK_RECORD
  5
1F
102
{ACAD_XDICTIONARY
360
2396
102
}
330
1
100
AcDbSymbolTableRecord
100
AcDbBlockTableRecord
  2
*Model_Space
340
22
  0
BLOCK_RECORD
  5
1B
330
1
100
AcDbSymbolTableRecord
100
AcDbBlockTableRecord
  2
*Paper_Space
340
1E
  0
BLOCK_RECORD
  5
23
330
1
100
AcDbSymbolTableRecord
100
AcDbBlockTableRecord
  2
*Paper_Space0
340
26
  0
BLOCK_RECORD
  5
D0
330
1
100
AcDbSymbolTableRecord
100
AcDbBlockTableRecord
  2
_DotSmall
340
0
  0
BLOCK_RECORD
  5
D4
330
1
100
AcDbSymbolTableRecord
100
AcDbBlockTableRecord
  2
_Origin2
340
0
  0
BLOCK_RECORD
  5
DA
330
1
100
AcDbSymbolTableRecord
100
AcDbBlockTableRecord
  2
_Open30
340
0
  0
BLOCK_RECORD
  5
2D6
330
1
100
AcDbSymbolTableRecord
100
AcDbBlockTableRecord
  2
A$C6CAC4411
340
0
  0
BLOCK_RECORD
  5
30D
330
1
100
AcDbSymbolTableRecord
100
AcDbBlockTableRecord
  2
_Dot
340
0
102
{BLKREFS
331
789A
331
789B
331
78AC
331
78AD
331
78C2
331
78C3
331
78CC
331
78CD
331
78D4
331
78D5
331
7914
331
7915
331
791C
331
791D
331
7925
331
7926
331
7B49
331
7B4A
331
7B52
331
7B53
331
7B5C
331
7B5D
331
7B65
331
7B66
331
7B6E
331
7B6F
331
7B76
331
7B77
331
7B7F
331
7B80
331
7CF6
331
7CF7
331
7CFF
331
7D00
331
7D37
331
7D38
331
7D40
331
7D41
331
7D48
331
7D49
331
7D52
331
7D53
331
7D5B
331
7D5C
102
}
  0
BLOCK_RECORD
  5
313C
102
{ACAD_XDICTIONARY
360
313E
102
}
330
1
100
AcDbSymbolTableRecord
100
AcDbBlockTableRecord
  2
A$C6850087C
340
0
  0
BLOCK_RECORD
  5
3846
102
{ACAD_XDICTIONARY
360
3848
102
}
330
1
100
AcDbSymbolTableRecord
100
AcDbBlockTableRecord
  2
A$C71387EE1
340
0
  0
BLOCK_RECORD
  5
6B87
102
{ACAD_XDICTIONARY
360
6B89
102
}
330
1
100
AcDbSymbolTableRecord
100
AcDbBlockTableRecord
  2
A$C47AF373A
340
0
  0
BLOCK_RECORD
  5
6C00
102
{ACAD_XDICTIONARY
360
6C02
102
}
330
1
100
AcDbSymbolTableRecord
100
AcDbBlockTableRecord
  2
A$C2B9560D8
340
0
  0
BLOCK_RECORD
  5
707A
330
1
100
AcDbSymbolTableRecord
100
AcDbBlockTableRecord
  2
*D10
340
0
  0
BLOCK_RECORD
  5
7087
330
1
100
AcDbSymbolTableRecord
100
AcDbBlockTableRecord
  2
*D11
340
0
  0
BLOCK_RECORD
  5
70E0
330
1
100
AcDbSymbolTableRecord
100
AcDbBlockTableRecord
  2
*D12
340
0
  0
BLOCK_RECORD
  5
7187
330
1
100
AcDbSymbolTableRecord
100
AcDbBlockTableRecord
  2
*D13
340
0
  0
BLOCK_RECORD
  5
719D
330
1
100
AcDbSymbolTableRecord
100
AcDbBlockTableRecord
  2
*D14
340
0
  0
BLOCK_RECORD
  5
7752
102
{ACAD_XDICTIONARY
360
7758
102
}
330
1
100
AcDbSymbolTableRecord
100
AcDbBlockTableRecord
  2
A$C113940D1
340
0
  0
BLOCK_RECORD
  5
77F5
330
1
100
AcDbSymbolTableRecord
100
AcDbBlockTableRecord
  2
*D16
340
0
  0
BLOCK_RECORD
  5
7802
330
1
100
AcDbSymbolTableRecord
100
AcDbBlockTableRecord
  2
*D17
340
0
  0
BLOCK_RECORD
  5
78B3
330
1
100
AcDbSymbolTableRecord
100
AcDbBlockTableRecord
  2
*D18
340
0
  0
BLOCK_RECORD
  5
7AF2
330
1
100
AcDbSymbolTableRecord
100
AcDbBlockTableRecord
  2
*D19
340
0
  0
BLOCK_RECORD
  5
7AFE
330
1
100
AcDbSymbolTableRecord
100
AcDbBlockTableRecord
  2
*D20
340
0
  0
BLOCK_RECORD
  5
7B0A
330
1
100
AcDbSymbolTableRecord
100
AcDbBlockTableRecord
  2
*D21
340
0
  0
BLOCK_RECORD
  5
7B16
330
1
100
AcDbSymbolTableRecord
100
AcDbBlockTableRecord
  2
*D22
340
0
  0
BLOCK_RECORD
  5
7B22
330
1
100
AcDbSymbolTableRecord
100
AcDbBlockTableRecord
  2
*D23
340
0
  0
BLOCK_RECORD
  5
7B2E
330
1
100
AcDbSymbolTableRecord
100
AcDbBlockTableRecord
  2
*D24
340
0
  0
BLOCK_RECORD
  5
7B3A
330
1
100
AcDbSymbolTableRecord
100
AcDbBlockTableRecord
  2
*D25
340
0
  0
BLOCK_RECORD
  5
7C9F
330
1
100
AcDbSymbolTableRecord
100
AcDbBlockTableRecord
  2
*D26
340
0
  0
BLOCK_RECORD
  5
7CAB
330
1
100
AcDbSymbolTableRecord
100
AcDbBlockTableRecord
  2
*D27
340
0
  0
BLOCK_RECORD
  5
7CB7
330
1
100
AcDbSymbolTableRecord
100
AcDbBlockTableRecord
  2
*D28
340
0
  0
BLOCK_RECORD
  5
7CC3
330
1
100
AcDbSymbolTableRecord
100
AcDbBlockTableRecord
  2
*D29
340
0
  0
BLOCK_RECORD
  5
7CCF
330
1
100
AcDbSymbolTableRecord
100
AcDbBlockTableRecord
  2
*D30
340
0
  0
BLOCK_RECORD
  5
7CDB
330
1
100
AcDbSymbolTableRecord
100
AcDbBlockTableRecord
  2
*D31
340
0
  0
BLOCK_RECORD
  5
7CE7
330
1
100
AcDbSymbolTableRecord
100
AcDbBlockTableRecord
  2
*D32
340
0
  0
ENDTAB
  0
ENDSEC
  0
SECTION
  2
BLOCKS
  0
BLOCK
  5
20
330
1F
100
AcDbEntity
  8
0
100
AcDbBlockBegin
  2
*Model_Space
 70
     0
 10
0.0
 20
0.0
 30
0.0
  3
*Model_Space
  1

  0
ENDBLK
  5
21
330
1F
100
AcDbEntity
  8
0
100
AcDbBlockEnd
  0
BLOCK
  5
1C
330
1B
100
AcDbEntity
 67
     1
  8
0
100
AcDbBlockBegin
  2
*Paper_Space
 70
     0
 10
0.0
 20
0.0
 30
0.0
  3
*Paper_Space
  1

  0
ENDBLK
  5
1D
330
1B
100
AcDbEntity
 67
     1
  8
0
100
AcDbBlockEnd
  0
BLOCK
  5
24
330
23
100
AcDbEntity
  8
0
100
AcDbBlockBegin
  2
*Paper_Space0
 70
     0
 10
0.0
 20
0.0
 30
0.0
  3
*Paper_Space0
  1

  0
ENDBLK
  5
25
330
23
100
AcDbEntity
  8
0
100
AcDbBlockEnd
  0
BLOCK
  5
D2
330
D0
100
AcDbEntity
  8
0
100
AcDbBlockBegin
  2
_DotSmall
 70
     0
 10
0.0
 20
0.0
 30
0.0
  3
_DotSmall
  1

  0
LWPOLYLINE
  5
D1
330
D0
100
AcDbEntity
  8
0
 62
     0
100
AcDbPolyline
 90
        2
 70
     1
 43
0.5
 10
-0.0625
 20
0.0
 42
1.0
 10
0.0625
 20
0.0
 42
1.0
  0
ENDBLK
  5
D3
330
D0
100
AcDbEntity
  8
0
100
AcDbBlockEnd
  0
BLOCK
  5
D8
330
D4
100
AcDbEntity
  8
0
100
AcDbBlockBegin
  2
_Origin2
 70
     0
 10
0.0
 20
0.0
 30
0.0
  3
_Origin2
  1

  0
CIRCLE
  5
D5
330
D4
100
AcDbEntity
  8
0
 62
     0
370
    -2
100
AcDbCircle
 10
0.0
 20
0.0
 30
0.0
 40
0.5
  0
CIRCLE
  5
D6
330
D4
100
AcDbEntity
  8
0
 62
     0
370
    -2
100
AcDbCircle
 10
0.0
 20
0.0
 30
0.0
 40
0.25
  0
LINE
  5
D7
330
D4
100
AcDbEntity
  8
0
 62
     0
370
    -2
100
AcDbLine
 10
-0.5
 20
0.0
 30
0.0
 11
-1.0
 21
0.0
 31
0.0
  0
ENDBLK
  5
D9
330
D4
100
AcDbEntity
  8
0
100
AcDbBlockEnd
  0
BLOCK
  5
DE
330
DA
100
AcDbEntity
  8
0
100
AcDbBlockBegin
  2
_Open30
 70
     0
 10
0.0
 20
0.0
 30
0.0
  3
_Open30
  1

  0
LINE
  5
DB
330
DA
100
AcDbEntity
  8
0
 62
     0
370
    -2
100
AcDbLine
 10
-1.0
 20
0.26794919
 30
0.0
 11
0.0
 21
0.0
 31
0.0
  0
LINE
  5
DC
330
DA
100
AcDbEntity
  8
0
 62
     0
370
    -2
100
AcDbLine
 10
0.0
 20
0.0
 30
0.0
 11
-1.0
 21
-0.26794919
 31
0.0
  0
LINE
  5
DD
330
DA
100
AcDbEntity
  8
0
 62
     0
370
    -2
100
AcDbLine
 10
0.0
 20
0.0
 30
0.0
 11
-1.0
 21
0.0
 31
0.0
  0
ENDBLK
  5
DF
330
DA
100
AcDbEntity
  8
0
100
AcDbBlockEnd
  0
BLOCK
  5
2E7
330
2D6
100
AcDbEntity
  8
0
100
AcDbBlockBegin
  2
A$C6CAC4411
 70
     0
 10
0.0
 20
0.0
 30
0.0
  3
A$C6CAC4411
  1

  0
TEXT
  5
2D7
330
2D6
100
AcDbEntity
  8
0
100
AcDbText
 10
176.2557717918098
 20
0.0000022116982912
 30
0.0
 40
40.0
  1
中外交易株式会社
 72
     4
 11
364.2557717918098
 21
20.0000022116983
 31
0.0
100
AcDbText
  0
LINE
  5
2D8
330
2D6
100
AcDbEntity
  8
0
100
AcDbLine
 10
-0.0000028735375963
 20
52.5000022116983
 30
0.0
 11
599.9999971264624
 21
52.5000022116983
 31
0.0
  0
HATCH
  5
2D9
330
2D6
100
AcDbEntity
  8
実形
100
AcDbHatch
 10
0.0
 20
0.0
 30
0.0
210
0.0
220
0.0
230
1.0
  2
SOLID
 70
     1
 71
     1
 91
        3
 92
        1
 93
        4
 72
     2
 10
133.1661954404576
 20
20.0000022116983
 40
20.0
 50
11.64772366707622
 51
342.6561058784662
 73
     1
 72
     1
 10
152.2568494677857
 20
14.03787769028346
 11
128.1661954404576
 21
14.03787769028349
 72
     1
 10
128.1661954404576
 20
14.03787769028349
 11
128.1661954404576
 21
24.0378776902835
 72
     1
 10
128.1661954404576
 20
24.0378776902835
 11
152.7543439394721
 21
24.0378776902835
 97
        4
330
2DF
330
2DC
330
2E0
330
2DD
 92
        1
 93
        4
 72
     2
 10
64.25577179180982
 20
20.0000022116983
 40
20.0
 50
11.64772366707622
 51
342.6561058784662
 73
     1
 72
     1
 10
83.34642581913795
 20
14.03787769028346
 11
59.25577179180982
 21
14.03787769028349
 72
     1
 10
59.25577179180982
 20
14.03787769028349
 11
59.25577179180982
 21
24.0378776902835
 72
     1
 10
59.25577179180982
 20
24.0378776902835
 11
83.84392029082437
 21
24.0378776902835
 97
        4
330
2DE
330
2DB
330
2E1
330
2DA
 92
        1
 93
        5
 72
     1
 10
121.6418911694018
 20
40.0000022116983
 11
86.64189116940178
 21
40.0000022116983
 72
     1
 10
86.64189116940178
 20
40.0000022116983
 11
86.64189116940178
 21
0.0000022116983018
 72
     1
 10
86.64189116940178
 20
0.0000022116983018
 11
121.6418911694018
 21
0.0000022116983018
 72
     1
 10
121.6418911694018
 20
0.0000022116983018
 11
86.64189116940178
 21
20.0000022116983
 72
     1
 10
86.64189116940178
 20
20.0000022116983
 11
121.6418911694018
 21
40.0000022116983
 97
        5
330
2E2
330
2E3
330
2E5
330
2E6
330
2E4
 75
     0
 76
     1
 98
        1
 10
-2184.000002873538
 20
-16.4999977883017
  0
LINE
  5
2DA
102
{ACAD_REACTORS
330
2D9
102
}
330
2D6
100
AcDbEntity
  8
実形
370
     5
100
AcDbLine
 10
83.84392029082437
 20
24.0378776902835
 30
0.0
 11
59.25577179180982
 21
24.0378776902835
 31
0.0
  0
LINE
  5
2DB
102
{ACAD_REACTORS
330
2D9
102
}
330
2D6
100
AcDbEntity
  8
実形
370
     5
100
AcDbLine
 10
59.25577179180982
 20
14.03787769028349
 30
0.0
 11
83.34642581913795
 21
14.03787769028346
 31
0.0
  0
LINE
  5
2DC
102
{ACAD_REACTORS
330
2D9
102
}
330
2D6
100
AcDbEntity
  8
実形
370
     5
100
AcDbLine
 10
128.1661954404576
 20
14.03787769028349
 30
0.0
 11
152.2568494677857
 21
14.03787769028346
 31
0.0
  0
LINE
  5
2DD
102
{ACAD_REACTORS
330
2D9
102
}
330
2D6
100
AcDbEntity
  8
実形
370
     5
100
AcDbLine
 10
152.7543439394721
 20
24.0378776902835
 30
0.0
 11
128.1661954404576
 21
24.0378776902835
 31
0.0
  0
ARC
  5
2DE
102
{ACAD_REACTORS
330
2D9
102
}
330
2D6
100
AcDbEntity
  8
実形
370
     5
100
AcDbCircle
 10
64.25577179180982
 20
20.0000022116983
 30
0.0
 40
20.0
100
AcDbArc
 50
11.6477236670758
 51
342.6561058784691
  0
ARC
  5
2DF
102
{ACAD_REACTORS
330
2D9
102
}
330
2D6
100
AcDbEntity
  8
実形
370
     5
100
AcDbCircle
 10
133.1661954404576
 20
20.0000022116983
 30
0.0
 40
20.0
100
AcDbArc
 50
11.6477236670758
 51
342.6561058784691
  0
LINE
  5
2E0
102
{ACAD_REACTORS
330
2D9
102
}
330
2D6
100
AcDbEntity
  8
実形
370
     5
100
AcDbLine
 10
128.1661954404576
 20
24.0378776902835
 30
0.0
 11
128.1661954404576
 21
14.03787769028349
 31
0.0
  0
LINE
  5
2E1
102
{ACAD_REACTORS
330
2D9
102
}
330
2D6
100
AcDbEntity
  8
実形
370
     5
100
AcDbLine
 10
59.25577179180982
 20
24.0378776902835
 30
0.0
 11
59.25577179180982
 21
14.03787769028349
 31
0.0
  0
LINE
  5
2E2
102
{ACAD_REACTORS
330
2D9
102
}
330
2D6
100
AcDbEntity
  8
実形
370
     5
100
AcDbLine
 10
121.6418911694018
 20
40.0000022116983
 30
0.0
 11
86.64189116940178
 21
40.0000022116983
 31
0.0
  0
LINE
  5
2E3
102
{ACAD_REACTORS
330
2D9
102
}
330
2D6
100
AcDbEntity
  8
実形
370
     5
100
AcDbLine
 10
86.64189116940178
 20
40.0000022116983
 30
0.0
 11
86.64189116940178
 21
0.0000022116983018
 31
0.0
  0
LINE
  5
2E4
102
{ACAD_REACTORS
330
2D9
102
}
330
2D6
100
AcDbEntity
  8
実形
370
     5
100
AcDbLine
 10
86.64189116940178
 20
20.0000022116983
 30
0.0
 11
121.6418911694018
 21
40.0000022116983
 31
0.0
  0
LINE
  5
2E5
102
{ACAD_REACTORS
330
2D9
102
}
330
2D6
100
AcDbEntity
  8
実形
370
     5
100
AcDbLine
 10
86.64189116940178
 20
0.0000022116983018
 30
0.0
 11
121.6418911694018
 21
0.0000022116983018
 31
0.0
  0
LINE
  5
2E6
102
{ACAD_REACTORS
330
2D9
102
}
330
2D6
100
AcDbEntity
  8
実形
370
     5
100
AcDbLine
 10
121.6418911694018
 20
0.0000022116983018
 30
0.0
 11
86.64189116940178
 21
20.0000022116983
 31
0.0
  0
ENDBLK
  5
2E8
330
2D6
100
AcDbEntity
  8
0
100
AcDbBlockEnd
  0
BLOCK
  5
310
330
30D
100
AcDbEntity
  8
0
100
AcDbBlockBegin
  2
_Dot
 70
     0
 10
0.0
 20
0.0
 30
0.0
  3
_Dot
  1

  0
LWPOLYLINE
  5
30E
330
30D
100
AcDbEntity
  8
0
 62
     0
100
AcDbPolyline
 90
        2
 70
     1
 43
0.5
 10
-0.25
 20
0.0
 42
1.0
 10
0.25
 20
0.0
 42
1.0
  0
LINE
  5
30F
330
30D
100
AcDbEntity
  8
0
 62
     0
370
    -2
100
AcDbLine
 10
-0.5
 20
0.0
 30
0.0
 11
-1.0
 21
0.0
 31
0.0
  0
ENDBLK
  5
311
330
30D
100
AcDbEntity
  8
0
100
AcDbBlockEnd
  0
BLOCK
  5
3140
330
313C
100
AcDbEntity
  8
0
100
AcDbBlockBegin
  2
A$C6850087C
 70
     0
 10
0.0
 20
0.0
 30
0.0
  3
A$C6850087C
  1

  0
TEXT
  5
313D
330
313C
100
AcDbEntity
  8
実形
 62
     0
 48
20.0
100
AcDbText
 10
0.0
 20
0.0
 30
0.0
 40
40.0
  1
平面図
100
AcDbText
  0
ENDBLK
  5
3141
330
313C
100
AcDbEntity
  8
0
100
AcDbBlockEnd
  0
BLOCK
  5
384A
330
3846
100
AcDbEntity
  8
0
 62
     1
100
AcDbBlockBegin
  2
A$C71387EE1
 70
     0
 10
0.0
 20
0.0
 30
0.0
  3
A$C71387EE1
  1

  0
HATCH
  5
3847
330
3846
100
AcDbEntity
  8
実形
 62
     0
100
AcDbHatch
 10
0.0
 20
0.0
 30
0.0
210
0.0
220
0.0
230
1.0
  2
SOLID
 70
     1
 71
     0
 91
        1
 92
        7
 72
     1
 73
     1
 93
        2
 10
4.552685078746208
 20
-0.0000011660104065
 42
-1.0
 10
4.54872920619573
 20
9.101406589272301
 42
-1.0
 97
        0
 75
     0
 76
     1
 47
0.1166526434546944
 98
        1
 10
6.65106624868099
 20
3.151407247997667
  0
ENDBLK
  5
384B
330
3846
100
AcDbEntity
  8
0
 62
     1
100
AcDbBlockEnd
  0
BLOCK
  5
6B8B
330
6B87
100
AcDbEntity
  8
0
 62
     3
100
AcDbBlockBegin
  2
A$C47AF373A
 70
     0
 10
0.0
 20
0.0
 30
0.0
  3
A$C47AF373A
  1

  0
LINE
  5
6B88
330
6B87
100
AcDbEntity
  8
枠
 62
     0
100
AcDbLine
 10
-0.0000111344452307
 20
0.0000048001220421
 30
0.0
 11
-0.0000111344452307
 21
2020.000004800122
 31
0.0
  0
ENDBLK
  5
6B8C
330
6B87
100
AcDbEntity
  8
0
 62
     3
100
AcDbBlockEnd
  0
BLOCK
  5
6C04
330
6C00
100
AcDbEntity
  8
0
 62
     3
100
AcDbBlockBegin
  2
A$C2B9560D8
 70
     0
 10
0.0
 20
0.0
 30
0.0
  3
A$C2B9560D8
  1

  0
LINE
  5
6C01
330
6C00
100
AcDbEntity
  8
枠
 62
     0
100
AcDbLine
 10
-0.0000103150450741
 20
2020.000004800122
 30
0.0
 11
-0.0000103150450741
 21
0.0000048001220421
 31
0.0
  0
ENDBLK
  5
6C05
330
6C00
100
AcDbEntity
  8
0
 62
     3
100
AcDbBlockEnd
  0
BLOCK
  5
7084
330
707A
100
AcDbEntity
  8
0
 62
     3
100
AcDbBlockBegin
  2
*D10
 70
     1
 10
0.0
 20
0.0
 30
0.0
  3
*D10
  1

  0
LINE
  5
7910
330
707A
100
AcDbEntity
  8
実形
 62
     0
370
    18
100
AcDbLine
 10
870.2676458536734
 20
1706.67196328526
 30
0.0
 11
806.083790177152
 21
1706.67196328526
 31
0.0
  0
LINE
  5
7911
330
707A
100
AcDbEntity
  8
実形
 62
     0
370
    18
100
AcDbLine
 10
870.2676458536734
 20
1246.67196328526
 30
0.0
 11
806.0837901771519
 21
1246.67196328526
 31
0.0
  0
LINE
  5
7912
330
707A
100
AcDbEntity
  8
実形
 62
     0
370
    18
100
AcDbLine
 10
806.083790177152
 20
1696.67196328526
 30
0.0
 11
806.0837901771519
 21
1256.67196328526
 31
0.0
  0
MTEXT
  5
7913
330
707A
100
AcDbEntity
  8
実形
 62
     0
100
AcDbMText
 10
781.5569481845068
 20
1696.630806356192
 30
0.0
 40
25.0
 41
0.0
 71
     5
 72
     1
  1
15
 11
0.0000000000000001
 21
1.0
 31
0.0
 73
     1
 44
1.0
1001
ACAD
1000
MTEXTBEGIN
1070
    73
1070
     1
1070
    44
1040
1.0
1070
    74
1070
     0
1000
MTEXTEND
  0
INSERT
  5
7914
330
707A
100
AcDbEntity
  8
実形
 62
     0
370
    18
100
AcDbBlockReference
  2
_Dot
 10
806.083790177152
 20
1706.67196328526
 30
0.0
 41
10.0
 42
10.0
 43
10.0
 50
90.0
  0
INSERT
  5
7915
330
707A
100
AcDbEntity
  8
実形
 62
     0
370
    18
100
AcDbBlockReference
  2
_Dot
 10
806.0837901771519
 20
1246.67196328526
 30
0.0
 41
10.0
 42
10.0
 43
10.0
 50
270.0
  0
POINT
  5
7916
330
707A
100
AcDbEntity
  8
Defpoints
 62
     0
100
AcDbPoint
 10
1020.267645853673
 20
1706.67196328526
 30
0.0
  0
POINT
  5
7917
330
707A
100
AcDbEntity
  8
Defpoints
 62
     0
100
AcDbPoint
 10
1020.267645853673
 20
1246.67196328526
 30
0.0
  0
POINT
  5
7918
330
707A
100
AcDbEntity
  8
Defpoints
 62
     0
100
AcDbPoint
 10
806.0837901771519
 20
1246.67196328526
 30
0.0
  0
ENDBLK
  5
7085
330
707A
100
AcDbEntity
  8
0
 62
     3
100
AcDbBlockEnd
  0
BLOCK
  5
7091
330
7087
100
AcDbEntity
  8
0
 62
     3
100
AcDbBlockBegin
  2
*D11
 70
     1
 10
0.0
 20
0.0
 30
0.0
  3
*D11
  1

  0
LINE
  5
7919
330
7087
100
AcDbEntity
  8
実形
 62
     0
370
    18
100
AcDbLine
 10
870.2676458536734
 20
1721.67196328526
 30
0.0
 11
806.083790177152
 21
1721.67196328526
 31
0.0
  0
LINE
  5
791A
330
7087
100
AcDbEntity
  8
実形
 62
     0
370
    18
100
AcDbLine
 10
870.2676458536734
 20
1231.67196328526
 30
0.0
 11
806.0837901771519
 21
1231.67196328526
 31
0.0
  0
LINE
  5
791B
330
7087
100
AcDbEntity
  8
実形
 62
     0
370
    18
100
AcDbLine
 10
806.083790177152
 20
1711.67196328526
 30
0.0
 11
806.0837901771519
 21
1241.67196328526
 31
0.0
  0
INSERT
  5
791C
330
7087
100
AcDbEntity
  8
実形
 62
     0
370
    18
100
AcDbBlockReference
  2
_Dot
 10
806.083790177152
 20
1721.67196328526
 30
0.0
 41
10.0
 42
10.0
 43
10.0
 50
90.0
  0
INSERT
  5
791D
330
7087
100
AcDbEntity
  8
実形
 62
     0
370
    18
100
AcDbBlockReference
  2
_Dot
 10
806.0837901771519
 20
1231.67196328526
 30
0.0
 41
10.0
 42
10.0
 43
10.0
 50
270.0
  0
MTEXT
  5
791E
330
7087
100
AcDbEntity
  8
実形
 62
     0
100
AcDbMText
 10
786.9837901771518
 20
1476.67196328526
 30
0.0
 40
25.0
 41
0.0
 71
     5
 72
     1
  1
460
 11
0.0000000000000001
 21
1.0
 31
0.0
 73
     1
 44
1.0
1001
ACAD
1000
MTEXTBEGIN
1070
    73
1070
     1
1070
    44
1040
1.0
1070
    74
1070
     0
1000
MTEXTEND
  0
POINT
  5
791F
330
7087
100
AcDbEntity
  8
Defpoints
 62
     0
100
AcDbPoint
 10
1020.267645853673
 20
1721.67196328526
 30
0.0
  0
POINT
  5
7920
330
7087
100
AcDbEntity
  8
Defpoints
 62
     0
100
AcDbPoint
 10
1020.267645853673
 20
1231.67196328526
 30
0.0
  0
POINT
  5
7921
330
7087
100
AcDbEntity
  8
Defpoints
 62
     0
100
AcDbPoint
 10
806.0837901771519
 20
1231.67196328526
 30
0.0
  0
ENDBLK
  5
7092
330
7087
100
AcDbEntity
  8
0
 62
     3
100
AcDbBlockEnd
  0
BLOCK
  5
70EA
330
70E0
100
AcDbEntity
  8
0
 62
     3
100
AcDbBlockBegin
  2
*D12
 70
     1
 10
0.0
 20
0.0
 30
0.0
  3
*D12
  1

  0
LINE
  5
7922
330
70E0
100
AcDbEntity
  8
実形
 62
     0
370
    18
100
AcDbLine
 10
870.2676458536734
 20
1721.67196328526
 30
0.0
 11
720.9269819985166
 21
1721.67196328526
 31
0.0
  0
LINE
  5
7923
330
70E0
100
AcDbEntity
  8
実形
 62
     0
370
    18
100
AcDbLine
 10
870.2676458536734
 20
1231.67196328526
 30
0.0
 11
720.9269819985165
 21
1231.67196328526
 31
0.0
  0
LINE
  5
7924
330
70E0
100
AcDbEntity
  8
実形
 62
     0
370
    18
100
AcDbLine
 10
720.9269819985166
 20
1711.67196328526
 30
0.0
 11
720.9269819985165
 21
1241.67196328526
 31
0.0
  0
INSERT
  5
7925
330
70E0
100
AcDbEntity
  8
実形
 62
     0
370
    18
100
AcDbBlockReference
  2
_Dot
 10
720.9269819985166
 20
1721.67196328526
 30
0.0
 41
10.0
 42
10.0
 43
10.0
 50
90.0
  0
INSERT
  5
7926
330
70E0
100
AcDbEntity
  8
実形
 62
     0
370
    18
100
AcDbBlockReference
  2
_Dot
 10
720.9269819985165
 20
1231.67196328526
 30
0.0
 41
10.0
 42
10.0
 43
10.0
 50
270.0
  0
MTEXT
  5
7927
330
70E0
100
AcDbEntity
  8
実形
 62
     0
100
AcDbMText
 10
701.8269819985164
 20
1476.67196328526
 30
0.0
 40
25.0
 41
0.0
 71
     5
 72
     1
  1
490
 11
0.0000000000000001
 21
1.0
 31
0.0
 73
     1
 44
1.0
1001
ACAD
1000
MTEXTBEGIN
1070
    73
1070
     1
1070
    44
1040
1.0
1070
    74
1070
     0
1000
MTEXTEND
  0
POINT
  5
7928
330
70E0
100
AcDbEntity
  8
Defpoints
 62
     0
100
AcDbPoint
 10
1020.267645853673
 20
1721.67196328526
 30
0.0
  0
POINT
  5
7929
330
70E0
100
AcDbEntity
  8
Defpoints
 62
     0
100
AcDbPoint
 10
1020.267645853673
 20
1231.67196328526
 30
0.0
  0
POINT
  5
792A
330
70E0
100
AcDbEntity
  8
Defpoints
 62
     0
100
AcDbPoint
 10
720.9269819985165
 20
1231.67196328526
 30
0.0
  0
ENDBLK
  5
70EB
330
70E0
100
AcDbEntity
  8
0
 62
     3
100
AcDbBlockEnd
  0
BLOCK
  5
7191
330
7187
100
AcDbEntity
  8
0
 62
     3
100
AcDbBlockBegin
  2
*D13
 70
     1
 10
0.0
 20
0.0
 30
0.0
  3
*D13
  1

  0
LINE
  5
7897
330
7187
100
AcDbEntity
  8
実形
 62
     0
370
    18
100
AcDbLine
 10
932.0693431839135
 20
1736.16833245791
 30
0.0
 11
932.0693431839135
 21
1771.133105194594
 31
0.0
  0
LINE
  5
7898
330
7187
100
AcDbEntity
  8
実形
 62
     0
370
    18
100
AcDbLine
 10
1082.069343183913
 20
1736.16833245791
 30
0.0
 11
1082.069343183913
 21
1771.133105194594
 31
0.0
  0
LINE
  5
7899
330
7187
100
AcDbEntity
  8
実形
 62
     0
370
    18
100
AcDbLine
 10
942.0693431839136
 20
1771.133105194594
 30
0.0
 11
1072.069343183913
 21
1771.133105194594
 31
0.0
  0
INSERT
  5
789A
330
7187
100
AcDbEntity
  8
実形
 62
     0
370
    18
100
AcDbBlockReference
  2
_Dot
 10
932.0693431839135
 20
1771.133105194594
 30
0.0
 41
10.0
 42
10.0
 43
10.0
 50
180.0
  0
INSERT
  5
789B
330
7187
100
AcDbEntity
  8
実形
 62
     0
370
    18
100
AcDbBlockReference
  2
_Dot
 10
1082.069343183913
 20
1771.133105194594
 30
0.0
 41
10.0
 42
10.0
 43
10.0
  0
MTEXT
  5
789C
330
7187
100
AcDbEntity
  8
実形
 62
     0
100
AcDbMText
 10
1007.069343183913
 20
1790.233105194594
 30
0.0
 40
25.0
 41
0.0
 71
     5
 72
     1
  1
150
 73
     1
 44
1.0
1001
ACAD
1000
MTEXTBEGIN
1070
    73
1070
     1
1070
    44
1040
1.0
1070
    74
1070
     0
1000
MTEXTEND
  0
POINT
  5
789D
330
7187
100
AcDbEntity
  8
Defpoints
 62
     0
100
AcDbPoint
 10
932.0693431839135
 20
1671.16833245791
 30
0.0
  0
POINT
  5
789E
330
7187
100
AcDbEntity
  8
Defpoints
 62
     0
100
AcDbPoint
 10
1082.069343183913
 20
1671.16833245791
 30
0.0
  0
POINT
  5
789F
330
7187
100
AcDbEntity
  8
Defpoints
 62
     0
100
AcDbPoint
 10
1082.069343183913
 20
1771.133105194594
 30
0.0
  0
ENDBLK
  5
7192
330
7187
100
AcDbEntity
  8
0
 62
     3
100
AcDbBlockEnd
  0
BLOCK
  5
71A7
330
719D
100
AcDbEntity
  8
0
 62
     3
100
AcDbBlockBegin
  2
*D14
 70
     1
 10
0.0
 20
0.0
 30
0.0
  3
*D14
  1

  0
LINE
  5
78A9
330
719D
100
AcDbEntity
  8
実形
 62
     0
370
    18
100
AcDbLine
 10
1211.286389540604
 20
1476.67196328526
 30
0.0
 11
1267.868761796235
 21
1476.67196328526
 31
0.0
  0
LINE
  5
78AA
330
719D
100
AcDbEntity
  8
実形
 62
     0
370
    18
100
AcDbLine
 10
1211.286389540604
 20
1246.67196328526
 30
0.0
 11
1267.868761796235
 21
1246.67196328526
 31
0.0
  0
LINE
  5
78AB
330
719D
100
AcDbEntity
  8
実形
 62
     0
370
    18
100
AcDbLine
 10
1267.868761796235
 20
1466.67196328526
 30
0.0
 11
1267.868761796235
 21
1256.67196328526
 31
0.0
  0
INSERT
  5
78AC
330
719D
100
AcDbEntity
  8
実形
 62
     0
370
    18
100
AcDbBlockReference
  2
_Dot
 10
1267.868761796235
 20
1476.67196328526
 30
0.0
 41
10.0
 42
10.0
 43
10.0
 50
90.0
  0
INSERT
  5
78AD
330
719D
100
AcDbEntity
  8
実形
 62
     0
370
    18
100
AcDbBlockReference
  2
_Dot
 10
1267.868761796235
 20
1246.67196328526
 30
0.0
 41
10.0
 42
10.0
 43
10.0
 50
270.0
  0
MTEXT
  5
78AE
330
719D
100
AcDbEntity
  8
実形
 62
     0
100
AcDbMText
 10
1248.768761796235
 20
1361.67196328526
 30
0.0
 40
25.0
 41
0.0
 71
     5
 72
     1
  1
230
 11
0.0000000000000001
 21
1.0
 31
0.0
 73
     1
 44
1.0
1001
ACAD
1000
MTEXTBEGIN
1070
    73
1070
     1
1070
    44
1040
1.0
1070
    74
1070
     0
1000
MTEXTEND
  0
POINT
  5
78AF
330
719D
100
AcDbEntity
  8
Defpoints
 62
     0
100
AcDbPoint
 10
1146.286389540604
 20
1476.67196328526
 30
0.0
  0
POINT
  5
78B0
330
719D
100
AcDbEntity
  8
Defpoints
 62
     0
100
AcDbPoint
 10
1146.286389540604
 20
1246.67196328526
 30
0.0
  0
POINT
  5
78B1
330
719D
100
AcDbEntity
  8
Defpoints
 62
     0
100
AcDbPoint
 10
1267.868761796235
 20
1246.67196328526
 30
0.0
  0
ENDBLK
  5
71A8
330
719D
100
AcDbEntity
  8
0
 62
     3
100
AcDbBlockEnd
  0
BLOCK
  5
775A
330
7752
100
AcDbEntity
  8
0
 62
     3
100
AcDbBlockBegin
  2
A$C113940D1
 70
     0
 10
0.0
 20
0.0
 30
0.0
  3
A$C113940D1
  1

  0
LINE
  5
7753
330
7752
100
AcDbEntity
  8
実形
 62
     0
100
AcDbLine
 10
0.0
 20
65.0
 30
0.0
 11
720.0
 21
65.0
 31
0.0
  0
LINE
  5
7754
330
7752
100
AcDbEntity
  8
実形
 62
     0
100
AcDbLine
 10
0.0
 20
-195.0
 30
0.0
 11
0.0
 21
65.0
 31
0.0
  0
LINE
  5
7755
330
7752
100
AcDbEntity
  8
実形
 62
     0
100
AcDbLine
 10
120.0
 20
-130.0
 30
0.0
 11
120.0
 21
65.00000000000006
 31
0.0
  0
TEXT
  5
7756
330
7752
100
AcDbEntity
  8
枠
 62
     0
100
AcDbText
 10
23.83333333333334
 20
15.00000000000001
 30
0.0
 40
35.0
  1
品名
 72
     4
 11
60.0
 21
32.5
 31
0.0
100
AcDbText
  0
TEXT
  5
7757
330
7752
100
AcDbEntity
  8
実形
100
AcDbText
 10
214.0405358305962
 20
13.16420861765831
 30
0.0
 40
40.0
  1
ｱﾝﾀﾞｰｼﾝｸ
 72
     4
 11
302.0405358305961
 21
31.83087528432498
 31
0.0
100
AcDbText
  0
ENDBLK
  5
775B
330
7752
100
AcDbEntity
  8
0
 62
     3
100
AcDbBlockEnd
  0
BLOCK
  5
77FF
330
77F5
100
AcDbEntity
  8
0
 62
     3
100
AcDbBlockBegin
  2
*D16
 70
     1
 10
0.0
 20
0.0
 30
0.0
  3
*D16
  1

  0
LINE
  5
78D1
330
77F5
100
AcDbEntity
  8
実形
 62
     0
370
    18
100
AcDbLine
 10
932.0693431839135
 20
1166.67196328526
 30
0.0
 11
932.0693431839135
 21
1116.052064778423
 31
0.0
  0
LINE
  5
78D2
330
77F5
100
AcDbEntity
  8
実形
 62
     0
370
    18
100
AcDbLine
 10
1732.069343183914
 20
1166.671963285269
 30
0.0
 11
1732.069343183914
 21
1116.052064778423
 31
0.0
  0
LINE
  5
78D3
330
77F5
100
AcDbEntity
  8
実形
 62
     0
370
    18
100
AcDbLine
 10
942.0693431839136
 20
1116.052064778423
 30
0.0
 11
1722.069343183914
 21
1116.052064778423
 31
0.0
  0
INSERT
  5
78D4
330
77F5
100
AcDbEntity
  8
実形
 62
     0
370
    18
100
AcDbBlockReference
  2
_Dot
 10
932.0693431839135
 20
1116.052064778423
 30
0.0
 41
10.0
 42
10.0
 43
10.0
 50
180.0
  0
INSERT
  5
78D5
330
77F5
100
AcDbEntity
  8
実形
 62
     0
370
    18
100
AcDbBlockReference
  2
_Dot
 10
1732.069343183914
 20
1116.052064778423
 30
0.0
 41
10.0
 42
10.0
 43
10.0
  0
MTEXT
  5
78D6
330
77F5
100
AcDbEntity
  8
実形
 62
     0
100
AcDbMText
 10
1332.069343183913
 20
1135.152064778423
 30
0.0
 40
25.0
 41
0.0
 71
     5
 72
     1
  1
800
 73
     1
 44
1.0
1001
ACAD
1000
MTEXTBEGIN
1070
    73
1070
     1
1070
    44
1040
1.0
1070
    74
1070
     0
1000
MTEXTEND
  0
POINT
  5
78D7
330
77F5
100
AcDbEntity
  8
Defpoints
 62
     0
100
AcDbPoint
 10
932.0693431839135
 20
1231.67196328526
 30
0.0
  0
POINT
  5
78D8
330
77F5
100
AcDbEntity
  8
Defpoints
 62
     0
100
AcDbPoint
 10
1732.069343183914
 20
1231.671963285269
 30
0.0
  0
POINT
  5
78D9
330
77F5
100
AcDbEntity
  8
Defpoints
 62
     0
100
AcDbPoint
 10
1732.069343183914
 20
1116.052064778423
 30
0.0
  0
ENDBLK
  5
7800
330
77F5
100
AcDbEntity
  8
0
 62
     3
100
AcDbBlockEnd
  0
BLOCK
  5
780C
330
7802
100
AcDbEntity
  8
0
 62
     3
100
AcDbBlockBegin
  2
*D17
 70
     1
 10
0.0
 20
0.0
 30
0.0
  3
*D17
  1

  0
LINE
  5
78C8
330
7802
100
AcDbEntity
  8
実形
 62
     0
370
    18
100
AcDbLine
 10
917.0693431839136
 20
1166.67196328526
 30
0.0
 11
917.0693431839136
 21
1116.052064778423
 31
0.0
  0
LINE
  5
78C9
330
7802
100
AcDbEntity
  8
実形
 62
     0
370
    18
100
AcDbLine
 10
1747.069343183914
 20
1166.67196328526
 30
0.0
 11
1747.069343183914
 21
1116.052064778423
 31
0.0
  0
LINE
  5
78CA
330
7802
100
AcDbEntity
  8
実形
 62
     0
370
    18
100
AcDbLine
 10
927.0693431839136
 20
1116.052064778423
 30
0.0
 11
1737.069343183913
 21
1116.052064778423
 31
0.0
  0
MTEXT
  5
78CB
330
7802
100
AcDbEntity
  8
実形
 62
     0
100
AcDbMText
 10
1780.923625212643
 20
1137.652064778423
 30
0.0
 40
25.0
 41
0.0
 71
     5
 72
     1
  1
15
 73
     1
 44
1.0
1001
ACAD
1000
MTEXTBEGIN
1070
    73
1070
     1
1070
    44
1040
1.0
1070
    74
1070
     0
1000
MTEXTEND
  0
INSERT
  5
78CC
330
7802
100
AcDbEntity
  8
実形
 62
     0
370
    18
100
AcDbBlockReference
  2
_Dot
 10
917.0693431839136
 20
1116.052064778423
 30
0.0
 41
10.0
 42
10.0
 43
10.0
 50
180.0
  0
INSERT
  5
78CD
330
7802
100
AcDbEntity
  8
実形
 62
     0
370
    18
100
AcDbBlockReference
  2
_Dot
 10
1747.069343183914
 20
1116.052064778423
 30
0.0
 41
10.0
 42
10.0
 43
10.0
  0
POINT
  5
78CE
330
7802
100
AcDbEntity
  8
Defpoints
 62
     0
100
AcDbPoint
 10
917.0693431839136
 20
1231.67196328526
 30
0.0
  0
POINT
  5
78CF
330
7802
100
AcDbEntity
  8
Defpoints
 62
     0
100
AcDbPoint
 10
1747.069343183914
 20
1231.67196328526
 30
0.0
  0
POINT
  5
78D0
330
7802
100
AcDbEntity
  8
Defpoints
 62
     0
100
AcDbPoint
 10
1747.069343183914
 20
1116.052064778423
 30
0.0
  0
ENDBLK
  5
780D
330
7802
100
AcDbEntity
  8
0
 62
     3
100
AcDbBlockEnd
  0
BLOCK
  5
78BD
330
78B3
100
AcDbEntity
  8
0
 62
     3
100
AcDbBlockBegin
  2
*D18
 70
     1
 10
0.0
 20
0.0
 30
0.0
  3
*D18
  1

  0
LINE
  5
78BF
330
78B3
100
AcDbEntity
  8
実形
 62
     0
370
    18
100
AcDbLine
 10
917.0693431839136
 20
1166.67196328526
 30
0.0
 11
917.0693431839136
 21
1056.620716934234
 31
0.0
  0
LINE
  5
78C0
330
78B3
100
AcDbEntity
  8
実形
 62
     0
370
    18
100
AcDbLine
 10
1747.069343183914
 20
1166.67196328526
 30
0.0
 11
1747.069343183914
 21
1056.620716934234
 31
0.0
  0
LINE
  5
78C1
330
78B3
100
AcDbEntity
  8
実形
 62
     0
370
    18
100
AcDbLine
 10
927.0693431839136
 20
1056.620716934234
 30
0.0
 11
1737.069343183913
 21
1056.620716934234
 31
0.0
  0
INSERT
  5
78C2
330
78B3
100
AcDbEntity
  8
実形
 62
     0
370
    18
100
AcDbBlockReference
  2
_Dot
 10
917.0693431839136
 20
1056.620716934234
 30
0.0
 41
10.0
 42
10.0
 43
10.0
 50
180.0
  0
INSERT
  5
78C3
330
78B3
100
AcDbEntity
  8
実形
 62
     0
370
    18
100
AcDbBlockReference
  2
_Dot
 10
1747.069343183914
 20
1056.620716934234
 30
0.0
 41
10.0
 42
10.0
 43
10.0
  0
MTEXT
  5
78C4
330
78B3
100
AcDbEntity
  8
実形
 62
     0
100
AcDbMText
 10
1332.069343183913
 20
1075.720716934234
 30
0.0
 40
25.0
 41
0.0
 71
     5
 72
     1
  1
830
 73
     1
 44
1.0
1001
ACAD
1000
MTEXTBEGIN
1070
    73
1070
     1
1070
    44
1040
1.0
1070
    74
1070
     0
1000
MTEXTEND
  0
POINT
  5
78C5
330
78B3
100
AcDbEntity
  8
Defpoints
 62
     0
100
AcDbPoint
 10
917.0693431839136
 20
1231.67196328526
 30
0.0
  0
POINT
  5
78C6
330
78B3
100
AcDbEntity
  8
Defpoints
 62
     0
100
AcDbPoint
 10
1747.069343183914
 20
1231.67196328526
 30
0.0
  0
POINT
  5
78C7
330
78B3
100
AcDbEntity
  8
Defpoints
 62
     0
100
AcDbPoint
 10
1747.069343183914
 20
1056.620716934234
 30
0.0
  0
ENDBLK
  5
78BE
330
78B3
100
AcDbEntity
  8
0
 62
     3
100
AcDbBlockEnd
  0
BLOCK
  5
7AFC
330
7AF2
100
AcDbEntity
  8
0
 62
     3
100
AcDbBlockBegin
  2
*D19
 70
     1
 10
0.0
 20
0.0
 30
0.0
  3
*D19
  1

  0
LINE
  5
7B46
330
7AF2
100
AcDbEntity
  8
実形
 62
     0
370
    18
100
AcDbLine
 10
1002.069343183913
 20
370.1402142854656
 30
0.0
 11
1002.069343183913
 21
318.2236157496082
 31
0.0
  0
LINE
  5
7B47
330
7AF2
100
AcDbEntity
  8
実形
 62
     0
370
    18
100
AcDbLine
 10
1162.069343183913
 20
370.1402142854656
 30
0.0
 11
1162.069343183913
 21
318.2236157496082
 31
0.0
  0
LINE
  5
7B48
330
7AF2
100
AcDbEntity
  8
実形
 62
     0
370
    18
100
AcDbLine
 10
1012.069343183913
 20
318.2236157496082
 30
0.0
 11
1152.069343183913
 21
318.2236157496082
 31
0.0
  0
INSERT
  5
7B49
330
7AF2
100
AcDbEntity
  8
実形
 62
     0
370
    18
100
AcDbBlockReference
  2
_Dot
 10
1002.069343183913
 20
318.2236157496082
 30
0.0
 41
10.0
 42
10.0
 43
10.0
 50
180.0
  0
INSERT
  5
7B4A
330
7AF2
100
AcDbEntity
  8
実形
 62
     0
370
    18
100
AcDbBlockReference
  2
_Dot
 10
1162.069343183913
 20
318.2236157496082
 30
0.0
 41
10.0
 42
10.0
 43
10.0
  0
MTEXT
  5
7B4B
330
7AF2
100
AcDbEntity
  8
実形
 62
     0
100
AcDbMText
 10
1082.069343183913
 20
337.3236157496082
 30
0.0
 40
25.0
 41
0.0
 71
     5
 72
     1
  1
160
 73
     1
 44
1.0
1001
ACAD
1000
MTEXTBEGIN
1070
    73
1070
     1
1070
    44
1040
1.0
1070
    74
1070
     0
1000
MTEXTEND
  0
POINT
  5
7B4C
330
7AF2
100
AcDbEntity
  8
Defpoints
 62
     0
100
AcDbPoint
 10
1002.069343183913
 20
435.1402142854656
 30
0.0
  0
POINT
  5
7B4D
330
7AF2
100
AcDbEntity
  8
Defpoints
 62
     0
100
AcDbPoint
 10
1162.069343183913
 20
435.1402142854656
 30
0.0
  0
POINT
  5
7B4E
330
7AF2
100
AcDbEntity
  8
Defpoints
 62
     0
100
AcDbPoint
 10
1162.069343183913
 20
318.2236157496082
 30
0.0
  0
ENDBLK
  5
7AFD
330
7AF2
100
AcDbEntity
  8
0
 62
     3
100
AcDbBlockEnd
  0
BLOCK
  5
7B08
330
7AFE
100
AcDbEntity
  8
0
 62
     3
100
AcDbBlockBegin
  2
*D20
 70
     1
 10
0.0
 20
0.0
 30
0.0
  3
*D20
  1

  0
LINE
  5
7B4F
330
7AFE
100
AcDbEntity
  8
実形
 62
     0
370
    18
100
AcDbLine
 10
991.5693431839134
 20
370.1402142854657
 30
0.0
 11
991.5693431839134
 21
246.9813189343313
 31
0.0
  0
LINE
  5
7B50
330
7AFE
100
AcDbEntity
  8
実形
 62
     0
370
    18
100
AcDbLine
 10
1172.569343183913
 20
370.1402142854615
 30
0.0
 11
1172.569343183913
 21
246.9813189343313
 31
0.0
  0
LINE
  5
7B51
330
7AFE
100
AcDbEntity
  8
実形
 62
     0
370
    18
100
AcDbLine
 10
1001.569343183913
 20
246.9813189343313
 30
0.0
 11
1162.569343183913
 21
246.9813189343313
 31
0.0
  0
INSERT
  5
7B52
330
7AFE
100
AcDbEntity
  8
実形
 62
     0
370
    18
100
AcDbBlockReference
  2
_Dot
 10
991.5693431839134
 20
246.9813189343313
 30
0.0
 41
10.0
 42
10.0
 43
10.0
 50
180.0
  0
INSERT
  5
7B53
330
7AFE
100
AcDbEntity
  8
実形
 62
     0
370
    18
100
AcDbBlockReference
  2
_Dot
 10
1172.569343183913
 20
246.9813189343313
 30
0.0
 41
10.0
 42
10.0
 43
10.0
  0
MTEXT
  5
7B54
330
7AFE
100
AcDbEntity
  8
実形
 62
     0
100
AcDbMText
 10
1082.069343183913
 20
266.0813189343313
 30
0.0
 40
25.0
 41
0.0
 71
     5
 72
     1
  1
181
 73
     1
 44
1.0
1001
ACAD
1000
MTEXTBEGIN
1070
    73
1070
     1
1070
    44
1040
1.0
1070
    74
1070
     0
1000
MTEXTEND
  0
POINT
  5
7B55
330
7AFE
100
AcDbEntity
  8
Defpoints
 62
     0
100
AcDbPoint
 10
991.5693431839134
 20
435.1402142854657
 30
0.0
  0
POINT
  5
7B56
330
7AFE
100
AcDbEntity
  8
Defpoints
 62
     0
100
AcDbPoint
 10
1172.569343183913
 20
435.1402142854615
 30
0.0
  0
POINT
  5
7B57
330
7AFE
100
AcDbEntity
  8
Defpoints
 62
     0
100
AcDbPoint
 10
1172.569343183913
 20
246.9813189343313
 30
0.0
  0
ENDBLK
  5
7B09
330
7AFE
100
AcDbEntity
  8
0
 62
     3
100
AcDbBlockEnd
  0
BLOCK
  5
7B14
330
7B0A
100
AcDbEntity
  8
0
 62
     3
100
AcDbBlockBegin
  2
*D21
 70
     1
 10
0.0
 20
0.0
 30
0.0
  3
*D21
  1

  0
LINE
  5
7B58
330
7B0A
100
AcDbEntity
  8
実形
 62
     0
370
    18
100
AcDbLine
 10
855.9192856134542
 20
648.1402142854658
 30
0.0
 11
785.6457745641555
 21
648.1402142854658
 31
0.0
  0
LINE
  5
7B59
330
7B0A
100
AcDbEntity
  8
実形
 62
     0
370
    18
100
AcDbLine
 10
855.9192856134542
 20
445.1402142854659
 30
0.0
 11
785.6457745641555
 21
445.1402142854659
 31
0.0
  0
LINE
  5
7B5A
330
7B0A
100
AcDbEntity
  8
実形
 62
     0
370
    18
100
AcDbLine
 10
785.6457745641555
 20
638.1402142854658
 30
0.0
 11
785.6457745641555
 21
455.1402142854659
 31
0.0
  0
MTEXT
  5
7B5B
330
7B0A
100
AcDbEntity
  8
実形
 62
     0
100
AcDbMText
 10
762.2086463233308
 20
546.1072578116636
 30
0.0
 40
25.0
 41
0.0
 71
     5
 72
     1
  1
190
 11
0.0000000000000001
 21
1.0
 31
0.0
 73
     1
 44
1.0
1001
ACAD
1000
MTEXTBEGIN
1070
    73
1070
     1
1070
    44
1040
1.0
1070
    74
1070
     0
1000
MTEXTEND
  0
INSERT
  5
7B5C
330
7B0A
100
AcDbEntity
  8
実形
 62
     0
370
    18
100
AcDbBlockReference
  2
_Dot
 10
785.6457745641555
 20
648.1402142854658
 30
0.0
 41
10.0
 42
10.0
 43
10.0
 50
90.0
  0
INSERT
  5
7B5D
330
7B0A
100
AcDbEntity
  8
実形
 62
     0
370
    18
100
AcDbBlockReference
  2
_Dot
 10
785.6457745641555
 20
445.1402142854659
 30
0.0
 41
10.0
 42
10.0
 43
10.0
 50
270.0
  0
POINT
  5
7B5E
330
7B0A
100
AcDbEntity
  8
Defpoints
 62
     0
100
AcDbPoint
 10
920.9192856134542
 20
648.1402142854658
 30
0.0
  0
POINT
  5
7B5F
330
7B0A
100
AcDbEntity
  8
Defpoints
 62
     0
100
AcDbPoint
 10
920.919285613454
 20
445.1402142854658
 30
0.0
  0
POINT
  5
7B60
330
7B0A
100
AcDbEntity
  8
Defpoints
 62
     0
100
AcDbPoint
 10
785.6457745641555
 20
445.1402142854659
 30
0.0
  0
ENDBLK
  5
7B15
330
7B0A
100
AcDbEntity
  8
0
 62
     3
100
AcDbBlockEnd
  0
BLOCK
  5
7B20
330
7B16
100
AcDbEntity
  8
0
 62
     3
100
AcDbBlockBegin
  2
*D22
 70
     1
 10
0.0
 20
0.0
 30
0.0
  3
*D22
  1

  0
LINE
  5
7B61
330
7B16
100
AcDbEntity
  8
実形
 62
     0
370
    18
100
AcDbLine
 10
855.9192856134542
 20
648.1402142854658
 30
0.0
 11
785.6457745641555
 21
648.1402142854658
 31
0.0
  0
LINE
  5
7B62
330
7B16
100
AcDbEntity
  8
実形
 62
     0
370
    18
100
AcDbLine
 10
855.9192856134538
 20
464.8153369372906
 30
0.0
 11
785.6457745641555
 21
464.8153369372906
 31
0.0
  0
LINE
  5
7B63
330
7B16
100
AcDbEntity
  8
実形
 62
     0
370
    18
100
AcDbLine
 10
785.6457745641555
 20
638.1402142854658
 30
0.0
 11
785.6457745641555
 21
474.8153369372906
 31
0.0
  0
MTEXT
  5
7B64
330
7B16
100
AcDbEntity
  8
実形
 62
     0
100
AcDbMText
 10
764.5006726183346
 20
469.7486486192001
 30
0.0
 40
22.0
 41
0.0
 71
     5
 72
     1
  1
15
 11
0.0000000000000001
 21
1.0
 31
0.0
 73
     1
 44
1.0
1001
ACAD
1000
MTEXTBEGIN
1070
    73
1070
     1
1070
    44
1040
1.0
1070
    74
1070
     0
1000
MTEXTEND
  0
INSERT
  5
7B65
330
7B16
100
AcDbEntity
  8
実形
 62
     0
370
    18
100
AcDbBlockReference
  2
_Dot
 10
785.6457745641555
 20
648.1402142854658
 30
0.0
 41
10.0
 42
10.0
 43
10.0
 50
90.0
  0
INSERT
  5
7B66
330
7B16
100
AcDbEntity
  8
実形
 62
     0
370
    18
100
AcDbBlockReference
  2
_Dot
 10
785.6457745641555
 20
464.8153369372906
 30
0.0
 41
10.0
 42
10.0
 43
10.0
 50
270.0
  0
POINT
  5
7B67
330
7B16
100
AcDbEntity
  8
Defpoints
 62
     0
100
AcDbPoint
 10
920.919285613454
 20
648.1402142854658
 30
0.0
  0
POINT
  5
7B68
330
7B16
100
AcDbEntity
  8
Defpoints
 62
     0
100
AcDbPoint
 10
920.9192856134539
 20
464.8153369372905
 30
0.0
  0
POINT
  5
7B69
330
7B16
100
AcDbEntity
  8
Defpoints
 62
     0
100
AcDbPoint
 10
785.6457745641555
 20
464.8153369372906
 30
0.0
  0
ENDBLK
  5
7B21
330
7B16
100
AcDbEntity
  8
0
 62
     3
100
AcDbBlockEnd
  0
BLOCK
  5
7B2C
330
7B22
100
AcDbEntity
  8
0
 62
     3
100
AcDbBlockBegin
  2
*D23
 70
     1
 10
0.0
 20
0.0
 30
0.0
  3
*D23
  1

  0
LINE
  5
7B6A
330
7B22
100
AcDbEntity
  8
実形
 62
     0
370
    18
100
AcDbLine
 10
855.9192856134542
 20
648.1402142854658
 30
0.0
 11
785.6457745641555
 21
648.1402142854658
 31
0.0
  0
LINE
  5
7B6B
330
7B22
100
AcDbEntity
  8
実形
 62
     0
370
    18
100
AcDbLine
 10
855.9192856134542
 20
435.1402142854658
 30
0.0
 11
785.6457745641555
 21
435.1402142854658
 31
0.0
  0
LINE
  5
7B6C
330
7B22
100
AcDbEntity
  8
実形
 62
     0
370
    18
100
AcDbLine
 10
785.6457745641555
 20
638.1402142854658
 30
0.0
 11
785.6457745641555
 21
445.1402142854659
 31
0.0
  0
MTEXT
  5
7B6D
330
7B22
100
AcDbEntity
  8
実形
 62
     0
100
AcDbMText
 10
766.5457745641553
 20
410.2598071548372
 30
0.0
 40
25.0
 41
0.0
 71
     5
 72
     1
  1
8
 11
0.0000000000000001
 21
1.0
 31
0.0
 73
     1
 44
1.0
1001
ACAD
1000
MTEXTBEGIN
1070
    73
1070
     1
1070
    44
1040
1.0
1070
    74
1070
     0
1000
MTEXTEND
  0
INSERT
  5
7B6E
330
7B22
100
AcDbEntity
  8
実形
 62
     0
370
    18
100
AcDbBlockReference
  2
_Dot
 10
785.6457745641555
 20
648.1402142854658
 30
0.0
 41
10.0
 42
10.0
 43
10.0
 50
90.0
  0
INSERT
  5
7B6F
330
7B22
100
AcDbEntity
  8
実形
 62
     0
370
    18
100
AcDbBlockReference
  2
_Dot
 10
785.6457745641555
 20
435.1402142854658
 30
0.0
 41
10.0
 42
10.0
 43
10.0
 50
270.0
  0
POINT
  5
7B70
330
7B22
100
AcDbEntity
  8
Defpoints
 62
     0
100
AcDbPoint
 10
920.9192856134542
 20
648.1402142854658
 30
0.0
  0
POINT
  5
7B71
330
7B22
100
AcDbEntity
  8
Defpoints
 62
     0
100
AcDbPoint
 10
920.919285613454
 20
435.1402142854658
 30
0.0
  0
POINT
  5
7B72
330
7B22
100
AcDbEntity
  8
Defpoints
 62
     0
100
AcDbPoint
 10
785.6457745641555
 20
435.1402142854658
 30
0.0
  0
ENDBLK
  5
7B2D
330
7B22
100
AcDbEntity
  8
0
 62
     3
100
AcDbBlockEnd
  0
BLOCK
  5
7B38
330
7B2E
100
AcDbEntity
  8
0
 62
     3
100
AcDbBlockBegin
  2
*D24
 70
     1
 10
0.0
 20
0.0
 30
0.0
  3
*D24
  1

  0
LINE
  5
7B73
330
7B2E
100
AcDbEntity
  8
実形
 62
     0
370
    18
100
AcDbLine
 10
790.9192856134542
 20
648.1402142854658
 30
0.0
 11
721.28347099243
 21
648.1402142854659
 31
0.0
  0
LINE
  5
7B74
330
7B2E
100
AcDbEntity
  8
実形
 62
     0
370
    18
100
AcDbLine
 10
790.9192856134542
 20
445.1402142854658
 30
0.0
 11
721.28347099243
 21
445.1402142854658
 31
0.0
  0
LINE
  5
7B75
330
7B2E
100
AcDbEntity
  8
実形
 62
     0
370
    18
100
AcDbLine
 10
721.28347099243
 20
638.140214285466
 30
0.0
 11
721.28347099243
 21
455.1402142854658
 31
0.0
  0
INSERT
  5
7B76
330
7B2E
100
AcDbEntity
  8
実形
 62
     0
370
    18
100
AcDbBlockReference
  2
_Dot
 10
721.28347099243
 20
648.1402142854659
 30
0.0
 41
10.0
 42
10.0
 43
10.0
 50
90.0
  0
INSERT
  5
7B77
330
7B2E
100
AcDbEntity
  8
実形
 62
     0
370
    18
100
AcDbBlockReference
  2
_Dot
 10
721.28347099243
 20
445.1402142854658
 30
0.0
 41
10.0
 42
10.0
 43
10.0
 50
270.0
  0
MTEXT
  5
7B78
330
7B2E
100
AcDbEntity
  8
実形
 62
     0
100
AcDbMText
 10
702.1834709924299
 20
546.640214285466
 30
0.0
 40
25.0
 41
0.0
 71
     5
 72
     1
  1
205
 11
0.0000000000000001
 21
1.0
 31
0.0
 73
     1
 44
1.0
1001
ACAD
1000
MTEXTBEGIN
1070
    73
1070
     1
1070
    44
1040
1.0
1070
    74
1070
     0
1000
MTEXTEND
  0
POINT
  5
7B79
330
7B2E
100
AcDbEntity
  8
Defpoints
 62
     0
100
AcDbPoint
 10
855.9192856134542
 20
648.1402142854658
 30
0.0
  0
POINT
  5
7B7A
330
7B2E
100
AcDbEntity
  8
Defpoints
 62
     0
100
AcDbPoint
 10
855.9192856134542
 20
445.1402142854658
 30
0.0
  0
POINT
  5
7B7B
330
7B2E
100
AcDbEntity
  8
Defpoints
 62
     0
100
AcDbPoint
 10
721.28347099243
 20
445.1402142854658
 30
0.0
  0
ENDBLK
  5
7B39
330
7B2E
100
AcDbEntity
  8
0
 62
     3
100
AcDbBlockEnd
  0
BLOCK
  5
7B44
330
7B3A
100
AcDbEntity
  8
0
 62
     3
100
AcDbBlockBegin
  2
*D25
 70
     1
 10
0.0
 20
0.0
 30
0.0
  3
*D25
  1

  0
LINE
  5
7B7C
330
7B3A
100
AcDbEntity
  8
実形
 62
     0
370
    18
100
AcDbLine
 10
855.9192856134542
 20
648.1402142854658
 30
0.0
 11
664.3956797278725
 21
648.1402142854659
 31
0.0
  0
LINE
  5
7B7D
330
7B3A
100
AcDbEntity
  8
実形
 62
     0
370
    18
100
AcDbLine
 10
724.8563033807968
 20
435.1402142854658
 30
0.0
 11
664.3956797278725
 21
435.1402142854658
 31
0.0
  0
LINE
  5
7B7E
330
7B3A
100
AcDbEntity
  8
実形
 62
     0
370
    18
100
AcDbLine
 10
664.3956797278725
 20
638.140214285466
 30
0.0
 11
664.3956797278725
 21
445.1402142854658
 31
0.0
  0
INSERT
  5
7B7F
330
7B3A
100
AcDbEntity
  8
実形
 62
     0
370
    18
100
AcDbBlockReference
  2
_Dot
 10
664.3956797278725
 20
648.1402142854659
 30
0.0
 41
10.0
 42
10.0
 43
10.0
 50
90.0
  0
INSERT
  5
7B80
330
7B3A
100
AcDbEntity
  8
実形
 62
     0
370
    18
100
AcDbBlockReference
  2
_Dot
 10
664.3956797278725
 20
435.1402142854658
 30
0.0
 41
10.0
 42
10.0
 43
10.0
 50
270.0
  0
MTEXT
  5
7B81
330
7B3A
100
AcDbEntity
  8
実形
 62
     0
100
AcDbMText
 10
645.2956797278723
 20
541.6402142854661
 30
0.0
 40
25.0
 41
0.0
 71
     5
 72
     1
  1
213
 11
0.0000000000000001
 21
1.0
 31
0.0
 73
     1
 44
1.0
1001
ACAD
1000
MTEXTBEGIN
1070
    73
1070
     1
1070
    44
1040
1.0
1070
    74
1070
     0
1000
MTEXTEND
  0
POINT
  5
7B82
330
7B3A
100
AcDbEntity
  8
Defpoints
 62
     0
100
AcDbPoint
 10
920.9192856134542
 20
648.1402142854658
 30
0.0
  0
POINT
  5
7B83
330
7B3A
100
AcDbEntity
  8
Defpoints
 62
     0
100
AcDbPoint
 10
789.8563033807968
 20
435.1402142854658
 30
0.0
  0
POINT
  5
7B84
330
7B3A
100
AcDbEntity
  8
Defpoints
 62
     0
100
AcDbPoint
 10
664.3956797278725
 20
435.1402142854658
 30
0.0
  0
ENDBLK
  5
7B45
330
7B3A
100
AcDbEntity
  8
0
 62
     3
100
AcDbBlockEnd
  0
BLOCK
  5
7CA9
330
7C9F
100
AcDbEntity
  8
0
 62
     3
100
AcDbBlockBegin
  2
*D26
 70
     1
 10
0.0
 20
0.0
 30
0.0
  3
*D26
  1

  0
LINE
  5
7CF3
330
7C9F
100
AcDbEntity
  8
実形
 62
     0
370
    18
100
AcDbLine
 10
2250.944335355184
 20
1396.67196328526
 30
0.0
 11
2302.860933891041
 21
1396.67196328526
 31
0.0
  0
LINE
  5
7CF4
330
7C9F
100
AcDbEntity
  8
実形
 62
     0
370
    18
100
AcDbLine
 10
2250.944335355184
 20
1556.67196328526
 30
0.0
 11
2302.860933891041
 21
1556.67196328526
 31
0.0
  0
LINE
  5
7CF5
330
7C9F
100
AcDbEntity
  8
実形
 62
     0
370
    18
100
AcDbLine
 10
2302.860933891041
 20
1406.67196328526
 30
0.0
 11
2302.860933891041
 21
1546.67196328526
 31
0.0
  0
INSERT
  5
7CF6
330
7C9F
100
AcDbEntity
  8
実形
 62
     0
370
    18
100
AcDbBlockReference
  2
_Dot
 10
2302.860933891041
 20
1396.67196328526
 30
0.0
 41
10.0
 42
10.0
 43
10.0
 50
270.0
  0
INSERT
  5
7CF7
330
7C9F
100
AcDbEntity
  8
実形
 62
     0
370
    18
100
AcDbBlockReference
  2
_Dot
 10
2302.860933891041
 20
1556.67196328526
 30
0.0
 41
10.0
 42
10.0
 43
10.0
 50
90.0
  0
MTEXT
  5
7CF8
330
7C9F
100
AcDbEntity
  8
実形
 62
     0
100
AcDbMText
 10
2283.760933891041
 20
1476.67196328526
 30
0.0
 40
25.0
 41
0.0
 71
     5
 72
     1
  1
160
 11
0.0000000000000001
 21
1.0
 31
0.0
 73
     1
 44
1.0
1001
ACAD
1000
MTEXTBEGIN
1070
    73
1070
     1
1070
    44
1040
1.0
1070
    74
1070
     0
1000
MTEXTEND
  0
POINT
  5
7CF9
330
7C9F
100
AcDbEntity
  8
Defpoints
 62
     0
100
AcDbPoint
 10
2185.944335355184
 20
1396.67196328526
 30
0.0
  0
POINT
  5
7CFA
330
7C9F
100
AcDbEntity
  8
Defpoints
 62
     0
100
AcDbPoint
 10
2185.944335355184
 20
1556.67196328526
 30
0.0
  0
POINT
  5
7CFB
330
7C9F
100
AcDbEntity
  8
Defpoints
 62
     0
100
AcDbPoint
 10
2302.860933891041
 20
1556.67196328526
 30
0.0
  0
ENDBLK
  5
7CAA
330
7C9F
100
AcDbEntity
  8
0
 62
     3
100
AcDbBlockEnd
  0
BLOCK
  5
7CB5
330
7CAB
100
AcDbEntity
  8
0
 62
     3
100
AcDbBlockBegin
  2
*D27
 70
     1
 10
0.0
 20
0.0
 30
0.0
  3
*D27
  1

  0
LINE
  5
7CFC
330
7CAB
100
AcDbEntity
  8
実形
 62
     0
370
    18
100
AcDbLine
 10
2250.944335355184
 20
1386.17196328526
 30
0.0
 11
2374.103230706318
 21
1386.17196328526
 31
0.0
  0
LINE
  5
7CFD
330
7CAB
100
AcDbEntity
  8
実形
 62
     0
370
    18
100
AcDbLine
 10
2250.944335355189
 20
1567.171963285259
 30
0.0
 11
2374.103230706318
 21
1567.171963285259
 31
0.0
  0
LINE
  5
7CFE
330
7CAB
100
AcDbEntity
  8
実形
 62
     0
370
    18
100
AcDbLine
 10
2374.103230706318
 20
1396.17196328526
 30
0.0
 11
2374.103230706318
 21
1557.17196328526
 31
0.0
  0
INSERT
  5
7CFF
330
7CAB
100
AcDbEntity
  8
実形
 62
     0
370
    18
100
AcDbBlockReference
  2
_Dot
 10
2374.103230706318
 20
1386.17196328526
 30
0.0
 41
10.0
 42
10.0
 43
10.0
 50
270.0
  0
INSERT
  5
7D00
330
7CAB
100
AcDbEntity
  8
実形
 62
     0
370
    18
100
AcDbBlockReference
  2
_Dot
 10
2374.103230706318
 20
1567.171963285259
 30
0.0
 41
10.0
 42
10.0
 43
10.0
 50
90.0
  0
MTEXT
  5
7D01
330
7CAB
100
AcDbEntity
  8
実形
 62
     0
100
AcDbMText
 10
2355.003230706318
 20
1476.67196328526
 30
0.0
 40
25.0
 41
0.0
 71
     5
 72
     1
  1
181
 11
0.0000000000000001
 21
1.0
 31
0.0
 73
     1
 44
1.0
1001
ACAD
1000
MTEXTBEGIN
1070
    73
1070
     1
1070
    44
1040
1.0
1070
    74
1070
     0
1000
MTEXTEND
  0
POINT
  5
7D02
330
7CAB
100
AcDbEntity
  8
Defpoints
 62
     0
100
AcDbPoint
 10
2185.944335355184
 20
1386.17196328526
 30
0.0
  0
POINT
  5
7D03
330
7CAB
100
AcDbEntity
  8
Defpoints
 62
     0
100
AcDbPoint
 10
2185.944335355188
 20
1567.171963285259
 30
0.0
  0
POINT
  5
7D04
330
7CAB
100
AcDbEntity
  8
Defpoints
 62
     0
100
AcDbPoint
 10
2374.103230706318
 20
1567.171963285259
 30
0.0
  0
ENDBLK
  5
7CB6
330
7CAB
100
AcDbEntity
  8
0
 62
     3
100
AcDbBlockEnd
  0
BLOCK
  5
7CC1
330
7CB7
100
AcDbEntity
  8
0
 62
     3
100
AcDbBlockBegin
  2
*D28
 70
     1
 10
0.0
 20
0.0
 30
0.0
  3
*D28
  1

  0
LINE
  5
7D57
330
7CB7
100
AcDbEntity
  8
実形
 62
     0
370
    18
100
AcDbLine
 10
1970.944335355184
 20
1133.752153897307
 30
0.0
 11
1970.944335355184
 21
1153.042287832585
 31
0.0
  0
LINE
  5
7D58
330
7CB7
100
AcDbEntity
  8
実形
 62
     0
370
    18
100
AcDbLine
 10
2160.944335355183
 20
1197.857741816848
 30
0.0
 11
2160.944335355183
 21
1153.042287832585
 31
0.0
  0
LINE
  5
7D59
330
7CB7
100
AcDbEntity
  8
実形
 62
     0
370
    18
100
AcDbLine
 10
1980.944335355184
 20
1153.042287832585
 30
0.0
 11
2150.944335355184
 21
1153.042287832585
 31
0.0
  0
MTEXT
  5
7D5A
330
7CB7
100
AcDbEntity
  8
実形
 62
     0
100
AcDbMText
 10
2070.820017655835
 20
1174.642287832585
 30
0.0
 40
25.0
 41
0.0
 71
     5
 72
     1
  1
190
 73
     1
 44
1.0
1001
ACAD
1000
MTEXTBEGIN
1070
    73
1070
     1
1070
    44
1040
1.0
1070
    74
1070
     0
1000
MTEXTEND
  0
INSERT
  5
7D5B
330
7CB7
100
AcDbEntity
  8
実形
 62
     0
370
    18
100
AcDbBlockReference
  2
_Dot
 10
1970.944335355184
 20
1153.042287832585
 30
0.0
 41
10.0
 42
10.0
 43
10.0
 50
180.0
  0
INSERT
  5
7D5C
330
7CB7
100
AcDbEntity
  8
実形
 62
     0
370
    18
100
AcDbBlockReference
  2
_Dot
 10
2160.944335355183
 20
1153.042287832585
 30
0.0
 41
10.0
 42
10.0
 43
10.0
  0
POINT
  5
7D5D
330
7CB7
100
AcDbEntity
  8
Defpoints
 62
     0
100
AcDbPoint
 10
1970.944335355184
 20
1198.752153897307
 30
0.0
  0
POINT
  5
7D5E
330
7CB7
100
AcDbEntity
  8
Defpoints
 62
     0
100
AcDbPoint
 10
2160.944335355183
 20
1262.857741816848
 30
0.0
  0
POINT
  5
7D5F
330
7CB7
100
AcDbEntity
  8
Defpoints
 62
     0
100
AcDbPoint
 10
2160.944335355183
 20
1153.042287832585
 30
0.0
  0
ENDBLK
  5
7CC2
330
7CB7
100
AcDbEntity
  8
0
 62
     3
100
AcDbBlockEnd
  0
BLOCK
  5
7CCD
330
7CC3
100
AcDbEntity
  8
0
 62
     3
100
AcDbBlockBegin
  2
*D29
 70
     1
 10
0.0
 20
0.0
 30
0.0
  3
*D29
  1

  0
LINE
  5
7D4E
330
7CC3
100
AcDbEntity
  8
実形
 62
     0
370
    18
100
AcDbLine
 10
1970.944335355184
 20
1197.857741816848
 30
0.0
 11
1970.944335355184
 21
1153.042287832585
 31
0.0
  0
LINE
  5
7D4F
330
7CC3
100
AcDbEntity
  8
実形
 62
     0
370
    18
100
AcDbLine
 10
2175.944335355183
 20
1197.906339132273
 30
0.0
 11
2175.944335355183
 21
1153.042287832585
 31
0.0
  0
LINE
  5
7D50
330
7CC3
100
AcDbEntity
  8
実形
 62
     0
370
    18
100
AcDbLine
 10
1980.944335355184
 20
1153.042287832585
 30
0.0
 11
2165.944335355183
 21
1153.042287832585
 31
0.0
  0
MTEXT
  5
7D51
330
7CC3
100
AcDbEntity
  8
実形
 62
     0
100
AcDbMText
 10
2210.932286267035
 20
1174.642287832585
 30
0.0
 40
25.0
 41
0.0
 71
     5
 72
     1
  1
15
 73
     1
 44
1.0
1001
ACAD
1000
MTEXTBEGIN
1070
    73
1070
     1
1070
    44
1040
1.0
1070
    74
1070
     0
1000
MTEXTEND
  0
INSERT
  5
7D52
330
7CC3
100
AcDbEntity
  8
実形
 62
     0
370
    18
100
AcDbBlockReference
  2
_Dot
 10
1970.944335355184
 20
1153.042287832585
 30
0.0
 41
10.0
 42
10.0
 43
10.0
 50
180.0
  0
INSERT
  5
7D53
330
7CC3
100
AcDbEntity
  8
実形
 62
     0
370
    18
100
AcDbBlockReference
  2
_Dot
 10
2175.944335355183
 20
1153.042287832585
 30
0.0
 41
10.0
 42
10.0
 43
10.0
  0
POINT
  5
7D54
330
7CC3
100
AcDbEntity
  8
Defpoints
 62
     0
100
AcDbPoint
 10
1970.944335355184
 20
1262.857741816848
 30
0.0
  0
POINT
  5
7D55
330
7CC3
100
AcDbEntity
  8
Defpoints
 62
     0
100
AcDbPoint
 10
2175.944335355183
 20
1262.906339132273
 30
0.0
  0
POINT
  5
7D56
330
7CC3
100
AcDbEntity
  8
Defpoints
 62
     0
100
AcDbPoint
 10
2175.944335355183
 20
1153.042287832585
 30
0.0
  0
ENDBLK
  5
7CCE
330
7CC3
100
AcDbEntity
  8
0
 62
     3
100
AcDbBlockEnd
  0
BLOCK
  5
7CD9
330
7CCF
100
AcDbEntity
  8
0
 62
     3
100
AcDbBlockBegin
  2
*D30
 70
     1
 10
0.0
 20
0.0
 30
0.0
  3
*D30
  1

  0
LINE
  5
7D45
330
7CCF
100
AcDbEntity
  8
実形
 62
     0
370
    18
100
AcDbLine
 10
1971.466071016101
 20
1165.910849371382
 30
0.0
 11
1971.466071016101
 21
1099.7720042677
 31
0.0
  0
LINE
  5
7D46
330
7CCF
100
AcDbEntity
  8
実形
 62
     0
370
    18
100
AcDbLine
 10
2175.944335355183
 20
1165.910849371382
 30
0.0
 11
2175.944335355183
 21
1099.7720042677
 31
0.0
  0
LINE
  5
7D47
330
7CCF
100
AcDbEntity
  8
実形
 62
     0
370
    18
100
AcDbLine
 10
1981.466071016101
 20
1099.7720042677
 30
0.0
 11
2165.944335355183
 21
1099.7720042677
 31
0.0
  0
INSERT
  5
7D48
330
7CCF
100
AcDbEntity
  8
実形
 62
     0
370
    18
100
AcDbBlockReference
  2
_Dot
 10
1971.466071016101
 20
1099.7720042677
 30
0.0
 41
10.0
 42
10.0
 43
10.0
 50
180.0
  0
INSERT
  5
7D49
330
7CCF
100
AcDbEntity
  8
実形
 62
     0
370
    18
100
AcDbBlockReference
  2
_Dot
 10
2175.944335355183
 20
1099.7720042677
 30
0.0
 41
10.0
 42
10.0
 43
10.0
  0
MTEXT
  5
7D4A
330
7CCF
100
AcDbEntity
  8
実形
 62
     0
100
AcDbMText
 10
2073.705203185642
 20
1118.8720042677
 30
0.0
 40
25.0
 41
0.0
 71
     5
 72
     1
  1
205
 73
     1
 44
1.0
1001
ACAD
1000
MTEXTBEGIN
1070
    73
1070
     1
1070
    44
1040
1.0
1070
    74
1070
     0
1000
MTEXTEND
  0
POINT
  5
7D4B
330
7CCF
100
AcDbEntity
  8
Defpoints
 62
     0
100
AcDbPoint
 10
1971.466071016101
 20
1230.910849371382
 30
0.0
  0
POINT
  5
7D4C
330
7CCF
100
AcDbEntity
  8
Defpoints
 62
     0
100
AcDbPoint
 10
2175.944335355183
 20
1230.910849371382
 30
0.0
  0
POINT
  5
7D4D
330
7CCF
100
AcDbEntity
  8
Defpoints
 62
     0
100
AcDbPoint
 10
2175.944335355183
 20
1099.7720042677
 30
0.0
  0
ENDBLK
  5
7CDA
330
7CCF
100
AcDbEntity
  8
0
 62
     3
100
AcDbBlockEnd
  0
BLOCK
  5
7CE5
330
7CDB
100
AcDbEntity
  8
0
 62
     3
100
AcDbBlockBegin
  2
*D31
 70
     1
 10
0.0
 20
0.0
 30
0.0
  3
*D31
  1

  0
LINE
  5
7D3C
330
7CDB
100
AcDbEntity
  8
実形
 62
     0
370
    18
100
AcDbLine
 10
1970.944335355184
 20
1161.679416472725
 30
0.0
 11
1970.944335355184
 21
1099.7720042677
 31
0.0
  0
LINE
  5
7D3D
330
7CDB
100
AcDbEntity
  8
実形
 62
     0
370
    18
100
AcDbLine
 10
2185.944335355184
 20
1148.680918535289
 30
0.0
 11
2185.944335355184
 21
1099.7720042677
 31
0.0
  0
LINE
  5
7D3E
330
7CDB
100
AcDbEntity
  8
実形
 62
     0
370
    18
100
AcDbLine
 10
1980.944335355184
 20
1099.7720042677
 30
0.0
 11
2175.944335355184
 21
1099.7720042677
 31
0.0
  0
MTEXT
  5
7D3F
330
7CDB
100
AcDbEntity
  8
実形
 62
     0
100
AcDbMText
 10
2209.7396598481
 20
1121.3720042677
 30
0.0
 40
25.0
 41
0.0
 71
     5
 72
     1
  1
8
 73
     1
 44
1.0
1001
ACAD
1000
MTEXTBEGIN
1070
    73
1070
     1
1070
    44
1040
1.0
1070
    74
1070
     0
1000
MTEXTEND
  0
INSERT
  5
7D40
330
7CDB
100
AcDbEntity
  8
実形
 62
     0
370
    18
100
AcDbBlockReference
  2
_Dot
 10
1970.944335355184
 20
1099.7720042677
 30
0.0
 41
10.0
 42
10.0
 43
10.0
 50
180.0
  0
INSERT
  5
7D41
330
7CDB
100
AcDbEntity
  8
実形
 62
     0
370
    18
100
AcDbBlockReference
  2
_Dot
 10
2185.944335355184
 20
1099.7720042677
 30
0.0
 41
10.0
 42
10.0
 43
10.0
  0
POINT
  5
7D42
330
7CDB
100
AcDbEntity
  8
Defpoints
 62
     0
100
AcDbPoint
 10
1970.944335355184
 20
1226.679416472726
 30
0.0
  0
POINT
  5
7D43
330
7CDB
100
AcDbEntity
  8
Defpoints
 62
     0
100
AcDbPoint
 10
2185.944335355184
 20
1213.680918535289
 30
0.0
  0
POINT
  5
7D44
330
7CDB
100
AcDbEntity
  8
Defpoints
 62
     0
100
AcDbPoint
 10
2185.944335355184
 20
1099.7720042677
 30
0.0
  0
ENDBLK
  5
7CE6
330
7CDB
100
AcDbEntity
  8
0
 62
     3
100
AcDbBlockEnd
  0
BLOCK
  5
7CF1
330
7CE7
100
AcDbEntity
  8
0
 62
     3
100
AcDbBlockBegin
  2
*D32
 70
     1
 10
0.0
 20
0.0
 30
0.0
  3
*D32
  1

  0
LINE
  5
7D33
330
7CE7
100
AcDbEntity
  8
実形
 62
     0
370
    18
100
AcDbLine
 10
1970.944335355184
 20
1165.910849371382
 30
0.0
 11
1970.944335355184
 21
1045.065992870272
 31
0.0
  0
LINE
  5
7D34
330
7CE7
100
AcDbEntity
  8
実形
 62
     0
370
    18
100
AcDbLine
 10
2185.944335355184
 20
1101.843436118578
 30
0.0
 11
2185.944335355184
 21
1045.065992870272
 31
0.0
  0
LINE
  5
7D35
330
7CE7
100
AcDbEntity
  8
実形
 62
     0
370
    18
100
AcDbLine
 10
1980.944335355184
 20
1045.065992870272
 30
0.0
 11
2175.944335355184
 21
1045.065992870272
 31
0.0
  0
MTEXT
  5
7D36
330
7CE7
100
AcDbEntity
  8
実形
 62
     0
100
AcDbMText
 10
2073.337005124883
 20
1066.665992870272
 30
0.0
 40
25.0
 41
0.0
 71
     5
 72
     1
  1
213
 73
     1
 44
1.0
1001
ACAD
1000
MTEXTBEGIN
1070
    73
1070
     1
1070
    44
1040
1.0
1070
    74
1070
     0
1000
MTEXTEND
  0
INSERT
  5
7D37
330
7CE7
100
AcDbEntity
  8
実形
 62
     0
370
    18
100
AcDbBlockReference
  2
_Dot
 10
1970.944335355184
 20
1045.065992870272
 30
0.0
 41
10.0
 42
10.0
 43
10.0
 50
180.0
  0
INSERT
  5
7D38
330
7CE7
100
AcDbEntity
  8
実形
 62
     0
370
    18
100
AcDbBlockReference
  2
_Dot
 10
2185.944335355184
 20
1045.065992870272
 30
0.0
 41
10.0
 42
10.0
 43
10.0
  0
POINT
  5
7D39
330
7CE7
100
AcDbEntity
  8
Defpoints
 62
     0
100
AcDbPoint
 10
1970.944335355184
 20
1230.910849371382
 30
0.0
  0
POINT
  5
7D3A
330
7CE7
100
AcDbEntity
  8
Defpoints
 62
     0
100
AcDbPoint
 10
2185.944335355184
 20
1166.843436118578
 30
0.0
  0
POINT
  5
7D3B
330
7CE7
100
AcDbEntity
  8
Defpoints
 62
     0
100
AcDbPoint
 10
2185.944335355184
 20
1045.065992870272
 30
0.0
  0
ENDBLK
  5
7CF2
330
7CE7
100
AcDbEntity
  8
0
 62
     3
100
AcDbBlockEnd
  0
ENDSEC
  0
SECTION
  2
ENTITIES
  0
LINE
  5
9C
330
1F
100
AcDbEntity
  8
枠
 62
     0
100
AcDbLine
 10
174.0
 20
3.99999999999909
 30
0.0
 11
2834.0
 21
3.99999999999909
 31
0.0
  0
LINE
  5
A0
330
1F
100
AcDbEntity
  8
枠
 62
     0
100
AcDbLine
 10
2834.0
 20
2023.999999999999
 30
0.0
 11
174.0
 21
2023.999999999999
 31
0.0
  0
LINE
  5
272
330
1F
100
AcDbEntity
  8
枠
 62
     0
100
AcDbLine
 10
2234.0
 20
133.9999999999991
 30
0.0
 11
2234.0
 21
198.9999999999991
 31
0.0
  0
LINE
  5
1B73
330
1F
100
AcDbEntity
  8
枠
 62
     0
100
AcDbLine
 10
1944.0
 20
2023.999999999999
 30
0.0
 11
2834.0
 21
2023.999999999999
 31
0.0
  0
LINE
  5
1B84
330
1F
100
AcDbEntity
  8
枠
 62
     0
100
AcDbLine
 10
2114.0
 20
68.99999999999909
 30
0.0
 11
2834.0
 21
68.99999999999909
 31
0.0
  0
LINE
  5
1B85
330
1F
100
AcDbEntity
  8
枠
 62
     0
100
AcDbLine
 10
2114.0
 20
198.9999999999991
 30
0.0
 11
2834.0
 21
198.9999999999991
 31
0.0
  0
LINE
  5
1B86
330
1F
100
AcDbEntity
  8
枠
 62
     0
100
AcDbLine
 10
2114.0
 20
133.9999999999991
 30
0.0
 11
2834.0
 21
133.9999999999991
 31
0.0
  0
LINE
  5
1B87
330
1F
100
AcDbEntity
  8
枠
 62
     0
100
AcDbLine
 10
2114.0
 20
3.99999999999909
 30
0.0
 11
2114.0
 21
198.9999999999991
 31
0.0
  0
TEXT
  5
1B88
330
1F
100
AcDbEntity
  8
枠
 62
     0
100
AcDbText
 10
2346.234086982958
 20
18.49999999999909
 30
0.0
 40
35.0
  1
中外交易株式会社
  7
ms明朝
 72
     4
 11
2551.034086982959
 21
36.49999999999909
 31
0.0
100
AcDbText
  0
LINE
  5
1B8A
330
1F
100
AcDbEntity
  8
枠
 62
     0
100
AcDbLine
 10
2234.0
 20
68.99999999999909
 30
0.0
 11
2834.0
 21
68.99999999999909
 31
0.0
  0
LINE
  5
1B8B
102
{ACAD_REACTORS
330
1B98
102
}
330
1F
100
AcDbEntity
  8
枠
 62
     0
370
     5
100
AcDbLine
 10
2257.843923164362
 20
40.53787547858428
 30
0.0
 11
2233.255774665348
 21
40.53787547858428
 31
0.0
  0
LINE
  5
1B8C
102
{ACAD_REACTORS
330
1B98
102
}
330
1F
100
AcDbEntity
  8
枠
 62
     0
370
     5
100
AcDbLine
 10
2233.255774665348
 20
40.53787547858428
 30
0.0
 11
2233.255774665348
 21
30.53787547858429
 31
0.0
  0
LINE
  5
1B8D
102
{ACAD_REACTORS
330
1B98
102
}
330
1F
100
AcDbEntity
  8
枠
 62
     0
370
     5
100
AcDbLine
 10
2233.255774665348
 20
30.53787547858429
 30
0.0
 11
2257.346428692676
 21
30.53787547858429
 31
0.0
  0
LINE
  5
1B8E
102
{ACAD_REACTORS
330
1B98
102
}
330
1F
100
AcDbEntity
  8
枠
 62
     0
370
     5
100
AcDbLine
 10
2260.641894042939
 20
56.49999999999909
 30
0.0
 11
2260.641894042939
 21
16.49999999999909
 31
0.0
  0
LINE
  5
1B8F
102
{ACAD_REACTORS
330
1B98
102
}
330
1F
100
AcDbEntity
  8
枠
 62
     0
370
     5
100
AcDbLine
 10
2260.641894042939
 20
16.49999999999909
 30
0.0
 11
2295.641894042939
 21
16.49999999999909
 31
0.0
  0
LINE
  5
1B90
102
{ACAD_REACTORS
330
1B98
102
}
330
1F
100
AcDbEntity
  8
枠
 62
     0
370
     5
100
AcDbLine
 10
2295.641894042939
 20
16.49999999999909
 30
0.0
 11
2260.641894042939
 21
36.49999999999909
 31
0.0
  0
LINE
  5
1B91
102
{ACAD_REACTORS
330
1B98
102
}
330
1F
100
AcDbEntity
  8
枠
 62
     0
370
     5
100
AcDbLine
 10
2260.641894042939
 20
36.49999999999909
 30
0.0
 11
2295.641894042939
 21
56.49999999999909
 31
0.0
  0
LINE
  5
1B92
102
{ACAD_REACTORS
330
1B98
102
}
330
1F
100
AcDbEntity
  8
枠
 62
     0
370
     5
100
AcDbLine
 10
2295.641894042939
 20
56.49999999999909
 30
0.0
 11
2260.641894042939
 21
56.49999999999909
 31
0.0
  0
LINE
  5
1B93
102
{ACAD_REACTORS
330
1B98
102
}
330
1F
100
AcDbEntity
  8
枠
 62
     0
370
     5
100
AcDbLine
 10
2326.75434681301
 20
40.53787547858428
 30
0.0
 11
2302.166198313996
 21
40.53787547858428
 31
0.0
  0
LINE
  5
1B94
102
{ACAD_REACTORS
330
1B98
102
}
330
1F
100
AcDbEntity
  8
枠
 62
     0
370
     5
100
AcDbLine
 10
2302.166198313996
 20
40.53787547858428
 30
0.0
 11
2302.166198313996
 21
30.53787547858429
 31
0.0
  0
LINE
  5
1B95
102
{ACAD_REACTORS
330
1B98
102
}
330
1F
100
AcDbEntity
  8
枠
 62
     0
370
     5
100
AcDbLine
 10
2302.166198313996
 20
30.53787547858429
 30
0.0
 11
2326.256852341323
 21
30.53787547858429
 31
0.0
  0
ARC
  5
1B96
102
{ACAD_REACTORS
330
1B98
102
}
330
1F
100
AcDbEntity
  8
枠
 62
     0
370
     5
100
AcDbCircle
 10
2238.255774665347
 20
36.49999999999909
 30
0.0
 40
20.0
100
AcDbArc
 50
11.64772366708617
 51
342.6561058784773
  0
ARC
  5
1B97
102
{ACAD_REACTORS
330
1B98
102
}
330
1F
100
AcDbEntity
  8
枠
 62
     0
370
     5
100
AcDbCircle
 10
2307.166198313995
 20
36.49999999999909
 30
0.0
 40
20.0
100
AcDbArc
 50
11.64772366708617
 51
342.6561058784773
  0
HATCH
  5
1B98
330
1F
100
AcDbEntity
  8
枠
 62
     0
100
AcDbHatch
 10
0.0
 20
0.0
 30
0.0
210
0.0
220
0.0
230
1.0
  2
SOLID
 70
     1
 71
     1
 91
        3
 92
        1
 93
        4
 72
     2
 10
2307.166198313995
 20
36.49999999999909
 40
20.0
 50
11.64772366708617
 51
342.6561058784773
 73
     1
 72
     1
 10
2326.256852341323
 20
30.53787547858429
 11
2302.166198313996
 21
30.53787547858429
 72
     1
 10
2302.166198313996
 20
30.53787547858429
 11
2302.166198313996
 21
40.53787547858428
 72
     1
 10
2302.166198313996
 20
40.53787547858428
 11
2326.75434681301
 21
40.53787547858428
 97
        4
330
1B97
330
1B95
330
1B94
330
1B93
 92
        1
 93
        4
 72
     2
 10
2238.255774665347
 20
36.49999999999909
 40
20.0
 50
11.64772366708617
 51
342.6561058784773
 73
     1
 72
     1
 10
2257.346428692676
 20
30.53787547858429
 11
2233.255774665348
 21
30.53787547858429
 72
     1
 10
2233.255774665348
 20
30.53787547858429
 11
2233.255774665348
 21
40.53787547858428
 72
     1
 10
2233.255774665348
 20
40.53787547858428
 11
2257.843923164362
 21
40.53787547858428
 97
        4
330
1B96
330
1B8D
330
1B8C
330
1B8B
 92
        1
 93
        5
 72
     1
 10
2295.641894042939
 20
56.49999999999909
 11
2260.641894042939
 21
56.49999999999909
 72
     1
 10
2260.641894042939
 20
56.49999999999909
 11
2260.641894042939
 21
16.49999999999909
 72
     1
 10
2260.641894042939
 20
16.49999999999909
 11
2295.641894042939
 21
16.49999999999909
 72
     1
 10
2295.641894042939
 20
16.49999999999909
 11
2260.641894042939
 21
36.49999999999909
 72
     1
 10
2260.641894042939
 20
36.49999999999909
 11
2295.641894042939
 21
56.49999999999909
 97
        5
330
1B92
330
1B8E
330
1B8F
330
1B90
330
1B91
 75
     0
 76
     1
 98
        1
 10
-10.0
 20
-0.0000000000009095
  0
LINE
  5
1B99
330
1F
100
AcDbEntity
  8
枠
 62
     0
100
AcDbLine
 10
2234.0
 20
68.99999999999909
 30
0.0
 11
2234.0
 21
198.9999999999991
 31
0.0
  0
TEXT
  5
5D0B
330
1F
100
AcDbEntity
  8
実形
100
AcDbText
 10
234.9784467214322
 20
55.07438486928823
 30
0.0
 40
30.0
  1
※実寸には製造上の誤差が多少生ずる場合があります。シンクの穴あけ加工は現物合わせにてお願いします。
 72
     4
 11
1104.978446721432
 21
70.07438486928823
 31
0.0
100
AcDbText
  0
TEXT
  5
5E5F
330
1F
100
AcDbEntity
  8
枠
 62
     0
100
AcDbText
 10
2136.666666666667
 20
83.99999999999909
 30
0.0
 40
35.0
  1
尺度
 72
     4
 11
2174.0
 21
101.4999999999991
 31
0.0
100
AcDbText
  0
TEXT
  5
5E68
330
1F
100
AcDbEntity
  8
枠
 62
     0
100
AcDbText
 10
2136.666666666667
 20
148.9999999999991
 30
0.0
 40
35.0
  1
品番
 72
     4
 11
2174.0
 21
166.4999999999991
 31
0.0
100
AcDbText
  0
TEXT
  5
68BC
330
1F
100
AcDbEntity
  8
実形
100
AcDbText
 10
2443.255253185007
 20
84.68238670760312
 30
0.0
 40
35.0
  1
1：10
  7
ms明朝
 72
     4
 11
2507.255253185007
 21
101.7823867076031
 31
0.0
100
AcDbText
  0
TEXT
  5
68D6
330
1F
100
AcDbEntity
  8
実形
100
AcDbText
 10
2315.60983081035
 20
147.4557044673729
 30
0.0
 40
35.0
  1
RaS800-460
  7
ms明朝
 72
     4
 11
2443.609830810351
 21
164.5557044673729
 31
0.0
100
AcDbText
  0
LINE
  5
6D9B
330
1F
100
AcDbEntity
  8
実形
 62
     0
100
AcDbLine
 10
2834.0
 20
4.0
 30
0.0
 11
2834.0
 21
2024.0
 31
0.0
  0
LINE
  5
6E31
330
1F
100
AcDbEntity
  8
実形
 62
     0
100
AcDbLine
 10
174.0
 20
2024.0
 30
0.0
 11
174.0
 21
4.0
 31
0.0
  0
LINE
  5
7026
330
1F
100
AcDbEntity
  8
実形
100
AcDbLine
 10
917.0693431839136
 20
1721.67196328526
 30
0.0
 11
1747.069343183914
 21
1721.67196328526
 31
0.0
  0
LINE
  5
7027
330
1F
100
AcDbEntity
  8
実形
100
AcDbLine
 10
1747.069343183914
 20
1721.67196328526
 30
0.0
 11
1747.069343183914
 21
1231.67196328526
 31
0.0
  0
LINE
  5
7028
330
1F
100
AcDbEntity
  8
実形
100
AcDbLine
 10
1747.069343183914
 20
1231.67196328526
 30
0.0
 11
917.0693431839136
 21
1231.67196328526
 31
0.0
  0
LINE
  5
7029
330
1F
100
AcDbEntity
  8
実形
100
AcDbLine
 10
917.0693431839136
 20
1231.67196328526
 30
0.0
 11
917.0693431839136
 21
1721.67196328526
 31
0.0
  0
LINE
  5
702A
330
1F
100
AcDbEntity
  8
実形
100
AcDbLine
 10
938.0693431839134
 20
1706.67196328526
 30
0.0
 11
1726.069343183914
 21
1706.67196328526
 31
0.0
  0
LINE
  5
702B
330
1F
100
AcDbEntity
  8
実形
100
AcDbLine
 10
1732.069343183913
 20
1700.67196328526
 30
0.0
 11
1732.069343183913
 21
1252.67196328526
 31
0.0
  0
LINE
  5
702C
330
1F
100
AcDbEntity
  8
実形
100
AcDbLine
 10
1726.069343183913
 20
1246.67196328526
 30
0.0
 11
938.0693431839135
 21
1246.67196328526
 31
0.0
  0
LINE
  5
702D
330
1F
100
AcDbEntity
  8
実形
100
AcDbLine
 10
932.0693431839135
 20
1252.67196328526
 30
0.0
 11
932.0693431839135
 21
1700.67196328526
 31
0.0
  0
DIMENSION
  5
7079
330
1F
100
AcDbEntity
  8
実形
100
AcDbDimension
  2
*D10
 10
806.0837901771519
 20
1246.67196328526
 30
0.0
 11
781.5569481845068
 21
1696.630806356192
 31
0.0
 70
   160
  1
15
 71
     5
 42
460.0
  3
ISO-25
100
AcDbAlignedDimension
 13
1020.267645853673
 23
1706.67196328526
 33
0.0
 14
1020.267645853673
 24
1246.67196328526
 34
0.0
 50
90.0
100
AcDbRotatedDimension
1001
ACAD
1000
DSTYLE
1002
{
1070
    42
1040
150.0
1070
    41
1040
10.0
1070
   140
1040
25.0
1070
   147
1040
6.599999999999998
1070
   279
1070
     2
1070
   342
1005
30D
1070
   371
1070
    18
1070
   372
1070
    18
1002
}
  0
DIMENSION
  5
7086
330
1F
100
AcDbEntity
  8
実形
100
AcDbDimension
  2
*D11
 10
806.0837901771519
 20
1231.67196328526
 30
0.0
 11
786.9837901771518
 21
1476.67196328526
 31
0.0
 70
    32
  1
460
 71
     5
 42
490.0
  3
ISO-25
100
AcDbAlignedDimension
 13
1020.267645853673
 23
1721.67196328526
 33
0.0
 14
1020.267645853673
 24
1231.67196328526
 34
0.0
 50
90.0
100
AcDbRotatedDimension
1001
ACAD
1000
DSTYLE
1002
{
1070
    42
1040
150.0
1070
    41
1040
10.0
1070
   140
1040
25.0
1070
   147
1040
6.599999999999998
1070
   279
1070
     2
1070
   342
1005
30D
1070
   371
1070
    18
1070
   372
1070
    18
1002
}
  0
TEXT
  5
70D5
330
1F
100
AcDbEntity
  8
実形
 48
20.0
100
AcDbText
 10
796.3247374338843
 20
1237.797268686647
 30
0.0
 40
25.0
  1
15
 50
90.0
100
AcDbText
  0
DIMENSION
  5
70DF
330
1F
100
AcDbEntity
  8
実形
100
AcDbDimension
  2
*D12
 10
720.9269819985165
 20
1231.67196328526
 30
0.0
 11
701.8269819985164
 21
1476.67196328526
 31
0.0
 70
    32
 71
     5
 42
490.0
  3
ISO-25
100
AcDbAlignedDimension
 13
1020.267645853673
 23
1721.67196328526
 33
0.0
 14
1020.267645853673
 24
1231.67196328526
 34
0.0
 50
90.0
100
AcDbRotatedDimension
1001
ACAD
1000
DSTYLE
1002
{
1070
    42
1040
150.0
1070
    41
1040
10.0
1070
   140
1040
25.0
1070
   147
1040
6.599999999999998
1070
   279
1070
     2
1070
   342
1005
30D
1070
   371
1070
    18
1070
   372
1070
    18
1002
}
  0
LINE
  5
7180
330
1F
100
AcDbEntity
  8
実形
  6
ACAD_ISO08W100
 48
0.5
100
AcDbLine
 10
1223.769040290412
 20
1476.67196328526
 30
0.0
 11
948.7411556924671
 21
1476.67196328526
 31
0.0
  0
LINE
  5
7181
330
1F
100
AcDbEntity
  8
実形
  6
ACAD_ISO08W100
 48
0.5
100
AcDbLine
 10
1082.069343183913
 20
1318.077989528859
 30
0.0
 11
1082.069343183913
 21
1721.67196328526
 31
0.0
  0
CIRCLE
  5
7183
330
1F
100
AcDbEntity
  8
実形
100
AcDbCircle
 10
1082.069343183913
 20
1476.67196328526
 30
0.0
 40
80.0
  0
CIRCLE
  5
7184
330
1F
100
AcDbEntity
  8
実形
100
AcDbCircle
 10
1082.069343183913
 20
1476.67196328526
 30
0.0
 40
90.5
  0
LINE
  5
7185
330
1F
100
AcDbEntity
  8
実形
100
AcDbLine
 10
952.0693431839136
 20
1721.67196328526
 30
0.0
 11
1102.069343183913
 21
1721.67196328526
 31
0.0
  0
DIMENSION
  5
7186
330
1F
100
AcDbEntity
  8
実形
100
AcDbDimension
  2
*D13
 10
1082.069343183913
 20
1771.133105194594
 30
0.0
 11
1007.069343183913
 21
1790.233105194594
 31
0.0
 70
    32
 71
     5
 42
150.0
  3
ISO-25
100
AcDbAlignedDimension
 13
932.0693431839135
 23
1671.16833245791
 33
0.0
 14
1082.069343183913
 24
1671.16833245791
 34
0.0
100
AcDbRotatedDimension
1001
ACAD
1000
DSTYLE
1002
{
1070
    41
1040
10.0
1070
   140
1040
25.0
1070
   147
1040
6.599999999999998
1070
   279
1070
     2
1070
   342
1005
30D
1070
   371
1070
    18
1070
   372
1070
    18
1002
}
  0
DIMENSION
  5
719C
330
1F
100
AcDbEntity
  8
実形
100
AcDbDimension
  2
*D14
 10
1267.868761796235
 20
1246.67196328526
 30
0.0
 11
1248.768761796235
 21
1361.67196328526
 31
0.0
 70
    32
 71
     5
 42
230.0
  3
ISO-25
100
AcDbAlignedDimension
 13
1146.286389540604
 23
1476.67196328526
 33
0.0
 14
1146.286389540604
 24
1246.67196328526
 34
0.0
 50
90.0
100
AcDbRotatedDimension
1001
ACAD
1000
DSTYLE
1002
{
1070
    41
1040
10.0
1070
   140
1040
25.0
1070
   147
1040
6.599999999999998
1070
   279
1070
     2
1070
   342
1005
30D
1070
   371
1070
    18
1070
   372
1070
    18
1002
}
  0
TEXT
  5
73F5
330
1F
100
AcDbEntity
  8
実形
100
AcDbText
 10
1608.029626911547
 20
1323.472644132552
 30
0.0
 40
25.0
  1
6R
 72
     2
 11
1649.696293578214
 21
1320.139310799219
 31
0.0
100
AcDbText
 73
     1
  0
LEADER
  5
73F6
330
1F
100
AcDbEntity
  8
実形
100
AcDbLeader
  3
ISO-25
 76
     2
 10
1723.039279522991
 20
1253.756130021242
 30
0.0
 10
1651.900470773746
 20
1312.584390789378
 30
0.0
1001
ACAD
1000
DSTYLE
1002
{
1070
    77
1070
     0
1070
    41
1040
10.0
1070
   140
1040
30.0
1070
   147
1040
6.599999999999998
1070
   279
1070
     2
1070
   342
1005
30D
1070
   371
1070
    18
1070
   372
1070
    18
1002
}
  0
ARC
  5
7548
330
1F
100
AcDbEntity
  8
実形
100
AcDbCircle
 10
1726.069343183914
 20
1700.67196328526
 30
0.0
 40
6.0
100
AcDbArc
 50
0.0
 51
90.0
  0
ARC
  5
754A
330
1F
100
AcDbEntity
  8
実形
100
AcDbCircle
 10
1726.069343183913
 20
1252.67196328526
 30
0.0
 40
6.0
100
AcDbArc
 50
270.0
 51
0.0
  0
ARC
  5
754C
330
1F
100
AcDbEntity
  8
実形
100
AcDbCircle
 10
938.0693431839134
 20
1700.67196328526
 30
0.0
 40
6.0
100
AcDbArc
 50
89.99999999999998
 51
180.0
  0
ARC
  5
754E
330
1F
100
AcDbEntity
  8
実形
100
AcDbCircle
 10
938.0693431839135
 20
1252.67196328526
 30
0.0
 40
6.0
100
AcDbArc
 50
180.0
 51
270.0
  0
LINE
  5
774D
330
1F
100
AcDbEntity
  8
実形
 62
     0
100
AcDbLine
 10
2114.0
 20
263.9999999999991
 30
0.0
 11
2834.0
 21
263.9999999999991
 31
0.0
  0
LINE
  5
774E
330
1F
100
AcDbEntity
  8
実形
 62
     0
100
AcDbLine
 10
2114.0
 20
3.99999999999909
 30
0.0
 11
2114.0
 21
263.9999999999991
 31
0.0
  0
LINE
  5
774F
330
1F
100
AcDbEntity
  8
実形
 62
     0
100
AcDbLine
 10
2234.0
 20
68.99999999999909
 30
0.0
 11
2234.0
 21
263.9999999999992
 31
0.0
  0
TEXT
  5
7750
330
1F
100
AcDbEntity
  8
枠
 62
     0
100
AcDbText
 10
2137.833333333333
 20
213.9999999999991
 30
0.0
 40
35.0
  1
品名
 72
     4
 11
2174.0
 21
231.4999999999991
 31
0.0
100
AcDbText
  0
TEXT
  5
7751
330
1F
100
AcDbEntity
  8
実形
100
AcDbText
 10
2313.640535830596
 20
213.2308752843241
 30
0.0
 40
35.0
  1
ｱﾝﾀﾞｰｼﾝｸ
  7
ms明朝
 72
     4
 11
2416.040535830596
 21
230.8308752843241
 31
0.0
100
AcDbText
  0
DIMENSION
  5
77F4
330
1F
100
AcDbEntity
  8
実形
100
AcDbDimension
  2
*D16
 10
1732.069343183914
 20
1116.052064778423
 30
0.0
 11
1332.069343183913
 21
1135.152064778423
 31
0.0
 70
    32
 71
     5
 42
800.0000000000001
  3
ISO-25
100
AcDbAlignedDimension
 13
932.0693431839135
 23
1231.67196328526
 33
0.0
 14
1732.069343183914
 24
1231.671963285269
 34
0.0
100
AcDbRotatedDimension
1001
ACAD
1000
DSTYLE
1002
{
1070
    41
1040
10.0
1070
   140
1040
25.0
1070
   147
1040
6.599999999999998
1070
   279
1070
     2
1070
   342
1005
30D
1070
   371
1070
    18
1070
   372
1070
    18
1002
}
  0
DIMENSION
  5
7801
330
1F
100
AcDbEntity
  8
実形
100
AcDbDimension
  2
*D17
 10
1747.069343183914
 20
1116.052064778423
 30
0.0
 11
1780.923625212643
 21
1137.652064778423
 31
0.0
 70
   160
  1
15
 71
     5
 42
830.0
  3
ISO-25
100
AcDbAlignedDimension
 13
917.0693431839136
 23
1231.67196328526
 33
0.0
 14
1747.069343183914
 24
1231.67196328526
 34
0.0
100
AcDbRotatedDimension
1001
ACAD
1000
DSTYLE
1002
{
1070
    41
1040
10.0
1070
   140
1040
25.0
1070
   147
1040
6.599999999999998
1070
   279
1070
     2
1070
   342
1005
30D
1070
   371
1070
    18
1070
   372
1070
    18
1002
}
  0
TEXT
  5
7883
330
1F
100
AcDbEntity
  8
実形
 48
20.0
100
AcDbText
 10
864.711959489834
 20
1123.791931437335
 30
0.0
 40
25.0
  1
15
100
AcDbText
  0
DIMENSION
  5
78B2
330
1F
100
AcDbEntity
  8
実形
100
AcDbDimension
  2
*D18
 10
1747.069343183914
 20
1056.620716934234
 30
0.0
 11
1332.069343183913
 21
1075.720716934234
 31
0.0
 70
    32
 71
     5
 42
830.0
  3
ISO-25
100
AcDbAlignedDimension
 13
917.0693431839136
 23
1231.67196328526
 33
0.0
 14
1747.069343183914
 24
1231.67196328526
 34
0.0
100
AcDbRotatedDimension
1001
ACAD
1000
DSTYLE
1002
{
1070
    41
1040
10.0
1070
   147
1040
6.599999999999998
1070
   279
1070
     2
1070
   342
1005
30D
1070
   371
1070
    18
1070
   372
1070
    18
1002
}
  0
LINE
  5
7ADD
330
1F
100
AcDbEntity
  8
実形
100
AcDbLine
 10
1732.069343183914
 20
648.1402142854658
 30
0.0
 11
1732.069343183914
 21
465.9815122615352
 31
0.0
  0
ARC
  5
7ADE
330
1F
100
AcDbEntity
  8
実形
100
AcDbCircle
 10
1726.069343183914
 20
465.9815122615352
 30
0.0
 40
6.0
100
AcDbArc
 50
271.5357120154055
 51
0.0
  0
LINE
  5
7ADF
330
1F
100
AcDbEntity
  8
実形
100
AcDbLine
 10
917.0693431839136
 20
648.1402142854658
 30
0.0
 11
1747.069343183913
 21
648.1402142854658
 31
0.0
  0
LINE
  5
7AE0
330
1F
100
AcDbEntity
  8
実形
100
AcDbLine
 10
991.5693431839134
 20
445.1402142854658
 30
0.0
 11
1172.569343183913
 21
445.1402142854658
 31
0.0
  0
LINE
  5
7AE1
330
1F
100
AcDbEntity
  8
実形
100
AcDbLine
 10
991.5693431839132
 20
435.1402142854658
 30
0.0
 11
1172.569343183913
 21
435.1402142854658
 31
0.0
  0
LINE
  5
7AE2
330
1F
100
AcDbEntity
  8
実形
  6
ACAD_ISO08W100
 48
0.5
100
AcDbLine
 10
1082.069343183913
 20
539.9928904580028
 30
0.0
 11
1082.069343183913
 21
383.3116101223968
 31
0.0
  0
LINE
  5
7AE3
330
1F
100
AcDbEntity
  8
実形
100
AcDbLine
 10
1172.569343183913
 20
445.1402142854658
 30
0.0
 11
1172.569343183913
 21
435.1402142854658
 31
0.0
  0
LINE
  5
7AE4
330
1F
100
AcDbEntity
  8
実形
100
AcDbLine
 10
991.5693431839134
 20
445.1402142854658
 30
0.0
 11
991.5693431839134
 21
435.1402142854658
 31
0.0
  0
DIMENSION
  5
7AE5
330
1F
100
AcDbEntity
  8
実形
100
AcDbDimension
  2
*D19
 10
1162.069343183913
 20
318.2236157496082
 30
0.0
 11
1082.069343183913
 21
337.3236157496082
 31
0.0
 70
    32
 71
     5
 42
160.0000000000002
  3
ISO-25
100
AcDbAlignedDimension
 13
1002.069343183913
 23
435.1402142854656
 33
0.0
 14
1162.069343183913
 24
435.1402142854656
 34
0.0
100
AcDbRotatedDimension
1001
ACAD
1000
DSTYLE
1002
{
1070
    41
1040
10.0
1070
   140
1040
25.0
1070
   147
1040
6.599999999999998
1070
   279
1070
     2
1070
   342
1005
30D
1070
   371
1070
    18
1070
   372
1070
    18
1002
}
  0
DIMENSION
  5
7AE6
330
1F
100
AcDbEntity
  8
実形
100
AcDbDimension
  2
*D20
 10
1172.569343183913
 20
246.9813189343313
 30
0.0
 11
1082.069343183913
 21
266.0813189343313
 31
0.0
 70
    32
 71
     5
 42
180.9999999999995
  3
ISO-25
100
AcDbAlignedDimension
 13
991.5693431839134
 23
435.1402142854657
 33
0.0
 14
1172.569343183913
 24
435.1402142854615
 34
0.0
100
AcDbRotatedDimension
1001
ACAD
1000
DSTYLE
1002
{
1070
    41
1040
10.0
1070
   140
1040
25.0
1070
   147
1040
6.599999999999998
1070
   279
1070
     2
1070
   342
1005
30D
1070
   371
1070
    18
1070
   372
1070
    18
1002
}
  0
TEXT
  5
7AE7
330
1F
100
AcDbEntity
  8
実形
100
AcDbText
 10
1020.575251715984
 20
520.8518092267162
 30
0.0
 40
25.0
  1
6R
 72
     2
 11
1062.241918382651
 21
517.5184758933828
 31
0.0
100
AcDbText
 73
     1
  0
TEXT
  5
7AE8
330
1F
100
AcDbEntity
  8
実形
100
AcDbText
 10
1617.49163316097
 20
521.5894890692683
 30
0.0
 40
25.0
  1
6R
 72
     2
 11
1659.158299827637
 21
518.2561557359349
 31
0.0
100
AcDbText
 73
     1
  0
LEADER
  5
7AE9
330
1F
100
AcDbEntity
  8
実形
100
AcDbLeader
  3
ISO-25
 76
     2
 10
943.3420608522609
 20
468.4631834441588
 30
0.0
 10
1005.811883855942
 20
516.0471456705563
 30
0.0
1001
ACAD
1000
DSTYLE
1002
{
1070
    77
1070
     0
1070
    41
1040
10.0
1070
   140
1040
30.0
1070
   147
1040
6.599999999999998
1070
   279
1070
     2
1070
   342
1005
30D
1070
   371
1070
    18
1070
   372
1070
    18
1002
}
  0
LEADER
  5
7AEA
330
1F
100
AcDbEntity
  8
実形
100
AcDbLeader
  3
ISO-25
 76
     2
 10
1720.558258276631
 20
471.1085623642957
 30
0.0
 10
1672.608746435726
 20
519.9530523663015
 30
0.0
211
-1.0
221
0.0
231
0.0
1001
ACAD
1000
DSTYLE
1002
{
1070
    77
1070
     0
1070
    41
1040
10.0
1070
   140
1040
30.0
1070
   147
1040
6.599999999999998
1070
   279
1070
     2
1070
   342
1005
30D
1070
   371
1070
    18
1070
   372
1070
    18
1002
}
  0
LINE
  5
7AEB
330
1F
100
AcDbEntity
  8
実形
100
AcDbLine
 10
1172.569343183913
 20
445.1402142854658
 30
0.0
 11
1726.230143314998
 21
459.9836673720901
 31
0.0
  0
DIMENSION
  5
7AED
330
1F
100
AcDbEntity
  8
実形
100
AcDbDimension
  2
*D21
 10
785.6457745641555
 20
445.1402142854659
 30
0.0
 11
762.2086463233308
 21
546.1072578116636
 31
0.0
 70
   160
  1
190
 71
     5
 42
203.0
  3
ISO-25
100
AcDbAlignedDimension
 13
920.9192856134542
 23
648.1402142854658
 33
0.0
 14
920.919285613454
 24
445.1402142854658
 34
0.0
 50
90.0
100
AcDbRotatedDimension
1001
ACAD
1000
DSTYLE
1002
{
1070
    41
1040
10.0
1070
   147
1040
6.599999999999998
1070
   279
1070
     2
1070
   342
1005
30D
1070
   371
1070
    18
1070
   372
1070
    18
1002
}
  0
DIMENSION
  5
7AEE
330
1F
100
AcDbEntity
  8
実形
100
AcDbDimension
  2
*D22
 10
785.6457745641555
 20
464.8153369372906
 30
0.0
 11
764.5006726183346
 21
469.7486486192001
 31
0.0
 70
   160
  1
15
 71
     5
 42
183.3248773481752
  3
ISO-25
100
AcDbAlignedDimension
 13
920.919285613454
 23
648.1402142854658
 33
0.0
 14
920.9192856134539
 24
464.8153369372905
 34
0.0
 50
90.0
100
AcDbRotatedDimension
1001
ACAD
1000
DSTYLE
1002
{
1070
   140
1040
22.0
1070
    41
1040
10.0
1070
   147
1040
6.599999999999998
1070
   279
1070
     2
1070
   342
1005
30D
1070
   371
1070
    18
1070
   372
1070
    18
1002
}
  0
DIMENSION
  5
7AEF
330
1F
100
AcDbEntity
  8
実形
100
AcDbDimension
  2
*D23
 10
785.6457745641555
 20
435.1402142854658
 30
0.0
 11
766.5457745641553
 21
410.2598071548372
 31
0.0
 70
   160
  1
8
 71
     5
 42
213.0
  3
ISO-25
100
AcDbAlignedDimension
 13
920.9192856134542
 23
648.1402142854658
 33
0.0
 14
920.919285613454
 24
435.1402142854658
 34
0.0
 50
90.0
100
AcDbRotatedDimension
1001
ACAD
1000
DSTYLE
1002
{
1070
    41
1040
10.0
1070
   147
1040
6.599999999999998
1070
   279
1070
     2
1070
   342
1005
30D
1070
   371
1070
    18
1070
   372
1070
    18
1002
}
  0
DIMENSION
  5
7AF0
330
1F
100
AcDbEntity
  8
実形
100
AcDbDimension
  2
*D24
 10
721.28347099243
 20
445.1402142854658
 30
0.0
 11
702.1834709924299
 21
546.640214285466
 31
0.0
 70
    32
  1
205
 71
     5
 42
203.0000000000001
  3
ISO-25
100
AcDbAlignedDimension
 13
855.9192856134542
 23
648.1402142854658
 33
0.0
 14
855.9192856134542
 24
445.1402142854658
 34
0.0
 50
90.0
100
AcDbRotatedDimension
1001
ACAD
1000
DSTYLE
1002
{
1070
    41
1040
10.0
1070
   147
1040
6.599999999999998
1070
   279
1070
     2
1070
   342
1005
30D
1070
   371
1070
    18
1070
   372
1070
    18
1002
}
  0
DIMENSION
  5
7AF1
330
1F
100
AcDbEntity
  8
実形
100
AcDbDimension
  2
*D25
 10
664.3956797278725
 20
435.1402142854658
 30
0.0
 11
645.2956797278723
 21
541.6402142854661
 31
0.0
 70
    32
 71
     5
 42
213.0000000000001
  3
ISO-25
100
AcDbAlignedDimension
 13
920.9192856134542
 23
648.1402142854658
 33
0.0
 14
789.8563033807968
 24
435.1402142854658
 34
0.0
 50
90.0
100
AcDbRotatedDimension
1001
ACAD
1000
DSTYLE
1002
{
1070
    41
1040
10.0
1070
   147
1040
6.599999999999998
1070
   279
1070
     2
1070
   342
1005
30D
1070
   371
1070
    18
1070
   372
1070
    18
1002
}
  0
LINE
  5
7BD0
330
1F
100
AcDbEntity
  8
実形
100
AcDbLine
 10
932.0693431839139
 20
648.1402142854658
 30
0.0
 11
932.0693431839153
 21
451.1402142854656
 31
0.0
  0
ARC
  5
7BD1
330
1F
100
AcDbEntity
  8
実形
100
AcDbCircle
 10
938.0693431839153
 20
451.1402142854657
 30
0.0
 40
6.0
100
AcDbArc
 50
180.0
 51
270.0
  0
LINE
  5
7BD2
330
1F
100
AcDbEntity
  8
実形
100
AcDbLine
 10
991.5693431839134
 20
445.1402142854658
 30
0.0
 11
938.0693431839153
 21
445.1402142854657
 31
0.0
  0
TEXT
  5
7BF1
330
1F
100
AcDbEntity
  8
実形
100
AcDbText
 10
234.4197908184251
 20
117.5456368237055
 30
0.0
 40
30.0
  1
※排水口外周W35ｍｍ,H3ｍｍラウンドテーパ－有り。
 72
     4
 11
687.919790818425
 21
130.0456368237055
 31
0.0
100
AcDbText
  0
LINE
  5
7C80
330
1F
100
AcDbEntity
  8
実形
100
AcDbLine
 10
1970.944335355184
 20
1721.67196328526
 30
0.0
 11
1970.944335355184
 21
1476.67196328526
 31
0.0
  0
LINE
  5
7C81
330
1F
100
AcDbEntity
  8
実形
100
AcDbLine
 10
2175.944335355184
 20
1567.17196328526
 30
0.0
 11
2175.944335355184
 21
1386.17196328526
 31
0.0
  0
LINE
  5
7C82
330
1F
100
AcDbEntity
  8
実形
100
AcDbLine
 10
2185.944335355184
 20
1567.17196328526
 30
0.0
 11
2185.944335355184
 21
1386.17196328526
 31
0.0
  0
LINE
  5
7C83
330
1F
100
AcDbEntity
  8
実形
100
AcDbLine
 10
2185.944335355184
 20
1386.17196328526
 30
0.0
 11
2185.944335355184
 21
1567.17196328526
 31
0.0
  0
LINE
  5
7C84
330
1F
100
AcDbEntity
  8
実形
100
AcDbLine
 10
2175.944335355184
 20
1567.17196328526
 30
0.0
 11
2185.944335355184
 21
1567.17196328526
 31
0.0
  0
DIMENSION
  5
7C85
330
1F
100
AcDbEntity
  8
実形
100
AcDbDimension
  2
*D26
 10
2302.860933891041
 20
1556.67196328526
 30
0.0
 11
2283.760933891041
 21
1476.67196328526
 31
0.0
 70
    32
 71
     5
 42
160.0
  3
ISO-25
100
AcDbAlignedDimension
 13
2185.944335355184
 23
1396.67196328526
 33
0.0
 14
2185.944335355184
 24
1556.67196328526
 34
0.0
 50
90.0
100
AcDbRotatedDimension
1001
ACAD
1000
DSTYLE
1002
{
1070
    41
1040
10.0
1070
   140
1040
25.0
1070
   147
1040
6.599999999999998
1070
   279
1070
     2
1070
   342
1005
30D
1070
   371
1070
    18
1070
   372
1070
    18
1002
}
  0
DIMENSION
  5
7C86
330
1F
100
AcDbEntity
  8
実形
100
AcDbDimension
  2
*D27
 10
2374.103230706318
 20
1567.171963285259
 30
0.0
 11
2355.003230706318
 21
1476.67196328526
 31
0.0
 70
    32
 71
     5
 42
180.9999999999995
  3
ISO-25
100
AcDbAlignedDimension
 13
2185.944335355184
 23
1386.17196328526
 33
0.0
 14
2185.944335355188
 24
1567.171963285259
 34
0.0
 50
90.0
100
AcDbRotatedDimension
1001
ACAD
1000
DSTYLE
1002
{
1070
    41
1040
10.0
1070
   140
1040
25.0
1070
   147
1040
6.599999999999998
1070
   279
1070
     2
1070
   342
1005
30D
1070
   371
1070
    18
1070
   372
1070
    18
1002
}
  0
LINE
  5
7C87
330
1F
100
AcDbEntity
  8
実形
  6
ACAD_ISO08W100
 48
0.5
100
AcDbLine
 10
2091.388942936061
 20
1476.67196328526
 30
0.0
 11
2240.95637556932
 21
1476.67196328526
 31
0.0
  0
TEXT
  5
7C88
330
1F
100
AcDbEntity
  8
実形
100
AcDbText
 10
2040.737411435539
 20
1329.536970866724
 30
0.0
 40
25.0
  1
6R
 72
     2
 11
2082.404078102206
 21
1326.203637533391
 31
0.0
100
AcDbText
 73
     1
  0
LEADER
  5
7C89
330
1F
100
AcDbEntity
  8
実形
100
AcDbLeader
  3
ISO-25
 76
     2
 10
2149.886560411242
 20
1252.465003052394
 30
0.0
 10
2081.645338295165
 20
1321.652481632632
 30
0.0
1001
ACAD
1000
DSTYLE
1002
{
1070
    77
1070
     0
1070
    41
1040
10.0
1070
   140
1040
30.0
1070
   147
1040
6.599999999999998
1070
   279
1070
     2
1070
   342
1005
30D
1070
   371
1070
    18
1070
   372
1070
    18
1002
}
  0
LINE
  5
7C8A
330
1F
100
AcDbEntity
  8
実形
100
AcDbLine
 10
1970.944335355184
 20
1721.67196328526
 30
0.0
 11
1970.944335355184
 21
1476.67196328526
 31
0.0
  0
LINE
  5
7C8B
330
1F
100
AcDbEntity
  8
実形
  6
ACAD_ISO08W100
100
AcDbLine
 10
2160.944335355185
 20
1700.671963285261
 30
0.0
 11
2160.944335355184
 21
1476.67196328526
 31
0.0
  0
LINE
  5
7C8C
330
1F
100
AcDbEntity
  8
実形
100
AcDbLine
 10
2175.944335355184
 20
1386.17196328526
 30
0.0
 11
2185.944335355183
 21
1386.171963285259
 31
0.0
  0
LINE
  5
7C8D
330
1F
100
AcDbEntity
  8
実形
100
AcDbLine
 10
1970.944335355184
 20
1706.671963285262
 30
0.0
 11
2154.944335355185
 21
1706.671963285261
 31
0.0
  0
ARC
  5
7C8E
330
1F
100
AcDbEntity
  8
実形
100
AcDbCircle
 10
2154.944335355185
 20
1700.671963285261
 30
0.0
 40
6.0
100
AcDbArc
 50
0.0
 51
90.0
  0
LINE
  5
7C8F
330
1F
100
AcDbEntity
  8
実形
100
AcDbLine
 10
2175.944335355185
 20
1567.17196328526
 30
0.0
 11
2173.091182714893
 21
1700.822543456894
 31
0.0
  0
ARC
  5
7C90
330
1F
100
AcDbEntity
  8
実形
100
AcDbCircle
 10
2167.093072544855
 20
1700.671963285261
 30
0.0
 40
6.0
100
AcDbArc
 50
1.438085707406163
 51
90.0
  0
LINE
  5
7C91
330
1F
100
AcDbEntity
  8
実形
100
AcDbLine
 10
2154.944335355185
 20
1706.671963285261
 30
0.0
 11
2167.093072544855
 21
1706.671963285261
 31
0.0
  0
DIMENSION
  5
7C92
330
1F
100
AcDbEntity
  8
実形
100
AcDbDimension
  2
*D28
 10
2160.944335355183
 20
1153.042287832585
 30
0.0
 11
2070.820017655835
 21
1174.642287832585
 31
0.0
 70
   160
 71
     5
 42
189.9999999999995
  3
ISO-25
100
AcDbAlignedDimension
 13
1970.944335355184
 23
1198.752153897307
 33
0.0
 14
2160.944335355183
 24
1262.857741816848
 34
0.0
100
AcDbRotatedDimension
1001
ACAD
1000
DSTYLE
1002
{
1070
    41
1040
10.0
1070
   140
1040
25.0
1070
   147
1040
6.599999999999998
1070
   279
1070
     2
1070
   342
1005
30D
1070
   371
1070
    18
1070
   372
1070
    18
1002
}
  0
DIMENSION
  5
7C93
330
1F
100
AcDbEntity
  8
実形
100
AcDbDimension
  2
*D29
 10
2175.944335355183
 20
1153.042287832585
 30
0.0
 11
2210.932286267035
 21
1174.642287832585
 31
0.0
 70
   160
  1
15
 71
     5
 42
204.9999999999995
  3
ISO-25
100
AcDbAlignedDimension
 13
1970.944335355184
 23
1262.857741816848
 33
0.0
 14
2175.944335355183
 24
1262.906339132273
 34
0.0
100
AcDbRotatedDimension
1001
ACAD
1000
DSTYLE
1002
{
1070
    41
1040
10.0
1070
   140
1040
25.0
1070
   147
1040
6.599999999999998
1070
   279
1070
     2
1070
   342
1005
30D
1070
   371
1070
    18
1070
   372
1070
    18
1002
}
  0
DIMENSION
  5
7C94
330
1F
100
AcDbEntity
  8
実形
100
AcDbDimension
  2
*D30
 10
2175.944335355183
 20
1099.7720042677
 30
0.0
 11
2073.705203185642
 21
1118.8720042677
 31
0.0
 70
    32
  1
205
 71
     5
 42
204.4782643390822
  3
ISO-25
100
AcDbAlignedDimension
 13
1971.466071016101
 23
1230.910849371382
 33
0.0
 14
2175.944335355183
 24
1230.910849371382
 34
0.0
100
AcDbRotatedDimension
1001
ACAD
1000
DSTYLE
1002
{
1070
    41
1040
10.0
1070
   140
1040
25.0
1070
   147
1040
6.599999999999998
1070
   279
1070
     2
1070
   342
1005
30D
1070
   371
1070
    18
1070
   372
1070
    18
1002
}
  0
DIMENSION
  5
7C95
330
1F
100
AcDbEntity
  8
実形
100
AcDbDimension
  2
*D31
 10
2185.944335355184
 20
1099.7720042677
 30
0.0
 11
2209.7396598481
 21
1121.3720042677
 31
0.0
 70
   160
  1
8
 71
     5
 42
215.0
  3
ISO-25
100
AcDbAlignedDimension
 13
1970.944335355184
 23
1226.679416472726
 33
0.0
 14
2185.944335355184
 24
1213.680918535289
 34
0.0
100
AcDbRotatedDimension
1001
ACAD
1000
DSTYLE
1002
{
1070
    41
1040
10.0
1070
   140
1040
25.0
1070
   147
1040
6.599999999999998
1070
   279
1070
     2
1070
   342
1005
30D
1070
   371
1070
    18
1070
   372
1070
    18
1002
}
  0
DIMENSION
  5
7C96
330
1F
100
AcDbEntity
  8
実形
100
AcDbDimension
  2
*D32
 10
2185.944335355184
 20
1045.065992870272
 30
0.0
 11
2073.337005124883
 21
1066.665992870272
 31
0.0
 70
   160
  1
213
 71
     5
 42
215.0
  3
ISO-25
100
AcDbAlignedDimension
 13
1970.944335355184
 23
1230.910849371382
 33
0.0
 14
2185.944335355184
 24
1166.843436118578
 34
0.0
100
AcDbRotatedDimension
1001
ACAD
1000
DSTYLE
1002
{
1070
    41
1040
10.0
1070
   140
1040
25.0
1070
   147
1040
6.599999999999998
1070
   279
1070
     2
1070
   342
1005
30D
1070
   371
1070
    18
1070
   372
1070
    18
1002
}
  0
LINE
  5
7C97
330
1F
100
AcDbEntity
  8
実形
100
AcDbLine
 10
1970.944335355184
 20
1231.67196328526
 30
0.0
 11
1970.944335355184
 21
1476.67196328526
 31
0.0
  0
LINE
  5
7C98
330
1F
100
AcDbEntity
  8
実形
100
AcDbLine
 10
1970.944335355184
 20
1231.67196328526
 30
0.0
 11
1970.944335355184
 21
1476.67196328526
 31
0.0
  0
LINE
  5
7C99
330
1F
100
AcDbEntity
  8
実形
  6
ACAD_ISO08W100
100
AcDbLine
 10
2160.944335355185
 20
1252.671963285259
 30
0.0
 11
2160.944335355184
 21
1476.67196328526
 31
0.0
  0
LINE
  5
7C9A
330
1F
100
AcDbEntity
  8
実形
100
AcDbLine
 10
1970.944335355184
 20
1246.671963285258
 30
0.0
 11
2154.944335355185
 21
1246.671963285259
 31
0.0
  0
ARC
  5
7C9B
330
1F
100
AcDbEntity
  8
実形
100
AcDbCircle
 10
2154.944335355185
 20
1252.671963285259
 30
0.0
 40
6.0
100
AcDbArc
 50
270.0
 51
0.0
  0
LINE
  5
7C9C
330
1F
100
AcDbEntity
  8
実形
100
AcDbLine
 10
2175.944335355185
 20
1386.171963285259
 30
0.0
 11
2173.091182714893
 21
1252.521383113626
 31
0.0
  0
ARC
  5
7C9D
330
1F
100
AcDbEntity
  8
実形
100
AcDbCircle
 10
2167.093072544855
 20
1252.671963285259
 30
0.0
 40
6.0
100
AcDbArc
 50
270.0
 51
358.5619142925938
  0
LINE
  5
7C9E
330
1F
100
AcDbEntity
  8
実形
100
AcDbLine
 10
2154.944335355185
 20
1246.671963285259
 30
0.0
 11
2167.093072544855
 21
1246.671963285259
 31
0.0
  0
LINE
  5
7DC7
330
1F
100
AcDbEntity
  8
補助
 62
     0
100
AcDbLine
 10
2834.0
 20
1959.0
 30
0.0
 11
2069.387286519283
 21
1959.000000000001
 31
0.0
  0
LINE
  5
7DC8
330
1F
100
AcDbEntity
  8
補助
 62
     0
100
AcDbLine
 10
2834.0
 20
1894.0
 30
0.0
 11
2069.387286519283
 21
1894.0
 31
0.0
  0
LINE
  5
7DC9
330
1F
100
AcDbEntity
  8
補助
 62
     0
100
AcDbLine
 10
2252.547653420926
 20
1894.0
 30
0.0
 11
2252.547653420926
 21
2024.0
 31
0.0
  0
LINE
  5
7DCA
330
1F
100
AcDbEntity
  8
補助
 62
     0
100
AcDbLine
 10
2069.387286519283
 20
1894.0
 30
0.0
 11
2069.387286519283
 21
2024.0
 31
0.0
  0
TEXT
  5
7DCB
330
1F
100
AcDbEntity
  8
補助
 62
     0
100
AcDbText
 10
2100.295698850121
 20
1976.328571428572
 30
0.0
 40
30.0
  1
部品名
  7
明朝
 72
     4
 11
2166.124270278692
 21
1991.5
 31
0.0
100
AcDbText
  0
TEXT
  5
7DCC
330
1F
100
AcDbEntity
  8
補助
 62
     0
100
AcDbText
 10
2677.614285714286
 20
1976.071428571429
 30
0.0
 40
30.0
  1
厚さ
  7
明朝
 72
     4
 11
2721.5
 21
1991.5
 31
0.0
100
AcDbText
  0
LINE
  5
7DCD
330
1F
100
AcDbEntity
  8
補助
 62
     0
100
AcDbLine
 10
2609.0
 20
1894.0
 30
0.0
 11
2609.0
 21
2024.0
 31
0.0
  0
TEXT
  5
7DCE
330
1F
100
AcDbEntity
  8
補助
 62
     0
100
AcDbText
 10
2388.490869919937
 20
1975.947979478155
 30
0.0
 40
30.0
  1
材質
  7
明朝
 72
     4
 11
2432.376584205651
 21
1991.119408049583
 31
0.0
100
AcDbText
  0
TEXT
  5
7DCF
330
1F
100
AcDbEntity
  8
実形
 62
     0
100
AcDbText
 10
2098.227810657788
 20
1910.557142857143
 30
0.0
 40
30.0
  1
ボウル
  7
明朝
 72
     4
 11
2164.056382086359
 21
1926.5
 31
0.0
100
AcDbText
  0
TEXT
  5
7DD0
330
1F
100
AcDbEntity
  8
実形
 62
     0
100
AcDbText
 10
2644.700000000001
 20
1911.842857142857
 30
0.0
 40
30.0
  1
1.0ｍｍ
  7
明朝
 72
     4
 11
2721.500000000001
 21
1926.5
 31
0.0
100
AcDbText
  0
TEXT
  5
7DD1
330
1F
100
AcDbEntity
  8
実形
 62
     0
100
AcDbText
 10
2311.016869107866
 20
1910.728571428572
 30
0.0
 40
30.0
  1
SUS304（HL）
  7
明朝
 72
     4
 11
2442.674011965009
 21
1926.5
 31
0.0
100
AcDbText
  0
VIEWPORT
  5
2E
102
{ACAD_XDICTIONARY
360
7E47
102
}
330
1B
100
AcDbEntity
 67
     1
  8
0
100
AcDbViewport
 10
144.7270812988281
 20
101.2295806407928
 30
0.0
 40
411.6736216682419
 41
222.1517806396485
 68
     1
 69
     1
 12
144.7270812988281
 22
101.2295806407928
 13
0.0
 23
0.0
 14
10.0
 24
10.0
 15
10.0
 25
10.0
 16
0.0
 26
0.0
 36
1.0
 17
0.0
 27
0.0
 37
0.0
 42
50.0
 43
0.0
 44
0.0
 45
222.1517806396485
 50
0.0
 51
0.0
 72
   100
 90
    32800
  1

281
     0
 71
     1
 74
     0
110
0.0
120
0.0
130
0.0
111
1.0
121
0.0
131
0.0
112
0.0
122
1.0
132
0.0
 79
     0
146
0.0
  0
VIEWPORT
  5
30
102
{ACAD_XDICTIONARY
360
7E49
102
}
330
1B
100
AcDbEntity
 67
     1
  8
0
100
AcDbViewport
 10
139.2237563133239
 20
101.2295821905136
 30
0.0
 40
222.7580101013184
 41
161.9673315048218
 68
     2
 69
     2
 12
210.0
 22
148.5
 13
0.0
 23
0.0
 14
10.0
 24
10.0
 15
10.0
 25
10.0
 16
0.0
 26
0.0
 36
1.0
 17
0.0
 27
0.0
 37
0.0
 42
50.0
 43
0.0
 44
0.0
 45
309.0686705647124
 50
0.0
 51
0.0
 72
   100
 90
    32864
  1

281
     0
 71
     1
 74
     0
110
0.0
120
0.0
130
0.0
111
1.0
121
0.0
131
0.0
112
0.0
122
1.0
132
0.0
 79
     0
146
0.0
  0
ENDSEC
  0
SECTION
  2
OBJECTS
  0
DICTIONARY
  5
C
330
0
100
AcDbDictionary
281
     1
  3
ACAD_COLOR
350
22AD
  3
ACAD_GROUP
350
D
  3
ACAD_LAYOUT
350
1A
  3
ACAD_MATERIAL
350
22AC
  3
ACAD_MLINESTYLE
350
17
  3
ACAD_PLOTSETTINGS
350
19
  3
ACAD_PLOTSTYLENAME
350
E
  3
ACAD_TABLESTYLE
350
22AE
  3
AcadDim
350
124
  3
ACDBHEADERROUNDTRIPXREC
350
7E40
  3
AcDbVariableDictionary
350
1589
  3
DWGPROPS
350
7E3F
  0
DICTIONARY
  5
24C4
330
2
100
AcDbDictionary
280
     1
281
     1
  3
ACAD_LAYERFILTERS
360
6C37
  3
ACAD_LAYERSTATES
360
24C5
  3
ACLYDICTIONARY
360
6C36
  0
DICTIONARY
  5
2396
330
1F
100
AcDbDictionary
280
     1
281
     1
  3
ACAD_SORTENTS
360
2397
  0
DICTIONARY
  5
313E
330
313C
100
AcDbDictionary
280
     1
281
     1
  3
ACAD_SORTENTS
360
313F
  0
DICTIONARY
  5
3848
330
3846
100
AcDbDictionary
280
     1
281
     1
  3
ACAD_SORTENTS
360
3849
  0
DICTIONARY
  5
6B89
330
6B87
100
AcDbDictionary
280
     1
281
     1
  3
ACAD_SORTENTS
360
6B8A
  0
DICTIONARY
  5
6C02
330
6C00
100
AcDbDictionary
280
     1
281
     1
  3
ACAD_SORTENTS
360
6C03
  0
DICTIONARY
  5
7758
330
7752
100
AcDbDictionary
280
     1
281
     1
  3
ACAD_SORTENTS
360
7759
  0
DICTIONARY
  5
7E47
330
2E
100
AcDbDictionary
280
     1
281
     1
  3
ACAD_XREC_ROUNDTRIP
360
7E48
  0
DICTIONARY
  5
7E49
330
30
100
AcDbDictionary
280
     1
281
     1
  3
ACAD_XREC_ROUNDTRIP
360
7E4A
  0
DICTIONARY
  5
22AD
102
{ACAD_REACTORS
330
C
102
}
330
C
100
AcDbDictionary
281
     1
  0
DICTIONARY
  5
D
102
{ACAD_REACTORS
330
C
102
}
330
C
100
AcDbDictionary
281
     1
  0
DICTIONARY
  5
1A
102
{ACAD_REACTORS
330
C
102
}
330
C
100
AcDbDictionary
281
     1
  3
Model
350
22
  3
ﾚｲｱｳﾄ1
350
1E
  3
ﾚｲｱｳﾄ2
350
26
  0
DICTIONARY
  5
22AC
102
{ACAD_REACTORS
330
C
102
}
330
C
100
AcDbDictionary
281
     1
  0
DICTIONARY
  5
17
102
{ACAD_REACTORS
330
C
102
}
330
C
100
AcDbDictionary
281
     1
  3
Standard
350
18
  0
DICTIONARY
  5
19
102
{ACAD_REACTORS
330
C
102
}
330
C
100
AcDbDictionary
281
     1
  0
ACDBDICTIONARYWDFLT
  5
E
102
{ACAD_REACTORS
330
C
102
}
330
C
100
AcDbDictionary
281
     1
  3
Normal
350
F
100
AcDbDictionaryWithDefault
340
F
  0
DICTIONARY
  5
22AE
102
{ACAD_REACTORS
330
C
102
}
330
C
100
AcDbDictionary
281
     1
  3
Standard
350
22AF
  0
XRECORD
  5
124
102
{ACAD_REACTORS
330
C
102
}
330
C
100
AcDbXrecord
280
     1
 90
   990106
  3

 60
     0
 61
     0
 62
     1
 63
     3
 64
     0
 65
     0
 66
     0
 67
     3
 68
     1
 69
     0
 70
     0
 71
     0
 72
     0
 40
30.0
170
     0
  0
DICTIONARY
  5
7E40
102
{ACAD_REACTORS
330
C
102
}
330
C
100
AcDbDictionary
281
     1
  0
DICTIONARY
  5
1589
102
{ACAD_REACTORS
330
C
102
}
330
C
100
AcDbDictionary
281
     1
  3
CTABLESTYLE
350
22B5
  3
DIMASSOC
350
7E3C
  3
PROJECTNAME
350
7E3D
  3
SORTENTS
350
158A
  0
XRECORD
  5
7E3F
102
{ACAD_REACTORS
330
C
102
}
330
C
100
AcDbXrecord
280
     1
  1
DWGPROPS COOKIE
  2

  3

  4

  6

  7

  8

  9

300
=
301
=
302
=
303
=
304
=
305
=
306
=
307
=
308
=
309
=
 40
2.49160511574074
 41
2451673.575802199
 42
2458808.786252165
  1

 90
        0
  0
DICTIONARY
  5
6C37
102
{ACAD_REACTORS
330
24C4
102
}
330
24C4
100
AcDbDictionary
281
     1
  0
DICTIONARY
  5
24C5
102
{ACAD_REACTORS
330
24C4
102
}
330
24C4
100
AcDbDictionary
281
     1
  0
DICTIONARY
  5
6C36
102
{ACAD_REACTORS
330
24C4
102
}
330
24C4
100
AcDbDictionary
281
     1
1001
ACAD
1000
<All
  0
SORTENTSTABLE
  5
2397
102
{ACAD_REACTORS
330
2396
102
}
330
2396
100
AcDbSortentsTable
330
1F
331
1B85
  5
1B8F
331
702A
  5
7027
331
1B95
  5
1BA2
331
A0
  5
1B74
331
6E31
  5
1B73
331
1B84
  5
1B8E
331
7029
  5
70D5
331
1B94
  5
1BA1
331
7801
  5
79A7
331
754E
  5
7133
331
7028
  5
703F
331
1B93
  5
1B9D
331
7186
  5
72AB
331
5E68
  5
634F
331
7185
  5
729D
331
7027
  5
702B
331
1B92
  5
1B9C
331
70D5
  5
7183
331
77F4
  5
79A6
331
5E5F
  5
634E
331
7184
  5
729C
331
7026
  5
7026
331
1B91
  5
1B9B
331
754C
  5
7028
331
9C
  5
9C
331
719C
  5
72AC
331
7183
  5
7299
331
1B90
  5
1B99
331
7751
  5
7774
331
1B8F
  5
1B98
331
754A
  5
702E
331
6D9B
  5
1B7B
331
7750
  5
7773
331
1B8E
  5
1B97
331
68BC
  5
6D9A
331
7181
  5
7172
331
7883
  5
79A8
331
7079
  5
7180
331
1B8D
  5
1B96
331
7548
  5
702F
331
78B2
  5
79A9
331
7180
  5
7086
331
5D0B
  5
604B
331
1B8C
  5
1B95
331
774F
  5
7772
331
1B73
  5
1B86
331
70DF
  5
7298
331
1B8B
  5
1B94
331
73F6
  5
754D
331
774E
  5
7771
331
1B99
  5
37FF
331
73F5
  5
754C
331
1B8A
  5
1B93
331
7086
  5
7181
331
774D
  5
7770
331
1B98
  5
1BA8
331
272
  5
1B7F
331
1B88
  5
1B92
331
702D
  5
70DF
331
68D6
  5
6E28
331
1B87
  5
1B91
331
1B97
  5
1BA7
331
702C
  5
7078
331
1B86
  5
1B90
331
702B
  5
702C
331
1B96
  5
1BA6
  0
SORTENTSTABLE
  5
313F
102
{ACAD_REACTORS
330
313E
102
}
330
313E
100
AcDbSortentsTable
330
313C
  0
SORTENTSTABLE
  5
3849
102
{ACAD_REACTORS
330
3848
102
}
330
3848
100
AcDbSortentsTable
330
3846
  0
SORTENTSTABLE
  5
6B8A
102
{ACAD_REACTORS
330
6B89
102
}
330
6B89
100
AcDbSortentsTable
330
6B87
  0
SORTENTSTABLE
  5
6C03
102
{ACAD_REACTORS
330
6C02
102
}
330
6C02
100
AcDbSortentsTable
330
6C00
  0
SORTENTSTABLE
  5
7759
102
{ACAD_REACTORS
330
7758
102
}
330
7758
100
AcDbSortentsTable
330
7752
  0
XRECORD
  5
7E48
102
{ACAD_REACTORS
330
7E47
102
}
330
7E47
100
AcDbXrecord
280
     1
102
SHADEPLOT
 70
     0
  0
XRECORD
  5
7E4A
102
{ACAD_REACTORS
330
7E49
102
}
330
7E49
100
AcDbXrecord
280
     1
102
SHADEPLOT
 70
     0
  0
LAYOUT
  5
22
102
{ACAD_XDICTIONARY
360
7E43
102
}
102
{ACAD_REACTORS
330
1A
102
}
330
1A
100
AcDbPlotSettings
  1

  2
EPSON PM-800C
  4
A4
  6

 40
3.757083177566528
 41
14.7637300491333
 42
3.757080078125
 43
3.757080078125
 44
209.9733276367187
 45
296.9683227539062
 46
0.0
 47
0.0
 48
0.0
 49
0.0
140
0.0
141
0.0
142
1.0
143
10.0
 70
 11952
 72
     1
 73
     1
 74
     2
  7

 75
    20
147
0.1
148
0.0
149
0.0
100
AcDbLayout
  1
Model
 70
     1
 71
     0
 10
0.0
 20
0.0
 11
12.0
 21
9.0
 12
0.0
 22
0.0
 32
0.0
 14
0.0
 24
0.0
 34
0.0
 15
0.0
 25
0.0
 35
0.0
146
0.0
 13
0.0
 23
0.0
 33
0.0
 16
1.0
 26
0.0
 36
0.0
 17
0.0
 27
1.0
 37
0.0
 76
     0
330
1F
  0
LAYOUT
  5
1E
102
{ACAD_XDICTIONARY
360
7E41
102
}
102
{ACAD_REACTORS
330
1A
102
}
330
1A
100
AcDbPlotSettings
  1

  2
EPSON PM-800C
  4
A4
  6

 40
3.757083177566528
 41
14.7637300491333
 42
3.757080078125
 43
3.757080078125
 44
209.9733276367187
 45
296.9683227539062
 46
0.0
 47
0.0
 48
0.0
 49
0.0
140
0.0
141
0.0
142
1.0
143
1.0
 70
   688
 72
     1
 73
     1
 74
     5
  7

 75
    16
147
1.0
148
0.0
149
0.0
100
AcDbLayout
  1
ﾚｲｱｳﾄ1
 70
     1
 71
     1
 10
-3.757080078125
 20
-3.757083177566528
 11
293.2112426757813
 21
206.2162444591522
 12
0.0
 22
0.0
 32
0.0
 14
27.8447512626648
 24
20.24591643810271
 34
0.0
 15
250.6027613639831
 25
182.2132479429245
 35
0.0
146
0.0
 13
0.0
 23
0.0
 33
0.0
 16
1.0
 26
0.0
 36
0.0
 17
0.0
 27
1.0
 37
0.0
 76
     0
330
1B
331
2E
  0
LAYOUT
  5
26
102
{ACAD_XDICTIONARY
360
7E45
102
}
102
{ACAD_REACTORS
330
1A
102
}
330
1A
100
AcDbPlotSettings
  1

  2
EPSON PM-800C
  4

  6

 40
0.0
 41
0.0
 42
0.0
 43
0.0
 44
0.0
 45
0.0
 46
0.0
 47
0.0
 48
0.0
 49
0.0
140
0.0
141
0.0
142
1.0
143
1.0
 70
   688
 72
     0
 73
     0
 74
     5
  7

 75
    16
147
1.0
148
0.0
149
0.0
100
AcDbLayout
  1
ﾚｲｱｳﾄ2
 70
     1
 71
     2
 10
0.0
 20
0.0
 11
12.0
 21
9.0
 12
0.0
 22
0.0
 32
0.0
 14
0.0
 24
0.0
 34
0.0
 15
0.0
 25
0.0
 35
0.0
146
0.0
 13
0.0
 23
0.0
 33
0.0
 16
1.0
 26
0.0
 36
0.0
 17
0.0
 27
1.0
 37
0.0
 76
     0
330
23
  0
MLINESTYLE
  5
18
102
{ACAD_REACTORS
330
17
102
}
330
17
100
AcDbMlineStyle
  2
STANDARD
 70
     0
  3

 62
   256
 51
90.0
 52
90.0
 71
     2
 49
0.5
 62
   256
  6
BYLAYER
 49
-0.5
 62
   256
  6
BYLAYER
  0
ACDBPLACEHOLDER
  5
F
102
{ACAD_REACTORS
330
E
102
}
330
E
  0
TABLESTYLE
  5
22AF
102
{ACAD_REACTORS
330
22AE
102
}
330
22AE
100
AcDbTableStyle
  3
Standard
 70
     0
 71
     0
 40
1.5
 41
1.5
280
     0
281
     0
  7
Standard
140
4.5
170
     2
 62
     0
 63
     7
283
     0
274
    -2
284
     1
 64
     0
275
    -2
285
     1
 65
     0
276
    -2
286
     1
 66
     0
277
    -2
287
     1
 67
     0
278
    -2
288
     1
 68
     0
279
    -2
289
     1
 69
     0
  7
Standard
140
6.0
170
     5
 62
     0
 63
     7
283
     0
274
    -2
284
     1
 64
     0
275
    -2
285
     1
 65
     0
276
    -2
286
     1
 66
     0
277
    -2
287
     1
 67
     0
278
    -2
288
     1
 68
     0
279
    -2
289
     1
 69
     0
  7
Standard
140
4.5
170
     5
 62
     0
 63
     7
283
     0
274
    -2
284
     1
 64
     0
275
    -2
285
     1
 65
     0
276
    -2
286
     1
 66
     0
277
    -2
287
     1
 67
     0
278
    -2
288
     1
 68
     0
279
    -2
289
     1
 69
     0
  0
DICTIONARYVAR
  5
22B5
102
{ACAD_REACTORS
330
1589
102
}
330
1589
100
DictionaryVariables
280
     0
  1
STANDARD
  0
DICTIONARYVAR
  5
7E3C
102
{ACAD_REACTORS
330
1589
102
}
330
1589
100
DictionaryVariables
280
     0
  1
1
  0
DICTIONARYVAR
  5
7E3D
102
{ACAD_REACTORS
330
1589
102
}
330
1589
100
DictionaryVariables
280
     0
  1

  0
DICTIONARYVAR
  5
158A
102
{ACAD_REACTORS
330
1589
102
}
330
1589
100
DictionaryVariables
280
     0
  1
96
  0
DICTIONARY
  5
7E43
330
22
100
AcDbDictionary
280
     1
281
     1
  3
ACAD_XREC_ROUNDTRIP
360
7E44
  0
DICTIONARY
  5
7E41
330
1E
100
AcDbDictionary
280
     1
281
     1
  3
ACAD_XREC_ROUNDTRIP
360
7E42
  0
DICTIONARY
  5
7E45
330
26
100
AcDbDictionary
280
     1
281
     1
  3
ACAD_XREC_ROUNDTRIP
360
7E46
  0
XRECORD
  5
7E44
102
{ACAD_REACTORS
330
7E43
102
}
330
7E43
100
AcDbXrecord
280
     1
102
SHADEPLOT
 70
     0
102
SHADEPLOTRESLEVEL
 70
     2
102
SHADEPLOTCUSTOMDPI
 70
   300
  0
XRECORD
  5
7E42
102
{ACAD_REACTORS
330
7E41
102
}
330
7E41
100
AcDbXrecord
280
     1
102
SHADEPLOT
 70
     0
102
SHADEPLOTRESLEVEL
 70
     2
102
SHADEPLOTCUSTOMDPI
 70
   300
  0
XRECORD
  5
7E46
102
{ACAD_REACTORS
330
7E45
102
}
330
7E45
100
AcDbXrecord
280
     1
102
SHADEPLOT
 70
     0
102
SHADEPLOTRESLEVEL
 70
     2
102
SHADEPLOTCUSTOMDPI
 70
   300
  0
ENDSEC
  0
EOF
