  0
SECTION
  2
HEADER
  9
$ACADVER
  1
AC1015
  9
$ACADMAINTVER
 70
    20
  9
$DWGCODEPAGE
  3
ANSI_932
  9
$INSBASE
 10
0.0
 20
0.0
 30
0.0
  9
$EXTMIN
 10
174.0
 20
-392.3860966284574
 30
0.0
  9
$EXTMAX
 10
2834.0
 20
2024.0
 30
0.0
  9
$LIMMIN
 10
54.0
 20
4.0
  9
$LIMMAX
 10
2834.0
 20
2024.0
  9
$ORTHOMODE
 70
     0
  9
$REGENMODE
 70
     1
  9
$FILLMODE
 70
     1
  9
$QTEXTMODE
 70
     0
  9
$MIRRTEXT
 70
     1
  9
$LTSCALE
 40
4.0
  9
$ATTMODE
 70
     1
  9
$TEXTSIZE
 40
30.0
  9
$TRACEWID
 40
1.0
  9
$TEXTSTYLE
  7
Standard
  9
$CLAYER
  8
実形
  9
$CELTYPE
  6
ByLayer
  9
$CECOLOR
 62
     3
  9
$CELTSCALE
 40
1.0
  9
$DISPSILH
 70
     0
  9
$DIMSCALE
 40
1.0
  9
$DIMASZ
 40
10.0
  9
$DIMEXO
 40
65.0
  9
$DIMDLI
 40
3.75
  9
$DIMRND
 40
0.0
  9
$DIMDLE
 40
0.0
  9
$DIMEXE
 40
0.0
  9
$DIMTP
 40
0.0
  9
$DIMTM
 40
0.0
  9
$DIMTXT
 40
25.0
  9
$DIMCEN
 40
2.5
  9
$DIMTSZ
 40
0.0
  9
$DIMTOL
 70
     0
  9
$DIMLIM
 70
     0
  9
$DIMTIH
 70
     0
  9
$DIMTOH
 70
     0
  9
$DIMSE1
 70
     0
  9
$DIMSE2
 70
     0
  9
$DIMTAD
 70
     1
  9
$DIMZIN
 70
     8
  9
$DIMBLK
  1
Dot
  9
$DIMASO
 70
     1
  9
$DIMSHO
 70
     1
  9
$DIMPOST
  1

  9
$DIMAPOST
  1

  9
$DIMALT
 70
     0
  9
$DIMALTD
 70
     3
  9
$DIMALTF
 40
0.03937007874016
  9
$DIMLFAC
 40
1.0
  9
$DIMTOFL
 70
     1
  9
$DIMTVP
 40
0.0
  9
$DIMTIX
 70
     0
  9
$DIMSOXD
 70
     0
  9
$DIMSAH
 70
     0
  9
$DIMBLK1
  1

  9
$DIMBLK2
  1

  9
$DIMSTYLE
  2
ISO-25
  9
$DIMCLRD
 70
     0
  9
$DIMCLRE
 70
     0
  9
$DIMCLRT
 70
     0
  9
$DIMTFAC
 40
1.0
  9
$DIMGAP
 40
6.599999999999998
  9
$DIMJUST
 70
     0
  9
$DIMSD1
 70
     0
  9
$DIMSD2
 70
     0
  9
$DIMTOLJ
 70
     0
  9
$DIMTZIN
 70
     8
  9
$DIMALTZ
 70
     0
  9
$DIMALTTZ
 70
     0
  9
$DIMUPT
 70
     0
  9
$DIMDEC
 70
     2
  9
$DIMTDEC
 70
     2
  9
$DIMALTU
 70
     2
  9
$DIMALTTD
 70
     3
  9
$DIMTXSTY
  7
Standard
  9
$DIMAUNIT
 70
     0
  9
$DIMADEC
 70
     0
  9
$DIMALTRND
 40
0.0
  9
$DIMAZIN
 70
     0
  9
$DIMDSEP
 70
    46
  9
$DIMATFIT
 70
     3
  9
$DIMFRAC
 70
     0
  9
$DIMLDRBLK
  1
Open30
  9
$DIMLUNIT
 70
     2
  9
$DIMLWD
 70
    18
  9
$DIMLWE
 70
    18
  9
$DIMTMOVE
 70
     2
  9
$LUNITS
 70
     2
  9
$LUPREC
 70
     2
  9
$SKETCHINC
 40
1.0
  9
$FILLETRAD
 40
6.0
  9
$AUNITS
 70
     0
  9
$AUPREC
 70
     0
  9
$MENU
  1
.
  9
$ELEVATION
 40
0.0
  9
$PELEVATION
 40
0.0
  9
$THICKNESS
 40
0.0
  9
$LIMCHECK
 70
     1
  9
$CHAMFERA
 40
10.0
  9
$CHAMFERB
 40
10.0
  9
$CHAMFERC
 40
20.0
  9
$CHAMFERD
 40
0.0
  9
$SKPOLY
 70
     0
  9
$TDCREATE
 40
2451673.575802199
  9
$TDUCREATE
 40
2451673.200802199
  9
$TDUPDATE
 40
2458808.791158415
  9
$TDUUPDATE
 40
2458808.416158415
  9
$TDINDWG
 40
2.9281459259
  9
$TDUSRTIMER
 40
2.9281452315
  9
$USRTIMER
 70
     1
  9
$ANGBASE
 50
0.0
  9
$ANGDIR
 70
     0
  9
$PDMODE
 70
     0
  9
$PDSIZE
 40
0.0
  9
$PLINEWID
 40
0.0
  9
$SPLFRAME
 70
     0
  9
$SPLINETYPE
 70
     6
  9
$SPLINESEGS
 70
     8
  9
$HANDSEED
  5
B418
  9
$SURFTAB1
 70
     6
  9
$SURFTAB2
 70
     6
  9
$SURFTYPE
 70
     6
  9
$SURFU
 70
     6
  9
$SURFV
 70
     6
  9
$UCSBASE
  2

  9
$UCSNAME
  2

  9
$UCSORG
 10
0.0
 20
0.0
 30
0.0
  9
$UCSXDIR
 10
1.0
 20
0.0
 30
0.0
  9
$UCSYDIR
 10
0.0
 20
1.0
 30
0.0
  9
$UCSORTHOREF
  2

  9
$UCSORTHOVIEW
 70
     0
  9
$UCSORGTOP
 10
0.0
 20
0.0
 30
0.0
  9
$UCSORGBOTTOM
 10
0.0
 20
0.0
 30
0.0
  9
$UCSORGLEFT
 10
0.0
 20
0.0
 30
0.0
  9
$UCSORGRIGHT
 10
0.0
 20
0.0
 30
0.0
  9
$UCSORGFRONT
 10
0.0
 20
0.0
 30
0.0
  9
$UCSORGBACK
 10
0.0
 20
0.0
 30
0.0
  9
$PUCSBASE
  2

  9
$PUCSNAME
  2

  9
$PUCSORG
 10
0.0
 20
0.0
 30
0.0
  9
$PUCSXDIR
 10
1.0
 20
0.0
 30
0.0
  9
$PUCSYDIR
 10
0.0
 20
1.0
 30
0.0
  9
$PUCSORTHOREF
  2

  9
$PUCSORTHOVIEW
 70
     0
  9
$PUCSORGTOP
 10
0.0
 20
0.0
 30
0.0
  9
$PUCSORGBOTTOM
 10
0.0
 20
0.0
 30
0.0
  9
$PUCSORGLEFT
 10
0.0
 20
0.0
 30
0.0
  9
$PUCSORGRIGHT
 10
0.0
 20
0.0
 30
0.0
  9
$PUCSORGFRONT
 10
0.0
 20
0.0
 30
0.0
  9
$PUCSORGBACK
 10
0.0
 20
0.0
 30
0.0
  9
$USERI1
 70
     0
  9
$USERI2
 70
     0
  9
$USERI3
 70
     0
  9
$USERI4
 70
     0
  9
$USERI5
 70
     0
  9
$USERR1
 40
0.0
  9
$USERR2
 40
0.0
  9
$USERR3
 40
0.0
  9
$USERR4
 40
0.0
  9
$USERR5
 40
0.0
  9
$WORLDVIEW
 70
     1
  9
$SHADEDGE
 70
     3
  9
$SHADEDIF
 70
    70
  9
$TILEMODE
 70
     1
  9
$MAXACTVP
 70
    64
  9
$PINSBASE
 10
0.0
 20
0.0
 30
0.0
  9
$PLIMCHECK
 70
     0
  9
$PEXTMIN
 10
27.8447512626648
 20
20.24591643810271
 30
0.0
  9
$PEXTMAX
 10
250.6027613639831
 20
182.2132479429245
 30
0.0
  9
$PLIMMIN
 10
-3.757080078125
 20
-3.757083177566528
  9
$PLIMMAX
 10
293.2112426757813
 20
206.2162444591522
  9
$UNITMODE
 70
     0
  9
$VISRETAIN
 70
     1
  9
$PLINEGEN
 70
     0
  9
$PSLTSCALE
 70
     1
  9
$TREEDEPTH
 70
  3020
  9
$CMLSTYLE
  2
Standard
  9
$CMLJUST
 70
     0
  9
$CMLSCALE
 40
20.0
  9
$PROXYGRAPHICS
 70
     1
  9
$MEASUREMENT
 70
     1
  9
$CELWEIGHT
370
    -1
  9
$ENDCAPS
280
     0
  9
$JOINSTYLE
280
     0
  9
$LWDISPLAY
290
     0
  9
$INSUNITS
 70
     4
  9
$HYPERLINKBASE
  1

  9
$STYLESHEET
  1

  9
$XEDIT
290
     1
  9
$CEPSNTYPE
380
     0
  9
$PSTYLEMODE
290
     1
  9
$FINGERPRINTGUID
  2
{C8EA1F16-24C9-11D4-9416-CE0A3B32152F}
  9
$VERSIONGUID
  2
{15A8035D-045F-4BF7-A084-47E1D7852C27}
  9
$EXTNAMES
290
     1
  9
$PSVPSCALE
 40
0.0
  9
$OLESTARTUP
290
     0
  0
ENDSEC
  0
SECTION
  2
CLASSES
  0
CLASS
  1
ACDBDICTIONARYWDFLT
  2
AcDbDictionaryWithDefault
  3
ObjectDBX Classes
 90
        0
280
     0
281
     0
  0
CLASS
  1
ACDBPLACEHOLDER
  2
AcDbPlaceHolder
  3
ObjectDBX Classes
 90
        0
280
     0
281
     0
  0
CLASS
  1
LAYOUT
  2
AcDbLayout
  3
ObjectDBX Classes
 90
        0
280
     0
281
     0
  0
CLASS
  1
DICTIONARYVAR
  2
AcDbDictionaryVar
  3
ObjectDBX Classes
 90
        0
280
     0
281
     0
  0
CLASS
  1
TABLESTYLE
  2
AcDbTableStyle
  3
ObjectDBX Classes
 90
     2047
280
     0
281
     0
  0
CLASS
  1
SORTENTSTABLE
  2
AcDbSortentsTable
  3
ObjectDBX Classes
 90
        0
280
     0
281
     0
  0
ENDSEC
  0
SECTION
  2
TABLES
  0
TABLE
  2
VPORT
  5
8
330
0
100
AcDbSymbolTable
 70
     2
  0
VPORT
  5
B40B
330
8
100
AcDbSymbolTableRecord
100
AcDbViewportTableRecord
  2
*Active
 70
     0
 10
0.0
 20
0.0
 11
1.0
 21
1.0
 12
1672.138211518777
 22
995.3331026859315
 13
0.0
 23
0.0
 14
10.0
 24
10.0
 15
10.0
 25
10.0
 16
0.0
 26
0.0
 36
1.0
 17
0.0
 27
0.0
 37
0.0
 40
2676.91054472573
 41
1.29038112522686
 42
50.0
 43
0.0
 44
0.0
 50
0.0
 51
0.0
 71
     0
 72
   100
 73
     1
 74
     3
 75
     0
 76
     0
 77
     0
 78
     0
281
     0
 65
     1
110
0.0
120
0.0
130
0.0
111
1.0
121
0.0
131
0.0
112
0.0
122
1.0
132
0.0
 79
     0
146
0.0
  0
ENDTAB
  0
TABLE
  2
LTYPE
  5
5
330
0
100
AcDbSymbolTable
 70
    46
  0
LTYPE
  5
14
330
5
100
AcDbSymbolTableRecord
100
AcDbLinetypeTableRecord
  2
ByBlock
 70
     0
  3

 72
    65
 73
     0
 40
0.0
  0
LTYPE
  5
15
330
5
100
AcDbSymbolTableRecord
100
AcDbLinetypeTableRecord
  2
ByLayer
 70
     0
  3

 72
    65
 73
     0
 40
0.0
  0
LTYPE
  5
16
330
5
100
AcDbSymbolTableRecord
100
AcDbLinetypeTableRecord
  2
Continuous
 70
     0
  3
Solid line
 72
    65
 73
     0
 40
0.0
  0
LTYPE
  5
34
330
5
100
AcDbSymbolTableRecord
100
AcDbLinetypeTableRecord
  2
ACAD_ISO02W100
 70
     0
  3
ISO dash __ __ __ __ __ __ __ __ __ __ __ __ __
 72
    65
 73
     2
 40
15.0
 49
12.0
 74
     0
 49
-3.0
 74
     0
  0
LTYPE
  5
35
330
5
100
AcDbSymbolTableRecord
100
AcDbLinetypeTableRecord
  2
ACAD_ISO03W100
 70
     0
  3
ISO dash space __    __    __    __    __    __
 72
    65
 73
     2
 40
30.0
 49
12.0
 74
     0
 49
-18.0
 74
     0
  0
LTYPE
  5
36
330
5
100
AcDbSymbolTableRecord
100
AcDbLinetypeTableRecord
  2
ACAD_ISO04W100
 70
     0
  3
ISO long-dash dot ____ . ____ . ____ . ____ . _
 72
    65
 73
     4
 40
30.0
 49
24.0
 74
     0
 49
-3.0
 74
     0
 49
0.0
 74
     0
 49
-3.0
 74
     0
  0
LTYPE
  5
37
330
5
100
AcDbSymbolTableRecord
100
AcDbLinetypeTableRecord
  2
ACAD_ISO05W100
 70
     0
  3
ISO long-dash double-dot ____ .. ____ .. ____ .
 72
    65
 73
     6
 40
34.0
 49
24.0
 74
     0
 49
-3.0
 74
     0
 49
0.5
 74
     0
 49
-3.0
 74
     0
 49
0.5
 74
     0
 49
-3.0
 74
     0
  0
LTYPE
  5
38
330
5
100
AcDbSymbolTableRecord
100
AcDbLinetypeTableRecord
  2
ACAD_ISO06W100
 70
     0
  3
ISO long-dash triple-dot ____ ... ____ ... ____
 72
    65
 73
     8
 40
37.5
 49
24.0
 74
     0
 49
-3.0
 74
     0
 49
0.5
 74
     0
 49
-3.0
 74
     0
 49
0.5
 74
     0
 49
-3.0
 74
     0
 49
0.5
 74
     0
 49
-3.0
 74
     0
  0
LTYPE
  5
39
330
5
100
AcDbSymbolTableRecord
100
AcDbLinetypeTableRecord
  2
ACAD_ISO07W100
 70
     0
  3
ISO dot . . . . . . . . . . . . . . . . . . . .
 72
    65
 73
     2
 40
3.0
 49
0.0
 74
     0
 49
-3.0
 74
     0
  0
LTYPE
  5
3A
330
5
100
AcDbSymbolTableRecord
100
AcDbLinetypeTableRecord
  2
ACAD_ISO08W100
 70
     0
  3
ISO long-dash short-dash ____ __ ____ __ ____ _
 72
    65
 73
     4
 40
36.0
 49
24.0
 74
     0
 49
-3.0
 74
     0
 49
6.0
 74
     0
 49
-3.0
 74
     0
  0
LTYPE
  5
3B
330
5
100
AcDbSymbolTableRecord
100
AcDbLinetypeTableRecord
  2
ACAD_ISO09W100
 70
     0
  3
ISO long-dash double-short-dash ____ __ __ ____
 72
    65
 73
     6
 40
45.0
 49
24.0
 74
     0
 49
-3.0
 74
     0
 49
6.0
 74
     0
 49
-3.0
 74
     0
 49
6.0
 74
     0
 49
-3.0
 74
     0
  0
LTYPE
  5
3C
330
5
100
AcDbSymbolTableRecord
100
AcDbLinetypeTableRecord
  2
ACAD_ISO10W100
 70
     0
  3
ISO dash dot __ . __ . __ . __ . __ . __ . __ .
 72
    65
 73
     4
 40
18.0
 49
12.0
 74
     0
 49
-3.0
 74
     0
 49
0.0
 74
     0
 49
-3.0
 74
     0
  0
LTYPE
  5
3D
330
5
100
AcDbSymbolTableRecord
100
AcDbLinetypeTableRecord
  2
ACAD_ISO11W100
 70
     0
  3
ISO double-dash dot __ __ . __ __ . __ __ . __ 
 72
    65
 73
     6
 40
33.0
 49
12.0
 74
     0
 49
-3.0
 74
     0
 49
12.0
 74
     0
 49
-3.0
 74
     0
 49
0.0
 74
     0
 49
-3.0
 74
     0
  0
LTYPE
  5
3E
330
5
100
AcDbSymbolTableRecord
100
AcDbLinetypeTableRecord
  2
ACAD_ISO12W100
 70
     0
  3
ISO dash double-dot __ . . __ . . __ . . __ . .
 72
    65
 73
     6
 40
21.0
 49
12.0
 74
     0
 49
-3.0
 74
     0
 49
0.0
 74
     0
 49
-3.0
 74
     0
 49
0.0
 74
     0
 49
-3.0
 74
     0
  0
LTYPE
  5
3F
330
5
100
AcDbSymbolTableRecord
100
AcDbLinetypeTableRecord
  2
ACAD_ISO13W100
 70
     0
  3
ISO double-dash double-dot __ __ . . __ __ . . 
 72
    65
 73
     8
 40
36.0
 49
12.0
 74
     0
 49
-3.0
 74
     0
 49
12.0
 74
     0
 49
-3.0
 74
     0
 49
0.0
 74
     0
 49
-3.0
 74
     0
 49
0.0
 74
     0
 49
-3.0
 74
     0
  0
LTYPE
  5
40
330
5
100
AcDbSymbolTableRecord
100
AcDbLinetypeTableRecord
  2
ACAD_ISO14W100
 70
     0
  3
ISO dash triple-dot __ . . . __ . . . __ . . . 
 72
    65
 73
     8
 40
24.0
 49
12.0
 74
     0
 49
-3.0
 74
     0
 49
0.0
 74
     0
 49
-3.0
 74
     0
 49
0.0
 74
     0
 49
-3.0
 74
     0
 49
0.0
 74
     0
 49
-3.0
 74
     0
  0
LTYPE
  5
41
330
5
100
AcDbSymbolTableRecord
100
AcDbLinetypeTableRecord
  2
ACAD_ISO15W100
 70
     0
  3
ISO double-dash triple-dot __ __ . . . __ __ . 
 72
    65
 73
    10
 40
39.0
 49
12.0
 74
     0
 49
-3.0
 74
     0
 49
12.0
 74
     0
 49
-3.0
 74
     0
 49
0.0
 74
     0
 49
-3.0
 74
     0
 49
0.0
 74
     0
 49
-3.0
 74
     0
 49
0.0
 74
     0
 49
-3.0
 74
     0
  0
LTYPE
  5
42
330
5
100
AcDbSymbolTableRecord
100
AcDbLinetypeTableRecord
  2
BATTING
 70
     0
  3
Batting SSSSSSSSSSSSSSSSSSSSSSSSSSSSSSSSSSSSSSS
 72
    65
 73
     4
 40
10.16254
 49
0.00254
 74
     0
 49
-2.54
 74
     4
 75
   134
340
33
 46
2.54
 50
0.0
 44
-2.54
 45
0.0
 49
-5.08
 74
     4
 75
   134
340
33
 46
2.54
 50
180.0
 44
2.54
 45
0.0
 49
-2.54
 74
     0
  0
LTYPE
  5
43
330
5
100
AcDbSymbolTableRecord
100
AcDbLinetypeTableRecord
  2
BORDER
 70
     0
  3
Border __ __ . __ __ . __ __ . __ __ . __ __ .
 72
    65
 73
     6
 40
44.45
 49
12.7
 74
     0
 49
-6.349999999999999
 74
     0
 49
12.7
 74
     0
 49
-6.349999999999999
 74
     0
 49
0.0
 74
     0
 49
-6.349999999999999
 74
     0
  0
LTYPE
  5
44
330
5
100
AcDbSymbolTableRecord
100
AcDbLinetypeTableRecord
  2
BORDER2
 70
     0
  3
Border (.5x) __.__.__.__.__.__.__.__.__.__.__.
 72
    65
 73
     6
 40
22.225
 49
6.349999999999999
 74
     0
 49
-3.174999999999999
 74
     0
 49
6.349999999999999
 74
     0
 49
-3.174999999999999
 74
     0
 49
0.0
 74
     0
 49
-3.174999999999999
 74
     0
  0
LTYPE
  5
45
330
5
100
AcDbSymbolTableRecord
100
AcDbLinetypeTableRecord
  2
BORDERX2
 70
     0
  3
Border (2x) ____  ____  .  ____  ____  .  ___
 72
    65
 73
     6
 40
88.9
 49
25.4
 74
     0
 49
-12.7
 74
     0
 49
25.4
 74
     0
 49
-12.7
 74
     0
 49
0.0
 74
     0
 49
-12.7
 74
     0
  0
LTYPE
  5
46
330
5
100
AcDbSymbolTableRecord
100
AcDbLinetypeTableRecord
  2
CENTER
 70
     0
  3
Center ____ _ ____ _ ____ _ ____ _ ____ _ ____
 72
    65
 73
     4
 40
50.8
 49
31.75
 74
     0
 49
-6.349999999999999
 74
     0
 49
6.349999999999999
 74
     0
 49
-6.349999999999999
 74
     0
  0
LTYPE
  5
47
330
5
100
AcDbSymbolTableRecord
100
AcDbLinetypeTableRecord
  2
CENTER2
 70
     0
  3
Center (.5x) ___ _ ___ _ ___ _ ___ _ ___ _ ___
 72
    65
 73
     4
 40
28.575
 49
19.05
 74
     0
 49
-3.174999999999999
 74
     0
 49
3.174999999999999
 74
     0
 49
-3.174999999999999
 74
     0
  0
LTYPE
  5
48
330
5
100
AcDbSymbolTableRecord
100
AcDbLinetypeTableRecord
  2
CENTERX2
 70
     0
  3
Center (2x) ________  __  ________  __  _____
 72
    65
 73
     4
 40
101.6
 49
63.5
 74
     0
 49
-12.7
 74
     0
 49
12.7
 74
     0
 49
-12.7
 74
     0
  0
LTYPE
  5
49
330
5
100
AcDbSymbolTableRecord
100
AcDbLinetypeTableRecord
  2
DASHDOT
 70
     0
  3
Dash dot __ . __ . __ . __ . __ . __ . __ . __
 72
    65
 73
     4
 40
25.4
 49
12.7
 74
     0
 49
-6.349999999999999
 74
     0
 49
0.0
 74
     0
 49
-6.349999999999999
 74
     0
  0
LTYPE
  5
4A
330
5
100
AcDbSymbolTableRecord
100
AcDbLinetypeTableRecord
  2
DASHDOT2
 70
     0
  3
Dash dot (.5x) _._._._._._._._._._._._._._._.
 72
    65
 73
     4
 40
12.7
 49
6.349999999999999
 74
     0
 49
-3.174999999999999
 74
     0
 49
0.0
 74
     0
 49
-3.174999999999999
 74
     0
  0
LTYPE
  5
4B
330
5
100
AcDbSymbolTableRecord
100
AcDbLinetypeTableRecord
  2
DASHDOTX2
 70
     0
  3
Dash dot (2x) ____  .  ____  .  ____  .  ___
 72
    65
 73
     4
 40
50.8
 49
25.4
 74
     0
 49
-12.7
 74
     0
 49
0.0
 74
     0
 49
-12.7
 74
     0
  0
LTYPE
  5
4C
330
5
100
AcDbSymbolTableRecord
100
AcDbLinetypeTableRecord
  2
DASHED
 70
     0
  3
Dashed __ __ __ __ __ __ __ __ __ __ __ __ __ _
 72
    65
 73
     2
 40
19.05
 49
12.7
 74
     0
 49
-6.349999999999999
 74
     0
  0
LTYPE
  5
4D
330
5
100
AcDbSymbolTableRecord
100
AcDbLinetypeTableRecord
  2
DASHED2
 70
     0
  3
Dashed (.5x) _ _ _ _ _ _ _ _ _ _ _ _ _ _ _ _ _
 72
    65
 73
     2
 40
9.524999999999998
 49
6.349999999999999
 74
     0
 49
-3.174999999999999
 74
     0
  0
LTYPE
  5
4E
330
5
100
AcDbSymbolTableRecord
100
AcDbLinetypeTableRecord
  2
DASHEDX2
 70
     0
  3
Dashed (2x) ____  ____  ____  ____  ____  ___
 72
    65
 73
     2
 40
38.1
 49
25.4
 74
     0
 49
-12.7
 74
     0
  0
LTYPE
  5
4F
330
5
100
AcDbSymbolTableRecord
100
AcDbLinetypeTableRecord
  2
DIVIDE
 70
     0
  3
Divide ____ . . ____ . . ____ . . ____ . . ____
 72
    65
 73
     6
 40
31.75
 49
12.7
 74
     0
 49
-6.349999999999999
 74
     0
 49
0.0
 74
     0
 49
-6.349999999999999
 74
     0
 49
0.0
 74
     0
 49
-6.349999999999999
 74
     0
  0
LTYPE
  5
50
330
5
100
AcDbSymbolTableRecord
100
AcDbLinetypeTableRecord
  2
DIVIDE2
 70
     0
  3
Divide (.5x) __..__..__..__..__..__..__..__.._
 72
    65
 73
     6
 40
15.875
 49
6.349999999999999
 74
     0
 49
-3.174999999999999
 74
     0
 49
0.0
 74
     0
 49
-3.174999999999999
 74
     0
 49
0.0
 74
     0
 49
-3.174999999999999
 74
     0
  0
LTYPE
  5
51
330
5
100
AcDbSymbolTableRecord
100
AcDbLinetypeTableRecord
  2
DIVIDEX2
 70
     0
  3
Divide (2x) ________  .  .  ________  .  .  _
 72
    65
 73
     6
 40
63.49999999999999
 49
25.4
 74
     0
 49
-12.7
 74
     0
 49
0.0
 74
     0
 49
-12.7
 74
     0
 49
0.0
 74
     0
 49
-12.7
 74
     0
  0
LTYPE
  5
52
330
5
100
AcDbSymbolTableRecord
100
AcDbLinetypeTableRecord
  2
DOT
 70
     0
  3
Dot . . . . . . . . . . . . . . . . . . . . . .
 72
    65
 73
     2
 40
6.349999999999999
 49
0.0
 74
     0
 49
-6.349999999999999
 74
     0
  0
LTYPE
  5
53
330
5
100
AcDbSymbolTableRecord
100
AcDbLinetypeTableRecord
  2
DOT2
 70
     0
  3
Dot (.5x) .....................................
 72
    65
 73
     2
 40
3.174999999999999
 49
0.0
 74
     0
 49
-3.174999999999999
 74
     0
  0
LTYPE
  5
54
330
5
100
AcDbSymbolTableRecord
100
AcDbLinetypeTableRecord
  2
DOTX2
 70
     0
  3
Dot (2x) .  .  .  .  .  .  .  .  .  .  .  .  . 
 72
    65
 73
     2
 40
12.7
 49
0.0
 74
     0
 49
-12.7
 74
     0
  0
LTYPE
  5
55
330
5
100
AcDbSymbolTableRecord
100
AcDbLinetypeTableRecord
  2
FENCELINE1
 70
     0
  3
Fenceline circle ----0-----0----0-----0----0---
 72
    65
 73
     4
 40
36.83
 49
6.349999999999999
 74
     0
 49
-2.54
 74
     4
 75
   133
340
33
 46
2.54
 50
0.0
 44
-2.54
 45
0.0
 49
-2.54
 74
     0
 49
25.4
 74
     0
  0
LTYPE
  5
56
330
5
100
AcDbSymbolTableRecord
100
AcDbLinetypeTableRecord
  2
FENCELINE2
 70
     0
  3
Fenceline square ----[]-----[]----[]-----[]----
 72
    65
 73
     4
 40
36.83
 49
6.349999999999999
 74
     0
 49
-2.54
 74
     4
 75
   132
340
33
 46
2.54
 50
0.0
 44
-2.54
 45
0.0
 49
-2.54
 74
     0
 49
25.4
 74
     0
  0
LTYPE
  5
57
330
5
100
AcDbSymbolTableRecord
100
AcDbLinetypeTableRecord
  2
GAS_LINE
 70
     0
  3
Gas line ----GAS----GAS----GAS----GAS----GAS---
 72
    65
 73
     3
 40
24.13
 49
12.7
 74
     0
 49
-5.08
 74
     2
 75
     0
340
11
 46
2.54
 50
0.0
 44
-2.54
 45
-1.27
  9
GAS
 49
-6.349999999999999
 74
     0
  0
LTYPE
  5
58
330
5
100
AcDbSymbolTableRecord
100
AcDbLinetypeTableRecord
  2
HIDDEN
 70
     0
  3
Hidden __ __ __ __ __ __ __ __ __ __ __ __ __ _
 72
    65
 73
     2
 40
9.524999999999998
 49
6.349999999999999
 74
     0
 49
-3.174999999999999
 74
     0
  0
LTYPE
  5
59
330
5
100
AcDbSymbolTableRecord
100
AcDbLinetypeTableRecord
  2
HIDDEN2
 70
     0
  3
Hidden (.5x) _ _ _ _ _ _ _ _ _ _ _ _ _ _ _ _ _
 72
    65
 73
     2
 40
4.762499999999999
 49
3.174999999999999
 74
     0
 49
-1.587499999999999
 74
     0
  0
LTYPE
  5
5A
330
5
100
AcDbSymbolTableRecord
100
AcDbLinetypeTableRecord
  2
HIDDENX2
 70
     0
  3
Hidden (2x) ____ ____ ____ ____ ____ ____ ____
 72
    65
 73
     2
 40
19.05
 49
12.7
 74
     0
 49
-6.349999999999999
 74
     0
  0
LTYPE
  5
5B
330
5
100
AcDbSymbolTableRecord
100
AcDbLinetypeTableRecord
  2
HOT_WATER_SUPPLY
 70
     0
  3
Hot water supply ---- HW ---- HW ---- HW ----
 72
    65
 73
     3
 40
22.86
 49
12.7
 74
     0
 49
-5.08
 74
     2
 75
     0
340
11
 46
2.54
 50
0.0
 44
-2.54
 45
-1.27
  9
HW
 49
-5.08
 74
     0
  0
LTYPE
  5
5C
330
5
100
AcDbSymbolTableRecord
100
AcDbLinetypeTableRecord
  2
PHANTOM
 70
     0
  3
Phantom ______  __  __  ______  __  __  ______
 72
    65
 73
     6
 40
63.5
 49
31.75
 74
     0
 49
-6.349999999999999
 74
     0
 49
6.349999999999999
 74
     0
 49
-6.349999999999999
 74
     0
 49
6.349999999999999
 74
     0
 49
-6.349999999999999
 74
     0
  0
LTYPE
  5
5D
330
5
100
AcDbSymbolTableRecord
100
AcDbLinetypeTableRecord
  2
PHANTOM2
 70
     0
  3
Phantom (.5x) ___ _ _ ___ _ _ ___ _ _ ___ _ _
 72
    65
 73
     6
 40
31.75
 49
15.875
 74
     0
 49
-3.174999999999999
 74
     0
 49
3.174999999999999
 74
     0
 49
-3.174999999999999
 74
     0
 49
3.174999999999999
 74
     0
 49
-3.174999999999999
 74
     0
  0
LTYPE
  5
5E
330
5
100
AcDbSymbolTableRecord
100
AcDbLinetypeTableRecord
  2
PHANTOMX2
 70
     0
  3
Phantom (2x) ____________    ____    ____   _
 72
    65
 73
     6
 40
127.0
 49
63.5
 74
     0
 49
-12.7
 74
     0
 49
12.7
 74
     0
 49
-12.7
 74
     0
 49
12.7
 74
     0
 49
-12.7
 74
     0
  0
LTYPE
  5
5F
330
5
100
AcDbSymbolTableRecord
100
AcDbLinetypeTableRecord
  2
TRACKS
 70
     0
  3
Tracks -|-|-|-|-|-|-|-|-|-|-|-|-|-|-|-|-|-|-|-|
 72
    65
 73
     2
 40
7.62
 49
3.81
 74
     4
 75
   130
340
33
 46
6.349999999999999
 50
0.0
 44
0.0
 45
0.0
 49
3.81
 74
     0
  0
LTYPE
  5
60
330
5
100
AcDbSymbolTableRecord
100
AcDbLinetypeTableRecord
  2
ZIGZAG
 70
     0
  3
Zig zag /\/\/\/\/\/\/\/\/\/\/\/\/\/\/\/\/\/\/\/
 72
    65
 73
     4
 40
20.32254
 49
0.00254
 74
     0
 49
-5.08
 74
     4
 75
   131
340
33
 46
5.08
 50
0.0
 44
-5.08
 45
0.0
 49
-10.16
 74
     4
 75
   131
340
33
 46
5.08
 50
180.0
 44
5.08
 45
0.0
 49
-5.08
 74
     0
  0
ENDTAB
  0
TABLE
  2
LAYER
  5
2
102
{ACAD_XDICTIONARY
360
24C4
102
}
330
0
100
AcDbSymbolTable
 70
     9
  0
LAYER
  5
10
330
2
100
AcDbSymbolTableRecord
100
AcDbLayerTableRecord
  2
0
 70
     0
 62
     7
  6
Continuous
290
     0
370
    -3
390
F
  0
LAYER
  5
C3
330
2
100
AcDbSymbolTableRecord
100
AcDbLayerTableRecord
  2
Defpoints
 70
     0
 62
     7
  6
Continuous
290
     0
370
    -3
390
F
  0
LAYER
  5
256
330
2
100
AcDbSymbolTableRecord
100
AcDbLayerTableRecord
  2
センター
 70
     0
 62
     7
  6
CENTER2
370
    18
390
F
  0
LAYER
  5
268
330
2
100
AcDbSymbolTableRecord
100
AcDbLayerTableRecord
  2
実形
 70
     0
 62
     7
  6
Continuous
370
    -3
390
F
  0
LAYER
  5
269
330
2
100
AcDbSymbolTableRecord
100
AcDbLayerTableRecord
  2
補助
 70
     0
 62
     4
  6
Continuous
370
    -3
390
F
  0
LAYER
  5
26A
330
2
100
AcDbSymbolTableRecord
100
AcDbLayerTableRecord
  2
寸法
 70
     0
 62
     7
  6
Continuous
370
    18
390
F
  0
LAYER
  5
26B
330
2
100
AcDbSymbolTableRecord
100
AcDbLayerTableRecord
  2
ハッチング
 70
     0
 62
     7
  6
Continuous
370
    18
390
F
  0
LAYER
  5
26D
330
2
100
AcDbSymbolTableRecord
100
AcDbLayerTableRecord
  2
枠
 70
     0
 62
     7
  6
Continuous
370
    -3
390
F
  0
LAYER
  5
1B3D
330
2
100
AcDbSymbolTableRecord
100
AcDbLayerTableRecord
  2
Cen
 70
     0
 62
     7
  6
CENTER2
290
     0
370
    15
390
F
  0
ENDTAB
  0
TABLE
  2
STYLE
  5
3
330
0
100
AcDbSymbolTable
 70
     4
  0
STYLE
  5
11
330
3
100
AcDbSymbolTableRecord
100
AcDbTextStyleTableRecord
  2
Standard
 70
     0
 40
0.0
 41
1.0
 50
0.0
 71
     0
 42
30.0
  3
txt.shx
  4
bigfont.shx
  0
STYLE
  5
33
330
3
100
AcDbSymbolTableRecord
100
AcDbTextStyleTableRecord
  2

 70
     1
 40
0.0
 41
1.0
 50
0.0
 71
     0
 42
2.5
  3
ltypeshp.shx
  4

  0
STYLE
  5
35E2
330
3
100
AcDbSymbolTableRecord
100
AcDbTextStyleTableRecord
  2
ms明朝
 70
     0
 40
0.0
 41
1.0
 50
0.0
 71
     0
 42
25.0
  3
MS Mincho.ttf
  4

1001
ACAD
1000
MS Mincho
1071
    32785
  0
STYLE
  5
B3C5
330
3
100
AcDbSymbolTableRecord
100
AcDbTextStyleTableRecord
  2
明朝
 70
     0
 40
0.0
 41
1.0
 50
0.0
 71
     0
 42
25.0
  3
MS Mincho.ttf
  4

1001
ACAD
1000
MS Mincho
1071
    32785
  0
ENDTAB
  0
TABLE
  2
VIEW
  5
6
330
0
100
AcDbSymbolTable
 70
     0
  0
ENDTAB
  0
TABLE
  2
UCS
  5
7
330
0
100
AcDbSymbolTable
 70
     0
  0
ENDTAB
  0
TABLE
  2
APPID
  5
9
330
0
100
AcDbSymbolTable
 70
     3
  0
APPID
  5
12
330
9
100
AcDbSymbolTableRecord
100
AcDbRegAppTableRecord
  2
ACAD
 70
     0
  0
APPID
  5
24C3
330
9
100
AcDbSymbolTableRecord
100
AcDbRegAppTableRecord
  2
ACAD_PSEXT
 70
     0
  0
APPID
  5
8C42
330
9
100
AcDbSymbolTableRecord
100
AcDbRegAppTableRecord
  2
ACAD_DSTYLE_DIMTEXT_FILL
 70
     0
  0
ENDTAB
  0
TABLE
  2
DIMSTYLE
  5
A
330
0
100
AcDbSymbolTable
 70
     1
100
AcDbDimStyleTable
 71
     1
340
27
  0
DIMSTYLE
105
27
102
{ACAD_REACTORS
330
70F5
330
7102
330
7133
330
7140
330
7172
330
785C
330
786A
330
7877
330
79B0
330
79D8
330
7A0D
330
7A2E
330
7A4D
330
7B4E
330
7BA4
330
7BCC
330
8192
330
8193
330
8C23
330
8F2C
330
8FD3
330
8FE9
330
91ED
330
9E30
330
9E31
330
9E32
330
9E34
330
9E35
330
A46A
330
A753
330
A829
330
A85B
330
A8D8
330
A8F7
330
A904
330
A923
330
A966
330
AA38
330
AA39
330
AA3A
330
AA3B
330
AA3C
330
AA3D
330
AA3E
330
AC78
330
AC98
330
ACE4
330
ACFA
330
AD46
330
AD67
330
AD98
330
AF3D
330
AF92
330
AFD6
330
B0F6
102
}
330
A
100
AcDbSymbolTableRecord
100
AcDbDimStyleTableRecord
  2
ISO-25
 70
     0
 41
35.0
 42
65.0
 43
3.75
 44
0.0
 73
     0
 74
     0
 77
     1
 78
     8
140
25.0
141
2.5
143
0.03937007874016
147
6.25
171
     3
172
     1
271
     2
272
     2
274
     3
283
     0
284
     8
340
11
341
DA
342
D0
371
    15
372
    15
  0
ENDTAB
  0
TABLE
  2
BLOCK_RECORD
  5
1
330
0
100
AcDbSymbolTable
 70
    98
  0
BLOCK_RECORD
  5
1F
102
{ACAD_XDICTIONARY
360
2396
102
}
330
1
100
AcDbSymbolTableRecord
100
AcDbBlockTableRecord
  2
*Model_Space
340
22
  0
BLOCK_RECORD
  5
1B
330
1
100
AcDbSymbolTableRecord
100
AcDbBlockTableRecord
  2
*Paper_Space
340
1E
  0
BLOCK_RECORD
  5
23
330
1
100
AcDbSymbolTableRecord
100
AcDbBlockTableRecord
  2
*Paper_Space0
340
26
  0
BLOCK_RECORD
  5
D0
330
1
100
AcDbSymbolTableRecord
100
AcDbBlockTableRecord
  2
_DotSmall
340
0
  0
BLOCK_RECORD
  5
D4
330
1
100
AcDbSymbolTableRecord
100
AcDbBlockTableRecord
  2
_Origin2
340
0
  0
BLOCK_RECORD
  5
DA
330
1
100
AcDbSymbolTableRecord
100
AcDbBlockTableRecord
  2
_Open30
340
0
  0
BLOCK_RECORD
  5
2D6
330
1
100
AcDbSymbolTableRecord
100
AcDbBlockTableRecord
  2
A$C6CAC4411
340
0
  0
BLOCK_RECORD
  5
30D
330
1
100
AcDbSymbolTableRecord
100
AcDbBlockTableRecord
  2
_Dot
340
0
102
{BLKREFS
331
7F4A
331
7F4B
331
7F57
331
7F58
331
7F63
331
7F64
331
7F6E
331
7F6F
331
7F7A
331
7F7B
331
7F86
331
7F87
331
7F92
331
7F93
331
7F0E
331
7F0F
331
7F1B
331
7F1C
331
7F26
331
7F27
331
7F33
331
7F34
331
7F3E
331
7F3F
331
7F9E
331
7F9F
331
7FAA
331
7FAB
331
7FB6
331
7FB7
331
7FC2
331
7FC3
331
7FCE
331
7FCF
331
7FDB
331
7FDC
331
7FE6
331
7FE7
331
7FF3
331
7FF4
331
7FFE
331
7FFF
331
800B
331
800C
331
8017
331
8018
331
8022
331
8023
331
802E
331
802F
331
803B
331
803C
331
8052
331
8053
331
805E
331
805F
331
8047
331
8048
331
9B3C
331
9B3D
331
9B4E
331
9B4F
331
9B56
331
9B57
331
9B5F
331
9B60
331
9B69
331
9B6A
331
9B71
331
9B72
331
9B7A
331
9B7B
331
9B84
331
9B85
331
9B8E
331
9B8F
331
9BA8
331
9BA9
331
9BB2
331
9BB3
331
9BBA
331
9BBB
331
9BC3
331
9BC4
331
A438
331
A439
331
A4B0
331
A4B1
331
A4BA
331
A4BB
331
A4C2
331
A4C3
331
A4CC
331
A4CD
331
A4D4
331
A4D5
331
A4DD
331
A4DE
331
A53C
331
A53D
331
A545
331
A546
331
A64A
331
A64B
331
A776
331
A777
331
AE4D
331
AE4E
331
AE56
331
AE57
331
AE5E
331
AE5F
331
AE68
331
AE69
331
AE71
331
AE72
331
AE79
331
AE7A
331
AE83
331
AE84
331
AED3
331
AED4
331
AEDD
331
AEDE
331
AEE5
331
AEE6
331
AEEE
331
AEEF
331
AEF7
331
AEF8
331
AFEF
331
AFF0
331
B23B
331
B23C
331
B24D
331
B24E
331
B25F
331
B260
331
B268
331
B269
331
B270
331
B271
331
B279
331
B27A
331
B283
331
B284
331
B28C
331
B28D
331
B295
331
B296
331
B2AF
331
B2B0
331
B2B9
331
B2BA
331
B2C1
331
B2C2
331
B2CB
331
B2CC
331
B2E5
331
B2E6
331
B330
331
B331
331
B339
331
B33A
331
B355
331
B356
331
B35D
331
B35E
102
}
  0
BLOCK_RECORD
  5
313C
102
{ACAD_XDICTIONARY
360
313E
102
}
330
1
100
AcDbSymbolTableRecord
100
AcDbBlockTableRecord
  2
A$C6850087C
340
0
  0
BLOCK_RECORD
  5
3846
102
{ACAD_XDICTIONARY
360
3848
102
}
330
1
100
AcDbSymbolTableRecord
100
AcDbBlockTableRecord
  2
A$C71387EE1
340
0
  0
BLOCK_RECORD
  5
6B87
102
{ACAD_XDICTIONARY
360
6B89
102
}
330
1
100
AcDbSymbolTableRecord
100
AcDbBlockTableRecord
  2
A$C47AF373A
340
0
  0
BLOCK_RECORD
  5
6C00
102
{ACAD_XDICTIONARY
360
6C02
102
}
330
1
100
AcDbSymbolTableRecord
100
AcDbBlockTableRecord
  2
A$C2B9560D8
340
0
  0
BLOCK_RECORD
  5
70F6
330
1
100
AcDbSymbolTableRecord
100
AcDbBlockTableRecord
  2
*D10
340
0
  0
BLOCK_RECORD
  5
7103
330
1
100
AcDbSymbolTableRecord
100
AcDbBlockTableRecord
  2
*D11
340
0
  0
BLOCK_RECORD
  5
7134
330
1
100
AcDbSymbolTableRecord
100
AcDbBlockTableRecord
  2
*D12
340
0
  0
BLOCK_RECORD
  5
7141
330
1
100
AcDbSymbolTableRecord
100
AcDbBlockTableRecord
  2
*D13
340
0
  0
BLOCK_RECORD
  5
7173
330
1
100
AcDbSymbolTableRecord
100
AcDbBlockTableRecord
  2
*D14
340
0
  0
BLOCK_RECORD
  5
7752
102
{ACAD_XDICTIONARY
360
7758
102
}
330
1
100
AcDbSymbolTableRecord
100
AcDbBlockTableRecord
  2
A$C113940D1
340
0
  0
BLOCK_RECORD
  5
785D
330
1
100
AcDbSymbolTableRecord
100
AcDbBlockTableRecord
  2
*D16
340
0
  0
BLOCK_RECORD
  5
786B
330
1
100
AcDbSymbolTableRecord
100
AcDbBlockTableRecord
  2
*D17
340
0
  0
BLOCK_RECORD
  5
7878
330
1
100
AcDbSymbolTableRecord
100
AcDbBlockTableRecord
  2
*D18
340
0
  0
BLOCK_RECORD
  5
79A0
102
{ACAD_XDICTIONARY
360
79A2
102
}
330
1
100
AcDbSymbolTableRecord
100
AcDbBlockTableRecord
  2
A$C34481AC4
340
0
  0
BLOCK_RECORD
  5
79B1
330
1
100
AcDbSymbolTableRecord
100
AcDbBlockTableRecord
  2
*D20
340
0
  0
BLOCK_RECORD
  5
79D9
330
1
100
AcDbSymbolTableRecord
100
AcDbBlockTableRecord
  2
*D21
340
0
  0
BLOCK_RECORD
  5
7A0E
330
1
100
AcDbSymbolTableRecord
100
AcDbBlockTableRecord
  2
*D22
340
0
  0
BLOCK_RECORD
  5
7A2F
330
1
100
AcDbSymbolTableRecord
100
AcDbBlockTableRecord
  2
*D23
340
0
  0
BLOCK_RECORD
  5
7A4E
330
1
100
AcDbSymbolTableRecord
100
AcDbBlockTableRecord
  2
*D24
340
0
  0
BLOCK_RECORD
  5
7B4F
330
1
100
AcDbSymbolTableRecord
100
AcDbBlockTableRecord
  2
*D25
340
0
  0
BLOCK_RECORD
  5
7BA5
330
1
100
AcDbSymbolTableRecord
100
AcDbBlockTableRecord
  2
*D26
340
0
  0
BLOCK_RECORD
  5
7BCD
330
1
100
AcDbSymbolTableRecord
100
AcDbBlockTableRecord
  2
*D27
340
0
  0
BLOCK_RECORD
  5
7F09
330
1
100
AcDbSymbolTableRecord
100
AcDbBlockTableRecord
  2
*D28
340
0
  0
BLOCK_RECORD
  5
7F15
330
1
100
AcDbSymbolTableRecord
100
AcDbBlockTableRecord
  2
*D29
340
0
  0
BLOCK_RECORD
  5
7F21
330
1
100
AcDbSymbolTableRecord
100
AcDbBlockTableRecord
  2
*D30
340
0
  0
BLOCK_RECORD
  5
7F2D
330
1
100
AcDbSymbolTableRecord
100
AcDbBlockTableRecord
  2
*D31
340
0
  0
BLOCK_RECORD
  5
7F39
330
1
100
AcDbSymbolTableRecord
100
AcDbBlockTableRecord
  2
*D32
340
0
  0
BLOCK_RECORD
  5
7F45
330
1
100
AcDbSymbolTableRecord
100
AcDbBlockTableRecord
  2
*D33
340
0
  0
BLOCK_RECORD
  5
7F51
330
1
100
AcDbSymbolTableRecord
100
AcDbBlockTableRecord
  2
*D34
340
0
  0
BLOCK_RECORD
  5
7F5D
330
1
100
AcDbSymbolTableRecord
100
AcDbBlockTableRecord
  2
*D35
340
0
  0
BLOCK_RECORD
  5
7F69
330
1
100
AcDbSymbolTableRecord
100
AcDbBlockTableRecord
  2
*D36
340
0
  0
BLOCK_RECORD
  5
7F75
330
1
100
AcDbSymbolTableRecord
100
AcDbBlockTableRecord
  2
*D37
340
0
  0
BLOCK_RECORD
  5
7F81
330
1
100
AcDbSymbolTableRecord
100
AcDbBlockTableRecord
  2
*D38
340
0
  0
BLOCK_RECORD
  5
7F8D
330
1
100
AcDbSymbolTableRecord
100
AcDbBlockTableRecord
  2
*D39
340
0
  0
BLOCK_RECORD
  5
7F99
330
1
100
AcDbSymbolTableRecord
100
AcDbBlockTableRecord
  2
*D40
340
0
  0
BLOCK_RECORD
  5
7FA5
330
1
100
AcDbSymbolTableRecord
100
AcDbBlockTableRecord
  2
*D41
340
0
  0
BLOCK_RECORD
  5
7FB1
330
1
100
AcDbSymbolTableRecord
100
AcDbBlockTableRecord
  2
*D42
340
0
  0
BLOCK_RECORD
  5
7FBD
330
1
100
AcDbSymbolTableRecord
100
AcDbBlockTableRecord
  2
*D43
340
0
  0
BLOCK_RECORD
  5
7FC9
330
1
100
AcDbSymbolTableRecord
100
AcDbBlockTableRecord
  2
*D44
340
0
  0
BLOCK_RECORD
  5
7FD5
330
1
100
AcDbSymbolTableRecord
100
AcDbBlockTableRecord
  2
*D45
340
0
  0
BLOCK_RECORD
  5
7FE1
330
1
100
AcDbSymbolTableRecord
100
AcDbBlockTableRecord
  2
*D46
340
0
  0
BLOCK_RECORD
  5
7FED
330
1
100
AcDbSymbolTableRecord
100
AcDbBlockTableRecord
  2
*D47
340
0
  0
BLOCK_RECORD
  5
7FF9
330
1
100
AcDbSymbolTableRecord
100
AcDbBlockTableRecord
  2
*D48
340
0
  0
BLOCK_RECORD
  5
8005
330
1
100
AcDbSymbolTableRecord
100
AcDbBlockTableRecord
  2
*D49
340
0
  0
BLOCK_RECORD
  5
8011
330
1
100
AcDbSymbolTableRecord
100
AcDbBlockTableRecord
  2
*D50
340
0
  0
BLOCK_RECORD
  5
801D
330
1
100
AcDbSymbolTableRecord
100
AcDbBlockTableRecord
  2
*D51
340
0
  0
BLOCK_RECORD
  5
8029
330
1
100
AcDbSymbolTableRecord
100
AcDbBlockTableRecord
  2
*D52
340
0
  0
BLOCK_RECORD
  5
8035
330
1
100
AcDbSymbolTableRecord
100
AcDbBlockTableRecord
  2
*D53
340
0
  0
BLOCK_RECORD
  5
8041
330
1
100
AcDbSymbolTableRecord
100
AcDbBlockTableRecord
  2
*D54
340
0
  0
BLOCK_RECORD
  5
804D
330
1
100
AcDbSymbolTableRecord
100
AcDbBlockTableRecord
  2
*D55
340
0
  0
BLOCK_RECORD
  5
8059
330
1
100
AcDbSymbolTableRecord
100
AcDbBlockTableRecord
  2
*D56
340
0
  0
BLOCK_RECORD
  5
8065
102
{ACAD_XDICTIONARY
360
80F8
102
}
330
1
100
AcDbSymbolTableRecord
100
AcDbBlockTableRecord
  2
RAS800-510GRM
340
0
  0
BLOCK_RECORD
  5
81D4
330
1
100
AcDbSymbolTableRecord
100
AcDbBlockTableRecord
  2
*D58
340
0
  0
BLOCK_RECORD
  5
81E0
330
1
100
AcDbSymbolTableRecord
100
AcDbBlockTableRecord
  2
*D59
340
0
  0
BLOCK_RECORD
  5
8C24
330
1
100
AcDbSymbolTableRecord
100
AcDbBlockTableRecord
  2
*D60
340
0
  0
BLOCK_RECORD
  5
8F2D
330
1
100
AcDbSymbolTableRecord
100
AcDbBlockTableRecord
  2
*D61
340
0
  0
BLOCK_RECORD
  5
8FD4
330
1
100
AcDbSymbolTableRecord
100
AcDbBlockTableRecord
  2
*D62
340
0
  0
BLOCK_RECORD
  5
8FEA
330
1
100
AcDbSymbolTableRecord
100
AcDbBlockTableRecord
  2
*D63
340
0
  0
BLOCK_RECORD
  5
91FA
330
1
100
AcDbSymbolTableRecord
100
AcDbBlockTableRecord
  2
*D64
340
0
  0
BLOCK_RECORD
  5
9C3F
102
{ACAD_XDICTIONARY
360
9C43
102
}
330
1
100
AcDbSymbolTableRecord
100
AcDbBlockTableRecord
  2
A$C6212596F
340
0
  0
BLOCK_RECORD
  5
9E38
330
1
100
AcDbSymbolTableRecord
100
AcDbBlockTableRecord
  2
*D66
340
0
  0
BLOCK_RECORD
  5
9E44
330
1
100
AcDbSymbolTableRecord
100
AcDbBlockTableRecord
  2
*D67
340
0
  0
BLOCK_RECORD
  5
9E50
330
1
100
AcDbSymbolTableRecord
100
AcDbBlockTableRecord
  2
*D68
340
0
  0
BLOCK_RECORD
  5
9E5C
330
1
100
AcDbSymbolTableRecord
100
AcDbBlockTableRecord
  2
*D69
340
0
  0
BLOCK_RECORD
  5
9E68
330
1
100
AcDbSymbolTableRecord
100
AcDbBlockTableRecord
  2
*D70
340
0
  0
BLOCK_RECORD
  5
A46B
330
1
100
AcDbSymbolTableRecord
100
AcDbBlockTableRecord
  2
*D71
340
0
  0
BLOCK_RECORD
  5
A754
330
1
100
AcDbSymbolTableRecord
100
AcDbBlockTableRecord
  2
*D72
340
0
  0
BLOCK_RECORD
  5
A82A
330
1
100
AcDbSymbolTableRecord
100
AcDbBlockTableRecord
  2
*D73
340
0
  0
BLOCK_RECORD
  5
A85C
330
1
100
AcDbSymbolTableRecord
100
AcDbBlockTableRecord
  2
*D74
340
0
  0
BLOCK_RECORD
  5
A8D9
330
1
100
AcDbSymbolTableRecord
100
AcDbBlockTableRecord
  2
*D75
340
0
  0
BLOCK_RECORD
  5
A8F8
330
1
100
AcDbSymbolTableRecord
100
AcDbBlockTableRecord
  2
*D76
340
0
  0
BLOCK_RECORD
  5
A905
330
1
100
AcDbSymbolTableRecord
100
AcDbBlockTableRecord
  2
*D77
340
0
  0
BLOCK_RECORD
  5
A924
330
1
100
AcDbSymbolTableRecord
100
AcDbBlockTableRecord
  2
*D78
340
0
  0
BLOCK_RECORD
  5
A967
330
1
100
AcDbSymbolTableRecord
100
AcDbBlockTableRecord
  2
*D79
340
0
  0
BLOCK_RECORD
  5
AA3F
330
1
100
AcDbSymbolTableRecord
100
AcDbBlockTableRecord
  2
*D80
340
0
  0
BLOCK_RECORD
  5
AA4B
330
1
100
AcDbSymbolTableRecord
100
AcDbBlockTableRecord
  2
*D81
340
0
  0
BLOCK_RECORD
  5
AA57
330
1
100
AcDbSymbolTableRecord
100
AcDbBlockTableRecord
  2
*D82
340
0
  0
BLOCK_RECORD
  5
AA63
330
1
100
AcDbSymbolTableRecord
100
AcDbBlockTableRecord
  2
*D83
340
0
  0
BLOCK_RECORD
  5
AA6F
330
1
100
AcDbSymbolTableRecord
100
AcDbBlockTableRecord
  2
*D84
340
0
  0
BLOCK_RECORD
  5
AA7B
330
1
100
AcDbSymbolTableRecord
100
AcDbBlockTableRecord
  2
*D85
340
0
  0
BLOCK_RECORD
  5
AA87
330
1
100
AcDbSymbolTableRecord
100
AcDbBlockTableRecord
  2
*D86
340
0
  0
BLOCK_RECORD
  5
AC79
330
1
100
AcDbSymbolTableRecord
100
AcDbBlockTableRecord
  2
*D87
340
0
  0
BLOCK_RECORD
  5
AC99
330
1
100
AcDbSymbolTableRecord
100
AcDbBlockTableRecord
  2
*D88
340
0
  0
BLOCK_RECORD
  5
ACE5
330
1
100
AcDbSymbolTableRecord
100
AcDbBlockTableRecord
  2
*D89
340
0
  0
BLOCK_RECORD
  5
ACFB
330
1
100
AcDbSymbolTableRecord
100
AcDbBlockTableRecord
  2
*D90
340
0
  0
BLOCK_RECORD
  5
AD47
330
1
100
AcDbSymbolTableRecord
100
AcDbBlockTableRecord
  2
*D91
340
0
  0
BLOCK_RECORD
  5
AD68
330
1
100
AcDbSymbolTableRecord
100
AcDbBlockTableRecord
  2
*D92
340
0
  0
BLOCK_RECORD
  5
AD99
330
1
100
AcDbSymbolTableRecord
100
AcDbBlockTableRecord
  2
*D93
340
0
  0
BLOCK_RECORD
  5
AF3E
330
1
100
AcDbSymbolTableRecord
100
AcDbBlockTableRecord
  2
*D94
340
0
  0
BLOCK_RECORD
  5
AF93
330
1
100
AcDbSymbolTableRecord
100
AcDbBlockTableRecord
  2
*D95
340
0
  0
BLOCK_RECORD
  5
AFD7
330
1
100
AcDbSymbolTableRecord
100
AcDbBlockTableRecord
  2
*D96
340
0
  0
BLOCK_RECORD
  5
B0F7
330
1
100
AcDbSymbolTableRecord
100
AcDbBlockTableRecord
  2
*D97
340
0
  0
ENDTAB
  0
ENDSEC
  0
SECTION
  2
BLOCKS
  0
BLOCK
  5
20
330
1F
100
AcDbEntity
  8
0
100
AcDbBlockBegin
  2
*Model_Space
 70
     0
 10
0.0
 20
0.0
 30
0.0
  3
*Model_Space
  1

  0
ENDBLK
  5
21
330
1F
100
AcDbEntity
  8
0
100
AcDbBlockEnd
  0
BLOCK
  5
1C
330
1B
100
AcDbEntity
 67
     1
  8
0
100
AcDbBlockBegin
  2
*Paper_Space
 70
     0
 10
0.0
 20
0.0
 30
0.0
  3
*Paper_Space
  1

  0
ENDBLK
  5
1D
330
1B
100
AcDbEntity
 67
     1
  8
0
100
AcDbBlockEnd
  0
BLOCK
  5
24
330
23
100
AcDbEntity
  8
0
100
AcDbBlockBegin
  2
*Paper_Space0
 70
     0
 10
0.0
 20
0.0
 30
0.0
  3
*Paper_Space0
  1

  0
ENDBLK
  5
25
330
23
100
AcDbEntity
  8
0
100
AcDbBlockEnd
  0
BLOCK
  5
D2
330
D0
100
AcDbEntity
  8
0
100
AcDbBlockBegin
  2
_DotSmall
 70
     0
 10
0.0
 20
0.0
 30
0.0
  3
_DotSmall
  1

  0
LWPOLYLINE
  5
D1
330
D0
100
AcDbEntity
  8
0
 62
     0
100
AcDbPolyline
 90
        2
 70
     1
 43
0.5
 10
-0.0625
 20
0.0
 42
1.0
 10
0.0625
 20
0.0
 42
1.0
  0
ENDBLK
  5
D3
330
D0
100
AcDbEntity
  8
0
100
AcDbBlockEnd
  0
BLOCK
  5
D8
330
D4
100
AcDbEntity
  8
0
100
AcDbBlockBegin
  2
_Origin2
 70
     0
 10
0.0
 20
0.0
 30
0.0
  3
_Origin2
  1

  0
CIRCLE
  5
D5
330
D4
100
AcDbEntity
  8
0
 62
     0
370
    -2
100
AcDbCircle
 10
0.0
 20
0.0
 30
0.0
 40
0.5
  0
CIRCLE
  5
D6
330
D4
100
AcDbEntity
  8
0
 62
     0
370
    -2
100
AcDbCircle
 10
0.0
 20
0.0
 30
0.0
 40
0.25
  0
LINE
  5
D7
330
D4
100
AcDbEntity
  8
0
 62
     0
370
    -2
100
AcDbLine
 10
-0.5
 20
0.0
 30
0.0
 11
-1.0
 21
0.0
 31
0.0
  0
ENDBLK
  5
D9
330
D4
100
AcDbEntity
  8
0
100
AcDbBlockEnd
  0
BLOCK
  5
DE
330
DA
100
AcDbEntity
  8
0
100
AcDbBlockBegin
  2
_Open30
 70
     0
 10
0.0
 20
0.0
 30
0.0
  3
_Open30
  1

  0
LINE
  5
DB
330
DA
100
AcDbEntity
  8
0
 62
     0
370
    -2
100
AcDbLine
 10
-1.0
 20
0.26794919
 30
0.0
 11
0.0
 21
0.0
 31
0.0
  0
LINE
  5
DC
330
DA
100
AcDbEntity
  8
0
 62
     0
370
    -2
100
AcDbLine
 10
0.0
 20
0.0
 30
0.0
 11
-1.0
 21
-0.26794919
 31
0.0
  0
LINE
  5
DD
330
DA
100
AcDbEntity
  8
0
 62
     0
370
    -2
100
AcDbLine
 10
0.0
 20
0.0
 30
0.0
 11
-1.0
 21
0.0
 31
0.0
  0
ENDBLK
  5
DF
330
DA
100
AcDbEntity
  8
0
100
AcDbBlockEnd
  0
BLOCK
  5
2E7
330
2D6
100
AcDbEntity
  8
0
100
AcDbBlockBegin
  2
A$C6CAC4411
 70
     0
 10
0.0
 20
0.0
 30
0.0
  3
A$C6CAC4411
  1

  0
TEXT
  5
2D7
330
2D6
100
AcDbEntity
  8
0
100
AcDbText
 10
176.2557717918098
 20
0.0000022116982912
 30
0.0
 40
40.0
  1
中外交易株式会社
 72
     4
 11
364.2557717918098
 21
20.0000022116983
 31
0.0
100
AcDbText
  0
LINE
  5
2D8
330
2D6
100
AcDbEntity
  8
0
100
AcDbLine
 10
-0.0000028735375963
 20
52.5000022116983
 30
0.0
 11
599.9999971264624
 21
52.5000022116983
 31
0.0
  0
HATCH
  5
2D9
330
2D6
100
AcDbEntity
  8
実形
100
AcDbHatch
 10
0.0
 20
0.0
 30
0.0
210
0.0
220
0.0
230
1.0
  2
SOLID
 70
     1
 71
     1
 91
        3
 92
        1
 93
        4
 72
     2
 10
133.1661954404576
 20
20.0000022116983
 40
20.0
 50
11.64772366707622
 51
342.6561058784662
 73
     1
 72
     1
 10
152.2568494677857
 20
14.03787769028346
 11
128.1661954404576
 21
14.03787769028349
 72
     1
 10
128.1661954404576
 20
14.03787769028349
 11
128.1661954404576
 21
24.0378776902835
 72
     1
 10
128.1661954404576
 20
24.0378776902835
 11
152.7543439394721
 21
24.0378776902835
 97
        4
330
2DF
330
2DC
330
2E0
330
2DD
 92
        1
 93
        4
 72
     2
 10
64.25577179180982
 20
20.0000022116983
 40
20.0
 50
11.64772366707622
 51
342.6561058784662
 73
     1
 72
     1
 10
83.34642581913795
 20
14.03787769028346
 11
59.25577179180982
 21
14.03787769028349
 72
     1
 10
59.25577179180982
 20
14.03787769028349
 11
59.25577179180982
 21
24.0378776902835
 72
     1
 10
59.25577179180982
 20
24.0378776902835
 11
83.84392029082437
 21
24.0378776902835
 97
        4
330
2DE
330
2DB
330
2E1
330
2DA
 92
        1
 93
        5
 72
     1
 10
121.6418911694018
 20
40.0000022116983
 11
86.64189116940178
 21
40.0000022116983
 72
     1
 10
86.64189116940178
 20
40.0000022116983
 11
86.64189116940178
 21
0.0000022116983018
 72
     1
 10
86.64189116940178
 20
0.0000022116983018
 11
121.6418911694018
 21
0.0000022116983018
 72
     1
 10
121.6418911694018
 20
0.0000022116983018
 11
86.64189116940178
 21
20.0000022116983
 72
     1
 10
86.64189116940178
 20
20.0000022116983
 11
121.6418911694018
 21
40.0000022116983
 97
        5
330
2E2
330
2E3
330
2E5
330
2E6
330
2E4
 75
     0
 76
     1
 98
        1
 10
-2184.000002873538
 20
-16.4999977883017
  0
LINE
  5
2DA
102
{ACAD_REACTORS
330
2D9
102
}
330
2D6
100
AcDbEntity
  8
実形
370
     5
100
AcDbLine
 10
83.84392029082437
 20
24.0378776902835
 30
0.0
 11
59.25577179180982
 21
24.0378776902835
 31
0.0
  0
LINE
  5
2DB
102
{ACAD_REACTORS
330
2D9
102
}
330
2D6
100
AcDbEntity
  8
実形
370
     5
100
AcDbLine
 10
59.25577179180982
 20
14.03787769028349
 30
0.0
 11
83.34642581913795
 21
14.03787769028346
 31
0.0
  0
LINE
  5
2DC
102
{ACAD_REACTORS
330
2D9
102
}
330
2D6
100
AcDbEntity
  8
実形
370
     5
100
AcDbLine
 10
128.1661954404576
 20
14.03787769028349
 30
0.0
 11
152.2568494677857
 21
14.03787769028346
 31
0.0
  0
LINE
  5
2DD
102
{ACAD_REACTORS
330
2D9
102
}
330
2D6
100
AcDbEntity
  8
実形
370
     5
100
AcDbLine
 10
152.7543439394721
 20
24.0378776902835
 30
0.0
 11
128.1661954404576
 21
24.0378776902835
 31
0.0
  0
ARC
  5
2DE
102
{ACAD_REACTORS
330
2D9
102
}
330
2D6
100
AcDbEntity
  8
実形
370
     5
100
AcDbCircle
 10
64.25577179180982
 20
20.0000022116983
 30
0.0
 40
20.0
100
AcDbArc
 50
11.6477236670758
 51
342.6561058784691
  0
ARC
  5
2DF
102
{ACAD_REACTORS
330
2D9
102
}
330
2D6
100
AcDbEntity
  8
実形
370
     5
100
AcDbCircle
 10
133.1661954404576
 20
20.0000022116983
 30
0.0
 40
20.0
100
AcDbArc
 50
11.6477236670758
 51
342.6561058784691
  0
LINE
  5
2E0
102
{ACAD_REACTORS
330
2D9
102
}
330
2D6
100
AcDbEntity
  8
実形
370
     5
100
AcDbLine
 10
128.1661954404576
 20
24.0378776902835
 30
0.0
 11
128.1661954404576
 21
14.03787769028349
 31
0.0
  0
LINE
  5
2E1
102
{ACAD_REACTORS
330
2D9
102
}
330
2D6
100
AcDbEntity
  8
実形
370
     5
100
AcDbLine
 10
59.25577179180982
 20
24.0378776902835
 30
0.0
 11
59.25577179180982
 21
14.03787769028349
 31
0.0
  0
LINE
  5
2E2
102
{ACAD_REACTORS
330
2D9
102
}
330
2D6
100
AcDbEntity
  8
実形
370
     5
100
AcDbLine
 10
121.6418911694018
 20
40.0000022116983
 30
0.0
 11
86.64189116940178
 21
40.0000022116983
 31
0.0
  0
LINE
  5
2E3
102
{ACAD_REACTORS
330
2D9
102
}
330
2D6
100
AcDbEntity
  8
実形
370
     5
100
AcDbLine
 10
86.64189116940178
 20
40.0000022116983
 30
0.0
 11
86.64189116940178
 21
0.0000022116983018
 31
0.0
  0
LINE
  5
2E4
102
{ACAD_REACTORS
330
2D9
102
}
330
2D6
100
AcDbEntity
  8
実形
370
     5
100
AcDbLine
 10
86.64189116940178
 20
20.0000022116983
 30
0.0
 11
121.6418911694018
 21
40.0000022116983
 31
0.0
  0
LINE
  5
2E5
102
{ACAD_REACTORS
330
2D9
102
}
330
2D6
100
AcDbEntity
  8
実形
370
     5
100
AcDbLine
 10
86.64189116940178
 20
0.0000022116983018
 30
0.0
 11
121.6418911694018
 21
0.0000022116983018
 31
0.0
  0
LINE
  5
2E6
102
{ACAD_REACTORS
330
2D9
102
}
330
2D6
100
AcDbEntity
  8
実形
370
     5
100
AcDbLine
 10
121.6418911694018
 20
0.0000022116983018
 30
0.0
 11
86.64189116940178
 21
20.0000022116983
 31
0.0
  0
ENDBLK
  5
2E8
330
2D6
100
AcDbEntity
  8
0
100
AcDbBlockEnd
  0
BLOCK
  5
310
330
30D
100
AcDbEntity
  8
0
100
AcDbBlockBegin
  2
_Dot
 70
     0
 10
0.0
 20
0.0
 30
0.0
  3
_Dot
  1

  0
LWPOLYLINE
  5
30E
330
30D
100
AcDbEntity
  8
0
 62
     0
100
AcDbPolyline
 90
        2
 70
     1
 43
0.5
 10
-0.25
 20
0.0
 42
1.0
 10
0.25
 20
0.0
 42
1.0
  0
LINE
  5
30F
330
30D
100
AcDbEntity
  8
0
 62
     0
370
    -2
100
AcDbLine
 10
-0.5
 20
0.0
 30
0.0
 11
-1.0
 21
0.0
 31
0.0
  0
ENDBLK
  5
311
330
30D
100
AcDbEntity
  8
0
100
AcDbBlockEnd
  0
BLOCK
  5
3140
330
313C
100
AcDbEntity
  8
0
100
AcDbBlockBegin
  2
A$C6850087C
 70
     0
 10
0.0
 20
0.0
 30
0.0
  3
A$C6850087C
  1

  0
TEXT
  5
313D
330
313C
100
AcDbEntity
  8
実形
 62
     0
 48
20.0
100
AcDbText
 10
0.0
 20
0.0
 30
0.0
 40
40.0
  1
平面図
100
AcDbText
  0
ENDBLK
  5
3141
330
313C
100
AcDbEntity
  8
0
100
AcDbBlockEnd
  0
BLOCK
  5
384A
330
3846
100
AcDbEntity
  8
0
 62
     1
100
AcDbBlockBegin
  2
A$C71387EE1
 70
     0
 10
0.0
 20
0.0
 30
0.0
  3
A$C71387EE1
  1

  0
HATCH
  5
3847
330
3846
100
AcDbEntity
  8
実形
 62
     0
100
AcDbHatch
 10
0.0
 20
0.0
 30
0.0
210
0.0
220
0.0
230
1.0
  2
SOLID
 70
     1
 71
     0
 91
        1
 92
        7
 72
     1
 73
     1
 93
        2
 10
4.552685078746208
 20
-0.0000011660104065
 42
-1.0
 10
4.54872920619573
 20
9.101406589272301
 42
-1.0
 97
        0
 75
     0
 76
     1
 47
0.1166526434546944
 98
        1
 10
6.65106624868099
 20
3.151407247997667
  0
ENDBLK
  5
384B
330
3846
100
AcDbEntity
  8
0
 62
     1
100
AcDbBlockEnd
  0
BLOCK
  5
6B8B
330
6B87
100
AcDbEntity
  8
0
 62
     3
100
AcDbBlockBegin
  2
A$C47AF373A
 70
     0
 10
0.0
 20
0.0
 30
0.0
  3
A$C47AF373A
  1

  0
LINE
  5
6B88
330
6B87
100
AcDbEntity
  8
枠
 62
     0
100
AcDbLine
 10
-0.0000111344452307
 20
0.0000048001220421
 30
0.0
 11
-0.0000111344452307
 21
2020.000004800122
 31
0.0
  0
ENDBLK
  5
6B8C
330
6B87
100
AcDbEntity
  8
0
 62
     3
100
AcDbBlockEnd
  0
BLOCK
  5
6C04
330
6C00
100
AcDbEntity
  8
0
 62
     3
100
AcDbBlockBegin
  2
A$C2B9560D8
 70
     0
 10
0.0
 20
0.0
 30
0.0
  3
A$C2B9560D8
  1

  0
LINE
  5
6C01
330
6C00
100
AcDbEntity
  8
枠
 62
     0
100
AcDbLine
 10
-0.0000103150450741
 20
2020.000004800122
 30
0.0
 11
-0.0000103150450741
 21
0.0000048001220421
 31
0.0
  0
ENDBLK
  5
6C05
330
6C00
100
AcDbEntity
  8
0
 62
     3
100
AcDbBlockEnd
  0
BLOCK
  5
7100
330
70F6
100
AcDbEntity
  8
0
 62
     3
100
AcDbBlockBegin
  2
*D10
 70
     1
 10
0.0
 20
0.0
 30
0.0
  3
*D10
  1

  0
LINE
  5
A4AD
330
70F6
100
AcDbEntity
  8
実形
 62
     0
370
    18
100
AcDbLine
 10
1531.053280974976
 20
1087.590387707762
 30
0.0
 11
1531.053280974976
 21
1020.327686003375
 31
0.0
  0
LINE
  5
A4AE
330
70F6
100
AcDbEntity
  8
実形
 62
     0
370
    18
100
AcDbLine
 10
771.0532809749768
 20
1087.590387707762
 30
0.0
 11
771.0532809749768
 21
1020.327686003375
 31
0.0
  0
LINE
  5
A4AF
330
70F6
100
AcDbEntity
  8
実形
 62
     0
370
    18
100
AcDbLine
 10
1521.053280974977
 20
1020.327686003375
 30
0.0
 11
781.0532809749767
 21
1020.327686003375
 31
0.0
  0
INSERT
  5
A4B0
330
70F6
100
AcDbEntity
  8
実形
 62
     0
370
    18
100
AcDbBlockReference
  2
_Dot
 10
1531.053280974976
 20
1020.327686003375
 30
0.0
 41
10.0
 42
10.0
 43
10.0
  0
INSERT
  5
A4B1
330
70F6
100
AcDbEntity
  8
実形
 62
     0
370
    18
100
AcDbBlockReference
  2
_Dot
 10
771.0532809749768
 20
1020.327686003375
 30
0.0
 41
10.0
 42
10.0
 43
10.0
 50
180.0
  0
MTEXT
  5
A4B2
330
70F6
100
AcDbEntity
  8
実形
 62
     0
100
AcDbMText
 10
1151.053280974976
 20
1039.427686003375
 30
0.0
 40
25.0
 41
0.0
 71
     5
 72
     1
  1
760
 73
     1
 44
1.0
1001
ACAD
1000
MTEXTBEGIN
1070
    73
1070
     1
1070
    44
1040
1.0
1070
    74
1070
     0
1000
MTEXTEND
  0
POINT
  5
A4B3
330
70F6
100
AcDbEntity
  8
Defpoints
 62
     0
100
AcDbPoint
 10
1531.053280974976
 20
1152.590387707762
 30
0.0
  0
POINT
  5
A4B4
330
70F6
100
AcDbEntity
  8
Defpoints
 62
     0
100
AcDbPoint
 10
771.0532809749768
 20
1152.590387707762
 30
0.0
  0
POINT
  5
A4B5
330
70F6
100
AcDbEntity
  8
Defpoints
 62
     0
100
AcDbPoint
 10
771.0532809749768
 20
1020.327686003375
 30
0.0
  0
ENDBLK
  5
7101
330
70F6
100
AcDbEntity
  8
0
 62
     3
100
AcDbBlockEnd
  0
BLOCK
  5
710D
330
7103
100
AcDbEntity
  8
0
 62
     3
100
AcDbBlockBegin
  2
*D11
 70
     1
 10
0.0
 20
0.0
 30
0.0
  3
*D11
  1

  0
LINE
  5
A4B6
330
7103
100
AcDbEntity
  8
実形
 62
     0
370
    18
100
AcDbLine
 10
1551.053280974976
 20
1087.590387707762
 30
0.0
 11
1551.053280974976
 21
1020.327686003375
 31
0.0
  0
LINE
  5
A4B7
330
7103
100
AcDbEntity
  8
実形
 62
     0
370
    18
100
AcDbLine
 10
751.0532809749768
 20
1087.590387707762
 30
0.0
 11
751.0532809749768
 21
1020.327686003375
 31
0.0
  0
LINE
  5
A4B8
330
7103
100
AcDbEntity
  8
実形
 62
     0
370
    18
100
AcDbLine
 10
1541.053280974976
 20
1020.327686003375
 30
0.0
 11
761.0532809749768
 21
1020.327686003375
 31
0.0
  0
MTEXT
  5
A4B9
330
7103
100
AcDbEntity
  8
実形
 62
     0
100
AcDbMText
 10
804.652127670257
 20
1041.927686003375
 30
0.0
 40
25.0
 41
0.0
 71
     5
 72
     1
  1
20
 73
     1
 44
1.0
1001
ACAD
1000
MTEXTBEGIN
1070
    73
1070
     1
1070
    44
1040
1.0
1070
    74
1070
     0
1000
MTEXTEND
  0
INSERT
  5
A4BA
330
7103
100
AcDbEntity
  8
実形
 62
     0
370
    18
100
AcDbBlockReference
  2
_Dot
 10
1551.053280974976
 20
1020.327686003375
 30
0.0
 41
10.0
 42
10.0
 43
10.0
  0
INSERT
  5
A4BB
330
7103
100
AcDbEntity
  8
実形
 62
     0
370
    18
100
AcDbBlockReference
  2
_Dot
 10
751.0532809749768
 20
1020.327686003375
 30
0.0
 41
10.0
 42
10.0
 43
10.0
 50
180.0
  0
POINT
  5
A4BC
330
7103
100
AcDbEntity
  8
Defpoints
 62
     0
100
AcDbPoint
 10
1551.053280974976
 20
1152.590387707762
 30
0.0
  0
POINT
  5
A4BD
330
7103
100
AcDbEntity
  8
Defpoints
 62
     0
100
AcDbPoint
 10
751.0532809749768
 20
1152.590387707762
 30
0.0
  0
POINT
  5
A4BE
330
7103
100
AcDbEntity
  8
Defpoints
 62
     0
100
AcDbPoint
 10
751.0532809749768
 20
1020.327686003375
 30
0.0
  0
ENDBLK
  5
710E
330
7103
100
AcDbEntity
  8
0
 62
     3
100
AcDbBlockEnd
  0
BLOCK
  5
713E
330
7134
100
AcDbEntity
  8
0
 62
     3
100
AcDbBlockBegin
  2
*D12
 70
     1
 10
0.0
 20
0.0
 30
0.0
  3
*D12
  1

  0
LINE
  5
A4BF
330
7134
100
AcDbEntity
  8
実形
 62
     0
370
    18
100
AcDbLine
 10
1551.053280974976
 20
1087.590387707762
 30
0.0
 11
1551.053280974976
 21
957.9171986474021
 31
0.0
  0
LINE
  5
A4C0
330
7134
100
AcDbEntity
  8
実形
 62
     0
370
    18
100
AcDbLine
 10
751.0532809749768
 20
1087.590387707762
 30
0.0
 11
751.0532809749768
 21
957.9171986474021
 31
0.0
  0
LINE
  5
A4C1
330
7134
100
AcDbEntity
  8
実形
 62
     0
370
    18
100
AcDbLine
 10
1541.053280974976
 20
957.9171986474021
 30
0.0
 11
761.0532809749768
 21
957.9171986474021
 31
0.0
  0
INSERT
  5
A4C2
330
7134
100
AcDbEntity
  8
実形
 62
     0
370
    18
100
AcDbBlockReference
  2
_Dot
 10
1551.053280974976
 20
957.9171986474021
 30
0.0
 41
10.0
 42
10.0
 43
10.0
  0
INSERT
  5
A4C3
330
7134
100
AcDbEntity
  8
実形
 62
     0
370
    18
100
AcDbBlockReference
  2
_Dot
 10
751.0532809749768
 20
957.9171986474021
 30
0.0
 41
10.0
 42
10.0
 43
10.0
 50
180.0
  0
MTEXT
  5
A4C4
330
7134
100
AcDbEntity
  8
実形
 62
     0
100
AcDbMText
 10
1151.053280974976
 20
977.0171986474021
 30
0.0
 40
25.0
 41
0.0
 71
     5
 72
     1
  1
800
 73
     1
 44
1.0
1001
ACAD
1000
MTEXTBEGIN
1070
    73
1070
     1
1070
    44
1040
1.0
1070
    74
1070
     0
1000
MTEXTEND
  0
POINT
  5
A4C5
330
7134
100
AcDbEntity
  8
Defpoints
 62
     0
100
AcDbPoint
 10
1551.053280974976
 20
1152.590387707762
 30
0.0
  0
POINT
  5
A4C6
330
7134
100
AcDbEntity
  8
Defpoints
 62
     0
100
AcDbPoint
 10
751.0532809749768
 20
1152.590387707762
 30
0.0
  0
POINT
  5
A4C7
330
7134
100
AcDbEntity
  8
Defpoints
 62
     0
100
AcDbPoint
 10
751.0532809749768
 20
957.9171986474021
 30
0.0
  0
ENDBLK
  5
713F
330
7134
100
AcDbEntity
  8
0
 62
     3
100
AcDbBlockEnd
  0
BLOCK
  5
714B
330
7141
100
AcDbEntity
  8
0
 62
     3
100
AcDbBlockBegin
  2
*D13
 70
     1
 10
0.0
 20
0.0
 30
0.0
  3
*D13
  1

  0
LINE
  5
A4C8
330
7141
100
AcDbEntity
  8
実形
 62
     0
370
    18
100
AcDbLine
 10
1566.053280974976
 20
1087.590387707762
 30
0.0
 11
1566.053280974976
 21
957.9171986474021
 31
0.0
  0
LINE
  5
A4C9
330
7141
100
AcDbEntity
  8
実形
 62
     0
370
    18
100
AcDbLine
 10
736.0532809749765
 20
1087.590387707762
 30
0.0
 11
736.0532809749765
 21
957.9171986474021
 31
0.0
  0
LINE
  5
A4CA
330
7141
100
AcDbEntity
  8
実形
 62
     0
370
    18
100
AcDbLine
 10
1556.053280974976
 20
957.9171986474021
 30
0.0
 11
746.0532809749765
 21
957.9171986474021
 31
0.0
  0
MTEXT
  5
A4CB
330
7141
100
AcDbEntity
  8
実形
 62
     0
100
AcDbMText
 10
692.2637476204308
 20
979.517198647402
 30
0.0
 40
25.0
 41
0.0
 71
     5
 72
     1
  1
15
 73
     1
 44
1.0
1001
ACAD
1000
MTEXTBEGIN
1070
    73
1070
     1
1070
    44
1040
1.0
1070
    74
1070
     0
1000
MTEXTEND
  0
INSERT
  5
A4CC
330
7141
100
AcDbEntity
  8
実形
 62
     0
370
    18
100
AcDbBlockReference
  2
_Dot
 10
1566.053280974976
 20
957.9171986474021
 30
0.0
 41
10.0
 42
10.0
 43
10.0
  0
INSERT
  5
A4CD
330
7141
100
AcDbEntity
  8
実形
 62
     0
370
    18
100
AcDbBlockReference
  2
_Dot
 10
736.0532809749765
 20
957.9171986474021
 30
0.0
 41
10.0
 42
10.0
 43
10.0
 50
180.0
  0
POINT
  5
A4CE
330
7141
100
AcDbEntity
  8
Defpoints
 62
     0
100
AcDbPoint
 10
1566.053280974976
 20
1152.590387707762
 30
0.0
  0
POINT
  5
A4CF
330
7141
100
AcDbEntity
  8
Defpoints
 62
     0
100
AcDbPoint
 10
736.0532809749765
 20
1152.590387707762
 30
0.0
  0
POINT
  5
A4D0
330
7141
100
AcDbEntity
  8
Defpoints
 62
     0
100
AcDbPoint
 10
736.0532809749765
 20
957.9171986474021
 30
0.0
  0
ENDBLK
  5
714C
330
7141
100
AcDbEntity
  8
0
 62
     3
100
AcDbBlockEnd
  0
BLOCK
  5
717D
330
7173
100
AcDbEntity
  8
0
 62
     3
100
AcDbBlockBegin
  2
*D14
 70
     1
 10
0.0
 20
0.0
 30
0.0
  3
*D14
  1

  0
LINE
  5
A4D1
330
7173
100
AcDbEntity
  8
実形
 62
     0
370
    18
100
AcDbLine
 10
1566.053280974976
 20
1087.590387707762
 30
0.0
 11
1566.053280974976
 21
884.6956181772503
 31
0.0
  0
LINE
  5
A4D2
330
7173
100
AcDbEntity
  8
実形
 62
     0
370
    18
100
AcDbLine
 10
736.0532809749765
 20
1087.590387707762
 30
0.0
 11
736.0532809749765
 21
884.6956181772503
 31
0.0
  0
LINE
  5
A4D3
330
7173
100
AcDbEntity
  8
実形
 62
     0
370
    18
100
AcDbLine
 10
1556.053280974976
 20
884.6956181772503
 30
0.0
 11
746.0532809749765
 21
884.6956181772503
 31
0.0
  0
INSERT
  5
A4D4
330
7173
100
AcDbEntity
  8
実形
 62
     0
370
    18
100
AcDbBlockReference
  2
_Dot
 10
1566.053280974976
 20
884.6956181772503
 30
0.0
 41
10.0
 42
10.0
 43
10.0
  0
INSERT
  5
A4D5
330
7173
100
AcDbEntity
  8
実形
 62
     0
370
    18
100
AcDbBlockReference
  2
_Dot
 10
736.0532809749765
 20
884.6956181772503
 30
0.0
 41
10.0
 42
10.0
 43
10.0
 50
180.0
  0
MTEXT
  5
A4D6
330
7173
100
AcDbEntity
  8
実形
 62
     0
100
AcDbMText
 10
1151.053280974976
 20
903.7956181772502
 30
0.0
 40
25.0
 41
0.0
 71
     5
 72
     1
  1
830
 73
     1
 44
1.0
1001
ACAD
1000
MTEXTBEGIN
1070
    73
1070
     1
1070
    44
1040
1.0
1070
    74
1070
     0
1000
MTEXTEND
  0
POINT
  5
A4D7
330
7173
100
AcDbEntity
  8
Defpoints
 62
     0
100
AcDbPoint
 10
1566.053280974976
 20
1152.590387707762
 30
0.0
  0
POINT
  5
A4D8
330
7173
100
AcDbEntity
  8
Defpoints
 62
     0
100
AcDbPoint
 10
736.0532809749765
 20
1152.590387707762
 30
0.0
  0
POINT
  5
A4D9
330
7173
100
AcDbEntity
  8
Defpoints
 62
     0
100
AcDbPoint
 10
736.0532809749765
 20
884.6956181772503
 30
0.0
  0
ENDBLK
  5
717E
330
7173
100
AcDbEntity
  8
0
 62
     3
100
AcDbBlockEnd
  0
BLOCK
  5
775A
330
7752
100
AcDbEntity
  8
0
 62
     3
100
AcDbBlockBegin
  2
A$C113940D1
 70
     0
 10
0.0
 20
0.0
 30
0.0
  3
A$C113940D1
  1

  0
LINE
  5
7753
330
7752
100
AcDbEntity
  8
実形
 62
     0
100
AcDbLine
 10
0.0
 20
65.0
 30
0.0
 11
720.0
 21
65.0
 31
0.0
  0
LINE
  5
7754
330
7752
100
AcDbEntity
  8
実形
 62
     0
100
AcDbLine
 10
0.0
 20
-195.0
 30
0.0
 11
0.0
 21
65.0
 31
0.0
  0
LINE
  5
7755
330
7752
100
AcDbEntity
  8
実形
 62
     0
100
AcDbLine
 10
120.0
 20
-130.0
 30
0.0
 11
120.0
 21
65.00000000000006
 31
0.0
  0
TEXT
  5
7756
330
7752
100
AcDbEntity
  8
枠
 62
     0
100
AcDbText
 10
23.83333333333334
 20
15.00000000000001
 30
0.0
 40
35.0
  1
品名
 72
     4
 11
60.0
 21
32.5
 31
0.0
100
AcDbText
  0
TEXT
  5
7757
330
7752
100
AcDbEntity
  8
実形
100
AcDbText
 10
214.0405358305962
 20
13.16420861765831
 30
0.0
 40
40.0
  1
ｱﾝﾀﾞｰｼﾝｸ
 72
     4
 11
302.0405358305961
 21
31.83087528432498
 31
0.0
100
AcDbText
  0
ENDBLK
  5
775B
330
7752
100
AcDbEntity
  8
0
 62
     3
100
AcDbBlockEnd
  0
BLOCK
  5
7867
330
785D
100
AcDbEntity
  8
0
 62
     3
100
AcDbBlockBegin
  2
*D16
 70
     1
 10
0.0
 20
0.0
 30
0.0
  3
*D16
  1

  0
LINE
  5
9BC0
330
785D
100
AcDbEntity
  8
実形
 62
     0
370
    18
100
AcDbLine
 10
1411.053280974977
 20
1727.668426319256
 30
0.0
 11
1411.053280974977
 21
1773.875438359908
 31
0.0
  0
LINE
  5
9BC1
330
785D
100
AcDbEntity
  8
実形
 62
     0
370
    18
100
AcDbLine
 10
1001.053280974976
 20
1727.668426319256
 30
0.0
 11
1001.053280974976
 21
1773.875438359908
 31
0.0
  0
LINE
  5
9BC2
330
785D
100
AcDbEntity
  8
実形
 62
     0
370
    18
100
AcDbLine
 10
1401.053280974977
 20
1773.875438359908
 30
0.0
 11
1011.053280974977
 21
1773.875438359908
 31
0.0
  0
INSERT
  5
9BC3
330
785D
100
AcDbEntity
  8
実形
 62
     0
370
    18
100
AcDbBlockReference
  2
_Dot
 10
1411.053280974977
 20
1773.875438359908
 30
0.0
 41
10.0
 42
10.0
 43
10.0
  0
INSERT
  5
9BC4
330
785D
100
AcDbEntity
  8
実形
 62
     0
370
    18
100
AcDbBlockReference
  2
_Dot
 10
1001.053280974976
 20
1773.875438359908
 30
0.0
 41
10.0
 42
10.0
 43
10.0
 50
180.0
  0
MTEXT
  5
9BC5
330
785D
100
AcDbEntity
  8
実形
 62
     0
100
AcDbMText
 10
1206.053280974977
 20
1792.975438359908
 30
0.0
 40
25.0
 41
0.0
 71
     5
 72
     1
  1
410
 73
     1
 44
1.0
1001
ACAD
1000
MTEXTBEGIN
1070
    73
1070
     1
1070
    44
1040
1.0
1070
    74
1070
     0
1000
MTEXTEND
  0
POINT
  5
9BC6
330
785D
100
AcDbEntity
  8
Defpoints
 62
     0
100
AcDbPoint
 10
1411.053280974977
 20
1662.668426319256
 30
0.0
  0
POINT
  5
9BC7
330
785D
100
AcDbEntity
  8
Defpoints
 62
     0
100
AcDbPoint
 10
1001.053280974976
 20
1662.668426319256
 30
0.0
  0
POINT
  5
9BC8
330
785D
100
AcDbEntity
  8
Defpoints
 62
     0
100
AcDbPoint
 10
1001.053280974976
 20
1773.875438359908
 30
0.0
  0
ENDBLK
  5
7868
330
785D
100
AcDbEntity
  8
0
 62
     3
100
AcDbBlockEnd
  0
BLOCK
  5
7875
330
786B
100
AcDbEntity
  8
0
 62
     3
100
AcDbBlockBegin
  2
*D17
 70
     1
 10
0.0
 20
0.0
 30
0.0
  3
*D17
  1

  0
LINE
  5
A434
330
786B
100
AcDbEntity
  8
実形
 62
     0
370
    18
100
AcDbLine
 10
1001.053280974976
 20
1727.668426319256
 30
0.0
 11
1001.053280974976
 21
1773.875438359908
 31
0.0
  0
LINE
  5
A435
330
786B
100
AcDbEntity
  8
実形
 62
     0
370
    18
100
AcDbLine
 10
751.0532809749766
 20
1727.668426319256
 30
0.0
 11
751.0532809749766
 21
1773.875438359908
 31
0.0
  0
LINE
  5
A436
330
786B
100
AcDbEntity
  8
実形
 62
     0
370
    18
100
AcDbLine
 10
991.0532809749764
 20
1773.875438359908
 30
0.0
 11
761.0532809749765
 21
1773.875438359908
 31
0.0
  0
MTEXT
  5
A437
330
786B
100
AcDbEntity
  8
実形
 62
     0
100
AcDbMText
 10
880.2817980216204
 20
1798.836550718089
 30
0.0
 40
25.0
 41
0.0
 71
     5
 72
     1
  1
250
 73
     1
 44
1.0
1001
ACAD
1000
MTEXTBEGIN
1070
    73
1070
     1
1070
    44
1040
1.0
1070
    74
1070
     0
1000
MTEXTEND
  0
INSERT
  5
A438
330
786B
100
AcDbEntity
  8
実形
 62
     0
370
    18
100
AcDbBlockReference
  2
_Dot
 10
1001.053280974976
 20
1773.875438359908
 30
0.0
 41
10.0
 42
10.0
 43
10.0
  0
INSERT
  5
A439
330
786B
100
AcDbEntity
  8
実形
 62
     0
370
    18
100
AcDbBlockReference
  2
_Dot
 10
751.0532809749766
 20
1773.875438359908
 30
0.0
 41
10.0
 42
10.0
 43
10.0
 50
180.0
  0
POINT
  5
A43A
330
786B
100
AcDbEntity
  8
Defpoints
 62
     0
100
AcDbPoint
 10
1001.053280974976
 20
1662.668426319256
 30
0.0
  0
POINT
  5
A43B
330
786B
100
AcDbEntity
  8
Defpoints
 62
     0
100
AcDbPoint
 10
751.0532809749766
 20
1662.668426319256
 30
0.0
  0
POINT
  5
A43C
330
786B
100
AcDbEntity
  8
Defpoints
 62
     0
100
AcDbPoint
 10
751.0532809749766
 20
1773.875438359908
 30
0.0
  0
ENDBLK
  5
7876
330
786B
100
AcDbEntity
  8
0
 62
     3
100
AcDbBlockEnd
  0
BLOCK
  5
7882
330
7878
100
AcDbEntity
  8
0
 62
     3
100
AcDbBlockBegin
  2
*D18
 70
     1
 10
0.0
 20
0.0
 30
0.0
  3
*D18
  1

  0
LINE
  5
9B38
330
7878
100
AcDbEntity
  8
実形
 62
     0
370
    18
100
AcDbLine
 10
1566.053280974976
 20
1728.296423815394
 30
0.0
 11
1566.053280974976
 21
1773.875438359908
 31
0.0
  0
LINE
  5
9B39
330
7878
100
AcDbEntity
  8
実形
 62
     0
370
    18
100
AcDbLine
 10
736.0532809749765
 20
1727.651727076809
 30
0.0
 11
736.0532809749765
 21
1773.875438359908
 31
0.0
  0
LINE
  5
9B3A
330
7878
100
AcDbEntity
  8
実形
 62
     0
370
    18
100
AcDbLine
 10
1556.053280974976
 20
1773.875438359908
 30
0.0
 11
746.0532809749765
 21
1773.875438359908
 31
0.0
  0
MTEXT
  5
9B3B
330
7878
100
AcDbEntity
  8
実形
 62
     0
100
AcDbMText
 10
1567.505266927248
 20
1798.86048303489
 30
0.0
 40
25.0
 41
0.0
 71
     5
 72
     1
  1
15
 73
     1
 44
1.0
1001
ACAD
1000
MTEXTBEGIN
1070
    73
1070
     1
1070
    44
1040
1.0
1070
    74
1070
     0
1000
MTEXTEND
  0
INSERT
  5
9B3C
330
7878
100
AcDbEntity
  8
実形
 62
     0
370
    18
100
AcDbBlockReference
  2
_Dot
 10
1566.053280974976
 20
1773.875438359908
 30
0.0
 41
10.0
 42
10.0
 43
10.0
  0
INSERT
  5
9B3D
330
7878
100
AcDbEntity
  8
実形
 62
     0
370
    18
100
AcDbBlockReference
  2
_Dot
 10
736.0532809749765
 20
1773.875438359908
 30
0.0
 41
10.0
 42
10.0
 43
10.0
 50
180.0
  0
POINT
  5
9B3E
330
7878
100
AcDbEntity
  8
Defpoints
 62
     0
100
AcDbPoint
 10
1566.053280974976
 20
1663.296423815394
 30
0.0
  0
POINT
  5
9B3F
330
7878
100
AcDbEntity
  8
Defpoints
 62
     0
100
AcDbPoint
 10
736.0532809749765
 20
1662.651727076809
 30
0.0
  0
POINT
  5
9B40
330
7878
100
AcDbEntity
  8
Defpoints
 62
     0
100
AcDbPoint
 10
736.0532809749765
 20
1773.875438359908
 30
0.0
  0
ENDBLK
  5
7883
330
7878
100
AcDbEntity
  8
0
 62
     3
100
AcDbBlockEnd
  0
BLOCK
  5
79A4
330
79A0
100
AcDbEntity
  8
0
 62
     3
100
AcDbBlockBegin
  2
A$C34481AC4
 70
     0
 10
0.0
 20
0.0
 30
0.0
  3
A$C34481AC4
  1

  0
TEXT
  5
79A1
330
79A0
100
AcDbEntity
  8
実形
370
    13
100
AcDbText
 10
21.66666199574517
 20
-1.666654965347788
 30
0.0
 40
25.0
  1
●
 71
     2
 72
     1
 11
9.999995329078501
 21
-1.666654965347788
 31
0.0
100
AcDbText
  0
ENDBLK
  5
79A5
330
79A0
100
AcDbEntity
  8
0
 62
     3
100
AcDbBlockEnd
  0
BLOCK
  5
79BB
330
79B1
100
AcDbEntity
  8
0
 62
     3
100
AcDbBlockBegin
  2
*D20
 70
     1
 10
0.0
 20
0.0
 30
0.0
  3
*D20
  1

  0
LINE
  5
9B89
330
79B1
100
AcDbEntity
  8
実形
 62
     0
370
    18
100
AcDbLine
 10
675.6105981027901
 20
1554.178460662066
 30
0.0
 11
646.4313207137002
 21
1554.178460662066
 31
0.0
  0
LINE
  5
9B8A
330
79B1
100
AcDbEntity
  8
実形
 62
     0
370
    18
100
AcDbLine
 10
675.6105981027901
 20
1644.178460662066
 30
0.0
 11
646.4313207137002
 21
1644.178460662066
 31
0.0
  0
LINE
  5
9B8B
330
79B1
100
AcDbEntity
  8
実形
 62
     0
370
    18
100
AcDbLine
 10
646.4313207137002
 20
1564.178460662066
 30
0.0
 11
646.4313207137002
 21
1564.782476377823
 31
0.0
  0
LINE
  5
9B8C
330
79B1
100
AcDbEntity
  8
実形
 62
     0
370
    18
100
AcDbLine
 10
646.4313207137002
 20
1634.178460662066
 30
0.0
 11
646.4313207137002
 21
1615.482476377823
 31
0.0
  0
MTEXT
  5
9B8D
330
79B1
100
AcDbEntity
  8
実形
 62
     0
100
AcDbMText
 10
629.3580733355902
 20
1590.132476377824
 30
0.0
 40
25.0
 41
0.0
 71
     5
 72
     1
  1
70
 11
0.0000000000000001
 21
1.0
 31
0.0
 73
     1
 44
1.0
1001
ACAD
1000
MTEXTBEGIN
1070
    73
1070
     1
1070
    44
1040
1.0
1070
    74
1070
     0
1000
MTEXTEND
  0
INSERT
  5
9B8E
330
79B1
100
AcDbEntity
  8
実形
 62
     0
370
    18
100
AcDbBlockReference
  2
_Dot
 10
646.4313207137002
 20
1554.178460662066
 30
0.0
 41
10.0
 42
10.0
 43
10.0
 50
270.0
  0
INSERT
  5
9B8F
330
79B1
100
AcDbEntity
  8
実形
 62
     0
370
    18
100
AcDbBlockReference
  2
_Dot
 10
646.4313207137002
 20
1644.178460662066
 30
0.0
 41
10.0
 42
10.0
 43
10.0
 50
90.0
  0
POINT
  5
9B90
330
79B1
100
AcDbEntity
  8
Defpoints
 62
     0
100
AcDbPoint
 10
740.6105981027901
 20
1554.178460662066
 30
0.0
  0
POINT
  5
9B91
330
79B1
100
AcDbEntity
  8
Defpoints
 62
     0
100
AcDbPoint
 10
740.6105981027901
 20
1644.178460662066
 30
0.0
  0
POINT
  5
9B92
330
79B1
100
AcDbEntity
  8
Defpoints
 62
     0
100
AcDbPoint
 10
646.4313207137002
 20
1644.178460662066
 30
0.0
  0
ENDBLK
  5
79BC
330
79B1
100
AcDbEntity
  8
0
 62
     3
100
AcDbBlockEnd
  0
BLOCK
  5
79E3
330
79D9
100
AcDbEntity
  8
0
 62
     3
100
AcDbBlockBegin
  2
*D21
 70
     1
 10
0.0
 20
0.0
 30
0.0
  3
*D21
  1

  0
LINE
  5
9B80
330
79D9
100
AcDbEntity
  8
実形
 62
     0
370
    18
100
AcDbLine
 10
675.6105981027901
 20
1554.178460662066
 30
0.0
 11
646.4313207137002
 21
1554.178460662066
 31
0.0
  0
LINE
  5
9B81
330
79D9
100
AcDbEntity
  8
実形
 62
     0
370
    18
100
AcDbLine
 10
681.6105981027903
 20
1624.178460662066
 30
0.0
 11
646.4313207137002
 21
1624.178460662066
 31
0.0
  0
LINE
  5
9B82
330
79D9
100
AcDbEntity
  8
実形
 62
     0
370
    18
100
AcDbLine
 10
646.4313207137002
 20
1564.178460662066
 30
0.0
 11
646.4313207137002
 21
1614.178460662066
 31
0.0
  0
MTEXT
  5
9B83
330
79D9
100
AcDbEntity
  8
実形
 62
     0
100
AcDbMText
 10
709.6457412016007
 20
1625.22842009638
 30
0.0
 40
25.0
 41
0.0
 71
     5
 72
     1
  1
20
 11
0.0000000000000001
 21
1.0
 31
0.0
 73
     1
 44
1.0
1001
ACAD
1000
MTEXTBEGIN
1070
    73
1070
     1
1070
    44
1040
1.0
1070
    74
1070
     0
1000
MTEXTEND
  0
INSERT
  5
9B84
330
79D9
100
AcDbEntity
  8
実形
 62
     0
370
    18
100
AcDbBlockReference
  2
_Dot
 10
646.4313207137002
 20
1554.178460662066
 30
0.0
 41
10.0
 42
10.0
 43
10.0
 50
270.0
  0
INSERT
  5
9B85
330
79D9
100
AcDbEntity
  8
実形
 62
     0
370
    18
100
AcDbBlockReference
  2
_Dot
 10
646.4313207137002
 20
1624.178460662066
 30
0.0
 41
10.0
 42
10.0
 43
10.0
 50
90.0
  0
POINT
  5
9B86
330
79D9
100
AcDbEntity
  8
Defpoints
 62
     0
100
AcDbPoint
 10
740.6105981027901
 20
1554.178460662066
 30
0.0
  0
POINT
  5
9B87
330
79D9
100
AcDbEntity
  8
Defpoints
 62
     0
100
AcDbPoint
 10
746.6105981027904
 20
1624.178460662066
 30
0.0
  0
POINT
  5
9B88
330
79D9
100
AcDbEntity
  8
Defpoints
 62
     0
100
AcDbPoint
 10
646.4313207137002
 20
1624.178460662066
 30
0.0
  0
ENDBLK
  5
79E4
330
79D9
100
AcDbEntity
  8
0
 62
     3
100
AcDbBlockEnd
  0
BLOCK
  5
7A18
330
7A0E
100
AcDbEntity
  8
0
 62
     3
100
AcDbBlockBegin
  2
*D22
 70
     1
 10
0.0
 20
0.0
 30
0.0
  3
*D22
  1

  0
LINE
  5
9B77
330
7A0E
100
AcDbEntity
  8
実形
 62
     0
370
    18
100
AcDbLine
 10
644.054309333449
 20
1644.178460662066
 30
0.0
 11
580.6110897416528
 21
1644.178460662066
 31
0.0
  0
LINE
  5
9B78
330
7A0E
100
AcDbEntity
  8
実形
 62
     0
370
    18
100
AcDbLine
 10
623.0331621179154
 20
1554.178460662066
 30
0.0
 11
580.6110897416528
 21
1554.178460662066
 31
0.0
  0
LINE
  5
9B79
330
7A0E
100
AcDbEntity
  8
実形
 62
     0
370
    18
100
AcDbLine
 10
580.6110897416528
 20
1634.178460662066
 30
0.0
 11
580.6110897416528
 21
1564.178460662066
 31
0.0
  0
INSERT
  5
9B7A
330
7A0E
100
AcDbEntity
  8
実形
 62
     0
370
    18
100
AcDbBlockReference
  2
_Dot
 10
580.6110897416528
 20
1644.178460662066
 30
0.0
 41
10.0
 42
10.0
 43
10.0
 50
90.0
  0
INSERT
  5
9B7B
330
7A0E
100
AcDbEntity
  8
実形
 62
     0
370
    18
100
AcDbBlockReference
  2
_Dot
 10
580.6110897416528
 20
1554.178460662066
 30
0.0
 41
10.0
 42
10.0
 43
10.0
 50
270.0
  0
MTEXT
  5
9B7C
330
7A0E
100
AcDbEntity
  8
実形
 62
     0
100
AcDbMText
 10
561.5110897416526
 20
1599.178460662066
 30
0.0
 40
25.0
 41
0.0
 71
     5
 72
     1
  1
90
 11
0.0000000000000001
 21
1.0
 31
0.0
 73
     1
 44
1.0
1001
ACAD
1000
MTEXTBEGIN
1070
    73
1070
     1
1070
    44
1040
1.0
1070
    74
1070
     0
1000
MTEXTEND
  0
POINT
  5
9B7D
330
7A0E
100
AcDbEntity
  8
Defpoints
 62
     0
100
AcDbPoint
 10
709.054309333449
 20
1644.178460662066
 30
0.0
  0
POINT
  5
9B7E
330
7A0E
100
AcDbEntity
  8
Defpoints
 62
     0
100
AcDbPoint
 10
688.0331621179155
 20
1554.178460662066
 30
0.0
  0
POINT
  5
9B7F
330
7A0E
100
AcDbEntity
  8
Defpoints
 62
     0
100
AcDbPoint
 10
580.6110897416528
 20
1554.178460662066
 30
0.0
  0
ENDBLK
  5
7A19
330
7A0E
100
AcDbEntity
  8
0
 62
     3
100
AcDbBlockEnd
  0
BLOCK
  5
7A39
330
7A2F
100
AcDbEntity
  8
0
 62
     3
100
AcDbBlockBegin
  2
*D23
 70
     1
 10
0.0
 20
0.0
 30
0.0
  3
*D23
  1

  0
LINE
  5
9B6E
330
7A2F
100
AcDbEntity
  8
実形
 62
     0
370
    18
100
AcDbLine
 10
640.9573702596499
 20
1554.178460662066
 30
0.0
 11
580.6110897416528
 21
1554.178460662066
 31
0.0
  0
LINE
  5
9B6F
330
7A2F
100
AcDbEntity
  8
実形
 62
     0
370
    18
100
AcDbLine
 10
646.0775897777948
 20
1204.178460662066
 30
0.0
 11
580.6110897416527
 21
1204.178460662066
 31
0.0
  0
LINE
  5
9B70
330
7A2F
100
AcDbEntity
  8
実形
 62
     0
370
    18
100
AcDbLine
 10
580.6110897416528
 20
1544.178460662066
 30
0.0
 11
580.6110897416527
 21
1214.178460662066
 31
0.0
  0
INSERT
  5
9B71
330
7A2F
100
AcDbEntity
  8
実形
 62
     0
370
    18
100
AcDbBlockReference
  2
_Dot
 10
580.6110897416528
 20
1554.178460662066
 30
0.0
 41
10.0
 42
10.0
 43
10.0
 50
90.0
  0
INSERT
  5
9B72
330
7A2F
100
AcDbEntity
  8
実形
 62
     0
370
    18
100
AcDbBlockReference
  2
_Dot
 10
580.6110897416527
 20
1204.178460662066
 30
0.0
 41
10.0
 42
10.0
 43
10.0
 50
270.0
  0
MTEXT
  5
9B73
330
7A2F
100
AcDbEntity
  8
実形
 62
     0
100
AcDbMText
 10
561.5110897416525
 20
1379.178460662066
 30
0.0
 40
25.0
 41
0.0
 71
     5
 72
     1
  1
350
 11
0.0000000000000001
 21
1.0
 31
0.0
 73
     1
 44
1.0
1001
ACAD
1000
MTEXTBEGIN
1070
    73
1070
     1
1070
    44
1040
1.0
1070
    74
1070
     0
1000
MTEXTEND
  0
POINT
  5
9B74
330
7A2F
100
AcDbEntity
  8
Defpoints
 62
     0
100
AcDbPoint
 10
705.9573702596499
 20
1554.178460662066
 30
0.0
  0
POINT
  5
9B75
330
7A2F
100
AcDbEntity
  8
Defpoints
 62
     0
100
AcDbPoint
 10
711.0775897777948
 20
1204.178460662066
 30
0.0
  0
POINT
  5
9B76
330
7A2F
100
AcDbEntity
  8
Defpoints
 62
     0
100
AcDbPoint
 10
580.6110897416527
 20
1204.178460662066
 30
0.0
  0
ENDBLK
  5
7A3A
330
7A2F
100
AcDbEntity
  8
0
 62
     3
100
AcDbBlockEnd
  0
BLOCK
  5
7A58
330
7A4E
100
AcDbEntity
  8
0
 62
     3
100
AcDbBlockBegin
  2
*D24
 70
     1
 10
0.0
 20
0.0
 30
0.0
  3
*D24
  1

  0
LINE
  5
9B4A
330
7A4E
100
AcDbEntity
  8
実形
 62
     0
370
    18
100
AcDbLine
 10
672.4370316408258
 20
1659.178460662066
 30
0.0
 11
580.6110897416528
 21
1659.178460662066
 31
0.0
  0
LINE
  5
9B4B
330
7A4E
100
AcDbEntity
  8
実形
 62
     0
370
    18
100
AcDbLine
 10
645.5471809943828
 20
1169.178460662066
 30
0.0
 11
580.6110897416527
 21
1169.178460662066
 31
0.0
  0
LINE
  5
9B4C
330
7A4E
100
AcDbEntity
  8
実形
 62
     0
370
    18
100
AcDbLine
 10
580.6110897416528
 20
1649.178460662066
 30
0.0
 11
580.6110897416527
 21
1179.178460662066
 31
0.0
  0
MTEXT
  5
9B4D
330
7A4E
100
AcDbEntity
  8
実形
 62
     0
100
AcDbMText
 10
558.4716145224265
 20
1681.647378054783
 30
0.0
 40
25.0
 41
0.0
 71
     5
 72
     1
  1
15
 11
0.0000000000000001
 21
1.0
 31
0.0
 73
     1
 44
1.0
1001
ACAD
1000
MTEXTBEGIN
1070
    73
1070
     1
1070
    44
1040
1.0
1070
    74
1070
     0
1000
MTEXTEND
  0
INSERT
  5
9B4E
330
7A4E
100
AcDbEntity
  8
実形
 62
     0
370
    18
100
AcDbBlockReference
  2
_Dot
 10
580.6110897416528
 20
1659.178460662066
 30
0.0
 41
10.0
 42
10.0
 43
10.0
 50
90.0
  0
INSERT
  5
9B4F
330
7A4E
100
AcDbEntity
  8
実形
 62
     0
370
    18
100
AcDbBlockReference
  2
_Dot
 10
580.6110897416527
 20
1169.178460662066
 30
0.0
 41
10.0
 42
10.0
 43
10.0
 50
270.0
  0
POINT
  5
9B50
330
7A4E
100
AcDbEntity
  8
Defpoints
 62
     0
100
AcDbPoint
 10
737.4370316408258
 20
1659.178460662066
 30
0.0
  0
POINT
  5
9B51
330
7A4E
100
AcDbEntity
  8
Defpoints
 62
     0
100
AcDbPoint
 10
710.5471809943828
 20
1169.178460662066
 30
0.0
  0
POINT
  5
9B52
330
7A4E
100
AcDbEntity
  8
Defpoints
 62
     0
100
AcDbPoint
 10
580.6110897416527
 20
1169.178460662066
 30
0.0
  0
ENDBLK
  5
7A59
330
7A4E
100
AcDbEntity
  8
0
 62
     3
100
AcDbBlockEnd
  0
BLOCK
  5
7B59
330
7B4F
100
AcDbEntity
  8
0
 62
     3
100
AcDbBlockBegin
  2
*D25
 70
     1
 10
0.0
 20
0.0
 30
0.0
  3
*D25
  1

  0
LINE
  5
9B65
330
7B4F
100
AcDbEntity
  8
実形
 62
     0
370
    18
100
AcDbLine
 10
646.0775897777948
 20
1184.178460662066
 30
0.0
 11
580.6110897416528
 21
1184.178460662066
 31
0.0
  0
LINE
  5
9B66
330
7B4F
100
AcDbEntity
  8
実形
 62
     0
370
    18
100
AcDbLine
 10
610.6105981027901
 20
1554.178460662066
 30
0.0
 11
580.6110897416528
 21
1554.178460662066
 31
0.0
  0
LINE
  5
9B67
330
7B4F
100
AcDbEntity
  8
実形
 62
     0
370
    18
100
AcDbLine
 10
580.6110897416528
 20
1194.178460662066
 30
0.0
 11
580.6110897416528
 21
1544.178460662066
 31
0.0
  0
MTEXT
  5
9B68
330
7B4F
100
AcDbEntity
  8
実形
 62
     0
100
AcDbMText
 10
664.6815704476048
 20
1204.170355646408
 30
0.0
 40
25.0
 41
0.0
 71
     5
 72
     1
  1
20
 11
0.0000000000000001
 21
1.0
 31
0.0
 73
     1
 44
1.0
1001
ACAD
1000
MTEXTBEGIN
1070
    73
1070
     1
1070
    44
1040
1.0
1070
    74
1070
     0
1000
MTEXTEND
  0
INSERT
  5
9B69
330
7B4F
100
AcDbEntity
  8
実形
 62
     0
370
    18
100
AcDbBlockReference
  2
_Dot
 10
580.6110897416528
 20
1184.178460662066
 30
0.0
 41
10.0
 42
10.0
 43
10.0
 50
270.0
  0
INSERT
  5
9B6A
330
7B4F
100
AcDbEntity
  8
実形
 62
     0
370
    18
100
AcDbBlockReference
  2
_Dot
 10
580.6110897416528
 20
1554.178460662066
 30
0.0
 41
10.0
 42
10.0
 43
10.0
 50
90.0
  0
POINT
  5
9B6B
330
7B4F
100
AcDbEntity
  8
Defpoints
 62
     0
100
AcDbPoint
 10
711.0775897777948
 20
1184.178460662066
 30
0.0
  0
POINT
  5
9B6C
330
7B4F
100
AcDbEntity
  8
Defpoints
 62
     0
100
AcDbPoint
 10
675.6105981027901
 20
1554.178460662066
 30
0.0
  0
POINT
  5
9B6D
330
7B4F
100
AcDbEntity
  8
Defpoints
 62
     0
100
AcDbPoint
 10
580.6110897416528
 20
1554.178460662066
 30
0.0
  0
ENDBLK
  5
7B5A
330
7B4F
100
AcDbEntity
  8
0
 62
     3
100
AcDbBlockEnd
  0
BLOCK
  5
7BAF
330
7BA5
100
AcDbEntity
  8
0
 62
     3
100
AcDbBlockBegin
  2
*D26
 70
     1
 10
0.0
 20
0.0
 30
0.0
  3
*D26
  1

  0
LINE
  5
9B5C
330
7BA5
100
AcDbEntity
  8
実形
 62
     0
370
    18
100
AcDbLine
 10
675.0100178911671
 20
1644.178460662066
 30
0.0
 11
524.639533246711
 21
1644.178460662066
 31
0.0
  0
LINE
  5
9B5D
330
7BA5
100
AcDbEntity
  8
実形
 62
     0
370
    18
100
AcDbLine
 10
648.0887020536247
 20
1184.178460662066
 30
0.0
 11
524.6395332467109
 21
1184.178460662066
 31
0.0
  0
LINE
  5
9B5E
330
7BA5
100
AcDbEntity
  8
実形
 62
     0
370
    18
100
AcDbLine
 10
524.639533246711
 20
1634.178460662066
 30
0.0
 11
524.6395332467109
 21
1194.178460662066
 31
0.0
  0
INSERT
  5
9B5F
330
7BA5
100
AcDbEntity
  8
実形
 62
     0
370
    18
100
AcDbBlockReference
  2
_Dot
 10
524.639533246711
 20
1644.178460662066
 30
0.0
 41
10.0
 42
10.0
 43
10.0
 50
90.0
  0
INSERT
  5
9B60
330
7BA5
100
AcDbEntity
  8
実形
 62
     0
370
    18
100
AcDbBlockReference
  2
_Dot
 10
524.6395332467109
 20
1184.178460662066
 30
0.0
 41
10.0
 42
10.0
 43
10.0
 50
270.0
  0
MTEXT
  5
9B61
330
7BA5
100
AcDbEntity
  8
実形
 62
     0
100
AcDbMText
 10
505.5395332467107
 20
1414.178460662066
 30
0.0
 40
25.0
 41
0.0
 71
     5
 72
     1
  1
460
 11
0.0000000000000001
 21
1.0
 31
0.0
 73
     1
 44
1.0
1001
ACAD
1000
MTEXTBEGIN
1070
    73
1070
     1
1070
    44
1040
1.0
1070
    74
1070
     0
1000
MTEXTEND
  0
POINT
  5
9B62
330
7BA5
100
AcDbEntity
  8
Defpoints
 62
     0
100
AcDbPoint
 10
740.0100178911671
 20
1644.178460662066
 30
0.0
  0
POINT
  5
9B63
330
7BA5
100
AcDbEntity
  8
Defpoints
 62
     0
100
AcDbPoint
 10
713.0887020536247
 20
1184.178460662066
 30
0.0
  0
POINT
  5
9B64
330
7BA5
100
AcDbEntity
  8
Defpoints
 62
     0
100
AcDbPoint
 10
524.6395332467109
 20
1184.178460662066
 30
0.0
  0
ENDBLK
  5
7BB0
330
7BA5
100
AcDbEntity
  8
0
 62
     3
100
AcDbBlockEnd
  0
BLOCK
  5
7BD7
330
7BCD
100
AcDbEntity
  8
0
 62
     3
100
AcDbBlockBegin
  2
*D27
 70
     1
 10
0.0
 20
0.0
 30
0.0
  3
*D27
  1

  0
LINE
  5
9B53
330
7BCD
100
AcDbEntity
  8
実形
 62
     0
370
    18
100
AcDbLine
 10
671.0532809749765
 20
1659.178460662066
 30
0.0
 11
465.166572242435
 21
1659.178460662066
 31
0.0
  0
LINE
  5
9B54
330
7BCD
100
AcDbEntity
  8
実形
 62
     0
370
    18
100
AcDbLine
 10
649.1013936728468
 20
1169.178460662066
 30
0.0
 11
465.166572242435
 21
1169.178460662066
 31
0.0
  0
LINE
  5
9B55
330
7BCD
100
AcDbEntity
  8
実形
 62
     0
370
    18
100
AcDbLine
 10
465.166572242435
 20
1649.178460662066
 30
0.0
 11
465.166572242435
 21
1179.178460662066
 31
0.0
  0
INSERT
  5
9B56
330
7BCD
100
AcDbEntity
  8
実形
 62
     0
370
    18
100
AcDbBlockReference
  2
_Dot
 10
465.166572242435
 20
1659.178460662066
 30
0.0
 41
10.0
 42
10.0
 43
10.0
 50
90.0
  0
INSERT
  5
9B57
330
7BCD
100
AcDbEntity
  8
実形
 62
     0
370
    18
100
AcDbBlockReference
  2
_Dot
 10
465.166572242435
 20
1169.178460662066
 30
0.0
 41
10.0
 42
10.0
 43
10.0
 50
270.0
  0
MTEXT
  5
9B58
330
7BCD
100
AcDbEntity
  8
実形
 62
     0
100
AcDbMText
 10
446.0665722424348
 20
1414.178460662066
 30
0.0
 40
25.0
 41
0.0
 71
     5
 72
     1
  1
490
 11
0.0000000000000001
 21
1.0
 31
0.0
 73
     1
 44
1.0
1001
ACAD
1000
MTEXTBEGIN
1070
    73
1070
     1
1070
    44
1040
1.0
1070
    74
1070
     0
1000
MTEXTEND
  0
POINT
  5
9B59
330
7BCD
100
AcDbEntity
  8
Defpoints
 62
     0
100
AcDbPoint
 10
736.0532809749765
 20
1659.178460662066
 30
0.0
  0
POINT
  5
9B5A
330
7BCD
100
AcDbEntity
  8
Defpoints
 62
     0
100
AcDbPoint
 10
714.1013936728468
 20
1169.178460662066
 30
0.0
  0
POINT
  5
9B5B
330
7BCD
100
AcDbEntity
  8
Defpoints
 62
     0
100
AcDbPoint
 10
465.166572242435
 20
1169.178460662066
 30
0.0
  0
ENDBLK
  5
7BD8
330
7BCD
100
AcDbEntity
  8
0
 62
     3
100
AcDbBlockEnd
  0
BLOCK
  5
7F0A
330
7F09
100
AcDbEntity
  8
0
 62
     3
100
AcDbBlockBegin
  2
*D28
 70
     1
 10
0.0
 20
0.0
 30
0.0
  3
*D28
  1

  0
LINE
  5
7F0B
330
7F09
100
AcDbEntity
  8
実形
 62
     0
370
    18
100
AcDbLine
 10
862.7702104998824
 20
1104.178460662066
 30
0.0
 11
862.7702104998824
 21
1036.915758957679
 31
0.0
  0
LINE
  5
7F0C
330
7F09
100
AcDbEntity
  8
実形
 62
     0
370
    18
100
AcDbLine
 10
1622.770210499882
 20
1104.178460662066
 30
0.0
 11
1622.770210499882
 21
1036.915758957679
 31
0.0
  0
LINE
  5
7F0D
330
7F09
100
AcDbEntity
  8
実形
 62
     0
370
    18
100
AcDbLine
 10
872.7702104998824
 20
1036.915758957679
 30
0.0
 11
1612.770210499882
 21
1036.915758957679
 31
0.0
  0
INSERT
  5
7F0E
330
7F09
100
AcDbEntity
  8
実形
 62
     0
370
    18
100
AcDbBlockReference
  2
_Dot
 10
862.7702104998824
 20
1036.915758957679
 30
0.0
 41
10.0
 42
10.0
 43
10.0
 50
180.0
  0
INSERT
  5
7F0F
330
7F09
100
AcDbEntity
  8
実形
 62
     0
370
    18
100
AcDbBlockReference
  2
_Dot
 10
1622.770210499882
 20
1036.915758957679
 30
0.0
 41
10.0
 42
10.0
 43
10.0
  0
MTEXT
  5
7F10
330
7F09
100
AcDbEntity
  8
実形
 62
     0
100
AcDbMText
 10
1242.770210499882
 20
1056.015758957679
 30
0.0
 40
25.0
 41
0.0
 71
     5
 72
     1
  1
760
 73
     1
 44
1.0
1001
ACAD
1000
MTEXTBEGIN
1070
    73
1070
     1
1070
    44
1040
1.0
1070
    74
1070
     0
1000
MTEXTEND
  0
POINT
  5
7F11
330
7F09
100
AcDbEntity
  8
Defpoints
 62
     0
100
AcDbPoint
 10
862.7702104998824
 20
1169.178460662066
 30
0.0
  0
POINT
  5
7F12
330
7F09
100
AcDbEntity
  8
Defpoints
 62
     0
100
AcDbPoint
 10
1622.770210499882
 20
1169.178460662066
 30
0.0
  0
POINT
  5
7F13
330
7F09
100
AcDbEntity
  8
Defpoints
 62
     0
100
AcDbPoint
 10
1622.770210499882
 20
1036.915758957679
 30
0.0
  0
ENDBLK
  5
7F14
330
7F09
100
AcDbEntity
  8
0
 62
     3
100
AcDbBlockEnd
  0
BLOCK
  5
7F16
330
7F15
100
AcDbEntity
  8
0
 62
     3
100
AcDbBlockBegin
  2
*D29
 70
     1
 10
0.0
 20
0.0
 30
0.0
  3
*D29
  1

  0
LINE
  5
7F17
330
7F15
100
AcDbEntity
  8
実形
 62
     0
370
    18
100
AcDbLine
 10
842.7702104998825
 20
1104.178460662066
 30
0.0
 11
842.7702104998825
 21
1036.915758957679
 31
0.0
  0
LINE
  5
7F18
330
7F15
100
AcDbEntity
  8
実形
 62
     0
370
    18
100
AcDbLine
 10
1642.770210499882
 20
1104.178460662066
 30
0.0
 11
1642.770210499882
 21
1036.915758957679
 31
0.0
  0
LINE
  5
7F19
330
7F15
100
AcDbEntity
  8
実形
 62
     0
370
    18
100
AcDbLine
 10
852.7702104998825
 20
1036.915758957679
 30
0.0
 11
1632.770210499882
 21
1036.915758957679
 31
0.0
  0
MTEXT
  5
7F1A
330
7F15
100
AcDbEntity
  8
実形
 62
     0
100
AcDbMText
 10
1589.171363804602
 20
1058.515758957679
 30
0.0
 40
25.0
 41
0.0
 71
     5
 72
     1
  1
20
 73
     1
 44
1.0
1001
ACAD
1000
MTEXTBEGIN
1070
    73
1070
     1
1070
    44
1040
1.0
1070
    74
1070
     0
1000
MTEXTEND
  0
INSERT
  5
7F1B
330
7F15
100
AcDbEntity
  8
実形
 62
     0
370
    18
100
AcDbBlockReference
  2
_Dot
 10
842.7702104998825
 20
1036.915758957679
 30
0.0
 41
10.0
 42
10.0
 43
10.0
 50
180.0
  0
INSERT
  5
7F1C
330
7F15
100
AcDbEntity
  8
実形
 62
     0
370
    18
100
AcDbBlockReference
  2
_Dot
 10
1642.770210499882
 20
1036.915758957679
 30
0.0
 41
10.0
 42
10.0
 43
10.0
  0
POINT
  5
7F1D
330
7F15
100
AcDbEntity
  8
Defpoints
 62
     0
100
AcDbPoint
 10
842.7702104998825
 20
1169.178460662066
 30
0.0
  0
POINT
  5
7F1E
330
7F15
100
AcDbEntity
  8
Defpoints
 62
     0
100
AcDbPoint
 10
1642.770210499882
 20
1169.178460662066
 30
0.0
  0
POINT
  5
7F1F
330
7F15
100
AcDbEntity
  8
Defpoints
 62
     0
100
AcDbPoint
 10
1642.770210499882
 20
1036.915758957679
 30
0.0
  0
ENDBLK
  5
7F20
330
7F15
100
AcDbEntity
  8
0
 62
     3
100
AcDbBlockEnd
  0
BLOCK
  5
7F22
330
7F21
100
AcDbEntity
  8
0
 62
     3
100
AcDbBlockBegin
  2
*D30
 70
     1
 10
0.0
 20
0.0
 30
0.0
  3
*D30
  1

  0
LINE
  5
7F23
330
7F21
100
AcDbEntity
  8
実形
 62
     0
370
    18
100
AcDbLine
 10
842.7702104998825
 20
1104.178460662066
 30
0.0
 11
842.7702104998825
 21
974.5052716017053
 31
0.0
  0
LINE
  5
7F24
330
7F21
100
AcDbEntity
  8
実形
 62
     0
370
    18
100
AcDbLine
 10
1642.770210499882
 20
1104.178460662066
 30
0.0
 11
1642.770210499882
 21
974.5052716017053
 31
0.0
  0
LINE
  5
7F25
330
7F21
100
AcDbEntity
  8
実形
 62
     0
370
    18
100
AcDbLine
 10
852.7702104998825
 20
974.5052716017053
 30
0.0
 11
1632.770210499882
 21
974.5052716017053
 31
0.0
  0
INSERT
  5
7F26
330
7F21
100
AcDbEntity
  8
実形
 62
     0
370
    18
100
AcDbBlockReference
  2
_Dot
 10
842.7702104998825
 20
974.5052716017053
 30
0.0
 41
10.0
 42
10.0
 43
10.0
 50
180.0
  0
INSERT
  5
7F27
330
7F21
100
AcDbEntity
  8
実形
 62
     0
370
    18
100
AcDbBlockReference
  2
_Dot
 10
1642.770210499882
 20
974.5052716017053
 30
0.0
 41
10.0
 42
10.0
 43
10.0
  0
MTEXT
  5
7F28
330
7F21
100
AcDbEntity
  8
実形
 62
     0
100
AcDbMText
 10
1242.770210499882
 20
993.6052716017053
 30
0.0
 40
25.0
 41
0.0
 71
     5
 72
     1
  1
800
 73
     1
 44
1.0
1001
ACAD
1000
MTEXTBEGIN
1070
    73
1070
     1
1070
    44
1040
1.0
1070
    74
1070
     0
1000
MTEXTEND
  0
POINT
  5
7F29
330
7F21
100
AcDbEntity
  8
Defpoints
 62
     0
100
AcDbPoint
 10
842.7702104998825
 20
1169.178460662066
 30
0.0
  0
POINT
  5
7F2A
330
7F21
100
AcDbEntity
  8
Defpoints
 62
     0
100
AcDbPoint
 10
1642.770210499882
 20
1169.178460662066
 30
0.0
  0
POINT
  5
7F2B
330
7F21
100
AcDbEntity
  8
Defpoints
 62
     0
100
AcDbPoint
 10
1642.770210499882
 20
974.5052716017053
 30
0.0
  0
ENDBLK
  5
7F2C
330
7F21
100
AcDbEntity
  8
0
 62
     3
100
AcDbBlockEnd
  0
BLOCK
  5
7F2E
330
7F2D
100
AcDbEntity
  8
0
 62
     3
100
AcDbBlockBegin
  2
*D31
 70
     1
 10
0.0
 20
0.0
 30
0.0
  3
*D31
  1

  0
LINE
  5
7F2F
330
7F2D
100
AcDbEntity
  8
実形
 62
     0
370
    18
100
AcDbLine
 10
827.7702104998825
 20
1104.178460662066
 30
0.0
 11
827.7702104998825
 21
974.5052716017053
 31
0.0
  0
LINE
  5
7F30
330
7F2D
100
AcDbEntity
  8
実形
 62
     0
370
    18
100
AcDbLine
 10
1657.770210499882
 20
1104.178460662066
 30
0.0
 11
1657.770210499882
 21
974.5052716017053
 31
0.0
  0
LINE
  5
7F31
330
7F2D
100
AcDbEntity
  8
実形
 62
     0
370
    18
100
AcDbLine
 10
837.7702104998824
 20
974.5052716017053
 30
0.0
 11
1647.770210499882
 21
974.5052716017053
 31
0.0
  0
MTEXT
  5
7F32
330
7F2D
100
AcDbEntity
  8
実形
 62
     0
100
AcDbMText
 10
1701.559743854428
 20
996.1052716017052
 30
0.0
 40
25.0
 41
0.0
 71
     5
 72
     1
  1
15
 73
     1
 44
1.0
1001
ACAD
1000
MTEXTBEGIN
1070
    73
1070
     1
1070
    44
1040
1.0
1070
    74
1070
     0
1000
MTEXTEND
  0
INSERT
  5
7F33
330
7F2D
100
AcDbEntity
  8
実形
 62
     0
370
    18
100
AcDbBlockReference
  2
_Dot
 10
827.7702104998825
 20
974.5052716017053
 30
0.0
 41
10.0
 42
10.0
 43
10.0
 50
180.0
  0
INSERT
  5
7F34
330
7F2D
100
AcDbEntity
  8
実形
 62
     0
370
    18
100
AcDbBlockReference
  2
_Dot
 10
1657.770210499882
 20
974.5052716017053
 30
0.0
 41
10.0
 42
10.0
 43
10.0
  0
POINT
  5
7F35
330
7F2D
100
AcDbEntity
  8
Defpoints
 62
     0
100
AcDbPoint
 10
827.7702104998825
 20
1169.178460662066
 30
0.0
  0
POINT
  5
7F36
330
7F2D
100
AcDbEntity
  8
Defpoints
 62
     0
100
AcDbPoint
 10
1657.770210499882
 20
1169.178460662066
 30
0.0
  0
POINT
  5
7F37
330
7F2D
100
AcDbEntity
  8
Defpoints
 62
     0
100
AcDbPoint
 10
1657.770210499882
 20
974.5052716017053
 30
0.0
  0
ENDBLK
  5
7F38
330
7F2D
100
AcDbEntity
  8
0
 62
     3
100
AcDbBlockEnd
  0
BLOCK
  5
7F3A
330
7F39
100
AcDbEntity
  8
0
 62
     3
100
AcDbBlockBegin
  2
*D32
 70
     1
 10
0.0
 20
0.0
 30
0.0
  3
*D32
  1

  0
LINE
  5
7F3B
330
7F39
100
AcDbEntity
  8
実形
 62
     0
370
    18
100
AcDbLine
 10
827.7702104998825
 20
1104.178460662066
 30
0.0
 11
827.7702104998825
 21
901.2836911315535
 31
0.0
  0
LINE
  5
7F3C
330
7F39
100
AcDbEntity
  8
実形
 62
     0
370
    18
100
AcDbLine
 10
1657.770210499882
 20
1104.178460662066
 30
0.0
 11
1657.770210499882
 21
901.2836911315535
 31
0.0
  0
LINE
  5
7F3D
330
7F39
100
AcDbEntity
  8
実形
 62
     0
370
    18
100
AcDbLine
 10
837.7702104998824
 20
901.2836911315535
 30
0.0
 11
1647.770210499882
 21
901.2836911315535
 31
0.0
  0
INSERT
  5
7F3E
330
7F39
100
AcDbEntity
  8
実形
 62
     0
370
    18
100
AcDbBlockReference
  2
_Dot
 10
827.7702104998825
 20
901.2836911315535
 30
0.0
 41
10.0
 42
10.0
 43
10.0
 50
180.0
  0
INSERT
  5
7F3F
330
7F39
100
AcDbEntity
  8
実形
 62
     0
370
    18
100
AcDbBlockReference
  2
_Dot
 10
1657.770210499882
 20
901.2836911315535
 30
0.0
 41
10.0
 42
10.0
 43
10.0
  0
MTEXT
  5
7F40
330
7F39
100
AcDbEntity
  8
実形
 62
     0
100
AcDbMText
 10
1242.770210499882
 20
920.3836911315535
 30
0.0
 40
25.0
 41
0.0
 71
     5
 72
     1
  1
830
 73
     1
 44
1.0
1001
ACAD
1000
MTEXTBEGIN
1070
    73
1070
     1
1070
    44
1040
1.0
1070
    74
1070
     0
1000
MTEXTEND
  0
POINT
  5
7F41
330
7F39
100
AcDbEntity
  8
Defpoints
 62
     0
100
AcDbPoint
 10
827.7702104998825
 20
1169.178460662066
 30
0.0
  0
POINT
  5
7F42
330
7F39
100
AcDbEntity
  8
Defpoints
 62
     0
100
AcDbPoint
 10
1657.770210499882
 20
1169.178460662066
 30
0.0
  0
POINT
  5
7F43
330
7F39
100
AcDbEntity
  8
Defpoints
 62
     0
100
AcDbPoint
 10
1657.770210499882
 20
901.2836911315535
 30
0.0
  0
ENDBLK
  5
7F44
330
7F39
100
AcDbEntity
  8
0
 62
     3
100
AcDbBlockEnd
  0
BLOCK
  5
7F46
330
7F45
100
AcDbEntity
  8
0
 62
     3
100
AcDbBlockBegin
  2
*D33
 70
     1
 10
0.0
 20
0.0
 30
0.0
  3
*D33
  1

  0
LINE
  5
7F47
330
7F45
100
AcDbEntity
  8
実形
 62
     0
370
    18
100
AcDbLine
 10
852.0693431839134
 20
-167.3860966284574
 30
0.0
 11
797.3710940401326
 21
-167.3860966284573
 31
0.0
  0
LINE
  5
7F48
330
7F45
100
AcDbEntity
  8
実形
 62
     0
370
    18
100
AcDbLine
 10
852.0693431839132
 20
-367.3860966284573
 30
0.0
 11
797.3710940401324
 21
-367.3860966284573
 31
0.0
  0
LINE
  5
7F49
330
7F45
100
AcDbEntity
  8
実形
 62
     0
370
    18
100
AcDbLine
 10
797.3710940401326
 20
-177.3860966284573
 30
0.0
 11
797.3710940401324
 21
-357.3860966284573
 31
0.0
  0
INSERT
  5
7F4A
330
7F45
100
AcDbEntity
  8
実形
 62
     0
370
    18
100
AcDbBlockReference
  2
_Dot
 10
797.3710940401326
 20
-167.3860966284573
 30
0.0
 41
10.0
 42
10.0
 43
10.0
 50
90.0
  0
INSERT
  5
7F4B
330
7F45
100
AcDbEntity
  8
実形
 62
     0
370
    18
100
AcDbBlockReference
  2
_Dot
 10
797.3710940401324
 20
-367.3860966284573
 30
0.0
 41
10.0
 42
10.0
 43
10.0
 50
270.0
  0
MTEXT
  5
7F4C
330
7F45
100
AcDbEntity
  8
実形
 62
     0
100
AcDbMText
 10
778.2710940401325
 20
-267.3860966284572
 30
0.0
 40
25.0
 41
0.0
 71
     5
 72
     1
  1
200
 11
0.0000000000000001
 21
1.0
 31
0.0
 73
     1
 44
1.0
1001
ACAD
1000
MTEXTBEGIN
1070
    73
1070
     1
1070
    44
1040
1.0
1070
    74
1070
     0
1000
MTEXTEND
  0
POINT
  5
7F4D
330
7F45
100
AcDbEntity
  8
Defpoints
 62
     0
100
AcDbPoint
 10
917.0693431839135
 20
-167.3860966284574
 30
0.0
  0
POINT
  5
7F4E
330
7F45
100
AcDbEntity
  8
Defpoints
 62
     0
100
AcDbPoint
 10
917.0693431839133
 20
-367.3860966284574
 30
0.0
  0
POINT
  5
7F4F
330
7F45
100
AcDbEntity
  8
Defpoints
 62
     0
100
AcDbPoint
 10
797.3710940401324
 20
-367.3860966284573
 30
0.0
  0
ENDBLK
  5
7F50
330
7F45
100
AcDbEntity
  8
0
 62
     3
100
AcDbBlockEnd
  0
BLOCK
  5
7F52
330
7F51
100
AcDbEntity
  8
0
 62
     3
100
AcDbBlockBegin
  2
*D34
 70
     1
 10
0.0
 20
0.0
 30
0.0
  3
*D34
  1

  0
LINE
  5
7F53
330
7F51
100
AcDbEntity
  8
実形
 62
     0
370
    18
100
AcDbLine
 10
852.0693431839136
 20
-152.3860966284574
 30
0.0
 11
797.3710940401326
 21
-152.3860966284573
 31
0.0
  0
LINE
  5
7F54
330
7F51
100
AcDbEntity
  8
実形
 62
     0
370
    18
100
AcDbLine
 10
852.0693431839136
 20
-382.3860966284573
 30
0.0
 11
797.3710940401324
 21
-382.3860966284573
 31
0.0
  0
LINE
  5
7F55
330
7F51
100
AcDbEntity
  8
実形
 62
     0
370
    18
100
AcDbLine
 10
797.3710940401326
 20
-162.3860966284573
 30
0.0
 11
797.3710940401324
 21
-372.3860966284573
 31
0.0
  0
MTEXT
  5
7F56
330
7F51
100
AcDbEntity
  8
実形
 62
     0
100
AcDbMText
 10
775.7710940401323
 20
-176.4675834353729
 30
0.0
 40
25.0
 41
0.0
 71
     5
 72
     1
  1
15
 11
0.0000000000000001
 21
1.0
 31
0.0
 73
     1
 44
1.0
1001
ACAD
1000
MTEXTBEGIN
1070
    73
1070
     1
1070
    44
1040
1.0
1070
    74
1070
     0
1000
MTEXTEND
  0
INSERT
  5
7F57
330
7F51
100
AcDbEntity
  8
実形
 62
     0
370
    18
100
AcDbBlockReference
  2
_Dot
 10
797.3710940401326
 20
-152.3860966284573
 30
0.0
 41
10.0
 42
10.0
 43
10.0
 50
90.0
  0
INSERT
  5
7F58
330
7F51
100
AcDbEntity
  8
実形
 62
     0
370
    18
100
AcDbBlockReference
  2
_Dot
 10
797.3710940401324
 20
-382.3860966284573
 30
0.0
 41
10.0
 42
10.0
 43
10.0
 50
270.0
  0
POINT
  5
7F59
330
7F51
100
AcDbEntity
  8
Defpoints
 62
     0
100
AcDbPoint
 10
917.0693431839136
 20
-152.3860966284574
 30
0.0
  0
POINT
  5
7F5A
330
7F51
100
AcDbEntity
  8
Defpoints
 62
     0
100
AcDbPoint
 10
917.0693431839136
 20
-382.3860966284574
 30
0.0
  0
POINT
  5
7F5B
330
7F51
100
AcDbEntity
  8
Defpoints
 62
     0
100
AcDbPoint
 10
797.3710940401324
 20
-382.3860966284573
 30
0.0
  0
ENDBLK
  5
7F5C
330
7F51
100
AcDbEntity
  8
0
 62
     3
100
AcDbBlockEnd
  0
BLOCK
  5
7F5E
330
7F5D
100
AcDbEntity
  8
0
 62
     3
100
AcDbBlockBegin
  2
*D35
 70
     1
 10
0.0
 20
0.0
 30
0.0
  3
*D35
  1

  0
LINE
  5
7F5F
330
7F5D
100
AcDbEntity
  8
実形
 62
     0
370
    18
100
AcDbLine
 10
852.0693431839136
 20
-392.3860966284573
 30
0.0
 11
797.3710940401323
 21
-392.3860966284573
 31
0.0
  0
LINE
  5
7F60
330
7F5D
100
AcDbEntity
  8
実形
 62
     0
370
    18
100
AcDbLine
 10
852.0693431839136
 20
-152.3860966284574
 30
0.0
 11
797.3710940401324
 21
-152.3860966284573
 31
0.0
  0
LINE
  5
7F61
330
7F5D
100
AcDbEntity
  8
実形
 62
     0
370
    18
100
AcDbLine
 10
797.3710940401323
 20
-382.3860966284573
 30
0.0
 11
797.3710940401324
 21
-162.3860966284573
 31
0.0
  0
MTEXT
  5
7F62
330
7F5D
100
AcDbEntity
  8
実形
 62
     0
100
AcDbMText
 10
830.355261679284
 20
-411.1966776303161
 30
0.0
 40
25.0
 41
0.0
 71
     5
 72
     1
  1
8
 11
0.0000000000000001
 21
1.0
 31
0.0
 73
     1
 44
1.0
1001
ACAD
1000
MTEXTBEGIN
1070
    73
1070
     1
1070
    44
1040
1.0
1070
    74
1070
     0
1000
MTEXTEND
  0
INSERT
  5
7F63
330
7F5D
100
AcDbEntity
  8
実形
 62
     0
370
    18
100
AcDbBlockReference
  2
_Dot
 10
797.3710940401323
 20
-392.3860966284573
 30
0.0
 41
10.0
 42
10.0
 43
10.0
 50
270.0
  0
INSERT
  5
7F64
330
7F5D
100
AcDbEntity
  8
実形
 62
     0
370
    18
100
AcDbBlockReference
  2
_Dot
 10
797.3710940401324
 20
-152.3860966284573
 30
0.0
 41
10.0
 42
10.0
 43
10.0
 50
90.0
  0
POINT
  5
7F65
330
7F5D
100
AcDbEntity
  8
Defpoints
 62
     0
100
AcDbPoint
 10
917.0693431839136
 20
-392.3860966284574
 30
0.0
  0
POINT
  5
7F66
330
7F5D
100
AcDbEntity
  8
Defpoints
 62
     0
100
AcDbPoint
 10
917.0693431839136
 20
-152.3860966284574
 30
0.0
  0
POINT
  5
7F67
330
7F5D
100
AcDbEntity
  8
Defpoints
 62
     0
100
AcDbPoint
 10
797.3710940401324
 20
-152.3860966284573
 30
0.0
  0
ENDBLK
  5
7F68
330
7F5D
100
AcDbEntity
  8
0
 62
     3
100
AcDbBlockEnd
  0
BLOCK
  5
7F6A
330
7F69
100
AcDbEntity
  8
0
 62
     3
100
AcDbBlockBegin
  2
*D36
 70
     1
 10
0.0
 20
0.0
 30
0.0
  3
*D36
  1

  0
LINE
  5
7F6B
330
7F69
100
AcDbEntity
  8
実形
 62
     0
370
    18
100
AcDbLine
 10
852.0693431839136
 20
-152.3860966284574
 30
0.0
 11
727.6013470322833
 21
-152.3860966284573
 31
0.0
  0
LINE
  5
7F6C
330
7F69
100
AcDbEntity
  8
実形
 62
     0
370
    18
100
AcDbLine
 10
852.0693431839134
 20
-382.3860966284573
 30
0.0
 11
727.6013470322832
 21
-382.3860966284573
 31
0.0
  0
LINE
  5
7F6D
330
7F69
100
AcDbEntity
  8
実形
 62
     0
370
    18
100
AcDbLine
 10
727.6013470322833
 20
-162.3860966284573
 30
0.0
 11
727.6013470322832
 21
-372.3860966284573
 31
0.0
  0
INSERT
  5
7F6E
330
7F69
100
AcDbEntity
  8
実形
 62
     0
370
    18
100
AcDbBlockReference
  2
_Dot
 10
727.6013470322833
 20
-152.3860966284573
 30
0.0
 41
10.0
 42
10.0
 43
10.0
 50
90.0
  0
INSERT
  5
7F6F
330
7F69
100
AcDbEntity
  8
実形
 62
     0
370
    18
100
AcDbBlockReference
  2
_Dot
 10
727.6013470322832
 20
-382.3860966284573
 30
0.0
 41
10.0
 42
10.0
 43
10.0
 50
270.0
  0
MTEXT
  5
7F70
330
7F69
100
AcDbEntity
  8
実形
 62
     0
100
AcDbMText
 10
708.5013470322833
 20
-267.3860966284572
 30
0.0
 40
25.0
 41
0.0
 71
     5
 72
     1
  1
230
 11
0.0000000000000001
 21
1.0
 31
0.0
 73
     1
 44
1.0
1001
ACAD
1000
MTEXTBEGIN
1070
    73
1070
     1
1070
    44
1040
1.0
1070
    74
1070
     0
1000
MTEXTEND
  0
POINT
  5
7F71
330
7F69
100
AcDbEntity
  8
Defpoints
 62
     0
100
AcDbPoint
 10
917.0693431839136
 20
-152.3860966284574
 30
0.0
  0
POINT
  5
7F72
330
7F69
100
AcDbEntity
  8
Defpoints
 62
     0
100
AcDbPoint
 10
917.0693431839135
 20
-382.3860966284574
 30
0.0
  0
POINT
  5
7F73
330
7F69
100
AcDbEntity
  8
Defpoints
 62
     0
100
AcDbPoint
 10
727.6013470322832
 20
-382.3860966284573
 30
0.0
  0
ENDBLK
  5
7F74
330
7F69
100
AcDbEntity
  8
0
 62
     3
100
AcDbBlockEnd
  0
BLOCK
  5
7F76
330
7F75
100
AcDbEntity
  8
0
 62
     3
100
AcDbBlockBegin
  2
*D37
 70
     1
 10
0.0
 20
0.0
 30
0.0
  3
*D37
  1

  0
LINE
  5
7F77
330
7F75
100
AcDbEntity
  8
実形
 62
     0
370
    18
100
AcDbLine
 10
728.6814961412001
 20
-152.3860966284574
 30
0.0
 11
660.6927293655045
 21
-152.3860966284573
 31
0.0
  0
LINE
  5
7F78
330
7F75
100
AcDbEntity
  8
実形
 62
     0
370
    18
100
AcDbLine
 10
728.6814961412
 20
-392.3860966284574
 30
0.0
 11
660.6927293655044
 21
-392.3860966284574
 31
0.0
  0
LINE
  5
7F79
330
7F75
100
AcDbEntity
  8
実形
 62
     0
370
    18
100
AcDbLine
 10
660.6927293655045
 20
-162.3860966284573
 30
0.0
 11
660.6927293655044
 21
-382.3860966284574
 31
0.0
  0
INSERT
  5
7F7A
330
7F75
100
AcDbEntity
  8
実形
 62
     0
370
    18
100
AcDbBlockReference
  2
_Dot
 10
660.6927293655045
 20
-152.3860966284573
 30
0.0
 41
10.0
 42
10.0
 43
10.0
 50
90.0
  0
INSERT
  5
7F7B
330
7F75
100
AcDbEntity
  8
実形
 62
     0
370
    18
100
AcDbBlockReference
  2
_Dot
 10
660.6927293655044
 20
-392.3860966284574
 30
0.0
 41
10.0
 42
10.0
 43
10.0
 50
270.0
  0
MTEXT
  5
7F7C
330
7F75
100
AcDbEntity
  8
実形
 62
     0
100
AcDbMText
 10
641.5927293655045
 20
-272.3860966284572
 30
0.0
 40
25.0
 41
0.0
 71
     5
 72
     1
  1
238
 11
0.0000000000000001
 21
1.0
 31
0.0
 73
     1
 44
1.0
1001
ACAD
1000
MTEXTBEGIN
1070
    73
1070
     1
1070
    44
1040
1.0
1070
    74
1070
     0
1000
MTEXTEND
  0
POINT
  5
7F7D
330
7F75
100
AcDbEntity
  8
Defpoints
 62
     0
100
AcDbPoint
 10
793.6814961412001
 20
-152.3860966284574
 30
0.0
  0
POINT
  5
7F7E
330
7F75
100
AcDbEntity
  8
Defpoints
 62
     0
100
AcDbPoint
 10
793.6814961411999
 20
-392.3860966284574
 30
0.0
  0
POINT
  5
7F7F
330
7F75
100
AcDbEntity
  8
Defpoints
 62
     0
100
AcDbPoint
 10
660.6927293655044
 20
-392.3860966284574
 30
0.0
  0
ENDBLK
  5
7F80
330
7F75
100
AcDbEntity
  8
0
 62
     3
100
AcDbBlockEnd
  0
BLOCK
  5
7F82
330
7F81
100
AcDbEntity
  8
0
 62
     3
100
AcDbBlockBegin
  2
*D38
 70
     1
 10
0.0
 20
0.0
 30
0.0
  3
*D38
  1

  0
LINE
  5
7F83
330
7F81
100
AcDbEntity
  8
実形
 62
     0
370
    18
100
AcDbLine
 10
1022.069343183913
 20
-457.3860966284574
 30
0.0
 11
1022.069343183913
 21
-509.3026951643151
 31
0.0
  0
LINE
  5
7F84
330
7F81
100
AcDbEntity
  8
実形
 62
     0
370
    18
100
AcDbLine
 10
1182.069343183914
 20
-457.3860966284574
 30
0.0
 11
1182.069343183914
 21
-509.3026951643151
 31
0.0
  0
LINE
  5
7F85
330
7F81
100
AcDbEntity
  8
実形
 62
     0
370
    18
100
AcDbLine
 10
1032.069343183913
 20
-509.3026951643151
 30
0.0
 11
1172.069343183913
 21
-509.3026951643151
 31
0.0
  0
INSERT
  5
7F86
330
7F81
100
AcDbEntity
  8
実形
 62
     0
370
    18
100
AcDbBlockReference
  2
_Dot
 10
1022.069343183913
 20
-509.3026951643151
 30
0.0
 41
10.0
 42
10.0
 43
10.0
 50
180.0
  0
INSERT
  5
7F87
330
7F81
100
AcDbEntity
  8
実形
 62
     0
370
    18
100
AcDbBlockReference
  2
_Dot
 10
1182.069343183914
 20
-509.3026951643151
 30
0.0
 41
10.0
 42
10.0
 43
10.0
  0
MTEXT
  5
7F88
330
7F81
100
AcDbEntity
  8
実形
 62
     0
100
AcDbMText
 10
1102.069343183913
 20
-490.202695164315
 30
0.0
 40
25.0
 41
0.0
 71
     5
 72
     1
  1
160
 73
     1
 44
1.0
1001
ACAD
1000
MTEXTBEGIN
1070
    73
1070
     1
1070
    44
1040
1.0
1070
    74
1070
     0
1000
MTEXTEND
  0
POINT
  5
7F89
330
7F81
100
AcDbEntity
  8
Defpoints
 62
     0
100
AcDbPoint
 10
1022.069343183913
 20
-392.3860966284575
 30
0.0
  0
POINT
  5
7F8A
330
7F81
100
AcDbEntity
  8
Defpoints
 62
     0
100
AcDbPoint
 10
1182.069343183914
 20
-392.3860966284575
 30
0.0
  0
POINT
  5
7F8B
330
7F81
100
AcDbEntity
  8
Defpoints
 62
     0
100
AcDbPoint
 10
1182.069343183914
 20
-509.3026951643151
 30
0.0
  0
ENDBLK
  5
7F8C
330
7F81
100
AcDbEntity
  8
0
 62
     3
100
AcDbBlockEnd
  0
BLOCK
  5
7F8E
330
7F8D
100
AcDbEntity
  8
0
 62
     3
100
AcDbBlockBegin
  2
*D39
 70
     1
 10
0.0
 20
0.0
 30
0.0
  3
*D39
  1

  0
LINE
  5
7F8F
330
7F8D
100
AcDbEntity
  8
実形
 62
     0
370
    18
100
AcDbLine
 10
1011.569343183913
 20
-457.3860966284574
 30
0.0
 11
1011.569343183913
 21
-580.5449919795919
 31
0.0
  0
LINE
  5
7F90
330
7F8D
100
AcDbEntity
  8
実形
 62
     0
370
    18
100
AcDbLine
 10
1192.569343183913
 20
-457.3860966284616
 30
0.0
 11
1192.569343183913
 21
-580.5449919795919
 31
0.0
  0
LINE
  5
7F91
330
7F8D
100
AcDbEntity
  8
実形
 62
     0
370
    18
100
AcDbLine
 10
1021.569343183913
 20
-580.5449919795919
 30
0.0
 11
1182.569343183913
 21
-580.5449919795919
 31
0.0
  0
INSERT
  5
7F92
330
7F8D
100
AcDbEntity
  8
実形
 62
     0
370
    18
100
AcDbBlockReference
  2
_Dot
 10
1011.569343183913
 20
-580.5449919795919
 30
0.0
 41
10.0
 42
10.0
 43
10.0
 50
180.0
  0
INSERT
  5
7F93
330
7F8D
100
AcDbEntity
  8
実形
 62
     0
370
    18
100
AcDbBlockReference
  2
_Dot
 10
1192.569343183913
 20
-580.5449919795919
 30
0.0
 41
10.0
 42
10.0
 43
10.0
  0
MTEXT
  5
7F94
330
7F8D
100
AcDbEntity
  8
実形
 62
     0
100
AcDbMText
 10
1102.069343183913
 20
-561.4449919795919
 30
0.0
 40
25.0
 41
0.0
 71
     5
 72
     1
  1
181
 73
     1
 44
1.0
1001
ACAD
1000
MTEXTBEGIN
1070
    73
1070
     1
1070
    44
1040
1.0
1070
    74
1070
     0
1000
MTEXTEND
  0
POINT
  5
7F95
330
7F8D
100
AcDbEntity
  8
Defpoints
 62
     0
100
AcDbPoint
 10
1011.569343183913
 20
-392.3860966284575
 30
0.0
  0
POINT
  5
7F96
330
7F8D
100
AcDbEntity
  8
Defpoints
 62
     0
100
AcDbPoint
 10
1192.569343183913
 20
-392.3860966284617
 30
0.0
  0
POINT
  5
7F97
330
7F8D
100
AcDbEntity
  8
Defpoints
 62
     0
100
AcDbPoint
 10
1192.569343183913
 20
-580.5449919795919
 30
0.0
  0
ENDBLK
  5
7F98
330
7F8D
100
AcDbEntity
  8
0
 62
     3
100
AcDbBlockEnd
  0
BLOCK
  5
7F9A
330
7F99
100
AcDbEntity
  8
0
 62
     3
100
AcDbBlockBegin
  2
*D40
 70
     1
 10
0.0
 20
0.0
 30
0.0
  3
*D40
  1

  0
LINE
  5
7F9B
330
7F99
100
AcDbEntity
  8
実形
 62
     0
370
    18
100
AcDbLine
 10
1094.538117598124
 20
1554.178460662066
 30
0.0
 11
1043.45634594854
 21
1554.178460662066
 31
0.0
  0
LINE
  5
7F9C
330
7F99
100
AcDbEntity
  8
実形
 62
     0
370
    18
100
AcDbLine
 10
1091.209930106677
 20
1404.178460662066
 30
0.0
 11
1043.456345948539
 21
1404.178460662066
 31
0.0
  0
LINE
  5
7F9D
330
7F99
100
AcDbEntity
  8
実形
 62
     0
370
    18
100
AcDbLine
 10
1043.45634594854
 20
1544.178460662066
 30
0.0
 11
1043.456345948539
 21
1414.178460662066
 31
0.0
  0
INSERT
  5
7F9E
330
7F99
100
AcDbEntity
  8
実形
 62
     0
370
    18
100
AcDbBlockReference
  2
_Dot
 10
1043.45634594854
 20
1554.178460662066
 30
0.0
 41
10.0
 42
10.0
 43
10.0
 50
90.0
  0
INSERT
  5
7F9F
330
7F99
100
AcDbEntity
  8
実形
 62
     0
370
    18
100
AcDbBlockReference
  2
_Dot
 10
1043.456345948539
 20
1404.178460662066
 30
0.0
 41
10.0
 42
10.0
 43
10.0
 50
270.0
  0
MTEXT
  5
7FA0
330
7F99
100
AcDbEntity
  8
実形
 62
     0
100
AcDbMText
 10
1021.856345948539
 20
1479.178460662066
 30
0.0
 40
30.0
 41
0.0
 71
     5
 72
     1
  1
150
 11
0.0000000000000001
 21
1.0
 31
0.0
 73
     1
 44
1.0
1001
ACAD
1000
MTEXTBEGIN
1070
    73
1070
     1
1070
    44
1040
1.0
1070
    74
1070
     0
1000
MTEXTEND
  0
POINT
  5
7FA1
330
7F99
100
AcDbEntity
  8
Defpoints
 62
     0
100
AcDbPoint
 10
1159.538117598124
 20
1554.178460662066
 30
0.0
  0
POINT
  5
7FA2
330
7F99
100
AcDbEntity
  8
Defpoints
 62
     0
100
AcDbPoint
 10
1156.209930106677
 20
1404.178460662066
 30
0.0
  0
POINT
  5
7FA3
330
7F99
100
AcDbEntity
  8
Defpoints
 62
     0
100
AcDbPoint
 10
1043.456345948539
 20
1404.178460662066
 30
0.0
  0
ENDBLK
  5
7FA4
330
7F99
100
AcDbEntity
  8
0
 62
     3
100
AcDbBlockEnd
  0
BLOCK
  5
7FA6
330
7FA5
100
AcDbEntity
  8
0
 62
     3
100
AcDbBlockBegin
  2
*D41
 70
     1
 10
0.0
 20
0.0
 30
0.0
  3
*D41
  1

  0
LINE
  5
7FA7
330
7FA5
100
AcDbEntity
  8
実形
 62
     0
370
    18
100
AcDbLine
 10
1242.770210499882
 20
1300.740901717254
 30
0.0
 11
1242.770210499882
 21
1270.994834284402
 31
0.0
  0
LINE
  5
7FA8
330
7FA5
100
AcDbEntity
  8
実形
 62
     0
370
    18
100
AcDbLine
 10
1622.770210499882
 20
1300.740901717254
 30
0.0
 11
1622.770210499882
 21
1270.994834284402
 31
0.0
  0
LINE
  5
7FA9
330
7FA5
100
AcDbEntity
  8
実形
 62
     0
370
    18
100
AcDbLine
 10
1252.770210499882
 20
1270.994834284402
 30
0.0
 11
1612.770210499882
 21
1270.994834284402
 31
0.0
  0
INSERT
  5
7FAA
330
7FA5
100
AcDbEntity
  8
実形
 62
     0
370
    18
100
AcDbBlockReference
  2
_Dot
 10
1242.770210499882
 20
1270.994834284402
 30
0.0
 41
10.0
 42
10.0
 43
10.0
 50
180.0
  0
INSERT
  5
7FAB
330
7FA5
100
AcDbEntity
  8
実形
 62
     0
370
    18
100
AcDbBlockReference
  2
_Dot
 10
1622.770210499882
 20
1270.994834284402
 30
0.0
 41
10.0
 42
10.0
 43
10.0
  0
MTEXT
  5
7FAC
330
7FA5
100
AcDbEntity
  8
実形
 62
     0
100
AcDbMText
 10
1432.770210499882
 20
1292.594834284402
 30
0.0
 40
30.0
 41
0.0
 71
     5
 72
     1
  1
380
 73
     1
 44
1.0
1001
ACAD
1000
MTEXTBEGIN
1070
    73
1070
     1
1070
    44
1040
1.0
1070
    74
1070
     0
1000
MTEXTEND
  0
POINT
  5
7FAD
330
7FA5
100
AcDbEntity
  8
Defpoints
 62
     0
100
AcDbPoint
 10
1242.770210499882
 20
1365.740901717254
 30
0.0
  0
POINT
  5
7FAE
330
7FA5
100
AcDbEntity
  8
Defpoints
 62
     0
100
AcDbPoint
 10
1622.770210499882
 20
1365.740901717254
 30
0.0
  0
POINT
  5
7FAF
330
7FA5
100
AcDbEntity
  8
Defpoints
 62
     0
100
AcDbPoint
 10
1622.770210499882
 20
1270.994834284402
 30
0.0
  0
ENDBLK
  5
7FB0
330
7FA5
100
AcDbEntity
  8
0
 62
     3
100
AcDbBlockEnd
  0
BLOCK
  5
7FB2
330
7FB1
100
AcDbEntity
  8
0
 62
     3
100
AcDbBlockBegin
  2
*D42
 70
     1
 10
0.0
 20
0.0
 30
0.0
  3
*D42
  1

  0
LINE
  5
7FB3
330
7FB1
100
AcDbEntity
  8
実形
 62
     0
370
    18
100
AcDbLine
 10
842.7702104998823
 20
1689.178460662066
 30
0.0
 11
842.7702104998823
 21
1735.385472702717
 31
0.0
  0
LINE
  5
7FB4
330
7FB1
100
AcDbEntity
  8
実形
 62
     0
370
    18
100
AcDbLine
 10
1092.770210499882
 20
1689.178460662066
 30
0.0
 11
1092.770210499882
 21
1735.385472702717
 31
0.0
  0
LINE
  5
7FB5
330
7FB1
100
AcDbEntity
  8
実形
 62
     0
370
    18
100
AcDbLine
 10
852.7702104998823
 20
1735.385472702717
 30
0.0
 11
1082.770210499882
 21
1735.385472702717
 31
0.0
  0
INSERT
  5
7FB6
330
7FB1
100
AcDbEntity
  8
実形
 62
     0
370
    18
100
AcDbBlockReference
  2
_Dot
 10
842.7702104998823
 20
1735.385472702717
 30
0.0
 41
10.0
 42
10.0
 43
10.0
 50
180.0
  0
INSERT
  5
7FB7
330
7FB1
100
AcDbEntity
  8
実形
 62
     0
370
    18
100
AcDbBlockReference
  2
_Dot
 10
1092.770210499882
 20
1735.385472702717
 30
0.0
 41
10.0
 42
10.0
 43
10.0
  0
MTEXT
  5
7FB8
330
7FB1
100
AcDbEntity
  8
実形
 62
     0
100
AcDbMText
 10
967.7702104998825
 20
1754.485472702717
 30
0.0
 40
25.0
 41
0.0
 71
     5
 72
     1
  1
250
 73
     1
 44
1.0
1001
ACAD
1000
MTEXTBEGIN
1070
    73
1070
     1
1070
    44
1040
1.0
1070
    74
1070
     0
1000
MTEXTEND
  0
POINT
  5
7FB9
330
7FB1
100
AcDbEntity
  8
Defpoints
 62
     0
100
AcDbPoint
 10
842.7702104998823
 20
1624.178460662066
 30
0.0
  0
POINT
  5
7FBA
330
7FB1
100
AcDbEntity
  8
Defpoints
 62
     0
100
AcDbPoint
 10
1092.770210499882
 20
1624.178460662066
 30
0.0
  0
POINT
  5
7FBB
330
7FB1
100
AcDbEntity
  8
Defpoints
 62
     0
100
AcDbPoint
 10
1092.770210499882
 20
1735.385472702717
 30
0.0
  0
ENDBLK
  5
7FBC
330
7FB1
100
AcDbEntity
  8
0
 62
     3
100
AcDbBlockEnd
  0
BLOCK
  5
7FBE
330
7FBD
100
AcDbEntity
  8
0
 62
     3
100
AcDbBlockBegin
  2
*D43
 70
     1
 10
0.0
 20
0.0
 30
0.0
  3
*D43
  1

  0
LINE
  5
7FBF
330
7FBD
100
AcDbEntity
  8
実形
 62
     0
370
    18
100
AcDbLine
 10
1092.770210499882
 20
1689.178460662066
 30
0.0
 11
1092.770210499882
 21
1735.385472702717
 31
0.0
  0
LINE
  5
7FC0
330
7FBD
100
AcDbEntity
  8
実形
 62
     0
370
    18
100
AcDbLine
 10
1392.770210499882
 20
1689.178460662066
 30
0.0
 11
1392.770210499882
 21
1735.385472702717
 31
0.0
  0
LINE
  5
7FC1
330
7FBD
100
AcDbEntity
  8
実形
 62
     0
370
    18
100
AcDbLine
 10
1102.770210499882
 20
1735.385472702717
 30
0.0
 11
1382.770210499882
 21
1735.385472702717
 31
0.0
  0
INSERT
  5
7FC2
330
7FBD
100
AcDbEntity
  8
実形
 62
     0
370
    18
100
AcDbBlockReference
  2
_Dot
 10
1092.770210499882
 20
1735.385472702717
 30
0.0
 41
10.0
 42
10.0
 43
10.0
 50
180.0
  0
INSERT
  5
7FC3
330
7FBD
100
AcDbEntity
  8
実形
 62
     0
370
    18
100
AcDbBlockReference
  2
_Dot
 10
1392.770210499882
 20
1735.385472702717
 30
0.0
 41
10.0
 42
10.0
 43
10.0
  0
MTEXT
  5
7FC4
330
7FBD
100
AcDbEntity
  8
実形
 62
     0
100
AcDbMText
 10
1242.770210499882
 20
1754.485472702717
 30
0.0
 40
25.0
 41
0.0
 71
     5
 72
     1
  1
300
 73
     1
 44
1.0
1001
ACAD
1000
MTEXTBEGIN
1070
    73
1070
     1
1070
    44
1040
1.0
1070
    74
1070
     0
1000
MTEXTEND
  0
POINT
  5
7FC5
330
7FBD
100
AcDbEntity
  8
Defpoints
 62
     0
100
AcDbPoint
 10
1092.770210499882
 20
1624.178460662066
 30
0.0
  0
POINT
  5
7FC6
330
7FBD
100
AcDbEntity
  8
Defpoints
 62
     0
100
AcDbPoint
 10
1392.770210499882
 20
1624.178460662066
 30
0.0
  0
POINT
  5
7FC7
330
7FBD
100
AcDbEntity
  8
Defpoints
 62
     0
100
AcDbPoint
 10
1392.770210499882
 20
1735.385472702717
 30
0.0
  0
ENDBLK
  5
7FC8
330
7FBD
100
AcDbEntity
  8
0
 62
     3
100
AcDbBlockEnd
  0
BLOCK
  5
7FCA
330
7FC9
100
AcDbEntity
  8
0
 62
     3
100
AcDbBlockBegin
  2
*D44
 70
     1
 10
0.0
 20
0.0
 30
0.0
  3
*D44
  1

  0
LINE
  5
7FCB
330
7FC9
100
AcDbEntity
  8
実形
 62
     0
370
    18
100
AcDbLine
 10
1392.770210499883
 20
1689.178460662065
 30
0.0
 11
1392.770210499883
 21
1735.385472702717
 31
0.0
  0
LINE
  5
7FCC
330
7FC9
100
AcDbEntity
  8
実形
 62
     0
370
    18
100
AcDbLine
 10
1642.770210499882
 20
1689.178460662065
 30
0.0
 11
1642.770210499882
 21
1735.385472702717
 31
0.0
  0
LINE
  5
7FCD
330
7FC9
100
AcDbEntity
  8
実形
 62
     0
370
    18
100
AcDbLine
 10
1402.770210499882
 20
1735.385472702717
 30
0.0
 11
1632.770210499882
 21
1735.385472702717
 31
0.0
  0
INSERT
  5
7FCE
330
7FC9
100
AcDbEntity
  8
実形
 62
     0
370
    18
100
AcDbBlockReference
  2
_Dot
 10
1392.770210499883
 20
1735.385472702717
 30
0.0
 41
10.0
 42
10.0
 43
10.0
 50
180.0
  0
INSERT
  5
7FCF
330
7FC9
100
AcDbEntity
  8
実形
 62
     0
370
    18
100
AcDbBlockReference
  2
_Dot
 10
1642.770210499882
 20
1735.385472702717
 30
0.0
 41
10.0
 42
10.0
 43
10.0
  0
MTEXT
  5
7FD0
330
7FC9
100
AcDbEntity
  8
実形
 62
     0
100
AcDbMText
 10
1517.770210499882
 20
1754.485472702717
 30
0.0
 40
25.0
 41
0.0
 71
     5
 72
     1
  1
250
 73
     1
 44
1.0
1001
ACAD
1000
MTEXTBEGIN
1070
    73
1070
     1
1070
    44
1040
1.0
1070
    74
1070
     0
1000
MTEXTEND
  0
POINT
  5
7FD1
330
7FC9
100
AcDbEntity
  8
Defpoints
 62
     0
100
AcDbPoint
 10
1392.770210499883
 20
1624.178460662065
 30
0.0
  0
POINT
  5
7FD2
330
7FC9
100
AcDbEntity
  8
Defpoints
 62
     0
100
AcDbPoint
 10
1642.770210499882
 20
1624.178460662065
 30
0.0
  0
POINT
  5
7FD3
330
7FC9
100
AcDbEntity
  8
Defpoints
 62
     0
100
AcDbPoint
 10
1642.770210499882
 20
1735.385472702717
 30
0.0
  0
ENDBLK
  5
7FD4
330
7FC9
100
AcDbEntity
  8
0
 62
     3
100
AcDbBlockEnd
  0
BLOCK
  5
7FD6
330
7FD5
100
AcDbEntity
  8
0
 62
     3
100
AcDbBlockBegin
  2
*D45
 70
     1
 10
0.0
 20
0.0
 30
0.0
  3
*D45
  1

  0
LINE
  5
7FD7
330
7FD5
100
AcDbEntity
  8
実形
 62
     0
370
    18
100
AcDbLine
 10
827.7702104998825
 20
1689.806458158204
 30
0.0
 11
827.7702104998825
 21
1735.385472702717
 31
0.0
  0
LINE
  5
7FD8
330
7FD5
100
AcDbEntity
  8
実形
 62
     0
370
    18
100
AcDbLine
 10
1657.770210499882
 20
1689.161761419618
 30
0.0
 11
1657.770210499882
 21
1735.385472702717
 31
0.0
  0
LINE
  5
7FD9
330
7FD5
100
AcDbEntity
  8
実形
 62
     0
370
    18
100
AcDbLine
 10
837.7702104998824
 20
1735.385472702717
 30
0.0
 11
1647.770210499882
 21
1735.385472702717
 31
0.0
  0
MTEXT
  5
7FDA
330
7FD5
100
AcDbEntity
  8
実形
 62
     0
100
AcDbMText
 10
826.3182245476109
 20
1760.370517377699
 30
0.0
 40
25.0
 41
0.0
 71
     5
 72
     1
  1
15
 73
     1
 44
1.0
1001
ACAD
1000
MTEXTBEGIN
1070
    73
1070
     1
1070
    44
1040
1.0
1070
    74
1070
     0
1000
MTEXTEND
  0
INSERT
  5
7FDB
330
7FD5
100
AcDbEntity
  8
実形
 62
     0
370
    18
100
AcDbBlockReference
  2
_Dot
 10
827.7702104998825
 20
1735.385472702717
 30
0.0
 41
10.0
 42
10.0
 43
10.0
 50
180.0
  0
INSERT
  5
7FDC
330
7FD5
100
AcDbEntity
  8
実形
 62
     0
370
    18
100
AcDbBlockReference
  2
_Dot
 10
1657.770210499882
 20
1735.385472702717
 30
0.0
 41
10.0
 42
10.0
 43
10.0
  0
POINT
  5
7FDD
330
7FD5
100
AcDbEntity
  8
Defpoints
 62
     0
100
AcDbPoint
 10
827.7702104998825
 20
1624.806458158204
 30
0.0
  0
POINT
  5
7FDE
330
7FD5
100
AcDbEntity
  8
Defpoints
 62
     0
100
AcDbPoint
 10
1657.770210499882
 20
1624.161761419618
 30
0.0
  0
POINT
  5
7FDF
330
7FD5
100
AcDbEntity
  8
Defpoints
 62
     0
100
AcDbPoint
 10
1657.770210499882
 20
1735.385472702717
 30
0.0
  0
ENDBLK
  5
7FE0
330
7FD5
100
AcDbEntity
  8
0
 62
     3
100
AcDbBlockEnd
  0
BLOCK
  5
7FE2
330
7FE1
100
AcDbEntity
  8
0
 62
     3
100
AcDbBlockBegin
  2
*D46
 70
     1
 10
0.0
 20
0.0
 30
0.0
  3
*D46
  1

  0
LINE
  5
7FE3
330
7FE1
100
AcDbEntity
  8
実形
 62
     0
370
    18
100
AcDbLine
 10
1722.770210499882
 20
1644.178460662066
 30
0.0
 11
1771.093547640549
 21
1644.178460662066
 31
0.0
  0
LINE
  5
7FE4
330
7FE1
100
AcDbEntity
  8
実形
 62
     0
370
    18
100
AcDbLine
 10
1722.770210499882
 20
1184.178460662066
 30
0.0
 11
1771.093547640548
 21
1184.178460662066
 31
0.0
  0
LINE
  5
7FE5
330
7FE1
100
AcDbEntity
  8
実形
 62
     0
370
    18
100
AcDbLine
 10
1771.093547640549
 20
1634.178460662066
 30
0.0
 11
1771.093547640548
 21
1194.178460662066
 31
0.0
  0
INSERT
  5
7FE6
330
7FE1
100
AcDbEntity
  8
実形
 62
     0
370
    18
100
AcDbBlockReference
  2
_Dot
 10
1771.093547640549
 20
1644.178460662066
 30
0.0
 41
10.0
 42
10.0
 43
10.0
 50
90.0
  0
INSERT
  5
7FE7
330
7FE1
100
AcDbEntity
  8
実形
 62
     0
370
    18
100
AcDbBlockReference
  2
_Dot
 10
1771.093547640548
 20
1184.178460662066
 30
0.0
 41
10.0
 42
10.0
 43
10.0
 50
270.0
  0
MTEXT
  5
7FE8
330
7FE1
100
AcDbEntity
  8
実形
 62
     0
100
AcDbMText
 10
1751.993547640548
 20
1414.178460662066
 30
0.0
 40
25.0
 41
0.0
 71
     5
 72
     1
  1
460
 11
0.0000000000000001
 21
1.0
 31
0.0
 73
     1
 44
1.0
1001
ACAD
1000
MTEXTBEGIN
1070
    73
1070
     1
1070
    44
1040
1.0
1070
    74
1070
     0
1000
MTEXTEND
  0
POINT
  5
7FE9
330
7FE1
100
AcDbEntity
  8
Defpoints
 62
     0
100
AcDbPoint
 10
1657.770210499882
 20
1644.178460662066
 30
0.0
  0
POINT
  5
7FEA
330
7FE1
100
AcDbEntity
  8
Defpoints
 62
     0
100
AcDbPoint
 10
1657.770210499883
 20
1184.178460662066
 30
0.0
  0
POINT
  5
7FEB
330
7FE1
100
AcDbEntity
  8
Defpoints
 62
     0
100
AcDbPoint
 10
1771.093547640548
 20
1184.178460662066
 30
0.0
  0
ENDBLK
  5
7FEC
330
7FE1
100
AcDbEntity
  8
0
 62
     3
100
AcDbBlockEnd
  0
BLOCK
  5
7FEE
330
7FED
100
AcDbEntity
  8
0
 62
     3
100
AcDbBlockBegin
  2
*D47
 70
     1
 10
0.0
 20
0.0
 30
0.0
  3
*D47
  1

  0
LINE
  5
7FEF
330
7FED
100
AcDbEntity
  8
実形
 62
     0
370
    18
100
AcDbLine
 10
1722.770210499882
 20
1659.178460662066
 30
0.0
 11
1771.093547640549
 21
1659.178460662066
 31
0.0
  0
LINE
  5
7FF0
330
7FED
100
AcDbEntity
  8
実形
 62
     0
370
    18
100
AcDbLine
 10
1722.770210499882
 20
1169.178460662066
 30
0.0
 11
1771.093547640548
 21
1169.178460662066
 31
0.0
  0
LINE
  5
7FF1
330
7FED
100
AcDbEntity
  8
実形
 62
     0
370
    18
100
AcDbLine
 10
1771.093547640549
 20
1649.178460662066
 30
0.0
 11
1771.093547640548
 21
1179.178460662066
 31
0.0
  0
MTEXT
  5
7FF2
330
7FED
100
AcDbEntity
  8
実形
 62
     0
100
AcDbMText
 10
1749.493547640548
 20
1688.725599288342
 30
0.0
 40
25.0
 41
0.0
 71
     5
 72
     1
  1
15
 11
0.0000000000000001
 21
1.0
 31
0.0
 73
     1
 44
1.0
1001
ACAD
1000
MTEXTBEGIN
1070
    73
1070
     1
1070
    44
1040
1.0
1070
    74
1070
     0
1000
MTEXTEND
  0
INSERT
  5
7FF3
330
7FED
100
AcDbEntity
  8
実形
 62
     0
370
    18
100
AcDbBlockReference
  2
_Dot
 10
1771.093547640549
 20
1659.178460662066
 30
0.0
 41
10.0
 42
10.0
 43
10.0
 50
90.0
  0
INSERT
  5
7FF4
330
7FED
100
AcDbEntity
  8
実形
 62
     0
370
    18
100
AcDbBlockReference
  2
_Dot
 10
1771.093547640548
 20
1169.178460662066
 30
0.0
 41
10.0
 42
10.0
 43
10.0
 50
270.0
  0
POINT
  5
7FF5
330
7FED
100
AcDbEntity
  8
Defpoints
 62
     0
100
AcDbPoint
 10
1657.770210499882
 20
1659.178460662066
 30
0.0
  0
POINT
  5
7FF6
330
7FED
100
AcDbEntity
  8
Defpoints
 62
     0
100
AcDbPoint
 10
1657.770210499882
 20
1169.178460662066
 30
0.0
  0
POINT
  5
7FF7
330
7FED
100
AcDbEntity
  8
Defpoints
 62
     0
100
AcDbPoint
 10
1771.093547640548
 20
1169.178460662066
 30
0.0
  0
ENDBLK
  5
7FF8
330
7FED
100
AcDbEntity
  8
0
 62
     3
100
AcDbBlockEnd
  0
BLOCK
  5
7FFA
330
7FF9
100
AcDbEntity
  8
0
 62
     3
100
AcDbBlockBegin
  2
*D48
 70
     1
 10
0.0
 20
0.0
 30
0.0
  3
*D48
  1

  0
LINE
  5
7FFB
330
7FF9
100
AcDbEntity
  8
実形
 62
     0
370
    18
100
AcDbLine
 10
1722.770210499882
 20
1659.178460662066
 30
0.0
 11
1833.118375451033
 21
1659.178460662066
 31
0.0
  0
LINE
  5
7FFC
330
7FF9
100
AcDbEntity
  8
実形
 62
     0
370
    18
100
AcDbLine
 10
1722.770210499882
 20
1169.178460662066
 30
0.0
 11
1833.118375451033
 21
1169.178460662066
 31
0.0
  0
LINE
  5
7FFD
330
7FF9
100
AcDbEntity
  8
実形
 62
     0
370
    18
100
AcDbLine
 10
1833.118375451033
 20
1649.178460662066
 30
0.0
 11
1833.118375451033
 21
1179.178460662066
 31
0.0
  0
INSERT
  5
7FFE
330
7FF9
100
AcDbEntity
  8
実形
 62
     0
370
    18
100
AcDbBlockReference
  2
_Dot
 10
1833.118375451033
 20
1659.178460662066
 30
0.0
 41
10.0
 42
10.0
 43
10.0
 50
90.0
  0
INSERT
  5
7FFF
330
7FF9
100
AcDbEntity
  8
実形
 62
     0
370
    18
100
AcDbBlockReference
  2
_Dot
 10
1833.118375451033
 20
1169.178460662066
 30
0.0
 41
10.0
 42
10.0
 43
10.0
 50
270.0
  0
MTEXT
  5
8000
330
7FF9
100
AcDbEntity
  8
実形
 62
     0
100
AcDbMText
 10
1814.018375451033
 20
1414.178460662066
 30
0.0
 40
25.0
 41
0.0
 71
     5
 72
     1
  1
490
 11
0.0000000000000001
 21
1.0
 31
0.0
 73
     1
 44
1.0
1001
ACAD
1000
MTEXTBEGIN
1070
    73
1070
     1
1070
    44
1040
1.0
1070
    74
1070
     0
1000
MTEXTEND
  0
POINT
  5
8001
330
7FF9
100
AcDbEntity
  8
Defpoints
 62
     0
100
AcDbPoint
 10
1657.770210499882
 20
1659.178460662066
 30
0.0
  0
POINT
  5
8002
330
7FF9
100
AcDbEntity
  8
Defpoints
 62
     0
100
AcDbPoint
 10
1657.770210499882
 20
1169.178460662066
 30
0.0
  0
POINT
  5
8003
330
7FF9
100
AcDbEntity
  8
Defpoints
 62
     0
100
AcDbPoint
 10
1833.118375451033
 20
1169.178460662066
 30
0.0
  0
ENDBLK
  5
8004
330
7FF9
100
AcDbEntity
  8
0
 62
     3
100
AcDbBlockEnd
  0
BLOCK
  5
8006
330
8005
100
AcDbEntity
  8
0
 62
     3
100
AcDbBlockBegin
  2
*D49
 70
     1
 10
0.0
 20
0.0
 30
0.0
  3
*D49
  1

  0
LINE
  5
8007
330
8005
100
AcDbEntity
  8
実形
 62
     0
370
    18
100
AcDbLine
 10
767.3275276276962
 20
1554.178460662066
 30
0.0
 11
738.1482502386061
 21
1554.178460662066
 31
0.0
  0
LINE
  5
8008
330
8005
100
AcDbEntity
  8
実形
 62
     0
370
    18
100
AcDbLine
 10
767.3275276276962
 20
1644.178460662066
 30
0.0
 11
738.1482502386061
 21
1644.178460662066
 31
0.0
  0
LINE
  5
8009
330
8005
100
AcDbEntity
  8
実形
 62
     0
370
    18
100
AcDbLine
 10
738.1482502386061
 20
1564.178460662066
 30
0.0
 11
738.1482502386061
 21
1634.178460662066
 31
0.0
  0
MTEXT
  5
800A
330
8005
100
AcDbEntity
  8
実形
 62
     0
100
AcDbMText
 10
715.569680847846
 20
1589.259853472391
 30
0.0
 40
25.0
 41
0.0
 71
     5
 72
     1
  1
70
 11
0.0000000000000001
 21
1.0
 31
0.0
 73
     1
 44
1.0
1001
ACAD
1000
MTEXTBEGIN
1070
    73
1070
     1
1070
    44
1040
1.0
1070
    74
1070
     0
1000
MTEXTEND
  0
INSERT
  5
800B
330
8005
100
AcDbEntity
  8
実形
 62
     0
370
    18
100
AcDbBlockReference
  2
_Dot
 10
738.1482502386061
 20
1554.178460662066
 30
0.0
 41
10.0
 42
10.0
 43
10.0
 50
270.0
  0
INSERT
  5
800C
330
8005
100
AcDbEntity
  8
実形
 62
     0
370
    18
100
AcDbBlockReference
  2
_Dot
 10
738.1482502386061
 20
1644.178460662066
 30
0.0
 41
10.0
 42
10.0
 43
10.0
 50
90.0
  0
POINT
  5
800D
330
8005
100
AcDbEntity
  8
Defpoints
 62
     0
100
AcDbPoint
 10
832.3275276276962
 20
1554.178460662066
 30
0.0
  0
POINT
  5
800E
330
8005
100
AcDbEntity
  8
Defpoints
 62
     0
100
AcDbPoint
 10
832.3275276276962
 20
1644.178460662066
 30
0.0
  0
POINT
  5
800F
330
8005
100
AcDbEntity
  8
Defpoints
 62
     0
100
AcDbPoint
 10
738.1482502386061
 20
1644.178460662066
 30
0.0
  0
ENDBLK
  5
8010
330
8005
100
AcDbEntity
  8
0
 62
     3
100
AcDbBlockEnd
  0
BLOCK
  5
8012
330
8011
100
AcDbEntity
  8
0
 62
     3
100
AcDbBlockBegin
  2
*D50
 70
     1
 10
0.0
 20
0.0
 30
0.0
  3
*D50
  1

  0
LINE
  5
8013
330
8011
100
AcDbEntity
  8
実形
 62
     0
370
    18
100
AcDbLine
 10
767.3275276276962
 20
1554.178460662066
 30
0.0
 11
738.1482502386061
 21
1554.178460662066
 31
0.0
  0
LINE
  5
8014
330
8011
100
AcDbEntity
  8
実形
 62
     0
370
    18
100
AcDbLine
 10
773.3275276276963
 20
1624.178460662066
 30
0.0
 11
738.1482502386061
 21
1624.178460662066
 31
0.0
  0
LINE
  5
8015
330
8011
100
AcDbEntity
  8
実形
 62
     0
370
    18
100
AcDbLine
 10
738.1482502386061
 20
1564.178460662066
 30
0.0
 11
738.1482502386061
 21
1614.178460662066
 31
0.0
  0
MTEXT
  5
8016
330
8011
100
AcDbEntity
  8
実形
 62
     0
100
AcDbMText
 10
801.3626707265066
 20
1625.22842009638
 30
0.0
 40
25.0
 41
0.0
 71
     5
 72
     1
  1
20
 11
0.0000000000000001
 21
1.0
 31
0.0
 73
     1
 44
1.0
1001
ACAD
1000
MTEXTBEGIN
1070
    73
1070
     1
1070
    44
1040
1.0
1070
    74
1070
     0
1000
MTEXTEND
  0
INSERT
  5
8017
330
8011
100
AcDbEntity
  8
実形
 62
     0
370
    18
100
AcDbBlockReference
  2
_Dot
 10
738.1482502386061
 20
1554.178460662066
 30
0.0
 41
10.0
 42
10.0
 43
10.0
 50
270.0
  0
INSERT
  5
8018
330
8011
100
AcDbEntity
  8
実形
 62
     0
370
    18
100
AcDbBlockReference
  2
_Dot
 10
738.1482502386061
 20
1624.178460662066
 30
0.0
 41
10.0
 42
10.0
 43
10.0
 50
90.0
  0
POINT
  5
8019
330
8011
100
AcDbEntity
  8
Defpoints
 62
     0
100
AcDbPoint
 10
832.3275276276962
 20
1554.178460662066
 30
0.0
  0
POINT
  5
801A
330
8011
100
AcDbEntity
  8
Defpoints
 62
     0
100
AcDbPoint
 10
838.3275276276963
 20
1624.178460662066
 30
0.0
  0
POINT
  5
801B
330
8011
100
AcDbEntity
  8
Defpoints
 62
     0
100
AcDbPoint
 10
738.1482502386061
 20
1624.178460662066
 30
0.0
  0
ENDBLK
  5
801C
330
8011
100
AcDbEntity
  8
0
 62
     3
100
AcDbBlockEnd
  0
BLOCK
  5
801E
330
801D
100
AcDbEntity
  8
0
 62
     3
100
AcDbBlockBegin
  2
*D51
 70
     1
 10
0.0
 20
0.0
 30
0.0
  3
*D51
  1

  0
LINE
  5
801F
330
801D
100
AcDbEntity
  8
実形
 62
     0
370
    18
100
AcDbLine
 10
735.771238858355
 20
1644.178460662066
 30
0.0
 11
672.3280192665588
 21
1644.178460662066
 31
0.0
  0
LINE
  5
8020
330
801D
100
AcDbEntity
  8
実形
 62
     0
370
    18
100
AcDbLine
 10
714.7500916428215
 20
1554.178460662066
 30
0.0
 11
672.3280192665588
 21
1554.178460662066
 31
0.0
  0
LINE
  5
8021
330
801D
100
AcDbEntity
  8
実形
 62
     0
370
    18
100
AcDbLine
 10
672.3280192665588
 20
1634.178460662066
 30
0.0
 11
672.3280192665588
 21
1564.178460662066
 31
0.0
  0
INSERT
  5
8022
330
801D
100
AcDbEntity
  8
実形
 62
     0
370
    18
100
AcDbBlockReference
  2
_Dot
 10
672.3280192665588
 20
1644.178460662066
 30
0.0
 41
10.0
 42
10.0
 43
10.0
 50
90.0
  0
INSERT
  5
8023
330
801D
100
AcDbEntity
  8
実形
 62
     0
370
    18
100
AcDbBlockReference
  2
_Dot
 10
672.3280192665588
 20
1554.178460662066
 30
0.0
 41
10.0
 42
10.0
 43
10.0
 50
270.0
  0
MTEXT
  5
8024
330
801D
100
AcDbEntity
  8
実形
 62
     0
100
AcDbMText
 10
653.2280192665585
 20
1599.178460662066
 30
0.0
 40
25.0
 41
0.0
 71
     5
 72
     1
  1
90
 11
0.0000000000000001
 21
1.0
 31
0.0
 73
     1
 44
1.0
1001
ACAD
1000
MTEXTBEGIN
1070
    73
1070
     1
1070
    44
1040
1.0
1070
    74
1070
     0
1000
MTEXTEND
  0
POINT
  5
8025
330
801D
100
AcDbEntity
  8
Defpoints
 62
     0
100
AcDbPoint
 10
800.771238858355
 20
1644.178460662066
 30
0.0
  0
POINT
  5
8026
330
801D
100
AcDbEntity
  8
Defpoints
 62
     0
100
AcDbPoint
 10
779.7500916428215
 20
1554.178460662066
 30
0.0
  0
POINT
  5
8027
330
801D
100
AcDbEntity
  8
Defpoints
 62
     0
100
AcDbPoint
 10
672.3280192665588
 20
1554.178460662066
 30
0.0
  0
ENDBLK
  5
8028
330
801D
100
AcDbEntity
  8
0
 62
     3
100
AcDbBlockEnd
  0
BLOCK
  5
802A
330
8029
100
AcDbEntity
  8
0
 62
     3
100
AcDbBlockBegin
  2
*D52
 70
     1
 10
0.0
 20
0.0
 30
0.0
  3
*D52
  1

  0
LINE
  5
802B
330
8029
100
AcDbEntity
  8
実形
 62
     0
370
    18
100
AcDbLine
 10
732.6742997845558
 20
1554.178460662066
 30
0.0
 11
672.3280192665588
 21
1554.178460662066
 31
0.0
  0
LINE
  5
802C
330
8029
100
AcDbEntity
  8
実形
 62
     0
370
    18
100
AcDbLine
 10
737.7945193027008
 20
1204.178460662066
 30
0.0
 11
672.3280192665587
 21
1204.178460662066
 31
0.0
  0
LINE
  5
802D
330
8029
100
AcDbEntity
  8
実形
 62
     0
370
    18
100
AcDbLine
 10
672.3280192665588
 20
1544.178460662066
 30
0.0
 11
672.3280192665587
 21
1214.178460662066
 31
0.0
  0
INSERT
  5
802E
330
8029
100
AcDbEntity
  8
実形
 62
     0
370
    18
100
AcDbBlockReference
  2
_Dot
 10
672.3280192665588
 20
1554.178460662066
 30
0.0
 41
10.0
 42
10.0
 43
10.0
 50
90.0
  0
INSERT
  5
802F
330
8029
100
AcDbEntity
  8
実形
 62
     0
370
    18
100
AcDbBlockReference
  2
_Dot
 10
672.3280192665587
 20
1204.178460662066
 30
0.0
 41
10.0
 42
10.0
 43
10.0
 50
270.0
  0
MTEXT
  5
8030
330
8029
100
AcDbEntity
  8
実形
 62
     0
100
AcDbMText
 10
653.2280192665585
 20
1379.178460662066
 30
0.0
 40
25.0
 41
0.0
 71
     5
 72
     1
  1
350
 11
0.0000000000000001
 21
1.0
 31
0.0
 73
     1
 44
1.0
1001
ACAD
1000
MTEXTBEGIN
1070
    73
1070
     1
1070
    44
1040
1.0
1070
    74
1070
     0
1000
MTEXTEND
  0
POINT
  5
8031
330
8029
100
AcDbEntity
  8
Defpoints
 62
     0
100
AcDbPoint
 10
797.6742997845558
 20
1554.178460662066
 30
0.0
  0
POINT
  5
8032
330
8029
100
AcDbEntity
  8
Defpoints
 62
     0
100
AcDbPoint
 10
802.7945193027008
 20
1204.178460662066
 30
0.0
  0
POINT
  5
8033
330
8029
100
AcDbEntity
  8
Defpoints
 62
     0
100
AcDbPoint
 10
672.3280192665587
 20
1204.178460662066
 30
0.0
  0
ENDBLK
  5
8034
330
8029
100
AcDbEntity
  8
0
 62
     3
100
AcDbBlockEnd
  0
BLOCK
  5
8036
330
8035
100
AcDbEntity
  8
0
 62
     3
100
AcDbBlockBegin
  2
*D53
 70
     1
 10
0.0
 20
0.0
 30
0.0
  3
*D53
  1

  0
LINE
  5
8037
330
8035
100
AcDbEntity
  8
実形
 62
     0
370
    18
100
AcDbLine
 10
764.1539611657317
 20
1659.178460662066
 30
0.0
 11
672.3280192665588
 21
1659.178460662066
 31
0.0
  0
LINE
  5
8038
330
8035
100
AcDbEntity
  8
実形
 62
     0
370
    18
100
AcDbLine
 10
737.2641105192887
 20
1169.178460662066
 30
0.0
 11
672.3280192665587
 21
1169.178460662066
 31
0.0
  0
LINE
  5
8039
330
8035
100
AcDbEntity
  8
実形
 62
     0
370
    18
100
AcDbLine
 10
672.3280192665588
 20
1649.178460662066
 30
0.0
 11
672.3280192665587
 21
1179.178460662066
 31
0.0
  0
MTEXT
  5
803A
330
8035
100
AcDbEntity
  8
実形
 62
     0
100
AcDbMText
 10
650.7280192665586
 20
1682.883538982083
 30
0.0
 40
25.0
 41
0.0
 71
     5
 72
     1
  1
15
 11
0.0000000000000001
 21
1.0
 31
0.0
 73
     1
 44
1.0
1001
ACAD
1000
MTEXTBEGIN
1070
    73
1070
     1
1070
    44
1040
1.0
1070
    74
1070
     0
1000
MTEXTEND
  0
INSERT
  5
803B
330
8035
100
AcDbEntity
  8
実形
 62
     0
370
    18
100
AcDbBlockReference
  2
_Dot
 10
672.3280192665588
 20
1659.178460662066
 30
0.0
 41
10.0
 42
10.0
 43
10.0
 50
90.0
  0
INSERT
  5
803C
330
8035
100
AcDbEntity
  8
実形
 62
     0
370
    18
100
AcDbBlockReference
  2
_Dot
 10
672.3280192665587
 20
1169.178460662066
 30
0.0
 41
10.0
 42
10.0
 43
10.0
 50
270.0
  0
POINT
  5
803D
330
8035
100
AcDbEntity
  8
Defpoints
 62
     0
100
AcDbPoint
 10
829.1539611657317
 20
1659.178460662066
 30
0.0
  0
POINT
  5
803E
330
8035
100
AcDbEntity
  8
Defpoints
 62
     0
100
AcDbPoint
 10
802.2641105192887
 20
1169.178460662066
 30
0.0
  0
POINT
  5
803F
330
8035
100
AcDbEntity
  8
Defpoints
 62
     0
100
AcDbPoint
 10
672.3280192665587
 20
1169.178460662066
 30
0.0
  0
ENDBLK
  5
8040
330
8035
100
AcDbEntity
  8
0
 62
     3
100
AcDbBlockEnd
  0
BLOCK
  5
8042
330
8041
100
AcDbEntity
  8
0
 62
     3
100
AcDbBlockBegin
  2
*D54
 70
     1
 10
0.0
 20
0.0
 30
0.0
  3
*D54
  1

  0
LINE
  5
8043
330
8041
100
AcDbEntity
  8
実形
 62
     0
370
    18
100
AcDbLine
 10
737.7945193027008
 20
1184.178460662066
 30
0.0
 11
672.3280192665587
 21
1184.178460662066
 31
0.0
  0
LINE
  5
8044
330
8041
100
AcDbEntity
  8
実形
 62
     0
370
    18
100
AcDbLine
 10
702.3275276276962
 20
1554.178460662066
 30
0.0
 11
672.3280192665588
 21
1554.178460662066
 31
0.0
  0
LINE
  5
8045
330
8041
100
AcDbEntity
  8
実形
 62
     0
370
    18
100
AcDbLine
 10
672.3280192665587
 20
1194.178460662066
 30
0.0
 11
672.3280192665588
 21
1544.178460662066
 31
0.0
  0
MTEXT
  5
8046
330
8041
100
AcDbEntity
  8
実形
 62
     0
100
AcDbMText
 10
650.745963999092
 20
1217.459715149787
 30
0.0
 40
25.0
 41
0.0
 71
     5
 72
     1
  1
20
 11
0.0000000000000001
 21
1.0
 31
0.0
 73
     1
 44
1.0
1001
ACAD
1000
MTEXTBEGIN
1070
    73
1070
     1
1070
    44
1040
1.0
1070
    74
1070
     0
1000
MTEXTEND
  0
INSERT
  5
8047
330
8041
100
AcDbEntity
  8
実形
 62
     0
370
    18
100
AcDbBlockReference
  2
_Dot
 10
672.3280192665587
 20
1184.178460662066
 30
0.0
 41
10.0
 42
10.0
 43
10.0
 50
270.0
  0
INSERT
  5
8048
330
8041
100
AcDbEntity
  8
実形
 62
     0
370
    18
100
AcDbBlockReference
  2
_Dot
 10
672.3280192665588
 20
1554.178460662066
 30
0.0
 41
10.0
 42
10.0
 43
10.0
 50
90.0
  0
POINT
  5
8049
330
8041
100
AcDbEntity
  8
Defpoints
 62
     0
100
AcDbPoint
 10
802.7945193027008
 20
1184.178460662066
 30
0.0
  0
POINT
  5
804A
330
8041
100
AcDbEntity
  8
Defpoints
 62
     0
100
AcDbPoint
 10
767.3275276276962
 20
1554.178460662066
 30
0.0
  0
POINT
  5
804B
330
8041
100
AcDbEntity
  8
Defpoints
 62
     0
100
AcDbPoint
 10
672.3280192665588
 20
1554.178460662066
 30
0.0
  0
ENDBLK
  5
804C
330
8041
100
AcDbEntity
  8
0
 62
     3
100
AcDbBlockEnd
  0
BLOCK
  5
804E
330
804D
100
AcDbEntity
  8
0
 62
     3
100
AcDbBlockBegin
  2
*D55
 70
     1
 10
0.0
 20
0.0
 30
0.0
  3
*D55
  1

  0
LINE
  5
804F
330
804D
100
AcDbEntity
  8
実形
 62
     0
370
    18
100
AcDbLine
 10
766.726947416073
 20
1644.178460662066
 30
0.0
 11
616.3564627716169
 21
1644.178460662066
 31
0.0
  0
LINE
  5
8050
330
804D
100
AcDbEntity
  8
実形
 62
     0
370
    18
100
AcDbLine
 10
739.8056315785306
 20
1184.178460662066
 30
0.0
 11
616.3564627716168
 21
1184.178460662066
 31
0.0
  0
LINE
  5
8051
330
804D
100
AcDbEntity
  8
実形
 62
     0
370
    18
100
AcDbLine
 10
616.3564627716169
 20
1634.178460662066
 30
0.0
 11
616.3564627716168
 21
1194.178460662066
 31
0.0
  0
INSERT
  5
8052
330
804D
100
AcDbEntity
  8
実形
 62
     0
370
    18
100
AcDbBlockReference
  2
_Dot
 10
616.3564627716169
 20
1644.178460662066
 30
0.0
 41
10.0
 42
10.0
 43
10.0
 50
90.0
  0
INSERT
  5
8053
330
804D
100
AcDbEntity
  8
実形
 62
     0
370
    18
100
AcDbBlockReference
  2
_Dot
 10
616.3564627716168
 20
1184.178460662066
 30
0.0
 41
10.0
 42
10.0
 43
10.0
 50
270.0
  0
MTEXT
  5
8054
330
804D
100
AcDbEntity
  8
実形
 62
     0
100
AcDbMText
 10
597.2564627716167
 20
1414.178460662066
 30
0.0
 40
25.0
 41
0.0
 71
     5
 72
     1
  1
460
 11
0.0000000000000001
 21
1.0
 31
0.0
 73
     1
 44
1.0
1001
ACAD
1000
MTEXTBEGIN
1070
    73
1070
     1
1070
    44
1040
1.0
1070
    74
1070
     0
1000
MTEXTEND
  0
POINT
  5
8055
330
804D
100
AcDbEntity
  8
Defpoints
 62
     0
100
AcDbPoint
 10
831.7269474160729
 20
1644.178460662066
 30
0.0
  0
POINT
  5
8056
330
804D
100
AcDbEntity
  8
Defpoints
 62
     0
100
AcDbPoint
 10
804.8056315785306
 20
1184.178460662066
 30
0.0
  0
POINT
  5
8057
330
804D
100
AcDbEntity
  8
Defpoints
 62
     0
100
AcDbPoint
 10
616.3564627716168
 20
1184.178460662066
 30
0.0
  0
ENDBLK
  5
8058
330
804D
100
AcDbEntity
  8
0
 62
     3
100
AcDbBlockEnd
  0
BLOCK
  5
805A
330
8059
100
AcDbEntity
  8
0
 62
     3
100
AcDbBlockBegin
  2
*D56
 70
     1
 10
0.0
 20
0.0
 30
0.0
  3
*D56
  1

  0
LINE
  5
805B
330
8059
100
AcDbEntity
  8
実形
 62
     0
370
    18
100
AcDbLine
 10
762.7702104998824
 20
1659.178460662066
 30
0.0
 11
556.883501767341
 21
1659.178460662066
 31
0.0
  0
LINE
  5
805C
330
8059
100
AcDbEntity
  8
実形
 62
     0
370
    18
100
AcDbLine
 10
740.8183231977528
 20
1169.178460662066
 30
0.0
 11
556.8835017673409
 21
1169.178460662066
 31
0.0
  0
LINE
  5
805D
330
8059
100
AcDbEntity
  8
実形
 62
     0
370
    18
100
AcDbLine
 10
556.883501767341
 20
1649.178460662066
 30
0.0
 11
556.8835017673409
 21
1179.178460662066
 31
0.0
  0
INSERT
  5
805E
330
8059
100
AcDbEntity
  8
実形
 62
     0
370
    18
100
AcDbBlockReference
  2
_Dot
 10
556.883501767341
 20
1659.178460662066
 30
0.0
 41
10.0
 42
10.0
 43
10.0
 50
90.0
  0
INSERT
  5
805F
330
8059
100
AcDbEntity
  8
実形
 62
     0
370
    18
100
AcDbBlockReference
  2
_Dot
 10
556.8835017673409
 20
1169.178460662066
 30
0.0
 41
10.0
 42
10.0
 43
10.0
 50
270.0
  0
MTEXT
  5
8060
330
8059
100
AcDbEntity
  8
実形
 62
     0
100
AcDbMText
 10
535.2835017673408
 20
1414.178460662066
 30
0.0
 40
30.0
 41
0.0
 71
     5
 72
     1
  1
490
 11
0.0000000000000001
 21
1.0
 31
0.0
 73
     1
 44
1.0
1001
ACAD
1000
MTEXTBEGIN
1070
    73
1070
     1
1070
    44
1040
1.0
1070
    74
1070
     0
1000
MTEXTEND
  0
POINT
  5
8061
330
8059
100
AcDbEntity
  8
Defpoints
 62
     0
100
AcDbPoint
 10
827.7702104998825
 20
1659.178460662066
 30
0.0
  0
POINT
  5
8062
330
8059
100
AcDbEntity
  8
Defpoints
 62
     0
100
AcDbPoint
 10
805.8183231977528
 20
1169.178460662066
 30
0.0
  0
POINT
  5
8063
330
8059
100
AcDbEntity
  8
Defpoints
 62
     0
100
AcDbPoint
 10
556.8835017673409
 20
1169.178460662066
 30
0.0
  0
ENDBLK
  5
8064
330
8059
100
AcDbEntity
  8
0
 62
     3
100
AcDbBlockEnd
  0
BLOCK
  5
8100
330
8065
100
AcDbEntity
  8
0
 62
     3
100
AcDbBlockBegin
  2
RAS800-510GRM
 70
     0
 10
0.0
 20
0.0
 30
0.0
  3
RAS800-510GRM
  1

  0
LINE
  5
8066
330
8065
100
AcDbEntity
  8
枠
 62
     0
100
AcDbLine
 10
174.0
 20
3.99999999999909
 30
0.0
 11
2834.0
 21
3.99999999999909
 31
0.0
  0
LINE
  5
8067
330
8065
100
AcDbEntity
  8
枠
 62
     3
100
AcDbLine
 10
4.0
 20
2024.0
 30
0.0
 11
4.0
 21
4.0
 31
0.0
  0
LINE
  5
8068
330
8065
100
AcDbEntity
  8
枠
 62
     0
100
AcDbLine
 10
2834.0
 20
2023.999999999999
 30
0.0
 11
174.0
 21
2023.999999999999
 31
0.0
  0
LINE
  5
8069
330
8065
100
AcDbEntity
  8
枠
 62
     0
100
AcDbLine
 10
2234.0
 20
133.9999999999991
 30
0.0
 11
2234.0
 21
198.9999999999991
 31
0.0
  0
LINE
  5
806A
330
8065
100
AcDbEntity
  8
枠
 62
     0
100
AcDbLine
 10
1944.0
 20
2023.999999999999
 30
0.0
 11
2834.0
 21
2023.999999999999
 31
0.0
  0
LINE
  5
806B
330
8065
100
AcDbEntity
  8
枠
 62
     0
100
AcDbLine
 10
2114.0
 20
68.99999999999909
 30
0.0
 11
2834.0
 21
68.99999999999909
 31
0.0
  0
LINE
  5
806C
330
8065
100
AcDbEntity
  8
枠
 62
     0
100
AcDbLine
 10
2114.0
 20
198.9999999999991
 30
0.0
 11
2834.0
 21
198.9999999999991
 31
0.0
  0
LINE
  5
806D
330
8065
100
AcDbEntity
  8
枠
 62
     0
100
AcDbLine
 10
2114.0
 20
133.9999999999991
 30
0.0
 11
2834.0
 21
133.9999999999991
 31
0.0
  0
LINE
  5
806E
330
8065
100
AcDbEntity
  8
枠
 62
     0
100
AcDbLine
 10
2114.0
 20
3.99999999999909
 30
0.0
 11
2114.0
 21
198.9999999999991
 31
0.0
  0
TEXT
  5
806F
330
8065
100
AcDbEntity
  8
枠
 62
     0
100
AcDbText
 10
2350.255774665348
 20
16.49999999999908
 30
0.0
 40
40.0
  1
中外交易株式会社
 72
     4
 11
2538.255774665348
 21
36.49999999999909
 31
0.0
100
AcDbText
  0
LINE
  5
8070
330
8065
100
AcDbEntity
  8
枠
 62
     0
100
AcDbLine
 10
2234.0
 20
68.99999999999909
 30
0.0
 11
2834.0
 21
68.99999999999909
 31
0.0
  0
LINE
  5
8071
102
{ACAD_REACTORS
330
807E
102
}
330
8065
100
AcDbEntity
  8
枠
 62
     0
370
     5
100
AcDbLine
 10
2257.843923164362
 20
40.53787547858428
 30
0.0
 11
2233.255774665348
 21
40.53787547858428
 31
0.0
  0
LINE
  5
8072
102
{ACAD_REACTORS
330
807E
102
}
330
8065
100
AcDbEntity
  8
枠
 62
     0
370
     5
100
AcDbLine
 10
2233.255774665348
 20
40.53787547858428
 30
0.0
 11
2233.255774665348
 21
30.53787547858429
 31
0.0
  0
LINE
  5
8073
102
{ACAD_REACTORS
330
807E
102
}
330
8065
100
AcDbEntity
  8
枠
 62
     0
370
     5
100
AcDbLine
 10
2233.255774665348
 20
30.53787547858429
 30
0.0
 11
2257.346428692676
 21
30.53787547858429
 31
0.0
  0
LINE
  5
8074
102
{ACAD_REACTORS
330
807E
102
}
330
8065
100
AcDbEntity
  8
枠
 62
     0
370
     5
100
AcDbLine
 10
2260.641894042939
 20
56.49999999999909
 30
0.0
 11
2260.641894042939
 21
16.49999999999909
 31
0.0
  0
LINE
  5
8075
102
{ACAD_REACTORS
330
807E
102
}
330
8065
100
AcDbEntity
  8
枠
 62
     0
370
     5
100
AcDbLine
 10
2260.641894042939
 20
16.49999999999909
 30
0.0
 11
2295.641894042939
 21
16.49999999999909
 31
0.0
  0
LINE
  5
8076
102
{ACAD_REACTORS
330
807E
102
}
330
8065
100
AcDbEntity
  8
枠
 62
     0
370
     5
100
AcDbLine
 10
2295.641894042939
 20
16.49999999999909
 30
0.0
 11
2260.641894042939
 21
36.49999999999909
 31
0.0
  0
LINE
  5
8077
102
{ACAD_REACTORS
330
807E
102
}
330
8065
100
AcDbEntity
  8
枠
 62
     0
370
     5
100
AcDbLine
 10
2260.641894042939
 20
36.49999999999909
 30
0.0
 11
2295.641894042939
 21
56.49999999999909
 31
0.0
  0
LINE
  5
8078
102
{ACAD_REACTORS
330
807E
102
}
330
8065
100
AcDbEntity
  8
枠
 62
     0
370
     5
100
AcDbLine
 10
2295.641894042939
 20
56.49999999999909
 30
0.0
 11
2260.641894042939
 21
56.49999999999909
 31
0.0
  0
LINE
  5
8079
102
{ACAD_REACTORS
330
807E
102
}
330
8065
100
AcDbEntity
  8
枠
 62
     0
370
     5
100
AcDbLine
 10
2326.75434681301
 20
40.53787547858428
 30
0.0
 11
2302.166198313996
 21
40.53787547858428
 31
0.0
  0
LINE
  5
807A
102
{ACAD_REACTORS
330
807E
102
}
330
8065
100
AcDbEntity
  8
枠
 62
     0
370
     5
100
AcDbLine
 10
2302.166198313996
 20
40.53787547858428
 30
0.0
 11
2302.166198313996
 21
30.53787547858429
 31
0.0
  0
LINE
  5
807B
102
{ACAD_REACTORS
330
807E
102
}
330
8065
100
AcDbEntity
  8
枠
 62
     0
370
     5
100
AcDbLine
 10
2302.166198313996
 20
30.53787547858429
 30
0.0
 11
2326.256852341323
 21
30.53787547858429
 31
0.0
  0
ARC
  5
807C
102
{ACAD_REACTORS
330
807E
102
}
330
8065
100
AcDbEntity
  8
枠
 62
     0
370
     5
100
AcDbCircle
 10
2238.255774665347
 20
36.49999999999909
 30
0.0
 40
20.0
100
AcDbArc
 50
11.64772366708617
 51
342.6561058784773
  0
ARC
  5
807D
102
{ACAD_REACTORS
330
807E
102
}
330
8065
100
AcDbEntity
  8
枠
 62
     0
370
     5
100
AcDbCircle
 10
2307.166198313995
 20
36.49999999999909
 30
0.0
 40
20.0
100
AcDbArc
 50
11.64772366708617
 51
342.6561058784773
  0
HATCH
  5
807E
330
8065
100
AcDbEntity
  8
枠
 62
     0
100
AcDbHatch
 10
0.0
 20
0.0
 30
0.0
210
0.0
220
0.0
230
1.0
  2
SOLID
 70
     1
 71
     1
 91
        3
 92
        1
 93
        4
 72
     2
 10
2307.166198313995
 20
36.49999999999909
 40
20.0
 50
11.64772366708617
 51
342.6561058784773
 73
     1
 72
     1
 10
2326.256852341323
 20
30.53787547858429
 11
2302.166198313996
 21
30.53787547858429
 72
     1
 10
2302.166198313996
 20
30.53787547858429
 11
2302.166198313996
 21
40.53787547858428
 72
     1
 10
2302.166198313996
 20
40.53787547858428
 11
2326.75434681301
 21
40.53787547858428
 97
        4
330
807D
330
807B
330
807A
330
8079
 92
        1
 93
        4
 72
     2
 10
2238.255774665347
 20
36.49999999999909
 40
20.0
 50
11.64772366708617
 51
342.6561058784773
 73
     1
 72
     1
 10
2257.346428692676
 20
30.53787547858429
 11
2233.255774665348
 21
30.53787547858429
 72
     1
 10
2233.255774665348
 20
30.53787547858429
 11
2233.255774665348
 21
40.53787547858428
 72
     1
 10
2233.255774665348
 20
40.53787547858428
 11
2257.843923164362
 21
40.53787547858428
 97
        4
330
807C
330
8073
330
8072
330
8071
 92
        1
 93
        5
 72
     1
 10
2295.641894042939
 20
56.49999999999909
 11
2260.641894042939
 21
56.49999999999909
 72
     1
 10
2260.641894042939
 20
56.49999999999909
 11
2260.641894042939
 21
16.49999999999909
 72
     1
 10
2260.641894042939
 20
16.49999999999909
 11
2295.641894042939
 21
16.49999999999909
 72
     1
 10
2295.641894042939
 20
16.49999999999909
 11
2260.641894042939
 21
36.49999999999909
 72
     1
 10
2260.641894042939
 20
36.49999999999909
 11
2295.641894042939
 21
56.49999999999909
 97
        5
330
8078
330
8074
330
8075
330
8076
330
8077
 75
     0
 76
     1
 98
        1
 10
-10.0
 20
-0.0000000000009095
  0
LINE
  5
807F
330
8065
100
AcDbEntity
  8
枠
 62
     0
100
AcDbLine
 10
2234.0
 20
68.99999999999909
 30
0.0
 11
2234.0
 21
198.9999999999991
 31
0.0
  0
LINE
  5
8080
330
8065
100
AcDbEntity
  8
実形
 62
     1
100
AcDbLine
 10
118.6742333375914
 20
5211.047041924394
 30
0.0
 11
2476.842860629935
 21
5211.047041924394
 31
0.0
  0
TEXT
  5
8081
330
8065
100
AcDbEntity
  8
実形
100
AcDbText
 10
271.4746615155927
 20
60.08511374856698
 30
0.0
 40
30.0
  1
※実寸には製造上の誤差が多少生ずる場合があります。シンクの穴あけ加工は現物合わせにてお願いします。
 72
     4
 11
1141.474661515593
 21
75.08511374856698
 31
0.0
100
AcDbText
  0
TEXT
  5
8082
330
8065
100
AcDbEntity
  8
枠
 62
     0
100
AcDbText
 10
2136.666666666667
 20
83.99999999999909
 30
0.0
 40
35.0
  1
尺度
 72
     4
 11
2174.0
 21
101.4999999999991
 31
0.0
100
AcDbText
  0
TEXT
  5
8083
330
8065
100
AcDbEntity
  8
枠
 62
     0
100
AcDbText
 10
2136.666666666667
 20
148.9999999999991
 30
0.0
 40
35.0
  1
品番
 72
     4
 11
2174.0
 21
166.4999999999991
 31
0.0
100
AcDbText
  0
TEXT
  5
8084
330
8065
100
AcDbEntity
  8
実形
100
AcDbText
 10
2446.588586518341
 20
81.78238670760313
 30
0.0
 40
40.0
  1
1：10
 72
     4
 11
2507.255253185007
 21
101.7823867076031
 31
0.0
100
AcDbText
  0
TEXT
  5
8085
330
8065
100
AcDbEntity
  8
実形
100
AcDbText
 10
2321.533637209673
 20
150.830875284324
 30
0.0
 40
30.0
  1
RAS800-460GRM
 72
     4
 11
2504.033637209673
 21
165.830875284324
 31
0.0
100
AcDbText
  0
LINE
  5
8086
330
8065
100
AcDbEntity
  8
実形
 62
     3
100
AcDbLine
 10
2856.314199910736
 20
2024.000000000001
 30
0.0
 11
2856.314199910736
 21
4.0
 31
0.0
  0
LINE
  5
8087
330
8065
100
AcDbEntity
  8
実形
 62
     0
100
AcDbLine
 10
2844.0
 20
4.0
 30
0.0
 11
2844.0
 21
2024.0
 31
0.0
  0
LINE
  5
8088
330
8065
100
AcDbEntity
  8
実形
 62
     0
100
AcDbLine
 10
2834.0
 20
4.0
 30
0.0
 11
2834.0
 21
2024.0
 31
0.0
  0
LINE
  5
8089
330
8065
100
AcDbEntity
  8
実形
 62
     0
100
AcDbLine
 10
174.0
 20
2024.0
 30
0.0
 11
174.0
 21
4.0
 31
0.0
  0
LINE
  5
808A
330
8065
100
AcDbEntity
  8
実形
100
AcDbLine
 10
827.7702104998825
 20
1659.178460662066
 30
0.0
 11
1657.770210499882
 21
1659.178460662066
 31
0.0
  0
LINE
  5
808B
330
8065
100
AcDbEntity
  8
実形
100
AcDbLine
 10
1657.770210499882
 20
1659.178460662066
 30
0.0
 11
1657.770210499882
 21
1169.178460662066
 31
0.0
  0
LINE
  5
808C
330
8065
100
AcDbEntity
  8
実形
100
AcDbLine
 10
1657.770210499882
 20
1169.178460662066
 30
0.0
 11
827.7702104998825
 21
1169.178460662066
 31
0.0
  0
LINE
  5
808D
330
8065
100
AcDbEntity
  8
実形
100
AcDbLine
 10
827.7702104998825
 20
1169.178460662066
 30
0.0
 11
827.7702104998825
 21
1659.178460662066
 31
0.0
  0
LINE
  5
808E
330
8065
100
AcDbEntity
  8
実形
100
AcDbLine
 10
848.7702104998824
 20
1644.178460662066
 30
0.0
 11
1636.770210499882
 21
1644.178460662066
 31
0.0
  0
LINE
  5
808F
330
8065
100
AcDbEntity
  8
実形
100
AcDbLine
 10
1642.770210499882
 20
1638.178460662065
 30
0.0
 11
1642.770210499882
 21
1190.178460662066
 31
0.0
  0
LINE
  5
8090
330
8065
100
AcDbEntity
  8
実形
100
AcDbLine
 10
1636.770210499882
 20
1184.178460662066
 30
0.0
 11
848.7702104998826
 21
1184.178460662066
 31
0.0
  0
LINE
  5
8091
330
8065
100
AcDbEntity
  8
実形
100
AcDbLine
 10
842.7702104998825
 20
1190.178460662066
 30
0.0
 11
842.7702104998823
 21
1638.178460662066
 31
0.0
  0
LINE
  5
8092
330
8065
100
AcDbEntity
  8
実形
100
AcDbLine
 10
862.7702104998824
 20
1210.178460662066
 30
0.0
 11
862.7702104998821
 21
1548.178460662066
 31
0.0
  0
LINE
  5
8093
330
8065
100
AcDbEntity
  8
実形
100
AcDbLine
 10
1092.770210499882
 20
1624.178460662066
 30
0.0
 11
1392.770210499882
 21
1624.178460662066
 31
0.0
  0
LINE
  5
8094
330
8065
100
AcDbEntity
  8
実形
100
AcDbLine
 10
1622.770210499882
 20
1548.178460662066
 30
0.0
 11
1622.770210499882
 21
1210.178460662066
 31
0.0
  0
LINE
  5
8095
330
8065
100
AcDbEntity
  8
実形
100
AcDbLine
 10
1616.770210499882
 20
1204.178460662066
 30
0.0
 11
868.7702104998823
 21
1204.178460662066
 31
0.0
  0
DIMENSION
  5
8096
330
8065
100
AcDbEntity
  8
実形
100
AcDbDimension
  2
*D28
 10
1622.770210499882
 20
1036.915758957679
 30
0.0
 11
1242.770210499882
 21
1056.015758957679
 31
0.0
 70
    32
 71
     5
 42
759.9999999999997
  3
ISO-25
100
AcDbAlignedDimension
 13
862.7702104998824
 23
1169.178460662066
 33
0.0
 14
1622.770210499882
 24
1169.178460662066
 34
0.0
100
AcDbRotatedDimension
1001
ACAD
1000
DSTYLE
1002
{
1070
    41
1040
10.0
1070
   140
1040
25.0
1070
   147
1040
6.599999999999998
1070
   279
1070
     2
1070
   342
1005
30D
1070
   371
1070
    18
1070
   372
1070
    18
1002
}
  0
DIMENSION
  5
8097
330
8065
100
AcDbEntity
  8
実形
100
AcDbDimension
  2
*D29
 10
1642.770210499882
 20
1036.915758957679
 30
0.0
 11
1589.171363804602
 21
1058.515758957679
 31
0.0
 70
   160
  1
20
 71
     5
 42
799.9999999999998
  3
ISO-25
100
AcDbAlignedDimension
 13
842.7702104998825
 23
1169.178460662066
 33
0.0
 14
1642.770210499882
 24
1169.178460662066
 34
0.0
100
AcDbRotatedDimension
1001
ACAD
1000
DSTYLE
1002
{
1070
    41
1040
10.0
1070
   140
1040
25.0
1070
   147
1040
6.599999999999998
1070
   279
1070
     2
1070
   342
1005
30D
1070
   371
1070
    18
1070
   372
1070
    18
1002
}
  0
TEXT
  5
8098
330
8065
100
AcDbEntity
  8
実形
 48
20.0
100
AcDbText
 10
877.7699109105341
 20
1047.974708017131
 30
0.0
 40
25.0
  1
20
100
AcDbText
  0
DIMENSION
  5
8099
330
8065
100
AcDbEntity
  8
実形
100
AcDbDimension
  2
*D30
 10
1642.770210499882
 20
974.5052716017053
 30
0.0
 11
1242.770210499882
 21
993.6052716017053
 31
0.0
 70
    32
 71
     5
 42
799.9999999999998
  3
ISO-25
100
AcDbAlignedDimension
 13
842.7702104998825
 23
1169.178460662066
 33
0.0
 14
1642.770210499882
 24
1169.178460662066
 34
0.0
100
AcDbRotatedDimension
1001
ACAD
1000
DSTYLE
1002
{
1070
    41
1040
10.0
1070
   140
1040
25.0
1070
   147
1040
6.599999999999998
1070
   279
1070
     2
1070
   342
1005
30D
1070
   371
1070
    18
1070
   372
1070
    18
1002
}
  0
DIMENSION
  5
809A
330
8065
100
AcDbEntity
  8
実形
100
AcDbDimension
  2
*D31
 10
1657.770210499882
 20
974.5052716017053
 30
0.0
 11
1701.559743854428
 21
996.1052716017052
 31
0.0
 70
   160
  1
15
 71
     5
 42
830.0
  3
ISO-25
100
AcDbAlignedDimension
 13
827.7702104998825
 23
1169.178460662066
 33
0.0
 14
1657.770210499882
 24
1169.178460662066
 34
0.0
100
AcDbRotatedDimension
1001
ACAD
1000
DSTYLE
1002
{
1070
    41
1040
10.0
1070
   140
1040
25.0
1070
   147
1040
6.599999999999998
1070
   279
1070
     2
1070
   342
1005
30D
1070
   371
1070
    18
1070
   372
1070
    18
1002
}
  0
TEXT
  5
809B
330
8065
100
AcDbEntity
  8
実形
 48
20.0
100
AcDbText
 10
770.7109889092589
 20
985.3423772939986
 30
0.0
 40
25.0
  1
15
100
AcDbText
  0
DIMENSION
  5
809C
330
8065
100
AcDbEntity
  8
実形
100
AcDbDimension
  2
*D32
 10
1657.770210499882
 20
901.2836911315535
 30
0.0
 11
1242.770210499882
 21
920.3836911315535
 31
0.0
 70
    32
 71
     5
 42
830.0
  3
ISO-25
100
AcDbAlignedDimension
 13
827.7702104998825
 23
1169.178460662066
 33
0.0
 14
1657.770210499882
 24
1169.178460662066
 34
0.0
100
AcDbRotatedDimension
1001
ACAD
1000
DSTYLE
1002
{
1070
    41
1040
10.0
1070
   140
1040
25.0
1070
   147
1040
6.599999999999998
1070
   279
1070
     2
1070
   342
1005
30D
1070
   371
1070
    18
1070
   372
1070
    18
1002
}
  0
LINE
  5
809D
330
8065
100
AcDbEntity
  8
実形
  6
ACAD_ISO08W100
 48
0.5
100
AcDbLine
 10
1384.469907606381
 20
1404.178460662066
 30
0.0
 11
1109.442023008436
 21
1404.178460662066
 31
0.0
  0
CIRCLE
  5
809E
330
8065
100
AcDbEntity
  8
実形
100
AcDbCircle
 10
1242.770210499882
 20
1404.178460662066
 30
0.0
 40
80.0
  0
CIRCLE
  5
809F
330
8065
100
AcDbEntity
  8
実形
100
AcDbCircle
 10
1242.770210499882
 20
1404.178460662066
 30
0.0
 40
90.5
  0
LINE
  5
80A0
330
8065
100
AcDbEntity
  8
実形
100
AcDbLine
 10
862.7702104998824
 20
1659.178460662066
 30
0.0
 11
1012.770210499882
 21
1659.178460662066
 31
0.0
  0
LINE
  5
80A1
330
8065
100
AcDbEntity
  8
実形
 62
     3
100
AcDbLine
 10
917.0693431839136
 20
-152.3860966284574
 30
0.0
 11
1747.069343183913
 21
-152.3860966284574
 31
0.0
  0
LINE
  5
80A2
330
8065
100
AcDbEntity
  8
実形
 62
     3
100
AcDbLine
 10
932.0693431839137
 20
-152.3860966284574
 30
0.0
 11
932.0693431839139
 21
-167.3860966284574
 31
0.0
  0
LINE
  5
80A3
330
8065
100
AcDbEntity
  8
実形
 62
     3
100
AcDbLine
 10
1732.069343183914
 20
-152.3860966284574
 30
0.0
 11
1732.069343183914
 21
-167.3860966284574
 31
0.0
  0
LINE
  5
80A4
330
8065
100
AcDbEntity
  8
実形
 62
     3
100
AcDbLine
 10
932.0693431839139
 20
-167.3860966284574
 30
0.0
 11
1732.069343183914
 21
-167.3860966284574
 31
0.0
  0
LINE
  5
80A5
330
8065
100
AcDbEntity
  8
実形
 62
     3
100
AcDbLine
 10
952.0693431839136
 20
-167.3860966284576
 30
0.0
 11
952.0693431839134
 21
-362.7109739766329
 31
0.0
  0
LINE
  5
80A6
330
8065
100
AcDbEntity
  8
実形
 62
     3
100
AcDbLine
 10
1712.069343183914
 20
-167.3860966284574
 30
0.0
 11
1712.069343183913
 21
-361.5568395436162
 31
0.0
  0
LINE
  5
80A7
330
8065
100
AcDbEntity
  8
実形
 62
     3
100
AcDbLine
 10
1011.569343183913
 20
-382.3860966284574
 30
0.0
 11
1192.569343183913
 21
-382.3860966284574
 31
0.0
  0
LINE
  5
80A8
330
8065
100
AcDbEntity
  8
実形
 62
     3
100
AcDbLine
 10
1011.569343183913
 20
-392.3860966284574
 30
0.0
 11
1192.569343183913
 21
-392.3860966284574
 31
0.0
  0
DIMENSION
  5
80A9
330
8065
100
AcDbEntity
  8
実形
 62
     3
100
AcDbDimension
  2
*D33
 10
797.3710940401324
 20
-367.3860966284573
 30
0.0
 11
778.2710940401325
 21
-267.3860966284572
 31
0.0
 70
    32
 71
     5
 42
200.0
  3
ISO-25
100
AcDbAlignedDimension
 13
917.0693431839135
 23
-167.3860966284574
 33
0.0
 14
917.0693431839133
 24
-367.3860966284574
 34
0.0
 50
90.0
100
AcDbRotatedDimension
1001
ACAD
1000
DSTYLE
1002
{
1070
    41
1040
10.0
1070
   140
1040
25.0
1070
   147
1040
6.599999999999998
1070
   279
1070
     2
1070
   342
1005
30D
1070
   371
1070
    18
1070
   372
1070
    18
1002
}
  0
DIMENSION
  5
80AA
330
8065
100
AcDbEntity
  8
実形
 62
     3
100
AcDbDimension
  2
*D34
 10
797.3710940401324
 20
-382.3860966284573
 30
0.0
 11
775.7710940401323
 21
-176.4675834353729
 31
0.0
 70
   160
  1
15
 71
     5
 42
230.0
  3
ISO-25
100
AcDbAlignedDimension
 13
917.0693431839136
 23
-152.3860966284574
 33
0.0
 14
917.0693431839136
 24
-382.3860966284574
 34
0.0
 50
90.0
100
AcDbRotatedDimension
1001
ACAD
1000
DSTYLE
1002
{
1070
    41
1040
10.0
1070
   140
1040
25.0
1070
   147
1040
6.599999999999998
1070
   279
1070
     2
1070
   342
1005
30D
1070
   371
1070
    18
1070
   372
1070
    18
1002
}
  0
TEXT
  5
80AB
330
8065
100
AcDbEntity
  8
実形
 62
     3
 48
20.0
100
AcDbText
 10
790.6030498610107
 20
-377.9124245682397
 30
0.0
 40
25.0
  1
15
 50
90.0
100
AcDbText
  0
LINE
  5
80AC
330
8065
100
AcDbEntity
  8
実形
 62
     3
100
AcDbLine
 10
797.3710940401324
 20
-382.3860966284574
 30
0.0
 11
797.3710940401326
 21
-392.3860966284574
 31
0.0
  0
DIMENSION
  5
80AD
330
8065
100
AcDbEntity
  8
実形
 62
     3
100
AcDbDimension
  2
*D35
 10
797.3710940401324
 20
-152.3860966284573
 30
0.0
 11
830.355261679284
 21
-411.1966776303161
 31
0.0
 70
   160
  1
8
 71
     5
 42
240.0
  3
ISO-25
100
AcDbAlignedDimension
 13
917.0693431839136
 23
-392.3860966284574
 33
0.0
 14
917.0693431839136
 24
-152.3860966284574
 34
0.0
 50
90.0
100
AcDbRotatedDimension
1001
ACAD
1000
DSTYLE
1002
{
1070
    41
1040
10.0
1070
   140
1040
25.0
1070
   147
1040
6.599999999999998
1070
   279
1070
     2
1070
   342
1005
30D
1070
   371
1070
    18
1070
   372
1070
    18
1002
}
  0
DIMENSION
  5
80AE
330
8065
100
AcDbEntity
  8
実形
 62
     3
100
AcDbDimension
  2
*D36
 10
727.6013470322832
 20
-382.3860966284573
 30
0.0
 11
708.5013470322833
 21
-267.3860966284572
 31
0.0
 70
    32
 71
     5
 42
230.0
  3
ISO-25
100
AcDbAlignedDimension
 13
917.0693431839136
 23
-152.3860966284574
 33
0.0
 14
917.0693431839135
 24
-382.3860966284574
 34
0.0
 50
90.0
100
AcDbRotatedDimension
1001
ACAD
1000
DSTYLE
1002
{
1070
    41
1040
10.0
1070
   140
1040
25.0
1070
   147
1040
6.599999999999998
1070
   279
1070
     2
1070
   342
1005
30D
1070
   371
1070
    18
1070
   372
1070
    18
1002
}
  0
DIMENSION
  5
80AF
330
8065
100
AcDbEntity
  8
実形
 62
     3
100
AcDbDimension
  2
*D37
 10
660.6927293655044
 20
-392.3860966284574
 30
0.0
 11
641.5927293655045
 21
-272.3860966284572
 31
0.0
 70
    32
  1
238
 71
     5
 42
240.0
  3
ISO-25
100
AcDbAlignedDimension
 13
793.6814961412001
 23
-152.3860966284574
 33
0.0
 14
793.6814961411999
 24
-392.3860966284574
 34
0.0
 50
90.0
100
AcDbRotatedDimension
1001
ACAD
1000
DSTYLE
1002
{
1070
    41
1040
10.0
1070
   140
1040
25.0
1070
   147
1040
6.599999999999998
1070
   279
1070
     2
1070
   342
1005
30D
1070
   371
1070
    18
1070
   372
1070
    18
1002
}
  0
TEXT
  5
80B0
330
8065
100
AcDbEntity
  8
実形
100
AcDbText
 10
1509.52663925932
 20
1464.605228875251
 30
0.0
 40
25.0
  1
6R
 72
     2
 11
1551.193305925987
 21
1461.271895541917
 31
0.0
100
AcDbText
 73
     1
  0
LEADER
  5
80B1
330
8065
100
AcDbEntity
  8
実形
100
AcDbLeader
  3
ISO-25
 76
     2
 10
1612.401069036485
 20
1543.199935987015
 30
0.0
 10
1558.344122906441
 20
1494.303693113559
 30
0.0
1001
ACAD
1000
DSTYLE
1002
{
1070
    77
1070
     0
1070
    41
1040
10.0
1070
   140
1040
30.0
1070
   147
1040
6.599999999999998
1070
   279
1070
     2
1070
   342
1005
30D
1070
   371
1070
    18
1070
   372
1070
    18
1002
}
  0
TEXT
  5
80B2
330
8065
100
AcDbEntity
  8
実形
100
AcDbText
 10
1508.340509182852
 20
1215.174767916627
 30
0.0
 40
25.0
  1
6R
 72
     2
 11
1550.007175849518
 21
1211.841434583294
 31
0.0
100
AcDbText
 73
     1
  0
LEADER
  5
80B3
330
8065
100
AcDbEntity
  8
実形
100
AcDbLeader
  3
ISO-25
 76
     2
 10
1633.74014683896
 20
1191.262627398048
 30
0.0
 10
1565.498924722882
 20
1220.187379926308
 30
0.0
1001
ACAD
1000
DSTYLE
1002
{
1070
    77
1070
     0
1070
    41
1040
10.0
1070
   140
1040
30.0
1070
   147
1040
6.599999999999998
1070
   279
1070
     2
1070
   342
1005
30D
1070
   371
1070
    18
1070
   372
1070
    18
1002
}
  0
LINE
  5
80B4
330
8065
100
AcDbEntity
  8
実形
  6
ACAD_ISO08W100
 62
     3
 48
0.5
100
AcDbLine
 10
1102.069343183913
 20
-287.5334204559203
 30
0.0
 11
1102.069343183913
 21
-444.2147007915264
 31
0.0
  0
LINE
  5
80B5
330
8065
100
AcDbEntity
  8
実形
 62
     3
100
AcDbLine
 10
1011.569343183913
 20
-382.3860966284574
 30
0.0
 11
1011.569343183913
 21
-392.3860966284574
 31
0.0
  0
LINE
  5
80B6
330
8065
100
AcDbEntity
  8
実形
 62
     3
100
AcDbLine
 10
1192.569343183913
 20
-382.3860966284574
 30
0.0
 11
1192.569343183913
 21
-392.3860966284574
 31
0.0
  0
LINE
  5
80B7
330
8065
100
AcDbEntity
  8
実形
 62
     3
100
AcDbLine
 10
1011.569343183913
 20
-382.3860966284574
 30
0.0
 11
956.6026286319571
 21
-368.528941699393
 31
0.0
  0
ARC
  5
80B8
330
8065
100
AcDbEntity
  8
実形
 62
     3
100
AcDbCircle
 10
958.0693431839135
 20
-362.7109739766327
 30
0.0
 40
6.0
100
AcDbArc
 50
180.0
 51
255.8505239136548
  0
LINE
  5
80B9
330
8065
100
AcDbEntity
  8
実形
 62
     3
100
AcDbLine
 10
1192.569343183913
 20
-382.3860966284574
 30
0.0
 11
1706.242514515584
 21
-367.5543399971291
 31
0.0
  0
ARC
  5
80BA
330
8065
100
AcDbEntity
  8
実形
 62
     3
100
AcDbCircle
 10
1706.069343183914
 20
-361.5568395436162
 30
0.0
 40
6.0
100
AcDbArc
 50
271.6538940784474
 51
360.0
  0
DIMENSION
  5
80BB
330
8065
100
AcDbEntity
  8
実形
 62
     3
100
AcDbDimension
  2
*D38
 10
1182.069343183914
 20
-509.3026951643151
 30
0.0
 11
1102.069343183913
 21
-490.202695164315
 31
0.0
 70
    32
 71
     5
 42
160.0000000000002
  3
ISO-25
100
AcDbAlignedDimension
 13
1022.069343183913
 23
-392.3860966284575
 33
0.0
 14
1182.069343183914
 24
-392.3860966284575
 34
0.0
100
AcDbRotatedDimension
1001
ACAD
1000
DSTYLE
1002
{
1070
    41
1040
10.0
1070
   140
1040
25.0
1070
   147
1040
6.599999999999998
1070
   279
1070
     2
1070
   342
1005
30D
1070
   371
1070
    18
1070
   372
1070
    18
1002
}
  0
DIMENSION
  5
80BC
330
8065
100
AcDbEntity
  8
実形
 62
     3
100
AcDbDimension
  2
*D39
 10
1192.569343183913
 20
-580.5449919795919
 30
0.0
 11
1102.069343183913
 21
-561.4449919795919
 31
0.0
 70
    32
 71
     5
 42
180.9999999999995
  3
ISO-25
100
AcDbAlignedDimension
 13
1011.569343183913
 23
-392.3860966284575
 33
0.0
 14
1192.569343183913
 24
-392.3860966284617
 34
0.0
100
AcDbRotatedDimension
1001
ACAD
1000
DSTYLE
1002
{
1070
    41
1040
10.0
1070
   140
1040
25.0
1070
   147
1040
6.599999999999998
1070
   279
1070
     2
1070
   342
1005
30D
1070
   371
1070
    18
1070
   372
1070
    18
1002
}
  0
ARC
  5
80BD
330
8065
100
AcDbEntity
  8
実形
 62
     3
100
AcDbCircle
 10
1706.069343183913
 20
-361.5568395436162
 30
0.0
 40
6.0
100
AcDbArc
 50
271.6538940784474
 51
360.0
  0
ARC
  5
80BE
330
8065
100
AcDbEntity
  8
実形
 62
     3
100
AcDbCircle
 10
958.0693431839135
 20
-362.7109739766329
 30
0.0
 40
6.0
100
AcDbArc
 50
180.0
 51
255.8505239136549
  0
TEXT
  5
80BF
330
8065
100
AcDbEntity
  8
実形
 62
     3
100
AcDbText
 10
1042.683555881774
 20
-304.5623972451655
 30
0.0
 40
25.0
  1
6R
 72
     2
 11
1084.350222548441
 21
-307.8957305784988
 31
0.0
100
AcDbText
 73
     1
  0
TEXT
  5
80C0
330
8065
100
AcDbEntity
  8
実形
 62
     3
100
AcDbText
 10
1595.621696234116
 20
-306.4700963227503
 30
0.0
 40
25.0
  1
6R
 72
     2
 11
1637.288362900783
 21
-309.8034296560836
 31
0.0
100
AcDbText
 73
     1
  0
LEADER
  5
80C1
330
8065
100
AcDbEntity
  8
実形
 62
     3
100
AcDbLeader
  3
ISO-25
 76
     2
 10
965.4503650180505
 20
-356.9510230277229
 30
0.0
 10
1027.920188021731
 20
-309.3670608013253
 30
0.0
1001
ACAD
1000
DSTYLE
1002
{
1070
    77
1070
     0
1070
    41
1040
10.0
1070
   140
1040
30.0
1070
   147
1040
6.599999999999998
1070
   279
1070
     2
1070
   342
1005
30D
1070
   371
1070
    18
1070
   372
1070
    18
1002
}
  0
ARC
  5
80C2
330
8065
100
AcDbEntity
  8
実形
100
AcDbCircle
 10
1636.770210499882
 20
1638.178460662065
 30
0.0
 40
6.0
100
AcDbArc
 50
0.0
 51
90.0
  0
ARC
  5
80C3
330
8065
100
AcDbEntity
  8
実形
100
AcDbCircle
 10
1616.770210499882
 20
1210.178460662066
 30
0.0
 40
6.0
100
AcDbArc
 50
270.0
 51
0.0
  0
ARC
  5
80C4
330
8065
100
AcDbEntity
  8
実形
100
AcDbCircle
 10
1636.770210499882
 20
1190.178460662066
 30
0.0
 40
6.0
100
AcDbArc
 50
270.0
 51
0.0
  0
ARC
  5
80C5
330
8065
100
AcDbEntity
  8
実形
100
AcDbCircle
 10
848.7702104998824
 20
1638.178460662066
 30
0.0
 40
6.0
100
AcDbArc
 50
89.99999999999998
 51
180.0
  0
ARC
  5
80C6
330
8065
100
AcDbEntity
  8
実形
100
AcDbCircle
 10
868.7702104998823
 20
1210.178460662066
 30
0.0
 40
6.0
100
AcDbArc
 50
180.0
 51
270.0
  0
ARC
  5
80C7
330
8065
100
AcDbEntity
  8
実形
100
AcDbCircle
 10
848.7702104998826
 20
1190.178460662066
 30
0.0
 40
6.0
100
AcDbArc
 50
180.0
 51
270.0
  0
LEADER
  5
80C8
330
8065
100
AcDbEntity
  8
実形
 62
     3
100
AcDbLeader
  3
ISO-25
 76
     2
 10
1698.688321349777
 20
-356.9510230277229
 30
0.0
 10
1650.738809508872
 20
-308.106533025717
 30
0.0
211
-1.0
221
0.0
231
0.0
1001
ACAD
1000
DSTYLE
1002
{
1070
    77
1070
     0
1070
    41
1040
10.0
1070
   140
1040
30.0
1070
   147
1040
6.599999999999998
1070
   279
1070
     2
1070
   342
1005
30D
1070
   371
1070
    18
1070
   372
1070
    18
1002
}
  0
LINE
  5
80C9
330
8065
100
AcDbEntity
  8
実形
 62
     0
100
AcDbLine
 10
2114.0
 20
263.9999999999991
 30
0.0
 11
2834.0
 21
263.9999999999991
 31
0.0
  0
LINE
  5
80CA
330
8065
100
AcDbEntity
  8
実形
 62
     0
100
AcDbLine
 10
2114.0
 20
3.99999999999909
 30
0.0
 11
2114.0
 21
263.9999999999991
 31
0.0
  0
LINE
  5
80CB
330
8065
100
AcDbEntity
  8
実形
 62
     0
100
AcDbLine
 10
2234.0
 20
68.99999999999909
 30
0.0
 11
2234.0
 21
263.9999999999992
 31
0.0
  0
TEXT
  5
80CC
330
8065
100
AcDbEntity
  8
枠
 62
     0
100
AcDbText
 10
2137.833333333333
 20
213.9999999999991
 30
0.0
 40
35.0
  1
品名
 72
     4
 11
2174.0
 21
231.4999999999991
 31
0.0
100
AcDbText
  0
TEXT
  5
80CD
330
8065
100
AcDbEntity
  8
実形
100
AcDbText
 10
2323.374698073251
 20
213.2308752843241
 30
0.0
 40
35.0
  1
ｱﾝﾀﾞｰｼﾝｸ
  7
ms明朝
 72
     4
 11
2425.774698073251
 21
230.8308752843241
 31
0.0
100
AcDbText
  0
LINE
  5
80CE
330
8065
100
AcDbEntity
  8
枠
100
AcDbLine
 10
2834.0
 20
1958.999999999999
 30
0.0
 11
2114.0
 21
1958.999999999999
 31
0.0
  0
LINE
  5
80CF
330
8065
100
AcDbEntity
  8
枠
100
AcDbLine
 10
2834.0
 20
1893.999999999998
 30
0.0
 11
2114.0
 21
1893.999999999998
 31
0.0
  0
LINE
  5
80D0
330
8065
100
AcDbEntity
  8
枠
100
AcDbLine
 10
2114.0
 20
1893.999999999998
 30
0.0
 11
2114.0
 21
2023.999999999999
 31
0.0
  0
TEXT
  5
80D1
330
8065
100
AcDbEntity
  8
枠
100
AcDbText
 10
2671.5
 20
1976.499999999999
 30
0.0
 40
30.0
  1
仕上げ
 72
     4
 11
2721.5
 21
1991.499999999999
 31
0.0
100
AcDbText
  0
LINE
  5
80D2
330
8065
100
AcDbEntity
  8
枠
100
AcDbLine
 10
2592.81684247519
 20
1893.999999999998
 30
0.0
 11
2592.81684247519
 21
2023.999999999999
 31
0.0
  0
LINE
  5
80D3
330
8065
100
AcDbEntity
  8
枠
100
AcDbLine
 10
2367.816842475189
 20
1893.999999999998
 30
0.0
 11
2367.816842475189
 21
2023.999999999999
 31
0.0
  0
TEXT
  5
80D4
330
8065
100
AcDbEntity
  8
実形
100
AcDbText
 10
2641.5
 20
1911.5
 30
0.0
 40
30.0
  1
HL仕上げ
 72
     4
 11
2721.5
 21
1926.5
 31
0.0
100
AcDbText
  0
TEXT
  5
80D5
330
8065
100
AcDbEntity
  8
枠
100
AcDbText
 10
2194.5
 20
1976.499999999999
 30
0.0
 40
30.0
  1
材質
 72
     4
 11
2226.5
 21
1991.499999999999
 31
0.0
100
AcDbText
  0
TEXT
  5
80D6
330
8065
100
AcDbEntity
  8
実形
100
AcDbText
 10
2150.567741091872
 20
1909.802712155305
 30
0.0
 40
30.0
  1
SUS304
 72
     4
 11
2233.067741091872
 21
1924.802712155305
 31
0.0
100
AcDbText
  0
TEXT
  5
80D7
330
8065
100
AcDbEntity
  8
枠
100
AcDbText
 10
2445.771452399255
 20
1977.499999999999
 30
0.0
 40
30.0
  1
厚み
 72
     4
 11
2476.771452399255
 21
1991.499999999999
 31
0.0
100
AcDbText
  0
TEXT
  5
80D8
330
8065
100
AcDbEntity
  8
実形
100
AcDbText
 10
2418.271452399255
 20
1911.5
 30
0.0
 40
30.0
  1
1.0ｍｍ
 72
     4
 11
2476.771452399255
 21
1926.5
 31
0.0
100
AcDbText
  0
LINE
  5
80D9
330
8065
100
AcDbEntity
  8
実形
100
AcDbLine
 10
868.770210499882
 20
1554.178460662066
 30
0.0
 11
1092.770210499882
 21
1554.178460662066
 31
0.0
  0
DIMENSION
  5
80DA
330
8065
100
AcDbEntity
  8
実形
100
AcDbDimension
  2
*D40
 10
1043.456345948539
 20
1404.178460662066
 30
0.0
 11
1021.856345948539
 21
1479.178460662066
 31
0.0
 70
    32
 71
     5
 42
150.0000000000002
  3
ISO-25
100
AcDbAlignedDimension
 13
1159.538117598124
 23
1554.178460662066
 33
0.0
 14
1156.209930106677
 24
1404.178460662066
 34
0.0
 50
90.0
100
AcDbRotatedDimension
1001
ACAD
1000
DSTYLE
1002
{
1070
    41
1040
10.0
1070
   140
1040
30.0
1070
   147
1040
6.599999999999998
1070
   279
1070
     2
1070
   342
1005
30D
1070
   371
1070
    18
1070
   372
1070
    18
1002
}
  0
DIMENSION
  5
80DB
330
8065
100
AcDbEntity
  8
実形
100
AcDbDimension
  2
*D41
 10
1622.770210499882
 20
1270.994834284402
 30
0.0
 11
1432.770210499882
 21
1292.594834284402
 31
0.0
 70
    32
 71
     5
 42
380.0
  3
ISO-25
100
AcDbAlignedDimension
 13
1242.770210499882
 23
1365.740901717254
 33
0.0
 14
1622.770210499882
 24
1365.740901717254
 34
0.0
100
AcDbRotatedDimension
1001
ACAD
1000
DSTYLE
1002
{
1070
    41
1040
10.0
1070
   140
1040
30.0
1070
   147
1040
6.599999999999998
1070
   279
1070
     2
1070
   342
1005
30D
1070
   371
1070
    18
1070
   372
1070
    18
1002
}
  0
LINE
  5
80DC
330
8065
100
AcDbEntity
  8
実形
100
AcDbLine
 10
1092.770210499882
 20
1554.178460662066
 30
0.0
 11
1092.770210499882
 21
1624.178460662066
 31
0.0
  0
LINE
  5
80DD
330
8065
100
AcDbEntity
  8
実形
100
AcDbLine
 10
1392.770210499882
 20
1554.178460662066
 30
0.0
 11
1392.770210499882
 21
1624.178460662066
 31
0.0
  0
DIMENSION
  5
80DE
330
8065
100
AcDbEntity
  8
実形
100
AcDbDimension
  2
*D42
 10
1092.770210499882
 20
1735.385472702717
 30
0.0
 11
967.7702104998825
 21
1754.485472702717
 31
0.0
 70
    32
 71
     5
 42
250.0000000000001
  3
ISO-25
100
AcDbAlignedDimension
 13
842.7702104998823
 23
1624.178460662066
 33
0.0
 14
1092.770210499882
 24
1624.178460662066
 34
0.0
100
AcDbRotatedDimension
1001
ACAD
1000
DSTYLE
1002
{
1070
    41
1040
10.0
1070
   140
1040
25.0
1070
   147
1040
6.599999999999998
1070
   279
1070
     2
1070
   342
1005
30D
1070
   371
1070
    18
1070
   372
1070
    18
1002
}
  0
DIMENSION
  5
80DF
330
8065
100
AcDbEntity
  8
実形
100
AcDbDimension
  2
*D43
 10
1392.770210499882
 20
1735.385472702717
 30
0.0
 11
1242.770210499882
 21
1754.485472702717
 31
0.0
 70
    32
 71
     5
 42
300.0
  3
ISO-25
100
AcDbAlignedDimension
 13
1092.770210499882
 23
1624.178460662066
 33
0.0
 14
1392.770210499882
 24
1624.178460662066
 34
0.0
100
AcDbRotatedDimension
1001
ACAD
1000
DSTYLE
1002
{
1070
    41
1040
10.0
1070
   140
1040
25.0
1070
   147
1040
6.599999999999998
1070
   279
1070
     2
1070
   342
1005
30D
1070
   371
1070
    18
1070
   372
1070
    18
1002
}
  0
DIMENSION
  5
80E0
330
8065
100
AcDbEntity
  8
実形
100
AcDbDimension
  2
*D44
 10
1642.770210499882
 20
1735.385472702717
 30
0.0
 11
1517.770210499882
 21
1754.485472702717
 31
0.0
 70
    32
 71
     5
 42
249.9999999999998
  3
ISO-25
100
AcDbAlignedDimension
 13
1392.770210499883
 23
1624.178460662065
 33
0.0
 14
1642.770210499882
 24
1624.178460662065
 34
0.0
100
AcDbRotatedDimension
1001
ACAD
1000
DSTYLE
1002
{
1070
    41
1040
10.0
1070
   140
1040
25.0
1070
   147
1040
6.599999999999998
1070
   279
1070
     2
1070
   342
1005
30D
1070
   371
1070
    18
1070
   372
1070
    18
1002
}
  0
DIMENSION
  5
80E1
330
8065
100
AcDbEntity
  8
実形
100
AcDbDimension
  2
*D45
 10
1657.770210499882
 20
1735.385472702717
 30
0.0
 11
826.3182245476109
 21
1760.370517377699
 31
0.0
 70
   160
  1
15
 71
     5
 42
830.0
  3
ISO-25
100
AcDbAlignedDimension
 13
827.7702104998825
 23
1624.806458158204
 33
0.0
 14
1657.770210499882
 24
1624.161761419618
 34
0.0
100
AcDbRotatedDimension
1001
ACAD
1000
DSTYLE
1002
{
1070
    41
1040
10.0
1070
   140
1040
25.0
1070
   147
1040
6.599999999999998
1070
   279
1070
     2
1070
   342
1005
30D
1070
   371
1070
    18
1070
   372
1070
    18
1002
}
  0
TEXT
  5
80E2
330
8065
100
AcDbEntity
  8
実形
 48
20.0
100
AcDbText
 10
1644.285264478984
 20
1745.579848299247
 30
0.0
 40
25.0
  1
15
100
AcDbText
  0
DIMENSION
  5
80E3
330
8065
100
AcDbEntity
  8
実形
100
AcDbDimension
  2
*D46
 10
1771.093547640548
 20
1184.178460662066
 30
0.0
 11
1751.993547640548
 21
1414.178460662066
 31
0.0
 70
    32
 71
     5
 42
459.9999999999997
  3
ISO-25
100
AcDbAlignedDimension
 13
1657.770210499882
 23
1644.178460662066
 33
0.0
 14
1657.770210499883
 24
1184.178460662066
 34
0.0
 50
90.0
100
AcDbRotatedDimension
1001
ACAD
1000
DSTYLE
1002
{
1070
    41
1040
10.0
1070
   140
1040
25.0
1070
   147
1040
6.599999999999998
1070
   279
1070
     2
1070
   342
1005
30D
1070
   371
1070
    18
1070
   372
1070
    18
1002
}
  0
DIMENSION
  5
80E4
330
8065
100
AcDbEntity
  8
実形
100
AcDbDimension
  2
*D47
 10
1771.093547640548
 20
1169.178460662066
 30
0.0
 11
1749.493547640548
 21
1688.725599288342
 31
0.0
 70
   160
  1
15
 71
     5
 42
490.0
  3
ISO-25
100
AcDbAlignedDimension
 13
1657.770210499882
 23
1659.178460662066
 33
0.0
 14
1657.770210499882
 24
1169.178460662066
 34
0.0
 50
90.0
100
AcDbRotatedDimension
1001
ACAD
1000
DSTYLE
1002
{
1070
    41
1040
10.0
1070
   140
1040
25.0
1070
   147
1040
6.599999999999998
1070
   279
1070
     2
1070
   342
1005
30D
1070
   371
1070
    18
1070
   372
1070
    18
1002
}
  0
TEXT
  5
80E5
330
8065
100
AcDbEntity
  8
実形
 48
20.0
100
AcDbText
 10
1763.371050332344
 20
1117.528641274333
 30
0.0
 40
25.0
  1
15
 50
90.0
100
AcDbText
  0
DIMENSION
  5
80E6
330
8065
100
AcDbEntity
  8
実形
100
AcDbDimension
  2
*D48
 10
1833.118375451033
 20
1169.178460662066
 30
0.0
 11
1814.018375451033
 21
1414.178460662066
 31
0.0
 70
    32
 71
     5
 42
490.0
  3
ISO-25
100
AcDbAlignedDimension
 13
1657.770210499882
 23
1659.178460662066
 33
0.0
 14
1657.770210499882
 24
1169.178460662066
 34
0.0
 50
90.0
100
AcDbRotatedDimension
1001
ACAD
1000
DSTYLE
1002
{
1070
    41
1040
10.0
1070
   140
1040
25.0
1070
   147
1040
6.599999999999998
1070
   279
1070
     2
1070
   342
1005
30D
1070
   371
1070
    18
1070
   372
1070
    18
1002
}
  0
LINE
  5
80E7
330
8065
100
AcDbEntity
  8
実形
100
AcDbLine
 10
773.3275276276962
 20
1644.178460662066
 30
0.0
 11
738.1482502386061
 21
1644.178460662066
 31
0.0
  0
LINE
  5
80E8
330
8065
100
AcDbEntity
  8
実形
100
AcDbLine
 10
738.1482502386061
 20
1644.178460662066
 30
0.0
 11
738.1482502386061
 21
1624.178460662066
 31
0.0
  0
LINE
  5
80E9
330
8065
100
AcDbEntity
  8
実形
100
AcDbLine
 10
738.1482502386061
 20
1624.178460662066
 30
0.0
 11
773.3275276276963
 21
1624.178460662066
 31
0.0
  0
DIMENSION
  5
80EA
330
8065
100
AcDbEntity
  8
実形
100
AcDbDimension
  2
*D49
 10
738.1482502386061
 20
1644.178460662066
 30
0.0
 11
715.569680847846
 21
1589.259853472391
 31
0.0
 70
   160
  1
70
 71
     5
 42
89.99999999999955
  3
ISO-25
100
AcDbAlignedDimension
 13
832.3275276276962
 23
1554.178460662066
 33
0.0
 14
832.3275276276962
 24
1644.178460662066
 34
0.0
 50
90.0
100
AcDbRotatedDimension
1001
ACAD
1000
DSTYLE
1002
{
1070
    41
1040
10.0
1070
   140
1040
25.0
1070
   147
1040
6.599999999999998
1070
   279
1070
     2
1070
   342
1005
30D
1070
   371
1070
    18
1070
   372
1070
    18
1002
}
  0
DIMENSION
  5
80EB
330
8065
100
AcDbEntity
  8
実形
100
AcDbDimension
  2
*D50
 10
738.1482502386061
 20
1624.178460662066
 30
0.0
 11
801.3626707265066
 21
1625.22842009638
 31
0.0
 70
   160
  1
20
 71
     5
 42
69.99999999999977
  3
ISO-25
100
AcDbAlignedDimension
 13
832.3275276276962
 23
1554.178460662066
 33
0.0
 14
838.3275276276963
 24
1624.178460662066
 34
0.0
 50
90.0
100
AcDbRotatedDimension
1001
ACAD
1000
DSTYLE
1002
{
1070
    41
1040
10.0
1070
   140
1040
25.0
1070
   147
1040
6.599999999999998
1070
   279
1070
     2
1070
   342
1005
30D
1070
   371
1070
    18
1070
   372
1070
    18
1002
}
  0
TEXT
  5
80EC
330
8065
100
AcDbEntity
  8
実形
 48
20.0
100
AcDbText
 10
797.0821669850392
 20
2333.361271294907
 30
0.0
 40
8.0
  1
●
 50
90.0
100
AcDbText
  0
DIMENSION
  5
80ED
330
8065
100
AcDbEntity
  8
実形
100
AcDbDimension
  2
*D51
 10
672.3280192665588
 20
1554.178460662066
 30
0.0
 11
653.2280192665585
 21
1599.178460662066
 31
0.0
 70
    32
 71
     5
 42
89.99999999999955
  3
ISO-25
100
AcDbAlignedDimension
 13
800.771238858355
 23
1644.178460662066
 33
0.0
 14
779.7500916428215
 24
1554.178460662066
 34
0.0
 50
90.0
100
AcDbRotatedDimension
1001
ACAD
1000
DSTYLE
1002
{
1070
    41
1040
10.0
1070
   140
1040
25.0
1070
   147
1040
6.599999999999998
1070
   279
1070
     2
1070
   342
1005
30D
1070
   371
1070
    18
1070
   372
1070
    18
1002
}
  0
DIMENSION
  5
80EE
330
8065
100
AcDbEntity
  8
実形
100
AcDbDimension
  2
*D52
 10
672.3280192665587
 20
1204.178460662066
 30
0.0
 11
653.2280192665585
 21
1379.178460662066
 31
0.0
 70
    32
 71
     5
 42
350.0000000000004
  3
ISO-25
100
AcDbAlignedDimension
 13
797.6742997845558
 23
1554.178460662066
 33
0.0
 14
802.7945193027008
 24
1204.178460662066
 34
0.0
 50
90.0
100
AcDbRotatedDimension
1001
ACAD
1000
DSTYLE
1002
{
1070
    41
1040
10.0
1070
   140
1040
25.0
1070
   147
1040
6.599999999999998
1070
   279
1070
     2
1070
   342
1005
30D
1070
   371
1070
    18
1070
   372
1070
    18
1002
}
  0
DIMENSION
  5
80EF
330
8065
100
AcDbEntity
  8
実形
100
AcDbDimension
  2
*D53
 10
672.3280192665587
 20
1169.178460662066
 30
0.0
 11
650.7280192665586
 21
1682.883538982083
 31
0.0
 70
   160
  1
15
 71
     5
 42
490.0
  3
ISO-25
100
AcDbAlignedDimension
 13
829.1539611657317
 23
1659.178460662066
 33
0.0
 14
802.2641105192887
 24
1169.178460662066
 34
0.0
 50
90.0
100
AcDbRotatedDimension
1001
ACAD
1000
DSTYLE
1002
{
1070
    41
1040
10.0
1070
   140
1040
25.0
1070
   147
1040
6.599999999999998
1070
   279
1070
     2
1070
   342
1005
30D
1070
   371
1070
    18
1070
   372
1070
    18
1002
}
  0
DIMENSION
  5
80F0
330
8065
100
AcDbEntity
  8
実形
100
AcDbDimension
  2
*D54
 10
672.3280192665588
 20
1554.178460662066
 30
0.0
 11
650.745963999092
 21
1217.459715149787
 31
0.0
 70
   160
  1
20
 71
     5
 42
370.0000000000005
  3
ISO-25
100
AcDbAlignedDimension
 13
802.7945193027008
 23
1184.178460662066
 33
0.0
 14
767.3275276276962
 24
1554.178460662066
 34
0.0
 50
90.0
100
AcDbRotatedDimension
1001
ACAD
1000
DSTYLE
1002
{
1070
    41
1040
10.0
1070
   140
1040
25.0
1070
   147
1040
6.599999999999998
1070
   279
1070
     2
1070
   342
1005
30D
1070
   371
1070
    18
1070
   372
1070
    18
1002
}
  0
TEXT
  5
80F1
330
8065
100
AcDbEntity
  8
実形
 48
20.0
100
AcDbText
 10
662.9803565113634
 20
1130.061801922893
 30
0.0
 40
25.0
  1
15
 50
90.0
100
AcDbText
  0
DIMENSION
  5
80F2
330
8065
100
AcDbEntity
  8
実形
100
AcDbDimension
  2
*D55
 10
616.3564627716168
 20
1184.178460662066
 30
0.0
 11
597.2564627716167
 21
1414.178460662066
 31
0.0
 70
    32
 71
     5
 42
460.0
  3
ISO-25
100
AcDbAlignedDimension
 13
831.7269474160729
 23
1644.178460662066
 33
0.0
 14
804.8056315785306
 24
1184.178460662066
 34
0.0
 50
90.0
100
AcDbRotatedDimension
1001
ACAD
1000
DSTYLE
1002
{
1070
    41
1040
10.0
1070
   140
1040
25.0
1070
   147
1040
6.599999999999998
1070
   279
1070
     2
1070
   342
1005
30D
1070
   371
1070
    18
1070
   372
1070
    18
1002
}
  0
DIMENSION
  5
80F3
330
8065
100
AcDbEntity
  8
実形
100
AcDbDimension
  2
*D56
 10
556.8835017673409
 20
1169.178460662066
 30
0.0
 11
535.2835017673408
 21
1414.178460662066
 31
0.0
 70
    32
 71
     5
 42
490.0
  3
ISO-25
100
AcDbAlignedDimension
 13
827.7702104998825
 23
1659.178460662066
 33
0.0
 14
805.8183231977528
 24
1169.178460662066
 34
0.0
 50
90.0
100
AcDbRotatedDimension
1001
ACAD
1000
DSTYLE
1002
{
1070
    41
1040
10.0
1070
   140
1040
30.0
1070
   147
1040
6.599999999999998
1070
   279
1070
     2
1070
   342
1005
30D
1070
   371
1070
    18
1070
   372
1070
    18
1002
}
  0
LINE
  5
80F4
330
8065
100
AcDbEntity
  8
実形
100
AcDbLine
 10
1392.770210499882
 20
1554.178460662066
 30
0.0
 11
1616.770210499882
 21
1554.178460662066
 31
0.0
  0
ARC
  5
80F5
330
8065
100
AcDbEntity
  8
実形
100
AcDbCircle
 10
868.770210499882
 20
1548.178460662066
 30
0.0
 40
6.0
100
AcDbArc
 50
89.99999999999994
 51
180.0
  0
ARC
  5
80F6
330
8065
100
AcDbEntity
  8
実形
100
AcDbCircle
 10
1616.770210499882
 20
1548.178460662066
 30
0.0
 40
6.0
100
AcDbArc
 50
0.0
 51
89.99999999999994
  0
LINE
  5
80F7
330
8065
100
AcDbEntity
  8
実形
  6
ACAD_ISO08W100
 48
0.5
100
AcDbLine
 10
1242.770210499882
 20
1300.740901717254
 30
0.0
 11
1242.770210499882
 21
1599.683968216935
 31
0.0
  0
ENDBLK
  5
8101
330
8065
100
AcDbEntity
  8
0
 62
     3
100
AcDbBlockEnd
  0
BLOCK
  5
81DE
330
81D4
100
AcDbEntity
  8
0
 62
     3
100
AcDbBlockBegin
  2
*D58
 70
     1
 10
0.0
 20
0.0
 30
0.0
  3
*D58
  1

  0
LINE
  5
A542
330
81D4
100
AcDbEntity
  8
実形
 62
     0
370
    18
100
AcDbLine
 10
1341.053280974977
 20
435.6580729330507
 30
0.0
 11
1341.053280974977
 21
383.7414743971931
 31
0.0
  0
LINE
  5
A543
330
81D4
100
AcDbEntity
  8
実形
 62
     0
370
    18
100
AcDbLine
 10
1181.053280974976
 20
435.6580729330507
 30
0.0
 11
1181.053280974976
 21
383.7414743971931
 31
0.0
  0
LINE
  5
A544
330
81D4
100
AcDbEntity
  8
実形
 62
     0
370
    18
100
AcDbLine
 10
1331.053280974977
 20
383.7414743971931
 30
0.0
 11
1191.053280974976
 21
383.7414743971931
 31
0.0
  0
INSERT
  5
A545
330
81D4
100
AcDbEntity
  8
実形
 62
     0
370
    18
100
AcDbBlockReference
  2
_Dot
 10
1341.053280974977
 20
383.7414743971931
 30
0.0
 41
10.0
 42
10.0
 43
10.0
  0
INSERT
  5
A546
330
81D4
100
AcDbEntity
  8
実形
 62
     0
370
    18
100
AcDbBlockReference
  2
_Dot
 10
1181.053280974976
 20
383.7414743971931
 30
0.0
 41
10.0
 42
10.0
 43
10.0
 50
180.0
  0
MTEXT
  5
A547
330
81D4
100
AcDbEntity
  8
実形
 62
     0
100
AcDbMText
 10
1261.053280974977
 20
402.841474397193
 30
0.0
 40
25.0
 41
0.0
 71
     5
 72
     1
  1
160
 73
     1
 44
1.0
1001
ACAD
1000
MTEXTBEGIN
1070
    73
1070
     1
1070
    44
1040
1.0
1070
    74
1070
     0
1000
MTEXTEND
  0
POINT
  5
A548
330
81D4
100
AcDbEntity
  8
Defpoints
 62
     0
100
AcDbPoint
 10
1341.053280974977
 20
500.6580729330506
 30
0.0
  0
POINT
  5
A549
330
81D4
100
AcDbEntity
  8
Defpoints
 62
     0
100
AcDbPoint
 10
1181.053280974976
 20
500.6580729330506
 30
0.0
  0
POINT
  5
A54A
330
81D4
100
AcDbEntity
  8
Defpoints
 62
     0
100
AcDbPoint
 10
1181.053280974976
 20
383.7414743971931
 30
0.0
  0
ENDBLK
  5
81DF
330
81D4
100
AcDbEntity
  8
0
 62
     3
100
AcDbBlockEnd
  0
BLOCK
  5
81EA
330
81E0
100
AcDbEntity
  8
0
 62
     3
100
AcDbBlockBegin
  2
*D59
 70
     1
 10
0.0
 20
0.0
 30
0.0
  3
*D59
  1

  0
LINE
  5
A539
330
81E0
100
AcDbEntity
  8
実形
 62
     0
370
    18
100
AcDbLine
 10
1351.553280974977
 20
435.6580729330507
 30
0.0
 11
1351.553280974977
 21
312.4991775819162
 31
0.0
  0
LINE
  5
A53A
330
81E0
100
AcDbEntity
  8
実形
 62
     0
370
    18
100
AcDbLine
 10
1170.553280974977
 20
435.6580729330465
 30
0.0
 11
1170.553280974977
 21
312.4991775819162
 31
0.0
  0
LINE
  5
A53B
330
81E0
100
AcDbEntity
  8
実形
 62
     0
370
    18
100
AcDbLine
 10
1341.553280974977
 20
312.4991775819162
 30
0.0
 11
1180.553280974977
 21
312.4991775819162
 31
0.0
  0
INSERT
  5
A53C
330
81E0
100
AcDbEntity
  8
実形
 62
     0
370
    18
100
AcDbBlockReference
  2
_Dot
 10
1351.553280974977
 20
312.4991775819162
 30
0.0
 41
10.0
 42
10.0
 43
10.0
  0
INSERT
  5
A53D
330
81E0
100
AcDbEntity
  8
実形
 62
     0
370
    18
100
AcDbBlockReference
  2
_Dot
 10
1170.553280974977
 20
312.4991775819162
 30
0.0
 41
10.0
 42
10.0
 43
10.0
 50
180.0
  0
MTEXT
  5
A53E
330
81E0
100
AcDbEntity
  8
実形
 62
     0
100
AcDbMText
 10
1261.053280974977
 20
331.5991775819163
 30
0.0
 40
25.0
 41
0.0
 71
     5
 72
     1
  1
181
 73
     1
 44
1.0
1001
ACAD
1000
MTEXTBEGIN
1070
    73
1070
     1
1070
    44
1040
1.0
1070
    74
1070
     0
1000
MTEXTEND
  0
POINT
  5
A53F
330
81E0
100
AcDbEntity
  8
Defpoints
 62
     0
100
AcDbPoint
 10
1351.553280974977
 20
500.6580729330507
 30
0.0
  0
POINT
  5
A540
330
81E0
100
AcDbEntity
  8
Defpoints
 62
     0
100
AcDbPoint
 10
1170.553280974977
 20
500.6580729330464
 30
0.0
  0
POINT
  5
A541
330
81E0
100
AcDbEntity
  8
Defpoints
 62
     0
100
AcDbPoint
 10
1170.553280974977
 20
312.4991775819162
 30
0.0
  0
ENDBLK
  5
81EB
330
81E0
100
AcDbEntity
  8
0
 62
     3
100
AcDbBlockEnd
  0
BLOCK
  5
8C2E
330
8C24
100
AcDbEntity
  8
0
 62
     3
100
AcDbBlockBegin
  2
*D60
 70
     1
 10
0.0
 20
0.0
 30
0.0
  3
*D60
  1

  0
LINE
  5
A647
330
8C24
100
AcDbEntity
  8
実形
 62
     0
370
    18
100
AcDbLine
 10
1411.053280974977
 20
1513.153842700946
 30
0.0
 11
1411.053280974977
 21
1544.349790319099
 31
0.0
  0
LINE
  5
A648
330
8C24
100
AcDbEntity
  8
実形
 62
     0
370
    18
100
AcDbLine
 10
1261.053280974977
 20
1513.153842700946
 30
0.0
 11
1261.053280974977
 21
1544.349790319099
 31
0.0
  0
LINE
  5
A649
330
8C24
100
AcDbEntity
  8
実形
 62
     0
370
    18
100
AcDbLine
 10
1401.053280974977
 20
1544.349790319099
 30
0.0
 11
1271.053280974977
 21
1544.349790319099
 31
0.0
  0
INSERT
  5
A64A
330
8C24
100
AcDbEntity
  8
実形
 62
     0
370
    18
100
AcDbBlockReference
  2
_Dot
 10
1411.053280974977
 20
1544.349790319099
 30
0.0
 41
10.0
 42
10.0
 43
10.0
  0
INSERT
  5
A64B
330
8C24
100
AcDbEntity
  8
実形
 62
     0
370
    18
100
AcDbBlockReference
  2
_Dot
 10
1261.053280974977
 20
1544.349790319099
 30
0.0
 41
10.0
 42
10.0
 43
10.0
 50
180.0
  0
MTEXT
  5
A64C
330
8C24
100
AcDbEntity
  8
実形
 62
     0
100
AcDbMText
 10
1336.053280974977
 20
1563.449790319099
 30
0.0
 40
25.0
 41
0.0
 71
     5
 72
     1
  1
150
 73
     1
 44
1.0
1001
ACAD
1000
MTEXTBEGIN
1070
    73
1070
     1
1070
    44
1040
1.0
1070
    74
1070
     0
1000
MTEXTEND
  0
POINT
  5
A64D
330
8C24
100
AcDbEntity
  8
Defpoints
 62
     0
100
AcDbPoint
 10
1411.053280974977
 20
1448.153842700946
 30
0.0
  0
POINT
  5
A64E
330
8C24
100
AcDbEntity
  8
Defpoints
 62
     0
100
AcDbPoint
 10
1261.053280974977
 20
1448.153842700946
 30
0.0
  0
POINT
  5
A64F
330
8C24
100
AcDbEntity
  8
Defpoints
 62
     0
100
AcDbPoint
 10
1261.053280974977
 20
1544.349790319099
 30
0.0
  0
ENDBLK
  5
8C2F
330
8C24
100
AcDbEntity
  8
0
 62
     3
100
AcDbBlockEnd
  0
BLOCK
  5
8F37
330
8F2D
100
AcDbEntity
  8
0
 62
     3
100
AcDbBlockBegin
  2
*D61
 70
     1
 10
0.0
 20
0.0
 30
0.0
  3
*D61
  1

  0
LINE
  5
9BB7
330
8F2D
100
AcDbEntity
  8
実形
 62
     0
370
    18
100
AcDbLine
 10
1150.372050495051
 20
1414.178460662065
 30
0.0
 11
1113.781934716619
 21
1414.178460662065
 31
0.0
  0
LINE
  5
9BB8
330
8F2D
100
AcDbEntity
  8
実形
 62
     0
370
    18
100
AcDbLine
 10
1150.372050495051
 20
1204.178460662066
 30
0.0
 11
1113.781934716619
 21
1204.178460662066
 31
0.0
  0
LINE
  5
9BB9
330
8F2D
100
AcDbEntity
  8
実形
 62
     0
370
    18
100
AcDbLine
 10
1113.781934716619
 20
1404.178460662065
 30
0.0
 11
1113.781934716619
 21
1214.178460662066
 31
0.0
  0
INSERT
  5
9BBA
330
8F2D
100
AcDbEntity
  8
実形
 62
     0
370
    18
100
AcDbBlockReference
  2
_Dot
 10
1113.781934716619
 20
1414.178460662065
 30
0.0
 41
10.0
 42
10.0
 43
10.0
 50
90.0
  0
INSERT
  5
9BBB
330
8F2D
100
AcDbEntity
  8
実形
 62
     0
370
    18
100
AcDbBlockReference
  2
_Dot
 10
1113.781934716619
 20
1204.178460662066
 30
0.0
 41
10.0
 42
10.0
 43
10.0
 50
270.0
  0
MTEXT
  5
9BBC
330
8F2D
100
AcDbEntity
  8
実形
 62
     0
100
AcDbMText
 10
1094.681934716618
 20
1309.178460662066
 30
0.0
 40
25.0
 41
0.0
 71
     5
 72
     1
  1
210
 11
0.0000000000000001
 21
1.0
 31
0.0
 73
     1
 44
1.0
1001
ACAD
1000
MTEXTBEGIN
1070
    73
1070
     1
1070
    44
1040
1.0
1070
    74
1070
     0
1000
MTEXTEND
  0
POINT
  5
9BBD
330
8F2D
100
AcDbEntity
  8
Defpoints
 62
     0
100
AcDbPoint
 10
1215.372050495051
 20
1414.178460662065
 30
0.0
  0
POINT
  5
9BBE
330
8F2D
100
AcDbEntity
  8
Defpoints
 62
     0
100
AcDbPoint
 10
1215.372050495051
 20
1204.178460662066
 30
0.0
  0
POINT
  5
9BBF
330
8F2D
100
AcDbEntity
  8
Defpoints
 62
     0
100
AcDbPoint
 10
1113.781934716619
 20
1204.178460662066
 30
0.0
  0
ENDBLK
  5
8F38
330
8F2D
100
AcDbEntity
  8
0
 62
     3
100
AcDbBlockEnd
  0
BLOCK
  5
8FDE
330
8FD4
100
AcDbEntity
  8
0
 62
     3
100
AcDbBlockBegin
  2
*D62
 70
     1
 10
0.0
 20
0.0
 30
0.0
  3
*D62
  1

  0
LINE
  5
9BAE
330
8FD4
100
AcDbEntity
  8
実形
 62
     0
370
    18
100
AcDbLine
 10
1551.053280974976
 20
1726.070092314618
 30
0.0
 11
1551.053280974976
 21
1773.875438359908
 31
0.0
  0
LINE
  5
9BAF
330
8FD4
100
AcDbEntity
  8
実形
 62
     0
370
    18
100
AcDbLine
 10
1431.053280974977
 20
1726.070092314618
 30
0.0
 11
1431.053280974977
 21
1773.875438359908
 31
0.0
  0
LINE
  5
9BB0
330
8FD4
100
AcDbEntity
  8
実形
 62
     0
370
    18
100
AcDbLine
 10
1541.053280974976
 20
1773.875438359908
 30
0.0
 11
1441.053280974977
 21
1773.875438359908
 31
0.0
  0
MTEXT
  5
9BB1
330
8FD4
100
AcDbEntity
  8
実形
 62
     0
100
AcDbMText
 10
1536.38279210934
 20
1702.112054279481
 30
0.0
 40
25.0
 41
0.0
 71
     5
 72
     1
  1
20
 73
     1
 44
1.0
1001
ACAD
1000
MTEXTBEGIN
1070
    73
1070
     1
1070
    44
1040
1.0
1070
    74
1070
     0
1000
MTEXTEND
  0
INSERT
  5
9BB2
330
8FD4
100
AcDbEntity
  8
実形
 62
     0
370
    18
100
AcDbBlockReference
  2
_Dot
 10
1551.053280974976
 20
1773.875438359908
 30
0.0
 41
10.0
 42
10.0
 43
10.0
  0
INSERT
  5
9BB3
330
8FD4
100
AcDbEntity
  8
実形
 62
     0
370
    18
100
AcDbBlockReference
  2
_Dot
 10
1431.053280974977
 20
1773.875438359908
 30
0.0
 41
10.0
 42
10.0
 43
10.0
 50
180.0
  0
POINT
  5
9BB4
330
8FD4
100
AcDbEntity
  8
Defpoints
 62
     0
100
AcDbPoint
 10
1551.053280974976
 20
1661.070092314618
 30
0.0
  0
POINT
  5
9BB5
330
8FD4
100
AcDbEntity
  8
Defpoints
 62
     0
100
AcDbPoint
 10
1431.053280974977
 20
1661.070092314618
 30
0.0
  0
POINT
  5
9BB6
330
8FD4
100
AcDbEntity
  8
Defpoints
 62
     0
100
AcDbPoint
 10
1431.053280974977
 20
1773.875438359908
 30
0.0
  0
ENDBLK
  5
8FDF
330
8FD4
100
AcDbEntity
  8
0
 62
     3
100
AcDbBlockEnd
  0
BLOCK
  5
8FF4
330
8FEA
100
AcDbEntity
  8
0
 62
     3
100
AcDbBlockBegin
  2
*D63
 70
     1
 10
0.0
 20
0.0
 30
0.0
  3
*D63
  1

  0
LINE
  5
9BA5
330
8FEA
100
AcDbEntity
  8
実形
 62
     0
370
    18
100
AcDbLine
 10
1531.053280974977
 20
1727.668426319256
 30
0.0
 11
1531.053280974977
 21
1773.875438359908
 31
0.0
  0
LINE
  5
9BA6
330
8FEA
100
AcDbEntity
  8
実形
 62
     0
370
    18
100
AcDbLine
 10
1431.053280974977
 20
1727.668426319256
 30
0.0
 11
1431.053280974977
 21
1773.875438359908
 31
0.0
  0
LINE
  5
9BA7
330
8FEA
100
AcDbEntity
  8
実形
 62
     0
370
    18
100
AcDbLine
 10
1521.053280974977
 20
1773.875438359908
 30
0.0
 11
1441.053280974977
 21
1773.875438359908
 31
0.0
  0
INSERT
  5
9BA8
330
8FEA
100
AcDbEntity
  8
実形
 62
     0
370
    18
100
AcDbBlockReference
  2
_Dot
 10
1531.053280974977
 20
1773.875438359908
 30
0.0
 41
10.0
 42
10.0
 43
10.0
  0
INSERT
  5
9BA9
330
8FEA
100
AcDbEntity
  8
実形
 62
     0
370
    18
100
AcDbBlockReference
  2
_Dot
 10
1431.053280974977
 20
1773.875438359908
 30
0.0
 41
10.0
 42
10.0
 43
10.0
 50
180.0
  0
MTEXT
  5
9BAA
330
8FEA
100
AcDbEntity
  8
実形
 62
     0
100
AcDbMText
 10
1481.053280974977
 20
1792.975438359908
 30
0.0
 40
25.0
 41
0.0
 71
     5
 72
     1
  1
100
 73
     1
 44
1.0
1001
ACAD
1000
MTEXTBEGIN
1070
    73
1070
     1
1070
    44
1040
1.0
1070
    74
1070
     0
1000
MTEXTEND
  0
POINT
  5
9BAB
330
8FEA
100
AcDbEntity
  8
Defpoints
 62
     0
100
AcDbPoint
 10
1531.053280974977
 20
1662.668426319256
 30
0.0
  0
POINT
  5
9BAC
330
8FEA
100
AcDbEntity
  8
Defpoints
 62
     0
100
AcDbPoint
 10
1431.053280974977
 20
1662.668426319256
 30
0.0
  0
POINT
  5
9BAD
330
8FEA
100
AcDbEntity
  8
Defpoints
 62
     0
100
AcDbPoint
 10
1431.053280974977
 20
1773.875438359908
 30
0.0
  0
ENDBLK
  5
8FF5
330
8FEA
100
AcDbEntity
  8
0
 62
     3
100
AcDbBlockEnd
  0
BLOCK
  5
9204
330
91FA
100
AcDbEntity
  8
0
 62
     3
100
AcDbBlockBegin
  2
*D64
 70
     1
 10
0.0
 20
0.0
 30
0.0
  3
*D64
  1

  0
LINE
  5
B237
330
91FA
100
AcDbEntity
  8
実形
 62
     0
370
    18
100
AcDbLine
 10
1503.303280974977
 20
375.6341405756738
 30
0.0
 11
1503.303280974977
 21
314.0546929001066
 31
0.0
  0
LINE
  5
B238
330
91FA
100
AcDbEntity
  8
実形
 62
     0
370
    18
100
AcDbLine
 10
1458.803280974977
 20
375.6341405756739
 30
0.0
 11
1458.803280974977
 21
314.0546929001066
 31
0.0
  0
LINE
  5
B239
330
91FA
100
AcDbEntity
  8
実形
 62
     0
370
    18
100
AcDbLine
 10
1493.303280974977
 20
314.0546929001066
 30
0.0
 11
1468.803280974977
 21
314.0546929001066
 31
0.0
  0
MTEXT
  5
B23A
330
91FA
100
AcDbEntity
  8
実形
 62
     0
100
AcDbMText
 10
1481.053280974977
 20
277.9168016284076
 30
0.0
 40
25.0
 41
0.0
 71
     5
 72
     1
  1
44.5
 73
     1
 44
1.0
1001
ACAD
1000
MTEXTBEGIN
1070
    73
1070
     1
1070
    44
1040
1.0
1070
    74
1070
     0
1000
MTEXTEND
  0
INSERT
  5
B23B
330
91FA
100
AcDbEntity
  8
実形
 62
     0
370
    18
100
AcDbBlockReference
  2
_Dot
 10
1503.303280974977
 20
314.0546929001066
 30
0.0
 41
10.0
 42
10.0
 43
10.0
  0
INSERT
  5
B23C
330
91FA
100
AcDbEntity
  8
実形
 62
     0
370
    18
100
AcDbBlockReference
  2
_Dot
 10
1458.803280974977
 20
314.0546929001066
 30
0.0
 41
10.0
 42
10.0
 43
10.0
 50
180.0
  0
POINT
  5
B23D
330
91FA
100
AcDbEntity
  8
Defpoints
 62
     0
100
AcDbPoint
 10
1503.303280974977
 20
440.6341405756738
 30
0.0
  0
POINT
  5
B23E
330
91FA
100
AcDbEntity
  8
Defpoints
 62
     0
100
AcDbPoint
 10
1458.803280974977
 20
440.6341405756738
 30
0.0
  0
POINT
  5
B23F
330
91FA
100
AcDbEntity
  8
Defpoints
 62
     0
100
AcDbPoint
 10
1458.803280974977
 20
314.0546929001066
 30
0.0
  0
ENDBLK
  5
9205
330
91FA
100
AcDbEntity
  8
0
 62
     3
100
AcDbBlockEnd
  0
BLOCK
  5
9C45
330
9C3F
100
AcDbEntity
  8
0
 62
     3
100
AcDbBlockBegin
  2
A$C6212596F
 70
     0
 10
0.0
 20
0.0
 30
0.0
  3
A$C6212596F
  1

  0
TEXT
  5
9C40
330
9C3F
100
AcDbEntity
  8
実形
100
AcDbText
 10
37.39926136169137
 20
-182.3469078340958
 30
0.0
 40
25.0
  1
6R
 72
     2
 11
79.06592802835803
 21
-185.6802411674291
 31
0.0
100
AcDbText
 73
     1
  0
LEADER
  5
9C41
330
9C3F
100
AcDbEntity
  8
実形
100
AcDbLeader
  3
ISO-25
 76
     2
 10
7.606512800597556
 20
-234.4709575417521
 30
0.0
 10
35.90962123346981
 20
-191.2824535865231
 30
0.0
1001
ACAD
1000
DSTYLE
1002
{
1070
    77
1070
     0
1070
    41
1040
10.0
1070
   147
1040
6.599999999999998
1070
   279
1070
     2
1070
   342
1005
30D
1070
   371
1070
    18
1070
   372
1070
    18
1002
}
  0
LEADER
  5
9C42
330
9C3F
100
AcDbEntity
  8
実形
100
AcDbLeader
  3
ISO-25
 76
     2
 10
89.53655603097468
 20
-235.9602182809897
 30
0.0
 10
70.17127481204807
 20
-189.793201059095
 30
0.0
1001
ACAD
1000
DSTYLE
1002
{
1070
    77
1070
     0
1070
    41
1040
10.0
1070
   147
1040
6.599999999999998
1070
   279
1070
     2
1070
   342
1005
30D
1070
   371
1070
    18
1070
   372
1070
    18
1002
}
  0
ENDBLK
  5
9C46
330
9C3F
100
AcDbEntity
  8
0
 62
     3
100
AcDbBlockEnd
  0
BLOCK
  5
9E42
330
9E38
100
AcDbEntity
  8
0
 62
     3
100
AcDbBlockBegin
  2
*D66
 70
     1
 10
0.0
 20
0.0
 30
0.0
  3
*D66
  1

  0
LINE
  5
AED0
330
9E38
100
AcDbEntity
  8
実形
 62
     0
370
    18
100
AcDbLine
 10
2153.565150276954
 20
1642.666034411097
 30
0.0
 11
2201.88848741762
 21
1642.666034411097
 31
0.0
  0
LINE
  5
AED1
330
9E38
100
AcDbEntity
  8
実形
 62
     0
370
    18
100
AcDbLine
 10
2153.565150276955
 20
1182.666034411097
 30
0.0
 11
2201.88848741762
 21
1182.666034411097
 31
0.0
  0
LINE
  5
AED2
330
9E38
100
AcDbEntity
  8
実形
 62
     0
370
    18
100
AcDbLine
 10
2201.88848741762
 20
1632.666034411096
 30
0.0
 11
2201.88848741762
 21
1192.666034411097
 31
0.0
  0
INSERT
  5
AED3
330
9E38
100
AcDbEntity
  8
実形
 62
     0
370
    18
100
AcDbBlockReference
  2
_Dot
 10
2201.88848741762
 20
1642.666034411097
 30
0.0
 41
10.0
 42
10.0
 43
10.0
 50
90.0
  0
INSERT
  5
AED4
330
9E38
100
AcDbEntity
  8
実形
 62
     0
370
    18
100
AcDbBlockReference
  2
_Dot
 10
2201.88848741762
 20
1182.666034411097
 30
0.0
 41
10.0
 42
10.0
 43
10.0
 50
270.0
  0
MTEXT
  5
AED5
330
9E38
100
AcDbEntity
  8
実形
 62
     0
100
AcDbMText
 10
2182.78848741762
 20
1412.666034411097
 30
0.0
 40
25.0
 41
0.0
 71
     5
 72
     1
  1
460
 11
0.0000000000000001
 21
1.0
 31
0.0
 73
     1
 44
1.0
1001
ACAD
1000
MTEXTBEGIN
1070
    73
1070
     1
1070
    44
1040
1.0
1070
    74
1070
     0
1000
MTEXTEND
  0
POINT
  5
AED6
330
9E38
100
AcDbEntity
  8
Defpoints
 62
     0
100
AcDbPoint
 10
2088.565150276954
 20
1642.666034411097
 30
0.0
  0
POINT
  5
AED7
330
9E38
100
AcDbEntity
  8
Defpoints
 62
     0
100
AcDbPoint
 10
2088.565150276955
 20
1182.666034411097
 30
0.0
  0
POINT
  5
AED8
330
9E38
100
AcDbEntity
  8
Defpoints
 62
     0
100
AcDbPoint
 10
2201.88848741762
 20
1182.666034411097
 30
0.0
  0
ENDBLK
  5
9E43
330
9E38
100
AcDbEntity
  8
0
 62
     3
100
AcDbBlockEnd
  0
BLOCK
  5
9E4E
330
9E44
100
AcDbEntity
  8
0
 62
     3
100
AcDbBlockBegin
  2
*D67
 70
     1
 10
0.0
 20
0.0
 30
0.0
  3
*D67
  1

  0
LINE
  5
AED9
330
9E44
100
AcDbEntity
  8
実形
 62
     0
370
    18
100
AcDbLine
 10
2153.565150276954
 20
1657.666034411097
 30
0.0
 11
2201.88848741762
 21
1657.666034411097
 31
0.0
  0
LINE
  5
AEDA
330
9E44
100
AcDbEntity
  8
実形
 62
     0
370
    18
100
AcDbLine
 10
2153.565150276954
 20
1167.666034411097
 30
0.0
 11
2201.88848741762
 21
1167.666034411097
 31
0.0
  0
LINE
  5
AEDB
330
9E44
100
AcDbEntity
  8
実形
 62
     0
370
    18
100
AcDbLine
 10
2201.88848741762
 20
1647.666034411097
 30
0.0
 11
2201.88848741762
 21
1177.666034411097
 31
0.0
  0
MTEXT
  5
AEDC
330
9E44
100
AcDbEntity
  8
実形
 62
     0
100
AcDbMText
 10
2180.28848741762
 20
1687.213173037373
 30
0.0
 40
25.0
 41
0.0
 71
     5
 72
     1
  1
15
 11
0.0000000000000001
 21
1.0
 31
0.0
 73
     1
 44
1.0
1001
ACAD
1000
MTEXTBEGIN
1070
    73
1070
     1
1070
    44
1040
1.0
1070
    74
1070
     0
1000
MTEXTEND
  0
INSERT
  5
AEDD
330
9E44
100
AcDbEntity
  8
実形
 62
     0
370
    18
100
AcDbBlockReference
  2
_Dot
 10
2201.88848741762
 20
1657.666034411097
 30
0.0
 41
10.0
 42
10.0
 43
10.0
 50
90.0
  0
INSERT
  5
AEDE
330
9E44
100
AcDbEntity
  8
実形
 62
     0
370
    18
100
AcDbBlockReference
  2
_Dot
 10
2201.88848741762
 20
1167.666034411097
 30
0.0
 41
10.0
 42
10.0
 43
10.0
 50
270.0
  0
POINT
  5
AEDF
330
9E44
100
AcDbEntity
  8
Defpoints
 62
     0
100
AcDbPoint
 10
2088.565150276954
 20
1657.666034411097
 30
0.0
  0
POINT
  5
AEE0
330
9E44
100
AcDbEntity
  8
Defpoints
 62
     0
100
AcDbPoint
 10
2088.565150276954
 20
1167.666034411097
 30
0.0
  0
POINT
  5
AEE1
330
9E44
100
AcDbEntity
  8
Defpoints
 62
     0
100
AcDbPoint
 10
2201.88848741762
 20
1167.666034411097
 30
0.0
  0
ENDBLK
  5
9E4F
330
9E44
100
AcDbEntity
  8
0
 62
     3
100
AcDbBlockEnd
  0
BLOCK
  5
9E5A
330
9E50
100
AcDbEntity
  8
0
 62
     3
100
AcDbBlockBegin
  2
*D68
 70
     1
 10
0.0
 20
0.0
 30
0.0
  3
*D68
  1

  0
LINE
  5
AEE2
330
9E50
100
AcDbEntity
  8
実形
 62
     0
370
    18
100
AcDbLine
 10
2153.565150276954
 20
1657.666034411097
 30
0.0
 11
2263.913315228105
 21
1657.666034411097
 31
0.0
  0
LINE
  5
AEE3
330
9E50
100
AcDbEntity
  8
実形
 62
     0
370
    18
100
AcDbLine
 10
2153.565150276954
 20
1167.666034411097
 30
0.0
 11
2263.913315228105
 21
1167.666034411097
 31
0.0
  0
LINE
  5
AEE4
330
9E50
100
AcDbEntity
  8
実形
 62
     0
370
    18
100
AcDbLine
 10
2263.913315228105
 20
1647.666034411097
 30
0.0
 11
2263.913315228105
 21
1177.666034411097
 31
0.0
  0
INSERT
  5
AEE5
330
9E50
100
AcDbEntity
  8
実形
 62
     0
370
    18
100
AcDbBlockReference
  2
_Dot
 10
2263.913315228105
 20
1657.666034411097
 30
0.0
 41
10.0
 42
10.0
 43
10.0
 50
90.0
  0
INSERT
  5
AEE6
330
9E50
100
AcDbEntity
  8
実形
 62
     0
370
    18
100
AcDbBlockReference
  2
_Dot
 10
2263.913315228105
 20
1167.666034411097
 30
0.0
 41
10.0
 42
10.0
 43
10.0
 50
270.0
  0
MTEXT
  5
AEE7
330
9E50
100
AcDbEntity
  8
実形
 62
     0
100
AcDbMText
 10
2244.813315228105
 20
1412.666034411097
 30
0.0
 40
25.0
 41
0.0
 71
     5
 72
     1
  1
490
 11
0.0000000000000001
 21
1.0
 31
0.0
 73
     1
 44
1.0
1001
ACAD
1000
MTEXTBEGIN
1070
    73
1070
     1
1070
    44
1040
1.0
1070
    74
1070
     0
1000
MTEXTEND
  0
POINT
  5
AEE8
330
9E50
100
AcDbEntity
  8
Defpoints
 62
     0
100
AcDbPoint
 10
2088.565150276954
 20
1657.666034411097
 30
0.0
  0
POINT
  5
AEE9
330
9E50
100
AcDbEntity
  8
Defpoints
 62
     0
100
AcDbPoint
 10
2088.565150276954
 20
1167.666034411097
 30
0.0
  0
POINT
  5
AEEA
330
9E50
100
AcDbEntity
  8
Defpoints
 62
     0
100
AcDbPoint
 10
2263.913315228105
 20
1167.666034411097
 30
0.0
  0
ENDBLK
  5
9E5B
330
9E50
100
AcDbEntity
  8
0
 62
     3
100
AcDbBlockEnd
  0
BLOCK
  5
9E66
330
9E5C
100
AcDbEntity
  8
0
 62
     3
100
AcDbBlockBegin
  2
*D69
 70
     1
 10
0.0
 20
0.0
 30
0.0
  3
*D69
  1

  0
LINE
  5
AEEB
330
9E5C
100
AcDbEntity
  8
実形
 62
     0
370
    18
100
AcDbLine
 10
2114.063628292512
 20
1622.666034411096
 30
0.0
 11
2158.306456450448
 21
1622.666034411096
 31
0.0
  0
LINE
  5
AEEC
330
9E5C
100
AcDbEntity
  8
実形
 62
     0
370
    18
100
AcDbLine
 10
2110.778056056116
 20
1202.666034411097
 30
0.0
 11
2158.306456450448
 21
1202.666034411097
 31
0.0
  0
LINE
  5
AEED
330
9E5C
100
AcDbEntity
  8
実形
 62
     0
370
    18
100
AcDbLine
 10
2158.306456450448
 20
1612.666034411097
 30
0.0
 11
2158.306456450448
 21
1212.666034411096
 31
0.0
  0
INSERT
  5
AEEE
330
9E5C
100
AcDbEntity
  8
実形
 62
     0
370
    18
100
AcDbBlockReference
  2
_Dot
 10
2158.306456450448
 20
1622.666034411096
 30
0.0
 41
10.0
 42
10.0
 43
10.0
 50
90.0
  0
INSERT
  5
AEEF
330
9E5C
100
AcDbEntity
  8
実形
 62
     0
370
    18
100
AcDbBlockReference
  2
_Dot
 10
2158.306456450448
 20
1202.666034411097
 30
0.0
 41
10.0
 42
10.0
 43
10.0
 50
270.0
  0
MTEXT
  5
AEF0
330
9E5C
100
AcDbEntity
  8
実形
 62
     0
100
AcDbMText
 10
2139.206456450448
 20
1412.666034411097
 30
0.0
 40
25.0
 41
0.0
 71
     5
 72
     1
  1
420
 11
0.0000000000000001
 21
1.0
 31
0.0
 73
     1
 44
1.0
1001
ACAD
1000
MTEXTBEGIN
1070
    73
1070
     1
1070
    44
1040
1.0
1070
    74
1070
     0
1000
MTEXTEND
  0
POINT
  5
AEF1
330
9E5C
100
AcDbEntity
  8
Defpoints
 62
     0
100
AcDbPoint
 10
2049.063628292512
 20
1622.666034411096
 30
0.0
  0
POINT
  5
AEF2
330
9E5C
100
AcDbEntity
  8
Defpoints
 62
     0
100
AcDbPoint
 10
2045.778056056116
 20
1202.666034411097
 30
0.0
  0
POINT
  5
AEF3
330
9E5C
100
AcDbEntity
  8
Defpoints
 62
     0
100
AcDbPoint
 10
2158.306456450448
 20
1202.666034411097
 30
0.0
  0
ENDBLK
  5
9E67
330
9E5C
100
AcDbEntity
  8
0
 62
     3
100
AcDbBlockEnd
  0
BLOCK
  5
9E71
330
9E68
100
AcDbEntity
  8
0
 62
     3
100
AcDbBlockBegin
  2
*D70
 70
     1
 10
0.0
 20
0.0
 30
0.0
  3
*D70
  1

  0
LINE
  5
AEF4
330
9E68
100
AcDbEntity
  8
実形
 62
     0
370
    18
100
AcDbLine
 10
2112.955478649196
 20
1642.666034411097
 30
0.0
 11
2158.306456450448
 21
1642.666034411097
 31
0.0
  0
LINE
  5
AEF5
330
9E68
100
AcDbEntity
  8
実形
 62
     0
370
    18
100
AcDbLine
 10
2112.446854514503
 20
1182.666034411097
 30
0.0
 11
2158.306456450448
 21
1182.666034411097
 31
0.0
  0
LINE
  5
AEF6
330
9E68
100
AcDbEntity
  8
実形
 62
     0
370
    18
100
AcDbLine
 10
2158.306456450448
 20
1632.666034411097
 30
0.0
 11
2158.306456450448
 21
1192.666034411097
 31
0.0
  0
INSERT
  5
AEF7
330
9E68
100
AcDbEntity
  8
実形
 62
     0
370
    18
100
AcDbBlockReference
  2
_Dot
 10
2158.306456450448
 20
1642.666034411097
 30
0.0
 41
10.0
 42
10.0
 43
10.0
 50
90.0
  0
INSERT
  5
AEF8
330
9E68
100
AcDbEntity
  8
実形
 62
     0
370
    18
100
AcDbBlockReference
  2
_Dot
 10
2158.306456450448
 20
1182.666034411097
 30
0.0
 41
10.0
 42
10.0
 43
10.0
 50
270.0
  0
POINT
  5
AEF9
330
9E68
100
AcDbEntity
  8
Defpoints
 62
     0
100
AcDbPoint
 10
2047.955478649196
 20
1642.666034411097
 30
0.0
  0
POINT
  5
AEFA
330
9E68
100
AcDbEntity
  8
Defpoints
 62
     0
100
AcDbPoint
 10
2047.446854514503
 20
1182.666034411097
 30
0.0
  0
POINT
  5
AEFB
330
9E68
100
AcDbEntity
  8
Defpoints
 62
     0
100
AcDbPoint
 10
2158.306456450448
 20
1182.666034411097
 30
0.0
  0
ENDBLK
  5
9E72
330
9E68
100
AcDbEntity
  8
0
 62
     3
100
AcDbBlockEnd
  0
BLOCK
  5
A475
330
A46B
100
AcDbEntity
  8
0
 62
     3
100
AcDbBlockBegin
  2
*D71
 70
     1
 10
0.0
 20
0.0
 30
0.0
  3
*D71
  1

  0
LINE
  5
A4DA
330
A46B
100
AcDbEntity
  8
実形
 62
     0
370
    18
100
AcDbLine
 10
771.0532809749767
 20
1126.6411620649
 30
0.0
 11
771.0532809749767
 21
1083.919947869387
 31
0.0
  0
LINE
  5
A4DB
330
A46B
100
AcDbEntity
  8
実形
 62
     0
370
    18
100
AcDbLine
 10
1411.053280974977
 20
1126.6411620649
 30
0.0
 11
1411.053280974977
 21
1083.919947869387
 31
0.0
  0
LINE
  5
A4DC
330
A46B
100
AcDbEntity
  8
実形
 62
     0
370
    18
100
AcDbLine
 10
781.0532809749767
 20
1083.919947869387
 30
0.0
 11
1401.053280974977
 21
1083.919947869387
 31
0.0
  0
INSERT
  5
A4DD
330
A46B
100
AcDbEntity
  8
実形
 62
     0
370
    18
100
AcDbBlockReference
  2
_Dot
 10
771.0532809749767
 20
1083.919947869387
 30
0.0
 41
10.0
 42
10.0
 43
10.0
 50
180.0
  0
INSERT
  5
A4DE
330
A46B
100
AcDbEntity
  8
実形
 62
     0
370
    18
100
AcDbBlockReference
  2
_Dot
 10
1411.053280974977
 20
1083.919947869387
 30
0.0
 41
10.0
 42
10.0
 43
10.0
  0
MTEXT
  5
A4DF
330
A46B
100
AcDbEntity
  8
実形
 62
     0
100
AcDbMText
 10
1091.053280974977
 20
1103.019947869387
 30
0.0
 40
25.0
 41
0.0
 71
     5
 72
     1
  1
640
 73
     1
 44
1.0
1001
ACAD
1000
MTEXTBEGIN
1070
    73
1070
     1
1070
    44
1040
1.0
1070
    74
1070
     0
1000
MTEXTEND
  0
POINT
  5
A4E0
330
A46B
100
AcDbEntity
  8
Defpoints
 62
     0
100
AcDbPoint
 10
771.0532809749767
 20
1191.6411620649
 30
0.0
  0
POINT
  5
A4E1
330
A46B
100
AcDbEntity
  8
Defpoints
 62
     0
100
AcDbPoint
 10
1411.053280974977
 20
1191.6411620649
 30
0.0
  0
POINT
  5
A4E2
330
A46B
100
AcDbEntity
  8
Defpoints
 62
     0
100
AcDbPoint
 10
1411.053280974977
 20
1083.919947869387
 30
0.0
  0
ENDBLK
  5
A476
330
A46B
100
AcDbEntity
  8
0
 62
     3
100
AcDbBlockEnd
  0
BLOCK
  5
A75E
330
A754
100
AcDbEntity
  8
0
 62
     3
100
AcDbBlockBegin
  2
*D72
 70
     1
 10
0.0
 20
0.0
 30
0.0
  3
*D72
  1

  0
LINE
  5
A772
330
A754
100
AcDbEntity
  8
実形
 62
     0
370
    18
100
AcDbLine
 10
1481.053280974976
 20
1479.0680358653
 30
0.0
 11
1481.053280974976
 21
1442.839524988157
 31
0.0
  0
LINE
  5
A773
330
A754
100
AcDbEntity
  8
実形
 62
     0
370
    18
100
AcDbLine
 10
1531.053280974977
 20
1479.0680358653
 30
0.0
 11
1531.053280974977
 21
1442.839524988157
 31
0.0
  0
LINE
  5
A774
330
A754
100
AcDbEntity
  8
実形
 62
     0
370
    18
100
AcDbLine
 10
1491.053280974976
 20
1442.839524988157
 30
0.0
 11
1521.053280974977
 21
1442.839524988157
 31
0.0
  0
MTEXT
  5
A775
330
A754
100
AcDbEntity
  8
実形
 62
     0
100
AcDbMText
 10
1506.053280974976
 20
1464.261176756287
 30
0.0
 40
25.0
 41
0.0
 71
     5
 72
     1
  1
50
 73
     1
 44
1.0
1001
ACAD
1000
MTEXTBEGIN
1070
    73
1070
     1
1070
    44
1040
1.0
1070
    74
1070
     0
1000
MTEXTEND
  0
INSERT
  5
A776
330
A754
100
AcDbEntity
  8
実形
 62
     0
370
    18
100
AcDbBlockReference
  2
_Dot
 10
1481.053280974976
 20
1442.839524988157
 30
0.0
 41
10.0
 42
10.0
 43
10.0
 50
180.0
  0
INSERT
  5
A777
330
A754
100
AcDbEntity
  8
実形
 62
     0
370
    18
100
AcDbBlockReference
  2
_Dot
 10
1531.053280974977
 20
1442.839524988157
 30
0.0
 41
10.0
 42
10.0
 43
10.0
  0
POINT
  5
A778
330
A754
100
AcDbEntity
  8
Defpoints
 62
     0
100
AcDbPoint
 10
1481.053280974976
 20
1544.0680358653
 30
0.0
  0
POINT
  5
A779
330
A754
100
AcDbEntity
  8
Defpoints
 62
     0
100
AcDbPoint
 10
1531.053280974977
 20
1544.0680358653
 30
0.0
  0
POINT
  5
A77A
330
A754
100
AcDbEntity
  8
Defpoints
 62
     0
100
AcDbPoint
 10
1531.053280974977
 20
1442.839524988157
 30
0.0
  0
ENDBLK
  5
A75F
330
A754
100
AcDbEntity
  8
0
 62
     3
100
AcDbBlockEnd
  0
BLOCK
  5
A834
330
A82A
100
AcDbEntity
  8
0
 62
     3
100
AcDbBlockBegin
  2
*D73
 70
     1
 10
0.0
 20
0.0
 30
0.0
  3
*D73
  1

  0
LINE
  5
B288
330
A82A
100
AcDbEntity
  8
実形
 62
     0
370
    18
100
AcDbLine
 10
1601.286517744654
 20
700.6580729330508
 30
0.0
 11
1656.403252109688
 21
700.6580729330508
 31
0.0
  0
LINE
  5
B289
330
A82A
100
AcDbEntity
  8
実形
 62
     0
370
    18
100
AcDbLine
 10
1603.006242337502
 20
650.6580729330506
 30
0.0
 11
1656.403252109688
 21
650.6580729330506
 31
0.0
  0
LINE
  5
B28A
330
A82A
100
AcDbEntity
  8
実形
 62
     0
370
    18
100
AcDbLine
 10
1656.403252109688
 20
690.6580729330507
 30
0.0
 11
1656.403252109688
 21
660.6580729330507
 31
0.0
  0
MTEXT
  5
B28B
330
A82A
100
AcDbEntity
  8
実形
 62
     0
100
AcDbMText
 10
1635.555447121214
 20
675.6580729330509
 30
0.0
 40
25.0
 41
0.0
 71
     5
 72
     1
  1
50
 11
0.0000000000000001
 21
1.0
 31
0.0
 73
     1
 44
1.0
1001
ACAD
1000
MTEXTBEGIN
1070
    73
1070
     1
1070
    44
1040
1.0
1070
    74
1070
     0
1000
MTEXTEND
  0
INSERT
  5
B28C
330
A82A
100
AcDbEntity
  8
実形
 62
     0
370
    18
100
AcDbBlockReference
  2
_Dot
 10
1656.403252109688
 20
700.6580729330508
 30
0.0
 41
10.0
 42
10.0
 43
10.0
 50
90.0
  0
INSERT
  5
B28D
330
A82A
100
AcDbEntity
  8
実形
 62
     0
370
    18
100
AcDbBlockReference
  2
_Dot
 10
1656.403252109688
 20
650.6580729330506
 30
0.0
 41
10.0
 42
10.0
 43
10.0
 50
270.0
  0
POINT
  5
B28E
330
A82A
100
AcDbEntity
  8
Defpoints
 62
     0
100
AcDbPoint
 10
1536.286517744654
 20
700.6580729330508
 30
0.0
  0
POINT
  5
B28F
330
A82A
100
AcDbEntity
  8
Defpoints
 62
     0
100
AcDbPoint
 10
1538.006242337502
 20
650.6580729330506
 30
0.0
  0
POINT
  5
B290
330
A82A
100
AcDbEntity
  8
Defpoints
 62
     0
100
AcDbPoint
 10
1656.403252109688
 20
650.6580729330506
 30
0.0
  0
ENDBLK
  5
A835
330
A82A
100
AcDbEntity
  8
0
 62
     3
100
AcDbBlockEnd
  0
BLOCK
  5
A866
330
A85C
100
AcDbEntity
  8
0
 62
     3
100
AcDbBlockBegin
  2
*D74
 70
     1
 10
0.0
 20
0.0
 30
0.0
  3
*D74
  1

  0
LINE
  5
B27F
330
A85C
100
AcDbEntity
  8
実形
 62
     0
370
    18
100
AcDbLine
 10
1601.081311021385
 20
715.6580729330507
 30
0.0
 11
1656.403252109688
 21
715.6580729330507
 31
0.0
  0
LINE
  5
B280
330
A85C
100
AcDbEntity
  8
実形
 62
     0
370
    18
100
AcDbLine
 10
1611.403252109688
 20
650.6580729330505
 30
0.0
 11
1656.403252109688
 21
650.6580729330505
 31
0.0
  0
LINE
  5
B281
330
A85C
100
AcDbEntity
  8
実形
 62
     0
370
    18
100
AcDbLine
 10
1656.403252109688
 20
705.6580729330508
 30
0.0
 11
1656.403252109688
 21
660.6580729330505
 31
0.0
  0
MTEXT
  5
B282
330
A85C
100
AcDbEntity
  8
実形
 62
     0
100
AcDbMText
 10
1632.432786485002
 20
739.0275461617147
 30
0.0
 40
25.0
 41
0.0
 71
     5
 72
     1
  1
15
 11
0.0000000000000001
 21
1.0
 31
0.0
 73
     1
 44
1.0
1001
ACAD
1000
MTEXTBEGIN
1070
    73
1070
     1
1070
    44
1040
1.0
1070
    74
1070
     0
1000
MTEXTEND
  0
INSERT
  5
B283
330
A85C
100
AcDbEntity
  8
実形
 62
     0
370
    18
100
AcDbBlockReference
  2
_Dot
 10
1656.403252109688
 20
715.6580729330507
 30
0.0
 41
10.0
 42
10.0
 43
10.0
 50
90.0
  0
INSERT
  5
B284
330
A85C
100
AcDbEntity
  8
実形
 62
     0
370
    18
100
AcDbBlockReference
  2
_Dot
 10
1656.403252109688
 20
650.6580729330505
 30
0.0
 41
10.0
 42
10.0
 43
10.0
 50
270.0
  0
POINT
  5
B285
330
A85C
100
AcDbEntity
  8
Defpoints
 62
     0
100
AcDbPoint
 10
1536.081311021385
 20
715.6580729330507
 30
0.0
  0
POINT
  5
B286
330
A85C
100
AcDbEntity
  8
Defpoints
 62
     0
100
AcDbPoint
 10
1546.403252109688
 20
650.6580729330505
 30
0.0
  0
POINT
  5
B287
330
A85C
100
AcDbEntity
  8
Defpoints
 62
     0
100
AcDbPoint
 10
1656.403252109688
 20
650.6580729330505
 30
0.0
  0
ENDBLK
  5
A867
330
A85C
100
AcDbEntity
  8
0
 62
     3
100
AcDbBlockEnd
  0
BLOCK
  5
A8E3
330
A8D9
100
AcDbEntity
  8
0
 62
     3
100
AcDbBlockBegin
  2
*D75
 70
     1
 10
0.0
 20
0.0
 30
0.0
  3
*D75
  1

  0
LINE
  5
B276
330
A8D9
100
AcDbEntity
  8
実形
 62
     0
370
    18
100
AcDbLine
 10
1611.403252109688
 20
715.6580729330507
 30
0.0
 11
1711.403252109689
 21
715.6580729330507
 31
0.0
  0
LINE
  5
B277
330
A8D9
100
AcDbEntity
  8
実形
 62
     0
370
    18
100
AcDbLine
 10
1611.403252109688
 20
650.6580729330506
 30
0.0
 11
1711.403252109689
 21
650.6580729330506
 31
0.0
  0
LINE
  5
B278
330
A8D9
100
AcDbEntity
  8
実形
 62
     0
370
    18
100
AcDbLine
 10
1711.403252109689
 20
705.6580729330508
 30
0.0
 11
1711.403252109689
 21
660.6580729330507
 31
0.0
  0
INSERT
  5
B279
330
A8D9
100
AcDbEntity
  8
実形
 62
     0
370
    18
100
AcDbBlockReference
  2
_Dot
 10
1711.403252109689
 20
715.6580729330507
 30
0.0
 41
10.0
 42
10.0
 43
10.0
 50
90.0
  0
INSERT
  5
B27A
330
A8D9
100
AcDbEntity
  8
実形
 62
     0
370
    18
100
AcDbBlockReference
  2
_Dot
 10
1711.403252109689
 20
650.6580729330506
 30
0.0
 41
10.0
 42
10.0
 43
10.0
 50
270.0
  0
MTEXT
  5
B27B
330
A8D9
100
AcDbEntity
  8
実形
 62
     0
100
AcDbMText
 10
1692.303252109688
 20
683.1580729330509
 30
0.0
 40
25.0
 41
0.0
 71
     5
 72
     1
  1
65
 11
0.0000000000000001
 21
1.0
 31
0.0
 73
     1
 44
1.0
1001
ACAD
1000
MTEXTBEGIN
1070
    73
1070
     1
1070
    44
1040
1.0
1070
    74
1070
     0
1000
MTEXTEND
  0
POINT
  5
B27C
330
A8D9
100
AcDbEntity
  8
Defpoints
 62
     0
100
AcDbPoint
 10
1546.403252109689
 20
715.6580729330507
 30
0.0
  0
POINT
  5
B27D
330
A8D9
100
AcDbEntity
  8
Defpoints
 62
     0
100
AcDbPoint
 10
1546.403252109689
 20
650.6580729330506
 30
0.0
  0
POINT
  5
B27E
330
A8D9
100
AcDbEntity
  8
Defpoints
 62
     0
100
AcDbPoint
 10
1711.403252109689
 20
650.6580729330506
 30
0.0
  0
ENDBLK
  5
A8E4
330
A8D9
100
AcDbEntity
  8
0
 62
     3
100
AcDbBlockEnd
  0
BLOCK
  5
A902
330
A8F8
100
AcDbEntity
  8
0
 62
     3
100
AcDbBlockBegin
  2
*D76
 70
     1
 10
0.0
 20
0.0
 30
0.0
  3
*D76
  1

  0
LINE
  5
B26D
330
A8F8
100
AcDbEntity
  8
実形
 62
     0
370
    18
100
AcDbLine
 10
1611.403252109688
 20
650.6580729330506
 30
0.0
 11
1711.403252109689
 21
650.6580729330506
 31
0.0
  0
LINE
  5
B26E
330
A8F8
100
AcDbEntity
  8
実形
 62
     0
370
    18
100
AcDbLine
 10
1654.975075635179
 20
460.6580729330508
 30
0.0
 11
1711.403252109688
 21
460.6580729330507
 31
0.0
  0
LINE
  5
B26F
330
A8F8
100
AcDbEntity
  8
実形
 62
     0
370
    18
100
AcDbLine
 10
1711.403252109689
 20
640.6580729330507
 30
0.0
 11
1711.403252109688
 21
470.6580729330507
 31
0.0
  0
INSERT
  5
B270
330
A8F8
100
AcDbEntity
  8
実形
 62
     0
370
    18
100
AcDbBlockReference
  2
_Dot
 10
1711.403252109689
 20
650.6580729330506
 30
0.0
 41
10.0
 42
10.0
 43
10.0
 50
90.0
  0
INSERT
  5
B271
330
A8F8
100
AcDbEntity
  8
実形
 62
     0
370
    18
100
AcDbBlockReference
  2
_Dot
 10
1711.403252109688
 20
460.6580729330507
 30
0.0
 41
10.0
 42
10.0
 43
10.0
 50
270.0
  0
MTEXT
  5
B272
330
A8F8
100
AcDbEntity
  8
実形
 62
     0
100
AcDbMText
 10
1692.303252109688
 20
555.6580729330509
 30
0.0
 40
25.0
 41
0.0
 71
     5
 72
     1
  1
190
 11
0.0000000000000001
 21
1.0
 31
0.0
 73
     1
 44
1.0
1001
ACAD
1000
MTEXTBEGIN
1070
    73
1070
     1
1070
    44
1040
1.0
1070
    74
1070
     0
1000
MTEXTEND
  0
POINT
  5
B273
330
A8F8
100
AcDbEntity
  8
Defpoints
 62
     0
100
AcDbPoint
 10
1546.403252109689
 20
650.6580729330506
 30
0.0
  0
POINT
  5
B274
330
A8F8
100
AcDbEntity
  8
Defpoints
 62
     0
100
AcDbPoint
 10
1589.975075635179
 20
460.6580729330508
 30
0.0
  0
POINT
  5
B275
330
A8F8
100
AcDbEntity
  8
Defpoints
 62
     0
100
AcDbPoint
 10
1711.403252109688
 20
460.6580729330507
 30
0.0
  0
ENDBLK
  5
A903
330
A8F8
100
AcDbEntity
  8
0
 62
     3
100
AcDbBlockEnd
  0
BLOCK
  5
A90F
330
A905
100
AcDbEntity
  8
0
 62
     3
100
AcDbBlockBegin
  2
*D77
 70
     1
 10
0.0
 20
0.0
 30
0.0
  3
*D77
  1

  0
LINE
  5
B264
330
A905
100
AcDbEntity
  8
実形
 62
     0
370
    18
100
AcDbLine
 10
1666.403252109689
 20
715.6580729330507
 30
0.0
 11
1766.403252109689
 21
715.6580729330507
 31
0.0
  0
LINE
  5
B265
330
A905
100
AcDbEntity
  8
実形
 62
     0
370
    18
100
AcDbLine
 10
1665.6733184408
 20
460.6580729330507
 30
0.0
 11
1766.403252109689
 21
460.6580729330507
 31
0.0
  0
LINE
  5
B266
330
A905
100
AcDbEntity
  8
実形
 62
     0
370
    18
100
AcDbLine
 10
1766.403252109689
 20
705.6580729330508
 30
0.0
 11
1766.403252109689
 21
470.6580729330506
 31
0.0
  0
MTEXT
  5
B267
330
A905
100
AcDbEntity
  8
実形
 62
     0
100
AcDbMText
 10
1747.303252109689
 20
554.0639336337108
 30
0.0
 40
25.0
 41
0.0
 71
     5
 72
     1
  1
255
 11
0.0000000000000001
 21
1.0
 31
0.0
 73
     1
 44
1.0
1001
ACAD
1000
MTEXTBEGIN
1070
    73
1070
     1
1070
    44
1040
1.0
1070
    74
1070
     0
1000
MTEXTEND
  0
INSERT
  5
B268
330
A905
100
AcDbEntity
  8
実形
 62
     0
370
    18
100
AcDbBlockReference
  2
_Dot
 10
1766.403252109689
 20
715.6580729330507
 30
0.0
 41
10.0
 42
10.0
 43
10.0
 50
90.0
  0
INSERT
  5
B269
330
A905
100
AcDbEntity
  8
実形
 62
     0
370
    18
100
AcDbBlockReference
  2
_Dot
 10
1766.403252109689
 20
460.6580729330507
 30
0.0
 41
10.0
 42
10.0
 43
10.0
 50
270.0
  0
POINT
  5
B26A
330
A905
100
AcDbEntity
  8
Defpoints
 62
     0
100
AcDbPoint
 10
1601.403252109689
 20
715.6580729330507
 30
0.0
  0
POINT
  5
B26B
330
A905
100
AcDbEntity
  8
Defpoints
 62
     0
100
AcDbPoint
 10
1600.6733184408
 20
460.6580729330507
 30
0.0
  0
POINT
  5
B26C
330
A905
100
AcDbEntity
  8
Defpoints
 62
     0
100
AcDbPoint
 10
1766.403252109689
 20
460.6580729330507
 30
0.0
  0
ENDBLK
  5
A910
330
A905
100
AcDbEntity
  8
0
 62
     3
100
AcDbBlockEnd
  0
BLOCK
  5
A92E
330
A924
100
AcDbEntity
  8
0
 62
     3
100
AcDbBlockBegin
  2
*D78
 70
     1
 10
0.0
 20
0.0
 30
0.0
  3
*D78
  1

  0
LINE
  5
B249
330
A924
100
AcDbEntity
  8
実形
 62
     0
370
    18
100
AcDbLine
 10
1655.485689604565
 20
450.6580729330506
 30
0.0
 11
1766.403252109689
 21
450.6580729330506
 31
0.0
  0
LINE
  5
B24A
330
A924
100
AcDbEntity
  8
実形
 62
     0
370
    18
100
AcDbLine
 10
1666.403252109689
 20
715.6580729330507
 30
0.0
 11
1766.403252109689
 21
715.6580729330507
 31
0.0
  0
LINE
  5
B24B
330
A924
100
AcDbEntity
  8
実形
 62
     0
370
    18
100
AcDbLine
 10
1766.403252109689
 20
460.6580729330506
 30
0.0
 11
1766.403252109689
 21
705.6580729330508
 31
0.0
  0
MTEXT
  5
B24C
330
A924
100
AcDbEntity
  8
実形
 62
     0
100
AcDbMText
 10
1747.303252109689
 20
427.592962459038
 30
0.0
 40
25.0
 41
0.0
 71
     5
 72
     1
  1
10
 11
0.0000000000000001
 21
1.0
 31
0.0
 73
     1
 44
1.0
1001
ACAD
1000
MTEXTBEGIN
1070
    73
1070
     1
1070
    44
1040
1.0
1070
    74
1070
     0
1000
MTEXTEND
  0
INSERT
  5
B24D
330
A924
100
AcDbEntity
  8
実形
 62
     0
370
    18
100
AcDbBlockReference
  2
_Dot
 10
1766.403252109689
 20
450.6580729330506
 30
0.0
 41
10.0
 42
10.0
 43
10.0
 50
270.0
  0
INSERT
  5
B24E
330
A924
100
AcDbEntity
  8
実形
 62
     0
370
    18
100
AcDbBlockReference
  2
_Dot
 10
1766.403252109689
 20
715.6580729330507
 30
0.0
 41
10.0
 42
10.0
 43
10.0
 50
90.0
  0
POINT
  5
B24F
330
A924
100
AcDbEntity
  8
Defpoints
 62
     0
100
AcDbPoint
 10
1590.485689604566
 20
450.6580729330506
 30
0.0
  0
POINT
  5
B250
330
A924
100
AcDbEntity
  8
Defpoints
 62
     0
100
AcDbPoint
 10
1601.403252109689
 20
715.6580729330507
 30
0.0
  0
POINT
  5
B251
330
A924
100
AcDbEntity
  8
Defpoints
 62
     0
100
AcDbPoint
 10
1766.403252109689
 20
715.6580729330507
 30
0.0
  0
ENDBLK
  5
A92F
330
A924
100
AcDbEntity
  8
0
 62
     3
100
AcDbBlockEnd
  0
BLOCK
  5
A971
330
A967
100
AcDbEntity
  8
0
 62
     3
100
AcDbBlockBegin
  2
*D79
 70
     1
 10
0.0
 20
0.0
 30
0.0
  3
*D79
  1

  0
LINE
  5
B25B
330
A967
100
AcDbEntity
  8
実形
 62
     0
370
    18
100
AcDbLine
 10
1611.403252109688
 20
715.6580729330507
 30
0.0
 11
1821.403252109689
 21
715.6580729330507
 31
0.0
  0
LINE
  5
B25C
330
A967
100
AcDbEntity
  8
実形
 62
     0
370
    18
100
AcDbLine
 10
1718.346912936536
 20
450.6580729330506
 30
0.0
 11
1821.403252109689
 21
450.6580729330506
 31
0.0
  0
LINE
  5
B25D
330
A967
100
AcDbEntity
  8
実形
 62
     0
370
    18
100
AcDbLine
 10
1821.403252109689
 20
705.6580729330506
 30
0.0
 11
1821.403252109689
 21
460.6580729330506
 31
0.0
  0
MTEXT
  5
B25E
330
A967
100
AcDbEntity
  8
実形
 62
     0
100
AcDbMText
 10
1802.303252109689
 20
554.9609720805083
 30
0.0
 40
25.0
 41
0.0
 71
     5
 72
     1
  1
265
 11
0.0000000000000001
 21
1.0
 31
0.0
 73
     1
 44
1.0
1001
ACAD
1000
MTEXTBEGIN
1070
    73
1070
     1
1070
    44
1040
1.0
1070
    74
1070
     0
1000
MTEXTEND
  0
INSERT
  5
B25F
330
A967
100
AcDbEntity
  8
実形
 62
     0
370
    18
100
AcDbBlockReference
  2
_Dot
 10
1821.403252109689
 20
715.6580729330507
 30
0.0
 41
10.0
 42
10.0
 43
10.0
 50
90.0
  0
INSERT
  5
B260
330
A967
100
AcDbEntity
  8
実形
 62
     0
370
    18
100
AcDbBlockReference
  2
_Dot
 10
1821.403252109689
 20
450.6580729330506
 30
0.0
 41
10.0
 42
10.0
 43
10.0
 50
270.0
  0
POINT
  5
B261
330
A967
100
AcDbEntity
  8
Defpoints
 62
     0
100
AcDbPoint
 10
1546.403252109689
 20
715.6580729330507
 30
0.0
  0
POINT
  5
B262
330
A967
100
AcDbEntity
  8
Defpoints
 62
     0
100
AcDbPoint
 10
1653.346912936537
 20
450.6580729330506
 30
0.0
  0
POINT
  5
B263
330
A967
100
AcDbEntity
  8
Defpoints
 62
     0
100
AcDbPoint
 10
1821.403252109689
 20
450.6580729330506
 30
0.0
  0
ENDBLK
  5
A972
330
A967
100
AcDbEntity
  8
0
 62
     3
100
AcDbBlockEnd
  0
BLOCK
  5
AA49
330
AA3F
100
AcDbEntity
  8
0
 62
     3
100
AcDbBlockBegin
  2
*D80
 70
     1
 10
0.0
 20
0.0
 30
0.0
  3
*D80
  1

  0
LINE
  5
AE7F
330
AA3F
100
AcDbEntity
  8
実形
 62
     0
370
    18
100
AcDbLine
 10
694.936978350237
 20
715.6580729330508
 30
0.0
 11
635.6802185117849
 21
715.6580729330508
 31
0.0
  0
LINE
  5
AE80
330
AA3F
100
AcDbEntity
  8
実形
 62
     0
370
    18
100
AcDbLine
 10
694.936978350237
 20
525.6580729330507
 30
0.0
 11
635.6802185117849
 21
525.6580729330507
 31
0.0
  0
LINE
  5
AE81
330
AA3F
100
AcDbEntity
  8
実形
 62
     0
370
    18
100
AcDbLine
 10
635.6802185117849
 20
705.6580729330509
 30
0.0
 11
635.6802185117849
 21
535.6580729330508
 31
0.0
  0
MTEXT
  5
AE82
330
AA3F
100
AcDbEntity
  8
実形
 62
     0
100
AcDbMText
 10
615.9111887819654
 20
692.8852156298617
 30
0.0
 40
25.0
 41
0.0
 71
     5
 72
     1
  1
15
 11
0.0000000000000001
 21
1.0
 31
0.0
 73
     1
 44
1.0
1001
ACAD
1000
MTEXTBEGIN
1070
    73
1070
     1
1070
    44
1040
1.0
1070
    74
1070
     0
1000
MTEXTEND
  0
INSERT
  5
AE83
330
AA3F
100
AcDbEntity
  8
実形
 62
     0
370
    18
100
AcDbBlockReference
  2
_Dot
 10
635.6802185117849
 20
715.6580729330508
 30
0.0
 41
10.0
 42
10.0
 43
10.0
 50
90.0
  0
INSERT
  5
AE84
330
AA3F
100
AcDbEntity
  8
実形
 62
     0
370
    18
100
AcDbBlockReference
  2
_Dot
 10
635.6802185117849
 20
525.6580729330507
 30
0.0
 41
10.0
 42
10.0
 43
10.0
 50
270.0
  0
POINT
  5
AE85
330
AA3F
100
AcDbEntity
  8
Defpoints
 62
     0
100
AcDbPoint
 10
759.936978350237
 20
715.6580729330508
 30
0.0
  0
POINT
  5
AE86
330
AA3F
100
AcDbEntity
  8
Defpoints
 62
     0
100
AcDbPoint
 10
759.936978350237
 20
525.6580729330507
 30
0.0
  0
POINT
  5
AE87
330
AA3F
100
AcDbEntity
  8
Defpoints
 62
     0
100
AcDbPoint
 10
635.6802185117849
 20
525.6580729330507
 30
0.0
  0
ENDBLK
  5
AA4A
330
AA3F
100
AcDbEntity
  8
0
 62
     3
100
AcDbBlockEnd
  0
BLOCK
  5
AA55
330
AA4B
100
AcDbEntity
  8
0
 62
     3
100
AcDbBlockBegin
  2
*D81
 70
     1
 10
0.0
 20
0.0
 30
0.0
  3
*D81
  1

  0
LINE
  5
AE76
330
AA4B
100
AcDbEntity
  8
実形
 62
     0
370
    18
100
AcDbLine
 10
694.936978350237
 20
700.6580729330508
 30
0.0
 11
635.6802185117849
 21
700.6580729330508
 31
0.0
  0
LINE
  5
AE77
330
AA4B
100
AcDbEntity
  8
実形
 62
     0
370
    18
100
AcDbLine
 10
694.936978350237
 20
525.6580729330507
 30
0.0
 11
635.6802185117849
 21
525.6580729330507
 31
0.0
  0
LINE
  5
AE78
330
AA4B
100
AcDbEntity
  8
実形
 62
     0
370
    18
100
AcDbLine
 10
635.6802185117849
 20
690.6580729330507
 30
0.0
 11
635.6802185117849
 21
535.6580729330508
 31
0.0
  0
INSERT
  5
AE79
330
AA4B
100
AcDbEntity
  8
実形
 62
     0
370
    18
100
AcDbBlockReference
  2
_Dot
 10
635.6802185117849
 20
700.6580729330508
 30
0.0
 41
10.0
 42
10.0
 43
10.0
 50
90.0
  0
INSERT
  5
AE7A
330
AA4B
100
AcDbEntity
  8
実形
 62
     0
370
    18
100
AcDbBlockReference
  2
_Dot
 10
635.6802185117849
 20
525.6580729330507
 30
0.0
 41
10.0
 42
10.0
 43
10.0
 50
270.0
  0
MTEXT
  5
AE7B
330
AA4B
100
AcDbEntity
  8
実形
 62
     0
100
AcDbMText
 10
616.5802185117847
 20
613.1580729330509
 30
0.0
 40
25.0
 41
0.0
 71
     5
 72
     1
  1
175
 11
0.0000000000000001
 21
1.0
 31
0.0
 73
     1
 44
1.0
1001
ACAD
1000
MTEXTBEGIN
1070
    73
1070
     1
1070
    44
1040
1.0
1070
    74
1070
     0
1000
MTEXTEND
  0
POINT
  5
AE7C
330
AA4B
100
AcDbEntity
  8
Defpoints
 62
     0
100
AcDbPoint
 10
759.936978350237
 20
700.6580729330508
 30
0.0
  0
POINT
  5
AE7D
330
AA4B
100
AcDbEntity
  8
Defpoints
 62
     0
100
AcDbPoint
 10
759.936978350237
 20
525.6580729330507
 30
0.0
  0
POINT
  5
AE7E
330
AA4B
100
AcDbEntity
  8
Defpoints
 62
     0
100
AcDbPoint
 10
635.6802185117849
 20
525.6580729330507
 30
0.0
  0
ENDBLK
  5
AA56
330
AA4B
100
AcDbEntity
  8
0
 62
     3
100
AcDbBlockEnd
  0
BLOCK
  5
AA61
330
AA57
100
AcDbEntity
  8
0
 62
     3
100
AcDbBlockBegin
  2
*D82
 70
     1
 10
0.0
 20
0.0
 30
0.0
  3
*D82
  1

  0
LINE
  5
AE6D
330
AA57
100
AcDbEntity
  8
実形
 62
     0
370
    18
100
AcDbLine
 10
629.936978350237
 20
715.6580729330508
 30
0.0
 11
572.507277921115
 21
715.6580729330508
 31
0.0
  0
LINE
  5
AE6E
330
AA57
100
AcDbEntity
  8
実形
 62
     0
370
    18
100
AcDbLine
 10
629.936978350237
 20
525.6580729330507
 30
0.0
 11
572.507277921115
 21
525.6580729330507
 31
0.0
  0
LINE
  5
AE6F
330
AA57
100
AcDbEntity
  8
実形
 62
     0
370
    18
100
AcDbLine
 10
572.507277921115
 20
705.6580729330509
 30
0.0
 11
572.507277921115
 21
535.6580729330508
 31
0.0
  0
MTEXT
  5
AE70
330
AA57
100
AcDbEntity
  8
実形
 62
     0
100
AcDbMText
 10
552.1972667677292
 20
611.7417301816194
 30
0.0
 40
25.0
 41
0.0
 71
     5
 72
     1
  1
190
 11
0.0000000000000001
 21
1.0
 31
0.0
 73
     1
 44
1.0
1001
ACAD
1000
MTEXTBEGIN
1070
    73
1070
     1
1070
    44
1040
1.0
1070
    74
1070
     0
1000
MTEXTEND
  0
INSERT
  5
AE71
330
AA57
100
AcDbEntity
  8
実形
 62
     0
370
    18
100
AcDbBlockReference
  2
_Dot
 10
572.507277921115
 20
715.6580729330508
 30
0.0
 41
10.0
 42
10.0
 43
10.0
 50
90.0
  0
INSERT
  5
AE72
330
AA57
100
AcDbEntity
  8
実形
 62
     0
370
    18
100
AcDbBlockReference
  2
_Dot
 10
572.507277921115
 20
525.6580729330507
 30
0.0
 41
10.0
 42
10.0
 43
10.0
 50
270.0
  0
POINT
  5
AE73
330
AA57
100
AcDbEntity
  8
Defpoints
 62
     0
100
AcDbPoint
 10
694.936978350237
 20
715.6580729330508
 30
0.0
  0
POINT
  5
AE74
330
AA57
100
AcDbEntity
  8
Defpoints
 62
     0
100
AcDbPoint
 10
694.936978350237
 20
525.6580729330507
 30
0.0
  0
POINT
  5
AE75
330
AA57
100
AcDbEntity
  8
Defpoints
 62
     0
100
AcDbPoint
 10
572.507277921115
 20
525.6580729330507
 30
0.0
  0
ENDBLK
  5
AA62
330
AA57
100
AcDbEntity
  8
0
 62
     3
100
AcDbBlockEnd
  0
BLOCK
  5
AA6D
330
AA63
100
AcDbEntity
  8
0
 62
     3
100
AcDbBlockBegin
  2
*D83
 70
     1
 10
0.0
 20
0.0
 30
0.0
  3
*D83
  1

  0
LINE
  5
AE64
330
AA63
100
AcDbEntity
  8
実形
 62
     0
370
    18
100
AcDbLine
 10
695.5963134502272
 20
510.6580729330508
 30
0.0
 11
572.507277921115
 21
510.6580729330508
 31
0.0
  0
LINE
  5
AE65
330
AA63
100
AcDbEntity
  8
実形
 62
     0
370
    18
100
AcDbLine
 10
694.936978350237
 20
715.6580729330508
 30
0.0
 11
572.507277921115
 21
715.6580729330508
 31
0.0
  0
LINE
  5
AE66
330
AA63
100
AcDbEntity
  8
実形
 62
     0
370
    18
100
AcDbLine
 10
572.507277921115
 20
520.6580729330509
 30
0.0
 11
572.507277921115
 21
705.6580729330509
 31
0.0
  0
MTEXT
  5
AE67
330
AA63
100
AcDbEntity
  8
実形
 62
     0
100
AcDbMText
 10
552.819148601071
 20
535.7691236751962
 30
0.0
 40
25.0
 41
0.0
 71
     5
 72
     1
  1
15
 11
0.0000000000000001
 21
1.0
 31
0.0
 73
     1
 44
1.0
1001
ACAD
1000
MTEXTBEGIN
1070
    73
1070
     1
1070
    44
1040
1.0
1070
    74
1070
     0
1000
MTEXTEND
  0
INSERT
  5
AE68
330
AA63
100
AcDbEntity
  8
実形
 62
     0
370
    18
100
AcDbBlockReference
  2
_Dot
 10
572.507277921115
 20
510.6580729330508
 30
0.0
 41
10.0
 42
10.0
 43
10.0
 50
270.0
  0
INSERT
  5
AE69
330
AA63
100
AcDbEntity
  8
実形
 62
     0
370
    18
100
AcDbBlockReference
  2
_Dot
 10
572.507277921115
 20
715.6580729330508
 30
0.0
 41
10.0
 42
10.0
 43
10.0
 50
90.0
  0
POINT
  5
AE6A
330
AA63
100
AcDbEntity
  8
Defpoints
 62
     0
100
AcDbPoint
 10
760.5963134502271
 20
510.6580729330508
 30
0.0
  0
POINT
  5
AE6B
330
AA63
100
AcDbEntity
  8
Defpoints
 62
     0
100
AcDbPoint
 10
759.936978350237
 20
715.6580729330508
 30
0.0
  0
POINT
  5
AE6C
330
AA63
100
AcDbEntity
  8
Defpoints
 62
     0
100
AcDbPoint
 10
572.507277921115
 20
715.6580729330508
 30
0.0
  0
ENDBLK
  5
AA6E
330
AA63
100
AcDbEntity
  8
0
 62
     3
100
AcDbBlockEnd
  0
BLOCK
  5
AA79
330
AA6F
100
AcDbEntity
  8
0
 62
     3
100
AcDbBlockBegin
  2
*D84
 70
     1
 10
0.0
 20
0.0
 30
0.0
  3
*D84
  1

  0
LINE
  5
AE5B
330
AA6F
100
AcDbEntity
  8
実形
 62
     0
370
    18
100
AcDbLine
 10
570.6802185117849
 20
715.6580729330508
 30
0.0
 11
512.1655984588215
 21
715.6580729330508
 31
0.0
  0
LINE
  5
AE5C
330
AA6F
100
AcDbEntity
  8
実形
 62
     0
370
    18
100
AcDbLine
 10
570.6802185117849
 20
510.6580729330508
 30
0.0
 11
512.1655984588215
 21
510.6580729330508
 31
0.0
  0
LINE
  5
AE5D
330
AA6F
100
AcDbEntity
  8
実形
 62
     0
370
    18
100
AcDbLine
 10
512.1655984588215
 20
705.6580729330509
 30
0.0
 11
512.1655984588215
 21
520.6580729330507
 31
0.0
  0
INSERT
  5
AE5E
330
AA6F
100
AcDbEntity
  8
実形
 62
     0
370
    18
100
AcDbBlockReference
  2
_Dot
 10
512.1655984588215
 20
715.6580729330508
 30
0.0
 41
10.0
 42
10.0
 43
10.0
 50
90.0
  0
INSERT
  5
AE5F
330
AA6F
100
AcDbEntity
  8
実形
 62
     0
370
    18
100
AcDbBlockReference
  2
_Dot
 10
512.1655984588215
 20
510.6580729330508
 30
0.0
 41
10.0
 42
10.0
 43
10.0
 50
270.0
  0
MTEXT
  5
AE60
330
AA6F
100
AcDbEntity
  8
実形
 62
     0
100
AcDbMText
 10
493.0655984588214
 20
613.158072933051
 30
0.0
 40
25.0
 41
0.0
 71
     5
 72
     1
  1
205
 11
0.0000000000000001
 21
1.0
 31
0.0
 73
     1
 44
1.0
1001
ACAD
1000
MTEXTBEGIN
1070
    73
1070
     1
1070
    44
1040
1.0
1070
    74
1070
     0
1000
MTEXTEND
  0
POINT
  5
AE61
330
AA6F
100
AcDbEntity
  8
Defpoints
 62
     0
100
AcDbPoint
 10
635.6802185117849
 20
715.6580729330508
 30
0.0
  0
POINT
  5
AE62
330
AA6F
100
AcDbEntity
  8
Defpoints
 62
     0
100
AcDbPoint
 10
635.6802185117849
 20
510.6580729330508
 30
0.0
  0
POINT
  5
AE63
330
AA6F
100
AcDbEntity
  8
Defpoints
 62
     0
100
AcDbPoint
 10
512.1655984588215
 20
510.6580729330508
 30
0.0
  0
ENDBLK
  5
AA7A
330
AA6F
100
AcDbEntity
  8
0
 62
     3
100
AcDbBlockEnd
  0
BLOCK
  5
AA85
330
AA7B
100
AcDbEntity
  8
0
 62
     3
100
AcDbBlockBegin
  2
*D85
 70
     1
 10
0.0
 20
0.0
 30
0.0
  3
*D85
  1

  0
LINE
  5
AE52
330
AA7B
100
AcDbEntity
  8
実形
 62
     0
370
    18
100
AcDbLine
 10
565.5982939539208
 20
500.6580729330507
 30
0.0
 11
512.1655984588215
 21
500.6580729330507
 31
0.0
  0
LINE
  5
AE53
330
AA7B
100
AcDbEntity
  8
実形
 62
     0
370
    18
100
AcDbLine
 10
570.6802185117849
 20
715.6580729330508
 30
0.0
 11
512.1655984588215
 21
715.6580729330508
 31
0.0
  0
LINE
  5
AE54
330
AA7B
100
AcDbEntity
  8
実形
 62
     0
370
    18
100
AcDbLine
 10
512.1655984588215
 20
510.6580729330508
 30
0.0
 11
512.1655984588215
 21
705.6580729330509
 31
0.0
  0
MTEXT
  5
AE55
330
AA7B
100
AcDbEntity
  8
実形
 62
     0
100
AcDbMText
 10
492.520471066915
 20
515.2179794909334
 30
0.0
 40
25.0
 41
0.0
 71
     5
 72
     1
  1
8
 11
0.0000000000000001
 21
1.0
 31
0.0
 73
     1
 44
1.0
1001
ACAD
1000
MTEXTBEGIN
1070
    73
1070
     1
1070
    44
1040
1.0
1070
    74
1070
     0
1000
MTEXTEND
  0
INSERT
  5
AE56
330
AA7B
100
AcDbEntity
  8
実形
 62
     0
370
    18
100
AcDbBlockReference
  2
_Dot
 10
512.1655984588215
 20
500.6580729330507
 30
0.0
 41
10.0
 42
10.0
 43
10.0
 50
270.0
  0
INSERT
  5
AE57
330
AA7B
100
AcDbEntity
  8
実形
 62
     0
370
    18
100
AcDbBlockReference
  2
_Dot
 10
512.1655984588215
 20
715.6580729330508
 30
0.0
 41
10.0
 42
10.0
 43
10.0
 50
90.0
  0
POINT
  5
AE58
330
AA7B
100
AcDbEntity
  8
Defpoints
 62
     0
100
AcDbPoint
 10
630.5982939539208
 20
500.6580729330507
 30
0.0
  0
POINT
  5
AE59
330
AA7B
100
AcDbEntity
  8
Defpoints
 62
     0
100
AcDbPoint
 10
635.6802185117849
 20
715.6580729330508
 30
0.0
  0
POINT
  5
AE5A
330
AA7B
100
AcDbEntity
  8
Defpoints
 62
     0
100
AcDbPoint
 10
512.1655984588215
 20
715.6580729330508
 30
0.0
  0
ENDBLK
  5
AA86
330
AA7B
100
AcDbEntity
  8
0
 62
     3
100
AcDbBlockEnd
  0
BLOCK
  5
AA91
330
AA87
100
AcDbEntity
  8
0
 62
     3
100
AcDbBlockBegin
  2
*D86
 70
     1
 10
0.0
 20
0.0
 30
0.0
  3
*D86
  1

  0
LINE
  5
AE49
330
AA87
100
AcDbEntity
  8
実形
 62
     0
370
    18
100
AcDbLine
 10
507.5072779211151
 20
715.6580729330508
 30
0.0
 11
457.2751994869395
 21
715.6580729330508
 31
0.0
  0
LINE
  5
AE4A
330
AA87
100
AcDbEntity
  8
実形
 62
     0
370
    18
100
AcDbLine
 10
517.7993016229338
 20
500.6580729330507
 30
0.0
 11
457.2751994869395
 21
500.6580729330507
 31
0.0
  0
LINE
  5
AE4B
330
AA87
100
AcDbEntity
  8
実形
 62
     0
370
    18
100
AcDbLine
 10
457.2751994869395
 20
705.6580729330509
 30
0.0
 11
457.2751994869395
 21
510.6580729330507
 31
0.0
  0
MTEXT
  5
AE4C
330
AA87
100
AcDbEntity
  8
実形
 62
     0
100
AcDbMText
 10
431.2271855834897
 20
614.371334171702
 30
0.0
 40
25.0
 41
0.0
 71
     5
 72
     1
  1
213
 11
0.0000000000000001
 21
1.0
 31
0.0
 73
     1
 44
1.0
1001
ACAD
1000
MTEXTBEGIN
1070
    73
1070
     1
1070
    44
1040
1.0
1070
    74
1070
     0
1000
MTEXTEND
  0
INSERT
  5
AE4D
330
AA87
100
AcDbEntity
  8
実形
 62
     0
370
    18
100
AcDbBlockReference
  2
_Dot
 10
457.2751994869395
 20
715.6580729330508
 30
0.0
 41
10.0
 42
10.0
 43
10.0
 50
90.0
  0
INSERT
  5
AE4E
330
AA87
100
AcDbEntity
  8
実形
 62
     0
370
    18
100
AcDbBlockReference
  2
_Dot
 10
457.2751994869395
 20
500.6580729330507
 30
0.0
 41
10.0
 42
10.0
 43
10.0
 50
270.0
  0
POINT
  5
AE4F
330
AA87
100
AcDbEntity
  8
Defpoints
 62
     0
100
AcDbPoint
 10
572.507277921115
 20
715.6580729330508
 30
0.0
  0
POINT
  5
AE50
330
AA87
100
AcDbEntity
  8
Defpoints
 62
     0
100
AcDbPoint
 10
582.7993016229338
 20
500.6580729330507
 30
0.0
  0
POINT
  5
AE51
330
AA87
100
AcDbEntity
  8
Defpoints
 62
     0
100
AcDbPoint
 10
457.2751994869395
 20
500.6580729330507
 30
0.0
  0
ENDBLK
  5
AA92
330
AA87
100
AcDbEntity
  8
0
 62
     3
100
AcDbBlockEnd
  0
BLOCK
  5
AC83
330
AC79
100
AcDbEntity
  8
0
 62
     3
100
AcDbBlockBegin
  2
*D87
 70
     1
 10
0.0
 20
0.0
 30
0.0
  3
*D87
  1

  0
LINE
  5
B2E2
330
AC79
100
AcDbEntity
  8
実形
 62
     0
370
    18
100
AcDbLine
 10
1672.325595652257
 20
1119.654998595655
 30
0.0
 11
1672.325595652257
 21
1064.632201197999
 31
0.0
  0
LINE
  5
B2E3
330
AC79
100
AcDbEntity
  8
実形
 62
     0
370
    18
100
AcDbLine
 10
1927.325595652257
 20
1119.654998595655
 30
0.0
 11
1927.325595652257
 21
1064.632201197999
 31
0.0
  0
LINE
  5
B2E4
330
AC79
100
AcDbEntity
  8
実形
 62
     0
370
    18
100
AcDbLine
 10
1682.325595652257
 20
1064.632201197999
 30
0.0
 11
1917.325595652257
 21
1064.632201197999
 31
0.0
  0
INSERT
  5
B2E5
330
AC79
100
AcDbEntity
  8
実形
 62
     0
370
    18
100
AcDbBlockReference
  2
_Dot
 10
1672.325595652257
 20
1064.632201197999
 30
0.0
 41
10.0
 42
10.0
 43
10.0
 50
180.0
  0
INSERT
  5
B2E6
330
AC79
100
AcDbEntity
  8
実形
 62
     0
370
    18
100
AcDbBlockReference
  2
_Dot
 10
1927.325595652257
 20
1064.632201197999
 30
0.0
 41
10.0
 42
10.0
 43
10.0
  0
MTEXT
  5
B2E7
330
AC79
100
AcDbEntity
  8
実形
 62
     0
100
AcDbMText
 10
1799.825595652257
 20
1083.732201197999
 30
0.0
 40
25.0
 41
0.0
 71
     5
 72
     1
  1
240
 73
     1
 44
1.0
1001
ACAD
1000
MTEXTBEGIN
1070
    73
1070
     1
1070
    44
1040
1.0
1070
    74
1070
     0
1000
MTEXTEND
  0
POINT
  5
B2E8
330
AC79
100
AcDbEntity
  8
Defpoints
 62
     0
100
AcDbPoint
 10
1672.325595652257
 20
1184.654998595655
 30
0.0
  0
POINT
  5
B2E9
330
AC79
100
AcDbEntity
  8
Defpoints
 62
     0
100
AcDbPoint
 10
1927.325595652257
 20
1184.654998595655
 30
0.0
  0
POINT
  5
B2EA
330
AC79
100
AcDbEntity
  8
Defpoints
 62
     0
100
AcDbPoint
 10
1927.325595652257
 20
1064.632201197999
 30
0.0
  0
ENDBLK
  5
AC84
330
AC79
100
AcDbEntity
  8
0
 62
     3
100
AcDbBlockEnd
  0
BLOCK
  5
ACA3
330
AC99
100
AcDbEntity
  8
0
 62
     3
100
AcDbBlockBegin
  2
*D88
 70
     1
 10
0.0
 20
0.0
 30
0.0
  3
*D88
  1

  0
LINE
  5
B2C7
330
AC99
100
AcDbEntity
  8
実形
 62
     0
370
    18
100
AcDbLine
 10
1687.325595652257
 20
1119.178460662066
 30
0.0
 11
1687.325595652257
 21
1064.632201197999
 31
0.0
  0
LINE
  5
B2C8
330
AC99
100
AcDbEntity
  8
実形
 62
     0
370
    18
100
AcDbLine
 10
1927.325595652257
 20
1104.178460662066
 30
0.0
 11
1927.325595652257
 21
1064.632201197999
 31
0.0
  0
LINE
  5
B2C9
330
AC99
100
AcDbEntity
  8
実形
 62
     0
370
    18
100
AcDbLine
 10
1697.325595652257
 20
1064.632201197999
 30
0.0
 11
1917.325595652257
 21
1064.632201197999
 31
0.0
  0
MTEXT
  5
B2CA
330
AC99
100
AcDbEntity
  8
実形
 62
     0
100
AcDbMText
 10
1708.619853379788
 20
1083.732201197999
 30
0.0
 40
25.0
 41
0.0
 71
     5
 72
     1
  1
15
 73
     1
 44
1.0
1001
ACAD
1000
MTEXTBEGIN
1070
    73
1070
     1
1070
    44
1040
1.0
1070
    74
1070
     0
1000
MTEXTEND
  0
INSERT
  5
B2CB
330
AC99
100
AcDbEntity
  8
実形
 62
     0
370
    18
100
AcDbBlockReference
  2
_Dot
 10
1687.325595652257
 20
1064.632201197999
 30
0.0
 41
10.0
 42
10.0
 43
10.0
 50
180.0
  0
INSERT
  5
B2CC
330
AC99
100
AcDbEntity
  8
実形
 62
     0
370
    18
100
AcDbBlockReference
  2
_Dot
 10
1927.325595652257
 20
1064.632201197999
 30
0.0
 41
10.0
 42
10.0
 43
10.0
  0
POINT
  5
B2CD
330
AC99
100
AcDbEntity
  8
Defpoints
 62
     0
100
AcDbPoint
 10
1687.325595652257
 20
1184.178460662066
 30
0.0
  0
POINT
  5
B2CE
330
AC99
100
AcDbEntity
  8
Defpoints
 62
     0
100
AcDbPoint
 10
1927.325595652257
 20
1169.178460662066
 30
0.0
  0
POINT
  5
B2CF
330
AC99
100
AcDbEntity
  8
Defpoints
 62
     0
100
AcDbPoint
 10
1927.325595652257
 20
1064.632201197999
 30
0.0
  0
ENDBLK
  5
ACA4
330
AC99
100
AcDbEntity
  8
0
 62
     3
100
AcDbBlockEnd
  0
BLOCK
  5
ACEF
330
ACE5
100
AcDbEntity
  8
0
 62
     3
100
AcDbBlockBegin
  2
*D89
 70
     1
 10
0.0
 20
0.0
 30
0.0
  3
*D89
  1

  0
LINE
  5
B2BE
330
ACE5
100
AcDbEntity
  8
実形
 62
     0
370
    18
100
AcDbLine
 10
1672.325595652257
 20
1104.178460662066
 30
0.0
 11
1672.325595652257
 21
1009.632201197999
 31
0.0
  0
LINE
  5
B2BF
330
ACE5
100
AcDbEntity
  8
実形
 62
     0
370
    18
100
AcDbLine
 10
1927.325595652257
 20
1104.178460662066
 30
0.0
 11
1927.325595652257
 21
1009.632201197999
 31
0.0
  0
LINE
  5
B2C0
330
ACE5
100
AcDbEntity
  8
実形
 62
     0
370
    18
100
AcDbLine
 10
1682.325595652257
 20
1009.632201197999
 30
0.0
 11
1917.325595652257
 21
1009.632201197999
 31
0.0
  0
INSERT
  5
B2C1
330
ACE5
100
AcDbEntity
  8
実形
 62
     0
370
    18
100
AcDbBlockReference
  2
_Dot
 10
1672.325595652257
 20
1009.632201197999
 30
0.0
 41
10.0
 42
10.0
 43
10.0
 50
180.0
  0
INSERT
  5
B2C2
330
ACE5
100
AcDbEntity
  8
実形
 62
     0
370
    18
100
AcDbBlockReference
  2
_Dot
 10
1927.325595652257
 20
1009.632201197999
 30
0.0
 41
10.0
 42
10.0
 43
10.0
  0
MTEXT
  5
B2C3
330
ACE5
100
AcDbEntity
  8
実形
 62
     0
100
AcDbMText
 10
1799.825595652257
 20
1028.732201197999
 30
0.0
 40
25.0
 41
0.0
 71
     5
 72
     1
  1
255
 73
     1
 44
1.0
1001
ACAD
1000
MTEXTBEGIN
1070
    73
1070
     1
1070
    44
1040
1.0
1070
    74
1070
     0
1000
MTEXTEND
  0
POINT
  5
B2C4
330
ACE5
100
AcDbEntity
  8
Defpoints
 62
     0
100
AcDbPoint
 10
1672.325595652257
 20
1169.178460662066
 30
0.0
  0
POINT
  5
B2C5
330
ACE5
100
AcDbEntity
  8
Defpoints
 62
     0
100
AcDbPoint
 10
1927.325595652257
 20
1169.178460662066
 30
0.0
  0
POINT
  5
B2C6
330
ACE5
100
AcDbEntity
  8
Defpoints
 62
     0
100
AcDbPoint
 10
1927.325595652257
 20
1009.632201197999
 30
0.0
  0
ENDBLK
  5
ACF0
330
ACE5
100
AcDbEntity
  8
0
 62
     3
100
AcDbBlockEnd
  0
BLOCK
  5
AD05
330
ACFB
100
AcDbEntity
  8
0
 62
     3
100
AcDbBlockBegin
  2
*D90
 70
     1
 10
0.0
 20
0.0
 30
0.0
  3
*D90
  1

  0
LINE
  5
B2B5
330
ACFB
100
AcDbEntity
  8
実形
 62
     0
370
    18
100
AcDbLine
 10
1937.325595652257
 20
1059.978003630394
 30
0.0
 11
1937.325595652257
 21
1009.632201197999
 31
0.0
  0
LINE
  5
B2B6
330
ACFB
100
AcDbEntity
  8
実形
 62
     0
370
    18
100
AcDbLine
 10
1672.325595652257
 20
1104.178460662066
 30
0.0
 11
1672.325595652257
 21
1009.632201197999
 31
0.0
  0
LINE
  5
B2B7
330
ACFB
100
AcDbEntity
  8
実形
 62
     0
370
    18
100
AcDbLine
 10
1927.325595652257
 20
1009.632201197999
 30
0.0
 11
1682.325595652257
 21
1009.632201197999
 31
0.0
  0
MTEXT
  5
B2B8
330
ACFB
100
AcDbEntity
  8
実形
 62
     0
100
AcDbMText
 10
1960.881962214171
 20
1028.732201197999
 30
0.0
 40
25.0
 41
0.0
 71
     5
 72
     1
  1
10
 73
     1
 44
1.0
1001
ACAD
1000
MTEXTBEGIN
1070
    73
1070
     1
1070
    44
1040
1.0
1070
    74
1070
     0
1000
MTEXTEND
  0
INSERT
  5
B2B9
330
ACFB
100
AcDbEntity
  8
実形
 62
     0
370
    18
100
AcDbBlockReference
  2
_Dot
 10
1937.325595652257
 20
1009.632201197999
 30
0.0
 41
10.0
 42
10.0
 43
10.0
  0
INSERT
  5
B2BA
330
ACFB
100
AcDbEntity
  8
実形
 62
     0
370
    18
100
AcDbBlockReference
  2
_Dot
 10
1672.325595652257
 20
1009.632201197999
 30
0.0
 41
10.0
 42
10.0
 43
10.0
 50
180.0
  0
POINT
  5
B2BB
330
ACFB
100
AcDbEntity
  8
Defpoints
 62
     0
100
AcDbPoint
 10
1937.325595652257
 20
1124.978003630394
 30
0.0
  0
POINT
  5
B2BC
330
ACFB
100
AcDbEntity
  8
Defpoints
 62
     0
100
AcDbPoint
 10
1672.325595652257
 20
1169.178460662066
 30
0.0
  0
POINT
  5
B2BD
330
ACFB
100
AcDbEntity
  8
Defpoints
 62
     0
100
AcDbPoint
 10
1672.325595652257
 20
1009.632201197999
 30
0.0
  0
ENDBLK
  5
AD06
330
ACFB
100
AcDbEntity
  8
0
 62
     3
100
AcDbBlockEnd
  0
BLOCK
  5
AD51
330
AD47
100
AcDbEntity
  8
0
 62
     3
100
AcDbBlockBegin
  2
*D91
 70
     1
 10
0.0
 20
0.0
 30
0.0
  3
*D91
  1

  0
LINE
  5
B2AC
330
AD47
100
AcDbEntity
  8
実形
 62
     0
370
    18
100
AcDbLine
 10
1672.325595652257
 20
1054.178460662065
 30
0.0
 11
1672.325595652257
 21
954.6322011979988
 31
0.0
  0
LINE
  5
B2AD
330
AD47
100
AcDbEntity
  8
実形
 62
     0
370
    18
100
AcDbLine
 10
1937.325595652257
 20
1011.091623730012
 30
0.0
 11
1937.325595652257
 21
954.6322011979988
 31
0.0
  0
LINE
  5
B2AE
330
AD47
100
AcDbEntity
  8
実形
 62
     0
370
    18
100
AcDbLine
 10
1682.325595652257
 20
954.6322011979988
 30
0.0
 11
1927.325595652257
 21
954.6322011979988
 31
0.0
  0
INSERT
  5
B2AF
330
AD47
100
AcDbEntity
  8
実形
 62
     0
370
    18
100
AcDbBlockReference
  2
_Dot
 10
1672.325595652257
 20
954.6322011979988
 30
0.0
 41
10.0
 42
10.0
 43
10.0
 50
180.0
  0
INSERT
  5
B2B0
330
AD47
100
AcDbEntity
  8
実形
 62
     0
370
    18
100
AcDbBlockReference
  2
_Dot
 10
1937.325595652257
 20
954.6322011979988
 30
0.0
 41
10.0
 42
10.0
 43
10.0
  0
MTEXT
  5
B2B1
330
AD47
100
AcDbEntity
  8
実形
 62
     0
100
AcDbMText
 10
1804.825595652257
 20
973.7322011979989
 30
0.0
 40
25.0
 41
0.0
 71
     5
 72
     1
  1
265
 73
     1
 44
1.0
1001
ACAD
1000
MTEXTBEGIN
1070
    73
1070
     1
1070
    44
1040
1.0
1070
    74
1070
     0
1000
MTEXTEND
  0
POINT
  5
B2B2
330
AD47
100
AcDbEntity
  8
Defpoints
 62
     0
100
AcDbPoint
 10
1672.325595652257
 20
1119.178460662065
 30
0.0
  0
POINT
  5
B2B3
330
AD47
100
AcDbEntity
  8
Defpoints
 62
     0
100
AcDbPoint
 10
1937.325595652257
 20
1076.091623730012
 30
0.0
  0
POINT
  5
B2B4
330
AD47
100
AcDbEntity
  8
Defpoints
 62
     0
100
AcDbPoint
 10
1937.325595652257
 20
954.6322011979988
 30
0.0
  0
ENDBLK
  5
AD52
330
AD47
100
AcDbEntity
  8
0
 62
     3
100
AcDbBlockEnd
  0
BLOCK
  5
AD72
330
AD68
100
AcDbEntity
  8
0
 62
     3
100
AcDbBlockBegin
  2
*D92
 70
     1
 10
0.0
 20
0.0
 30
0.0
  3
*D92
  1

  0
LINE
  5
B351
330
AD68
100
AcDbEntity
  8
実形
 62
     0
370
    18
100
AcDbLine
 10
1672.325595652257
 20
1104.178460662066
 30
0.0
 11
1672.325595652257
 21
954.6322011979988
 31
0.0
  0
LINE
  5
B352
330
AD68
100
AcDbEntity
  8
実形
 62
     0
370
    18
100
AcDbLine
 10
1947.325595652257
 20
1007.972521801928
 30
0.0
 11
1947.325595652257
 21
954.6322011979988
 31
0.0
  0
LINE
  5
B353
330
AD68
100
AcDbEntity
  8
実形
 62
     0
370
    18
100
AcDbLine
 10
1682.325595652257
 20
954.6322011979988
 30
0.0
 11
1937.325595652257
 21
954.6322011979988
 31
0.0
  0
MTEXT
  5
B354
330
AD68
100
AcDbEntity
  8
実形
 62
     0
100
AcDbMText
 10
1963.441714956481
 20
973.7322011979989
 30
0.0
 40
25.0
 41
0.0
 71
     5
 72
     1
  1
6
 73
     1
 44
1.0
1001
ACAD
1000
MTEXTBEGIN
1070
    73
1070
     1
1070
    44
1040
1.0
1070
    74
1070
     0
1000
MTEXTEND
  0
INSERT
  5
B355
330
AD68
100
AcDbEntity
  8
実形
 62
     0
370
    18
100
AcDbBlockReference
  2
_Dot
 10
1672.325595652257
 20
954.6322011979988
 30
0.0
 41
10.0
 42
10.0
 43
10.0
 50
180.0
  0
INSERT
  5
B356
330
AD68
100
AcDbEntity
  8
実形
 62
     0
370
    18
100
AcDbBlockReference
  2
_Dot
 10
1947.325595652257
 20
954.6322011979988
 30
0.0
 41
10.0
 42
10.0
 43
10.0
  0
POINT
  5
B357
330
AD68
100
AcDbEntity
  8
Defpoints
 62
     0
100
AcDbPoint
 10
1672.325595652257
 20
1169.178460662066
 30
0.0
  0
POINT
  5
B358
330
AD68
100
AcDbEntity
  8
Defpoints
 62
     0
100
AcDbPoint
 10
1947.325595652257
 20
1072.972521801928
 30
0.0
  0
POINT
  5
B359
330
AD68
100
AcDbEntity
  8
Defpoints
 62
     0
100
AcDbPoint
 10
1947.325595652257
 20
954.6322011979988
 30
0.0
  0
ENDBLK
  5
AD73
330
AD68
100
AcDbEntity
  8
0
 62
     3
100
AcDbBlockEnd
  0
BLOCK
  5
ADA3
330
AD99
100
AcDbEntity
  8
0
 62
     3
100
AcDbBlockBegin
  2
*D93
 70
     1
 10
0.0
 20
0.0
 30
0.0
  3
*D93
  1

  0
LINE
  5
B35A
330
AD99
100
AcDbEntity
  8
実形
 62
     0
370
    18
100
AcDbLine
 10
1672.325595652257
 20
1104.178460662066
 30
0.0
 11
1672.325595652257
 21
899.6322011979987
 31
0.0
  0
LINE
  5
B35B
330
AD99
100
AcDbEntity
  8
実形
 62
     0
370
    18
100
AcDbLine
 10
1947.325595652257
 20
952.6614924796003
 30
0.0
 11
1947.325595652257
 21
899.6322011979987
 31
0.0
  0
LINE
  5
B35C
330
AD99
100
AcDbEntity
  8
実形
 62
     0
370
    18
100
AcDbLine
 10
1682.325595652257
 20
899.6322011979987
 30
0.0
 11
1937.325595652257
 21
899.6322011979987
 31
0.0
  0
INSERT
  5
B35D
330
AD99
100
AcDbEntity
  8
実形
 62
     0
370
    18
100
AcDbBlockReference
  2
_Dot
 10
1672.325595652257
 20
899.6322011979987
 30
0.0
 41
10.0
 42
10.0
 43
10.0
 50
180.0
  0
INSERT
  5
B35E
330
AD99
100
AcDbEntity
  8
実形
 62
     0
370
    18
100
AcDbBlockReference
  2
_Dot
 10
1947.325595652257
 20
899.6322011979987
 30
0.0
 41
10.0
 42
10.0
 43
10.0
  0
MTEXT
  5
B35F
330
AD99
100
AcDbEntity
  8
実形
 62
     0
100
AcDbMText
 10
1809.825595652257
 20
918.7322011979988
 30
0.0
 40
25.0
 41
0.0
 71
     5
 72
     1
  1
271
 73
     1
 44
1.0
1001
ACAD
1000
MTEXTBEGIN
1070
    73
1070
     1
1070
    44
1040
1.0
1070
    74
1070
     0
1000
MTEXTEND
  0
POINT
  5
B360
330
AD99
100
AcDbEntity
  8
Defpoints
 62
     0
100
AcDbPoint
 10
1672.325595652257
 20
1169.178460662066
 30
0.0
  0
POINT
  5
B361
330
AD99
100
AcDbEntity
  8
Defpoints
 62
     0
100
AcDbPoint
 10
1947.325595652257
 20
1017.6614924796
 30
0.0
  0
POINT
  5
B362
330
AD99
100
AcDbEntity
  8
Defpoints
 62
     0
100
AcDbPoint
 10
1947.325595652257
 20
899.6322011979987
 30
0.0
  0
ENDBLK
  5
ADA4
330
AD99
100
AcDbEntity
  8
0
 62
     3
100
AcDbBlockEnd
  0
BLOCK
  5
AF48
330
AF3E
100
AcDbEntity
  8
0
 62
     3
100
AcDbBlockBegin
  2
*D94
 70
     1
 10
0.0
 20
0.0
 30
0.0
  3
*D94
  1

  0
LINE
  5
B32C
330
AF3E
100
AcDbEntity
  8
実形
 62
     0
370
    18
100
AcDbLine
 10
1776.403252109689
 20
715.6580729330507
 30
0.0
 11
1821.403252109689
 21
715.6580729330507
 31
0.0
  0
LINE
  5
B32D
330
AF3E
100
AcDbEntity
  8
実形
 62
     0
370
    18
100
AcDbLine
 10
1771.418381063886
 20
440.6580729330507
 30
0.0
 11
1821.403252109689
 21
440.6580729330507
 31
0.0
  0
LINE
  5
B32E
330
AF3E
100
AcDbEntity
  8
実形
 62
     0
370
    18
100
AcDbLine
 10
1821.403252109689
 20
705.6580729330506
 30
0.0
 11
1821.403252109689
 21
450.6580729330506
 31
0.0
  0
MTEXT
  5
B32F
330
AF3E
100
AcDbEntity
  8
実形
 62
     0
100
AcDbMText
 10
1802.303252109689
 20
422.7106920143706
 30
0.0
 40
25.0
 41
0.0
 71
     5
 72
     1
  1
6
 11
0.0000000000000001
 21
1.0
 31
0.0
 73
     1
 44
1.0
1001
ACAD
1000
MTEXTBEGIN
1070
    73
1070
     1
1070
    44
1040
1.0
1070
    74
1070
     0
1000
MTEXTEND
  0
INSERT
  5
B330
330
AF3E
100
AcDbEntity
  8
実形
 62
     0
370
    18
100
AcDbBlockReference
  2
_Dot
 10
1821.403252109689
 20
715.6580729330507
 30
0.0
 41
10.0
 42
10.0
 43
10.0
 50
90.0
  0
INSERT
  5
B331
330
AF3E
100
AcDbEntity
  8
実形
 62
     0
370
    18
100
AcDbBlockReference
  2
_Dot
 10
1821.403252109689
 20
440.6580729330507
 30
0.0
 41
10.0
 42
10.0
 43
10.0
 50
270.0
  0
POINT
  5
B332
330
AF3E
100
AcDbEntity
  8
Defpoints
 62
     0
100
AcDbPoint
 10
1711.403252109689
 20
715.6580729330507
 30
0.0
  0
POINT
  5
B333
330
AF3E
100
AcDbEntity
  8
Defpoints
 62
     0
100
AcDbPoint
 10
1706.418381063886
 20
440.6580729330507
 30
0.0
  0
POINT
  5
B334
330
AF3E
100
AcDbEntity
  8
Defpoints
 62
     0
100
AcDbPoint
 10
1821.403252109689
 20
440.6580729330507
 30
0.0
  0
ENDBLK
  5
AF49
330
AF3E
100
AcDbEntity
  8
0
 62
     3
100
AcDbBlockEnd
  0
BLOCK
  5
AF9D
330
AF93
100
AcDbEntity
  8
0
 62
     3
100
AcDbBlockBegin
  2
*D95
 70
     1
 10
0.0
 20
0.0
 30
0.0
  3
*D95
  1

  0
LINE
  5
B335
330
AF93
100
AcDbEntity
  8
実形
 62
     0
370
    18
100
AcDbLine
 10
1776.403252109689
 20
715.6580729330507
 30
0.0
 11
1877.648406070939
 21
715.6580729330507
 31
0.0
  0
LINE
  5
B336
330
AF93
100
AcDbEntity
  8
実形
 62
     0
370
    18
100
AcDbLine
 10
1784.367300745767
 20
440.6580729330507
 30
0.0
 11
1877.648406070939
 21
440.6580729330507
 31
0.0
  0
LINE
  5
B337
330
AF93
100
AcDbEntity
  8
実形
 62
     0
370
    18
100
AcDbLine
 10
1877.648406070939
 20
705.6580729330506
 30
0.0
 11
1877.648406070939
 21
450.6580729330506
 31
0.0
  0
MTEXT
  5
B338
330
AF93
100
AcDbEntity
  8
実形
 62
     0
100
AcDbMText
 10
1858.548406070939
 20
554.9791453667794
 30
0.0
 40
25.0
 41
0.0
 71
     5
 72
     1
  1
271
 11
0.0000000000000001
 21
1.0
 31
0.0
 73
     1
 44
1.0
1001
ACAD
1000
MTEXTBEGIN
1070
    73
1070
     1
1070
    44
1040
1.0
1070
    74
1070
     0
1000
MTEXTEND
  0
INSERT
  5
B339
330
AF93
100
AcDbEntity
  8
実形
 62
     0
370
    18
100
AcDbBlockReference
  2
_Dot
 10
1877.648406070939
 20
715.6580729330507
 30
0.0
 41
10.0
 42
10.0
 43
10.0
 50
90.0
  0
INSERT
  5
B33A
330
AF93
100
AcDbEntity
  8
実形
 62
     0
370
    18
100
AcDbBlockReference
  2
_Dot
 10
1877.648406070939
 20
440.6580729330507
 30
0.0
 41
10.0
 42
10.0
 43
10.0
 50
270.0
  0
POINT
  5
B33B
330
AF93
100
AcDbEntity
  8
Defpoints
 62
     0
100
AcDbPoint
 10
1711.403252109689
 20
715.6580729330507
 30
0.0
  0
POINT
  5
B33C
330
AF93
100
AcDbEntity
  8
Defpoints
 62
     0
100
AcDbPoint
 10
1719.367300745767
 20
440.6580729330507
 30
0.0
  0
POINT
  5
B33D
330
AF93
100
AcDbEntity
  8
Defpoints
 62
     0
100
AcDbPoint
 10
1877.648406070939
 20
440.6580729330507
 30
0.0
  0
ENDBLK
  5
AF9E
330
AF93
100
AcDbEntity
  8
0
 62
     3
100
AcDbBlockEnd
  0
BLOCK
  5
AFE1
330
AFD7
100
AcDbEntity
  8
0
 62
     3
100
AcDbBlockBegin
  2
*D96
 70
     1
 10
0.0
 20
0.0
 30
0.0
  3
*D96
  1

  0
LINE
  5
AFEC
330
AFD7
100
AcDbEntity
  8
実形
 62
     0
370
    18
100
AcDbLine
 10
1580.58389079445
 20
1564.178460662065
 30
0.0
 11
1620.680376831284
 21
1564.178460662065
 31
0.0
  0
LINE
  5
AFED
330
AFD7
100
AcDbEntity
  8
実形
 62
     0
370
    18
100
AcDbLine
 10
1580.583890794451
 20
1624.178460662065
 30
0.0
 11
1620.680376831284
 21
1624.178460662065
 31
0.0
  0
LINE
  5
AFEE
330
AFD7
100
AcDbEntity
  8
実形
 62
     0
370
    18
100
AcDbLine
 10
1620.680376831284
 20
1574.178460662065
 30
0.0
 11
1620.680376831284
 21
1614.178460662065
 31
0.0
  0
INSERT
  5
AFEF
330
AFD7
100
AcDbEntity
  8
実形
 62
     0
370
    18
100
AcDbBlockReference
  2
_Dot
 10
1620.680376831284
 20
1564.178460662065
 30
0.0
 41
10.0
 42
10.0
 43
10.0
 50
270.0
  0
INSERT
  5
AFF0
330
AFD7
100
AcDbEntity
  8
実形
 62
     0
370
    18
100
AcDbBlockReference
  2
_Dot
 10
1620.680376831284
 20
1624.178460662065
 30
0.0
 41
10.0
 42
10.0
 43
10.0
 50
90.0
  0
MTEXT
  5
AFF1
330
AFD7
100
AcDbEntity
  8
実形
 62
     0
100
AcDbMText
 10
1601.580376831283
 20
1594.178460662066
 30
0.0
 40
25.0
 41
0.0
 71
     5
 72
     1
  1
60
 11
0.0000000000000001
 21
1.0
 31
0.0
 73
     1
 44
1.0
1001
ACAD
1000
MTEXTBEGIN
1070
    73
1070
     1
1070
    44
1040
1.0
1070
    74
1070
     0
1000
MTEXTEND
  0
POINT
  5
AFF2
330
AFD7
100
AcDbEntity
  8
Defpoints
 62
     0
100
AcDbPoint
 10
1515.58389079445
 20
1564.178460662066
 30
0.0
  0
POINT
  5
AFF3
330
AFD7
100
AcDbEntity
  8
Defpoints
 62
     0
100
AcDbPoint
 10
1515.583890794451
 20
1624.178460662066
 30
0.0
  0
POINT
  5
AFF4
330
AFD7
100
AcDbEntity
  8
Defpoints
 62
     0
100
AcDbPoint
 10
1620.680376831284
 20
1624.178460662065
 30
0.0
  0
ENDBLK
  5
AFE2
330
AFD7
100
AcDbEntity
  8
0
 62
     3
100
AcDbBlockEnd
  0
BLOCK
  5
B101
330
B0F7
100
AcDbEntity
  8
0
 62
     3
100
AcDbBlockBegin
  2
*D97
 70
     1
 10
0.0
 20
0.0
 30
0.0
  3
*D97
  1

  0
LINE
  5
B291
330
B0F7
100
AcDbEntity
  8
実形
 62
     0
370
    18
100
AcDbLine
 10
1990.567160043129
 20
1586.428460662065
 30
0.0
 11
2021.778344026119
 21
1586.428460662065
 31
0.0
  0
LINE
  5
B292
330
B0F7
100
AcDbEntity
  8
実形
 62
     0
370
    18
100
AcDbLine
 10
1990.567160043129
 20
1541.928460662066
 30
0.0
 11
2021.778344026119
 21
1541.928460662066
 31
0.0
  0
LINE
  5
B293
330
B0F7
100
AcDbEntity
  8
実形
 62
     0
370
    18
100
AcDbLine
 10
2021.778344026119
 20
1576.428460662065
 30
0.0
 11
2021.778344026119
 21
1551.928460662066
 31
0.0
  0
MTEXT
  5
B294
330
B0F7
100
AcDbEntity
  8
実形
 62
     0
100
AcDbMText
 10
2062.861819787198
 20
1564.178460662066
 30
0.0
 40
25.0
 41
0.0
 71
     5
 72
     1
  1
44.5
 11
0.0000000000000001
 21
1.0
 31
0.0
 73
     1
 44
1.0
1001
ACAD
1000
MTEXTBEGIN
1070
    73
1070
     1
1070
    44
1040
1.0
1070
    74
1070
     0
1000
MTEXTEND
  0
INSERT
  5
B295
330
B0F7
100
AcDbEntity
  8
実形
 62
     0
370
    18
100
AcDbBlockReference
  2
_Dot
 10
2021.778344026119
 20
1586.428460662065
 30
0.0
 41
10.0
 42
10.0
 43
10.0
 50
90.0
  0
INSERT
  5
B296
330
B0F7
100
AcDbEntity
  8
実形
 62
     0
370
    18
100
AcDbBlockReference
  2
_Dot
 10
2021.778344026119
 20
1541.928460662066
 30
0.0
 41
10.0
 42
10.0
 43
10.0
 50
270.0
  0
POINT
  5
B297
330
B0F7
100
AcDbEntity
  8
Defpoints
 62
     0
100
AcDbPoint
 10
1925.567160043129
 20
1586.428460662065
 30
0.0
  0
POINT
  5
B298
330
B0F7
100
AcDbEntity
  8
Defpoints
 62
     0
100
AcDbPoint
 10
1925.567160043129
 20
1541.928460662066
 30
0.0
  0
POINT
  5
B299
330
B0F7
100
AcDbEntity
  8
Defpoints
 62
     0
100
AcDbPoint
 10
2021.778344026119
 20
1541.928460662066
 30
0.0
  0
ENDBLK
  5
B102
330
B0F7
100
AcDbEntity
  8
0
 62
     3
100
AcDbBlockEnd
  0
ENDSEC
  0
SECTION
  2
ENTITIES
  0
LINE
  5
9C
330
1F
100
AcDbEntity
  8
実形
 62
     0
100
AcDbLine
 10
174.0
 20
3.99999999999909
 30
0.0
 11
2834.0
 21
3.99999999999909
 31
0.0
  0
LINE
  5
A0
330
1F
100
AcDbEntity
  8
枠
 62
     0
100
AcDbLine
 10
2834.0
 20
2023.999999999999
 30
0.0
 11
174.0
 21
2023.999999999999
 31
0.0
  0
LINE
  5
272
330
1F
100
AcDbEntity
  8
実形
 62
     0
100
AcDbLine
 10
2234.0
 20
133.9999999999991
 30
0.0
 11
2234.0
 21
198.9999999999991
 31
0.0
  0
LINE
  5
1B73
330
1F
100
AcDbEntity
  8
枠
 62
     0
100
AcDbLine
 10
1944.0
 20
2023.999999999999
 30
0.0
 11
2834.0
 21
2023.999999999999
 31
0.0
  0
LINE
  5
1B84
330
1F
100
AcDbEntity
  8
実形
 62
     0
100
AcDbLine
 10
2114.0
 20
68.99999999999909
 30
0.0
 11
2834.0
 21
68.99999999999909
 31
0.0
  0
LINE
  5
1B85
330
1F
100
AcDbEntity
  8
実形
 62
     0
100
AcDbLine
 10
2114.0
 20
198.9999999999991
 30
0.0
 11
2834.0
 21
198.9999999999991
 31
0.0
  0
LINE
  5
1B86
330
1F
100
AcDbEntity
  8
実形
 62
     0
100
AcDbLine
 10
2114.0
 20
133.9999999999991
 30
0.0
 11
2834.0
 21
133.9999999999991
 31
0.0
  0
LINE
  5
1B87
330
1F
100
AcDbEntity
  8
実形
 62
     0
100
AcDbLine
 10
2114.0
 20
3.99999999999909
 30
0.0
 11
2114.0
 21
198.9999999999991
 31
0.0
  0
LINE
  5
1B8A
330
1F
100
AcDbEntity
  8
実形
 62
     0
100
AcDbLine
 10
2234.0
 20
68.99999999999909
 30
0.0
 11
2834.0
 21
68.99999999999909
 31
0.0
  0
LINE
  5
1B8B
102
{ACAD_REACTORS
330
1B98
102
}
330
1F
100
AcDbEntity
  8
実形
 62
     0
370
     5
100
AcDbLine
 10
2257.843923164362
 20
40.53787547858428
 30
0.0
 11
2233.255774665348
 21
40.53787547858428
 31
0.0
  0
LINE
  5
1B8C
102
{ACAD_REACTORS
330
1B98
102
}
330
1F
100
AcDbEntity
  8
実形
 62
     0
370
     5
100
AcDbLine
 10
2233.255774665348
 20
40.53787547858428
 30
0.0
 11
2233.255774665348
 21
30.53787547858429
 31
0.0
  0
LINE
  5
1B8D
102
{ACAD_REACTORS
330
1B98
102
}
330
1F
100
AcDbEntity
  8
実形
 62
     0
370
     5
100
AcDbLine
 10
2233.255774665348
 20
30.53787547858429
 30
0.0
 11
2257.346428692676
 21
30.53787547858429
 31
0.0
  0
LINE
  5
1B8E
102
{ACAD_REACTORS
330
1B98
102
}
330
1F
100
AcDbEntity
  8
実形
 62
     0
370
     5
100
AcDbLine
 10
2260.641894042939
 20
56.49999999999909
 30
0.0
 11
2260.641894042939
 21
16.49999999999909
 31
0.0
  0
LINE
  5
1B8F
102
{ACAD_REACTORS
330
1B98
102
}
330
1F
100
AcDbEntity
  8
実形
 62
     0
370
     5
100
AcDbLine
 10
2260.641894042939
 20
16.49999999999909
 30
0.0
 11
2295.641894042939
 21
16.49999999999909
 31
0.0
  0
LINE
  5
1B90
102
{ACAD_REACTORS
330
1B98
102
}
330
1F
100
AcDbEntity
  8
実形
 62
     0
370
     5
100
AcDbLine
 10
2295.641894042939
 20
16.49999999999909
 30
0.0
 11
2260.641894042939
 21
36.49999999999909
 31
0.0
  0
LINE
  5
1B91
102
{ACAD_REACTORS
330
1B98
102
}
330
1F
100
AcDbEntity
  8
実形
 62
     0
370
     5
100
AcDbLine
 10
2260.641894042939
 20
36.49999999999909
 30
0.0
 11
2295.641894042939
 21
56.49999999999909
 31
0.0
  0
LINE
  5
1B92
102
{ACAD_REACTORS
330
1B98
102
}
330
1F
100
AcDbEntity
  8
実形
 62
     0
370
     5
100
AcDbLine
 10
2295.641894042939
 20
56.49999999999909
 30
0.0
 11
2260.641894042939
 21
56.49999999999909
 31
0.0
  0
LINE
  5
1B93
102
{ACAD_REACTORS
330
1B98
102
}
330
1F
100
AcDbEntity
  8
実形
 62
     0
370
     5
100
AcDbLine
 10
2326.75434681301
 20
40.53787547858428
 30
0.0
 11
2302.166198313996
 21
40.53787547858428
 31
0.0
  0
LINE
  5
1B94
102
{ACAD_REACTORS
330
1B98
102
}
330
1F
100
AcDbEntity
  8
実形
 62
     0
370
     5
100
AcDbLine
 10
2302.166198313996
 20
40.53787547858428
 30
0.0
 11
2302.166198313996
 21
30.53787547858429
 31
0.0
  0
LINE
  5
1B95
102
{ACAD_REACTORS
330
1B98
102
}
330
1F
100
AcDbEntity
  8
実形
 62
     0
370
     5
100
AcDbLine
 10
2302.166198313996
 20
30.53787547858429
 30
0.0
 11
2326.256852341323
 21
30.53787547858429
 31
0.0
  0
ARC
  5
1B96
102
{ACAD_REACTORS
330
1B98
102
}
330
1F
100
AcDbEntity
  8
実形
 62
     0
370
     5
100
AcDbCircle
 10
2238.255774665347
 20
36.49999999999909
 30
0.0
 40
20.0
100
AcDbArc
 50
11.64772366708617
 51
342.6561058784773
  0
ARC
  5
1B97
102
{ACAD_REACTORS
330
1B98
102
}
330
1F
100
AcDbEntity
  8
実形
 62
     0
370
     5
100
AcDbCircle
 10
2307.166198313995
 20
36.49999999999909
 30
0.0
 40
20.0
100
AcDbArc
 50
11.64772366708617
 51
342.6561058784773
  0
HATCH
  5
1B98
330
1F
100
AcDbEntity
  8
実形
 62
     0
100
AcDbHatch
 10
0.0
 20
0.0
 30
0.0
210
0.0
220
0.0
230
1.0
  2
SOLID
 70
     1
 71
     1
 91
        3
 92
        1
 93
        4
 72
     2
 10
2307.166198313995
 20
36.49999999999909
 40
20.0
 50
11.64772366708617
 51
342.6561058784773
 73
     1
 72
     1
 10
2326.256852341323
 20
30.53787547858429
 11
2302.166198313996
 21
30.53787547858429
 72
     1
 10
2302.166198313996
 20
30.53787547858429
 11
2302.166198313996
 21
40.53787547858428
 72
     1
 10
2302.166198313996
 20
40.53787547858428
 11
2326.75434681301
 21
40.53787547858428
 97
        4
330
1B97
330
1B95
330
1B94
330
1B93
 92
        1
 93
        4
 72
     2
 10
2238.255774665347
 20
36.49999999999909
 40
20.0
 50
11.64772366708617
 51
342.6561058784773
 73
     1
 72
     1
 10
2257.346428692676
 20
30.53787547858429
 11
2233.255774665348
 21
30.53787547858429
 72
     1
 10
2233.255774665348
 20
30.53787547858429
 11
2233.255774665348
 21
40.53787547858428
 72
     1
 10
2233.255774665348
 20
40.53787547858428
 11
2257.843923164362
 21
40.53787547858428
 97
        4
330
1B96
330
1B8D
330
1B8C
330
1B8B
 92
        1
 93
        5
 72
     1
 10
2295.641894042939
 20
56.49999999999909
 11
2260.641894042939
 21
56.49999999999909
 72
     1
 10
2260.641894042939
 20
56.49999999999909
 11
2260.641894042939
 21
16.49999999999909
 72
     1
 10
2260.641894042939
 20
16.49999999999909
 11
2295.641894042939
 21
16.49999999999909
 72
     1
 10
2295.641894042939
 20
16.49999999999909
 11
2260.641894042939
 21
36.49999999999909
 72
     1
 10
2260.641894042939
 20
36.49999999999909
 11
2295.641894042939
 21
56.49999999999909
 97
        5
330
1B92
330
1B8E
330
1B8F
330
1B90
330
1B91
 75
     0
 76
     1
 98
        1
 10
-10.0
 20
-0.0000000000009095
  0
LINE
  5
1B99
330
1F
100
AcDbEntity
  8
実形
 62
     0
100
AcDbLine
 10
2234.0
 20
68.99999999999909
 30
0.0
 11
2234.0
 21
198.9999999999991
 31
0.0
  0
TEXT
  5
5E5F
330
1F
100
AcDbEntity
  8
実形
 62
     0
100
AcDbText
 10
2136.666666666667
 20
83.99999999999909
 30
0.0
 40
35.0
  1
尺度
 72
     4
 11
2174.0
 21
101.4999999999991
 31
0.0
100
AcDbText
  0
TEXT
  5
5E68
330
1F
100
AcDbEntity
  8
実形
 62
     0
100
AcDbText
 10
2136.666666666667
 20
148.9999999999991
 30
0.0
 40
35.0
  1
品番
 72
     4
 11
2174.0
 21
166.4999999999991
 31
0.0
100
AcDbText
  0
TEXT
  5
68BC
330
1F
100
AcDbEntity
  8
実形
100
AcDbText
 10
2452.398110327865
 20
87.12524385046025
 30
0.0
 40
30.0
  1
1：10
  7
ms明朝
 72
     4
 11
2507.255253185007
 21
101.7823867076031
 31
0.0
100
AcDbText
  0
TEXT
  5
68D6
330
1F
100
AcDbEntity
  8
実形
100
AcDbText
 10
2324.923416501719
 20
152.0605824285103
 30
0.0
 40
30.0
  1
RaS800-460KD-SPR
  7
ms明朝
 72
     4
 11
2500.466273644576
 21
166.7177252856531
 31
0.0
100
AcDbText
  0
LINE
  5
6D9B
330
1F
100
AcDbEntity
  8
実形
 62
     0
100
AcDbLine
 10
2834.0
 20
4.0
 30
0.0
 11
2834.0
 21
2024.0
 31
0.0
  0
LINE
  5
6E31
330
1F
100
AcDbEntity
  8
実形
 62
     0
100
AcDbLine
 10
174.0
 20
2024.0
 30
0.0
 11
174.0
 21
4.0
 31
0.0
  0
LINE
  5
7026
330
1F
100
AcDbEntity
  8
実形
100
AcDbLine
 10
1566.053280974976
 20
1659.178460662066
 30
0.0
 11
736.0532809749765
 21
1659.178460662066
 31
0.0
  0
LINE
  5
7027
330
1F
100
AcDbEntity
  8
実形
100
AcDbLine
 10
736.0532809749765
 20
1659.178460662066
 30
0.0
 11
736.0532809749765
 21
1169.178460662066
 31
0.0
  0
LINE
  5
7028
330
1F
100
AcDbEntity
  8
実形
100
AcDbLine
 10
736.0532809749765
 20
1169.178460662066
 30
0.0
 11
1566.053280974976
 21
1169.178460662066
 31
0.0
  0
LINE
  5
7029
330
1F
100
AcDbEntity
  8
実形
100
AcDbLine
 10
1566.053280974976
 20
1169.178460662066
 30
0.0
 11
1566.053280974976
 21
1659.178460662066
 31
0.0
  0
LINE
  5
702A
330
1F
100
AcDbEntity
  8
実形
100
AcDbLine
 10
1545.053280974977
 20
1644.178460662066
 30
0.0
 11
757.0532809749765
 21
1644.178460662066
 31
0.0
  0
LINE
  5
702B
330
1F
100
AcDbEntity
  8
実形
100
AcDbLine
 10
751.0532809749766
 20
1638.178460662065
 30
0.0
 11
751.0532809749768
 21
1190.178460662066
 31
0.0
  0
LINE
  5
702C
330
1F
100
AcDbEntity
  8
実形
100
AcDbLine
 10
757.0532809749768
 20
1184.178460662066
 30
0.0
 11
1545.053280974977
 21
1184.178460662066
 31
0.0
  0
LINE
  5
702D
330
1F
100
AcDbEntity
  8
実形
100
AcDbLine
 10
1551.053280974976
 20
1190.178460662066
 30
0.0
 11
1551.053280974976
 21
1638.178460662066
 31
0.0
  0
LINE
  5
702E
330
1F
100
AcDbEntity
  8
実形
100
AcDbLine
 10
1531.053280974976
 20
1210.178460662066
 30
0.0
 11
1531.053280974977
 21
1618.178460662066
 31
0.0
  0
LINE
  5
702F
330
1F
100
AcDbEntity
  8
実形
100
AcDbLine
 10
1525.053280974977
 20
1624.178460662066
 30
0.0
 11
1437.053280974977
 21
1624.178460662066
 31
0.0
  0
LINE
  5
7030
330
1F
100
AcDbEntity
  8
実形
100
AcDbLine
 10
771.0532809749765
 20
1548.178460662066
 30
0.0
 11
771.0532809749765
 21
1210.178460662066
 31
0.0
  0
LINE
  5
7031
330
1F
100
AcDbEntity
  8
実形
100
AcDbLine
 10
777.0532809749766
 20
1204.178460662066
 30
0.0
 11
1405.053280974977
 21
1204.178460662065
 31
0.0
  0
DIMENSION
  5
70F5
330
1F
100
AcDbEntity
  8
実形
100
AcDbDimension
  2
*D10
 10
771.0532809749768
 20
1020.327686003375
 30
0.0
 11
1151.053280974976
 21
1039.427686003375
 31
0.0
 70
    32
 71
     5
 42
759.9999999999997
  3
ISO-25
100
AcDbAlignedDimension
 13
1531.053280974976
 23
1152.590387707762
 33
0.0
 14
771.0532809749768
 24
1152.590387707762
 34
0.0
 50
180.0
100
AcDbRotatedDimension
1001
ACAD
1000
DSTYLE
1002
{
1070
    41
1040
10.0
1070
   140
1040
25.0
1070
   147
1040
6.599999999999998
1070
   279
1070
     2
1070
   342
1005
30D
1070
   371
1070
    18
1070
   372
1070
    18
1002
}
  0
DIMENSION
  5
7102
330
1F
100
AcDbEntity
  8
実形
100
AcDbDimension
  2
*D11
 10
751.0532809749768
 20
1020.327686003375
 30
0.0
 11
804.652127670257
 21
1041.927686003375
 31
0.0
 70
   160
  1
20
 71
     5
 42
799.9999999999998
  3
ISO-25
100
AcDbAlignedDimension
 13
1551.053280974976
 23
1152.590387707762
 33
0.0
 14
751.0532809749768
 24
1152.590387707762
 34
0.0
 50
180.0
100
AcDbRotatedDimension
1001
ACAD
1000
DSTYLE
1002
{
1070
    41
1040
10.0
1070
   140
1040
25.0
1070
   147
1040
6.599999999999998
1070
   279
1070
     2
1070
   342
1005
30D
1070
   371
1070
    18
1070
   372
1070
    18
1002
}
  0
DIMENSION
  5
7133
330
1F
100
AcDbEntity
  8
実形
100
AcDbDimension
  2
*D12
 10
751.0532809749768
 20
957.9171986474021
 30
0.0
 11
1151.053280974976
 21
977.0171986474021
 31
0.0
 70
    32
 71
     5
 42
799.9999999999998
  3
ISO-25
100
AcDbAlignedDimension
 13
1551.053280974976
 23
1152.590387707762
 33
0.0
 14
751.0532809749768
 24
1152.590387707762
 34
0.0
 50
180.0
100
AcDbRotatedDimension
1001
ACAD
1000
DSTYLE
1002
{
1070
    41
1040
10.0
1070
   140
1040
25.0
1070
   147
1040
6.599999999999998
1070
   279
1070
     2
1070
   342
1005
30D
1070
   371
1070
    18
1070
   372
1070
    18
1002
}
  0
DIMENSION
  5
7140
330
1F
100
AcDbEntity
  8
実形
100
AcDbDimension
  2
*D13
 10
736.0532809749765
 20
957.9171986474021
 30
0.0
 11
692.2637476204308
 21
979.517198647402
 31
0.0
 70
   160
  1
15
 71
     5
 42
830.0
  3
ISO-25
100
AcDbAlignedDimension
 13
1566.053280974976
 23
1152.590387707762
 33
0.0
 14
736.0532809749765
 24
1152.590387707762
 34
0.0
 50
180.0
100
AcDbRotatedDimension
1001
ACAD
1000
DSTYLE
1002
{
1070
    41
1040
10.0
1070
   140
1040
25.0
1070
   147
1040
6.599999999999998
1070
   279
1070
     2
1070
   342
1005
30D
1070
   371
1070
    18
1070
   372
1070
    18
1002
}
  0
DIMENSION
  5
7172
330
1F
100
AcDbEntity
  8
実形
100
AcDbDimension
  2
*D14
 10
736.0532809749765
 20
884.6956181772503
 30
0.0
 11
1151.053280974976
 21
903.7956181772502
 31
0.0
 70
    32
 71
     5
 42
830.0
  3
ISO-25
100
AcDbAlignedDimension
 13
1566.053280974976
 23
1152.590387707762
 33
0.0
 14
736.0532809749765
 24
1152.590387707762
 34
0.0
 50
180.0
100
AcDbRotatedDimension
1001
ACAD
1000
DSTYLE
1002
{
1070
    41
1040
10.0
1070
   140
1040
25.0
1070
   147
1040
6.599999999999998
1070
   279
1070
     2
1070
   342
1005
30D
1070
   371
1070
    18
1070
   372
1070
    18
1002
}
  0
LINE
  5
7180
330
1F
100
AcDbEntity
  8
実形
  6
ACAD_ISO08W100
 48
0.5
100
AcDbLine
 10
1119.353583868479
 20
1414.178460662066
 30
0.0
 11
1394.381468466423
 21
1414.178460662066
 31
0.0
  0
CIRCLE
  5
7183
330
1F
100
AcDbEntity
  8
実形
100
AcDbCircle
 10
1261.053280974977
 20
1414.178460662066
 30
0.0
 40
80.0
  0
CIRCLE
  5
7184
330
1F
100
AcDbEntity
  8
実形
100
AcDbCircle
 10
1261.053280974977
 20
1414.178460662066
 30
0.0
 40
90.5
  0
LINE
  5
7185
330
1F
100
AcDbEntity
  8
実形
100
AcDbLine
 10
1531.053280974976
 20
1659.178460662066
 30
0.0
 11
1381.053280974976
 21
1659.178460662066
 31
0.0
  0
LINE
  5
72ED
330
1F
100
AcDbEntity
  8
実形
 62
     3
100
AcDbLine
 10
797.3710940401324
 20
-382.3860966284574
 30
0.0
 11
797.3710940401326
 21
-392.3860966284574
 31
0.0
  0
LEADER
  5
734B
330
1F
100
AcDbEntity
  8
実形
100
AcDbLeader
  3
ISO-25
 76
     2
 10
781.4224224383742
 20
1543.199935987015
 30
0.0
 10
835.479368568418
 20
1494.303693113559
 30
0.0
211
-1.0
221
0.0
231
0.0
1001
ACAD
1000
DSTYLE
1002
{
1070
    77
1070
     0
1070
    41
1040
10.0
1070
   140
1040
30.0
1070
   147
1040
6.599999999999998
1070
   279
1070
     2
1070
   342
1005
30D
1070
   371
1070
    18
1070
   372
1070
    18
1002
}
  0
LEADER
  5
73F6
330
1F
100
AcDbEntity
  8
実形
100
AcDbLeader
  3
ISO-25
 76
     2
 10
760.0833446358993
 20
1191.262627398048
 30
0.0
 10
828.3245667519768
 20
1220.187379926308
 30
0.0
211
-1.0
221
0.0
231
0.0
1001
ACAD
1000
DSTYLE
1002
{
1070
    77
1070
     0
1070
    41
1040
10.0
1070
   140
1040
30.0
1070
   147
1040
6.599999999999998
1070
   279
1070
     2
1070
   342
1005
30D
1070
   371
1070
    18
1070
   372
1070
    18
1002
}
  0
ARC
  5
7548
330
1F
100
AcDbEntity
  8
実形
100
AcDbCircle
 10
757.0532809749765
 20
1638.178460662065
 30
0.0
 40
6.0
100
AcDbArc
 50
90.0
 51
180.0
  0
ARC
  5
7549
330
1F
100
AcDbEntity
  8
実形
100
AcDbCircle
 10
777.0532809749766
 20
1210.178460662066
 30
0.0
 40
6.0
100
AcDbArc
 50
180.0
 51
270.0
  0
ARC
  5
754A
330
1F
100
AcDbEntity
  8
実形
100
AcDbCircle
 10
757.0532809749768
 20
1190.178460662066
 30
0.0
 40
6.0
100
AcDbArc
 50
180.0
 51
270.0
  0
ARC
  5
754C
330
1F
100
AcDbEntity
  8
実形
100
AcDbCircle
 10
1545.053280974977
 20
1638.178460662066
 30
0.0
 40
6.0
100
AcDbArc
 50
0.000000000000007
 51
90.00000000000003
  0
ARC
  5
754D
330
1F
100
AcDbEntity
  8
実形
100
AcDbCircle
 10
1525.053280974976
 20
1210.178460662066
 30
0.0
 40
6.0
100
AcDbArc
 50
270.0
 51
0.000000000000007
  0
ARC
  5
754E
330
1F
100
AcDbEntity
  8
実形
100
AcDbCircle
 10
1545.053280974977
 20
1190.178460662066
 30
0.0
 40
6.0
100
AcDbArc
 50
270.0
 51
0.000000000000007
  0
LINE
  5
774D
330
1F
100
AcDbEntity
  8
実形
 62
     0
100
AcDbLine
 10
2114.0
 20
263.9999999999991
 30
0.0
 11
2834.0
 21
263.9999999999991
 31
0.0
  0
LINE
  5
774E
330
1F
100
AcDbEntity
  8
実形
 62
     0
100
AcDbLine
 10
2114.0
 20
3.99999999999909
 30
0.0
 11
2114.0
 21
263.9999999999991
 31
0.0
  0
LINE
  5
774F
330
1F
100
AcDbEntity
  8
実形
 62
     0
100
AcDbLine
 10
2234.0
 20
68.99999999999909
 30
0.0
 11
2234.0
 21
263.9999999999992
 31
0.0
  0
TEXT
  5
7750
330
1F
100
AcDbEntity
  8
実形
 62
     0
100
AcDbText
 10
2137.833333333333
 20
213.9999999999991
 30
0.0
 40
35.0
  1
品名
 72
     4
 11
2174.0
 21
231.4999999999991
 31
0.0
100
AcDbText
  0
TEXT
  5
7751
330
1F
100
AcDbEntity
  8
実形
100
AcDbText
 10
2323.374698073251
 20
213.2308752843241
 30
0.0
 40
35.0
  1
ｱﾝﾀﾞｰｼﾝｸ
  7
ms明朝
 72
     4
 11
2425.774698073251
 21
230.8308752843241
 31
0.0
100
AcDbText
  0
LINE
  5
782D
330
1F
100
AcDbEntity
  8
実形
100
AcDbLine
 10
1001.053280974977
 20
1556.178460662066
 30
0.0
 11
1001.053280974977
 21
1618.178460662066
 31
0.0
  0
DIMENSION
  5
785C
330
1F
100
AcDbEntity
  8
実形
100
AcDbDimension
  2
*D16
 10
1001.053280974976
 20
1773.875438359908
 30
0.0
 11
1206.053280974977
 21
1792.975438359908
 31
0.0
 70
    32
 71
     5
 42
410.0000000000004
  3
ISO-25
100
AcDbAlignedDimension
 13
1411.053280974977
 23
1662.668426319256
 33
0.0
 14
1001.053280974976
 24
1662.668426319256
 34
0.0
 50
180.0
100
AcDbRotatedDimension
1001
ACAD
1000
DSTYLE
1002
{
1070
    41
1040
10.0
1070
   140
1040
25.0
1070
   147
1040
6.599999999999998
1070
   279
1070
     2
1070
   342
1005
30D
1070
   371
1070
    18
1070
   372
1070
    18
1002
}
  0
DIMENSION
  5
786A
330
1F
100
AcDbEntity
  8
実形
100
AcDbDimension
  2
*D17
 10
751.0532809749766
 20
1773.875438359908
 30
0.0
 11
880.2817980216204
 21
1798.836550718089
 31
0.0
 70
   160
  1
250
 71
     5
 42
249.9999999999998
  3
ISO-25
100
AcDbAlignedDimension
 13
1001.053280974976
 23
1662.668426319256
 33
0.0
 14
751.0532809749766
 24
1662.668426319256
 34
0.0
 50
180.0
100
AcDbRotatedDimension
1001
ACAD
1000
DSTYLE
1002
{
1070
    41
1040
10.0
1070
   140
1040
25.0
1070
   147
1040
6.599999999999998
1070
   279
1070
     2
1070
   342
1005
30D
1070
   371
1070
    18
1070
   372
1070
    18
1002
}
  0
DIMENSION
  5
7877
330
1F
100
AcDbEntity
  8
実形
100
AcDbDimension
  2
*D18
 10
736.0532809749765
 20
1773.875438359908
 30
0.0
 11
1567.505266927248
 21
1798.86048303489
 31
0.0
 70
   160
  1
15
 71
     5
 42
830.0
  3
ISO-25
100
AcDbAlignedDimension
 13
1566.053280974976
 23
1663.296423815394
 33
0.0
 14
736.0532809749765
 24
1662.651727076809
 34
0.0
 50
180.0
100
AcDbRotatedDimension
1001
ACAD
1000
DSTYLE
1002
{
1070
    41
1040
10.0
1070
   140
1040
25.0
1070
   147
1040
6.599999999999998
1070
   279
1070
     2
1070
   342
1005
30D
1070
   371
1070
    18
1070
   372
1070
    18
1002
}
  0
LINE
  5
799D
330
1F
100
AcDbEntity
  8
実形
100
AcDbLine
 10
681.6105981027901
 20
1644.178460662066
 30
0.0
 11
646.4313207137002
 21
1644.178460662066
 31
0.0
  0
LINE
  5
799E
330
1F
100
AcDbEntity
  8
実形
100
AcDbLine
 10
646.4313207137002
 20
1644.178460662066
 30
0.0
 11
646.4313207137002
 21
1624.178460662066
 31
0.0
  0
LINE
  5
799F
330
1F
100
AcDbEntity
  8
実形
100
AcDbLine
 10
646.4313207137002
 20
1624.178460662066
 30
0.0
 11
681.6105981027903
 21
1624.178460662066
 31
0.0
  0
DIMENSION
  5
79B0
330
1F
100
AcDbEntity
  8
実形
100
AcDbDimension
  2
*D20
 10
646.4313207137002
 20
1644.178460662066
 30
0.0
 11
629.3580733355902
 21
1590.132476377824
 31
0.0
 70
   160
  1
70
 71
     5
 42
89.99999999999955
  3
ISO-25
100
AcDbAlignedDimension
 13
740.6105981027901
 23
1554.178460662066
 33
0.0
 14
740.6105981027901
 24
1644.178460662066
 34
0.0
 50
90.0
100
AcDbRotatedDimension
1001
ACAD
1000
DSTYLE
1002
{
1070
    41
1040
10.0
1070
   140
1040
25.0
1070
   147
1040
6.599999999999998
1070
   279
1070
     2
1070
   342
1005
30D
1070
   371
1070
    18
1070
   372
1070
    18
1002
}
  0
DIMENSION
  5
79D8
330
1F
100
AcDbEntity
  8
実形
100
AcDbDimension
  2
*D21
 10
646.4313207137002
 20
1624.178460662066
 30
0.0
 11
709.6457412016007
 21
1625.22842009638
 31
0.0
 70
   160
  1
20
 71
     5
 42
69.99999999999977
  3
ISO-25
100
AcDbAlignedDimension
 13
740.6105981027901
 23
1554.178460662066
 33
0.0
 14
746.6105981027904
 24
1624.178460662066
 34
0.0
 50
90.0
100
AcDbRotatedDimension
1001
ACAD
1000
DSTYLE
1002
{
1070
    41
1040
10.0
1070
   140
1040
25.0
1070
   147
1040
6.599999999999998
1070
   279
1070
     2
1070
   342
1005
30D
1070
   371
1070
    18
1070
   372
1070
    18
1002
}
  0
DIMENSION
  5
7A0D
330
1F
100
AcDbEntity
  8
実形
100
AcDbDimension
  2
*D22
 10
580.6110897416528
 20
1554.178460662066
 30
0.0
 11
561.5110897416526
 21
1599.178460662066
 31
0.0
 70
    32
 71
     5
 42
89.99999999999955
  3
ISO-25
100
AcDbAlignedDimension
 13
709.054309333449
 23
1644.178460662066
 33
0.0
 14
688.0331621179155
 24
1554.178460662066
 34
0.0
 50
90.0
100
AcDbRotatedDimension
1001
ACAD
1000
DSTYLE
1002
{
1070
    41
1040
10.0
1070
   140
1040
25.0
1070
   147
1040
6.599999999999998
1070
   279
1070
     2
1070
   342
1005
30D
1070
   371
1070
    18
1070
   372
1070
    18
1002
}
  0
DIMENSION
  5
7A2E
330
1F
100
AcDbEntity
  8
実形
100
AcDbDimension
  2
*D23
 10
580.6110897416527
 20
1204.178460662066
 30
0.0
 11
561.5110897416525
 21
1379.178460662066
 31
0.0
 70
    32
 71
     5
 42
350.0000000000004
  3
ISO-25
100
AcDbAlignedDimension
 13
705.9573702596499
 23
1554.178460662066
 33
0.0
 14
711.0775897777948
 24
1204.178460662066
 34
0.0
 50
90.0
100
AcDbRotatedDimension
1001
ACAD
1000
DSTYLE
1002
{
1070
    41
1040
10.0
1070
   140
1040
25.0
1070
   147
1040
6.599999999999998
1070
   279
1070
     2
1070
   342
1005
30D
1070
   371
1070
    18
1070
   372
1070
    18
1002
}
  0
DIMENSION
  5
7A4D
330
1F
100
AcDbEntity
  8
実形
100
AcDbDimension
  2
*D24
 10
580.6110897416527
 20
1169.178460662066
 30
0.0
 11
558.4716145224265
 21
1681.647378054783
 31
0.0
 70
   160
  1
15
 71
     5
 42
490.0
  3
ISO-25
100
AcDbAlignedDimension
 13
737.4370316408258
 23
1659.178460662066
 33
0.0
 14
710.5471809943828
 24
1169.178460662066
 34
0.0
 50
90.0
100
AcDbRotatedDimension
1001
ACAD
1000
DSTYLE
1002
{
1070
    41
1040
10.0
1070
   140
1040
25.0
1070
   147
1040
6.599999999999998
1070
   279
1070
     2
1070
   342
1005
30D
1070
   371
1070
    18
1070
   372
1070
    18
1002
}
  0
DIMENSION
  5
7B4E
330
1F
100
AcDbEntity
  8
実形
100
AcDbDimension
  2
*D25
 10
580.6110897416528
 20
1554.178460662066
 30
0.0
 11
664.6815704476048
 21
1204.170355646408
 31
0.0
 70
   160
  1
20
 71
     5
 42
370.0000000000005
  3
ISO-25
100
AcDbAlignedDimension
 13
711.0775897777948
 23
1184.178460662066
 33
0.0
 14
675.6105981027901
 24
1554.178460662066
 34
0.0
 50
90.0
100
AcDbRotatedDimension
1001
ACAD
1000
DSTYLE
1002
{
1070
    41
1040
10.0
1070
   140
1040
25.0
1070
   147
1040
6.599999999999998
1070
   279
1070
     2
1070
   342
1005
30D
1070
   371
1070
    18
1070
   372
1070
    18
1002
}
  0
DIMENSION
  5
7BA4
330
1F
100
AcDbEntity
  8
実形
100
AcDbDimension
  2
*D26
 10
524.6395332467109
 20
1184.178460662066
 30
0.0
 11
505.5395332467107
 21
1414.178460662066
 31
0.0
 70
    32
 71
     5
 42
460.0
  3
ISO-25
100
AcDbAlignedDimension
 13
740.0100178911671
 23
1644.178460662066
 33
0.0
 14
713.0887020536247
 24
1184.178460662066
 34
0.0
 50
90.0
100
AcDbRotatedDimension
1001
ACAD
1000
DSTYLE
1002
{
1070
    41
1040
10.0
1070
   140
1040
25.0
1070
   147
1040
6.599999999999998
1070
   279
1070
     2
1070
   342
1005
30D
1070
   371
1070
    18
1070
   372
1070
    18
1002
}
  0
DIMENSION
  5
7BCC
330
1F
100
AcDbEntity
  8
実形
100
AcDbDimension
  2
*D27
 10
465.166572242435
 20
1169.178460662066
 30
0.0
 11
446.0665722424348
 21
1414.178460662066
 31
0.0
 70
    32
 71
     5
 42
490.0
  3
ISO-25
100
AcDbAlignedDimension
 13
736.0532809749765
 23
1659.178460662066
 33
0.0
 14
714.1013936728468
 24
1169.178460662066
 34
0.0
 50
90.0
100
AcDbRotatedDimension
1001
ACAD
1000
DSTYLE
1002
{
1070
    41
1040
10.0
1070
   140
1040
25.0
1070
   147
1040
6.599999999999998
1070
   279
1070
     2
1070
   342
1005
30D
1070
   371
1070
    18
1070
   372
1070
    18
1002
}
  0
LINE
  5
7BEB
330
1F
100
AcDbEntity
  8
実形
100
AcDbLine
 10
999.0532809749767
 20
1554.178460662066
 30
0.0
 11
777.0532809749766
 21
1554.178460662066
 31
0.0
  0
ARC
  5
7C3F
330
1F
100
AcDbEntity
  8
実形
100
AcDbCircle
 10
777.0532809749766
 20
1548.178460662066
 30
0.0
 40
6.0
100
AcDbArc
 50
90.00000000000005
 51
180.0
  0
LINE
  5
7C40
330
1F
100
AcDbEntity
  8
実形
  6
ACAD_ISO08W100
 48
0.5
100
AcDbLine
 10
1261.053280974977
 20
1310.740901717254
 30
0.0
 11
1261.053280974977
 21
1609.683968216935
 31
0.0
  0
LINE
  5
817A
330
1F
100
AcDbEntity
  8
実形
100
AcDbLine
 10
1551.053280974976
 20
715.6580729330507
 30
0.0
 11
1551.053280974976
 21
700.6580729330508
 31
0.0
  0
LINE
  5
817B
330
1F
100
AcDbEntity
  8
実形
100
AcDbLine
 10
1531.053280974976
 20
700.6580729330505
 30
0.0
 11
1531.053280974976
 21
506.3552406133141
 31
0.0
  0
LINE
  5
817E
330
1F
100
AcDbEntity
  8
実形
100
AcDbLine
 10
751.0532809749763
 20
715.6580729330507
 30
0.0
 11
751.0532809749763
 21
700.6580729330508
 31
0.0
  0
LINE
  5
817F
330
1F
100
AcDbEntity
  8
実形
100
AcDbLine
 10
771.0532809749761
 20
700.6580729330508
 30
0.0
 11
771.0532809749765
 21
531.4370191581881
 31
0.0
  0
LINE
  5
8182
330
1F
100
AcDbEntity
  8
実形
100
AcDbLine
 10
1566.053280974976
 20
715.6580729330507
 30
0.0
 11
736.0532809749768
 21
715.6580729330507
 31
0.0
  0
LINE
  5
8184
330
1F
100
AcDbEntity
  8
実形
100
AcDbLine
 10
1351.553280974977
 20
500.6580729330507
 30
0.0
 11
1170.553280974977
 21
500.6580729330507
 31
0.0
  0
LINE
  5
8185
330
1F
100
AcDbEntity
  8
実形
100
AcDbLine
 10
1551.053280974976
 20
700.6580729330508
 30
0.0
 11
751.0532809749763
 21
700.6580729330508
 31
0.0
  0
LINE
  5
818E
330
1F
100
AcDbEntity
  8
実形
100
AcDbLine
 10
1170.553280974977
 20
510.6580729330508
 30
0.0
 11
1170.553280974977
 21
500.6580729330507
 31
0.0
  0
LINE
  5
818F
330
1F
100
AcDbEntity
  8
実形
100
AcDbLine
 10
1351.553280974977
 20
510.6580729330508
 30
0.0
 11
1351.553280974977
 21
500.6580729330507
 31
0.0
  0
DIMENSION
  5
8192
330
1F
100
AcDbEntity
  8
実形
100
AcDbDimension
  2
*D58
 10
1181.053280974976
 20
383.7414743971931
 30
0.0
 11
1261.053280974977
 21
402.841474397193
 31
0.0
 70
    32
 71
     5
 42
160.0000000000002
  3
ISO-25
100
AcDbAlignedDimension
 13
1341.053280974977
 23
500.6580729330506
 33
0.0
 14
1181.053280974976
 24
500.6580729330506
 34
0.0
 50
180.0
100
AcDbRotatedDimension
1001
ACAD
1000
DSTYLE
1002
{
1070
    41
1040
10.0
1070
   140
1040
25.0
1070
   147
1040
6.599999999999998
1070
   279
1070
     2
1070
   342
1005
30D
1070
   371
1070
    18
1070
   372
1070
    18
1002
}
  0
DIMENSION
  5
8193
330
1F
100
AcDbEntity
  8
実形
100
AcDbDimension
  2
*D59
 10
1170.553280974977
 20
312.4991775819162
 30
0.0
 11
1261.053280974977
 21
331.5991775819163
 31
0.0
 70
    32
 71
     5
 42
180.9999999999995
  3
ISO-25
100
AcDbAlignedDimension
 13
1351.553280974977
 23
500.6580729330507
 33
0.0
 14
1170.553280974977
 24
500.6580729330464
 34
0.0
 50
180.0
100
AcDbRotatedDimension
1001
ACAD
1000
DSTYLE
1002
{
1070
    41
1040
10.0
1070
   140
1040
25.0
1070
   147
1040
6.599999999999998
1070
   279
1070
     2
1070
   342
1005
30D
1070
   371
1070
    18
1070
   372
1070
    18
1002
}
  0
LEADER
  5
8196
330
1F
100
AcDbEntity
  8
実形
100
AcDbLeader
  3
ISO-25
 76
     2
 10
1403.696977314917
 20
529.3081587276183
 30
0.0
 10
1340.11421960548
 20
588.2189095945541
 30
0.0
211
-1.0
221
0.0
231
0.0
1001
ACAD
1000
DSTYLE
1002
{
1070
    77
1070
     0
1070
    41
1040
10.0
1070
   140
1040
30.0
1070
   147
1040
6.599999999999998
1070
   279
1070
     2
1070
   342
1005
30D
1070
   371
1070
    18
1070
   372
1070
    18
1002
}
  0
LEADER
  5
8197
330
1F
100
AcDbEntity
  8
実形
100
AcDbLeader
  3
ISO-25
 76
     2
 10
784.4343028091132
 20
536.0931465337853
 30
0.0
 10
832.3838146500184
 20
584.9376365357911
 30
0.0
1001
ACAD
1000
DSTYLE
1002
{
1070
    77
1070
     0
1070
    41
1040
10.0
1070
   140
1040
30.0
1070
   147
1040
6.599999999999998
1070
   279
1070
     2
1070
   342
1005
30D
1070
   371
1070
    18
1070
   372
1070
    18
1002
}
  0
LINE
  5
822B
330
1F
100
AcDbEntity
  8
実形
  6
ACAD_ISO08W100
 48
0.5
100
AcDbLine
 10
1261.053280974977
 20
599.4179089624922
 30
0.0
 11
1261.053280974977
 21
455.0808769214036
 31
0.0
  0
LINE
  5
8C1A
330
1F
100
AcDbEntity
  8
実形
100
AcDbLine
 10
1431.053280974977
 20
1210.178460662065
 30
0.0
 11
1431.053280974977
 21
1618.178460662066
 31
0.0
  0
LINE
  5
8C1B
330
1F
100
AcDbEntity
  8
実形
  6
ACAD_ISO08W100
 48
0.5
100
AcDbLine
 10
1440.027074323261
 20
1564.178460662066
 30
0.0
 11
1524.985237476654
 21
1564.178460662066
 31
0.0
  0
LINE
  5
8C1C
330
1F
100
AcDbEntity
  8
実形
  6
ACAD_ISO08W100
 48
0.5
100
AcDbLine
 10
1481.053280974976
 20
1494.100072622664
 30
0.0
 11
1481.053280974976
 21
1613.278269535386
 31
0.0
  0
CIRCLE
  5
8C1D
330
1F
100
AcDbEntity
  8
実形
100
AcDbCircle
 10
1481.053280974976
 20
1564.178460662066
 30
0.0
 40
22.25
  0
LINE
  5
8C1E
330
1F
100
AcDbEntity
  8
実形
100
AcDbLine
 10
1411.053280974977
 20
1210.178460662066
 30
0.0
 11
1411.053280974977
 21
1618.178460662066
 31
0.0
  0
LINE
  5
8C1F
330
1F
100
AcDbEntity
  8
実形
100
AcDbLine
 10
1437.053280974977
 20
1204.178460662065
 30
0.0
 11
1525.053280974976
 21
1204.178460662066
 31
0.0
  0
LINE
  5
8C20
330
1F
100
AcDbEntity
  8
実形
100
AcDbLine
 10
1405.053280974977
 20
1624.178460662066
 30
0.0
 11
1007.053280974977
 21
1624.178460662066
 31
0.0
  0
DIMENSION
  5
8C23
330
1F
100
AcDbEntity
  8
実形
100
AcDbDimension
  2
*D60
 10
1261.053280974977
 20
1544.349790319099
 30
0.0
 11
1336.053280974977
 21
1563.449790319099
 31
0.0
 70
    32
 71
     5
 42
150.0
  3
ISO-25
100
AcDbAlignedDimension
 13
1411.053280974977
 23
1448.153842700946
 33
0.0
 14
1261.053280974977
 24
1448.153842700946
 34
0.0
 50
180.0
100
AcDbRotatedDimension
1001
ACAD
1000
DSTYLE
1002
{
1070
    41
1040
10.0
1070
   140
1040
25.0
1070
   147
1040
6.599999999999998
1070
   279
1070
     2
1070
   342
1005
30D
1070
   371
1070
    18
1070
   372
1070
    18
1002
}
  0
DIMENSION
  5
8F2C
330
1F
100
AcDbEntity
  8
実形
100
AcDbDimension
  2
*D61
 10
1113.781934716619
 20
1204.178460662066
 30
0.0
 11
1094.681934716618
 21
1309.178460662066
 31
0.0
 70
    32
 71
     5
 42
209.9999999999998
  3
ISO-25
100
AcDbAlignedDimension
 13
1215.372050495051
 23
1414.178460662065
 33
0.0
 14
1215.372050495051
 24
1204.178460662066
 34
0.0
 50
90.0
100
AcDbRotatedDimension
1001
ACAD
1000
DSTYLE
1002
{
1070
    41
1040
10.0
1070
   147
1040
6.599999999999998
1070
   279
1070
     2
1070
   342
1005
30D
1070
   371
1070
    18
1070
   372
1070
    18
1002
}
  0
DIMENSION
  5
8FD3
330
1F
100
AcDbEntity
  8
実形
100
AcDbDimension
  2
*D62
 10
1431.053280974977
 20
1773.875438359908
 30
0.0
 11
1536.38279210934
 21
1702.112054279481
 31
0.0
 70
   160
  1
20
 71
     5
 42
119.9999999999995
  3
ISO-25
100
AcDbAlignedDimension
 13
1551.053280974976
 23
1661.070092314618
 33
0.0
 14
1431.053280974977
 24
1661.070092314618
 34
0.0
 50
180.0
100
AcDbRotatedDimension
1001
ACAD
1000
DSTYLE
1002
{
1070
    41
1040
10.0
1070
   147
1040
6.599999999999998
1070
   279
1070
     2
1070
   342
1005
30D
1070
   371
1070
    18
1070
   372
1070
    18
1002
}
  0
DIMENSION
  5
8FE9
330
1F
100
AcDbEntity
  8
実形
100
AcDbDimension
  2
*D63
 10
1431.053280974977
 20
1773.875438359908
 30
0.0
 11
1481.053280974977
 21
1792.975438359908
 31
0.0
 70
    32
 71
     5
 42
100.0
  3
ISO-25
100
AcDbAlignedDimension
 13
1531.053280974977
 23
1662.668426319256
 33
0.0
 14
1431.053280974977
 24
1662.668426319256
 34
0.0
 50
180.0
100
AcDbRotatedDimension
1001
ACAD
1000
DSTYLE
1002
{
1070
    41
1040
10.0
1070
   147
1040
6.599999999999998
1070
   279
1070
     2
1070
   342
1005
30D
1070
   371
1070
    18
1070
   372
1070
    18
1002
}
  0
LINE
  5
9119
330
1F
100
AcDbEntity
  8
実形
100
AcDbLine
 10
1431.053280974977
 20
650.6580729330506
 30
0.0
 11
1431.053280974976
 21
466.6580729330507
 31
0.0
  0
LINE
  5
911A
330
1F
100
AcDbEntity
  8
実形
100
AcDbLine
 10
1531.053280974976
 20
700.658072933051
 30
0.0
 11
1531.053280974977
 21
466.6580729330507
 31
0.0
  0
LINE
  5
91C2
330
1F
100
AcDbEntity
  8
実形
100
AcDbLine
 10
1170.553280974977
 20
510.6580729330508
 30
0.0
 11
1351.553280974977
 21
510.6580729330508
 31
0.0
  0
LINE
  5
91C4
330
1F
100
AcDbEntity
  8
実形
100
AcDbLine
 10
1411.053280974977
 20
650.6580729330508
 30
0.0
 11
1411.053280974977
 21
516.6580729330507
 31
0.0
  0
LINE
  5
91C6
330
1F
100
AcDbEntity
  8
実形
100
AcDbLine
 10
1503.303280974977
 20
450.6580729330507
 30
0.0
 11
1458.803280974977
 21
450.6580729330507
 31
0.0
  0
LINE
  5
91C7
330
1F
100
AcDbEntity
  8
実形
100
AcDbLine
 10
1503.303280974977
 20
440.6580729330507
 30
0.0
 11
1458.803280974977
 21
440.6580729330507
 31
0.0
  0
LINE
  5
91C8
330
1F
100
AcDbEntity
  8
実形
100
AcDbLine
 10
1458.803280974977
 20
450.6580729330508
 30
0.0
 11
1458.803280974977
 21
440.6580729330507
 31
0.0
  0
LINE
  5
91C9
330
1F
100
AcDbEntity
  8
実形
100
AcDbLine
 10
1503.303280974977
 20
450.6580729330508
 30
0.0
 11
1503.303280974977
 21
440.6580729330507
 31
0.0
  0
DIMENSION
  5
91ED
330
1F
100
AcDbEntity
  8
実形
100
AcDbDimension
  2
*D64
 10
1458.803280974977
 20
314.0546929001066
 30
0.0
 11
1481.053280974977
 21
277.9168016284076
 31
0.0
 70
   160
 71
     5
 42
44.5
  3
ISO-25
100
AcDbAlignedDimension
 13
1503.303280974977
 23
440.6341405756738
 33
0.0
 14
1458.803280974977
 24
440.6341405756738
 34
0.0
 50
180.0
100
AcDbRotatedDimension
1001
ACAD
1000
DSTYLE
1002
{
1070
    41
1040
10.0
1070
   140
1040
25.0
1070
   147
1040
6.599999999999998
1070
   279
1070
     2
1070
   342
1005
30D
1070
   371
1070
    18
1070
   372
1070
    18
1002
}
  0
LINE
  5
9253
330
1F
100
AcDbEntity
  8
実形
100
AcDbLine
 10
1170.553280974977
 20
510.6580729330508
 30
0.0
 11
776.8281580031423
 21
525.4412440083386
 31
0.0
  0
ARC
  5
9312
330
1F
100
AcDbEntity
  8
実形
100
AcDbCircle
 10
777.0532809749766
 20
531.4370191581881
 30
0.0
 40
6.0
100
AcDbArc
 50
180.0000000000001
 51
267.84972925162
  0
LINE
  5
9392
330
1F
100
AcDbEntity
  8
実形
100
AcDbLine
 10
1431.053280974977
 20
650.6580729330508
 30
0.0
 11
1411.053280974977
 21
650.6580729330508
 31
0.0
  0
ARC
  5
94C6
330
1F
100
AcDbEntity
  8
実形
100
AcDbCircle
 10
1525.053280974977
 20
1618.178460662066
 30
0.0
 40
6.0
100
AcDbArc
 50
360.0
 51
90.0
  0
ARC
  5
94C7
330
1F
100
AcDbEntity
  8
実形
100
AcDbCircle
 10
1437.053280974977
 20
1618.178460662066
 30
0.0
 40
6.0
100
AcDbArc
 50
90.0
 51
180.0
  0
ARC
  5
94C8
330
1F
100
AcDbEntity
  8
実形
100
AcDbCircle
 10
1405.053280974977
 20
1618.178460662066
 30
0.0
 40
6.0
100
AcDbArc
 50
360.0
 51
90.00000000000003
  0
LEADER
  5
94D3
330
1F
100
AcDbEntity
  8
実形
100
AcDbLeader
  3
ISO-25
 76
     2
 10
1517.478490217671
 20
1216.608312587773
 30
0.0
 10
1486.685789342036
 20
1242.978140693902
 30
0.0
211
-1.0
221
0.0
231
0.0
1001
ACAD
1000
DSTYLE
1002
{
1070
    77
1070
     0
1070
    41
1040
10.0
1070
   147
1040
6.599999999999998
1070
   279
1070
     2
1070
   342
1005
30D
1070
   371
1070
    18
1070
   372
1070
    18
1002
}
  0
ARC
  5
94DD
330
1F
100
AcDbEntity
  8
実形
100
AcDbCircle
 10
1437.053280974977
 20
1210.178460662065
 30
0.0
 40
6.0
100
AcDbArc
 50
180.0
 51
270.0000000000001
  0
ARC
  5
94DE
330
1F
100
AcDbEntity
  8
実形
100
AcDbCircle
 10
1405.053280974977
 20
1210.178460662066
 30
0.0
 40
6.0
100
AcDbArc
 50
270.0
 51
360.0
  0
TEXT
  5
9977
330
1F
100
AcDbEntity
  8
実形
 48
20.0
100
AcDbText
 10
718.2880662647021
 20
1786.114809628532
 30
0.0
 40
25.0
  1
15
100
AcDbText
  0
TEXT
  5
99AC
330
1F
100
AcDbEntity
  8
実形
 48
20.0
100
AcDbText
 10
1400.26381176677
 20
1686.63218091085
 30
0.0
 40
25.0
  1
20
100
AcDbText
  0
TEXT
  5
99F3
330
1F
100
AcDbEntity
  8
実形
100
AcDbText
 10
843.5942274819627
 20
1472.535534442701
 30
0.0
 40
25.0
  1
6R
 72
     2
 11
885.2608941486293
 21
1469.202201109367
 31
0.0
100
AcDbText
 73
     1
  0
TEXT
  5
99FB
330
1F
100
AcDbEntity
  8
実形
100
AcDbText
 10
848.1271257261015
 20
1221.77927065138
 30
0.0
 40
25.0
  1
6R
 72
     2
 11
889.7937923927681
 21
1218.445937318047
 31
0.0
100
AcDbText
 73
     1
  0
TEXT
  5
9A03
330
1F
100
AcDbEntity
  8
実形
100
AcDbText
 10
1460.818206799778
 20
1248.921919675034
 30
0.0
 40
25.0
  1
6R
 72
     2
 11
1502.484873466445
 21
1245.588586341701
 31
0.0
100
AcDbText
 73
     1
  0
TEXT
  5
9A8A
330
1F
100
AcDbEntity
  8
実形
 48
20.0
100
AcDbText
 10
1489.358270202703
 20
1028.204556261936
 30
0.0
 40
25.0
  1
20
100
AcDbText
  0
TEXT
  5
9A93
330
1F
100
AcDbEntity
  8
実形
 48
20.0
100
AcDbText
 10
1583.840560467295
 20
968.2350139990512
 30
0.0
 40
25.0
  1
15
100
AcDbText
  0
TEXT
  5
9C50
330
1F
100
AcDbEntity
  8
実形
100
AcDbText
 10
1457.084804095098
 20
517.5826742099161
 30
0.0
 40
25.0
  1
6R
 72
     2
 11
1498.751470761765
 21
514.2493408765828
 31
0.0
100
AcDbText
 73
     1
  0
LEADER
  5
9C51
330
1F
100
AcDbEntity
  8
実形
100
AcDbLeader
  3
ISO-25
 76
     2
 10
1437.053280974976
 20
466.6580729330507
 30
0.0
 10
1466.962902208447
 20
509.3756193465278
 30
0.0
1001
ACAD
1000
DSTYLE
1002
{
1070
    77
1070
     0
1070
    41
1040
10.0
1070
   147
1040
6.599999999999998
1070
   279
1070
     2
1070
   342
1005
30D
1070
   371
1070
    18
1070
   372
1070
    18
1002
}
  0
LEADER
  5
9C52
330
1F
100
AcDbEntity
  8
実形
100
AcDbLeader
  3
ISO-25
 76
     2
 10
1523.883263482848
 20
467.3046554508564
 30
0.0
 10
1493.939132737261
 20
509.9066374891335
 30
0.0
1001
ACAD
1000
DSTYLE
1002
{
1070
    77
1070
     0
1070
    41
1040
10.0
1070
   147
1040
6.599999999999998
1070
   279
1070
     2
1070
   342
1005
30D
1070
   371
1070
    18
1070
   372
1070
    18
1002
}
  0
TEXT
  5
9C5B
330
1F
100
AcDbEntity
  8
実形
100
AcDbText
 10
835.8137805226308
 20
597.8068779706576
 30
0.0
 40
25.0
  1
6R
 72
     2
 11
877.4804471892974
 21
594.4735446373242
 31
0.0
100
AcDbText
 73
     1
  0
TEXT
  5
9C63
330
1F
100
AcDbEntity
  8
実形
100
AcDbText
 10
1306.440643261065
 20
595.5117216684114
 30
0.0
 40
25.0
  1
6R
 72
     2
 11
1348.107309927732
 21
592.1783883350781
 31
0.0
100
AcDbText
 73
     1
  0
TEXT
  5
9DC5
330
1F
100
AcDbEntity
  8
実形
 48
20.0
100
AcDbText
 10
568.9677605104352
 20
1126.918510839127
 30
0.0
 40
25.0
  1
15
 50
90.0
100
AcDbText
  0
DIMENSION
  5
9E30
330
1F
100
AcDbEntity
  8
実形
100
AcDbDimension
  2
*D66
 10
2201.88848741762
 20
1182.666034411097
 30
0.0
 11
2182.78848741762
 21
1412.666034411097
 31
0.0
 70
    32
 71
     5
 42
459.9999999999997
  3
ISO-25
100
AcDbAlignedDimension
 13
2088.565150276954
 23
1642.666034411097
 33
0.0
 14
2088.565150276955
 24
1182.666034411097
 34
0.0
 50
90.0
100
AcDbRotatedDimension
1001
ACAD
1000
DSTYLE
1002
{
1070
    41
1040
10.0
1070
   140
1040
25.0
1070
   147
1040
6.599999999999998
1070
   279
1070
     2
1070
   342
1005
30D
1070
   371
1070
    18
1070
   372
1070
    18
1002
}
  0
DIMENSION
  5
9E31
330
1F
100
AcDbEntity
  8
実形
100
AcDbDimension
  2
*D67
 10
2201.88848741762
 20
1167.666034411097
 30
0.0
 11
2180.28848741762
 21
1687.213173037373
 31
0.0
 70
   160
  1
15
 71
     5
 42
490.0
  3
ISO-25
100
AcDbAlignedDimension
 13
2088.565150276954
 23
1657.666034411097
 33
0.0
 14
2088.565150276954
 24
1167.666034411097
 34
0.0
 50
90.0
100
AcDbRotatedDimension
1001
ACAD
1000
DSTYLE
1002
{
1070
    41
1040
10.0
1070
   140
1040
25.0
1070
   147
1040
6.599999999999998
1070
   279
1070
     2
1070
   342
1005
30D
1070
   371
1070
    18
1070
   372
1070
    18
1002
}
  0
DIMENSION
  5
9E32
330
1F
100
AcDbEntity
  8
実形
100
AcDbDimension
  2
*D68
 10
2263.913315228105
 20
1167.666034411097
 30
0.0
 11
2244.813315228105
 21
1412.666034411097
 31
0.0
 70
    32
 71
     5
 42
490.0
  3
ISO-25
100
AcDbAlignedDimension
 13
2088.565150276954
 23
1657.666034411097
 33
0.0
 14
2088.565150276954
 24
1167.666034411097
 34
0.0
 50
90.0
100
AcDbRotatedDimension
1001
ACAD
1000
DSTYLE
1002
{
1070
    41
1040
10.0
1070
   140
1040
25.0
1070
   147
1040
6.599999999999998
1070
   279
1070
     2
1070
   342
1005
30D
1070
   371
1070
    18
1070
   372
1070
    18
1002
}
  0
DIMENSION
  5
9E34
330
1F
100
AcDbEntity
  8
実形
100
AcDbDimension
  2
*D69
 10
2158.306456450448
 20
1202.666034411097
 30
0.0
 11
2139.206456450448
 21
1412.666034411097
 31
0.0
 70
    32
 71
     5
 42
420.0000000000001
  3
ISO-25
100
AcDbAlignedDimension
 13
2049.063628292512
 23
1622.666034411096
 33
0.0
 14
2045.778056056116
 24
1202.666034411097
 34
0.0
 50
90.0
100
AcDbRotatedDimension
1001
ACAD
1000
DSTYLE
1002
{
1070
    41
1040
10.0
1070
   147
1040
6.599999999999998
1070
   279
1070
     2
1070
   342
1005
30D
1070
   371
1070
    18
1070
   372
1070
    18
1002
}
  0
DIMENSION
  5
9E35
330
1F
100
AcDbEntity
  8
実形
100
AcDbDimension
  2
*D70
 10
2158.306456450448
 20
1182.666034411097
 30
0.0
 11
2204.054769463676
 21
1338.885966175875
 31
0.0
 70
   160
  1
 
 71
     5
 42
460.0
  3
ISO-25
100
AcDbAlignedDimension
 13
2047.955478649196
 23
1642.666034411097
 33
0.0
 14
2047.446854514503
 24
1182.666034411097
 34
0.0
 50
90.0
100
AcDbRotatedDimension
1001
ACAD
1000
DSTYLE
1002
{
1070
    41
1040
10.0
1070
   147
1040
6.599999999999998
1070
   279
1070
     2
1070
   342
1005
30D
1070
   371
1070
    18
1070
   372
1070
    18
1002
}
  0
TEXT
  5
9F30
330
1F
100
AcDbEntity
  8
実形
 48
20.0
100
AcDbText
 10
2102.920549260942
 20
1607.106056621121
 30
0.0
 40
25.0
  1
20
 50
90.0
100
AcDbText
  0
TEXT
  5
9F39
330
1F
100
AcDbEntity
  8
実形
 48
20.0
100
AcDbText
 10
2099.505278912631
 20
1173.745540671268
 30
0.0
 40
25.0
  1
20
 50
90.0
100
AcDbText
  0
TEXT
  5
9F42
330
1F
100
AcDbEntity
  8
実形
 48
20.0
100
AcDbText
 10
2186.665176211878
 20
1125.742032302706
 30
0.0
 40
25.0
  1
15
 50
90.0
100
AcDbText
  0
TEXT
  5
A42A
330
1F
100
AcDbEntity
  8
実形
 62
     0
100
AcDbText
 10
2341.590356822402
 20
18.49999999999909
 30
0.0
 40
35.0
  1
中外交易株式会社
  7
ms明朝
 72
     4
 11
2546.390356822402
 21
36.49999999999909
 31
0.0
100
AcDbText
  0
DIMENSION
  5
A46A
330
1F
100
AcDbEntity
  8
実形
100
AcDbDimension
  2
*D71
 10
1411.053280974977
 20
1083.919947869387
 30
0.0
 11
1091.053280974977
 21
1103.019947869387
 31
0.0
 70
    32
 71
     5
 42
640.0000000000001
  3
ISO-25
100
AcDbAlignedDimension
 13
771.0532809749767
 23
1191.6411620649
 33
0.0
 14
1411.053280974977
 24
1191.6411620649
 34
0.0
100
AcDbRotatedDimension
1001
ACAD
1000
DSTYLE
1002
{
1070
    41
1040
10.0
1070
   147
1040
6.599999999999998
1070
   279
1070
     2
1070
   342
1005
30D
1070
   371
1070
    18
1070
   372
1070
    18
1002
}
  0
LINE
  5
A618
330
1F
100
AcDbEntity
  8
実形
100
AcDbLine
 10
1405.053280974977
 20
1624.178460662066
 30
0.0
 11
1437.053280974977
 21
1624.178460662066
 31
0.0
  0
LINE
  5
A619
330
1F
100
AcDbEntity
  8
実形
100
AcDbLine
 10
1405.053280974977
 20
1204.178460662065
 30
0.0
 11
1437.053280974977
 21
1204.178460662065
 31
0.0
  0
ARC
  5
A6CB
330
1F
100
AcDbEntity
  8
実形
100
AcDbCircle
 10
999.0532809749767
 20
1556.178460662066
 30
0.0
 40
2.0
100
AcDbArc
 50
270.0000000000001
 51
0.0000000000001781
  0
ARC
  5
A6CC
330
1F
100
AcDbEntity
  8
実形
100
AcDbCircle
 10
1007.053280974977
 20
1618.178460662066
 30
0.0
 40
6.0
100
AcDbArc
 50
90.00000000000003
 51
180.0000000000002
  0
LEADER
  5
A6D6
330
1F
100
AcDbEntity
  8
実形
100
AcDbLeader
  3
ISO-25
 76
     2
 10
1013.652425543252
 20
1613.338825152334
 30
0.0
 10
1067.709371673296
 20
1564.442582278879
 30
0.0
211
-1.0
221
0.0
231
0.0
1001
ACAD
1000
DSTYLE
1002
{
1070
    77
1070
     0
1070
    41
1040
10.0
1070
   140
1040
30.0
1070
   147
1040
6.599999999999998
1070
   279
1070
     2
1070
   342
1005
30D
1070
   371
1070
    18
1070
   372
1070
    18
1002
}
  0
TEXT
  5
A6D7
330
1F
100
AcDbEntity
  8
実形
100
AcDbText
 10
1075.824230586841
 20
1542.67442360802
 30
0.0
 40
25.0
  1
6R
 72
     2
 11
1117.490897253507
 21
1539.341090274687
 31
0.0
100
AcDbText
 73
     1
  0
LEADER
  5
A6E0
330
1F
100
AcDbEntity
  8
実形
100
AcDbLeader
  3
ISO-25
 76
     2
 10
1009.253576207427
 20
1544.07463675316
 30
0.0
 10
1063.310522337471
 20
1495.178393879704
 30
0.0
211
-1.0
221
0.0
231
0.0
1001
ACAD
1000
DSTYLE
1002
{
1070
    77
1070
     0
1070
    41
1040
10.0
1070
   140
1040
30.0
1070
   147
1040
6.599999999999998
1070
   279
1070
     2
1070
   342
1005
30D
1070
   371
1070
    18
1070
   372
1070
    18
1002
}
  0
TEXT
  5
A6E1
330
1F
100
AcDbEntity
  8
実形
100
AcDbText
 10
1071.425381251016
 20
1473.410235208846
 30
0.0
 40
25.0
  1
2R
 72
     2
 11
1113.092047917683
 21
1470.076901875512
 31
0.0
100
AcDbText
 73
     1
  0
DIMENSION
  5
A753
330
1F
100
AcDbEntity
  8
実形
100
AcDbDimension
  2
*D72
 10
1531.053280974977
 20
1442.839524988157
 30
0.0
 11
1506.053280974976
 21
1464.261176756287
 31
0.0
 70
   160
 71
     5
 42
50.00000000000023
  3
ISO-25
100
AcDbAlignedDimension
 13
1481.053280974976
 23
1544.0680358653
 33
0.0
 14
1531.053280974977
 24
1544.0680358653
 34
0.0
100
AcDbRotatedDimension
1001
ACAD
1000
DSTYLE
1002
{
1070
    41
1040
10.0
1070
   147
1040
6.599999999999998
1070
   279
1070
     2
1070
   342
1005
30D
1070
   371
1070
    18
1070
   372
1070
    18
1002
}
  0
DIMENSION
  5
A829
330
1F
100
AcDbEntity
  8
実形
100
AcDbDimension
  2
*D73
 10
1656.403252109688
 20
650.6580729330506
 30
0.0
 11
1635.555447121214
 21
675.6580729330509
 31
0.0
 70
   160
 71
     5
 42
50.00000000000011
  3
ISO-25
100
AcDbAlignedDimension
 13
1536.286517744654
 23
700.6580729330508
 33
0.0
 14
1538.006242337502
 24
650.6580729330506
 34
0.0
 50
90.0
100
AcDbRotatedDimension
1001
ACAD
1000
DSTYLE
1002
{
1070
    41
1040
10.0
1070
   147
1040
6.599999999999998
1070
   279
1070
     2
1070
   342
1005
30D
1070
   371
1070
    18
1070
   372
1070
    18
1002
}
  0
DIMENSION
  5
A85B
330
1F
100
AcDbEntity
  8
実形
100
AcDbDimension
  2
*D74
 10
1656.403252109688
 20
650.6580729330505
 30
0.0
 11
1632.432786485002
 21
739.0275461617147
 31
0.0
 70
   160
  1
15
 71
     5
 42
65.00000000000023
  3
ISO-25
100
AcDbAlignedDimension
 13
1536.081311021385
 23
715.6580729330507
 33
0.0
 14
1546.403252109688
 24
650.6580729330505
 34
0.0
 50
90.0
100
AcDbRotatedDimension
1001
ACAD
1000
DSTYLE
1002
{
1070
    41
1040
10.0
1070
   147
1040
6.599999999999998
1070
   279
1070
     2
1070
   342
1005
30D
1070
   371
1070
    18
1070
   372
1070
    18
1002
}
  0
DIMENSION
  5
A8D8
330
1F
100
AcDbEntity
  8
実形
100
AcDbDimension
  2
*D75
 10
1711.403252109689
 20
650.6580729330506
 30
0.0
 11
1692.303252109688
 21
683.1580729330509
 31
0.0
 70
    32
 71
     5
 42
65.00000000000011
  3
ISO-25
100
AcDbAlignedDimension
 13
1546.403252109689
 23
715.6580729330507
 33
0.0
 14
1546.403252109689
 24
650.6580729330506
 34
0.0
 50
90.0
100
AcDbRotatedDimension
1001
ACAD
1000
DSTYLE
1002
{
1070
    41
1040
10.0
1070
   147
1040
6.599999999999998
1070
   279
1070
     2
1070
   342
1005
30D
1070
   371
1070
    18
1070
   372
1070
    18
1002
}
  0
DIMENSION
  5
A8F7
330
1F
100
AcDbEntity
  8
実形
100
AcDbDimension
  2
*D76
 10
1711.403252109688
 20
460.6580729330507
 30
0.0
 11
1692.303252109688
 21
555.6580729330509
 31
0.0
 70
    32
 71
     5
 42
189.9999999999998
  3
ISO-25
100
AcDbAlignedDimension
 13
1546.403252109689
 23
650.6580729330506
 33
0.0
 14
1589.975075635179
 24
460.6580729330508
 34
0.0
 50
90.0
100
AcDbRotatedDimension
1001
ACAD
1000
DSTYLE
1002
{
1070
    41
1040
10.0
1070
   147
1040
6.599999999999998
1070
   279
1070
     2
1070
   342
1005
30D
1070
   371
1070
    18
1070
   372
1070
    18
1002
}
  0
DIMENSION
  5
A904
330
1F
100
AcDbEntity
  8
実形
100
AcDbDimension
  2
*D77
 10
1766.403252109689
 20
460.6580729330507
 30
0.0
 11
1747.303252109689
 21
554.0639336337108
 31
0.0
 70
   160
 71
     5
 42
255.0000000000001
  3
ISO-25
100
AcDbAlignedDimension
 13
1601.403252109689
 23
715.6580729330507
 33
0.0
 14
1600.6733184408
 24
460.6580729330507
 34
0.0
 50
90.0
100
AcDbRotatedDimension
1001
ACAD
1000
DSTYLE
1002
{
1070
    41
1040
10.0
1070
   147
1040
6.599999999999998
1070
   279
1070
     2
1070
   342
1005
30D
1070
   371
1070
    18
1070
   372
1070
    18
1002
}
  0
DIMENSION
  5
A923
330
1F
100
AcDbEntity
  8
実形
100
AcDbDimension
  2
*D78
 10
1766.403252109689
 20
715.6580729330507
 30
0.0
 11
1747.303252109689
 21
427.592962459038
 31
0.0
 70
   160
  1
10
 71
     5
 42
265.0000000000001
  3
ISO-25
100
AcDbAlignedDimension
 13
1590.485689604566
 23
450.6580729330506
 33
0.0
 14
1601.403252109689
 24
715.6580729330507
 34
0.0
 50
90.0
100
AcDbRotatedDimension
1001
ACAD
1000
DSTYLE
1002
{
1070
    41
1040
10.0
1070
   147
1040
6.599999999999998
1070
   279
1070
     2
1070
   342
1005
30D
1070
   371
1070
    18
1070
   372
1070
    18
1002
}
  0
DIMENSION
  5
A966
330
1F
100
AcDbEntity
  8
実形
100
AcDbDimension
  2
*D79
 10
1821.403252109689
 20
450.6580729330506
 30
0.0
 11
1802.303252109689
 21
554.9609720805083
 31
0.0
 70
   160
 71
     5
 42
265.0000000000001
  3
ISO-25
100
AcDbAlignedDimension
 13
1546.403252109689
 23
715.6580729330507
 33
0.0
 14
1653.346912936537
 24
450.6580729330506
 34
0.0
 50
90.0
100
AcDbRotatedDimension
1001
ACAD
1000
DSTYLE
1002
{
1070
    41
1040
10.0
1070
   147
1040
6.599999999999998
1070
   279
1070
     2
1070
   342
1005
30D
1070
   371
1070
    18
1070
   372
1070
    18
1002
}
  0
DIMENSION
  5
AA38
330
1F
100
AcDbEntity
  8
実形
100
AcDbDimension
  2
*D80
 10
635.6802185117849
 20
525.6580729330507
 30
0.0
 11
615.9111887819654
 21
692.8852156298617
 31
0.0
 70
   160
  1
15
 71
     5
 42
190.0000000000001
  3
ISO-25
100
AcDbAlignedDimension
 13
759.936978350237
 23
715.6580729330508
 33
0.0
 14
759.936978350237
 24
525.6580729330507
 34
0.0
 50
90.0
100
AcDbRotatedDimension
1001
ACAD
1000
DSTYLE
1002
{
1070
    41
1040
10.0
1070
   140
1040
25.0
1070
   147
1040
6.599999999999998
1070
   279
1070
     2
1070
   342
1005
30D
1070
   371
1070
    18
1070
   372
1070
    18
1002
}
  0
DIMENSION
  5
AA39
330
1F
100
AcDbEntity
  8
実形
100
AcDbDimension
  2
*D81
 10
635.6802185117849
 20
525.6580729330507
 30
0.0
 11
616.5802185117847
 21
613.1580729330509
 31
0.0
 70
    32
 71
     5
 42
175.0
  3
ISO-25
100
AcDbAlignedDimension
 13
759.936978350237
 23
700.6580729330508
 33
0.0
 14
759.936978350237
 24
525.6580729330507
 34
0.0
 50
90.0
100
AcDbRotatedDimension
1001
ACAD
1000
DSTYLE
1002
{
1070
    41
1040
10.0
1070
   140
1040
25.0
1070
   147
1040
6.599999999999998
1070
   279
1070
     2
1070
   342
1005
30D
1070
   371
1070
    18
1070
   372
1070
    18
1002
}
  0
DIMENSION
  5
AA3A
330
1F
100
AcDbEntity
  8
実形
100
AcDbDimension
  2
*D82
 10
572.507277921115
 20
525.6580729330507
 30
0.0
 11
552.1972667677292
 21
611.7417301816194
 31
0.0
 70
   160
 71
     5
 42
190.0000000000001
  3
ISO-25
100
AcDbAlignedDimension
 13
694.936978350237
 23
715.6580729330508
 33
0.0
 14
694.936978350237
 24
525.6580729330507
 34
0.0
 50
90.0
100
AcDbRotatedDimension
1001
ACAD
1000
DSTYLE
1002
{
1070
    41
1040
10.0
1070
   140
1040
25.0
1070
   147
1040
6.599999999999998
1070
   279
1070
     2
1070
   342
1005
30D
1070
   371
1070
    18
1070
   372
1070
    18
1002
}
  0
DIMENSION
  5
AA3B
330
1F
100
AcDbEntity
  8
実形
100
AcDbDimension
  2
*D83
 10
572.507277921115
 20
715.6580729330508
 30
0.0
 11
552.819148601071
 21
535.7691236751962
 31
0.0
 70
   160
  1
15
 71
     5
 42
205.0000000000001
  3
ISO-25
100
AcDbAlignedDimension
 13
760.5963134502271
 23
510.6580729330508
 33
0.0
 14
759.936978350237
 24
715.6580729330508
 34
0.0
 50
90.0
100
AcDbRotatedDimension
1001
ACAD
1000
DSTYLE
1002
{
1070
    41
1040
10.0
1070
   140
1040
25.0
1070
   147
1040
6.599999999999998
1070
   279
1070
     2
1070
   342
1005
30D
1070
   371
1070
    18
1070
   372
1070
    18
1002
}
  0
DIMENSION
  5
AA3C
330
1F
100
AcDbEntity
  8
実形
100
AcDbDimension
  2
*D84
 10
512.1655984588215
 20
510.6580729330508
 30
0.0
 11
493.0655984588214
 21
613.158072933051
 31
0.0
 70
    32
 71
     5
 42
205.0000000000001
  3
ISO-25
100
AcDbAlignedDimension
 13
635.6802185117849
 23
715.6580729330508
 33
0.0
 14
635.6802185117849
 24
510.6580729330508
 34
0.0
 50
90.0
100
AcDbRotatedDimension
1001
ACAD
1000
DSTYLE
1002
{
1070
    41
1040
10.0
1070
   140
1040
25.0
1070
   147
1040
6.599999999999998
1070
   279
1070
     2
1070
   342
1005
30D
1070
   371
1070
    18
1070
   372
1070
    18
1002
}
  0
DIMENSION
  5
AA3D
330
1F
100
AcDbEntity
  8
実形
100
AcDbDimension
  2
*D85
 10
512.1655984588215
 20
715.6580729330508
 30
0.0
 11
492.520471066915
 21
515.2179794909334
 31
0.0
 70
   160
  1
8
 71
     5
 42
215.0000000000001
  3
ISO-25
100
AcDbAlignedDimension
 13
630.5982939539208
 23
500.6580729330507
 33
0.0
 14
635.6802185117849
 24
715.6580729330508
 34
0.0
 50
90.0
100
AcDbRotatedDimension
1001
ACAD
1000
DSTYLE
1002
{
1070
    41
1040
10.0
1070
   140
1040
25.0
1070
   147
1040
6.599999999999998
1070
   279
1070
     2
1070
   342
1005
30D
1070
   371
1070
    18
1070
   372
1070
    18
1002
}
  0
DIMENSION
  5
AA3E
330
1F
100
AcDbEntity
  8
実形
100
AcDbDimension
  2
*D86
 10
457.2751994869395
 20
500.6580729330507
 30
0.0
 11
431.2271855834897
 21
614.371334171702
 31
0.0
 70
   160
  1
213
 71
     5
 42
215.0000000000002
  3
ISO-25
100
AcDbAlignedDimension
 13
572.507277921115
 23
715.6580729330508
 33
0.0
 14
582.7993016229338
 24
500.6580729330507
 34
0.0
 50
90.0
100
AcDbRotatedDimension
1001
ACAD
1000
DSTYLE
1002
{
1070
    41
1040
10.0
1070
   140
1040
25.0
1070
   147
1040
6.599999999999998
1070
   279
1070
     2
1070
   342
1005
30D
1070
   371
1070
    18
1070
   372
1070
    18
1002
}
  0
LINE
  5
AAD2
330
1F
100
AcDbEntity
  8
実形
100
AcDbLine
 10
1672.325595652257
 20
1169.178460662066
 30
0.0
 11
1672.325595652257
 21
1659.178460662065
 31
0.0
  0
LINE
  5
AAD9
330
1F
100
AcDbEntity
  8
実形
100
AcDbLine
 10
1937.325595652257
 20
1586.428460662066
 30
0.0
 11
1947.325595652257
 21
1586.428460662065
 31
0.0
  0
LINE
  5
AADA
330
1F
100
AcDbEntity
  8
実形
  6
ACAD_ISO08W100
 48
0.5
100
AcDbLine
 10
1848.8336634677
 20
1564.178460662066
 30
0.0
 11
1984.109882967979
 21
1564.178460662066
 31
0.0
  0
LINE
  5
AADB
330
1F
100
AcDbEntity
  8
実形
100
AcDbLine
 10
1937.325595652257
 20
1541.928460662066
 30
0.0
 11
1947.325595652257
 21
1541.928460662066
 31
0.0
  0
LINE
  5
AADC
330
1F
100
AcDbEntity
  8
実形
100
AcDbLine
 10
1687.325595652257
 20
1184.178460662066
 30
0.0
 11
1687.325595652257
 21
1644.178460662066
 31
0.0
  0
LINE
  5
AADD
330
1F
100
AcDbEntity
  8
実形
100
AcDbLine
 10
1672.325595652257
 20
1644.178460662066
 30
0.0
 11
1687.325595652257
 21
1644.178460662066
 31
0.0
  0
LINE
  5
AADE
330
1F
100
AcDbEntity
  8
実形
100
AcDbLine
 10
1672.325595652257
 20
1184.178460662066
 30
0.0
 11
1687.325595652257
 21
1184.178460662066
 31
0.0
  0
LINE
  5
AADF
330
1F
100
AcDbEntity
  8
実形
100
AcDbLine
 10
1687.325595652257
 20
1624.178460662065
 30
0.0
 11
1931.325595652257
 21
1624.178460662066
 31
0.0
  0
LINE
  5
AAE0
330
1F
100
AcDbEntity
  8
実形
100
AcDbLine
 10
1687.325595652257
 20
1204.178460662066
 30
0.0
 11
1921.500612569012
 21
1204.178460662066
 31
0.0
  0
LINE
  5
AAE2
330
1F
100
AcDbEntity
  8
実形
100
AcDbLine
 10
1937.325595652257
 20
1541.928460662066
 30
0.0
 11
1937.325595652257
 21
1586.428460662065
 31
0.0
  0
LINE
  5
AAE3
330
1F
100
AcDbEntity
  8
実形
100
AcDbLine
 10
1927.497984449431
 20
1210.000892286628
 30
0.0
 11
1937.325595652256
 21
1541.928460662066
 31
0.0
  0
LINE
  5
AAF1
330
1F
100
AcDbEntity
  8
実形
100
AcDbLine
 10
1947.325595652257
 20
1541.928460662066
 30
0.0
 11
1947.325595652257
 21
1586.428460662065
 31
0.0
  0
DIMENSION
  5
AC78
330
1F
100
AcDbEntity
  8
実形
100
AcDbDimension
  2
*D87
 10
1927.325595652257
 20
1064.632201197999
 30
0.0
 11
1799.825595652257
 21
1083.732201197999
 31
0.0
 70
    32
  1
240
 71
     5
 42
255.0000000000002
  3
ISO-25
100
AcDbAlignedDimension
 13
1672.325595652257
 23
1184.654998595655
 33
0.0
 14
1927.325595652257
 24
1184.654998595655
 34
0.0
100
AcDbRotatedDimension
1001
ACAD
1000
DSTYLE
1002
{
1070
    41
1040
10.0
1070
   147
1040
6.599999999999998
1070
   279
1070
     2
1070
   342
1005
30D
1070
   371
1070
    18
1070
   372
1070
    18
1002
}
  0
DIMENSION
  5
AC98
330
1F
100
AcDbEntity
  8
実形
100
AcDbDimension
  2
*D88
 10
1927.325595652257
 20
1064.632201197999
 30
0.0
 11
1708.619853379788
 21
1083.732201197999
 31
0.0
 70
   160
  1
15
 71
     5
 42
240.0
  3
ISO-25
100
AcDbAlignedDimension
 13
1687.325595652257
 23
1184.178460662066
 33
0.0
 14
1927.325595652257
 24
1169.178460662066
 34
0.0
100
AcDbRotatedDimension
1001
ACAD
1000
DSTYLE
1002
{
1070
    41
1040
10.0
1070
   147
1040
6.599999999999998
1070
   279
1070
     2
1070
   342
1005
30D
1070
   371
1070
    18
1070
   372
1070
    18
1002
}
  0
DIMENSION
  5
ACE4
330
1F
100
AcDbEntity
  8
実形
100
AcDbDimension
  2
*D89
 10
1927.325595652257
 20
1009.632201197999
 30
0.0
 11
1799.825595652257
 21
1028.732201197999
 31
0.0
 70
    32
 71
     5
 42
255.0000000000002
  3
ISO-25
100
AcDbAlignedDimension
 13
1672.325595652257
 23
1169.178460662066
 33
0.0
 14
1927.325595652257
 24
1169.178460662066
 34
0.0
100
AcDbRotatedDimension
1001
ACAD
1000
DSTYLE
1002
{
1070
    41
1040
10.0
1070
   147
1040
6.599999999999998
1070
   279
1070
     2
1070
   342
1005
30D
1070
   371
1070
    18
1070
   372
1070
    18
1002
}
  0
DIMENSION
  5
ACFA
330
1F
100
AcDbEntity
  8
実形
100
AcDbDimension
  2
*D90
 10
1672.325595652257
 20
1009.632201197999
 30
0.0
 11
1960.881962214171
 21
1028.732201197999
 31
0.0
 70
   160
  1
10
 71
     5
 42
265.0000000000005
  3
ISO-25
100
AcDbAlignedDimension
 13
1937.325595652257
 23
1124.978003630394
 33
0.0
 14
1672.325595652257
 24
1169.178460662066
 34
0.0
100
AcDbRotatedDimension
1001
ACAD
1000
DSTYLE
1002
{
1070
    41
1040
10.0
1070
   147
1040
6.599999999999998
1070
   279
1070
     2
1070
   342
1005
30D
1070
   371
1070
    18
1070
   372
1070
    18
1002
}
  0
DIMENSION
  5
AD46
330
1F
100
AcDbEntity
  8
実形
100
AcDbDimension
  2
*D91
 10
1937.325595652257
 20
954.6322011979988
 30
0.0
 11
1804.825595652257
 21
973.7322011979989
 31
0.0
 70
    32
 71
     5
 42
265.0000000000005
  3
ISO-25
100
AcDbAlignedDimension
 13
1672.325595652257
 23
1119.178460662065
 33
0.0
 14
1937.325595652257
 24
1076.091623730012
 34
0.0
100
AcDbRotatedDimension
1001
ACAD
1000
DSTYLE
1002
{
1070
    41
1040
10.0
1070
   147
1040
6.599999999999998
1070
   279
1070
     2
1070
   342
1005
30D
1070
   371
1070
    18
1070
   372
1070
    18
1002
}
  0
DIMENSION
  5
AD67
330
1F
100
AcDbEntity
  8
実形
100
AcDbDimension
  2
*D92
 10
1947.325595652257
 20
954.6322011979988
 30
0.0
 11
1963.441714956481
 21
973.7322011979989
 31
0.0
 70
   160
  1
6
 71
     5
 42
275.0
  3
ISO-25
100
AcDbAlignedDimension
 13
1672.325595652257
 23
1169.178460662066
 33
0.0
 14
1947.325595652257
 24
1072.972521801928
 34
0.0
100
AcDbRotatedDimension
1001
ACAD
1000
DSTYLE
1002
{
1070
    41
1040
10.0
1070
   147
1040
6.599999999999998
1070
   279
1070
     2
1070
   342
1005
30D
1070
   371
1070
    18
1070
   372
1070
    18
1002
}
  0
DIMENSION
  5
AD98
330
1F
100
AcDbEntity
  8
実形
100
AcDbDimension
  2
*D93
 10
1947.325595652257
 20
899.6322011979987
 30
0.0
 11
1809.825595652257
 21
918.7322011979988
 31
0.0
 70
    32
  1
271
 71
     5
 42
274.9999999999998
  3
ISO-25
100
AcDbAlignedDimension
 13
1672.325595652257
 23
1169.178460662066
 33
0.0
 14
1947.325595652257
 24
1017.6614924796
 34
0.0
100
AcDbRotatedDimension
1001
ACAD
1000
DSTYLE
1002
{
1070
    41
1040
10.0
1070
   147
1040
6.599999999999998
1070
   279
1070
     2
1070
   342
1005
30D
1070
   371
1070
    18
1070
   372
1070
    18
1002
}
  0
ARC
  5
ADDF
330
1F
100
AcDbEntity
  8
実形
100
AcDbCircle
 10
1921.500612569012
 20
1210.178460662066
 30
0.0
 40
6.0
100
AcDbArc
 50
270.0
 51
358.3040992987343
  0
LEADER
  5
ADEC
330
1F
100
AcDbEntity
  8
実形
100
AcDbLeader
  3
ISO-25
 76
     2
 10
1916.516976622535
 20
1215.336242506879
 30
0.0
 10
1885.724275746901
 20
1241.706070613008
 30
0.0
211
-1.0
221
0.0
231
0.0
1001
ACAD
1000
DSTYLE
1002
{
1070
    77
1070
     0
1070
    41
1040
10.0
1070
   147
1040
6.599999999999998
1070
   279
1070
     2
1070
   342
1005
30D
1070
   371
1070
    18
1070
   372
1070
    18
1002
}
  0
TEXT
  5
ADED
330
1F
100
AcDbEntity
  8
実形
100
AcDbText
 10
1859.856693204643
 20
1247.64984959414
 30
0.0
 40
25.0
  1
6R
 72
     2
 11
1901.52335987131
 21
1244.316516260807
 31
0.0
100
AcDbText
 73
     1
  0
LINE
  5
AF10
330
1F
100
AcDbEntity
  8
実形
100
AcDbLine
 10
1503.303280974977
 20
460.6580729330508
 30
0.0
 11
1502.228462545176
 21
460.6580729330508
 31
0.0
  0
LINE
  5
AF15
330
1F
100
AcDbEntity
  8
実形
100
AcDbLine
 10
1531.053280974977
 20
456.6580729330505
 30
0.0
 11
1531.053280974977
 21
469.1026515846645
 31
0.0
  0
LINE
  5
AF17
330
1F
100
AcDbEntity
  8
実形
100
AcDbLine
 10
1459.878099404778
 20
460.6580729330508
 30
0.0
 11
1458.803280974977
 21
460.6580729330508
 31
0.0
  0
LINE
  5
AF18
330
1F
100
AcDbEntity
  8
実形
100
AcDbLine
 10
1489.274655050732
 20
460.6580729330508
 30
0.0
 11
1468.148789157976
 21
460.6580729330508
 31
0.0
  0
DIMENSION
  5
AF3D
330
1F
100
AcDbEntity
  8
実形
100
AcDbDimension
  2
*D94
 10
1821.403252109689
 20
440.6580729330507
 30
0.0
 11
1802.303252109689
 21
422.7106920143706
 31
0.0
 70
   160
  1
6
 71
     5
 42
275.0
  3
ISO-25
100
AcDbAlignedDimension
 13
1711.403252109689
 23
715.6580729330507
 33
0.0
 14
1706.418381063886
 24
440.6580729330507
 34
0.0
 50
90.0
100
AcDbRotatedDimension
1001
ACAD
1000
DSTYLE
1002
{
1070
    41
1040
10.0
1070
   147
1040
6.599999999999998
1070
   279
1070
     2
1070
   342
1005
30D
1070
   371
1070
    18
1070
   372
1070
    18
1002
}
  0
DIMENSION
  5
AF92
330
1F
100
AcDbEntity
  8
実形
100
AcDbDimension
  2
*D95
 10
1877.648406070939
 20
440.6580729330507
 30
0.0
 11
1858.548406070939
 21
554.9791453667794
 31
0.0
 70
   160
  1
271
 71
     5
 42
275.0
  3
ISO-25
100
AcDbAlignedDimension
 13
1711.403252109689
 23
715.6580729330507
 33
0.0
 14
1719.367300745767
 24
440.6580729330507
 34
0.0
 50
90.0
100
AcDbRotatedDimension
1001
ACAD
1000
DSTYLE
1002
{
1070
    41
1040
10.0
1070
   147
1040
6.599999999999998
1070
   279
1070
     2
1070
   342
1005
30D
1070
   371
1070
    18
1070
   372
1070
    18
1002
}
  0
DIMENSION
  5
AFD6
330
1F
100
AcDbEntity
  8
実形
100
AcDbDimension
  2
*D96
 10
1620.680376831284
 20
1624.178460662065
 30
0.0
 11
1601.580376831283
 21
1594.178460662066
 31
0.0
 70
    32
 71
     5
 42
60.00000000000023
  3
ISO-25
100
AcDbAlignedDimension
 13
1515.58389079445
 23
1564.178460662066
 33
0.0
 14
1515.583890794451
 24
1624.178460662066
 34
0.0
 50
90.0
100
AcDbRotatedDimension
1001
ACAD
1000
DSTYLE
1002
{
1070
    41
1040
10.0
1070
   147
1040
6.599999999999998
1070
   279
1070
     2
1070
   342
1005
30D
1070
   371
1070
    18
1070
   372
1070
    18
1002
}
  0
LINE
  5
AFF5
330
1F
100
AcDbEntity
  8
実形
100
AcDbLine
 10
1503.303280974977
 20
450.6580729330507
 30
0.0
 11
1525.053280974977
 21
450.6580729330507
 31
0.0
  0
LINE
  5
AFF6
330
1F
100
AcDbEntity
  8
実形
100
AcDbLine
 10
1458.803280974977
 20
450.6580729330508
 30
0.0
 11
1437.053280974976
 21
450.6580729330508
 31
0.0
  0
LINE
  5
AFF7
330
1F
100
AcDbEntity
  8
実形
100
AcDbLine
 10
1503.303280974977
 20
460.6580729330508
 30
0.0
 11
1525.053280974977
 21
460.6580729330508
 31
0.0
  0
LINE
  5
AFF8
330
1F
100
AcDbEntity
  8
実形
100
AcDbLine
 10
1458.803280974977
 20
460.6580729330508
 30
0.0
 11
1437.053280974976
 21
460.6580729330507
 31
0.0
  0
ARC
  5
B0D1
330
1F
100
AcDbEntity
  8
実形
100
AcDbCircle
 10
1525.053280974977
 20
456.6580729330507
 30
0.0
 40
6.0
100
AcDbArc
 50
270.0
 51
359.9999999999986
  0
ARC
  5
B0D2
330
1F
100
AcDbEntity
  8
実形
100
AcDbCircle
 10
1525.053280974977
 20
466.6580729330507
 30
0.0
 40
6.0
100
AcDbArc
 50
270.0
 51
0.0000000000000509
  0
ARC
  5
B0D3
330
1F
100
AcDbEntity
  8
実形
100
AcDbCircle
 10
1437.053280974976
 20
456.6580729330508
 30
0.0
 40
6.0
100
AcDbArc
 50
179.9999999999997
 51
270.0000000000001
  0
ARC
  5
B0D4
330
1F
100
AcDbEntity
  8
実形
100
AcDbCircle
 10
1437.053280974976
 20
466.6580729330507
 30
0.0
 40
6.0
100
AcDbArc
 50
179.9999999999997
 51
270.0000000000002
  0
LINE
  5
B0D5
330
1F
100
AcDbEntity
  8
実形
100
AcDbLine
 10
1431.053280974976
 20
466.6580729330507
 30
0.0
 11
1431.053280974976
 21
456.6580729330508
 31
0.0
  0
DIMENSION
  5
B0F6
330
1F
100
AcDbEntity
  8
実形
100
AcDbDimension
  2
*D97
 10
2021.778344026119
 20
1541.928460662066
 30
0.0
 11
2062.861819787198
 21
1564.178460662066
 31
0.0
 70
   160
 71
     5
 42
44.49999999999977
  3
ISO-25
100
AcDbAlignedDimension
 13
1925.567160043129
 23
1586.428460662065
 33
0.0
 14
1925.567160043129
 24
1541.928460662066
 34
0.0
 50
90.0
100
AcDbRotatedDimension
1001
ACAD
1000
DSTYLE
1002
{
1070
    41
1040
10.0
1070
   147
1040
6.599999999999998
1070
   279
1070
     2
1070
   342
1005
30D
1070
   371
1070
    18
1070
   372
1070
    18
1002
}
  0
TEXT
  5
B16F
330
1F
100
AcDbEntity
  8
実形
100
AcDbText
 10
234.9784467214322
 20
55.07438486928823
 30
0.0
 40
30.0
  1
※実寸には製造上の誤差が多少生ずる場合があります。シンクの穴あけ加工は現物合わせにてお願いします。
 72
     4
 11
1104.978446721432
 21
70.07438486928823
 31
0.0
100
AcDbText
  0
LINE
  5
B2EB
330
1F
100
AcDbEntity
  8
実形
100
AcDbLine
 10
1937.325595652257
 20
1586.428460662062
 30
0.0
 11
1937.325595652257
 21
1618.178460662066
 31
0.0
  0
ARC
  5
B2EC
330
1F
100
AcDbEntity
  8
実形
100
AcDbCircle
 10
1931.325595652257
 20
1618.178460662066
 30
0.0
 40
6.0
100
AcDbArc
 50
0.0
 51
90.0000000000001
  0
LINE
  5
B2F0
330
1F
100
AcDbEntity
  8
実形
100
AcDbLine
 10
1351.553280974977
 20
510.6580729330508
 30
0.0
 11
1405.053280974977
 21
510.6580729330508
 31
0.0
  0
ARC
  5
B2F1
330
1F
100
AcDbEntity
  8
実形
100
AcDbCircle
 10
1405.053280974977
 20
516.6580729330507
 30
0.0
 40
6.0
100
AcDbArc
 50
270.0
 51
0.0000000000000891
  0
TEXT
  5
B318
330
1F
100
AcDbEntity
  8
実形
100
AcDbText
 10
234.6212219700337
 20
117.5456368237055
 30
0.0
 40
30.0
  1
※排水口外周W35ｍｍ,H3ｍｍラウンドテーパ－有り。
 72
     4
 11
688.1212219700337
 21
130.0456368237055
 31
0.0
100
AcDbText
  0
LINE
  5
B3D7
330
1F
100
AcDbEntity
  8
補助
 62
     0
100
AcDbLine
 10
2834.0
 20
1959.0
 30
0.0
 11
2069.387286519283
 21
1959.000000000001
 31
0.0
  0
LINE
  5
B3D8
330
1F
100
AcDbEntity
  8
補助
 62
     0
100
AcDbLine
 10
2834.0
 20
1894.0
 30
0.0
 11
2069.387286519283
 21
1894.0
 31
0.0
  0
LINE
  5
B3D9
330
1F
100
AcDbEntity
  8
補助
 62
     0
100
AcDbLine
 10
2252.547653420926
 20
1894.0
 30
0.0
 11
2252.547653420926
 21
2024.0
 31
0.0
  0
LINE
  5
B3DA
330
1F
100
AcDbEntity
  8
補助
 62
     0
100
AcDbLine
 10
2069.387286519283
 20
1894.0
 30
0.0
 11
2069.387286519283
 21
2024.0
 31
0.0
  0
TEXT
  5
B3DB
330
1F
100
AcDbEntity
  8
補助
 62
     0
100
AcDbText
 10
2100.295698850121
 20
1976.328571428572
 30
0.0
 40
30.0
  1
部品名
  7
明朝
 72
     4
 11
2166.124270278692
 21
1991.5
 31
0.0
100
AcDbText
  0
TEXT
  5
B3DC
330
1F
100
AcDbEntity
  8
補助
 62
     0
100
AcDbText
 10
2677.614285714286
 20
1976.071428571429
 30
0.0
 40
30.0
  1
厚さ
  7
明朝
 72
     4
 11
2721.5
 21
1991.5
 31
0.0
100
AcDbText
  0
LINE
  5
B3DD
330
1F
100
AcDbEntity
  8
補助
 62
     0
100
AcDbLine
 10
2609.0
 20
1894.0
 30
0.0
 11
2609.0
 21
2024.0
 31
0.0
  0
TEXT
  5
B3DE
330
1F
100
AcDbEntity
  8
補助
 62
     0
100
AcDbText
 10
2388.490869919937
 20
1975.947979478155
 30
0.0
 40
30.0
  1
材質
  7
明朝
 72
     4
 11
2432.376584205651
 21
1991.119408049583
 31
0.0
100
AcDbText
  0
TEXT
  5
B3DF
330
1F
100
AcDbEntity
  8
実形
 62
     0
100
AcDbText
 10
2098.227810657788
 20
1910.557142857143
 30
0.0
 40
30.0
  1
ボウル
  7
明朝
 72
     4
 11
2164.056382086359
 21
1926.5
 31
0.0
100
AcDbText
  0
TEXT
  5
B3E0
330
1F
100
AcDbEntity
  8
実形
 62
     0
100
AcDbText
 10
2644.700000000001
 20
1911.842857142857
 30
0.0
 40
30.0
  1
1.0ｍｍ
  7
明朝
 72
     4
 11
2721.500000000001
 21
1926.5
 31
0.0
100
AcDbText
  0
TEXT
  5
B3E1
330
1F
100
AcDbEntity
  8
実形
 62
     0
100
AcDbText
 10
2311.016869107866
 20
1910.728571428572
 30
0.0
 40
30.0
  1
SUS304（HL）
  7
明朝
 72
     4
 11
2442.674011965009
 21
1926.5
 31
0.0
100
AcDbText
  0
VIEWPORT
  5
2E
102
{ACAD_XDICTIONARY
360
B414
102
}
330
1B
100
AcDbEntity
 67
     1
  8
0
100
AcDbViewport
 10
144.7270812988281
 20
101.2295806407928
 30
0.0
 40
411.6736216682419
 41
222.1517806396485
 68
     1
 69
     1
 12
144.7270812988281
 22
101.2295806407928
 13
0.0
 23
0.0
 14
10.0
 24
10.0
 15
10.0
 25
10.0
 16
0.0
 26
0.0
 36
1.0
 17
0.0
 27
0.0
 37
0.0
 42
50.0
 43
0.0
 44
0.0
 45
222.1517806396485
 50
0.0
 51
0.0
 72
   100
 90
    32800
  1

281
     0
 71
     1
 74
     0
110
0.0
120
0.0
130
0.0
111
1.0
121
0.0
131
0.0
112
0.0
122
1.0
132
0.0
 79
     0
146
0.0
  0
VIEWPORT
  5
30
102
{ACAD_XDICTIONARY
360
B416
102
}
330
1B
100
AcDbEntity
 67
     1
  8
0
100
AcDbViewport
 10
139.2237563133239
 20
101.2295821905136
 30
0.0
 40
222.7580101013184
 41
161.9673315048218
 68
     2
 69
     2
 12
210.0
 22
148.5
 13
0.0
 23
0.0
 14
10.0
 24
10.0
 15
10.0
 25
10.0
 16
0.0
 26
0.0
 36
1.0
 17
0.0
 27
0.0
 37
0.0
 42
50.0
 43
0.0
 44
0.0
 45
309.0686705647124
 50
0.0
 51
0.0
 72
   100
 90
    32864
  1

281
     0
 71
     1
 74
     0
110
0.0
120
0.0
130
0.0
111
1.0
121
0.0
131
0.0
112
0.0
122
1.0
132
0.0
 79
     0
146
0.0
  0
ENDSEC
  0
SECTION
  2
OBJECTS
  0
DICTIONARY
  5
C
330
0
100
AcDbDictionary
281
     1
  3
ACAD_COLOR
350
22AD
  3
ACAD_GROUP
350
D
  3
ACAD_LAYOUT
350
1A
  3
ACAD_MATERIAL
350
22AC
  3
ACAD_MLINESTYLE
350
17
  3
ACAD_PLOTSETTINGS
350
19
  3
ACAD_PLOTSTYLENAME
350
E
  3
ACAD_TABLESTYLE
350
22AE
  3
AcadDim
350
124
  3
ACDBHEADERROUNDTRIPXREC
350
B40D
  3
AcDbVariableDictionary
350
1589
  3
DWGPROPS
350
B40C
  0
DICTIONARY
  5
24C4
330
2
100
AcDbDictionary
280
     1
281
     1
  3
ACAD_LAYERFILTERS
360
6C37
  3
ACAD_LAYERSTATES
360
24C5
  3
ACLYDICTIONARY
360
6C36
  0
DICTIONARY
  5
2396
330
1F
100
AcDbDictionary
280
     1
281
     1
  3
ACAD_SORTENTS
360
2397
  0
DICTIONARY
  5
313E
330
313C
100
AcDbDictionary
280
     1
281
     1
  3
ACAD_SORTENTS
360
80F9
  0
DICTIONARY
  5
3848
330
3846
100
AcDbDictionary
280
     1
281
     1
  3
ACAD_SORTENTS
360
80FA
  0
DICTIONARY
  5
6B89
330
6B87
100
AcDbDictionary
280
     1
281
     1
  3
ACAD_SORTENTS
360
80FB
  0
DICTIONARY
  5
6C02
330
6C00
100
AcDbDictionary
280
     1
281
     1
  3
ACAD_SORTENTS
360
80FC
  0
DICTIONARY
  5
7758
330
7752
100
AcDbDictionary
280
     1
281
     1
  3
ACAD_SORTENTS
360
80FD
  0
DICTIONARY
  5
79A2
330
79A0
100
AcDbDictionary
280
     1
281
     1
  3
ACAD_SORTENTS
360
80FE
  0
DICTIONARY
  5
80F8
330
8065
100
AcDbDictionary
280
     1
281
     1
  3
ACAD_SORTENTS
360
80FF
  0
DICTIONARY
  5
9C43
330
9C3F
100
AcDbDictionary
280
     1
281
     1
  3
ACAD_SORTENTS
360
9C44
  0
DICTIONARY
  5
B414
330
2E
100
AcDbDictionary
280
     1
281
     1
  3
ACAD_XREC_ROUNDTRIP
360
B415
  0
DICTIONARY
  5
B416
330
30
100
AcDbDictionary
280
     1
281
     1
  3
ACAD_XREC_ROUNDTRIP
360
B417
  0
DICTIONARY
  5
22AD
102
{ACAD_REACTORS
330
C
102
}
330
C
100
AcDbDictionary
281
     1
  0
DICTIONARY
  5
D
102
{ACAD_REACTORS
330
C
102
}
330
C
100
AcDbDictionary
281
     1
  0
DICTIONARY
  5
1A
102
{ACAD_REACTORS
330
C
102
}
330
C
100
AcDbDictionary
281
     1
  3
Model
350
22
  3
ﾚｲｱｳﾄ1
350
1E
  3
ﾚｲｱｳﾄ2
350
26
  0
DICTIONARY
  5
22AC
102
{ACAD_REACTORS
330
C
102
}
330
C
100
AcDbDictionary
281
     1
  0
DICTIONARY
  5
17
102
{ACAD_REACTORS
330
C
102
}
330
C
100
AcDbDictionary
281
     1
  3
Standard
350
18
  0
DICTIONARY
  5
19
102
{ACAD_REACTORS
330
C
102
}
330
C
100
AcDbDictionary
281
     1
  0
ACDBDICTIONARYWDFLT
  5
E
102
{ACAD_REACTORS
330
C
102
}
330
C
100
AcDbDictionary
281
     1
  3
Normal
350
F
100
AcDbDictionaryWithDefault
340
F
  0
DICTIONARY
  5
22AE
102
{ACAD_REACTORS
330
C
102
}
330
C
100
AcDbDictionary
281
     1
  3
Standard
350
22AF
  0
XRECORD
  5
124
102
{ACAD_REACTORS
330
C
102
}
330
C
100
AcDbXrecord
280
     1
 90
   990106
  3

 60
     0
 61
     0
 62
     1
 63
     3
 64
     0
 65
     0
 66
     0
 67
     3
 68
     1
 69
     0
 70
     0
 71
     0
 72
     0
 40
30.0
170
     0
  0
DICTIONARY
  5
B40D
102
{ACAD_REACTORS
330
C
102
}
330
C
100
AcDbDictionary
281
     1
  0
DICTIONARY
  5
1589
102
{ACAD_REACTORS
330
C
102
}
330
C
100
AcDbDictionary
281
     1
  3
CTABLESTYLE
350
22B5
  3
DIMASSOC
350
B409
  3
PROJECTNAME
350
B40A
  3
SORTENTS
350
158A
  0
XRECORD
  5
B40C
102
{ACAD_REACTORS
330
C
102
}
330
C
100
AcDbXrecord
280
     1
  1
DWGPROPS COOKIE
  2

  3

  4

  6

  7

  8

  9

300
=
301
=
302
=
303
=
304
=
305
=
306
=
307
=
308
=
309
=
 40
2.92814511574074
 41
2451673.575802199
 42
2458808.791158415
  1

 90
        0
  0
DICTIONARY
  5
6C37
102
{ACAD_REACTORS
330
24C4
102
}
330
24C4
100
AcDbDictionary
281
     1
  0
DICTIONARY
  5
24C5
102
{ACAD_REACTORS
330
24C4
102
}
330
24C4
100
AcDbDictionary
281
     1
  0
DICTIONARY
  5
6C36
102
{ACAD_REACTORS
330
24C4
102
}
330
24C4
100
AcDbDictionary
281
     1
1001
ACAD
1000
<All
  0
SORTENTSTABLE
  5
2397
102
{ACAD_REACTORS
330
2396
102
}
330
2396
100
AcDbSortentsTable
330
1F
331
ADDF
  5
AF12
331
7BA4
  5
818E
331
799E
  5
817E
331
A42A
  5
A7D9
331
1B98
  5
1BA8
331
9E34
  5
A77E
331
A46A
  5
A8D5
331
70F5
  5
7772
331
272
  5
1B7F
331
7184
  5
7798
331
5E5F
  5
634E
331
B16F
  5
B2EC
331
AA3B
  5
AAE4
331
A904
  5
AADE
331
AAD2
  5
ACE4
331
AADA
  5
AD98
331
7BCC
  5
818F
331
A6D6
  5
A8F7
331
91C6
  5
82EE
331
AAE2
  5
ACFA
331
7A4D
  5
818B
331
AD98
  5
AFD6
331
7877
  5
817A
331
7026
  5
7026
331
AFF8
  5
B16F
331
754C
  5
7028
331
702E
  5
7323
331
1B91
  5
1B9B
331
8C20
  5
703F
331
799F
  5
8185
331
7A2E
  5
818A
331
9DC5
  5
A6F5
331
9E35
  5
A77F
331
1B99
  5
37FF
331
7185
  5
77A5
331
72ED
  5
77AF
331
AA3C
  5
AAF2
331
AADB
  5
ADDF
331
A6D7
  5
AA39
331
91C7
  5
8346
331
AAE3
  5
AF11
331
817A
  5
8194
331
9312
  5
824C
331
7B4E
  5
818D
331
9392
  5
8278
331
5E68
  5
634F
331
7027
  5
70F5
331
1B8A
  5
1B93
331
702F
  5
7029
331
1B92
  5
1B9C
331
754D
  5
7771
331
B0D1
  5
AFF8
331
774D
  5
7844
331
AF92
  5
B0D2
331
8182
  5
824D
331
A618
  5
A8D6
331
ACFA
  5
AF16
331
8192
  5
8353
331
782D
  5
754A
331
AA3D
  5
AAF8
331
79B0
  5
8186
331
AADC
  5
AD66
331
A6E0
  5
AA3A
331
91C8
  5
9E31
331
79D8
  5
8187
331
817B
  5
8195
331
9A8A
  5
A204
331
1B73
  5
1B86
331
73F6
  5
77E0
331
7028
  5
7181
331
1B8B
  5
1B94
331
7030
  5
717F
331
1B93
  5
1B9D
331
754E
  5
7316
331
B0D2
  5
9C51
331
774E
  5
7845
331
8C1A
  5
734A
331
A619
  5
A8D8
331
A966
  5
AAE0
331
8193
  5
835C
331
8FE9
  5
93BC
331
A8F7
  5
AADD
331
94D3
  5
9F30
331
A0
  5
1B74
331
9119
  5
94C7
331
AA3E
  5
AC78
331
ACE4
  5
AF15
331
AADD
  5
ADE0
331
A6E1
  5
AA3D
331
91C9
  5
9E32
331
786A
  5
7C40
331
822B
  5
83D0
331
99F3
  5
A200
331
99FB
  5
A201
331
9A03
  5
A203
331
9C50
  5
A206
331
6E31
  5
1B73
331
1B84
  5
1B8E
331
7029
  5
72AC
331
1B8C
  5
1B95
331
7140
  5
7776
331
7031
  5
729C
331
1B94
  5
1BA1
331
B0D3
  5
9A93
331
774F
  5
785C
331
A8D8
  5
AAD6
331
8C1B
  5
91C3
331
8184
  5
824F
331
8C23
  5
91C7
331
7C3F
  5
70DF
331
9A93
  5
A205
331
99AC
  5
9F42
331
9E30
  5
A6F6
331
B2F0
  5
B2F1
331
7180
  5
72AB
331
AF15
  5
AFF7
331
911A
  5
9C50
331
A829
  5
AAD2
331
91C2
  5
9C52
331
AADE
  5
ADEC
331
9C51
  5
A207
331
1B85
  5
1B8F
331
702A
  5
7027
331
1B8D
  5
1B96
331
7548
  5
7133
331
AF3D
  5
B0D1
331
1B95
  5
1BA2
331
B0D4
  5
99FB
331
8FD3
  5
9392
331
8C1C
  5
91C4
331
8185
  5
8276
331
7C40
  5
8192
331
ADEC
  5
AFF5
331
94DD
  5
734B
331
9E31
  5
A753
331
7750
  5
786A
331
7102
  5
7774
331
B2F1
  5
9E30
331
6D9B
  5
1B7B
331
AA38
  5
AAE1
331
A6CB
  5
754B
331
8F2C
  5
9342
331
785C
  5
7C3F
331
AADF
  5
ADED
331
817E
  5
8249
331
A753
  5
AA3E
331
9F30
  5
A780
331
94C6
  5
7032
331
9C52
  5
A59A
331
1B86
  5
1B90
331
68BC
  5
6D9A
331
AFF5
  5
B0D4
331
702B
  5
7102
331
1B8E
  5
1B97
331
7549
  5
7180
331
1B96
  5
1BA6
331
B0D5
  5
B170
331
8C1D
  5
91C5
331
818E
  5
8347
331
8196
  5
83CD
331
9253
  5
9E35
331
AD46
  5
AF3D
331
ADED
  5
AFF6
331
94DE
  5
7549
331
9E32
  5
A77B
331
7172
  5
7777
331
7751
  5
7877
331
AFD6
  5
B0D3
331
AF17
  5
8345
331
AA39
  5
AAE2
331
A6CC
  5
7078
331
91C4
  5
9C5B
331
AAE0
  5
AF10
331
A85B
  5
AAD3
331
817F
  5
824A
331
9F39
  5
A786
331
94C7
  5
702E
331
7133
  5
7775
331
1B87
  5
1B91
331
AFF6
  5
B0F6
331
754A
  5
7132
331
702C
  5
7298
331
1B8F
  5
1B98
331
1B97
  5
1BA7
331
B0F6
  5
B2EB
331
B2EB
  5
B2F0
331
AC78
  5
AF13
331
8C1E
  5
7506
331
818F
  5
8351
331
AC98
  5
AF14
331
8197
  5
83CE
331
799D
  5
817B
331
9C5B
  5
A59B
331
9C63
  5
A6E1
331
9977
  5
9F39
331
7183
  5
7796
331
AF10
  5
82EF
331
9C
  5
9C
331
AA3A
  5
AAE3
331
AD67
  5
AF92
331
AAD9
  5
AD67
331
AAF1
  5
AD46
331
A923
  5
AADF
331
91ED
  5
9E34
331
7BEB
  5
70D5
331
94C8
  5
7086
331
9F42
  5
A787
331
734B
  5
77BC
331
AF18
  5
8344
331
AFF7
  5
B0D5
331
702D
  5
72EE
331
1B90
  5
1B99
331
68D6
  5
6E28
331
B2EC
  5
AF0E
331
8C1F
  5
729D
331
7A0D
  5
8188
  0
SORTENTSTABLE
  5
80F9
102
{ACAD_REACTORS
330
313E
102
}
330
313E
100
AcDbSortentsTable
330
313C
  0
SORTENTSTABLE
  5
80FA
102
{ACAD_REACTORS
330
3848
102
}
330
3848
100
AcDbSortentsTable
330
3846
  0
SORTENTSTABLE
  5
80FB
102
{ACAD_REACTORS
330
6B89
102
}
330
6B89
100
AcDbSortentsTable
330
6B87
  0
SORTENTSTABLE
  5
80FC
102
{ACAD_REACTORS
330
6C02
102
}
330
6C02
100
AcDbSortentsTable
330
6C00
  0
SORTENTSTABLE
  5
80FD
102
{ACAD_REACTORS
330
7758
102
}
330
7758
100
AcDbSortentsTable
330
7752
  0
SORTENTSTABLE
  5
80FE
102
{ACAD_REACTORS
330
79A2
102
}
330
79A2
100
AcDbSortentsTable
330
79A0
  0
SORTENTSTABLE
  5
80FF
102
{ACAD_REACTORS
330
80F8
102
}
330
80F8
100
AcDbSortentsTable
330
8065
331
80B2
  5
80C2
331
80BA
  5
80B4
331
807B
  5
807E
331
80F1
  5
80F4
331
80C2
  5
8095
331
8083
  5
8086
331
80CA
  5
80D0
331
808B
  5
8092
331
8093
  5
808D
331
80D2
  5
80D8
331
80DA
  5
80DF
331
809B
  5
80A8
331
80A3
  5
80B1
331
806C
  5
806F
331
80E2
  5
80E5
331
80AB
  5
80BB
331
8074
  5
8077
331
80EA
  5
80ED
331
80B3
  5
80C3
331
80BB
  5
80C9
331
807C
  5
807F
331
80F2
  5
80F5
331
80C3
  5
8097
331
8084
  5
8087
331
80CB
  5
80D1
331
808C
  5
8098
331
8094
  5
8096
331
80D3
  5
80D9
331
80DB
  5
80E0
331
809C
  5
80A9
331
80A4
  5
80B8
331
806D
  5
8070
331
80E3
  5
80E6
331
80AC
  5
80BC
331
8075
  5
8078
331
80EB
  5
80EE
331
80B4
  5
80C4
331
80BC
  5
80CA
331
807D
  5
8080
331
80F3
  5
80F6
331
80C4
  5
8094
331
8085
  5
8088
331
808D
  5
809C
331
80CC
  5
80D2
331
8095
  5
809A
331
80D4
  5
80DA
331
80DC
  5
80A0
331
809D
  5
809B
331
80A5
  5
80AE
331
806E
  5
8071
331
80E4
  5
80E7
331
80AD
  5
80BD
331
8076
  5
8079
331
80EC
  5
80EF
331
80B5
  5
80C6
331
80BD
  5
80B3
331
807E
  5
8081
331
80F4
  5
808E
331
80C5
  5
808C
331
8086
  5
8089
331
80CD
  5
80D3
331
808E
  5
808B
331
8096
  5
80A3
331
80D5
  5
80DB
331
80DD
  5
80A1
331
809E
  5
80AA
331
80E5
  5
80E8
331
806F
  5
8072
331
80A6
  5
80B2
331
80AE
  5
80BE
331
8077
  5
807A
331
80ED
  5
80F0
331
80B6
  5
80C5
331
80BE
  5
80AF
331
807F
  5
8082
331
80F5
  5
8091
331
80C6
  5
80A2
331
8087
  5
806B
331
80CE
  5
80D4
331
808F
  5
8093
331
8097
  5
80A4
331
80D6
  5
80DC
331
80DE
  5
80E1
331
809F
  5
80AB
331
8068
  5
8069
331
80A7
  5
80B6
331
8070
  5
8073
331
80E6
  5
80E9
331
80AF
  5
80BF
331
80EE
  5
80F1
331
80B7
  5
80C7
331
8078
  5
807B
331
8080
  5
8083
331
80BF
  5
80CB
331
80F6
  5
808F
331
80C7
  5
809E
331
8088
  5
806A
331
80CF
  5
80D5
331
8090
  5
8099
331
80D7
  5
80DD
331
8098
  5
80A5
331
80DF
  5
80E2
331
80A0
  5
80AC
331
8069
  5
806C
331
80A8
  5
80B7
331
8071
  5
8074
331
80E7
  5
80EA
331
80B0
  5
80C0
331
80EF
  5
80F2
331
80B8
  5
80B0
331
8079
  5
807C
331
80C0
  5
80CC
331
8081
  5
8084
331
80C8
  5
80CE
331
8089
  5
8068
331
8091
  5
809D
331
80D0
  5
80D6
331
80D8
  5
80DE
331
8099
  5
80A6
331
80A1
  5
80B5
331
806A
  5
806D
331
80E0
  5
80E3
331
80A9
  5
80B9
331
8072
  5
8075
331
80E8
  5
80EB
331
80B1
  5
80C1
331
80B9
  5
80C8
331
807A
  5
807D
331
80F0
  5
80F3
331
80C1
  5
80CD
331
8082
  5
8085
331
80C9
  5
80CF
331
80D1
  5
80D7
331
8092
  5
809F
331
80D9
  5
8090
331
809A
  5
80A7
331
80A2
  5
80AD
331
806B
  5
806E
331
80E1
  5
80E4
331
80AA
  5
80BA
331
8073
  5
8076
331
80E9
  5
80EC
  0
SORTENTSTABLE
  5
9C44
102
{ACAD_REACTORS
330
9C43
102
}
330
9C43
100
AcDbSortentsTable
330
9C3F
  0
XRECORD
  5
B415
102
{ACAD_REACTORS
330
B414
102
}
330
B414
100
AcDbXrecord
280
     1
102
SHADEPLOT
 70
     0
  0
XRECORD
  5
B417
102
{ACAD_REACTORS
330
B416
102
}
330
B416
100
AcDbXrecord
280
     1
102
SHADEPLOT
 70
     0
  0
LAYOUT
  5
22
102
{ACAD_XDICTIONARY
360
B410
102
}
102
{ACAD_REACTORS
330
1A
102
}
330
1A
100
AcDbPlotSettings
  1

  2
EPSON PM-800C
  4
A4
  6

 40
3.757083177566528
 41
14.7637300491333
 42
3.757080078125
 43
3.757080078125
 44
209.9733276367187
 45
296.9683227539062
 46
0.0
 47
0.0
 48
0.0
 49
0.0
140
0.0
141
0.0
142
1.0
143
10.0
 70
 11952
 72
     1
 73
     1
 74
     2
  7

 75
    20
147
0.1
148
0.0
149
0.0
100
AcDbLayout
  1
Model
 70
     1
 71
     0
 10
0.0
 20
0.0
 11
12.0
 21
9.0
 12
0.0
 22
0.0
 32
0.0
 14
0.0
 24
0.0
 34
0.0
 15
0.0
 25
0.0
 35
0.0
146
0.0
 13
0.0
 23
0.0
 33
0.0
 16
1.0
 26
0.0
 36
0.0
 17
0.0
 27
1.0
 37
0.0
 76
     0
330
1F
  0
LAYOUT
  5
1E
102
{ACAD_XDICTIONARY
360
B40E
102
}
102
{ACAD_REACTORS
330
1A
102
}
330
1A
100
AcDbPlotSettings
  1

  2
EPSON PM-800C
  4
A4
  6

 40
3.757083177566528
 41
14.7637300491333
 42
3.757080078125
 43
3.757080078125
 44
209.9733276367187
 45
296.9683227539062
 46
0.0
 47
0.0
 48
0.0
 49
0.0
140
0.0
141
0.0
142
1.0
143
1.0
 70
   688
 72
     1
 73
     1
 74
     5
  7

 75
    16
147
1.0
148
0.0
149
0.0
100
AcDbLayout
  1
ﾚｲｱｳﾄ1
 70
     1
 71
     1
 10
-3.757080078125
 20
-3.757083177566528
 11
293.2112426757813
 21
206.2162444591522
 12
0.0
 22
0.0
 32
0.0
 14
27.8447512626648
 24
20.24591643810271
 34
0.0
 15
250.6027613639831
 25
182.2132479429245
 35
0.0
146
0.0
 13
0.0
 23
0.0
 33
0.0
 16
1.0
 26
0.0
 36
0.0
 17
0.0
 27
1.0
 37
0.0
 76
     0
330
1B
331
2E
  0
LAYOUT
  5
26
102
{ACAD_XDICTIONARY
360
B412
102
}
102
{ACAD_REACTORS
330
1A
102
}
330
1A
100
AcDbPlotSettings
  1

  2
EPSON PM-800C
  4

  6

 40
0.0
 41
0.0
 42
0.0
 43
0.0
 44
0.0
 45
0.0
 46
0.0
 47
0.0
 48
0.0
 49
0.0
140
0.0
141
0.0
142
1.0
143
1.0
 70
   688
 72
     0
 73
     0
 74
     5
  7

 75
    16
147
1.0
148
0.0
149
0.0
100
AcDbLayout
  1
ﾚｲｱｳﾄ2
 70
     1
 71
     2
 10
0.0
 20
0.0
 11
12.0
 21
9.0
 12
0.0
 22
0.0
 32
0.0
 14
0.0
 24
0.0
 34
0.0
 15
0.0
 25
0.0
 35
0.0
146
0.0
 13
0.0
 23
0.0
 33
0.0
 16
1.0
 26
0.0
 36
0.0
 17
0.0
 27
1.0
 37
0.0
 76
     0
330
23
  0
MLINESTYLE
  5
18
102
{ACAD_REACTORS
330
17
102
}
330
17
100
AcDbMlineStyle
  2
STANDARD
 70
     0
  3

 62
   256
 51
90.0
 52
90.0
 71
     2
 49
0.5
 62
   256
  6
BYLAYER
 49
-0.5
 62
   256
  6
BYLAYER
  0
ACDBPLACEHOLDER
  5
F
102
{ACAD_REACTORS
330
E
102
}
330
E
  0
TABLESTYLE
  5
22AF
102
{ACAD_REACTORS
330
22AE
102
}
330
22AE
100
AcDbTableStyle
  3
Standard
 70
     0
 71
     0
 40
1.5
 41
1.5
280
     0
281
     0
  7
Standard
140
4.5
170
     2
 62
     0
 63
     7
283
     0
274
    -2
284
     1
 64
     0
275
    -2
285
     1
 65
     0
276
    -2
286
     1
 66
     0
277
    -2
287
     1
 67
     0
278
    -2
288
     1
 68
     0
279
    -2
289
     1
 69
     0
  7
Standard
140
6.0
170
     5
 62
     0
 63
     7
283
     0
274
    -2
284
     1
 64
     0
275
    -2
285
     1
 65
     0
276
    -2
286
     1
 66
     0
277
    -2
287
     1
 67
     0
278
    -2
288
     1
 68
     0
279
    -2
289
     1
 69
     0
  7
Standard
140
4.5
170
     5
 62
     0
 63
     7
283
     0
274
    -2
284
     1
 64
     0
275
    -2
285
     1
 65
     0
276
    -2
286
     1
 66
     0
277
    -2
287
     1
 67
     0
278
    -2
288
     1
 68
     0
279
    -2
289
     1
 69
     0
  0
DICTIONARYVAR
  5
22B5
102
{ACAD_REACTORS
330
1589
102
}
330
1589
100
DictionaryVariables
280
     0
  1
STANDARD
  0
DICTIONARYVAR
  5
B409
102
{ACAD_REACTORS
330
1589
102
}
330
1589
100
DictionaryVariables
280
     0
  1
1
  0
DICTIONARYVAR
  5
B40A
102
{ACAD_REACTORS
330
1589
102
}
330
1589
100
DictionaryVariables
280
     0
  1

  0
DICTIONARYVAR
  5
158A
102
{ACAD_REACTORS
330
1589
102
}
330
1589
100
DictionaryVariables
280
     0
  1
96
  0
DICTIONARY
  5
B410
330
22
100
AcDbDictionary
280
     1
281
     1
  3
ACAD_XREC_ROUNDTRIP
360
B411
  0
DICTIONARY
  5
B40E
330
1E
100
AcDbDictionary
280
     1
281
     1
  3
ACAD_XREC_ROUNDTRIP
360
B40F
  0
DICTIONARY
  5
B412
330
26
100
AcDbDictionary
280
     1
281
     1
  3
ACAD_XREC_ROUNDTRIP
360
B413
  0
XRECORD
  5
B411
102
{ACAD_REACTORS
330
B410
102
}
330
B410
100
AcDbXrecord
280
     1
102
SHADEPLOT
 70
     0
102
SHADEPLOTRESLEVEL
 70
     2
102
SHADEPLOTCUSTOMDPI
 70
   300
  0
XRECORD
  5
B40F
102
{ACAD_REACTORS
330
B40E
102
}
330
B40E
100
AcDbXrecord
280
     1
102
SHADEPLOT
 70
     0
102
SHADEPLOTRESLEVEL
 70
     2
102
SHADEPLOTCUSTOMDPI
 70
   300
  0
XRECORD
  5
B413
102
{ACAD_REACTORS
330
B412
102
}
330
B412
100
AcDbXrecord
280
     1
102
SHADEPLOT
 70
     0
102
SHADEPLOTRESLEVEL
 70
     2
102
SHADEPLOTCUSTOMDPI
 70
   300
  0
ENDSEC
  0
EOF
