  0
SECTION
  2
HEADER
  9
$ACADVER
  1
AC1015
  9
$ACADMAINTVER
 70
    20
  9
$DWGCODEPAGE
  3
ANSI_932
  9
$INSBASE
 10
0.0
 20
0.0
 30
0.0
  9
$EXTMIN
 10
174.0
 20
-392.3860966284574
 30
0.0
  9
$EXTMAX
 10
2834.0
 20
2024.000000000002
 30
0.0
  9
$LIMMIN
 10
54.0
 20
4.0
  9
$LIMMAX
 10
2834.0
 20
2024.0
  9
$ORTHOMODE
 70
     1
  9
$REGENMODE
 70
     1
  9
$FILLMODE
 70
     1
  9
$QTEXTMODE
 70
     0
  9
$MIRRTEXT
 70
     1
  9
$LTSCALE
 40
4.0
  9
$ATTMODE
 70
     1
  9
$TEXTSIZE
 40
30.0
  9
$TRACEWID
 40
1.0
  9
$TEXTSTYLE
  7
Standard
  9
$CLAYER
  8
実形
  9
$CELTYPE
  6
ByLayer
  9
$CECOLOR
 62
     3
  9
$CELTSCALE
 40
1.0
  9
$DISPSILH
 70
     0
  9
$DIMSCALE
 40
1.0
  9
$DIMASZ
 40
10.0
  9
$DIMEXO
 40
65.0
  9
$DIMDLI
 40
3.75
  9
$DIMRND
 40
0.0
  9
$DIMDLE
 40
0.0
  9
$DIMEXE
 40
0.0
  9
$DIMTP
 40
0.0
  9
$DIMTM
 40
0.0
  9
$DIMTXT
 40
30.0
  9
$DIMCEN
 40
2.5
  9
$DIMTSZ
 40
0.0
  9
$DIMTOL
 70
     0
  9
$DIMLIM
 70
     0
  9
$DIMTIH
 70
     0
  9
$DIMTOH
 70
     0
  9
$DIMSE1
 70
     0
  9
$DIMSE2
 70
     0
  9
$DIMTAD
 70
     1
  9
$DIMZIN
 70
     8
  9
$DIMBLK
  1
Dot
  9
$DIMASO
 70
     1
  9
$DIMSHO
 70
     1
  9
$DIMPOST
  1

  9
$DIMAPOST
  1

  9
$DIMALT
 70
     0
  9
$DIMALTD
 70
     3
  9
$DIMALTF
 40
0.03937007874016
  9
$DIMLFAC
 40
1.0
  9
$DIMTOFL
 70
     1
  9
$DIMTVP
 40
0.0
  9
$DIMTIX
 70
     0
  9
$DIMSOXD
 70
     0
  9
$DIMSAH
 70
     0
  9
$DIMBLK1
  1

  9
$DIMBLK2
  1

  9
$DIMSTYLE
  2
ISO-25
  9
$DIMCLRD
 70
     0
  9
$DIMCLRE
 70
     0
  9
$DIMCLRT
 70
     0
  9
$DIMTFAC
 40
1.0
  9
$DIMGAP
 40
6.599999999999998
  9
$DIMJUST
 70
     0
  9
$DIMSD1
 70
     0
  9
$DIMSD2
 70
     0
  9
$DIMTOLJ
 70
     0
  9
$DIMTZIN
 70
     8
  9
$DIMALTZ
 70
     0
  9
$DIMALTTZ
 70
     0
  9
$DIMUPT
 70
     0
  9
$DIMDEC
 70
     2
  9
$DIMTDEC
 70
     2
  9
$DIMALTU
 70
     2
  9
$DIMALTTD
 70
     3
  9
$DIMTXSTY
  7
Standard
  9
$DIMAUNIT
 70
     0
  9
$DIMADEC
 70
     0
  9
$DIMALTRND
 40
0.0
  9
$DIMAZIN
 70
     0
  9
$DIMDSEP
 70
    46
  9
$DIMATFIT
 70
     3
  9
$DIMFRAC
 70
     0
  9
$DIMLDRBLK
  1
Open30
  9
$DIMLUNIT
 70
     2
  9
$DIMLWD
 70
    18
  9
$DIMLWE
 70
    18
  9
$DIMTMOVE
 70
     2
  9
$LUNITS
 70
     2
  9
$LUPREC
 70
     2
  9
$SKETCHINC
 40
1.0
  9
$FILLETRAD
 40
2.0
  9
$AUNITS
 70
     0
  9
$AUPREC
 70
     0
  9
$MENU
  1
.
  9
$ELEVATION
 40
0.0
  9
$PELEVATION
 40
0.0
  9
$THICKNESS
 40
0.0
  9
$LIMCHECK
 70
     1
  9
$CHAMFERA
 40
10.0
  9
$CHAMFERB
 40
10.0
  9
$CHAMFERC
 40
20.0
  9
$CHAMFERD
 40
0.0
  9
$SKPOLY
 70
     0
  9
$TDCREATE
 40
2451673.575802199
  9
$TDUCREATE
 40
2451673.200802199
  9
$TDUPDATE
 40
2458808.787734503
  9
$TDUUPDATE
 40
2458808.412734502
  9
$TDINDWG
 40
2.7408901736
  9
$TDUSRTIMER
 40
2.7408894792
  9
$USRTIMER
 70
     1
  9
$ANGBASE
 50
0.0
  9
$ANGDIR
 70
     0
  9
$PDMODE
 70
     0
  9
$PDSIZE
 40
0.0
  9
$PLINEWID
 40
0.0
  9
$SPLFRAME
 70
     0
  9
$SPLINETYPE
 70
     6
  9
$SPLINESEGS
 70
     8
  9
$HANDSEED
  5
947B
  9
$SURFTAB1
 70
     6
  9
$SURFTAB2
 70
     6
  9
$SURFTYPE
 70
     6
  9
$SURFU
 70
     6
  9
$SURFV
 70
     6
  9
$UCSBASE
  2

  9
$UCSNAME
  2

  9
$UCSORG
 10
0.0
 20
0.0
 30
0.0
  9
$UCSXDIR
 10
1.0
 20
0.0
 30
0.0
  9
$UCSYDIR
 10
0.0
 20
1.0
 30
0.0
  9
$UCSORTHOREF
  2

  9
$UCSORTHOVIEW
 70
     0
  9
$UCSORGTOP
 10
0.0
 20
0.0
 30
0.0
  9
$UCSORGBOTTOM
 10
0.0
 20
0.0
 30
0.0
  9
$UCSORGLEFT
 10
0.0
 20
0.0
 30
0.0
  9
$UCSORGRIGHT
 10
0.0
 20
0.0
 30
0.0
  9
$UCSORGFRONT
 10
0.0
 20
0.0
 30
0.0
  9
$UCSORGBACK
 10
0.0
 20
0.0
 30
0.0
  9
$PUCSBASE
  2

  9
$PUCSNAME
  2

  9
$PUCSORG
 10
0.0
 20
0.0
 30
0.0
  9
$PUCSXDIR
 10
1.0
 20
0.0
 30
0.0
  9
$PUCSYDIR
 10
0.0
 20
1.0
 30
0.0
  9
$PUCSORTHOREF
  2

  9
$PUCSORTHOVIEW
 70
     0
  9
$PUCSORGTOP
 10
0.0
 20
0.0
 30
0.0
  9
$PUCSORGBOTTOM
 10
0.0
 20
0.0
 30
0.0
  9
$PUCSORGLEFT
 10
0.0
 20
0.0
 30
0.0
  9
$PUCSORGRIGHT
 10
0.0
 20
0.0
 30
0.0
  9
$PUCSORGFRONT
 10
0.0
 20
0.0
 30
0.0
  9
$PUCSORGBACK
 10
0.0
 20
0.0
 30
0.0
  9
$USERI1
 70
     0
  9
$USERI2
 70
     0
  9
$USERI3
 70
     0
  9
$USERI4
 70
     0
  9
$USERI5
 70
     0
  9
$USERR1
 40
0.0
  9
$USERR2
 40
0.0
  9
$USERR3
 40
0.0
  9
$USERR4
 40
0.0
  9
$USERR5
 40
0.0
  9
$WORLDVIEW
 70
     1
  9
$SHADEDGE
 70
     3
  9
$SHADEDIF
 70
    70
  9
$TILEMODE
 70
     1
  9
$MAXACTVP
 70
    64
  9
$PINSBASE
 10
0.0
 20
0.0
 30
0.0
  9
$PLIMCHECK
 70
     0
  9
$PEXTMIN
 10
27.8447512626648
 20
20.24591643810271
 30
0.0
  9
$PEXTMAX
 10
250.6027613639831
 20
182.2132479429245
 30
0.0
  9
$PLIMMIN
 10
-3.757080078125
 20
-3.757083177566528
  9
$PLIMMAX
 10
293.2112426757813
 20
206.2162444591522
  9
$UNITMODE
 70
     0
  9
$VISRETAIN
 70
     1
  9
$PLINEGEN
 70
     0
  9
$PSLTSCALE
 70
     1
  9
$TREEDEPTH
 70
  3020
  9
$CMLSTYLE
  2
Standard
  9
$CMLJUST
 70
     0
  9
$CMLSCALE
 40
20.0
  9
$PROXYGRAPHICS
 70
     1
  9
$MEASUREMENT
 70
     1
  9
$CELWEIGHT
370
    -1
  9
$ENDCAPS
280
     0
  9
$JOINSTYLE
280
     0
  9
$LWDISPLAY
290
     0
  9
$INSUNITS
 70
     4
  9
$HYPERLINKBASE
  1

  9
$STYLESHEET
  1

  9
$XEDIT
290
     1
  9
$CEPSNTYPE
380
     0
  9
$PSTYLEMODE
290
     1
  9
$FINGERPRINTGUID
  2
{C8EA1F16-24C9-11D4-9416-CE0A3B32152F}
  9
$VERSIONGUID
  2
{113C2D1C-5F71-4321-855B-F3A0D21DEA6A}
  9
$EXTNAMES
290
     1
  9
$PSVPSCALE
 40
0.0
  9
$OLESTARTUP
290
     0
  0
ENDSEC
  0
SECTION
  2
CLASSES
  0
CLASS
  1
ACDBDICTIONARYWDFLT
  2
AcDbDictionaryWithDefault
  3
ObjectDBX Classes
 90
        0
280
     0
281
     0
  0
CLASS
  1
ACDBPLACEHOLDER
  2
AcDbPlaceHolder
  3
ObjectDBX Classes
 90
        0
280
     0
281
     0
  0
CLASS
  1
LAYOUT
  2
AcDbLayout
  3
ObjectDBX Classes
 90
        0
280
     0
281
     0
  0
CLASS
  1
DICTIONARYVAR
  2
AcDbDictionaryVar
  3
ObjectDBX Classes
 90
        0
280
     0
281
     0
  0
CLASS
  1
TABLESTYLE
  2
AcDbTableStyle
  3
ObjectDBX Classes
 90
     2047
280
     0
281
     0
  0
CLASS
  1
SORTENTSTABLE
  2
AcDbSortentsTable
  3
ObjectDBX Classes
 90
        0
280
     0
281
     0
  0
ENDSEC
  0
SECTION
  2
TABLES
  0
TABLE
  2
VPORT
  5
8
330
0
100
AcDbSymbolTable
 70
     2
  0
VPORT
  5
946E
330
8
100
AcDbSymbolTableRecord
100
AcDbViewportTableRecord
  2
*Active
 70
     0
 10
0.0
 20
0.0
 11
1.0
 21
1.0
 12
1482.768216614237
 22
931.9271194371445
 13
0.0
 23
0.0
 14
10.0
 24
10.0
 15
10.0
 25
10.0
 16
0.0
 26
0.0
 36
1.0
 17
0.0
 27
0.0
 37
0.0
 40
2354.166409772338
 41
1.29038112522686
 42
50.0
 43
0.0
 44
0.0
 50
0.0
 51
0.0
 71
     0
 72
   100
 73
     1
 74
     3
 75
     0
 76
     0
 77
     0
 78
     0
281
     0
 65
     1
110
0.0
120
0.0
130
0.0
111
1.0
121
0.0
131
0.0
112
0.0
122
1.0
132
0.0
 79
     0
146
0.0
  0
ENDTAB
  0
TABLE
  2
LTYPE
  5
5
330
0
100
AcDbSymbolTable
 70
    46
  0
LTYPE
  5
14
330
5
100
AcDbSymbolTableRecord
100
AcDbLinetypeTableRecord
  2
ByBlock
 70
     0
  3

 72
    65
 73
     0
 40
0.0
  0
LTYPE
  5
15
330
5
100
AcDbSymbolTableRecord
100
AcDbLinetypeTableRecord
  2
ByLayer
 70
     0
  3

 72
    65
 73
     0
 40
0.0
  0
LTYPE
  5
16
330
5
100
AcDbSymbolTableRecord
100
AcDbLinetypeTableRecord
  2
Continuous
 70
     0
  3
Solid line
 72
    65
 73
     0
 40
0.0
  0
LTYPE
  5
34
330
5
100
AcDbSymbolTableRecord
100
AcDbLinetypeTableRecord
  2
ACAD_ISO02W100
 70
     0
  3
ISO dash __ __ __ __ __ __ __ __ __ __ __ __ __
 72
    65
 73
     2
 40
15.0
 49
12.0
 74
     0
 49
-3.0
 74
     0
  0
LTYPE
  5
35
330
5
100
AcDbSymbolTableRecord
100
AcDbLinetypeTableRecord
  2
ACAD_ISO03W100
 70
     0
  3
ISO dash space __    __    __    __    __    __
 72
    65
 73
     2
 40
30.0
 49
12.0
 74
     0
 49
-18.0
 74
     0
  0
LTYPE
  5
36
330
5
100
AcDbSymbolTableRecord
100
AcDbLinetypeTableRecord
  2
ACAD_ISO04W100
 70
     0
  3
ISO long-dash dot ____ . ____ . ____ . ____ . _
 72
    65
 73
     4
 40
30.0
 49
24.0
 74
     0
 49
-3.0
 74
     0
 49
0.0
 74
     0
 49
-3.0
 74
     0
  0
LTYPE
  5
37
330
5
100
AcDbSymbolTableRecord
100
AcDbLinetypeTableRecord
  2
ACAD_ISO05W100
 70
     0
  3
ISO long-dash double-dot ____ .. ____ .. ____ .
 72
    65
 73
     6
 40
34.0
 49
24.0
 74
     0
 49
-3.0
 74
     0
 49
0.5
 74
     0
 49
-3.0
 74
     0
 49
0.5
 74
     0
 49
-3.0
 74
     0
  0
LTYPE
  5
38
330
5
100
AcDbSymbolTableRecord
100
AcDbLinetypeTableRecord
  2
ACAD_ISO06W100
 70
     0
  3
ISO long-dash triple-dot ____ ... ____ ... ____
 72
    65
 73
     8
 40
37.5
 49
24.0
 74
     0
 49
-3.0
 74
     0
 49
0.5
 74
     0
 49
-3.0
 74
     0
 49
0.5
 74
     0
 49
-3.0
 74
     0
 49
0.5
 74
     0
 49
-3.0
 74
     0
  0
LTYPE
  5
39
330
5
100
AcDbSymbolTableRecord
100
AcDbLinetypeTableRecord
  2
ACAD_ISO07W100
 70
     0
  3
ISO dot . . . . . . . . . . . . . . . . . . . .
 72
    65
 73
     2
 40
3.0
 49
0.0
 74
     0
 49
-3.0
 74
     0
  0
LTYPE
  5
3A
330
5
100
AcDbSymbolTableRecord
100
AcDbLinetypeTableRecord
  2
ACAD_ISO08W100
 70
     0
  3
ISO long-dash short-dash ____ __ ____ __ ____ _
 72
    65
 73
     4
 40
36.0
 49
24.0
 74
     0
 49
-3.0
 74
     0
 49
6.0
 74
     0
 49
-3.0
 74
     0
  0
LTYPE
  5
3B
330
5
100
AcDbSymbolTableRecord
100
AcDbLinetypeTableRecord
  2
ACAD_ISO09W100
 70
     0
  3
ISO long-dash double-short-dash ____ __ __ ____
 72
    65
 73
     6
 40
45.0
 49
24.0
 74
     0
 49
-3.0
 74
     0
 49
6.0
 74
     0
 49
-3.0
 74
     0
 49
6.0
 74
     0
 49
-3.0
 74
     0
  0
LTYPE
  5
3C
330
5
100
AcDbSymbolTableRecord
100
AcDbLinetypeTableRecord
  2
ACAD_ISO10W100
 70
     0
  3
ISO dash dot __ . __ . __ . __ . __ . __ . __ .
 72
    65
 73
     4
 40
18.0
 49
12.0
 74
     0
 49
-3.0
 74
     0
 49
0.0
 74
     0
 49
-3.0
 74
     0
  0
LTYPE
  5
3D
330
5
100
AcDbSymbolTableRecord
100
AcDbLinetypeTableRecord
  2
ACAD_ISO11W100
 70
     0
  3
ISO double-dash dot __ __ . __ __ . __ __ . __ 
 72
    65
 73
     6
 40
33.0
 49
12.0
 74
     0
 49
-3.0
 74
     0
 49
12.0
 74
     0
 49
-3.0
 74
     0
 49
0.0
 74
     0
 49
-3.0
 74
     0
  0
LTYPE
  5
3E
330
5
100
AcDbSymbolTableRecord
100
AcDbLinetypeTableRecord
  2
ACAD_ISO12W100
 70
     0
  3
ISO dash double-dot __ . . __ . . __ . . __ . .
 72
    65
 73
     6
 40
21.0
 49
12.0
 74
     0
 49
-3.0
 74
     0
 49
0.0
 74
     0
 49
-3.0
 74
     0
 49
0.0
 74
     0
 49
-3.0
 74
     0
  0
LTYPE
  5
3F
330
5
100
AcDbSymbolTableRecord
100
AcDbLinetypeTableRecord
  2
ACAD_ISO13W100
 70
     0
  3
ISO double-dash double-dot __ __ . . __ __ . . 
 72
    65
 73
     8
 40
36.0
 49
12.0
 74
     0
 49
-3.0
 74
     0
 49
12.0
 74
     0
 49
-3.0
 74
     0
 49
0.0
 74
     0
 49
-3.0
 74
     0
 49
0.0
 74
     0
 49
-3.0
 74
     0
  0
LTYPE
  5
40
330
5
100
AcDbSymbolTableRecord
100
AcDbLinetypeTableRecord
  2
ACAD_ISO14W100
 70
     0
  3
ISO dash triple-dot __ . . . __ . . . __ . . . 
 72
    65
 73
     8
 40
24.0
 49
12.0
 74
     0
 49
-3.0
 74
     0
 49
0.0
 74
     0
 49
-3.0
 74
     0
 49
0.0
 74
     0
 49
-3.0
 74
     0
 49
0.0
 74
     0
 49
-3.0
 74
     0
  0
LTYPE
  5
41
330
5
100
AcDbSymbolTableRecord
100
AcDbLinetypeTableRecord
  2
ACAD_ISO15W100
 70
     0
  3
ISO double-dash triple-dot __ __ . . . __ __ . 
 72
    65
 73
    10
 40
39.0
 49
12.0
 74
     0
 49
-3.0
 74
     0
 49
12.0
 74
     0
 49
-3.0
 74
     0
 49
0.0
 74
     0
 49
-3.0
 74
     0
 49
0.0
 74
     0
 49
-3.0
 74
     0
 49
0.0
 74
     0
 49
-3.0
 74
     0
  0
LTYPE
  5
42
330
5
100
AcDbSymbolTableRecord
100
AcDbLinetypeTableRecord
  2
BATTING
 70
     0
  3
Batting SSSSSSSSSSSSSSSSSSSSSSSSSSSSSSSSSSSSSSS
 72
    65
 73
     4
 40
10.16254
 49
0.00254
 74
     0
 49
-2.54
 74
     4
 75
   134
340
33
 46
2.54
 50
0.0
 44
-2.54
 45
0.0
 49
-5.08
 74
     4
 75
   134
340
33
 46
2.54
 50
180.0
 44
2.54
 45
0.0
 49
-2.54
 74
     0
  0
LTYPE
  5
43
330
5
100
AcDbSymbolTableRecord
100
AcDbLinetypeTableRecord
  2
BORDER
 70
     0
  3
Border __ __ . __ __ . __ __ . __ __ . __ __ .
 72
    65
 73
     6
 40
44.45
 49
12.7
 74
     0
 49
-6.349999999999999
 74
     0
 49
12.7
 74
     0
 49
-6.349999999999999
 74
     0
 49
0.0
 74
     0
 49
-6.349999999999999
 74
     0
  0
LTYPE
  5
44
330
5
100
AcDbSymbolTableRecord
100
AcDbLinetypeTableRecord
  2
BORDER2
 70
     0
  3
Border (.5x) __.__.__.__.__.__.__.__.__.__.__.
 72
    65
 73
     6
 40
22.225
 49
6.349999999999999
 74
     0
 49
-3.174999999999999
 74
     0
 49
6.349999999999999
 74
     0
 49
-3.174999999999999
 74
     0
 49
0.0
 74
     0
 49
-3.174999999999999
 74
     0
  0
LTYPE
  5
45
330
5
100
AcDbSymbolTableRecord
100
AcDbLinetypeTableRecord
  2
BORDERX2
 70
     0
  3
Border (2x) ____  ____  .  ____  ____  .  ___
 72
    65
 73
     6
 40
88.9
 49
25.4
 74
     0
 49
-12.7
 74
     0
 49
25.4
 74
     0
 49
-12.7
 74
     0
 49
0.0
 74
     0
 49
-12.7
 74
     0
  0
LTYPE
  5
46
330
5
100
AcDbSymbolTableRecord
100
AcDbLinetypeTableRecord
  2
CENTER
 70
     0
  3
Center ____ _ ____ _ ____ _ ____ _ ____ _ ____
 72
    65
 73
     4
 40
50.8
 49
31.75
 74
     0
 49
-6.349999999999999
 74
     0
 49
6.349999999999999
 74
     0
 49
-6.349999999999999
 74
     0
  0
LTYPE
  5
47
330
5
100
AcDbSymbolTableRecord
100
AcDbLinetypeTableRecord
  2
CENTER2
 70
     0
  3
Center (.5x) ___ _ ___ _ ___ _ ___ _ ___ _ ___
 72
    65
 73
     4
 40
28.575
 49
19.05
 74
     0
 49
-3.174999999999999
 74
     0
 49
3.174999999999999
 74
     0
 49
-3.174999999999999
 74
     0
  0
LTYPE
  5
48
330
5
100
AcDbSymbolTableRecord
100
AcDbLinetypeTableRecord
  2
CENTERX2
 70
     0
  3
Center (2x) ________  __  ________  __  _____
 72
    65
 73
     4
 40
101.6
 49
63.5
 74
     0
 49
-12.7
 74
     0
 49
12.7
 74
     0
 49
-12.7
 74
     0
  0
LTYPE
  5
49
330
5
100
AcDbSymbolTableRecord
100
AcDbLinetypeTableRecord
  2
DASHDOT
 70
     0
  3
Dash dot __ . __ . __ . __ . __ . __ . __ . __
 72
    65
 73
     4
 40
25.4
 49
12.7
 74
     0
 49
-6.349999999999999
 74
     0
 49
0.0
 74
     0
 49
-6.349999999999999
 74
     0
  0
LTYPE
  5
4A
330
5
100
AcDbSymbolTableRecord
100
AcDbLinetypeTableRecord
  2
DASHDOT2
 70
     0
  3
Dash dot (.5x) _._._._._._._._._._._._._._._.
 72
    65
 73
     4
 40
12.7
 49
6.349999999999999
 74
     0
 49
-3.174999999999999
 74
     0
 49
0.0
 74
     0
 49
-3.174999999999999
 74
     0
  0
LTYPE
  5
4B
330
5
100
AcDbSymbolTableRecord
100
AcDbLinetypeTableRecord
  2
DASHDOTX2
 70
     0
  3
Dash dot (2x) ____  .  ____  .  ____  .  ___
 72
    65
 73
     4
 40
50.8
 49
25.4
 74
     0
 49
-12.7
 74
     0
 49
0.0
 74
     0
 49
-12.7
 74
     0
  0
LTYPE
  5
4C
330
5
100
AcDbSymbolTableRecord
100
AcDbLinetypeTableRecord
  2
DASHED
 70
     0
  3
Dashed __ __ __ __ __ __ __ __ __ __ __ __ __ _
 72
    65
 73
     2
 40
19.05
 49
12.7
 74
     0
 49
-6.349999999999999
 74
     0
  0
LTYPE
  5
4D
330
5
100
AcDbSymbolTableRecord
100
AcDbLinetypeTableRecord
  2
DASHED2
 70
     0
  3
Dashed (.5x) _ _ _ _ _ _ _ _ _ _ _ _ _ _ _ _ _
 72
    65
 73
     2
 40
9.524999999999998
 49
6.349999999999999
 74
     0
 49
-3.174999999999999
 74
     0
  0
LTYPE
  5
4E
330
5
100
AcDbSymbolTableRecord
100
AcDbLinetypeTableRecord
  2
DASHEDX2
 70
     0
  3
Dashed (2x) ____  ____  ____  ____  ____  ___
 72
    65
 73
     2
 40
38.1
 49
25.4
 74
     0
 49
-12.7
 74
     0
  0
LTYPE
  5
4F
330
5
100
AcDbSymbolTableRecord
100
AcDbLinetypeTableRecord
  2
DIVIDE
 70
     0
  3
Divide ____ . . ____ . . ____ . . ____ . . ____
 72
    65
 73
     6
 40
31.75
 49
12.7
 74
     0
 49
-6.349999999999999
 74
     0
 49
0.0
 74
     0
 49
-6.349999999999999
 74
     0
 49
0.0
 74
     0
 49
-6.349999999999999
 74
     0
  0
LTYPE
  5
50
330
5
100
AcDbSymbolTableRecord
100
AcDbLinetypeTableRecord
  2
DIVIDE2
 70
     0
  3
Divide (.5x) __..__..__..__..__..__..__..__.._
 72
    65
 73
     6
 40
15.875
 49
6.349999999999999
 74
     0
 49
-3.174999999999999
 74
     0
 49
0.0
 74
     0
 49
-3.174999999999999
 74
     0
 49
0.0
 74
     0
 49
-3.174999999999999
 74
     0
  0
LTYPE
  5
51
330
5
100
AcDbSymbolTableRecord
100
AcDbLinetypeTableRecord
  2
DIVIDEX2
 70
     0
  3
Divide (2x) ________  .  .  ________  .  .  _
 72
    65
 73
     6
 40
63.49999999999999
 49
25.4
 74
     0
 49
-12.7
 74
     0
 49
0.0
 74
     0
 49
-12.7
 74
     0
 49
0.0
 74
     0
 49
-12.7
 74
     0
  0
LTYPE
  5
52
330
5
100
AcDbSymbolTableRecord
100
AcDbLinetypeTableRecord
  2
DOT
 70
     0
  3
Dot . . . . . . . . . . . . . . . . . . . . . .
 72
    65
 73
     2
 40
6.349999999999999
 49
0.0
 74
     0
 49
-6.349999999999999
 74
     0
  0
LTYPE
  5
53
330
5
100
AcDbSymbolTableRecord
100
AcDbLinetypeTableRecord
  2
DOT2
 70
     0
  3
Dot (.5x) .....................................
 72
    65
 73
     2
 40
3.174999999999999
 49
0.0
 74
     0
 49
-3.174999999999999
 74
     0
  0
LTYPE
  5
54
330
5
100
AcDbSymbolTableRecord
100
AcDbLinetypeTableRecord
  2
DOTX2
 70
     0
  3
Dot (2x) .  .  .  .  .  .  .  .  .  .  .  .  . 
 72
    65
 73
     2
 40
12.7
 49
0.0
 74
     0
 49
-12.7
 74
     0
  0
LTYPE
  5
55
330
5
100
AcDbSymbolTableRecord
100
AcDbLinetypeTableRecord
  2
FENCELINE1
 70
     0
  3
Fenceline circle ----0-----0----0-----0----0---
 72
    65
 73
     4
 40
36.83
 49
6.349999999999999
 74
     0
 49
-2.54
 74
     4
 75
   133
340
33
 46
2.54
 50
0.0
 44
-2.54
 45
0.0
 49
-2.54
 74
     0
 49
25.4
 74
     0
  0
LTYPE
  5
56
330
5
100
AcDbSymbolTableRecord
100
AcDbLinetypeTableRecord
  2
FENCELINE2
 70
     0
  3
Fenceline square ----[]-----[]----[]-----[]----
 72
    65
 73
     4
 40
36.83
 49
6.349999999999999
 74
     0
 49
-2.54
 74
     4
 75
   132
340
33
 46
2.54
 50
0.0
 44
-2.54
 45
0.0
 49
-2.54
 74
     0
 49
25.4
 74
     0
  0
LTYPE
  5
57
330
5
100
AcDbSymbolTableRecord
100
AcDbLinetypeTableRecord
  2
GAS_LINE
 70
     0
  3
Gas line ----GAS----GAS----GAS----GAS----GAS---
 72
    65
 73
     3
 40
24.13
 49
12.7
 74
     0
 49
-5.08
 74
     2
 75
     0
340
11
 46
2.54
 50
0.0
 44
-2.54
 45
-1.27
  9
GAS
 49
-6.349999999999999
 74
     0
  0
LTYPE
  5
58
330
5
100
AcDbSymbolTableRecord
100
AcDbLinetypeTableRecord
  2
HIDDEN
 70
     0
  3
Hidden __ __ __ __ __ __ __ __ __ __ __ __ __ _
 72
    65
 73
     2
 40
9.524999999999998
 49
6.349999999999999
 74
     0
 49
-3.174999999999999
 74
     0
  0
LTYPE
  5
59
330
5
100
AcDbSymbolTableRecord
100
AcDbLinetypeTableRecord
  2
HIDDEN2
 70
     0
  3
Hidden (.5x) _ _ _ _ _ _ _ _ _ _ _ _ _ _ _ _ _
 72
    65
 73
     2
 40
4.762499999999999
 49
3.174999999999999
 74
     0
 49
-1.587499999999999
 74
     0
  0
LTYPE
  5
5A
330
5
100
AcDbSymbolTableRecord
100
AcDbLinetypeTableRecord
  2
HIDDENX2
 70
     0
  3
Hidden (2x) ____ ____ ____ ____ ____ ____ ____
 72
    65
 73
     2
 40
19.05
 49
12.7
 74
     0
 49
-6.349999999999999
 74
     0
  0
LTYPE
  5
5B
330
5
100
AcDbSymbolTableRecord
100
AcDbLinetypeTableRecord
  2
HOT_WATER_SUPPLY
 70
     0
  3
Hot water supply ---- HW ---- HW ---- HW ----
 72
    65
 73
     3
 40
22.86
 49
12.7
 74
     0
 49
-5.08
 74
     2
 75
     0
340
11
 46
2.54
 50
0.0
 44
-2.54
 45
-1.27
  9
HW
 49
-5.08
 74
     0
  0
LTYPE
  5
5C
330
5
100
AcDbSymbolTableRecord
100
AcDbLinetypeTableRecord
  2
PHANTOM
 70
     0
  3
Phantom ______  __  __  ______  __  __  ______
 72
    65
 73
     6
 40
63.5
 49
31.75
 74
     0
 49
-6.349999999999999
 74
     0
 49
6.349999999999999
 74
     0
 49
-6.349999999999999
 74
     0
 49
6.349999999999999
 74
     0
 49
-6.349999999999999
 74
     0
  0
LTYPE
  5
5D
330
5
100
AcDbSymbolTableRecord
100
AcDbLinetypeTableRecord
  2
PHANTOM2
 70
     0
  3
Phantom (.5x) ___ _ _ ___ _ _ ___ _ _ ___ _ _
 72
    65
 73
     6
 40
31.75
 49
15.875
 74
     0
 49
-3.174999999999999
 74
     0
 49
3.174999999999999
 74
     0
 49
-3.174999999999999
 74
     0
 49
3.174999999999999
 74
     0
 49
-3.174999999999999
 74
     0
  0
LTYPE
  5
5E
330
5
100
AcDbSymbolTableRecord
100
AcDbLinetypeTableRecord
  2
PHANTOMX2
 70
     0
  3
Phantom (2x) ____________    ____    ____   _
 72
    65
 73
     6
 40
127.0
 49
63.5
 74
     0
 49
-12.7
 74
     0
 49
12.7
 74
     0
 49
-12.7
 74
     0
 49
12.7
 74
     0
 49
-12.7
 74
     0
  0
LTYPE
  5
5F
330
5
100
AcDbSymbolTableRecord
100
AcDbLinetypeTableRecord
  2
TRACKS
 70
     0
  3
Tracks -|-|-|-|-|-|-|-|-|-|-|-|-|-|-|-|-|-|-|-|
 72
    65
 73
     2
 40
7.62
 49
3.81
 74
     4
 75
   130
340
33
 46
6.349999999999999
 50
0.0
 44
0.0
 45
0.0
 49
3.81
 74
     0
  0
LTYPE
  5
60
330
5
100
AcDbSymbolTableRecord
100
AcDbLinetypeTableRecord
  2
ZIGZAG
 70
     0
  3
Zig zag /\/\/\/\/\/\/\/\/\/\/\/\/\/\/\/\/\/\/\/
 72
    65
 73
     4
 40
20.32254
 49
0.00254
 74
     0
 49
-5.08
 74
     4
 75
   131
340
33
 46
5.08
 50
0.0
 44
-5.08
 45
0.0
 49
-10.16
 74
     4
 75
   131
340
33
 46
5.08
 50
180.0
 44
5.08
 45
0.0
 49
-5.08
 74
     0
  0
ENDTAB
  0
TABLE
  2
LAYER
  5
2
102
{ACAD_XDICTIONARY
360
24C4
102
}
330
0
100
AcDbSymbolTable
 70
     9
  0
LAYER
  5
10
330
2
100
AcDbSymbolTableRecord
100
AcDbLayerTableRecord
  2
0
 70
     0
 62
     7
  6
Continuous
290
     0
370
    -3
390
F
  0
LAYER
  5
C3
330
2
100
AcDbSymbolTableRecord
100
AcDbLayerTableRecord
  2
Defpoints
 70
     0
 62
     7
  6
Continuous
290
     0
370
    -3
390
F
  0
LAYER
  5
256
330
2
100
AcDbSymbolTableRecord
100
AcDbLayerTableRecord
  2
センター
 70
     0
 62
     7
  6
CENTER2
370
    18
390
F
  0
LAYER
  5
268
330
2
100
AcDbSymbolTableRecord
100
AcDbLayerTableRecord
  2
実形
 70
     0
 62
     7
  6
Continuous
370
    -3
390
F
  0
LAYER
  5
269
330
2
100
AcDbSymbolTableRecord
100
AcDbLayerTableRecord
  2
補助
 70
     0
 62
     4
  6
Continuous
370
    -3
390
F
  0
LAYER
  5
26A
330
2
100
AcDbSymbolTableRecord
100
AcDbLayerTableRecord
  2
寸法
 70
     0
 62
     7
  6
Continuous
370
    18
390
F
  0
LAYER
  5
26B
330
2
100
AcDbSymbolTableRecord
100
AcDbLayerTableRecord
  2
ハッチング
 70
     0
 62
     7
  6
Continuous
370
    18
390
F
  0
LAYER
  5
26D
330
2
100
AcDbSymbolTableRecord
100
AcDbLayerTableRecord
  2
枠
 70
     0
 62
     7
  6
Continuous
370
    -3
390
F
  0
LAYER
  5
1B3D
330
2
100
AcDbSymbolTableRecord
100
AcDbLayerTableRecord
  2
Cen
 70
     0
 62
     7
  6
CENTER2
290
     0
370
    15
390
F
  0
ENDTAB
  0
TABLE
  2
STYLE
  5
3
330
0
100
AcDbSymbolTable
 70
     4
  0
STYLE
  5
11
330
3
100
AcDbSymbolTableRecord
100
AcDbTextStyleTableRecord
  2
Standard
 70
     0
 40
0.0
 41
1.0
 50
0.0
 71
     0
 42
30.0
  3
txt.shx
  4
bigfont.shx
  0
STYLE
  5
33
330
3
100
AcDbSymbolTableRecord
100
AcDbTextStyleTableRecord
  2

 70
     1
 40
0.0
 41
1.0
 50
0.0
 71
     0
 42
2.5
  3
ltypeshp.shx
  4

  0
STYLE
  5
35E2
330
3
100
AcDbSymbolTableRecord
100
AcDbTextStyleTableRecord
  2
ms明朝
 70
     0
 40
0.0
 41
1.0
 50
0.0
 71
     0
 42
25.0
  3
MS Mincho.ttf
  4

1001
ACAD
1000
MS Mincho
1071
    32785
  0
STYLE
  5
942F
330
3
100
AcDbSymbolTableRecord
100
AcDbTextStyleTableRecord
  2
明朝
 70
     0
 40
0.0
 41
1.0
 50
0.0
 71
     0
 42
25.0
  3
MS Mincho.ttf
  4

1001
ACAD
1000
MS Mincho
1071
    32785
  0
ENDTAB
  0
TABLE
  2
VIEW
  5
6
330
0
100
AcDbSymbolTable
 70
     0
  0
ENDTAB
  0
TABLE
  2
UCS
  5
7
330
0
100
AcDbSymbolTable
 70
     0
  0
ENDTAB
  0
TABLE
  2
APPID
  5
9
330
0
100
AcDbSymbolTable
 70
     2
  0
APPID
  5
12
330
9
100
AcDbSymbolTableRecord
100
AcDbRegAppTableRecord
  2
ACAD
 70
     0
  0
APPID
  5
24C3
330
9
100
AcDbSymbolTableRecord
100
AcDbRegAppTableRecord
  2
ACAD_PSEXT
 70
     0
  0
ENDTAB
  0
TABLE
  2
DIMSTYLE
  5
A
330
0
100
AcDbSymbolTable
 70
     1
100
AcDbDimStyleTable
 71
     1
340
27
  0
DIMSTYLE
105
27
102
{ACAD_REACTORS
330
70F5
330
7102
330
7133
330
7140
330
7172
330
77AF
330
77BC
330
7845
330
785C
330
786A
330
7877
330
78E9
330
78F6
330
794B
330
79B0
330
79D8
330
7A0D
330
7A2E
330
7A4D
330
7B4E
330
7BA4
330
7BCC
330
8279
330
827A
330
8C6F
330
8C70
330
8C71
330
8C72
330
8C73
330
8C74
330
8C76
330
8C77
330
90DD
330
90DE
330
90E6
330
90E7
330
90E8
330
90E9
330
90EA
330
9248
330
9249
330
924A
330
924B
330
924C
330
924D
330
924E
102
}
330
A
100
AcDbSymbolTableRecord
100
AcDbDimStyleTableRecord
  2
ISO-25
 70
     0
 41
35.0
 42
65.0
 43
3.75
 44
0.0
 73
     0
 74
     0
 77
     1
 78
     8
140
25.0
141
2.5
143
0.03937007874016
147
6.25
171
     3
172
     1
271
     2
272
     2
274
     3
283
     0
284
     8
340
11
341
DA
342
D0
371
    15
372
    15
  0
ENDTAB
  0
TABLE
  2
BLOCK_RECORD
  5
1
330
0
100
AcDbSymbolTable
 70
    88
  0
BLOCK_RECORD
  5
1F
102
{ACAD_XDICTIONARY
360
2396
102
}
330
1
100
AcDbSymbolTableRecord
100
AcDbBlockTableRecord
  2
*Model_Space
340
22
  0
BLOCK_RECORD
  5
1B
330
1
100
AcDbSymbolTableRecord
100
AcDbBlockTableRecord
  2
*Paper_Space
340
1E
  0
BLOCK_RECORD
  5
23
330
1
100
AcDbSymbolTableRecord
100
AcDbBlockTableRecord
  2
*Paper_Space0
340
26
  0
BLOCK_RECORD
  5
D0
330
1
100
AcDbSymbolTableRecord
100
AcDbBlockTableRecord
  2
_DotSmall
340
0
  0
BLOCK_RECORD
  5
D4
330
1
100
AcDbSymbolTableRecord
100
AcDbBlockTableRecord
  2
_Origin2
340
0
  0
BLOCK_RECORD
  5
DA
330
1
100
AcDbSymbolTableRecord
100
AcDbBlockTableRecord
  2
_Open30
340
0
  0
BLOCK_RECORD
  5
2D6
330
1
100
AcDbSymbolTableRecord
100
AcDbBlockTableRecord
  2
A$C6CAC4411
340
0
  0
BLOCK_RECORD
  5
30D
330
1
100
AcDbSymbolTableRecord
100
AcDbBlockTableRecord
  2
_Dot
340
0
102
{BLKREFS
331
7E57
331
7E58
331
7E60
331
7E61
331
7E69
331
7E6A
331
7E73
331
7E74
331
7E97
331
7E98
331
7EA0
331
7EA1
331
7EA8
331
7EA9
331
7F4A
331
7F4B
331
7F57
331
7F58
331
7F63
331
7F64
331
7F6E
331
7F6F
331
7F7A
331
7F7B
331
7F86
331
7F87
331
7F92
331
7F93
331
7F0E
331
7F0F
331
7F1B
331
7F1C
331
7F26
331
7F27
331
7F33
331
7F34
331
7F3E
331
7F3F
331
7F9E
331
7F9F
331
7FAA
331
7FAB
331
7FB6
331
7FB7
331
7FC2
331
7FC3
331
7FCE
331
7FCF
331
7FDB
331
7FDC
331
7FE6
331
7FE7
331
7FF3
331
7FF4
331
7FFE
331
7FFF
331
800B
331
800C
331
8017
331
8018
331
8022
331
8023
331
802E
331
802F
331
803B
331
803C
331
8052
331
8053
331
805E
331
805F
331
8047
331
8048
331
88F6
331
88F7
331
8900
331
8901
331
8908
331
8909
331
8912
331
8913
331
891A
331
891B
331
8923
331
8924
331
892C
331
892D
331
8936
331
8937
331
893F
331
8940
331
8947
331
8948
331
8950
331
8951
331
895A
331
895B
331
8962
331
8963
331
8E19
331
8E1A
331
8F51
331
8F52
331
8F64
331
8F65
331
9144
331
9145
331
914D
331
914E
331
9157
331
9158
331
9160
331
9161
331
9168
331
9169
331
9172
331
9173
331
917A
331
917B
331
92A8
331
92A9
331
92B2
331
92B3
331
92BB
331
92BC
331
92C4
331
92C5
331
92CD
331
92CE
331
92D6
331
92D7
331
92DF
331
92E0
331
93A0
331
93A1
331
93A8
331
93A9
331
93B2
331
93B3
331
93BB
331
93BC
331
93C3
331
93C4
331
93CC
331
93CD
331
93D5
331
93D6
331
93DF
331
93E0
331
93E8
331
93E9
102
}
  0
BLOCK_RECORD
  5
313C
102
{ACAD_XDICTIONARY
360
313E
102
}
330
1
100
AcDbSymbolTableRecord
100
AcDbBlockTableRecord
  2
A$C6850087C
340
0
  0
BLOCK_RECORD
  5
3846
102
{ACAD_XDICTIONARY
360
3848
102
}
330
1
100
AcDbSymbolTableRecord
100
AcDbBlockTableRecord
  2
A$C71387EE1
340
0
  0
BLOCK_RECORD
  5
6B87
102
{ACAD_XDICTIONARY
360
6B89
102
}
330
1
100
AcDbSymbolTableRecord
100
AcDbBlockTableRecord
  2
A$C47AF373A
340
0
  0
BLOCK_RECORD
  5
6C00
102
{ACAD_XDICTIONARY
360
6C02
102
}
330
1
100
AcDbSymbolTableRecord
100
AcDbBlockTableRecord
  2
A$C2B9560D8
340
0
  0
BLOCK_RECORD
  5
70F6
330
1
100
AcDbSymbolTableRecord
100
AcDbBlockTableRecord
  2
*D10
340
0
  0
BLOCK_RECORD
  5
7103
330
1
100
AcDbSymbolTableRecord
100
AcDbBlockTableRecord
  2
*D11
340
0
  0
BLOCK_RECORD
  5
7134
330
1
100
AcDbSymbolTableRecord
100
AcDbBlockTableRecord
  2
*D12
340
0
  0
BLOCK_RECORD
  5
7141
330
1
100
AcDbSymbolTableRecord
100
AcDbBlockTableRecord
  2
*D13
340
0
  0
BLOCK_RECORD
  5
7173
330
1
100
AcDbSymbolTableRecord
100
AcDbBlockTableRecord
  2
*D14
340
0
  0
BLOCK_RECORD
  5
7752
102
{ACAD_XDICTIONARY
360
7758
102
}
330
1
100
AcDbSymbolTableRecord
100
AcDbBlockTableRecord
  2
A$C113940D1
340
0
  0
BLOCK_RECORD
  5
77B0
330
1
100
AcDbSymbolTableRecord
100
AcDbBlockTableRecord
  2
*D16
340
0
  0
BLOCK_RECORD
  5
77BD
330
1
100
AcDbSymbolTableRecord
100
AcDbBlockTableRecord
  2
*D17
340
0
  0
BLOCK_RECORD
  5
7846
330
1
100
AcDbSymbolTableRecord
100
AcDbBlockTableRecord
  2
*D18
340
0
  0
BLOCK_RECORD
  5
785D
330
1
100
AcDbSymbolTableRecord
100
AcDbBlockTableRecord
  2
*D19
340
0
  0
BLOCK_RECORD
  5
786B
330
1
100
AcDbSymbolTableRecord
100
AcDbBlockTableRecord
  2
*D20
340
0
  0
BLOCK_RECORD
  5
7878
330
1
100
AcDbSymbolTableRecord
100
AcDbBlockTableRecord
  2
*D21
340
0
  0
BLOCK_RECORD
  5
78EA
330
1
100
AcDbSymbolTableRecord
100
AcDbBlockTableRecord
  2
*D22
340
0
  0
BLOCK_RECORD
  5
78F7
330
1
100
AcDbSymbolTableRecord
100
AcDbBlockTableRecord
  2
*D23
340
0
  0
BLOCK_RECORD
  5
794C
330
1
100
AcDbSymbolTableRecord
100
AcDbBlockTableRecord
  2
*D24
340
0
  0
BLOCK_RECORD
  5
79A0
102
{ACAD_XDICTIONARY
360
79A2
102
}
330
1
100
AcDbSymbolTableRecord
100
AcDbBlockTableRecord
  2
A$C34481AC4
340
0
  0
BLOCK_RECORD
  5
79B1
330
1
100
AcDbSymbolTableRecord
100
AcDbBlockTableRecord
  2
*D26
340
0
  0
BLOCK_RECORD
  5
79D9
330
1
100
AcDbSymbolTableRecord
100
AcDbBlockTableRecord
  2
*D27
340
0
  0
BLOCK_RECORD
  5
7A0E
330
1
100
AcDbSymbolTableRecord
100
AcDbBlockTableRecord
  2
*D28
340
0
  0
BLOCK_RECORD
  5
7A2F
330
1
100
AcDbSymbolTableRecord
100
AcDbBlockTableRecord
  2
*D29
340
0
  0
BLOCK_RECORD
  5
7A4E
330
1
100
AcDbSymbolTableRecord
100
AcDbBlockTableRecord
  2
*D30
340
0
  0
BLOCK_RECORD
  5
7B4F
330
1
100
AcDbSymbolTableRecord
100
AcDbBlockTableRecord
  2
*D31
340
0
  0
BLOCK_RECORD
  5
7BA5
330
1
100
AcDbSymbolTableRecord
100
AcDbBlockTableRecord
  2
*D32
340
0
  0
BLOCK_RECORD
  5
7BCD
330
1
100
AcDbSymbolTableRecord
100
AcDbBlockTableRecord
  2
*D33
340
0
  0
BLOCK_RECORD
  5
7F09
330
1
100
AcDbSymbolTableRecord
100
AcDbBlockTableRecord
  2
*D34
340
0
  0
BLOCK_RECORD
  5
7F15
330
1
100
AcDbSymbolTableRecord
100
AcDbBlockTableRecord
  2
*D35
340
0
  0
BLOCK_RECORD
  5
7F21
330
1
100
AcDbSymbolTableRecord
100
AcDbBlockTableRecord
  2
*D36
340
0
  0
BLOCK_RECORD
  5
7F2D
330
1
100
AcDbSymbolTableRecord
100
AcDbBlockTableRecord
  2
*D37
340
0
  0
BLOCK_RECORD
  5
7F39
330
1
100
AcDbSymbolTableRecord
100
AcDbBlockTableRecord
  2
*D38
340
0
  0
BLOCK_RECORD
  5
7F45
330
1
100
AcDbSymbolTableRecord
100
AcDbBlockTableRecord
  2
*D39
340
0
  0
BLOCK_RECORD
  5
7F51
330
1
100
AcDbSymbolTableRecord
100
AcDbBlockTableRecord
  2
*D40
340
0
  0
BLOCK_RECORD
  5
7F5D
330
1
100
AcDbSymbolTableRecord
100
AcDbBlockTableRecord
  2
*D41
340
0
  0
BLOCK_RECORD
  5
7F69
330
1
100
AcDbSymbolTableRecord
100
AcDbBlockTableRecord
  2
*D42
340
0
  0
BLOCK_RECORD
  5
7F75
330
1
100
AcDbSymbolTableRecord
100
AcDbBlockTableRecord
  2
*D43
340
0
  0
BLOCK_RECORD
  5
7F81
330
1
100
AcDbSymbolTableRecord
100
AcDbBlockTableRecord
  2
*D44
340
0
  0
BLOCK_RECORD
  5
7F8D
330
1
100
AcDbSymbolTableRecord
100
AcDbBlockTableRecord
  2
*D45
340
0
  0
BLOCK_RECORD
  5
7F99
330
1
100
AcDbSymbolTableRecord
100
AcDbBlockTableRecord
  2
*D46
340
0
  0
BLOCK_RECORD
  5
7FA5
330
1
100
AcDbSymbolTableRecord
100
AcDbBlockTableRecord
  2
*D47
340
0
  0
BLOCK_RECORD
  5
7FB1
330
1
100
AcDbSymbolTableRecord
100
AcDbBlockTableRecord
  2
*D48
340
0
  0
BLOCK_RECORD
  5
7FBD
330
1
100
AcDbSymbolTableRecord
100
AcDbBlockTableRecord
  2
*D49
340
0
  0
BLOCK_RECORD
  5
7FC9
330
1
100
AcDbSymbolTableRecord
100
AcDbBlockTableRecord
  2
*D50
340
0
  0
BLOCK_RECORD
  5
7FD5
330
1
100
AcDbSymbolTableRecord
100
AcDbBlockTableRecord
  2
*D51
340
0
  0
BLOCK_RECORD
  5
7FE1
330
1
100
AcDbSymbolTableRecord
100
AcDbBlockTableRecord
  2
*D52
340
0
  0
BLOCK_RECORD
  5
7FED
330
1
100
AcDbSymbolTableRecord
100
AcDbBlockTableRecord
  2
*D53
340
0
  0
BLOCK_RECORD
  5
7FF9
330
1
100
AcDbSymbolTableRecord
100
AcDbBlockTableRecord
  2
*D54
340
0
  0
BLOCK_RECORD
  5
8005
330
1
100
AcDbSymbolTableRecord
100
AcDbBlockTableRecord
  2
*D55
340
0
  0
BLOCK_RECORD
  5
8011
330
1
100
AcDbSymbolTableRecord
100
AcDbBlockTableRecord
  2
*D56
340
0
  0
BLOCK_RECORD
  5
801D
330
1
100
AcDbSymbolTableRecord
100
AcDbBlockTableRecord
  2
*D57
340
0
  0
BLOCK_RECORD
  5
8029
330
1
100
AcDbSymbolTableRecord
100
AcDbBlockTableRecord
  2
*D58
340
0
  0
BLOCK_RECORD
  5
8035
330
1
100
AcDbSymbolTableRecord
100
AcDbBlockTableRecord
  2
*D59
340
0
  0
BLOCK_RECORD
  5
8041
330
1
100
AcDbSymbolTableRecord
100
AcDbBlockTableRecord
  2
*D60
340
0
  0
BLOCK_RECORD
  5
804D
330
1
100
AcDbSymbolTableRecord
100
AcDbBlockTableRecord
  2
*D61
340
0
  0
BLOCK_RECORD
  5
8059
330
1
100
AcDbSymbolTableRecord
100
AcDbBlockTableRecord
  2
*D62
340
0
  0
BLOCK_RECORD
  5
8065
102
{ACAD_XDICTIONARY
360
80F8
102
}
330
1
100
AcDbSymbolTableRecord
100
AcDbBlockTableRecord
  2
RAS800-510GRM
340
0
  0
BLOCK_RECORD
  5
827C
330
1
100
AcDbSymbolTableRecord
100
AcDbBlockTableRecord
  2
*D64
340
0
  0
BLOCK_RECORD
  5
8288
330
1
100
AcDbSymbolTableRecord
100
AcDbBlockTableRecord
  2
*D65
340
0
  0
BLOCK_RECORD
  5
8C78
330
1
100
AcDbSymbolTableRecord
100
AcDbBlockTableRecord
  2
*D66
340
0
  0
BLOCK_RECORD
  5
8C84
330
1
100
AcDbSymbolTableRecord
100
AcDbBlockTableRecord
  2
*D67
340
0
  0
BLOCK_RECORD
  5
8C90
330
1
100
AcDbSymbolTableRecord
100
AcDbBlockTableRecord
  2
*D68
340
0
  0
BLOCK_RECORD
  5
8C9C
330
1
100
AcDbSymbolTableRecord
100
AcDbBlockTableRecord
  2
*D69
340
0
  0
BLOCK_RECORD
  5
8CA8
330
1
100
AcDbSymbolTableRecord
100
AcDbBlockTableRecord
  2
*D70
340
0
  0
BLOCK_RECORD
  5
8CB4
330
1
100
AcDbSymbolTableRecord
100
AcDbBlockTableRecord
  2
*D71
340
0
  0
BLOCK_RECORD
  5
8CC0
330
1
100
AcDbSymbolTableRecord
100
AcDbBlockTableRecord
  2
*D72
340
0
  0
BLOCK_RECORD
  5
8CCC
330
1
100
AcDbSymbolTableRecord
100
AcDbBlockTableRecord
  2
*D73
340
0
  0
BLOCK_RECORD
  5
90ED
330
1
100
AcDbSymbolTableRecord
100
AcDbBlockTableRecord
  2
*D74
340
0
  0
BLOCK_RECORD
  5
90F9
330
1
100
AcDbSymbolTableRecord
100
AcDbBlockTableRecord
  2
*D75
340
0
  0
BLOCK_RECORD
  5
9105
330
1
100
AcDbSymbolTableRecord
100
AcDbBlockTableRecord
  2
*D76
340
0
  0
BLOCK_RECORD
  5
9111
330
1
100
AcDbSymbolTableRecord
100
AcDbBlockTableRecord
  2
*D77
340
0
  0
BLOCK_RECORD
  5
911D
330
1
100
AcDbSymbolTableRecord
100
AcDbBlockTableRecord
  2
*D78
340
0
  0
BLOCK_RECORD
  5
9129
330
1
100
AcDbSymbolTableRecord
100
AcDbBlockTableRecord
  2
*D79
340
0
  0
BLOCK_RECORD
  5
9135
330
1
100
AcDbSymbolTableRecord
100
AcDbBlockTableRecord
  2
*D80
340
0
  0
BLOCK_RECORD
  5
924F
330
1
100
AcDbSymbolTableRecord
100
AcDbBlockTableRecord
  2
*D81
340
0
  0
BLOCK_RECORD
  5
925B
330
1
100
AcDbSymbolTableRecord
100
AcDbBlockTableRecord
  2
*D82
340
0
  0
BLOCK_RECORD
  5
9268
330
1
100
AcDbSymbolTableRecord
100
AcDbBlockTableRecord
  2
*D83
340
0
  0
BLOCK_RECORD
  5
9274
330
1
100
AcDbSymbolTableRecord
100
AcDbBlockTableRecord
  2
*D84
340
0
  0
BLOCK_RECORD
  5
9280
330
1
100
AcDbSymbolTableRecord
100
AcDbBlockTableRecord
  2
*D85
340
0
  0
BLOCK_RECORD
  5
928C
330
1
100
AcDbSymbolTableRecord
100
AcDbBlockTableRecord
  2
*D86
340
0
  0
BLOCK_RECORD
  5
9298
330
1
100
AcDbSymbolTableRecord
100
AcDbBlockTableRecord
  2
*D87
340
0
  0
ENDTAB
  0
ENDSEC
  0
SECTION
  2
BLOCKS
  0
BLOCK
  5
20
330
1F
100
AcDbEntity
  8
0
100
AcDbBlockBegin
  2
*Model_Space
 70
     0
 10
0.0
 20
0.0
 30
0.0
  3
*Model_Space
  1

  0
ENDBLK
  5
21
330
1F
100
AcDbEntity
  8
0
100
AcDbBlockEnd
  0
BLOCK
  5
1C
330
1B
100
AcDbEntity
 67
     1
  8
0
100
AcDbBlockBegin
  2
*Paper_Space
 70
     0
 10
0.0
 20
0.0
 30
0.0
  3
*Paper_Space
  1

  0
ENDBLK
  5
1D
330
1B
100
AcDbEntity
 67
     1
  8
0
100
AcDbBlockEnd
  0
BLOCK
  5
24
330
23
100
AcDbEntity
  8
0
100
AcDbBlockBegin
  2
*Paper_Space0
 70
     0
 10
0.0
 20
0.0
 30
0.0
  3
*Paper_Space0
  1

  0
ENDBLK
  5
25
330
23
100
AcDbEntity
  8
0
100
AcDbBlockEnd
  0
BLOCK
  5
D2
330
D0
100
AcDbEntity
  8
0
100
AcDbBlockBegin
  2
_DotSmall
 70
     0
 10
0.0
 20
0.0
 30
0.0
  3
_DotSmall
  1

  0
LWPOLYLINE
  5
D1
330
D0
100
AcDbEntity
  8
0
 62
     0
100
AcDbPolyline
 90
        2
 70
     1
 43
0.5
 10
-0.0625
 20
0.0
 42
1.0
 10
0.0625
 20
0.0
 42
1.0
  0
ENDBLK
  5
D3
330
D0
100
AcDbEntity
  8
0
100
AcDbBlockEnd
  0
BLOCK
  5
D8
330
D4
100
AcDbEntity
  8
0
100
AcDbBlockBegin
  2
_Origin2
 70
     0
 10
0.0
 20
0.0
 30
0.0
  3
_Origin2
  1

  0
CIRCLE
  5
D5
330
D4
100
AcDbEntity
  8
0
 62
     0
370
    -2
100
AcDbCircle
 10
0.0
 20
0.0
 30
0.0
 40
0.5
  0
CIRCLE
  5
D6
330
D4
100
AcDbEntity
  8
0
 62
     0
370
    -2
100
AcDbCircle
 10
0.0
 20
0.0
 30
0.0
 40
0.25
  0
LINE
  5
D7
330
D4
100
AcDbEntity
  8
0
 62
     0
370
    -2
100
AcDbLine
 10
-0.5
 20
0.0
 30
0.0
 11
-1.0
 21
0.0
 31
0.0
  0
ENDBLK
  5
D9
330
D4
100
AcDbEntity
  8
0
100
AcDbBlockEnd
  0
BLOCK
  5
DE
330
DA
100
AcDbEntity
  8
0
100
AcDbBlockBegin
  2
_Open30
 70
     0
 10
0.0
 20
0.0
 30
0.0
  3
_Open30
  1

  0
LINE
  5
DB
330
DA
100
AcDbEntity
  8
0
 62
     0
370
    -2
100
AcDbLine
 10
-1.0
 20
0.26794919
 30
0.0
 11
0.0
 21
0.0
 31
0.0
  0
LINE
  5
DC
330
DA
100
AcDbEntity
  8
0
 62
     0
370
    -2
100
AcDbLine
 10
0.0
 20
0.0
 30
0.0
 11
-1.0
 21
-0.26794919
 31
0.0
  0
LINE
  5
DD
330
DA
100
AcDbEntity
  8
0
 62
     0
370
    -2
100
AcDbLine
 10
0.0
 20
0.0
 30
0.0
 11
-1.0
 21
0.0
 31
0.0
  0
ENDBLK
  5
DF
330
DA
100
AcDbEntity
  8
0
100
AcDbBlockEnd
  0
BLOCK
  5
2E7
330
2D6
100
AcDbEntity
  8
0
100
AcDbBlockBegin
  2
A$C6CAC4411
 70
     0
 10
0.0
 20
0.0
 30
0.0
  3
A$C6CAC4411
  1

  0
TEXT
  5
2D7
330
2D6
100
AcDbEntity
  8
0
100
AcDbText
 10
176.2557717918098
 20
0.0000022116982912
 30
0.0
 40
40.0
  1
中外交易株式会社
 72
     4
 11
364.2557717918098
 21
20.0000022116983
 31
0.0
100
AcDbText
  0
LINE
  5
2D8
330
2D6
100
AcDbEntity
  8
0
100
AcDbLine
 10
-0.0000028735375963
 20
52.5000022116983
 30
0.0
 11
599.9999971264624
 21
52.5000022116983
 31
0.0
  0
HATCH
  5
2D9
330
2D6
100
AcDbEntity
  8
実形
100
AcDbHatch
 10
0.0
 20
0.0
 30
0.0
210
0.0
220
0.0
230
1.0
  2
SOLID
 70
     1
 71
     1
 91
        3
 92
        1
 93
        4
 72
     2
 10
133.1661954404576
 20
20.0000022116983
 40
20.0
 50
11.64772366707622
 51
342.6561058784662
 73
     1
 72
     1
 10
152.2568494677857
 20
14.03787769028346
 11
128.1661954404576
 21
14.03787769028349
 72
     1
 10
128.1661954404576
 20
14.03787769028349
 11
128.1661954404576
 21
24.0378776902835
 72
     1
 10
128.1661954404576
 20
24.0378776902835
 11
152.7543439394721
 21
24.0378776902835
 97
        4
330
2DF
330
2DC
330
2E0
330
2DD
 92
        1
 93
        4
 72
     2
 10
64.25577179180982
 20
20.0000022116983
 40
20.0
 50
11.64772366707622
 51
342.6561058784662
 73
     1
 72
     1
 10
83.34642581913795
 20
14.03787769028346
 11
59.25577179180982
 21
14.03787769028349
 72
     1
 10
59.25577179180982
 20
14.03787769028349
 11
59.25577179180982
 21
24.0378776902835
 72
     1
 10
59.25577179180982
 20
24.0378776902835
 11
83.84392029082437
 21
24.0378776902835
 97
        4
330
2DE
330
2DB
330
2E1
330
2DA
 92
        1
 93
        5
 72
     1
 10
121.6418911694018
 20
40.0000022116983
 11
86.64189116940178
 21
40.0000022116983
 72
     1
 10
86.64189116940178
 20
40.0000022116983
 11
86.64189116940178
 21
0.0000022116983018
 72
     1
 10
86.64189116940178
 20
0.0000022116983018
 11
121.6418911694018
 21
0.0000022116983018
 72
     1
 10
121.6418911694018
 20
0.0000022116983018
 11
86.64189116940178
 21
20.0000022116983
 72
     1
 10
86.64189116940178
 20
20.0000022116983
 11
121.6418911694018
 21
40.0000022116983
 97
        5
330
2E2
330
2E3
330
2E5
330
2E6
330
2E4
 75
     0
 76
     1
 98
        1
 10
-2184.000002873538
 20
-16.4999977883017
  0
LINE
  5
2DA
102
{ACAD_REACTORS
330
2D9
102
}
330
2D6
100
AcDbEntity
  8
実形
370
     5
100
AcDbLine
 10
83.84392029082437
 20
24.0378776902835
 30
0.0
 11
59.25577179180982
 21
24.0378776902835
 31
0.0
  0
LINE
  5
2DB
102
{ACAD_REACTORS
330
2D9
102
}
330
2D6
100
AcDbEntity
  8
実形
370
     5
100
AcDbLine
 10
59.25577179180982
 20
14.03787769028349
 30
0.0
 11
83.34642581913795
 21
14.03787769028346
 31
0.0
  0
LINE
  5
2DC
102
{ACAD_REACTORS
330
2D9
102
}
330
2D6
100
AcDbEntity
  8
実形
370
     5
100
AcDbLine
 10
128.1661954404576
 20
14.03787769028349
 30
0.0
 11
152.2568494677857
 21
14.03787769028346
 31
0.0
  0
LINE
  5
2DD
102
{ACAD_REACTORS
330
2D9
102
}
330
2D6
100
AcDbEntity
  8
実形
370
     5
100
AcDbLine
 10
152.7543439394721
 20
24.0378776902835
 30
0.0
 11
128.1661954404576
 21
24.0378776902835
 31
0.0
  0
ARC
  5
2DE
102
{ACAD_REACTORS
330
2D9
102
}
330
2D6
100
AcDbEntity
  8
実形
370
     5
100
AcDbCircle
 10
64.25577179180982
 20
20.0000022116983
 30
0.0
 40
20.0
100
AcDbArc
 50
11.6477236670758
 51
342.6561058784691
  0
ARC
  5
2DF
102
{ACAD_REACTORS
330
2D9
102
}
330
2D6
100
AcDbEntity
  8
実形
370
     5
100
AcDbCircle
 10
133.1661954404576
 20
20.0000022116983
 30
0.0
 40
20.0
100
AcDbArc
 50
11.6477236670758
 51
342.6561058784691
  0
LINE
  5
2E0
102
{ACAD_REACTORS
330
2D9
102
}
330
2D6
100
AcDbEntity
  8
実形
370
     5
100
AcDbLine
 10
128.1661954404576
 20
24.0378776902835
 30
0.0
 11
128.1661954404576
 21
14.03787769028349
 31
0.0
  0
LINE
  5
2E1
102
{ACAD_REACTORS
330
2D9
102
}
330
2D6
100
AcDbEntity
  8
実形
370
     5
100
AcDbLine
 10
59.25577179180982
 20
24.0378776902835
 30
0.0
 11
59.25577179180982
 21
14.03787769028349
 31
0.0
  0
LINE
  5
2E2
102
{ACAD_REACTORS
330
2D9
102
}
330
2D6
100
AcDbEntity
  8
実形
370
     5
100
AcDbLine
 10
121.6418911694018
 20
40.0000022116983
 30
0.0
 11
86.64189116940178
 21
40.0000022116983
 31
0.0
  0
LINE
  5
2E3
102
{ACAD_REACTORS
330
2D9
102
}
330
2D6
100
AcDbEntity
  8
実形
370
     5
100
AcDbLine
 10
86.64189116940178
 20
40.0000022116983
 30
0.0
 11
86.64189116940178
 21
0.0000022116983018
 31
0.0
  0
LINE
  5
2E4
102
{ACAD_REACTORS
330
2D9
102
}
330
2D6
100
AcDbEntity
  8
実形
370
     5
100
AcDbLine
 10
86.64189116940178
 20
20.0000022116983
 30
0.0
 11
121.6418911694018
 21
40.0000022116983
 31
0.0
  0
LINE
  5
2E5
102
{ACAD_REACTORS
330
2D9
102
}
330
2D6
100
AcDbEntity
  8
実形
370
     5
100
AcDbLine
 10
86.64189116940178
 20
0.0000022116983018
 30
0.0
 11
121.6418911694018
 21
0.0000022116983018
 31
0.0
  0
LINE
  5
2E6
102
{ACAD_REACTORS
330
2D9
102
}
330
2D6
100
AcDbEntity
  8
実形
370
     5
100
AcDbLine
 10
121.6418911694018
 20
0.0000022116983018
 30
0.0
 11
86.64189116940178
 21
20.0000022116983
 31
0.0
  0
ENDBLK
  5
2E8
330
2D6
100
AcDbEntity
  8
0
100
AcDbBlockEnd
  0
BLOCK
  5
310
330
30D
100
AcDbEntity
  8
0
100
AcDbBlockBegin
  2
_Dot
 70
     0
 10
0.0
 20
0.0
 30
0.0
  3
_Dot
  1

  0
LWPOLYLINE
  5
30E
330
30D
100
AcDbEntity
  8
0
 62
     0
100
AcDbPolyline
 90
        2
 70
     1
 43
0.5
 10
-0.25
 20
0.0
 42
1.0
 10
0.25
 20
0.0
 42
1.0
  0
LINE
  5
30F
330
30D
100
AcDbEntity
  8
0
 62
     0
370
    -2
100
AcDbLine
 10
-0.5
 20
0.0
 30
0.0
 11
-1.0
 21
0.0
 31
0.0
  0
ENDBLK
  5
311
330
30D
100
AcDbEntity
  8
0
100
AcDbBlockEnd
  0
BLOCK
  5
3140
330
313C
100
AcDbEntity
  8
0
100
AcDbBlockBegin
  2
A$C6850087C
 70
     0
 10
0.0
 20
0.0
 30
0.0
  3
A$C6850087C
  1

  0
TEXT
  5
313D
330
313C
100
AcDbEntity
  8
実形
 62
     0
 48
20.0
100
AcDbText
 10
0.0
 20
0.0
 30
0.0
 40
40.0
  1
平面図
100
AcDbText
  0
ENDBLK
  5
3141
330
313C
100
AcDbEntity
  8
0
100
AcDbBlockEnd
  0
BLOCK
  5
384A
330
3846
100
AcDbEntity
  8
0
 62
     1
100
AcDbBlockBegin
  2
A$C71387EE1
 70
     0
 10
0.0
 20
0.0
 30
0.0
  3
A$C71387EE1
  1

  0
HATCH
  5
3847
330
3846
100
AcDbEntity
  8
実形
 62
     0
100
AcDbHatch
 10
0.0
 20
0.0
 30
0.0
210
0.0
220
0.0
230
1.0
  2
SOLID
 70
     1
 71
     0
 91
        1
 92
        7
 72
     1
 73
     1
 93
        2
 10
4.552685078746208
 20
-0.0000011660104065
 42
-1.0
 10
4.54872920619573
 20
9.101406589272301
 42
-1.0
 97
        0
 75
     0
 76
     1
 47
0.1166526434546944
 98
        1
 10
6.65106624868099
 20
3.151407247997667
  0
ENDBLK
  5
384B
330
3846
100
AcDbEntity
  8
0
 62
     1
100
AcDbBlockEnd
  0
BLOCK
  5
6B8B
330
6B87
100
AcDbEntity
  8
0
 62
     3
100
AcDbBlockBegin
  2
A$C47AF373A
 70
     0
 10
0.0
 20
0.0
 30
0.0
  3
A$C47AF373A
  1

  0
LINE
  5
6B88
330
6B87
100
AcDbEntity
  8
枠
 62
     0
100
AcDbLine
 10
-0.0000111344452307
 20
0.0000048001220421
 30
0.0
 11
-0.0000111344452307
 21
2020.000004800122
 31
0.0
  0
ENDBLK
  5
6B8C
330
6B87
100
AcDbEntity
  8
0
 62
     3
100
AcDbBlockEnd
  0
BLOCK
  5
6C04
330
6C00
100
AcDbEntity
  8
0
 62
     3
100
AcDbBlockBegin
  2
A$C2B9560D8
 70
     0
 10
0.0
 20
0.0
 30
0.0
  3
A$C2B9560D8
  1

  0
LINE
  5
6C01
330
6C00
100
AcDbEntity
  8
枠
 62
     0
100
AcDbLine
 10
-0.0000103150450741
 20
2020.000004800122
 30
0.0
 11
-0.0000103150450741
 21
0.0000048001220421
 31
0.0
  0
ENDBLK
  5
6C05
330
6C00
100
AcDbEntity
  8
0
 62
     3
100
AcDbBlockEnd
  0
BLOCK
  5
7100
330
70F6
100
AcDbEntity
  8
0
 62
     3
100
AcDbBlockBegin
  2
*D10
 70
     1
 10
0.0
 20
0.0
 30
0.0
  3
*D10
  1

  0
LINE
  5
8917
330
70F6
100
AcDbEntity
  8
実形
 62
     0
370
    18
100
AcDbLine
 10
862.7702104998824
 20
1054.178460662066
 30
0.0
 11
862.7702104998824
 21
986.9157589576788
 31
0.0
  0
LINE
  5
8918
330
70F6
100
AcDbEntity
  8
実形
 62
     0
370
    18
100
AcDbLine
 10
1622.770210499882
 20
1054.178460662066
 30
0.0
 11
1622.770210499882
 21
986.9157589576788
 31
0.0
  0
LINE
  5
8919
330
70F6
100
AcDbEntity
  8
実形
 62
     0
370
    18
100
AcDbLine
 10
872.7702104998824
 20
986.9157589576788
 30
0.0
 11
1612.770210499882
 21
986.9157589576788
 31
0.0
  0
INSERT
  5
891A
330
70F6
100
AcDbEntity
  8
実形
 62
     0
370
    18
100
AcDbBlockReference
  2
_Dot
 10
862.7702104998824
 20
986.9157589576788
 30
0.0
 41
10.0
 42
10.0
 43
10.0
 50
180.0
  0
INSERT
  5
891B
330
70F6
100
AcDbEntity
  8
実形
 62
     0
370
    18
100
AcDbBlockReference
  2
_Dot
 10
1622.770210499882
 20
986.9157589576788
 30
0.0
 41
10.0
 42
10.0
 43
10.0
  0
MTEXT
  5
891C
330
70F6
100
AcDbEntity
  8
実形
 62
     0
100
AcDbMText
 10
1242.770210499882
 20
1006.015758957679
 30
0.0
 40
25.0
 41
0.0
 71
     5
 72
     1
  1
760
 73
     1
 44
1.0
1001
ACAD
1000
MTEXTBEGIN
1070
    73
1070
     1
1070
    44
1040
1.0
1070
    74
1070
     0
1000
MTEXTEND
  0
POINT
  5
891D
330
70F6
100
AcDbEntity
  8
Defpoints
 62
     0
100
AcDbPoint
 10
862.7702104998824
 20
1119.178460662066
 30
0.0
  0
POINT
  5
891E
330
70F6
100
AcDbEntity
  8
Defpoints
 62
     0
100
AcDbPoint
 10
1622.770210499882
 20
1119.178460662066
 30
0.0
  0
POINT
  5
891F
330
70F6
100
AcDbEntity
  8
Defpoints
 62
     0
100
AcDbPoint
 10
1622.770210499882
 20
986.9157589576788
 30
0.0
  0
ENDBLK
  5
7101
330
70F6
100
AcDbEntity
  8
0
 62
     3
100
AcDbBlockEnd
  0
BLOCK
  5
710D
330
7103
100
AcDbEntity
  8
0
 62
     3
100
AcDbBlockBegin
  2
*D11
 70
     1
 10
0.0
 20
0.0
 30
0.0
  3
*D11
  1

  0
LINE
  5
890E
330
7103
100
AcDbEntity
  8
実形
 62
     0
370
    18
100
AcDbLine
 10
842.7702104998825
 20
1054.178460662066
 30
0.0
 11
842.7702104998825
 21
986.9157589576788
 31
0.0
  0
LINE
  5
890F
330
7103
100
AcDbEntity
  8
実形
 62
     0
370
    18
100
AcDbLine
 10
1642.770210499882
 20
1054.178460662066
 30
0.0
 11
1642.770210499882
 21
986.9157589576788
 31
0.0
  0
LINE
  5
8910
330
7103
100
AcDbEntity
  8
実形
 62
     0
370
    18
100
AcDbLine
 10
852.7702104998825
 20
986.9157589576788
 30
0.0
 11
1632.770210499882
 21
986.9157589576788
 31
0.0
  0
MTEXT
  5
8911
330
7103
100
AcDbEntity
  8
実形
 62
     0
100
AcDbMText
 10
1589.171363804602
 20
1008.515758957678
 30
0.0
 40
25.0
 41
0.0
 71
     5
 72
     1
  1
20
 73
     1
 44
1.0
1001
ACAD
1000
MTEXTBEGIN
1070
    73
1070
     1
1070
    44
1040
1.0
1070
    74
1070
     0
1000
MTEXTEND
  0
INSERT
  5
8912
330
7103
100
AcDbEntity
  8
実形
 62
     0
370
    18
100
AcDbBlockReference
  2
_Dot
 10
842.7702104998825
 20
986.9157589576788
 30
0.0
 41
10.0
 42
10.0
 43
10.0
 50
180.0
  0
INSERT
  5
8913
330
7103
100
AcDbEntity
  8
実形
 62
     0
370
    18
100
AcDbBlockReference
  2
_Dot
 10
1642.770210499882
 20
986.9157589576788
 30
0.0
 41
10.0
 42
10.0
 43
10.0
  0
POINT
  5
8914
330
7103
100
AcDbEntity
  8
Defpoints
 62
     0
100
AcDbPoint
 10
842.7702104998825
 20
1119.178460662066
 30
0.0
  0
POINT
  5
8915
330
7103
100
AcDbEntity
  8
Defpoints
 62
     0
100
AcDbPoint
 10
1642.770210499882
 20
1119.178460662066
 30
0.0
  0
POINT
  5
8916
330
7103
100
AcDbEntity
  8
Defpoints
 62
     0
100
AcDbPoint
 10
1642.770210499882
 20
986.9157589576788
 30
0.0
  0
ENDBLK
  5
710E
330
7103
100
AcDbEntity
  8
0
 62
     3
100
AcDbBlockEnd
  0
BLOCK
  5
713E
330
7134
100
AcDbEntity
  8
0
 62
     3
100
AcDbBlockBegin
  2
*D12
 70
     1
 10
0.0
 20
0.0
 30
0.0
  3
*D12
  1

  0
LINE
  5
8905
330
7134
100
AcDbEntity
  8
実形
 62
     0
370
    18
100
AcDbLine
 10
842.7702104998825
 20
1054.178460662066
 30
0.0
 11
842.7702104998825
 21
924.5052716017053
 31
0.0
  0
LINE
  5
8906
330
7134
100
AcDbEntity
  8
実形
 62
     0
370
    18
100
AcDbLine
 10
1642.770210499882
 20
1054.178460662066
 30
0.0
 11
1642.770210499882
 21
924.5052716017053
 31
0.0
  0
LINE
  5
8907
330
7134
100
AcDbEntity
  8
実形
 62
     0
370
    18
100
AcDbLine
 10
852.7702104998825
 20
924.5052716017053
 30
0.0
 11
1632.770210499882
 21
924.5052716017053
 31
0.0
  0
INSERT
  5
8908
330
7134
100
AcDbEntity
  8
実形
 62
     0
370
    18
100
AcDbBlockReference
  2
_Dot
 10
842.7702104998825
 20
924.5052716017053
 30
0.0
 41
10.0
 42
10.0
 43
10.0
 50
180.0
  0
INSERT
  5
8909
330
7134
100
AcDbEntity
  8
実形
 62
     0
370
    18
100
AcDbBlockReference
  2
_Dot
 10
1642.770210499882
 20
924.5052716017053
 30
0.0
 41
10.0
 42
10.0
 43
10.0
  0
MTEXT
  5
890A
330
7134
100
AcDbEntity
  8
実形
 62
     0
100
AcDbMText
 10
1242.770210499882
 20
943.6052716017053
 30
0.0
 40
25.0
 41
0.0
 71
     5
 72
     1
  1
800
 73
     1
 44
1.0
1001
ACAD
1000
MTEXTBEGIN
1070
    73
1070
     1
1070
    44
1040
1.0
1070
    74
1070
     0
1000
MTEXTEND
  0
POINT
  5
890B
330
7134
100
AcDbEntity
  8
Defpoints
 62
     0
100
AcDbPoint
 10
842.7702104998825
 20
1119.178460662066
 30
0.0
  0
POINT
  5
890C
330
7134
100
AcDbEntity
  8
Defpoints
 62
     0
100
AcDbPoint
 10
1642.770210499882
 20
1119.178460662066
 30
0.0
  0
POINT
  5
890D
330
7134
100
AcDbEntity
  8
Defpoints
 62
     0
100
AcDbPoint
 10
1642.770210499882
 20
924.5052716017053
 30
0.0
  0
ENDBLK
  5
713F
330
7134
100
AcDbEntity
  8
0
 62
     3
100
AcDbBlockEnd
  0
BLOCK
  5
714B
330
7141
100
AcDbEntity
  8
0
 62
     3
100
AcDbBlockBegin
  2
*D13
 70
     1
 10
0.0
 20
0.0
 30
0.0
  3
*D13
  1

  0
LINE
  5
88FC
330
7141
100
AcDbEntity
  8
実形
 62
     0
370
    18
100
AcDbLine
 10
827.7702104998825
 20
1054.178460662066
 30
0.0
 11
827.7702104998825
 21
924.5052716017053
 31
0.0
  0
LINE
  5
88FD
330
7141
100
AcDbEntity
  8
実形
 62
     0
370
    18
100
AcDbLine
 10
1657.770210499882
 20
1054.178460662066
 30
0.0
 11
1657.770210499882
 21
924.5052716017053
 31
0.0
  0
LINE
  5
88FE
330
7141
100
AcDbEntity
  8
実形
 62
     0
370
    18
100
AcDbLine
 10
837.7702104998824
 20
924.5052716017053
 30
0.0
 11
1647.770210499882
 21
924.5052716017053
 31
0.0
  0
MTEXT
  5
88FF
330
7141
100
AcDbEntity
  8
実形
 62
     0
100
AcDbMText
 10
1701.559743854428
 20
946.1052716017052
 30
0.0
 40
25.0
 41
0.0
 71
     5
 72
     1
  1
15
 73
     1
 44
1.0
1001
ACAD
1000
MTEXTBEGIN
1070
    73
1070
     1
1070
    44
1040
1.0
1070
    74
1070
     0
1000
MTEXTEND
  0
INSERT
  5
8900
330
7141
100
AcDbEntity
  8
実形
 62
     0
370
    18
100
AcDbBlockReference
  2
_Dot
 10
827.7702104998825
 20
924.5052716017053
 30
0.0
 41
10.0
 42
10.0
 43
10.0
 50
180.0
  0
INSERT
  5
8901
330
7141
100
AcDbEntity
  8
実形
 62
     0
370
    18
100
AcDbBlockReference
  2
_Dot
 10
1657.770210499882
 20
924.5052716017053
 30
0.0
 41
10.0
 42
10.0
 43
10.0
  0
POINT
  5
8902
330
7141
100
AcDbEntity
  8
Defpoints
 62
     0
100
AcDbPoint
 10
827.7702104998825
 20
1119.178460662066
 30
0.0
  0
POINT
  5
8903
330
7141
100
AcDbEntity
  8
Defpoints
 62
     0
100
AcDbPoint
 10
1657.770210499882
 20
1119.178460662066
 30
0.0
  0
POINT
  5
8904
330
7141
100
AcDbEntity
  8
Defpoints
 62
     0
100
AcDbPoint
 10
1657.770210499882
 20
924.5052716017053
 30
0.0
  0
ENDBLK
  5
714C
330
7141
100
AcDbEntity
  8
0
 62
     3
100
AcDbBlockEnd
  0
BLOCK
  5
717D
330
7173
100
AcDbEntity
  8
0
 62
     3
100
AcDbBlockBegin
  2
*D14
 70
     1
 10
0.0
 20
0.0
 30
0.0
  3
*D14
  1

  0
LINE
  5
88F3
330
7173
100
AcDbEntity
  8
実形
 62
     0
370
    18
100
AcDbLine
 10
827.7702104998825
 20
1054.178460662066
 30
0.0
 11
827.7702104998825
 21
851.2836911315535
 31
0.0
  0
LINE
  5
88F4
330
7173
100
AcDbEntity
  8
実形
 62
     0
370
    18
100
AcDbLine
 10
1657.770210499882
 20
1054.178460662066
 30
0.0
 11
1657.770210499882
 21
851.2836911315535
 31
0.0
  0
LINE
  5
88F5
330
7173
100
AcDbEntity
  8
実形
 62
     0
370
    18
100
AcDbLine
 10
837.7702104998824
 20
851.2836911315535
 30
0.0
 11
1647.770210499882
 21
851.2836911315535
 31
0.0
  0
INSERT
  5
88F6
330
7173
100
AcDbEntity
  8
実形
 62
     0
370
    18
100
AcDbBlockReference
  2
_Dot
 10
827.7702104998825
 20
851.2836911315535
 30
0.0
 41
10.0
 42
10.0
 43
10.0
 50
180.0
  0
INSERT
  5
88F7
330
7173
100
AcDbEntity
  8
実形
 62
     0
370
    18
100
AcDbBlockReference
  2
_Dot
 10
1657.770210499882
 20
851.2836911315535
 30
0.0
 41
10.0
 42
10.0
 43
10.0
  0
MTEXT
  5
88F8
330
7173
100
AcDbEntity
  8
実形
 62
     0
100
AcDbMText
 10
1242.770210499882
 20
870.3836911315535
 30
0.0
 40
25.0
 41
0.0
 71
     5
 72
     1
  1
830
 73
     1
 44
1.0
1001
ACAD
1000
MTEXTBEGIN
1070
    73
1070
     1
1070
    44
1040
1.0
1070
    74
1070
     0
1000
MTEXTEND
  0
POINT
  5
88F9
330
7173
100
AcDbEntity
  8
Defpoints
 62
     0
100
AcDbPoint
 10
827.7702104998825
 20
1119.178460662066
 30
0.0
  0
POINT
  5
88FA
330
7173
100
AcDbEntity
  8
Defpoints
 62
     0
100
AcDbPoint
 10
1657.770210499882
 20
1119.178460662066
 30
0.0
  0
POINT
  5
88FB
330
7173
100
AcDbEntity
  8
Defpoints
 62
     0
100
AcDbPoint
 10
1657.770210499882
 20
851.2836911315535
 30
0.0
  0
ENDBLK
  5
717E
330
7173
100
AcDbEntity
  8
0
 62
     3
100
AcDbBlockEnd
  0
BLOCK
  5
775A
330
7752
100
AcDbEntity
  8
0
 62
     3
100
AcDbBlockBegin
  2
A$C113940D1
 70
     0
 10
0.0
 20
0.0
 30
0.0
  3
A$C113940D1
  1

  0
LINE
  5
7753
330
7752
100
AcDbEntity
  8
実形
 62
     0
100
AcDbLine
 10
0.0
 20
65.0
 30
0.0
 11
720.0
 21
65.0
 31
0.0
  0
LINE
  5
7754
330
7752
100
AcDbEntity
  8
実形
 62
     0
100
AcDbLine
 10
0.0
 20
-195.0
 30
0.0
 11
0.0
 21
65.0
 31
0.0
  0
LINE
  5
7755
330
7752
100
AcDbEntity
  8
実形
 62
     0
100
AcDbLine
 10
120.0
 20
-130.0
 30
0.0
 11
120.0
 21
65.00000000000006
 31
0.0
  0
TEXT
  5
7756
330
7752
100
AcDbEntity
  8
枠
 62
     0
100
AcDbText
 10
23.83333333333334
 20
15.00000000000001
 30
0.0
 40
35.0
  1
品名
 72
     4
 11
60.0
 21
32.5
 31
0.0
100
AcDbText
  0
TEXT
  5
7757
330
7752
100
AcDbEntity
  8
実形
100
AcDbText
 10
214.0405358305962
 20
13.16420861765831
 30
0.0
 40
40.0
  1
ｱﾝﾀﾞｰｼﾝｸ
 72
     4
 11
302.0405358305961
 21
31.83087528432498
 31
0.0
100
AcDbText
  0
ENDBLK
  5
775B
330
7752
100
AcDbEntity
  8
0
 62
     3
100
AcDbBlockEnd
  0
BLOCK
  5
77BA
330
77B0
100
AcDbEntity
  8
0
 62
     3
100
AcDbBlockBegin
  2
*D16
 70
     1
 10
0.0
 20
0.0
 30
0.0
  3
*D16
  1

  0
LINE
  5
8F4D
330
77B0
100
AcDbEntity
  8
実形
 62
     0
370
    18
100
AcDbLine
 10
1027.770210499882
 20
1554.178460662066
 30
0.0
 11
1043.45634594854
 21
1554.178460662066
 31
0.0
  0
LINE
  5
8F4E
330
77B0
100
AcDbEntity
  8
実形
 62
     0
370
    18
100
AcDbLine
 10
1091.209930106677
 20
1464.178460662066
 30
0.0
 11
1043.456345948539
 21
1464.178460662066
 31
0.0
  0
LINE
  5
8F4F
330
77B0
100
AcDbEntity
  8
実形
 62
     0
370
    18
100
AcDbLine
 10
1043.45634594854
 20
1544.178460662066
 30
0.0
 11
1043.456345948539
 21
1474.178460662066
 31
0.0
  0
MTEXT
  5
8F50
330
77B0
100
AcDbEntity
  8
実形
 62
     0
100
AcDbMText
 10
1015.972144898931
 20
1488.139879208955
 30
0.0
 40
25.0
 41
0.0
 71
     5
 72
     1
  1
90
 11
0.0000000000000001
 21
1.0
 31
0.0
 73
     1
 44
1.0
1001
ACAD
1000
MTEXTBEGIN
1070
    73
1070
     1
1070
    44
1040
1.0
1070
    74
1070
     0
1000
MTEXTEND
  0
INSERT
  5
8F51
330
77B0
100
AcDbEntity
  8
実形
 62
     0
370
    18
100
AcDbBlockReference
  2
_Dot
 10
1043.45634594854
 20
1554.178460662066
 30
0.0
 41
10.0
 42
10.0
 43
10.0
 50
90.0
  0
INSERT
  5
8F52
330
77B0
100
AcDbEntity
  8
実形
 62
     0
370
    18
100
AcDbBlockReference
  2
_Dot
 10
1043.456345948539
 20
1464.178460662066
 30
0.0
 41
10.0
 42
10.0
 43
10.0
 50
270.0
  0
POINT
  5
8F53
330
77B0
100
AcDbEntity
  8
Defpoints
 62
     0
100
AcDbPoint
 10
1092.770210499882
 20
1554.178460662066
 30
0.0
  0
POINT
  5
8F54
330
77B0
100
AcDbEntity
  8
Defpoints
 62
     0
100
AcDbPoint
 10
1156.209930106677
 20
1464.178460662066
 30
0.0
  0
POINT
  5
8F55
330
77B0
100
AcDbEntity
  8
Defpoints
 62
     0
100
AcDbPoint
 10
1043.456345948539
 20
1464.178460662066
 30
0.0
  0
ENDBLK
  5
77BB
330
77B0
100
AcDbEntity
  8
0
 62
     3
100
AcDbBlockEnd
  0
BLOCK
  5
77C7
330
77BD
100
AcDbEntity
  8
0
 62
     3
100
AcDbBlockBegin
  2
*D17
 70
     1
 10
0.0
 20
0.0
 30
0.0
  3
*D17
  1

  0
LINE
  5
8F60
330
77BD
100
AcDbEntity
  8
実形
 62
     0
370
    18
100
AcDbLine
 10
1242.770210499882
 20
1360.740901717254
 30
0.0
 11
1242.770210499882
 21
1280.994834284402
 31
0.0
  0
LINE
  5
8F61
330
77BD
100
AcDbEntity
  8
実形
 62
     0
370
    18
100
AcDbLine
 10
1622.770210499882
 20
1360.740901717254
 30
0.0
 11
1622.770210499882
 21
1280.994834284402
 31
0.0
  0
LINE
  5
8F62
330
77BD
100
AcDbEntity
  8
実形
 62
     0
370
    18
100
AcDbLine
 10
1252.770210499882
 20
1280.994834284402
 30
0.0
 11
1612.770210499882
 21
1280.994834284402
 31
0.0
  0
MTEXT
  5
8F63
330
77BD
100
AcDbEntity
  8
実形
 62
     0
100
AcDbMText
 10
1377.262038174239
 20
1305.143326806989
 30
0.0
 40
25.0
 41
0.0
 71
     5
 72
     1
  1
380
 73
     1
 44
1.0
1001
ACAD
1000
MTEXTBEGIN
1070
    73
1070
     1
1070
    44
1040
1.0
1070
    74
1070
     0
1000
MTEXTEND
  0
INSERT
  5
8F64
330
77BD
100
AcDbEntity
  8
実形
 62
     0
370
    18
100
AcDbBlockReference
  2
_Dot
 10
1242.770210499882
 20
1280.994834284402
 30
0.0
 41
10.0
 42
10.0
 43
10.0
 50
180.0
  0
INSERT
  5
8F65
330
77BD
100
AcDbEntity
  8
実形
 62
     0
370
    18
100
AcDbBlockReference
  2
_Dot
 10
1622.770210499882
 20
1280.994834284402
 30
0.0
 41
10.0
 42
10.0
 43
10.0
  0
POINT
  5
8F66
330
77BD
100
AcDbEntity
  8
Defpoints
 62
     0
100
AcDbPoint
 10
1242.770210499882
 20
1425.740901717254
 30
0.0
  0
POINT
  5
8F67
330
77BD
100
AcDbEntity
  8
Defpoints
 62
     0
100
AcDbPoint
 10
1622.770210499882
 20
1425.740901717254
 30
0.0
  0
POINT
  5
8F68
330
77BD
100
AcDbEntity
  8
Defpoints
 62
     0
100
AcDbPoint
 10
1622.770210499882
 20
1280.994834284402
 30
0.0
  0
ENDBLK
  5
77C8
330
77BD
100
AcDbEntity
  8
0
 62
     3
100
AcDbBlockEnd
  0
BLOCK
  5
7850
330
7846
100
AcDbEntity
  8
0
 62
     3
100
AcDbBlockBegin
  2
*D18
 70
     1
 10
0.0
 20
0.0
 30
0.0
  3
*D18
  1

  0
LINE
  5
7E54
330
7846
100
AcDbEntity
  8
実形
 62
     0
370
    18
100
AcDbLine
 10
842.7702104998823
 20
1689.178460662066
 30
0.0
 11
842.7702104998823
 21
1735.385472702717
 31
0.0
  0
LINE
  5
7E55
330
7846
100
AcDbEntity
  8
実形
 62
     0
370
    18
100
AcDbLine
 10
1092.770210499882
 20
1689.178460662066
 30
0.0
 11
1092.770210499882
 21
1735.385472702717
 31
0.0
  0
LINE
  5
7E56
330
7846
100
AcDbEntity
  8
実形
 62
     0
370
    18
100
AcDbLine
 10
852.7702104998823
 20
1735.385472702717
 30
0.0
 11
1082.770210499882
 21
1735.385472702717
 31
0.0
  0
INSERT
  5
7E57
330
7846
100
AcDbEntity
  8
実形
 62
     0
370
    18
100
AcDbBlockReference
  2
_Dot
 10
842.7702104998823
 20
1735.385472702717
 30
0.0
 41
10.0
 42
10.0
 43
10.0
 50
180.0
  0
INSERT
  5
7E58
330
7846
100
AcDbEntity
  8
実形
 62
     0
370
    18
100
AcDbBlockReference
  2
_Dot
 10
1092.770210499882
 20
1735.385472702717
 30
0.0
 41
10.0
 42
10.0
 43
10.0
  0
MTEXT
  5
7E59
330
7846
100
AcDbEntity
  8
実形
 62
     0
100
AcDbMText
 10
967.7702104998825
 20
1754.485472702717
 30
0.0
 40
25.0
 41
0.0
 71
     5
 72
     1
  1
250
 73
     1
 44
1.0
1001
ACAD
1000
MTEXTBEGIN
1070
    73
1070
     1
1070
    44
1040
1.0
1070
    74
1070
     0
1000
MTEXTEND
  0
POINT
  5
7E5A
330
7846
100
AcDbEntity
  8
Defpoints
 62
     0
100
AcDbPoint
 10
842.7702104998823
 20
1624.178460662066
 30
0.0
  0
POINT
  5
7E5B
330
7846
100
AcDbEntity
  8
Defpoints
 62
     0
100
AcDbPoint
 10
1092.770210499882
 20
1624.178460662066
 30
0.0
  0
POINT
  5
7E5C
330
7846
100
AcDbEntity
  8
Defpoints
 62
     0
100
AcDbPoint
 10
1092.770210499882
 20
1735.385472702717
 30
0.0
  0
ENDBLK
  5
7851
330
7846
100
AcDbEntity
  8
0
 62
     3
100
AcDbBlockEnd
  0
BLOCK
  5
7867
330
785D
100
AcDbEntity
  8
0
 62
     3
100
AcDbBlockBegin
  2
*D19
 70
     1
 10
0.0
 20
0.0
 30
0.0
  3
*D19
  1

  0
LINE
  5
7E5D
330
785D
100
AcDbEntity
  8
実形
 62
     0
370
    18
100
AcDbLine
 10
1092.770210499882
 20
1689.178460662066
 30
0.0
 11
1092.770210499882
 21
1735.385472702717
 31
0.0
  0
LINE
  5
7E5E
330
785D
100
AcDbEntity
  8
実形
 62
     0
370
    18
100
AcDbLine
 10
1392.770210499882
 20
1689.178460662066
 30
0.0
 11
1392.770210499882
 21
1735.385472702717
 31
0.0
  0
LINE
  5
7E5F
330
785D
100
AcDbEntity
  8
実形
 62
     0
370
    18
100
AcDbLine
 10
1102.770210499882
 20
1735.385472702717
 30
0.0
 11
1382.770210499882
 21
1735.385472702717
 31
0.0
  0
INSERT
  5
7E60
330
785D
100
AcDbEntity
  8
実形
 62
     0
370
    18
100
AcDbBlockReference
  2
_Dot
 10
1092.770210499882
 20
1735.385472702717
 30
0.0
 41
10.0
 42
10.0
 43
10.0
 50
180.0
  0
INSERT
  5
7E61
330
785D
100
AcDbEntity
  8
実形
 62
     0
370
    18
100
AcDbBlockReference
  2
_Dot
 10
1392.770210499882
 20
1735.385472702717
 30
0.0
 41
10.0
 42
10.0
 43
10.0
  0
MTEXT
  5
7E62
330
785D
100
AcDbEntity
  8
実形
 62
     0
100
AcDbMText
 10
1242.770210499882
 20
1754.485472702717
 30
0.0
 40
25.0
 41
0.0
 71
     5
 72
     1
  1
300
 73
     1
 44
1.0
1001
ACAD
1000
MTEXTBEGIN
1070
    73
1070
     1
1070
    44
1040
1.0
1070
    74
1070
     0
1000
MTEXTEND
  0
POINT
  5
7E63
330
785D
100
AcDbEntity
  8
Defpoints
 62
     0
100
AcDbPoint
 10
1092.770210499882
 20
1624.178460662066
 30
0.0
  0
POINT
  5
7E64
330
785D
100
AcDbEntity
  8
Defpoints
 62
     0
100
AcDbPoint
 10
1392.770210499882
 20
1624.178460662066
 30
0.0
  0
POINT
  5
7E65
330
785D
100
AcDbEntity
  8
Defpoints
 62
     0
100
AcDbPoint
 10
1392.770210499882
 20
1735.385472702717
 30
0.0
  0
ENDBLK
  5
7868
330
785D
100
AcDbEntity
  8
0
 62
     3
100
AcDbBlockEnd
  0
BLOCK
  5
7875
330
786B
100
AcDbEntity
  8
0
 62
     3
100
AcDbBlockBegin
  2
*D20
 70
     1
 10
0.0
 20
0.0
 30
0.0
  3
*D20
  1

  0
LINE
  5
7E66
330
786B
100
AcDbEntity
  8
実形
 62
     0
370
    18
100
AcDbLine
 10
1392.770210499883
 20
1689.178460662065
 30
0.0
 11
1392.770210499883
 21
1735.385472702717
 31
0.0
  0
LINE
  5
7E67
330
786B
100
AcDbEntity
  8
実形
 62
     0
370
    18
100
AcDbLine
 10
1642.770210499882
 20
1689.178460662065
 30
0.0
 11
1642.770210499882
 21
1735.385472702717
 31
0.0
  0
LINE
  5
7E68
330
786B
100
AcDbEntity
  8
実形
 62
     0
370
    18
100
AcDbLine
 10
1402.770210499882
 20
1735.385472702717
 30
0.0
 11
1632.770210499882
 21
1735.385472702717
 31
0.0
  0
INSERT
  5
7E69
330
786B
100
AcDbEntity
  8
実形
 62
     0
370
    18
100
AcDbBlockReference
  2
_Dot
 10
1392.770210499883
 20
1735.385472702717
 30
0.0
 41
10.0
 42
10.0
 43
10.0
 50
180.0
  0
INSERT
  5
7E6A
330
786B
100
AcDbEntity
  8
実形
 62
     0
370
    18
100
AcDbBlockReference
  2
_Dot
 10
1642.770210499882
 20
1735.385472702717
 30
0.0
 41
10.0
 42
10.0
 43
10.0
  0
MTEXT
  5
7E6B
330
786B
100
AcDbEntity
  8
実形
 62
     0
100
AcDbMText
 10
1517.770210499882
 20
1754.485472702717
 30
0.0
 40
25.0
 41
0.0
 71
     5
 72
     1
  1
250
 73
     1
 44
1.0
1001
ACAD
1000
MTEXTBEGIN
1070
    73
1070
     1
1070
    44
1040
1.0
1070
    74
1070
     0
1000
MTEXTEND
  0
POINT
  5
7E6C
330
786B
100
AcDbEntity
  8
Defpoints
 62
     0
100
AcDbPoint
 10
1392.770210499883
 20
1624.178460662065
 30
0.0
  0
POINT
  5
7E6D
330
786B
100
AcDbEntity
  8
Defpoints
 62
     0
100
AcDbPoint
 10
1642.770210499882
 20
1624.178460662065
 30
0.0
  0
POINT
  5
7E6E
330
786B
100
AcDbEntity
  8
Defpoints
 62
     0
100
AcDbPoint
 10
1642.770210499882
 20
1735.385472702717
 30
0.0
  0
ENDBLK
  5
7876
330
786B
100
AcDbEntity
  8
0
 62
     3
100
AcDbBlockEnd
  0
BLOCK
  5
7882
330
7878
100
AcDbEntity
  8
0
 62
     3
100
AcDbBlockBegin
  2
*D21
 70
     1
 10
0.0
 20
0.0
 30
0.0
  3
*D21
  1

  0
LINE
  5
7E6F
330
7878
100
AcDbEntity
  8
実形
 62
     0
370
    18
100
AcDbLine
 10
827.7702104998825
 20
1689.806458158204
 30
0.0
 11
827.7702104998825
 21
1735.385472702717
 31
0.0
  0
LINE
  5
7E70
330
7878
100
AcDbEntity
  8
実形
 62
     0
370
    18
100
AcDbLine
 10
1657.770210499882
 20
1689.161761419618
 30
0.0
 11
1657.770210499882
 21
1735.385472702717
 31
0.0
  0
LINE
  5
7E71
330
7878
100
AcDbEntity
  8
実形
 62
     0
370
    18
100
AcDbLine
 10
837.7702104998824
 20
1735.385472702717
 30
0.0
 11
1647.770210499882
 21
1735.385472702717
 31
0.0
  0
MTEXT
  5
7E72
330
7878
100
AcDbEntity
  8
実形
 62
     0
100
AcDbMText
 10
826.3182245476109
 20
1760.370517377699
 30
0.0
 40
25.0
 41
0.0
 71
     5
 72
     1
  1
15
 73
     1
 44
1.0
1001
ACAD
1000
MTEXTBEGIN
1070
    73
1070
     1
1070
    44
1040
1.0
1070
    74
1070
     0
1000
MTEXTEND
  0
INSERT
  5
7E73
330
7878
100
AcDbEntity
  8
実形
 62
     0
370
    18
100
AcDbBlockReference
  2
_Dot
 10
827.7702104998825
 20
1735.385472702717
 30
0.0
 41
10.0
 42
10.0
 43
10.0
 50
180.0
  0
INSERT
  5
7E74
330
7878
100
AcDbEntity
  8
実形
 62
     0
370
    18
100
AcDbBlockReference
  2
_Dot
 10
1657.770210499882
 20
1735.385472702717
 30
0.0
 41
10.0
 42
10.0
 43
10.0
  0
POINT
  5
7E75
330
7878
100
AcDbEntity
  8
Defpoints
 62
     0
100
AcDbPoint
 10
827.7702104998825
 20
1624.806458158204
 30
0.0
  0
POINT
  5
7E76
330
7878
100
AcDbEntity
  8
Defpoints
 62
     0
100
AcDbPoint
 10
1657.770210499882
 20
1624.161761419618
 30
0.0
  0
POINT
  5
7E77
330
7878
100
AcDbEntity
  8
Defpoints
 62
     0
100
AcDbPoint
 10
1657.770210499882
 20
1735.385472702717
 30
0.0
  0
ENDBLK
  5
7883
330
7878
100
AcDbEntity
  8
0
 62
     3
100
AcDbBlockEnd
  0
BLOCK
  5
78F4
330
78EA
100
AcDbEntity
  8
0
 62
     3
100
AcDbBlockBegin
  2
*D22
 70
     1
 10
0.0
 20
0.0
 30
0.0
  3
*D22
  1

  0
LINE
  5
895F
330
78EA
100
AcDbEntity
  8
実形
 62
     0
370
    18
100
AcDbLine
 10
1722.770210499882
 20
1644.178460662066
 30
0.0
 11
1771.093547640549
 21
1644.178460662066
 31
0.0
  0
LINE
  5
8960
330
78EA
100
AcDbEntity
  8
実形
 62
     0
370
    18
100
AcDbLine
 10
1722.770210499882
 20
1134.178460662066
 30
0.0
 11
1771.093547640548
 21
1134.178460662066
 31
0.0
  0
LINE
  5
8961
330
78EA
100
AcDbEntity
  8
実形
 62
     0
370
    18
100
AcDbLine
 10
1771.093547640549
 20
1634.178460662066
 30
0.0
 11
1771.093547640548
 21
1144.178460662065
 31
0.0
  0
INSERT
  5
8962
330
78EA
100
AcDbEntity
  8
実形
 62
     0
370
    18
100
AcDbBlockReference
  2
_Dot
 10
1771.093547640549
 20
1644.178460662066
 30
0.0
 41
10.0
 42
10.0
 43
10.0
 50
90.0
  0
INSERT
  5
8963
330
78EA
100
AcDbEntity
  8
実形
 62
     0
370
    18
100
AcDbBlockReference
  2
_Dot
 10
1771.093547640548
 20
1134.178460662066
 30
0.0
 41
10.0
 42
10.0
 43
10.0
 50
270.0
  0
MTEXT
  5
8964
330
78EA
100
AcDbEntity
  8
実形
 62
     0
100
AcDbMText
 10
1751.993547640548
 20
1389.178460662066
 30
0.0
 40
25.0
 41
0.0
 71
     5
 72
     1
  1
510
 11
0.0000000000000001
 21
1.0
 31
0.0
 73
     1
 44
1.0
1001
ACAD
1000
MTEXTBEGIN
1070
    73
1070
     1
1070
    44
1040
1.0
1070
    74
1070
     0
1000
MTEXTEND
  0
POINT
  5
8965
330
78EA
100
AcDbEntity
  8
Defpoints
 62
     0
100
AcDbPoint
 10
1657.770210499882
 20
1644.178460662066
 30
0.0
  0
POINT
  5
8966
330
78EA
100
AcDbEntity
  8
Defpoints
 62
     0
100
AcDbPoint
 10
1657.770210499883
 20
1134.178460662066
 30
0.0
  0
POINT
  5
8967
330
78EA
100
AcDbEntity
  8
Defpoints
 62
     0
100
AcDbPoint
 10
1771.093547640548
 20
1134.178460662066
 30
0.0
  0
ENDBLK
  5
78F5
330
78EA
100
AcDbEntity
  8
0
 62
     3
100
AcDbBlockEnd
  0
BLOCK
  5
7901
330
78F7
100
AcDbEntity
  8
0
 62
     3
100
AcDbBlockBegin
  2
*D23
 70
     1
 10
0.0
 20
0.0
 30
0.0
  3
*D23
  1

  0
LINE
  5
8956
330
78F7
100
AcDbEntity
  8
実形
 62
     0
370
    18
100
AcDbLine
 10
1722.770210499882
 20
1659.178460662066
 30
0.0
 11
1771.093547640549
 21
1659.178460662066
 31
0.0
  0
LINE
  5
8957
330
78F7
100
AcDbEntity
  8
実形
 62
     0
370
    18
100
AcDbLine
 10
1722.770210499882
 20
1119.178460662066
 30
0.0
 11
1771.093547640548
 21
1119.178460662066
 31
0.0
  0
LINE
  5
8958
330
78F7
100
AcDbEntity
  8
実形
 62
     0
370
    18
100
AcDbLine
 10
1771.093547640549
 20
1649.178460662066
 30
0.0
 11
1771.093547640548
 21
1129.178460662066
 31
0.0
  0
MTEXT
  5
8959
330
78F7
100
AcDbEntity
  8
実形
 62
     0
100
AcDbMText
 10
1749.493547640548
 20
1688.725599288342
 30
0.0
 40
25.0
 41
0.0
 71
     5
 72
     1
  1
15
 11
0.0000000000000001
 21
1.0
 31
0.0
 73
     1
 44
1.0
1001
ACAD
1000
MTEXTBEGIN
1070
    73
1070
     1
1070
    44
1040
1.0
1070
    74
1070
     0
1000
MTEXTEND
  0
INSERT
  5
895A
330
78F7
100
AcDbEntity
  8
実形
 62
     0
370
    18
100
AcDbBlockReference
  2
_Dot
 10
1771.093547640549
 20
1659.178460662066
 30
0.0
 41
10.0
 42
10.0
 43
10.0
 50
90.0
  0
INSERT
  5
895B
330
78F7
100
AcDbEntity
  8
実形
 62
     0
370
    18
100
AcDbBlockReference
  2
_Dot
 10
1771.093547640548
 20
1119.178460662066
 30
0.0
 41
10.0
 42
10.0
 43
10.0
 50
270.0
  0
POINT
  5
895C
330
78F7
100
AcDbEntity
  8
Defpoints
 62
     0
100
AcDbPoint
 10
1657.770210499882
 20
1659.178460662066
 30
0.0
  0
POINT
  5
895D
330
78F7
100
AcDbEntity
  8
Defpoints
 62
     0
100
AcDbPoint
 10
1657.770210499882
 20
1119.178460662066
 30
0.0
  0
POINT
  5
895E
330
78F7
100
AcDbEntity
  8
Defpoints
 62
     0
100
AcDbPoint
 10
1771.093547640548
 20
1119.178460662066
 30
0.0
  0
ENDBLK
  5
7902
330
78F7
100
AcDbEntity
  8
0
 62
     3
100
AcDbBlockEnd
  0
BLOCK
  5
7956
330
794C
100
AcDbEntity
  8
0
 62
     3
100
AcDbBlockBegin
  2
*D24
 70
     1
 10
0.0
 20
0.0
 30
0.0
  3
*D24
  1

  0
LINE
  5
894D
330
794C
100
AcDbEntity
  8
実形
 62
     0
370
    18
100
AcDbLine
 10
1722.770210499882
 20
1659.178460662066
 30
0.0
 11
1833.118375451033
 21
1659.178460662066
 31
0.0
  0
LINE
  5
894E
330
794C
100
AcDbEntity
  8
実形
 62
     0
370
    18
100
AcDbLine
 10
1722.770210499882
 20
1119.178460662066
 30
0.0
 11
1833.118375451033
 21
1119.178460662066
 31
0.0
  0
LINE
  5
894F
330
794C
100
AcDbEntity
  8
実形
 62
     0
370
    18
100
AcDbLine
 10
1833.118375451033
 20
1649.178460662066
 30
0.0
 11
1833.118375451033
 21
1129.178460662066
 31
0.0
  0
INSERT
  5
8950
330
794C
100
AcDbEntity
  8
実形
 62
     0
370
    18
100
AcDbBlockReference
  2
_Dot
 10
1833.118375451033
 20
1659.178460662066
 30
0.0
 41
10.0
 42
10.0
 43
10.0
 50
90.0
  0
INSERT
  5
8951
330
794C
100
AcDbEntity
  8
実形
 62
     0
370
    18
100
AcDbBlockReference
  2
_Dot
 10
1833.118375451033
 20
1119.178460662066
 30
0.0
 41
10.0
 42
10.0
 43
10.0
 50
270.0
  0
MTEXT
  5
8952
330
794C
100
AcDbEntity
  8
実形
 62
     0
100
AcDbMText
 10
1814.018375451033
 20
1389.178460662066
 30
0.0
 40
25.0
 41
0.0
 71
     5
 72
     1
  1
540
 11
0.0000000000000001
 21
1.0
 31
0.0
 73
     1
 44
1.0
1001
ACAD
1000
MTEXTBEGIN
1070
    73
1070
     1
1070
    44
1040
1.0
1070
    74
1070
     0
1000
MTEXTEND
  0
POINT
  5
8953
330
794C
100
AcDbEntity
  8
Defpoints
 62
     0
100
AcDbPoint
 10
1657.770210499882
 20
1659.178460662066
 30
0.0
  0
POINT
  5
8954
330
794C
100
AcDbEntity
  8
Defpoints
 62
     0
100
AcDbPoint
 10
1657.770210499882
 20
1119.178460662066
 30
0.0
  0
POINT
  5
8955
330
794C
100
AcDbEntity
  8
Defpoints
 62
     0
100
AcDbPoint
 10
1833.118375451033
 20
1119.178460662066
 30
0.0
  0
ENDBLK
  5
7957
330
794C
100
AcDbEntity
  8
0
 62
     3
100
AcDbBlockEnd
  0
BLOCK
  5
79A4
330
79A0
100
AcDbEntity
  8
0
 62
     3
100
AcDbBlockBegin
  2
A$C34481AC4
 70
     0
 10
0.0
 20
0.0
 30
0.0
  3
A$C34481AC4
  1

  0
TEXT
  5
79A1
330
79A0
100
AcDbEntity
  8
実形
370
    13
100
AcDbText
 10
21.66666199574517
 20
-1.666654965347788
 30
0.0
 40
25.0
  1
●
 71
     2
 72
     1
 11
9.999995329078501
 21
-1.666654965347788
 31
0.0
100
AcDbText
  0
ENDBLK
  5
79A5
330
79A0
100
AcDbEntity
  8
0
 62
     3
100
AcDbBlockEnd
  0
BLOCK
  5
79BB
330
79B1
100
AcDbEntity
  8
0
 62
     3
100
AcDbBlockBegin
  2
*D26
 70
     1
 10
0.0
 20
0.0
 30
0.0
  3
*D26
  1

  0
LINE
  5
7E93
330
79B1
100
AcDbEntity
  8
実形
 62
     0
370
    18
100
AcDbLine
 10
767.3275276276962
 20
1554.178460662066
 30
0.0
 11
738.1482502386061
 21
1554.178460662066
 31
0.0
  0
LINE
  5
7E94
330
79B1
100
AcDbEntity
  8
実形
 62
     0
370
    18
100
AcDbLine
 10
767.3275276276962
 20
1644.178460662066
 30
0.0
 11
738.1482502386061
 21
1644.178460662066
 31
0.0
  0
LINE
  5
7E95
330
79B1
100
AcDbEntity
  8
実形
 62
     0
370
    18
100
AcDbLine
 10
738.1482502386061
 20
1564.178460662066
 30
0.0
 11
738.1482502386061
 21
1634.178460662066
 31
0.0
  0
MTEXT
  5
7E96
330
79B1
100
AcDbEntity
  8
実形
 62
     0
100
AcDbMText
 10
715.569680847846
 20
1589.259853472391
 30
0.0
 40
25.0
 41
0.0
 71
     5
 72
     1
  1
70
 11
0.0000000000000001
 21
1.0
 31
0.0
 73
     1
 44
1.0
1001
ACAD
1000
MTEXTBEGIN
1070
    73
1070
     1
1070
    44
1040
1.0
1070
    74
1070
     0
1000
MTEXTEND
  0
INSERT
  5
7E97
330
79B1
100
AcDbEntity
  8
実形
 62
     0
370
    18
100
AcDbBlockReference
  2
_Dot
 10
738.1482502386061
 20
1554.178460662066
 30
0.0
 41
10.0
 42
10.0
 43
10.0
 50
270.0
  0
INSERT
  5
7E98
330
79B1
100
AcDbEntity
  8
実形
 62
     0
370
    18
100
AcDbBlockReference
  2
_Dot
 10
738.1482502386061
 20
1644.178460662066
 30
0.0
 41
10.0
 42
10.0
 43
10.0
 50
90.0
  0
POINT
  5
7E99
330
79B1
100
AcDbEntity
  8
Defpoints
 62
     0
100
AcDbPoint
 10
832.3275276276962
 20
1554.178460662066
 30
0.0
  0
POINT
  5
7E9A
330
79B1
100
AcDbEntity
  8
Defpoints
 62
     0
100
AcDbPoint
 10
832.3275276276962
 20
1644.178460662066
 30
0.0
  0
POINT
  5
7E9B
330
79B1
100
AcDbEntity
  8
Defpoints
 62
     0
100
AcDbPoint
 10
738.1482502386061
 20
1644.178460662066
 30
0.0
  0
ENDBLK
  5
79BC
330
79B1
100
AcDbEntity
  8
0
 62
     3
100
AcDbBlockEnd
  0
BLOCK
  5
79E3
330
79D9
100
AcDbEntity
  8
0
 62
     3
100
AcDbBlockBegin
  2
*D27
 70
     1
 10
0.0
 20
0.0
 30
0.0
  3
*D27
  1

  0
LINE
  5
7E9C
330
79D9
100
AcDbEntity
  8
実形
 62
     0
370
    18
100
AcDbLine
 10
767.3275276276962
 20
1554.178460662066
 30
0.0
 11
738.1482502386061
 21
1554.178460662066
 31
0.0
  0
LINE
  5
7E9D
330
79D9
100
AcDbEntity
  8
実形
 62
     0
370
    18
100
AcDbLine
 10
773.3275276276963
 20
1624.178460662066
 30
0.0
 11
738.1482502386061
 21
1624.178460662066
 31
0.0
  0
LINE
  5
7E9E
330
79D9
100
AcDbEntity
  8
実形
 62
     0
370
    18
100
AcDbLine
 10
738.1482502386061
 20
1564.178460662066
 30
0.0
 11
738.1482502386061
 21
1614.178460662066
 31
0.0
  0
MTEXT
  5
7E9F
330
79D9
100
AcDbEntity
  8
実形
 62
     0
100
AcDbMText
 10
801.3626707265066
 20
1625.22842009638
 30
0.0
 40
25.0
 41
0.0
 71
     5
 72
     1
  1
20
 11
0.0000000000000001
 21
1.0
 31
0.0
 73
     1
 44
1.0
1001
ACAD
1000
MTEXTBEGIN
1070
    73
1070
     1
1070
    44
1040
1.0
1070
    74
1070
     0
1000
MTEXTEND
  0
INSERT
  5
7EA0
330
79D9
100
AcDbEntity
  8
実形
 62
     0
370
    18
100
AcDbBlockReference
  2
_Dot
 10
738.1482502386061
 20
1554.178460662066
 30
0.0
 41
10.0
 42
10.0
 43
10.0
 50
270.0
  0
INSERT
  5
7EA1
330
79D9
100
AcDbEntity
  8
実形
 62
     0
370
    18
100
AcDbBlockReference
  2
_Dot
 10
738.1482502386061
 20
1624.178460662066
 30
0.0
 41
10.0
 42
10.0
 43
10.0
 50
90.0
  0
POINT
  5
7EA2
330
79D9
100
AcDbEntity
  8
Defpoints
 62
     0
100
AcDbPoint
 10
832.3275276276962
 20
1554.178460662066
 30
0.0
  0
POINT
  5
7EA3
330
79D9
100
AcDbEntity
  8
Defpoints
 62
     0
100
AcDbPoint
 10
838.3275276276963
 20
1624.178460662066
 30
0.0
  0
POINT
  5
7EA4
330
79D9
100
AcDbEntity
  8
Defpoints
 62
     0
100
AcDbPoint
 10
738.1482502386061
 20
1624.178460662066
 30
0.0
  0
ENDBLK
  5
79E4
330
79D9
100
AcDbEntity
  8
0
 62
     3
100
AcDbBlockEnd
  0
BLOCK
  5
7A18
330
7A0E
100
AcDbEntity
  8
0
 62
     3
100
AcDbBlockBegin
  2
*D28
 70
     1
 10
0.0
 20
0.0
 30
0.0
  3
*D28
  1

  0
LINE
  5
7EA5
330
7A0E
100
AcDbEntity
  8
実形
 62
     0
370
    18
100
AcDbLine
 10
735.771238858355
 20
1644.178460662066
 30
0.0
 11
672.3280192665588
 21
1644.178460662066
 31
0.0
  0
LINE
  5
7EA6
330
7A0E
100
AcDbEntity
  8
実形
 62
     0
370
    18
100
AcDbLine
 10
714.7500916428215
 20
1554.178460662066
 30
0.0
 11
672.3280192665588
 21
1554.178460662066
 31
0.0
  0
LINE
  5
7EA7
330
7A0E
100
AcDbEntity
  8
実形
 62
     0
370
    18
100
AcDbLine
 10
672.3280192665588
 20
1634.178460662066
 30
0.0
 11
672.3280192665588
 21
1564.178460662066
 31
0.0
  0
INSERT
  5
7EA8
330
7A0E
100
AcDbEntity
  8
実形
 62
     0
370
    18
100
AcDbBlockReference
  2
_Dot
 10
672.3280192665588
 20
1644.178460662066
 30
0.0
 41
10.0
 42
10.0
 43
10.0
 50
90.0
  0
INSERT
  5
7EA9
330
7A0E
100
AcDbEntity
  8
実形
 62
     0
370
    18
100
AcDbBlockReference
  2
_Dot
 10
672.3280192665588
 20
1554.178460662066
 30
0.0
 41
10.0
 42
10.0
 43
10.0
 50
270.0
  0
MTEXT
  5
7EAA
330
7A0E
100
AcDbEntity
  8
実形
 62
     0
100
AcDbMText
 10
653.2280192665585
 20
1599.178460662066
 30
0.0
 40
25.0
 41
0.0
 71
     5
 72
     1
  1
90
 11
0.0000000000000001
 21
1.0
 31
0.0
 73
     1
 44
1.0
1001
ACAD
1000
MTEXTBEGIN
1070
    73
1070
     1
1070
    44
1040
1.0
1070
    74
1070
     0
1000
MTEXTEND
  0
POINT
  5
7EAB
330
7A0E
100
AcDbEntity
  8
Defpoints
 62
     0
100
AcDbPoint
 10
800.771238858355
 20
1644.178460662066
 30
0.0
  0
POINT
  5
7EAC
330
7A0E
100
AcDbEntity
  8
Defpoints
 62
     0
100
AcDbPoint
 10
779.7500916428215
 20
1554.178460662066
 30
0.0
  0
POINT
  5
7EAD
330
7A0E
100
AcDbEntity
  8
Defpoints
 62
     0
100
AcDbPoint
 10
672.3280192665588
 20
1554.178460662066
 30
0.0
  0
ENDBLK
  5
7A19
330
7A0E
100
AcDbEntity
  8
0
 62
     3
100
AcDbBlockEnd
  0
BLOCK
  5
7A39
330
7A2F
100
AcDbEntity
  8
0
 62
     3
100
AcDbBlockBegin
  2
*D29
 70
     1
 10
0.0
 20
0.0
 30
0.0
  3
*D29
  1

  0
LINE
  5
8944
330
7A2F
100
AcDbEntity
  8
実形
 62
     0
370
    18
100
AcDbLine
 10
732.6742997845558
 20
1554.178460662066
 30
0.0
 11
672.3280192665588
 21
1554.178460662066
 31
0.0
  0
LINE
  5
8945
330
7A2F
100
AcDbEntity
  8
実形
 62
     0
370
    18
100
AcDbLine
 10
737.7945193027008
 20
1154.178460662066
 30
0.0
 11
672.3280192665587
 21
1154.178460662066
 31
0.0
  0
LINE
  5
8946
330
7A2F
100
AcDbEntity
  8
実形
 62
     0
370
    18
100
AcDbLine
 10
672.3280192665588
 20
1544.178460662066
 30
0.0
 11
672.3280192665587
 21
1164.178460662066
 31
0.0
  0
INSERT
  5
8947
330
7A2F
100
AcDbEntity
  8
実形
 62
     0
370
    18
100
AcDbBlockReference
  2
_Dot
 10
672.3280192665588
 20
1554.178460662066
 30
0.0
 41
10.0
 42
10.0
 43
10.0
 50
90.0
  0
INSERT
  5
8948
330
7A2F
100
AcDbEntity
  8
実形
 62
     0
370
    18
100
AcDbBlockReference
  2
_Dot
 10
672.3280192665587
 20
1154.178460662066
 30
0.0
 41
10.0
 42
10.0
 43
10.0
 50
270.0
  0
MTEXT
  5
8949
330
7A2F
100
AcDbEntity
  8
実形
 62
     0
100
AcDbMText
 10
653.2280192665585
 20
1354.178460662066
 30
0.0
 40
25.0
 41
0.0
 71
     5
 72
     1
  1
400
 11
0.0000000000000001
 21
1.0
 31
0.0
 73
     1
 44
1.0
1001
ACAD
1000
MTEXTBEGIN
1070
    73
1070
     1
1070
    44
1040
1.0
1070
    74
1070
     0
1000
MTEXTEND
  0
POINT
  5
894A
330
7A2F
100
AcDbEntity
  8
Defpoints
 62
     0
100
AcDbPoint
 10
797.6742997845558
 20
1554.178460662066
 30
0.0
  0
POINT
  5
894B
330
7A2F
100
AcDbEntity
  8
Defpoints
 62
     0
100
AcDbPoint
 10
802.7945193027008
 20
1154.178460662066
 30
0.0
  0
POINT
  5
894C
330
7A2F
100
AcDbEntity
  8
Defpoints
 62
     0
100
AcDbPoint
 10
672.3280192665587
 20
1154.178460662066
 30
0.0
  0
ENDBLK
  5
7A3A
330
7A2F
100
AcDbEntity
  8
0
 62
     3
100
AcDbBlockEnd
  0
BLOCK
  5
7A58
330
7A4E
100
AcDbEntity
  8
0
 62
     3
100
AcDbBlockBegin
  2
*D30
 70
     1
 10
0.0
 20
0.0
 30
0.0
  3
*D30
  1

  0
LINE
  5
893B
330
7A4E
100
AcDbEntity
  8
実形
 62
     0
370
    18
100
AcDbLine
 10
764.1539611657317
 20
1659.178460662066
 30
0.0
 11
672.3280192665588
 21
1659.178460662066
 31
0.0
  0
LINE
  5
893C
330
7A4E
100
AcDbEntity
  8
実形
 62
     0
370
    18
100
AcDbLine
 10
737.2641105192887
 20
1119.178460662066
 30
0.0
 11
672.3280192665587
 21
1119.178460662066
 31
0.0
  0
LINE
  5
893D
330
7A4E
100
AcDbEntity
  8
実形
 62
     0
370
    18
100
AcDbLine
 10
672.3280192665588
 20
1649.178460662066
 30
0.0
 11
672.3280192665587
 21
1129.178460662066
 31
0.0
  0
MTEXT
  5
893E
330
7A4E
100
AcDbEntity
  8
実形
 62
     0
100
AcDbMText
 10
650.7280192665586
 20
1682.883538982083
 30
0.0
 40
25.0
 41
0.0
 71
     5
 72
     1
  1
15
 11
0.0000000000000001
 21
1.0
 31
0.0
 73
     1
 44
1.0
1001
ACAD
1000
MTEXTBEGIN
1070
    73
1070
     1
1070
    44
1040
1.0
1070
    74
1070
     0
1000
MTEXTEND
  0
INSERT
  5
893F
330
7A4E
100
AcDbEntity
  8
実形
 62
     0
370
    18
100
AcDbBlockReference
  2
_Dot
 10
672.3280192665588
 20
1659.178460662066
 30
0.0
 41
10.0
 42
10.0
 43
10.0
 50
90.0
  0
INSERT
  5
8940
330
7A4E
100
AcDbEntity
  8
実形
 62
     0
370
    18
100
AcDbBlockReference
  2
_Dot
 10
672.3280192665587
 20
1119.178460662066
 30
0.0
 41
10.0
 42
10.0
 43
10.0
 50
270.0
  0
POINT
  5
8941
330
7A4E
100
AcDbEntity
  8
Defpoints
 62
     0
100
AcDbPoint
 10
829.1539611657317
 20
1659.178460662066
 30
0.0
  0
POINT
  5
8942
330
7A4E
100
AcDbEntity
  8
Defpoints
 62
     0
100
AcDbPoint
 10
802.2641105192887
 20
1119.178460662066
 30
0.0
  0
POINT
  5
8943
330
7A4E
100
AcDbEntity
  8
Defpoints
 62
     0
100
AcDbPoint
 10
672.3280192665587
 20
1119.178460662066
 30
0.0
  0
ENDBLK
  5
7A59
330
7A4E
100
AcDbEntity
  8
0
 62
     3
100
AcDbBlockEnd
  0
BLOCK
  5
7B59
330
7B4F
100
AcDbEntity
  8
0
 62
     3
100
AcDbBlockBegin
  2
*D31
 70
     1
 10
0.0
 20
0.0
 30
0.0
  3
*D31
  1

  0
LINE
  5
8932
330
7B4F
100
AcDbEntity
  8
実形
 62
     0
370
    18
100
AcDbLine
 10
737.7945193027008
 20
1134.178460662066
 30
0.0
 11
672.3280192665587
 21
1134.178460662066
 31
0.0
  0
LINE
  5
8933
330
7B4F
100
AcDbEntity
  8
実形
 62
     0
370
    18
100
AcDbLine
 10
702.3275276276962
 20
1554.178460662066
 30
0.0
 11
672.3280192665588
 21
1554.178460662066
 31
0.0
  0
LINE
  5
8934
330
7B4F
100
AcDbEntity
  8
実形
 62
     0
370
    18
100
AcDbLine
 10
672.3280192665587
 20
1144.178460662065
 30
0.0
 11
672.3280192665588
 21
1544.178460662066
 31
0.0
  0
MTEXT
  5
8935
330
7B4F
100
AcDbEntity
  8
実形
 62
     0
100
AcDbMText
 10
650.745963999092
 20
1167.459715149787
 30
0.0
 40
25.0
 41
0.0
 71
     5
 72
     1
  1
20
 11
0.0000000000000001
 21
1.0
 31
0.0
 73
     1
 44
1.0
1001
ACAD
1000
MTEXTBEGIN
1070
    73
1070
     1
1070
    44
1040
1.0
1070
    74
1070
     0
1000
MTEXTEND
  0
INSERT
  5
8936
330
7B4F
100
AcDbEntity
  8
実形
 62
     0
370
    18
100
AcDbBlockReference
  2
_Dot
 10
672.3280192665587
 20
1134.178460662066
 30
0.0
 41
10.0
 42
10.0
 43
10.0
 50
270.0
  0
INSERT
  5
8937
330
7B4F
100
AcDbEntity
  8
実形
 62
     0
370
    18
100
AcDbBlockReference
  2
_Dot
 10
672.3280192665588
 20
1554.178460662066
 30
0.0
 41
10.0
 42
10.0
 43
10.0
 50
90.0
  0
POINT
  5
8938
330
7B4F
100
AcDbEntity
  8
Defpoints
 62
     0
100
AcDbPoint
 10
802.7945193027008
 20
1134.178460662066
 30
0.0
  0
POINT
  5
8939
330
7B4F
100
AcDbEntity
  8
Defpoints
 62
     0
100
AcDbPoint
 10
767.3275276276962
 20
1554.178460662066
 30
0.0
  0
POINT
  5
893A
330
7B4F
100
AcDbEntity
  8
Defpoints
 62
     0
100
AcDbPoint
 10
672.3280192665588
 20
1554.178460662066
 30
0.0
  0
ENDBLK
  5
7B5A
330
7B4F
100
AcDbEntity
  8
0
 62
     3
100
AcDbBlockEnd
  0
BLOCK
  5
7BAF
330
7BA5
100
AcDbEntity
  8
0
 62
     3
100
AcDbBlockBegin
  2
*D32
 70
     1
 10
0.0
 20
0.0
 30
0.0
  3
*D32
  1

  0
LINE
  5
8929
330
7BA5
100
AcDbEntity
  8
実形
 62
     0
370
    18
100
AcDbLine
 10
766.726947416073
 20
1644.178460662066
 30
0.0
 11
616.3564627716169
 21
1644.178460662066
 31
0.0
  0
LINE
  5
892A
330
7BA5
100
AcDbEntity
  8
実形
 62
     0
370
    18
100
AcDbLine
 10
739.8056315785306
 20
1134.178460662066
 30
0.0
 11
616.3564627716168
 21
1134.178460662066
 31
0.0
  0
LINE
  5
892B
330
7BA5
100
AcDbEntity
  8
実形
 62
     0
370
    18
100
AcDbLine
 10
616.3564627716169
 20
1634.178460662066
 30
0.0
 11
616.3564627716168
 21
1144.178460662065
 31
0.0
  0
INSERT
  5
892C
330
7BA5
100
AcDbEntity
  8
実形
 62
     0
370
    18
100
AcDbBlockReference
  2
_Dot
 10
616.3564627716169
 20
1644.178460662066
 30
0.0
 41
10.0
 42
10.0
 43
10.0
 50
90.0
  0
INSERT
  5
892D
330
7BA5
100
AcDbEntity
  8
実形
 62
     0
370
    18
100
AcDbBlockReference
  2
_Dot
 10
616.3564627716168
 20
1134.178460662066
 30
0.0
 41
10.0
 42
10.0
 43
10.0
 50
270.0
  0
MTEXT
  5
892E
330
7BA5
100
AcDbEntity
  8
実形
 62
     0
100
AcDbMText
 10
597.2564627716167
 20
1389.178460662066
 30
0.0
 40
25.0
 41
0.0
 71
     5
 72
     1
  1
510
 11
0.0000000000000001
 21
1.0
 31
0.0
 73
     1
 44
1.0
1001
ACAD
1000
MTEXTBEGIN
1070
    73
1070
     1
1070
    44
1040
1.0
1070
    74
1070
     0
1000
MTEXTEND
  0
POINT
  5
892F
330
7BA5
100
AcDbEntity
  8
Defpoints
 62
     0
100
AcDbPoint
 10
831.7269474160729
 20
1644.178460662066
 30
0.0
  0
POINT
  5
8930
330
7BA5
100
AcDbEntity
  8
Defpoints
 62
     0
100
AcDbPoint
 10
804.8056315785306
 20
1134.178460662066
 30
0.0
  0
POINT
  5
8931
330
7BA5
100
AcDbEntity
  8
Defpoints
 62
     0
100
AcDbPoint
 10
616.3564627716168
 20
1134.178460662066
 30
0.0
  0
ENDBLK
  5
7BB0
330
7BA5
100
AcDbEntity
  8
0
 62
     3
100
AcDbBlockEnd
  0
BLOCK
  5
7BD7
330
7BCD
100
AcDbEntity
  8
0
 62
     3
100
AcDbBlockBegin
  2
*D33
 70
     1
 10
0.0
 20
0.0
 30
0.0
  3
*D33
  1

  0
LINE
  5
8920
330
7BCD
100
AcDbEntity
  8
実形
 62
     0
370
    18
100
AcDbLine
 10
762.7702104998824
 20
1659.178460662066
 30
0.0
 11
556.883501767341
 21
1659.178460662066
 31
0.0
  0
LINE
  5
8921
330
7BCD
100
AcDbEntity
  8
実形
 62
     0
370
    18
100
AcDbLine
 10
740.8183231977528
 20
1119.178460662066
 30
0.0
 11
556.8835017673409
 21
1119.178460662066
 31
0.0
  0
LINE
  5
8922
330
7BCD
100
AcDbEntity
  8
実形
 62
     0
370
    18
100
AcDbLine
 10
556.883501767341
 20
1649.178460662066
 30
0.0
 11
556.8835017673409
 21
1129.178460662066
 31
0.0
  0
INSERT
  5
8923
330
7BCD
100
AcDbEntity
  8
実形
 62
     0
370
    18
100
AcDbBlockReference
  2
_Dot
 10
556.883501767341
 20
1659.178460662066
 30
0.0
 41
10.0
 42
10.0
 43
10.0
 50
90.0
  0
INSERT
  5
8924
330
7BCD
100
AcDbEntity
  8
実形
 62
     0
370
    18
100
AcDbBlockReference
  2
_Dot
 10
556.8835017673409
 20
1119.178460662066
 30
0.0
 41
10.0
 42
10.0
 43
10.0
 50
270.0
  0
MTEXT
  5
8925
330
7BCD
100
AcDbEntity
  8
実形
 62
     0
100
AcDbMText
 10
537.7835017673407
 20
1389.178460662066
 30
0.0
 40
25.0
 41
0.0
 71
     5
 72
     1
  1
540
 11
0.0000000000000001
 21
1.0
 31
0.0
 73
     1
 44
1.0
1001
ACAD
1000
MTEXTBEGIN
1070
    73
1070
     1
1070
    44
1040
1.0
1070
    74
1070
     0
1000
MTEXTEND
  0
POINT
  5
8926
330
7BCD
100
AcDbEntity
  8
Defpoints
 62
     0
100
AcDbPoint
 10
827.7702104998825
 20
1659.178460662066
 30
0.0
  0
POINT
  5
8927
330
7BCD
100
AcDbEntity
  8
Defpoints
 62
     0
100
AcDbPoint
 10
805.8183231977528
 20
1119.178460662066
 30
0.0
  0
POINT
  5
8928
330
7BCD
100
AcDbEntity
  8
Defpoints
 62
     0
100
AcDbPoint
 10
556.8835017673409
 20
1119.178460662066
 30
0.0
  0
ENDBLK
  5
7BD8
330
7BCD
100
AcDbEntity
  8
0
 62
     3
100
AcDbBlockEnd
  0
BLOCK
  5
7F0A
330
7F09
100
AcDbEntity
  8
0
 62
     3
100
AcDbBlockBegin
  2
*D34
 70
     1
 10
0.0
 20
0.0
 30
0.0
  3
*D34
  1

  0
LINE
  5
7F0B
330
7F09
100
AcDbEntity
  8
実形
 62
     0
370
    18
100
AcDbLine
 10
862.7702104998824
 20
1104.178460662066
 30
0.0
 11
862.7702104998824
 21
1036.915758957679
 31
0.0
  0
LINE
  5
7F0C
330
7F09
100
AcDbEntity
  8
実形
 62
     0
370
    18
100
AcDbLine
 10
1622.770210499882
 20
1104.178460662066
 30
0.0
 11
1622.770210499882
 21
1036.915758957679
 31
0.0
  0
LINE
  5
7F0D
330
7F09
100
AcDbEntity
  8
実形
 62
     0
370
    18
100
AcDbLine
 10
872.7702104998824
 20
1036.915758957679
 30
0.0
 11
1612.770210499882
 21
1036.915758957679
 31
0.0
  0
INSERT
  5
7F0E
330
7F09
100
AcDbEntity
  8
実形
 62
     0
370
    18
100
AcDbBlockReference
  2
_Dot
 10
862.7702104998824
 20
1036.915758957679
 30
0.0
 41
10.0
 42
10.0
 43
10.0
 50
180.0
  0
INSERT
  5
7F0F
330
7F09
100
AcDbEntity
  8
実形
 62
     0
370
    18
100
AcDbBlockReference
  2
_Dot
 10
1622.770210499882
 20
1036.915758957679
 30
0.0
 41
10.0
 42
10.0
 43
10.0
  0
MTEXT
  5
7F10
330
7F09
100
AcDbEntity
  8
実形
 62
     0
100
AcDbMText
 10
1242.770210499882
 20
1056.015758957679
 30
0.0
 40
25.0
 41
0.0
 71
     5
 72
     1
  1
760
 73
     1
 44
1.0
1001
ACAD
1000
MTEXTBEGIN
1070
    73
1070
     1
1070
    44
1040
1.0
1070
    74
1070
     0
1000
MTEXTEND
  0
POINT
  5
7F11
330
7F09
100
AcDbEntity
  8
Defpoints
 62
     0
100
AcDbPoint
 10
862.7702104998824
 20
1169.178460662066
 30
0.0
  0
POINT
  5
7F12
330
7F09
100
AcDbEntity
  8
Defpoints
 62
     0
100
AcDbPoint
 10
1622.770210499882
 20
1169.178460662066
 30
0.0
  0
POINT
  5
7F13
330
7F09
100
AcDbEntity
  8
Defpoints
 62
     0
100
AcDbPoint
 10
1622.770210499882
 20
1036.915758957679
 30
0.0
  0
ENDBLK
  5
7F14
330
7F09
100
AcDbEntity
  8
0
 62
     3
100
AcDbBlockEnd
  0
BLOCK
  5
7F16
330
7F15
100
AcDbEntity
  8
0
 62
     3
100
AcDbBlockBegin
  2
*D35
 70
     1
 10
0.0
 20
0.0
 30
0.0
  3
*D35
  1

  0
LINE
  5
7F17
330
7F15
100
AcDbEntity
  8
実形
 62
     0
370
    18
100
AcDbLine
 10
842.7702104998825
 20
1104.178460662066
 30
0.0
 11
842.7702104998825
 21
1036.915758957679
 31
0.0
  0
LINE
  5
7F18
330
7F15
100
AcDbEntity
  8
実形
 62
     0
370
    18
100
AcDbLine
 10
1642.770210499882
 20
1104.178460662066
 30
0.0
 11
1642.770210499882
 21
1036.915758957679
 31
0.0
  0
LINE
  5
7F19
330
7F15
100
AcDbEntity
  8
実形
 62
     0
370
    18
100
AcDbLine
 10
852.7702104998825
 20
1036.915758957679
 30
0.0
 11
1632.770210499882
 21
1036.915758957679
 31
0.0
  0
MTEXT
  5
7F1A
330
7F15
100
AcDbEntity
  8
実形
 62
     0
100
AcDbMText
 10
1589.171363804602
 20
1058.515758957679
 30
0.0
 40
25.0
 41
0.0
 71
     5
 72
     1
  1
20
 73
     1
 44
1.0
1001
ACAD
1000
MTEXTBEGIN
1070
    73
1070
     1
1070
    44
1040
1.0
1070
    74
1070
     0
1000
MTEXTEND
  0
INSERT
  5
7F1B
330
7F15
100
AcDbEntity
  8
実形
 62
     0
370
    18
100
AcDbBlockReference
  2
_Dot
 10
842.7702104998825
 20
1036.915758957679
 30
0.0
 41
10.0
 42
10.0
 43
10.0
 50
180.0
  0
INSERT
  5
7F1C
330
7F15
100
AcDbEntity
  8
実形
 62
     0
370
    18
100
AcDbBlockReference
  2
_Dot
 10
1642.770210499882
 20
1036.915758957679
 30
0.0
 41
10.0
 42
10.0
 43
10.0
  0
POINT
  5
7F1D
330
7F15
100
AcDbEntity
  8
Defpoints
 62
     0
100
AcDbPoint
 10
842.7702104998825
 20
1169.178460662066
 30
0.0
  0
POINT
  5
7F1E
330
7F15
100
AcDbEntity
  8
Defpoints
 62
     0
100
AcDbPoint
 10
1642.770210499882
 20
1169.178460662066
 30
0.0
  0
POINT
  5
7F1F
330
7F15
100
AcDbEntity
  8
Defpoints
 62
     0
100
AcDbPoint
 10
1642.770210499882
 20
1036.915758957679
 30
0.0
  0
ENDBLK
  5
7F20
330
7F15
100
AcDbEntity
  8
0
 62
     3
100
AcDbBlockEnd
  0
BLOCK
  5
7F22
330
7F21
100
AcDbEntity
  8
0
 62
     3
100
AcDbBlockBegin
  2
*D36
 70
     1
 10
0.0
 20
0.0
 30
0.0
  3
*D36
  1

  0
LINE
  5
7F23
330
7F21
100
AcDbEntity
  8
実形
 62
     0
370
    18
100
AcDbLine
 10
842.7702104998825
 20
1104.178460662066
 30
0.0
 11
842.7702104998825
 21
974.5052716017053
 31
0.0
  0
LINE
  5
7F24
330
7F21
100
AcDbEntity
  8
実形
 62
     0
370
    18
100
AcDbLine
 10
1642.770210499882
 20
1104.178460662066
 30
0.0
 11
1642.770210499882
 21
974.5052716017053
 31
0.0
  0
LINE
  5
7F25
330
7F21
100
AcDbEntity
  8
実形
 62
     0
370
    18
100
AcDbLine
 10
852.7702104998825
 20
974.5052716017053
 30
0.0
 11
1632.770210499882
 21
974.5052716017053
 31
0.0
  0
INSERT
  5
7F26
330
7F21
100
AcDbEntity
  8
実形
 62
     0
370
    18
100
AcDbBlockReference
  2
_Dot
 10
842.7702104998825
 20
974.5052716017053
 30
0.0
 41
10.0
 42
10.0
 43
10.0
 50
180.0
  0
INSERT
  5
7F27
330
7F21
100
AcDbEntity
  8
実形
 62
     0
370
    18
100
AcDbBlockReference
  2
_Dot
 10
1642.770210499882
 20
974.5052716017053
 30
0.0
 41
10.0
 42
10.0
 43
10.0
  0
MTEXT
  5
7F28
330
7F21
100
AcDbEntity
  8
実形
 62
     0
100
AcDbMText
 10
1242.770210499882
 20
993.6052716017053
 30
0.0
 40
25.0
 41
0.0
 71
     5
 72
     1
  1
800
 73
     1
 44
1.0
1001
ACAD
1000
MTEXTBEGIN
1070
    73
1070
     1
1070
    44
1040
1.0
1070
    74
1070
     0
1000
MTEXTEND
  0
POINT
  5
7F29
330
7F21
100
AcDbEntity
  8
Defpoints
 62
     0
100
AcDbPoint
 10
842.7702104998825
 20
1169.178460662066
 30
0.0
  0
POINT
  5
7F2A
330
7F21
100
AcDbEntity
  8
Defpoints
 62
     0
100
AcDbPoint
 10
1642.770210499882
 20
1169.178460662066
 30
0.0
  0
POINT
  5
7F2B
330
7F21
100
AcDbEntity
  8
Defpoints
 62
     0
100
AcDbPoint
 10
1642.770210499882
 20
974.5052716017053
 30
0.0
  0
ENDBLK
  5
7F2C
330
7F21
100
AcDbEntity
  8
0
 62
     3
100
AcDbBlockEnd
  0
BLOCK
  5
7F2E
330
7F2D
100
AcDbEntity
  8
0
 62
     3
100
AcDbBlockBegin
  2
*D37
 70
     1
 10
0.0
 20
0.0
 30
0.0
  3
*D37
  1

  0
LINE
  5
7F2F
330
7F2D
100
AcDbEntity
  8
実形
 62
     0
370
    18
100
AcDbLine
 10
827.7702104998825
 20
1104.178460662066
 30
0.0
 11
827.7702104998825
 21
974.5052716017053
 31
0.0
  0
LINE
  5
7F30
330
7F2D
100
AcDbEntity
  8
実形
 62
     0
370
    18
100
AcDbLine
 10
1657.770210499882
 20
1104.178460662066
 30
0.0
 11
1657.770210499882
 21
974.5052716017053
 31
0.0
  0
LINE
  5
7F31
330
7F2D
100
AcDbEntity
  8
実形
 62
     0
370
    18
100
AcDbLine
 10
837.7702104998824
 20
974.5052716017053
 30
0.0
 11
1647.770210499882
 21
974.5052716017053
 31
0.0
  0
MTEXT
  5
7F32
330
7F2D
100
AcDbEntity
  8
実形
 62
     0
100
AcDbMText
 10
1701.559743854428
 20
996.1052716017052
 30
0.0
 40
25.0
 41
0.0
 71
     5
 72
     1
  1
15
 73
     1
 44
1.0
1001
ACAD
1000
MTEXTBEGIN
1070
    73
1070
     1
1070
    44
1040
1.0
1070
    74
1070
     0
1000
MTEXTEND
  0
INSERT
  5
7F33
330
7F2D
100
AcDbEntity
  8
実形
 62
     0
370
    18
100
AcDbBlockReference
  2
_Dot
 10
827.7702104998825
 20
974.5052716017053
 30
0.0
 41
10.0
 42
10.0
 43
10.0
 50
180.0
  0
INSERT
  5
7F34
330
7F2D
100
AcDbEntity
  8
実形
 62
     0
370
    18
100
AcDbBlockReference
  2
_Dot
 10
1657.770210499882
 20
974.5052716017053
 30
0.0
 41
10.0
 42
10.0
 43
10.0
  0
POINT
  5
7F35
330
7F2D
100
AcDbEntity
  8
Defpoints
 62
     0
100
AcDbPoint
 10
827.7702104998825
 20
1169.178460662066
 30
0.0
  0
POINT
  5
7F36
330
7F2D
100
AcDbEntity
  8
Defpoints
 62
     0
100
AcDbPoint
 10
1657.770210499882
 20
1169.178460662066
 30
0.0
  0
POINT
  5
7F37
330
7F2D
100
AcDbEntity
  8
Defpoints
 62
     0
100
AcDbPoint
 10
1657.770210499882
 20
974.5052716017053
 30
0.0
  0
ENDBLK
  5
7F38
330
7F2D
100
AcDbEntity
  8
0
 62
     3
100
AcDbBlockEnd
  0
BLOCK
  5
7F3A
330
7F39
100
AcDbEntity
  8
0
 62
     3
100
AcDbBlockBegin
  2
*D38
 70
     1
 10
0.0
 20
0.0
 30
0.0
  3
*D38
  1

  0
LINE
  5
7F3B
330
7F39
100
AcDbEntity
  8
実形
 62
     0
370
    18
100
AcDbLine
 10
827.7702104998825
 20
1104.178460662066
 30
0.0
 11
827.7702104998825
 21
901.2836911315535
 31
0.0
  0
LINE
  5
7F3C
330
7F39
100
AcDbEntity
  8
実形
 62
     0
370
    18
100
AcDbLine
 10
1657.770210499882
 20
1104.178460662066
 30
0.0
 11
1657.770210499882
 21
901.2836911315535
 31
0.0
  0
LINE
  5
7F3D
330
7F39
100
AcDbEntity
  8
実形
 62
     0
370
    18
100
AcDbLine
 10
837.7702104998824
 20
901.2836911315535
 30
0.0
 11
1647.770210499882
 21
901.2836911315535
 31
0.0
  0
INSERT
  5
7F3E
330
7F39
100
AcDbEntity
  8
実形
 62
     0
370
    18
100
AcDbBlockReference
  2
_Dot
 10
827.7702104998825
 20
901.2836911315535
 30
0.0
 41
10.0
 42
10.0
 43
10.0
 50
180.0
  0
INSERT
  5
7F3F
330
7F39
100
AcDbEntity
  8
実形
 62
     0
370
    18
100
AcDbBlockReference
  2
_Dot
 10
1657.770210499882
 20
901.2836911315535
 30
0.0
 41
10.0
 42
10.0
 43
10.0
  0
MTEXT
  5
7F40
330
7F39
100
AcDbEntity
  8
実形
 62
     0
100
AcDbMText
 10
1242.770210499882
 20
920.3836911315535
 30
0.0
 40
25.0
 41
0.0
 71
     5
 72
     1
  1
830
 73
     1
 44
1.0
1001
ACAD
1000
MTEXTBEGIN
1070
    73
1070
     1
1070
    44
1040
1.0
1070
    74
1070
     0
1000
MTEXTEND
  0
POINT
  5
7F41
330
7F39
100
AcDbEntity
  8
Defpoints
 62
     0
100
AcDbPoint
 10
827.7702104998825
 20
1169.178460662066
 30
0.0
  0
POINT
  5
7F42
330
7F39
100
AcDbEntity
  8
Defpoints
 62
     0
100
AcDbPoint
 10
1657.770210499882
 20
1169.178460662066
 30
0.0
  0
POINT
  5
7F43
330
7F39
100
AcDbEntity
  8
Defpoints
 62
     0
100
AcDbPoint
 10
1657.770210499882
 20
901.2836911315535
 30
0.0
  0
ENDBLK
  5
7F44
330
7F39
100
AcDbEntity
  8
0
 62
     3
100
AcDbBlockEnd
  0
BLOCK
  5
7F46
330
7F45
100
AcDbEntity
  8
0
 62
     3
100
AcDbBlockBegin
  2
*D39
 70
     1
 10
0.0
 20
0.0
 30
0.0
  3
*D39
  1

  0
LINE
  5
7F47
330
7F45
100
AcDbEntity
  8
実形
 62
     0
370
    18
100
AcDbLine
 10
852.0693431839134
 20
-167.3860966284574
 30
0.0
 11
797.3710940401326
 21
-167.3860966284573
 31
0.0
  0
LINE
  5
7F48
330
7F45
100
AcDbEntity
  8
実形
 62
     0
370
    18
100
AcDbLine
 10
852.0693431839132
 20
-367.3860966284573
 30
0.0
 11
797.3710940401324
 21
-367.3860966284573
 31
0.0
  0
LINE
  5
7F49
330
7F45
100
AcDbEntity
  8
実形
 62
     0
370
    18
100
AcDbLine
 10
797.3710940401326
 20
-177.3860966284573
 30
0.0
 11
797.3710940401324
 21
-357.3860966284573
 31
0.0
  0
INSERT
  5
7F4A
330
7F45
100
AcDbEntity
  8
実形
 62
     0
370
    18
100
AcDbBlockReference
  2
_Dot
 10
797.3710940401326
 20
-167.3860966284573
 30
0.0
 41
10.0
 42
10.0
 43
10.0
 50
90.0
  0
INSERT
  5
7F4B
330
7F45
100
AcDbEntity
  8
実形
 62
     0
370
    18
100
AcDbBlockReference
  2
_Dot
 10
797.3710940401324
 20
-367.3860966284573
 30
0.0
 41
10.0
 42
10.0
 43
10.0
 50
270.0
  0
MTEXT
  5
7F4C
330
7F45
100
AcDbEntity
  8
実形
 62
     0
100
AcDbMText
 10
778.2710940401325
 20
-267.3860966284572
 30
0.0
 40
25.0
 41
0.0
 71
     5
 72
     1
  1
200
 11
0.0000000000000001
 21
1.0
 31
0.0
 73
     1
 44
1.0
1001
ACAD
1000
MTEXTBEGIN
1070
    73
1070
     1
1070
    44
1040
1.0
1070
    74
1070
     0
1000
MTEXTEND
  0
POINT
  5
7F4D
330
7F45
100
AcDbEntity
  8
Defpoints
 62
     0
100
AcDbPoint
 10
917.0693431839135
 20
-167.3860966284574
 30
0.0
  0
POINT
  5
7F4E
330
7F45
100
AcDbEntity
  8
Defpoints
 62
     0
100
AcDbPoint
 10
917.0693431839133
 20
-367.3860966284574
 30
0.0
  0
POINT
  5
7F4F
330
7F45
100
AcDbEntity
  8
Defpoints
 62
     0
100
AcDbPoint
 10
797.3710940401324
 20
-367.3860966284573
 30
0.0
  0
ENDBLK
  5
7F50
330
7F45
100
AcDbEntity
  8
0
 62
     3
100
AcDbBlockEnd
  0
BLOCK
  5
7F52
330
7F51
100
AcDbEntity
  8
0
 62
     3
100
AcDbBlockBegin
  2
*D40
 70
     1
 10
0.0
 20
0.0
 30
0.0
  3
*D40
  1

  0
LINE
  5
7F53
330
7F51
100
AcDbEntity
  8
実形
 62
     0
370
    18
100
AcDbLine
 10
852.0693431839136
 20
-152.3860966284574
 30
0.0
 11
797.3710940401326
 21
-152.3860966284573
 31
0.0
  0
LINE
  5
7F54
330
7F51
100
AcDbEntity
  8
実形
 62
     0
370
    18
100
AcDbLine
 10
852.0693431839136
 20
-382.3860966284573
 30
0.0
 11
797.3710940401324
 21
-382.3860966284573
 31
0.0
  0
LINE
  5
7F55
330
7F51
100
AcDbEntity
  8
実形
 62
     0
370
    18
100
AcDbLine
 10
797.3710940401326
 20
-162.3860966284573
 30
0.0
 11
797.3710940401324
 21
-372.3860966284573
 31
0.0
  0
MTEXT
  5
7F56
330
7F51
100
AcDbEntity
  8
実形
 62
     0
100
AcDbMText
 10
775.7710940401323
 20
-176.4675834353729
 30
0.0
 40
25.0
 41
0.0
 71
     5
 72
     1
  1
15
 11
0.0000000000000001
 21
1.0
 31
0.0
 73
     1
 44
1.0
1001
ACAD
1000
MTEXTBEGIN
1070
    73
1070
     1
1070
    44
1040
1.0
1070
    74
1070
     0
1000
MTEXTEND
  0
INSERT
  5
7F57
330
7F51
100
AcDbEntity
  8
実形
 62
     0
370
    18
100
AcDbBlockReference
  2
_Dot
 10
797.3710940401326
 20
-152.3860966284573
 30
0.0
 41
10.0
 42
10.0
 43
10.0
 50
90.0
  0
INSERT
  5
7F58
330
7F51
100
AcDbEntity
  8
実形
 62
     0
370
    18
100
AcDbBlockReference
  2
_Dot
 10
797.3710940401324
 20
-382.3860966284573
 30
0.0
 41
10.0
 42
10.0
 43
10.0
 50
270.0
  0
POINT
  5
7F59
330
7F51
100
AcDbEntity
  8
Defpoints
 62
     0
100
AcDbPoint
 10
917.0693431839136
 20
-152.3860966284574
 30
0.0
  0
POINT
  5
7F5A
330
7F51
100
AcDbEntity
  8
Defpoints
 62
     0
100
AcDbPoint
 10
917.0693431839136
 20
-382.3860966284574
 30
0.0
  0
POINT
  5
7F5B
330
7F51
100
AcDbEntity
  8
Defpoints
 62
     0
100
AcDbPoint
 10
797.3710940401324
 20
-382.3860966284573
 30
0.0
  0
ENDBLK
  5
7F5C
330
7F51
100
AcDbEntity
  8
0
 62
     3
100
AcDbBlockEnd
  0
BLOCK
  5
7F5E
330
7F5D
100
AcDbEntity
  8
0
 62
     3
100
AcDbBlockBegin
  2
*D41
 70
     1
 10
0.0
 20
0.0
 30
0.0
  3
*D41
  1

  0
LINE
  5
7F5F
330
7F5D
100
AcDbEntity
  8
実形
 62
     0
370
    18
100
AcDbLine
 10
852.0693431839136
 20
-392.3860966284573
 30
0.0
 11
797.3710940401323
 21
-392.3860966284573
 31
0.0
  0
LINE
  5
7F60
330
7F5D
100
AcDbEntity
  8
実形
 62
     0
370
    18
100
AcDbLine
 10
852.0693431839136
 20
-152.3860966284574
 30
0.0
 11
797.3710940401324
 21
-152.3860966284573
 31
0.0
  0
LINE
  5
7F61
330
7F5D
100
AcDbEntity
  8
実形
 62
     0
370
    18
100
AcDbLine
 10
797.3710940401323
 20
-382.3860966284573
 30
0.0
 11
797.3710940401324
 21
-162.3860966284573
 31
0.0
  0
MTEXT
  5
7F62
330
7F5D
100
AcDbEntity
  8
実形
 62
     0
100
AcDbMText
 10
830.355261679284
 20
-411.1966776303161
 30
0.0
 40
25.0
 41
0.0
 71
     5
 72
     1
  1
8
 11
0.0000000000000001
 21
1.0
 31
0.0
 73
     1
 44
1.0
1001
ACAD
1000
MTEXTBEGIN
1070
    73
1070
     1
1070
    44
1040
1.0
1070
    74
1070
     0
1000
MTEXTEND
  0
INSERT
  5
7F63
330
7F5D
100
AcDbEntity
  8
実形
 62
     0
370
    18
100
AcDbBlockReference
  2
_Dot
 10
797.3710940401323
 20
-392.3860966284573
 30
0.0
 41
10.0
 42
10.0
 43
10.0
 50
270.0
  0
INSERT
  5
7F64
330
7F5D
100
AcDbEntity
  8
実形
 62
     0
370
    18
100
AcDbBlockReference
  2
_Dot
 10
797.3710940401324
 20
-152.3860966284573
 30
0.0
 41
10.0
 42
10.0
 43
10.0
 50
90.0
  0
POINT
  5
7F65
330
7F5D
100
AcDbEntity
  8
Defpoints
 62
     0
100
AcDbPoint
 10
917.0693431839136
 20
-392.3860966284574
 30
0.0
  0
POINT
  5
7F66
330
7F5D
100
AcDbEntity
  8
Defpoints
 62
     0
100
AcDbPoint
 10
917.0693431839136
 20
-152.3860966284574
 30
0.0
  0
POINT
  5
7F67
330
7F5D
100
AcDbEntity
  8
Defpoints
 62
     0
100
AcDbPoint
 10
797.3710940401324
 20
-152.3860966284573
 30
0.0
  0
ENDBLK
  5
7F68
330
7F5D
100
AcDbEntity
  8
0
 62
     3
100
AcDbBlockEnd
  0
BLOCK
  5
7F6A
330
7F69
100
AcDbEntity
  8
0
 62
     3
100
AcDbBlockBegin
  2
*D42
 70
     1
 10
0.0
 20
0.0
 30
0.0
  3
*D42
  1

  0
LINE
  5
7F6B
330
7F69
100
AcDbEntity
  8
実形
 62
     0
370
    18
100
AcDbLine
 10
852.0693431839136
 20
-152.3860966284574
 30
0.0
 11
727.6013470322833
 21
-152.3860966284573
 31
0.0
  0
LINE
  5
7F6C
330
7F69
100
AcDbEntity
  8
実形
 62
     0
370
    18
100
AcDbLine
 10
852.0693431839134
 20
-382.3860966284573
 30
0.0
 11
727.6013470322832
 21
-382.3860966284573
 31
0.0
  0
LINE
  5
7F6D
330
7F69
100
AcDbEntity
  8
実形
 62
     0
370
    18
100
AcDbLine
 10
727.6013470322833
 20
-162.3860966284573
 30
0.0
 11
727.6013470322832
 21
-372.3860966284573
 31
0.0
  0
INSERT
  5
7F6E
330
7F69
100
AcDbEntity
  8
実形
 62
     0
370
    18
100
AcDbBlockReference
  2
_Dot
 10
727.6013470322833
 20
-152.3860966284573
 30
0.0
 41
10.0
 42
10.0
 43
10.0
 50
90.0
  0
INSERT
  5
7F6F
330
7F69
100
AcDbEntity
  8
実形
 62
     0
370
    18
100
AcDbBlockReference
  2
_Dot
 10
727.6013470322832
 20
-382.3860966284573
 30
0.0
 41
10.0
 42
10.0
 43
10.0
 50
270.0
  0
MTEXT
  5
7F70
330
7F69
100
AcDbEntity
  8
実形
 62
     0
100
AcDbMText
 10
708.5013470322833
 20
-267.3860966284572
 30
0.0
 40
25.0
 41
0.0
 71
     5
 72
     1
  1
230
 11
0.0000000000000001
 21
1.0
 31
0.0
 73
     1
 44
1.0
1001
ACAD
1000
MTEXTBEGIN
1070
    73
1070
     1
1070
    44
1040
1.0
1070
    74
1070
     0
1000
MTEXTEND
  0
POINT
  5
7F71
330
7F69
100
AcDbEntity
  8
Defpoints
 62
     0
100
AcDbPoint
 10
917.0693431839136
 20
-152.3860966284574
 30
0.0
  0
POINT
  5
7F72
330
7F69
100
AcDbEntity
  8
Defpoints
 62
     0
100
AcDbPoint
 10
917.0693431839135
 20
-382.3860966284574
 30
0.0
  0
POINT
  5
7F73
330
7F69
100
AcDbEntity
  8
Defpoints
 62
     0
100
AcDbPoint
 10
727.6013470322832
 20
-382.3860966284573
 30
0.0
  0
ENDBLK
  5
7F74
330
7F69
100
AcDbEntity
  8
0
 62
     3
100
AcDbBlockEnd
  0
BLOCK
  5
7F76
330
7F75
100
AcDbEntity
  8
0
 62
     3
100
AcDbBlockBegin
  2
*D43
 70
     1
 10
0.0
 20
0.0
 30
0.0
  3
*D43
  1

  0
LINE
  5
7F77
330
7F75
100
AcDbEntity
  8
実形
 62
     0
370
    18
100
AcDbLine
 10
728.6814961412001
 20
-152.3860966284574
 30
0.0
 11
660.6927293655045
 21
-152.3860966284573
 31
0.0
  0
LINE
  5
7F78
330
7F75
100
AcDbEntity
  8
実形
 62
     0
370
    18
100
AcDbLine
 10
728.6814961412
 20
-392.3860966284574
 30
0.0
 11
660.6927293655044
 21
-392.3860966284574
 31
0.0
  0
LINE
  5
7F79
330
7F75
100
AcDbEntity
  8
実形
 62
     0
370
    18
100
AcDbLine
 10
660.6927293655045
 20
-162.3860966284573
 30
0.0
 11
660.6927293655044
 21
-382.3860966284574
 31
0.0
  0
INSERT
  5
7F7A
330
7F75
100
AcDbEntity
  8
実形
 62
     0
370
    18
100
AcDbBlockReference
  2
_Dot
 10
660.6927293655045
 20
-152.3860966284573
 30
0.0
 41
10.0
 42
10.0
 43
10.0
 50
90.0
  0
INSERT
  5
7F7B
330
7F75
100
AcDbEntity
  8
実形
 62
     0
370
    18
100
AcDbBlockReference
  2
_Dot
 10
660.6927293655044
 20
-392.3860966284574
 30
0.0
 41
10.0
 42
10.0
 43
10.0
 50
270.0
  0
MTEXT
  5
7F7C
330
7F75
100
AcDbEntity
  8
実形
 62
     0
100
AcDbMText
 10
641.5927293655045
 20
-272.3860966284572
 30
0.0
 40
25.0
 41
0.0
 71
     5
 72
     1
  1
238
 11
0.0000000000000001
 21
1.0
 31
0.0
 73
     1
 44
1.0
1001
ACAD
1000
MTEXTBEGIN
1070
    73
1070
     1
1070
    44
1040
1.0
1070
    74
1070
     0
1000
MTEXTEND
  0
POINT
  5
7F7D
330
7F75
100
AcDbEntity
  8
Defpoints
 62
     0
100
AcDbPoint
 10
793.6814961412001
 20
-152.3860966284574
 30
0.0
  0
POINT
  5
7F7E
330
7F75
100
AcDbEntity
  8
Defpoints
 62
     0
100
AcDbPoint
 10
793.6814961411999
 20
-392.3860966284574
 30
0.0
  0
POINT
  5
7F7F
330
7F75
100
AcDbEntity
  8
Defpoints
 62
     0
100
AcDbPoint
 10
660.6927293655044
 20
-392.3860966284574
 30
0.0
  0
ENDBLK
  5
7F80
330
7F75
100
AcDbEntity
  8
0
 62
     3
100
AcDbBlockEnd
  0
BLOCK
  5
7F82
330
7F81
100
AcDbEntity
  8
0
 62
     3
100
AcDbBlockBegin
  2
*D44
 70
     1
 10
0.0
 20
0.0
 30
0.0
  3
*D44
  1

  0
LINE
  5
7F83
330
7F81
100
AcDbEntity
  8
実形
 62
     0
370
    18
100
AcDbLine
 10
1022.069343183913
 20
-457.3860966284574
 30
0.0
 11
1022.069343183913
 21
-509.3026951643151
 31
0.0
  0
LINE
  5
7F84
330
7F81
100
AcDbEntity
  8
実形
 62
     0
370
    18
100
AcDbLine
 10
1182.069343183914
 20
-457.3860966284574
 30
0.0
 11
1182.069343183914
 21
-509.3026951643151
 31
0.0
  0
LINE
  5
7F85
330
7F81
100
AcDbEntity
  8
実形
 62
     0
370
    18
100
AcDbLine
 10
1032.069343183913
 20
-509.3026951643151
 30
0.0
 11
1172.069343183913
 21
-509.3026951643151
 31
0.0
  0
INSERT
  5
7F86
330
7F81
100
AcDbEntity
  8
実形
 62
     0
370
    18
100
AcDbBlockReference
  2
_Dot
 10
1022.069343183913
 20
-509.3026951643151
 30
0.0
 41
10.0
 42
10.0
 43
10.0
 50
180.0
  0
INSERT
  5
7F87
330
7F81
100
AcDbEntity
  8
実形
 62
     0
370
    18
100
AcDbBlockReference
  2
_Dot
 10
1182.069343183914
 20
-509.3026951643151
 30
0.0
 41
10.0
 42
10.0
 43
10.0
  0
MTEXT
  5
7F88
330
7F81
100
AcDbEntity
  8
実形
 62
     0
100
AcDbMText
 10
1102.069343183913
 20
-490.202695164315
 30
0.0
 40
25.0
 41
0.0
 71
     5
 72
     1
  1
160
 73
     1
 44
1.0
1001
ACAD
1000
MTEXTBEGIN
1070
    73
1070
     1
1070
    44
1040
1.0
1070
    74
1070
     0
1000
MTEXTEND
  0
POINT
  5
7F89
330
7F81
100
AcDbEntity
  8
Defpoints
 62
     0
100
AcDbPoint
 10
1022.069343183913
 20
-392.3860966284575
 30
0.0
  0
POINT
  5
7F8A
330
7F81
100
AcDbEntity
  8
Defpoints
 62
     0
100
AcDbPoint
 10
1182.069343183914
 20
-392.3860966284575
 30
0.0
  0
POINT
  5
7F8B
330
7F81
100
AcDbEntity
  8
Defpoints
 62
     0
100
AcDbPoint
 10
1182.069343183914
 20
-509.3026951643151
 30
0.0
  0
ENDBLK
  5
7F8C
330
7F81
100
AcDbEntity
  8
0
 62
     3
100
AcDbBlockEnd
  0
BLOCK
  5
7F8E
330
7F8D
100
AcDbEntity
  8
0
 62
     3
100
AcDbBlockBegin
  2
*D45
 70
     1
 10
0.0
 20
0.0
 30
0.0
  3
*D45
  1

  0
LINE
  5
7F8F
330
7F8D
100
AcDbEntity
  8
実形
 62
     0
370
    18
100
AcDbLine
 10
1011.569343183913
 20
-457.3860966284574
 30
0.0
 11
1011.569343183913
 21
-580.5449919795919
 31
0.0
  0
LINE
  5
7F90
330
7F8D
100
AcDbEntity
  8
実形
 62
     0
370
    18
100
AcDbLine
 10
1192.569343183913
 20
-457.3860966284616
 30
0.0
 11
1192.569343183913
 21
-580.5449919795919
 31
0.0
  0
LINE
  5
7F91
330
7F8D
100
AcDbEntity
  8
実形
 62
     0
370
    18
100
AcDbLine
 10
1021.569343183913
 20
-580.5449919795919
 30
0.0
 11
1182.569343183913
 21
-580.5449919795919
 31
0.0
  0
INSERT
  5
7F92
330
7F8D
100
AcDbEntity
  8
実形
 62
     0
370
    18
100
AcDbBlockReference
  2
_Dot
 10
1011.569343183913
 20
-580.5449919795919
 30
0.0
 41
10.0
 42
10.0
 43
10.0
 50
180.0
  0
INSERT
  5
7F93
330
7F8D
100
AcDbEntity
  8
実形
 62
     0
370
    18
100
AcDbBlockReference
  2
_Dot
 10
1192.569343183913
 20
-580.5449919795919
 30
0.0
 41
10.0
 42
10.0
 43
10.0
  0
MTEXT
  5
7F94
330
7F8D
100
AcDbEntity
  8
実形
 62
     0
100
AcDbMText
 10
1102.069343183913
 20
-561.4449919795919
 30
0.0
 40
25.0
 41
0.0
 71
     5
 72
     1
  1
181
 73
     1
 44
1.0
1001
ACAD
1000
MTEXTBEGIN
1070
    73
1070
     1
1070
    44
1040
1.0
1070
    74
1070
     0
1000
MTEXTEND
  0
POINT
  5
7F95
330
7F8D
100
AcDbEntity
  8
Defpoints
 62
     0
100
AcDbPoint
 10
1011.569343183913
 20
-392.3860966284575
 30
0.0
  0
POINT
  5
7F96
330
7F8D
100
AcDbEntity
  8
Defpoints
 62
     0
100
AcDbPoint
 10
1192.569343183913
 20
-392.3860966284617
 30
0.0
  0
POINT
  5
7F97
330
7F8D
100
AcDbEntity
  8
Defpoints
 62
     0
100
AcDbPoint
 10
1192.569343183913
 20
-580.5449919795919
 30
0.0
  0
ENDBLK
  5
7F98
330
7F8D
100
AcDbEntity
  8
0
 62
     3
100
AcDbBlockEnd
  0
BLOCK
  5
7F9A
330
7F99
100
AcDbEntity
  8
0
 62
     3
100
AcDbBlockBegin
  2
*D46
 70
     1
 10
0.0
 20
0.0
 30
0.0
  3
*D46
  1

  0
LINE
  5
7F9B
330
7F99
100
AcDbEntity
  8
実形
 62
     0
370
    18
100
AcDbLine
 10
1094.538117598124
 20
1554.178460662066
 30
0.0
 11
1043.45634594854
 21
1554.178460662066
 31
0.0
  0
LINE
  5
7F9C
330
7F99
100
AcDbEntity
  8
実形
 62
     0
370
    18
100
AcDbLine
 10
1091.209930106677
 20
1404.178460662066
 30
0.0
 11
1043.456345948539
 21
1404.178460662066
 31
0.0
  0
LINE
  5
7F9D
330
7F99
100
AcDbEntity
  8
実形
 62
     0
370
    18
100
AcDbLine
 10
1043.45634594854
 20
1544.178460662066
 30
0.0
 11
1043.456345948539
 21
1414.178460662066
 31
0.0
  0
INSERT
  5
7F9E
330
7F99
100
AcDbEntity
  8
実形
 62
     0
370
    18
100
AcDbBlockReference
  2
_Dot
 10
1043.45634594854
 20
1554.178460662066
 30
0.0
 41
10.0
 42
10.0
 43
10.0
 50
90.0
  0
INSERT
  5
7F9F
330
7F99
100
AcDbEntity
  8
実形
 62
     0
370
    18
100
AcDbBlockReference
  2
_Dot
 10
1043.456345948539
 20
1404.178460662066
 30
0.0
 41
10.0
 42
10.0
 43
10.0
 50
270.0
  0
MTEXT
  5
7FA0
330
7F99
100
AcDbEntity
  8
実形
 62
     0
100
AcDbMText
 10
1021.856345948539
 20
1479.178460662066
 30
0.0
 40
30.0
 41
0.0
 71
     5
 72
     1
  1
150
 11
0.0000000000000001
 21
1.0
 31
0.0
 73
     1
 44
1.0
1001
ACAD
1000
MTEXTBEGIN
1070
    73
1070
     1
1070
    44
1040
1.0
1070
    74
1070
     0
1000
MTEXTEND
  0
POINT
  5
7FA1
330
7F99
100
AcDbEntity
  8
Defpoints
 62
     0
100
AcDbPoint
 10
1159.538117598124
 20
1554.178460662066
 30
0.0
  0
POINT
  5
7FA2
330
7F99
100
AcDbEntity
  8
Defpoints
 62
     0
100
AcDbPoint
 10
1156.209930106677
 20
1404.178460662066
 30
0.0
  0
POINT
  5
7FA3
330
7F99
100
AcDbEntity
  8
Defpoints
 62
     0
100
AcDbPoint
 10
1043.456345948539
 20
1404.178460662066
 30
0.0
  0
ENDBLK
  5
7FA4
330
7F99
100
AcDbEntity
  8
0
 62
     3
100
AcDbBlockEnd
  0
BLOCK
  5
7FA6
330
7FA5
100
AcDbEntity
  8
0
 62
     3
100
AcDbBlockBegin
  2
*D47
 70
     1
 10
0.0
 20
0.0
 30
0.0
  3
*D47
  1

  0
LINE
  5
7FA7
330
7FA5
100
AcDbEntity
  8
実形
 62
     0
370
    18
100
AcDbLine
 10
1242.770210499882
 20
1300.740901717254
 30
0.0
 11
1242.770210499882
 21
1270.994834284402
 31
0.0
  0
LINE
  5
7FA8
330
7FA5
100
AcDbEntity
  8
実形
 62
     0
370
    18
100
AcDbLine
 10
1622.770210499882
 20
1300.740901717254
 30
0.0
 11
1622.770210499882
 21
1270.994834284402
 31
0.0
  0
LINE
  5
7FA9
330
7FA5
100
AcDbEntity
  8
実形
 62
     0
370
    18
100
AcDbLine
 10
1252.770210499882
 20
1270.994834284402
 30
0.0
 11
1612.770210499882
 21
1270.994834284402
 31
0.0
  0
INSERT
  5
7FAA
330
7FA5
100
AcDbEntity
  8
実形
 62
     0
370
    18
100
AcDbBlockReference
  2
_Dot
 10
1242.770210499882
 20
1270.994834284402
 30
0.0
 41
10.0
 42
10.0
 43
10.0
 50
180.0
  0
INSERT
  5
7FAB
330
7FA5
100
AcDbEntity
  8
実形
 62
     0
370
    18
100
AcDbBlockReference
  2
_Dot
 10
1622.770210499882
 20
1270.994834284402
 30
0.0
 41
10.0
 42
10.0
 43
10.0
  0
MTEXT
  5
7FAC
330
7FA5
100
AcDbEntity
  8
実形
 62
     0
100
AcDbMText
 10
1432.770210499882
 20
1292.594834284402
 30
0.0
 40
30.0
 41
0.0
 71
     5
 72
     1
  1
380
 73
     1
 44
1.0
1001
ACAD
1000
MTEXTBEGIN
1070
    73
1070
     1
1070
    44
1040
1.0
1070
    74
1070
     0
1000
MTEXTEND
  0
POINT
  5
7FAD
330
7FA5
100
AcDbEntity
  8
Defpoints
 62
     0
100
AcDbPoint
 10
1242.770210499882
 20
1365.740901717254
 30
0.0
  0
POINT
  5
7FAE
330
7FA5
100
AcDbEntity
  8
Defpoints
 62
     0
100
AcDbPoint
 10
1622.770210499882
 20
1365.740901717254
 30
0.0
  0
POINT
  5
7FAF
330
7FA5
100
AcDbEntity
  8
Defpoints
 62
     0
100
AcDbPoint
 10
1622.770210499882
 20
1270.994834284402
 30
0.0
  0
ENDBLK
  5
7FB0
330
7FA5
100
AcDbEntity
  8
0
 62
     3
100
AcDbBlockEnd
  0
BLOCK
  5
7FB2
330
7FB1
100
AcDbEntity
  8
0
 62
     3
100
AcDbBlockBegin
  2
*D48
 70
     1
 10
0.0
 20
0.0
 30
0.0
  3
*D48
  1

  0
LINE
  5
7FB3
330
7FB1
100
AcDbEntity
  8
実形
 62
     0
370
    18
100
AcDbLine
 10
842.7702104998823
 20
1689.178460662066
 30
0.0
 11
842.7702104998823
 21
1735.385472702717
 31
0.0
  0
LINE
  5
7FB4
330
7FB1
100
AcDbEntity
  8
実形
 62
     0
370
    18
100
AcDbLine
 10
1092.770210499882
 20
1689.178460662066
 30
0.0
 11
1092.770210499882
 21
1735.385472702717
 31
0.0
  0
LINE
  5
7FB5
330
7FB1
100
AcDbEntity
  8
実形
 62
     0
370
    18
100
AcDbLine
 10
852.7702104998823
 20
1735.385472702717
 30
0.0
 11
1082.770210499882
 21
1735.385472702717
 31
0.0
  0
INSERT
  5
7FB6
330
7FB1
100
AcDbEntity
  8
実形
 62
     0
370
    18
100
AcDbBlockReference
  2
_Dot
 10
842.7702104998823
 20
1735.385472702717
 30
0.0
 41
10.0
 42
10.0
 43
10.0
 50
180.0
  0
INSERT
  5
7FB7
330
7FB1
100
AcDbEntity
  8
実形
 62
     0
370
    18
100
AcDbBlockReference
  2
_Dot
 10
1092.770210499882
 20
1735.385472702717
 30
0.0
 41
10.0
 42
10.0
 43
10.0
  0
MTEXT
  5
7FB8
330
7FB1
100
AcDbEntity
  8
実形
 62
     0
100
AcDbMText
 10
967.7702104998825
 20
1754.485472702717
 30
0.0
 40
25.0
 41
0.0
 71
     5
 72
     1
  1
250
 73
     1
 44
1.0
1001
ACAD
1000
MTEXTBEGIN
1070
    73
1070
     1
1070
    44
1040
1.0
1070
    74
1070
     0
1000
MTEXTEND
  0
POINT
  5
7FB9
330
7FB1
100
AcDbEntity
  8
Defpoints
 62
     0
100
AcDbPoint
 10
842.7702104998823
 20
1624.178460662066
 30
0.0
  0
POINT
  5
7FBA
330
7FB1
100
AcDbEntity
  8
Defpoints
 62
     0
100
AcDbPoint
 10
1092.770210499882
 20
1624.178460662066
 30
0.0
  0
POINT
  5
7FBB
330
7FB1
100
AcDbEntity
  8
Defpoints
 62
     0
100
AcDbPoint
 10
1092.770210499882
 20
1735.385472702717
 30
0.0
  0
ENDBLK
  5
7FBC
330
7FB1
100
AcDbEntity
  8
0
 62
     3
100
AcDbBlockEnd
  0
BLOCK
  5
7FBE
330
7FBD
100
AcDbEntity
  8
0
 62
     3
100
AcDbBlockBegin
  2
*D49
 70
     1
 10
0.0
 20
0.0
 30
0.0
  3
*D49
  1

  0
LINE
  5
7FBF
330
7FBD
100
AcDbEntity
  8
実形
 62
     0
370
    18
100
AcDbLine
 10
1092.770210499882
 20
1689.178460662066
 30
0.0
 11
1092.770210499882
 21
1735.385472702717
 31
0.0
  0
LINE
  5
7FC0
330
7FBD
100
AcDbEntity
  8
実形
 62
     0
370
    18
100
AcDbLine
 10
1392.770210499882
 20
1689.178460662066
 30
0.0
 11
1392.770210499882
 21
1735.385472702717
 31
0.0
  0
LINE
  5
7FC1
330
7FBD
100
AcDbEntity
  8
実形
 62
     0
370
    18
100
AcDbLine
 10
1102.770210499882
 20
1735.385472702717
 30
0.0
 11
1382.770210499882
 21
1735.385472702717
 31
0.0
  0
INSERT
  5
7FC2
330
7FBD
100
AcDbEntity
  8
実形
 62
     0
370
    18
100
AcDbBlockReference
  2
_Dot
 10
1092.770210499882
 20
1735.385472702717
 30
0.0
 41
10.0
 42
10.0
 43
10.0
 50
180.0
  0
INSERT
  5
7FC3
330
7FBD
100
AcDbEntity
  8
実形
 62
     0
370
    18
100
AcDbBlockReference
  2
_Dot
 10
1392.770210499882
 20
1735.385472702717
 30
0.0
 41
10.0
 42
10.0
 43
10.0
  0
MTEXT
  5
7FC4
330
7FBD
100
AcDbEntity
  8
実形
 62
     0
100
AcDbMText
 10
1242.770210499882
 20
1754.485472702717
 30
0.0
 40
25.0
 41
0.0
 71
     5
 72
     1
  1
300
 73
     1
 44
1.0
1001
ACAD
1000
MTEXTBEGIN
1070
    73
1070
     1
1070
    44
1040
1.0
1070
    74
1070
     0
1000
MTEXTEND
  0
POINT
  5
7FC5
330
7FBD
100
AcDbEntity
  8
Defpoints
 62
     0
100
AcDbPoint
 10
1092.770210499882
 20
1624.178460662066
 30
0.0
  0
POINT
  5
7FC6
330
7FBD
100
AcDbEntity
  8
Defpoints
 62
     0
100
AcDbPoint
 10
1392.770210499882
 20
1624.178460662066
 30
0.0
  0
POINT
  5
7FC7
330
7FBD
100
AcDbEntity
  8
Defpoints
 62
     0
100
AcDbPoint
 10
1392.770210499882
 20
1735.385472702717
 30
0.0
  0
ENDBLK
  5
7FC8
330
7FBD
100
AcDbEntity
  8
0
 62
     3
100
AcDbBlockEnd
  0
BLOCK
  5
7FCA
330
7FC9
100
AcDbEntity
  8
0
 62
     3
100
AcDbBlockBegin
  2
*D50
 70
     1
 10
0.0
 20
0.0
 30
0.0
  3
*D50
  1

  0
LINE
  5
7FCB
330
7FC9
100
AcDbEntity
  8
実形
 62
     0
370
    18
100
AcDbLine
 10
1392.770210499883
 20
1689.178460662065
 30
0.0
 11
1392.770210499883
 21
1735.385472702717
 31
0.0
  0
LINE
  5
7FCC
330
7FC9
100
AcDbEntity
  8
実形
 62
     0
370
    18
100
AcDbLine
 10
1642.770210499882
 20
1689.178460662065
 30
0.0
 11
1642.770210499882
 21
1735.385472702717
 31
0.0
  0
LINE
  5
7FCD
330
7FC9
100
AcDbEntity
  8
実形
 62
     0
370
    18
100
AcDbLine
 10
1402.770210499882
 20
1735.385472702717
 30
0.0
 11
1632.770210499882
 21
1735.385472702717
 31
0.0
  0
INSERT
  5
7FCE
330
7FC9
100
AcDbEntity
  8
実形
 62
     0
370
    18
100
AcDbBlockReference
  2
_Dot
 10
1392.770210499883
 20
1735.385472702717
 30
0.0
 41
10.0
 42
10.0
 43
10.0
 50
180.0
  0
INSERT
  5
7FCF
330
7FC9
100
AcDbEntity
  8
実形
 62
     0
370
    18
100
AcDbBlockReference
  2
_Dot
 10
1642.770210499882
 20
1735.385472702717
 30
0.0
 41
10.0
 42
10.0
 43
10.0
  0
MTEXT
  5
7FD0
330
7FC9
100
AcDbEntity
  8
実形
 62
     0
100
AcDbMText
 10
1517.770210499882
 20
1754.485472702717
 30
0.0
 40
25.0
 41
0.0
 71
     5
 72
     1
  1
250
 73
     1
 44
1.0
1001
ACAD
1000
MTEXTBEGIN
1070
    73
1070
     1
1070
    44
1040
1.0
1070
    74
1070
     0
1000
MTEXTEND
  0
POINT
  5
7FD1
330
7FC9
100
AcDbEntity
  8
Defpoints
 62
     0
100
AcDbPoint
 10
1392.770210499883
 20
1624.178460662065
 30
0.0
  0
POINT
  5
7FD2
330
7FC9
100
AcDbEntity
  8
Defpoints
 62
     0
100
AcDbPoint
 10
1642.770210499882
 20
1624.178460662065
 30
0.0
  0
POINT
  5
7FD3
330
7FC9
100
AcDbEntity
  8
Defpoints
 62
     0
100
AcDbPoint
 10
1642.770210499882
 20
1735.385472702717
 30
0.0
  0
ENDBLK
  5
7FD4
330
7FC9
100
AcDbEntity
  8
0
 62
     3
100
AcDbBlockEnd
  0
BLOCK
  5
7FD6
330
7FD5
100
AcDbEntity
  8
0
 62
     3
100
AcDbBlockBegin
  2
*D51
 70
     1
 10
0.0
 20
0.0
 30
0.0
  3
*D51
  1

  0
LINE
  5
7FD7
330
7FD5
100
AcDbEntity
  8
実形
 62
     0
370
    18
100
AcDbLine
 10
827.7702104998825
 20
1689.806458158204
 30
0.0
 11
827.7702104998825
 21
1735.385472702717
 31
0.0
  0
LINE
  5
7FD8
330
7FD5
100
AcDbEntity
  8
実形
 62
     0
370
    18
100
AcDbLine
 10
1657.770210499882
 20
1689.161761419618
 30
0.0
 11
1657.770210499882
 21
1735.385472702717
 31
0.0
  0
LINE
  5
7FD9
330
7FD5
100
AcDbEntity
  8
実形
 62
     0
370
    18
100
AcDbLine
 10
837.7702104998824
 20
1735.385472702717
 30
0.0
 11
1647.770210499882
 21
1735.385472702717
 31
0.0
  0
MTEXT
  5
7FDA
330
7FD5
100
AcDbEntity
  8
実形
 62
     0
100
AcDbMText
 10
826.3182245476109
 20
1760.370517377699
 30
0.0
 40
25.0
 41
0.0
 71
     5
 72
     1
  1
15
 73
     1
 44
1.0
1001
ACAD
1000
MTEXTBEGIN
1070
    73
1070
     1
1070
    44
1040
1.0
1070
    74
1070
     0
1000
MTEXTEND
  0
INSERT
  5
7FDB
330
7FD5
100
AcDbEntity
  8
実形
 62
     0
370
    18
100
AcDbBlockReference
  2
_Dot
 10
827.7702104998825
 20
1735.385472702717
 30
0.0
 41
10.0
 42
10.0
 43
10.0
 50
180.0
  0
INSERT
  5
7FDC
330
7FD5
100
AcDbEntity
  8
実形
 62
     0
370
    18
100
AcDbBlockReference
  2
_Dot
 10
1657.770210499882
 20
1735.385472702717
 30
0.0
 41
10.0
 42
10.0
 43
10.0
  0
POINT
  5
7FDD
330
7FD5
100
AcDbEntity
  8
Defpoints
 62
     0
100
AcDbPoint
 10
827.7702104998825
 20
1624.806458158204
 30
0.0
  0
POINT
  5
7FDE
330
7FD5
100
AcDbEntity
  8
Defpoints
 62
     0
100
AcDbPoint
 10
1657.770210499882
 20
1624.161761419618
 30
0.0
  0
POINT
  5
7FDF
330
7FD5
100
AcDbEntity
  8
Defpoints
 62
     0
100
AcDbPoint
 10
1657.770210499882
 20
1735.385472702717
 30
0.0
  0
ENDBLK
  5
7FE0
330
7FD5
100
AcDbEntity
  8
0
 62
     3
100
AcDbBlockEnd
  0
BLOCK
  5
7FE2
330
7FE1
100
AcDbEntity
  8
0
 62
     3
100
AcDbBlockBegin
  2
*D52
 70
     1
 10
0.0
 20
0.0
 30
0.0
  3
*D52
  1

  0
LINE
  5
7FE3
330
7FE1
100
AcDbEntity
  8
実形
 62
     0
370
    18
100
AcDbLine
 10
1722.770210499882
 20
1644.178460662066
 30
0.0
 11
1771.093547640549
 21
1644.178460662066
 31
0.0
  0
LINE
  5
7FE4
330
7FE1
100
AcDbEntity
  8
実形
 62
     0
370
    18
100
AcDbLine
 10
1722.770210499882
 20
1184.178460662066
 30
0.0
 11
1771.093547640548
 21
1184.178460662066
 31
0.0
  0
LINE
  5
7FE5
330
7FE1
100
AcDbEntity
  8
実形
 62
     0
370
    18
100
AcDbLine
 10
1771.093547640549
 20
1634.178460662066
 30
0.0
 11
1771.093547640548
 21
1194.178460662066
 31
0.0
  0
INSERT
  5
7FE6
330
7FE1
100
AcDbEntity
  8
実形
 62
     0
370
    18
100
AcDbBlockReference
  2
_Dot
 10
1771.093547640549
 20
1644.178460662066
 30
0.0
 41
10.0
 42
10.0
 43
10.0
 50
90.0
  0
INSERT
  5
7FE7
330
7FE1
100
AcDbEntity
  8
実形
 62
     0
370
    18
100
AcDbBlockReference
  2
_Dot
 10
1771.093547640548
 20
1184.178460662066
 30
0.0
 41
10.0
 42
10.0
 43
10.0
 50
270.0
  0
MTEXT
  5
7FE8
330
7FE1
100
AcDbEntity
  8
実形
 62
     0
100
AcDbMText
 10
1751.993547640548
 20
1414.178460662066
 30
0.0
 40
25.0
 41
0.0
 71
     5
 72
     1
  1
460
 11
0.0000000000000001
 21
1.0
 31
0.0
 73
     1
 44
1.0
1001
ACAD
1000
MTEXTBEGIN
1070
    73
1070
     1
1070
    44
1040
1.0
1070
    74
1070
     0
1000
MTEXTEND
  0
POINT
  5
7FE9
330
7FE1
100
AcDbEntity
  8
Defpoints
 62
     0
100
AcDbPoint
 10
1657.770210499882
 20
1644.178460662066
 30
0.0
  0
POINT
  5
7FEA
330
7FE1
100
AcDbEntity
  8
Defpoints
 62
     0
100
AcDbPoint
 10
1657.770210499883
 20
1184.178460662066
 30
0.0
  0
POINT
  5
7FEB
330
7FE1
100
AcDbEntity
  8
Defpoints
 62
     0
100
AcDbPoint
 10
1771.093547640548
 20
1184.178460662066
 30
0.0
  0
ENDBLK
  5
7FEC
330
7FE1
100
AcDbEntity
  8
0
 62
     3
100
AcDbBlockEnd
  0
BLOCK
  5
7FEE
330
7FED
100
AcDbEntity
  8
0
 62
     3
100
AcDbBlockBegin
  2
*D53
 70
     1
 10
0.0
 20
0.0
 30
0.0
  3
*D53
  1

  0
LINE
  5
7FEF
330
7FED
100
AcDbEntity
  8
実形
 62
     0
370
    18
100
AcDbLine
 10
1722.770210499882
 20
1659.178460662066
 30
0.0
 11
1771.093547640549
 21
1659.178460662066
 31
0.0
  0
LINE
  5
7FF0
330
7FED
100
AcDbEntity
  8
実形
 62
     0
370
    18
100
AcDbLine
 10
1722.770210499882
 20
1169.178460662066
 30
0.0
 11
1771.093547640548
 21
1169.178460662066
 31
0.0
  0
LINE
  5
7FF1
330
7FED
100
AcDbEntity
  8
実形
 62
     0
370
    18
100
AcDbLine
 10
1771.093547640549
 20
1649.178460662066
 30
0.0
 11
1771.093547640548
 21
1179.178460662066
 31
0.0
  0
MTEXT
  5
7FF2
330
7FED
100
AcDbEntity
  8
実形
 62
     0
100
AcDbMText
 10
1749.493547640548
 20
1688.725599288342
 30
0.0
 40
25.0
 41
0.0
 71
     5
 72
     1
  1
15
 11
0.0000000000000001
 21
1.0
 31
0.0
 73
     1
 44
1.0
1001
ACAD
1000
MTEXTBEGIN
1070
    73
1070
     1
1070
    44
1040
1.0
1070
    74
1070
     0
1000
MTEXTEND
  0
INSERT
  5
7FF3
330
7FED
100
AcDbEntity
  8
実形
 62
     0
370
    18
100
AcDbBlockReference
  2
_Dot
 10
1771.093547640549
 20
1659.178460662066
 30
0.0
 41
10.0
 42
10.0
 43
10.0
 50
90.0
  0
INSERT
  5
7FF4
330
7FED
100
AcDbEntity
  8
実形
 62
     0
370
    18
100
AcDbBlockReference
  2
_Dot
 10
1771.093547640548
 20
1169.178460662066
 30
0.0
 41
10.0
 42
10.0
 43
10.0
 50
270.0
  0
POINT
  5
7FF5
330
7FED
100
AcDbEntity
  8
Defpoints
 62
     0
100
AcDbPoint
 10
1657.770210499882
 20
1659.178460662066
 30
0.0
  0
POINT
  5
7FF6
330
7FED
100
AcDbEntity
  8
Defpoints
 62
     0
100
AcDbPoint
 10
1657.770210499882
 20
1169.178460662066
 30
0.0
  0
POINT
  5
7FF7
330
7FED
100
AcDbEntity
  8
Defpoints
 62
     0
100
AcDbPoint
 10
1771.093547640548
 20
1169.178460662066
 30
0.0
  0
ENDBLK
  5
7FF8
330
7FED
100
AcDbEntity
  8
0
 62
     3
100
AcDbBlockEnd
  0
BLOCK
  5
7FFA
330
7FF9
100
AcDbEntity
  8
0
 62
     3
100
AcDbBlockBegin
  2
*D54
 70
     1
 10
0.0
 20
0.0
 30
0.0
  3
*D54
  1

  0
LINE
  5
7FFB
330
7FF9
100
AcDbEntity
  8
実形
 62
     0
370
    18
100
AcDbLine
 10
1722.770210499882
 20
1659.178460662066
 30
0.0
 11
1833.118375451033
 21
1659.178460662066
 31
0.0
  0
LINE
  5
7FFC
330
7FF9
100
AcDbEntity
  8
実形
 62
     0
370
    18
100
AcDbLine
 10
1722.770210499882
 20
1169.178460662066
 30
0.0
 11
1833.118375451033
 21
1169.178460662066
 31
0.0
  0
LINE
  5
7FFD
330
7FF9
100
AcDbEntity
  8
実形
 62
     0
370
    18
100
AcDbLine
 10
1833.118375451033
 20
1649.178460662066
 30
0.0
 11
1833.118375451033
 21
1179.178460662066
 31
0.0
  0
INSERT
  5
7FFE
330
7FF9
100
AcDbEntity
  8
実形
 62
     0
370
    18
100
AcDbBlockReference
  2
_Dot
 10
1833.118375451033
 20
1659.178460662066
 30
0.0
 41
10.0
 42
10.0
 43
10.0
 50
90.0
  0
INSERT
  5
7FFF
330
7FF9
100
AcDbEntity
  8
実形
 62
     0
370
    18
100
AcDbBlockReference
  2
_Dot
 10
1833.118375451033
 20
1169.178460662066
 30
0.0
 41
10.0
 42
10.0
 43
10.0
 50
270.0
  0
MTEXT
  5
8000
330
7FF9
100
AcDbEntity
  8
実形
 62
     0
100
AcDbMText
 10
1814.018375451033
 20
1414.178460662066
 30
0.0
 40
25.0
 41
0.0
 71
     5
 72
     1
  1
490
 11
0.0000000000000001
 21
1.0
 31
0.0
 73
     1
 44
1.0
1001
ACAD
1000
MTEXTBEGIN
1070
    73
1070
     1
1070
    44
1040
1.0
1070
    74
1070
     0
1000
MTEXTEND
  0
POINT
  5
8001
330
7FF9
100
AcDbEntity
  8
Defpoints
 62
     0
100
AcDbPoint
 10
1657.770210499882
 20
1659.178460662066
 30
0.0
  0
POINT
  5
8002
330
7FF9
100
AcDbEntity
  8
Defpoints
 62
     0
100
AcDbPoint
 10
1657.770210499882
 20
1169.178460662066
 30
0.0
  0
POINT
  5
8003
330
7FF9
100
AcDbEntity
  8
Defpoints
 62
     0
100
AcDbPoint
 10
1833.118375451033
 20
1169.178460662066
 30
0.0
  0
ENDBLK
  5
8004
330
7FF9
100
AcDbEntity
  8
0
 62
     3
100
AcDbBlockEnd
  0
BLOCK
  5
8006
330
8005
100
AcDbEntity
  8
0
 62
     3
100
AcDbBlockBegin
  2
*D55
 70
     1
 10
0.0
 20
0.0
 30
0.0
  3
*D55
  1

  0
LINE
  5
8007
330
8005
100
AcDbEntity
  8
実形
 62
     0
370
    18
100
AcDbLine
 10
767.3275276276962
 20
1554.178460662066
 30
0.0
 11
738.1482502386061
 21
1554.178460662066
 31
0.0
  0
LINE
  5
8008
330
8005
100
AcDbEntity
  8
実形
 62
     0
370
    18
100
AcDbLine
 10
767.3275276276962
 20
1644.178460662066
 30
0.0
 11
738.1482502386061
 21
1644.178460662066
 31
0.0
  0
LINE
  5
8009
330
8005
100
AcDbEntity
  8
実形
 62
     0
370
    18
100
AcDbLine
 10
738.1482502386061
 20
1564.178460662066
 30
0.0
 11
738.1482502386061
 21
1634.178460662066
 31
0.0
  0
MTEXT
  5
800A
330
8005
100
AcDbEntity
  8
実形
 62
     0
100
AcDbMText
 10
715.569680847846
 20
1589.259853472391
 30
0.0
 40
25.0
 41
0.0
 71
     5
 72
     1
  1
70
 11
0.0000000000000001
 21
1.0
 31
0.0
 73
     1
 44
1.0
1001
ACAD
1000
MTEXTBEGIN
1070
    73
1070
     1
1070
    44
1040
1.0
1070
    74
1070
     0
1000
MTEXTEND
  0
INSERT
  5
800B
330
8005
100
AcDbEntity
  8
実形
 62
     0
370
    18
100
AcDbBlockReference
  2
_Dot
 10
738.1482502386061
 20
1554.178460662066
 30
0.0
 41
10.0
 42
10.0
 43
10.0
 50
270.0
  0
INSERT
  5
800C
330
8005
100
AcDbEntity
  8
実形
 62
     0
370
    18
100
AcDbBlockReference
  2
_Dot
 10
738.1482502386061
 20
1644.178460662066
 30
0.0
 41
10.0
 42
10.0
 43
10.0
 50
90.0
  0
POINT
  5
800D
330
8005
100
AcDbEntity
  8
Defpoints
 62
     0
100
AcDbPoint
 10
832.3275276276962
 20
1554.178460662066
 30
0.0
  0
POINT
  5
800E
330
8005
100
AcDbEntity
  8
Defpoints
 62
     0
100
AcDbPoint
 10
832.3275276276962
 20
1644.178460662066
 30
0.0
  0
POINT
  5
800F
330
8005
100
AcDbEntity
  8
Defpoints
 62
     0
100
AcDbPoint
 10
738.1482502386061
 20
1644.178460662066
 30
0.0
  0
ENDBLK
  5
8010
330
8005
100
AcDbEntity
  8
0
 62
     3
100
AcDbBlockEnd
  0
BLOCK
  5
8012
330
8011
100
AcDbEntity
  8
0
 62
     3
100
AcDbBlockBegin
  2
*D56
 70
     1
 10
0.0
 20
0.0
 30
0.0
  3
*D56
  1

  0
LINE
  5
8013
330
8011
100
AcDbEntity
  8
実形
 62
     0
370
    18
100
AcDbLine
 10
767.3275276276962
 20
1554.178460662066
 30
0.0
 11
738.1482502386061
 21
1554.178460662066
 31
0.0
  0
LINE
  5
8014
330
8011
100
AcDbEntity
  8
実形
 62
     0
370
    18
100
AcDbLine
 10
773.3275276276963
 20
1624.178460662066
 30
0.0
 11
738.1482502386061
 21
1624.178460662066
 31
0.0
  0
LINE
  5
8015
330
8011
100
AcDbEntity
  8
実形
 62
     0
370
    18
100
AcDbLine
 10
738.1482502386061
 20
1564.178460662066
 30
0.0
 11
738.1482502386061
 21
1614.178460662066
 31
0.0
  0
MTEXT
  5
8016
330
8011
100
AcDbEntity
  8
実形
 62
     0
100
AcDbMText
 10
801.3626707265066
 20
1625.22842009638
 30
0.0
 40
25.0
 41
0.0
 71
     5
 72
     1
  1
20
 11
0.0000000000000001
 21
1.0
 31
0.0
 73
     1
 44
1.0
1001
ACAD
1000
MTEXTBEGIN
1070
    73
1070
     1
1070
    44
1040
1.0
1070
    74
1070
     0
1000
MTEXTEND
  0
INSERT
  5
8017
330
8011
100
AcDbEntity
  8
実形
 62
     0
370
    18
100
AcDbBlockReference
  2
_Dot
 10
738.1482502386061
 20
1554.178460662066
 30
0.0
 41
10.0
 42
10.0
 43
10.0
 50
270.0
  0
INSERT
  5
8018
330
8011
100
AcDbEntity
  8
実形
 62
     0
370
    18
100
AcDbBlockReference
  2
_Dot
 10
738.1482502386061
 20
1624.178460662066
 30
0.0
 41
10.0
 42
10.0
 43
10.0
 50
90.0
  0
POINT
  5
8019
330
8011
100
AcDbEntity
  8
Defpoints
 62
     0
100
AcDbPoint
 10
832.3275276276962
 20
1554.178460662066
 30
0.0
  0
POINT
  5
801A
330
8011
100
AcDbEntity
  8
Defpoints
 62
     0
100
AcDbPoint
 10
838.3275276276963
 20
1624.178460662066
 30
0.0
  0
POINT
  5
801B
330
8011
100
AcDbEntity
  8
Defpoints
 62
     0
100
AcDbPoint
 10
738.1482502386061
 20
1624.178460662066
 30
0.0
  0
ENDBLK
  5
801C
330
8011
100
AcDbEntity
  8
0
 62
     3
100
AcDbBlockEnd
  0
BLOCK
  5
801E
330
801D
100
AcDbEntity
  8
0
 62
     3
100
AcDbBlockBegin
  2
*D57
 70
     1
 10
0.0
 20
0.0
 30
0.0
  3
*D57
  1

  0
LINE
  5
801F
330
801D
100
AcDbEntity
  8
実形
 62
     0
370
    18
100
AcDbLine
 10
735.771238858355
 20
1644.178460662066
 30
0.0
 11
672.3280192665588
 21
1644.178460662066
 31
0.0
  0
LINE
  5
8020
330
801D
100
AcDbEntity
  8
実形
 62
     0
370
    18
100
AcDbLine
 10
714.7500916428215
 20
1554.178460662066
 30
0.0
 11
672.3280192665588
 21
1554.178460662066
 31
0.0
  0
LINE
  5
8021
330
801D
100
AcDbEntity
  8
実形
 62
     0
370
    18
100
AcDbLine
 10
672.3280192665588
 20
1634.178460662066
 30
0.0
 11
672.3280192665588
 21
1564.178460662066
 31
0.0
  0
INSERT
  5
8022
330
801D
100
AcDbEntity
  8
実形
 62
     0
370
    18
100
AcDbBlockReference
  2
_Dot
 10
672.3280192665588
 20
1644.178460662066
 30
0.0
 41
10.0
 42
10.0
 43
10.0
 50
90.0
  0
INSERT
  5
8023
330
801D
100
AcDbEntity
  8
実形
 62
     0
370
    18
100
AcDbBlockReference
  2
_Dot
 10
672.3280192665588
 20
1554.178460662066
 30
0.0
 41
10.0
 42
10.0
 43
10.0
 50
270.0
  0
MTEXT
  5
8024
330
801D
100
AcDbEntity
  8
実形
 62
     0
100
AcDbMText
 10
653.2280192665585
 20
1599.178460662066
 30
0.0
 40
25.0
 41
0.0
 71
     5
 72
     1
  1
90
 11
0.0000000000000001
 21
1.0
 31
0.0
 73
     1
 44
1.0
1001
ACAD
1000
MTEXTBEGIN
1070
    73
1070
     1
1070
    44
1040
1.0
1070
    74
1070
     0
1000
MTEXTEND
  0
POINT
  5
8025
330
801D
100
AcDbEntity
  8
Defpoints
 62
     0
100
AcDbPoint
 10
800.771238858355
 20
1644.178460662066
 30
0.0
  0
POINT
  5
8026
330
801D
100
AcDbEntity
  8
Defpoints
 62
     0
100
AcDbPoint
 10
779.7500916428215
 20
1554.178460662066
 30
0.0
  0
POINT
  5
8027
330
801D
100
AcDbEntity
  8
Defpoints
 62
     0
100
AcDbPoint
 10
672.3280192665588
 20
1554.178460662066
 30
0.0
  0
ENDBLK
  5
8028
330
801D
100
AcDbEntity
  8
0
 62
     3
100
AcDbBlockEnd
  0
BLOCK
  5
802A
330
8029
100
AcDbEntity
  8
0
 62
     3
100
AcDbBlockBegin
  2
*D58
 70
     1
 10
0.0
 20
0.0
 30
0.0
  3
*D58
  1

  0
LINE
  5
802B
330
8029
100
AcDbEntity
  8
実形
 62
     0
370
    18
100
AcDbLine
 10
732.6742997845558
 20
1554.178460662066
 30
0.0
 11
672.3280192665588
 21
1554.178460662066
 31
0.0
  0
LINE
  5
802C
330
8029
100
AcDbEntity
  8
実形
 62
     0
370
    18
100
AcDbLine
 10
737.7945193027008
 20
1204.178460662066
 30
0.0
 11
672.3280192665587
 21
1204.178460662066
 31
0.0
  0
LINE
  5
802D
330
8029
100
AcDbEntity
  8
実形
 62
     0
370
    18
100
AcDbLine
 10
672.3280192665588
 20
1544.178460662066
 30
0.0
 11
672.3280192665587
 21
1214.178460662066
 31
0.0
  0
INSERT
  5
802E
330
8029
100
AcDbEntity
  8
実形
 62
     0
370
    18
100
AcDbBlockReference
  2
_Dot
 10
672.3280192665588
 20
1554.178460662066
 30
0.0
 41
10.0
 42
10.0
 43
10.0
 50
90.0
  0
INSERT
  5
802F
330
8029
100
AcDbEntity
  8
実形
 62
     0
370
    18
100
AcDbBlockReference
  2
_Dot
 10
672.3280192665587
 20
1204.178460662066
 30
0.0
 41
10.0
 42
10.0
 43
10.0
 50
270.0
  0
MTEXT
  5
8030
330
8029
100
AcDbEntity
  8
実形
 62
     0
100
AcDbMText
 10
653.2280192665585
 20
1379.178460662066
 30
0.0
 40
25.0
 41
0.0
 71
     5
 72
     1
  1
350
 11
0.0000000000000001
 21
1.0
 31
0.0
 73
     1
 44
1.0
1001
ACAD
1000
MTEXTBEGIN
1070
    73
1070
     1
1070
    44
1040
1.0
1070
    74
1070
     0
1000
MTEXTEND
  0
POINT
  5
8031
330
8029
100
AcDbEntity
  8
Defpoints
 62
     0
100
AcDbPoint
 10
797.6742997845558
 20
1554.178460662066
 30
0.0
  0
POINT
  5
8032
330
8029
100
AcDbEntity
  8
Defpoints
 62
     0
100
AcDbPoint
 10
802.7945193027008
 20
1204.178460662066
 30
0.0
  0
POINT
  5
8033
330
8029
100
AcDbEntity
  8
Defpoints
 62
     0
100
AcDbPoint
 10
672.3280192665587
 20
1204.178460662066
 30
0.0
  0
ENDBLK
  5
8034
330
8029
100
AcDbEntity
  8
0
 62
     3
100
AcDbBlockEnd
  0
BLOCK
  5
8036
330
8035
100
AcDbEntity
  8
0
 62
     3
100
AcDbBlockBegin
  2
*D59
 70
     1
 10
0.0
 20
0.0
 30
0.0
  3
*D59
  1

  0
LINE
  5
8037
330
8035
100
AcDbEntity
  8
実形
 62
     0
370
    18
100
AcDbLine
 10
764.1539611657317
 20
1659.178460662066
 30
0.0
 11
672.3280192665588
 21
1659.178460662066
 31
0.0
  0
LINE
  5
8038
330
8035
100
AcDbEntity
  8
実形
 62
     0
370
    18
100
AcDbLine
 10
737.2641105192887
 20
1169.178460662066
 30
0.0
 11
672.3280192665587
 21
1169.178460662066
 31
0.0
  0
LINE
  5
8039
330
8035
100
AcDbEntity
  8
実形
 62
     0
370
    18
100
AcDbLine
 10
672.3280192665588
 20
1649.178460662066
 30
0.0
 11
672.3280192665587
 21
1179.178460662066
 31
0.0
  0
MTEXT
  5
803A
330
8035
100
AcDbEntity
  8
実形
 62
     0
100
AcDbMText
 10
650.7280192665586
 20
1682.883538982083
 30
0.0
 40
25.0
 41
0.0
 71
     5
 72
     1
  1
15
 11
0.0000000000000001
 21
1.0
 31
0.0
 73
     1
 44
1.0
1001
ACAD
1000
MTEXTBEGIN
1070
    73
1070
     1
1070
    44
1040
1.0
1070
    74
1070
     0
1000
MTEXTEND
  0
INSERT
  5
803B
330
8035
100
AcDbEntity
  8
実形
 62
     0
370
    18
100
AcDbBlockReference
  2
_Dot
 10
672.3280192665588
 20
1659.178460662066
 30
0.0
 41
10.0
 42
10.0
 43
10.0
 50
90.0
  0
INSERT
  5
803C
330
8035
100
AcDbEntity
  8
実形
 62
     0
370
    18
100
AcDbBlockReference
  2
_Dot
 10
672.3280192665587
 20
1169.178460662066
 30
0.0
 41
10.0
 42
10.0
 43
10.0
 50
270.0
  0
POINT
  5
803D
330
8035
100
AcDbEntity
  8
Defpoints
 62
     0
100
AcDbPoint
 10
829.1539611657317
 20
1659.178460662066
 30
0.0
  0
POINT
  5
803E
330
8035
100
AcDbEntity
  8
Defpoints
 62
     0
100
AcDbPoint
 10
802.2641105192887
 20
1169.178460662066
 30
0.0
  0
POINT
  5
803F
330
8035
100
AcDbEntity
  8
Defpoints
 62
     0
100
AcDbPoint
 10
672.3280192665587
 20
1169.178460662066
 30
0.0
  0
ENDBLK
  5
8040
330
8035
100
AcDbEntity
  8
0
 62
     3
100
AcDbBlockEnd
  0
BLOCK
  5
8042
330
8041
100
AcDbEntity
  8
0
 62
     3
100
AcDbBlockBegin
  2
*D60
 70
     1
 10
0.0
 20
0.0
 30
0.0
  3
*D60
  1

  0
LINE
  5
8043
330
8041
100
AcDbEntity
  8
実形
 62
     0
370
    18
100
AcDbLine
 10
737.7945193027008
 20
1184.178460662066
 30
0.0
 11
672.3280192665587
 21
1184.178460662066
 31
0.0
  0
LINE
  5
8044
330
8041
100
AcDbEntity
  8
実形
 62
     0
370
    18
100
AcDbLine
 10
702.3275276276962
 20
1554.178460662066
 30
0.0
 11
672.3280192665588
 21
1554.178460662066
 31
0.0
  0
LINE
  5
8045
330
8041
100
AcDbEntity
  8
実形
 62
     0
370
    18
100
AcDbLine
 10
672.3280192665587
 20
1194.178460662066
 30
0.0
 11
672.3280192665588
 21
1544.178460662066
 31
0.0
  0
MTEXT
  5
8046
330
8041
100
AcDbEntity
  8
実形
 62
     0
100
AcDbMText
 10
650.745963999092
 20
1217.459715149787
 30
0.0
 40
25.0
 41
0.0
 71
     5
 72
     1
  1
20
 11
0.0000000000000001
 21
1.0
 31
0.0
 73
     1
 44
1.0
1001
ACAD
1000
MTEXTBEGIN
1070
    73
1070
     1
1070
    44
1040
1.0
1070
    74
1070
     0
1000
MTEXTEND
  0
INSERT
  5
8047
330
8041
100
AcDbEntity
  8
実形
 62
     0
370
    18
100
AcDbBlockReference
  2
_Dot
 10
672.3280192665587
 20
1184.178460662066
 30
0.0
 41
10.0
 42
10.0
 43
10.0
 50
270.0
  0
INSERT
  5
8048
330
8041
100
AcDbEntity
  8
実形
 62
     0
370
    18
100
AcDbBlockReference
  2
_Dot
 10
672.3280192665588
 20
1554.178460662066
 30
0.0
 41
10.0
 42
10.0
 43
10.0
 50
90.0
  0
POINT
  5
8049
330
8041
100
AcDbEntity
  8
Defpoints
 62
     0
100
AcDbPoint
 10
802.7945193027008
 20
1184.178460662066
 30
0.0
  0
POINT
  5
804A
330
8041
100
AcDbEntity
  8
Defpoints
 62
     0
100
AcDbPoint
 10
767.3275276276962
 20
1554.178460662066
 30
0.0
  0
POINT
  5
804B
330
8041
100
AcDbEntity
  8
Defpoints
 62
     0
100
AcDbPoint
 10
672.3280192665588
 20
1554.178460662066
 30
0.0
  0
ENDBLK
  5
804C
330
8041
100
AcDbEntity
  8
0
 62
     3
100
AcDbBlockEnd
  0
BLOCK
  5
804E
330
804D
100
AcDbEntity
  8
0
 62
     3
100
AcDbBlockBegin
  2
*D61
 70
     1
 10
0.0
 20
0.0
 30
0.0
  3
*D61
  1

  0
LINE
  5
804F
330
804D
100
AcDbEntity
  8
実形
 62
     0
370
    18
100
AcDbLine
 10
766.726947416073
 20
1644.178460662066
 30
0.0
 11
616.3564627716169
 21
1644.178460662066
 31
0.0
  0
LINE
  5
8050
330
804D
100
AcDbEntity
  8
実形
 62
     0
370
    18
100
AcDbLine
 10
739.8056315785306
 20
1184.178460662066
 30
0.0
 11
616.3564627716168
 21
1184.178460662066
 31
0.0
  0
LINE
  5
8051
330
804D
100
AcDbEntity
  8
実形
 62
     0
370
    18
100
AcDbLine
 10
616.3564627716169
 20
1634.178460662066
 30
0.0
 11
616.3564627716168
 21
1194.178460662066
 31
0.0
  0
INSERT
  5
8052
330
804D
100
AcDbEntity
  8
実形
 62
     0
370
    18
100
AcDbBlockReference
  2
_Dot
 10
616.3564627716169
 20
1644.178460662066
 30
0.0
 41
10.0
 42
10.0
 43
10.0
 50
90.0
  0
INSERT
  5
8053
330
804D
100
AcDbEntity
  8
実形
 62
     0
370
    18
100
AcDbBlockReference
  2
_Dot
 10
616.3564627716168
 20
1184.178460662066
 30
0.0
 41
10.0
 42
10.0
 43
10.0
 50
270.0
  0
MTEXT
  5
8054
330
804D
100
AcDbEntity
  8
実形
 62
     0
100
AcDbMText
 10
597.2564627716167
 20
1414.178460662066
 30
0.0
 40
25.0
 41
0.0
 71
     5
 72
     1
  1
460
 11
0.0000000000000001
 21
1.0
 31
0.0
 73
     1
 44
1.0
1001
ACAD
1000
MTEXTBEGIN
1070
    73
1070
     1
1070
    44
1040
1.0
1070
    74
1070
     0
1000
MTEXTEND
  0
POINT
  5
8055
330
804D
100
AcDbEntity
  8
Defpoints
 62
     0
100
AcDbPoint
 10
831.7269474160729
 20
1644.178460662066
 30
0.0
  0
POINT
  5
8056
330
804D
100
AcDbEntity
  8
Defpoints
 62
     0
100
AcDbPoint
 10
804.8056315785306
 20
1184.178460662066
 30
0.0
  0
POINT
  5
8057
330
804D
100
AcDbEntity
  8
Defpoints
 62
     0
100
AcDbPoint
 10
616.3564627716168
 20
1184.178460662066
 30
0.0
  0
ENDBLK
  5
8058
330
804D
100
AcDbEntity
  8
0
 62
     3
100
AcDbBlockEnd
  0
BLOCK
  5
805A
330
8059
100
AcDbEntity
  8
0
 62
     3
100
AcDbBlockBegin
  2
*D62
 70
     1
 10
0.0
 20
0.0
 30
0.0
  3
*D62
  1

  0
LINE
  5
805B
330
8059
100
AcDbEntity
  8
実形
 62
     0
370
    18
100
AcDbLine
 10
762.7702104998824
 20
1659.178460662066
 30
0.0
 11
556.883501767341
 21
1659.178460662066
 31
0.0
  0
LINE
  5
805C
330
8059
100
AcDbEntity
  8
実形
 62
     0
370
    18
100
AcDbLine
 10
740.8183231977528
 20
1169.178460662066
 30
0.0
 11
556.8835017673409
 21
1169.178460662066
 31
0.0
  0
LINE
  5
805D
330
8059
100
AcDbEntity
  8
実形
 62
     0
370
    18
100
AcDbLine
 10
556.883501767341
 20
1649.178460662066
 30
0.0
 11
556.8835017673409
 21
1179.178460662066
 31
0.0
  0
INSERT
  5
805E
330
8059
100
AcDbEntity
  8
実形
 62
     0
370
    18
100
AcDbBlockReference
  2
_Dot
 10
556.883501767341
 20
1659.178460662066
 30
0.0
 41
10.0
 42
10.0
 43
10.0
 50
90.0
  0
INSERT
  5
805F
330
8059
100
AcDbEntity
  8
実形
 62
     0
370
    18
100
AcDbBlockReference
  2
_Dot
 10
556.8835017673409
 20
1169.178460662066
 30
0.0
 41
10.0
 42
10.0
 43
10.0
 50
270.0
  0
MTEXT
  5
8060
330
8059
100
AcDbEntity
  8
実形
 62
     0
100
AcDbMText
 10
535.2835017673408
 20
1414.178460662066
 30
0.0
 40
30.0
 41
0.0
 71
     5
 72
     1
  1
490
 11
0.0000000000000001
 21
1.0
 31
0.0
 73
     1
 44
1.0
1001
ACAD
1000
MTEXTBEGIN
1070
    73
1070
     1
1070
    44
1040
1.0
1070
    74
1070
     0
1000
MTEXTEND
  0
POINT
  5
8061
330
8059
100
AcDbEntity
  8
Defpoints
 62
     0
100
AcDbPoint
 10
827.7702104998825
 20
1659.178460662066
 30
0.0
  0
POINT
  5
8062
330
8059
100
AcDbEntity
  8
Defpoints
 62
     0
100
AcDbPoint
 10
805.8183231977528
 20
1169.178460662066
 30
0.0
  0
POINT
  5
8063
330
8059
100
AcDbEntity
  8
Defpoints
 62
     0
100
AcDbPoint
 10
556.8835017673409
 20
1169.178460662066
 30
0.0
  0
ENDBLK
  5
8064
330
8059
100
AcDbEntity
  8
0
 62
     3
100
AcDbBlockEnd
  0
BLOCK
  5
8100
330
8065
100
AcDbEntity
  8
0
 62
     3
100
AcDbBlockBegin
  2
RAS800-510GRM
 70
     0
 10
0.0
 20
0.0
 30
0.0
  3
RAS800-510GRM
  1

  0
LINE
  5
8066
330
8065
100
AcDbEntity
  8
枠
 62
     0
100
AcDbLine
 10
174.0
 20
3.99999999999909
 30
0.0
 11
2834.0
 21
3.99999999999909
 31
0.0
  0
LINE
  5
8067
330
8065
100
AcDbEntity
  8
枠
 62
     3
100
AcDbLine
 10
4.0
 20
2024.0
 30
0.0
 11
4.0
 21
4.0
 31
0.0
  0
LINE
  5
8068
330
8065
100
AcDbEntity
  8
枠
 62
     0
100
AcDbLine
 10
2834.0
 20
2023.999999999999
 30
0.0
 11
174.0
 21
2023.999999999999
 31
0.0
  0
LINE
  5
8069
330
8065
100
AcDbEntity
  8
枠
 62
     0
100
AcDbLine
 10
2234.0
 20
133.9999999999991
 30
0.0
 11
2234.0
 21
198.9999999999991
 31
0.0
  0
LINE
  5
806A
330
8065
100
AcDbEntity
  8
枠
 62
     0
100
AcDbLine
 10
1944.0
 20
2023.999999999999
 30
0.0
 11
2834.0
 21
2023.999999999999
 31
0.0
  0
LINE
  5
806B
330
8065
100
AcDbEntity
  8
枠
 62
     0
100
AcDbLine
 10
2114.0
 20
68.99999999999909
 30
0.0
 11
2834.0
 21
68.99999999999909
 31
0.0
  0
LINE
  5
806C
330
8065
100
AcDbEntity
  8
枠
 62
     0
100
AcDbLine
 10
2114.0
 20
198.9999999999991
 30
0.0
 11
2834.0
 21
198.9999999999991
 31
0.0
  0
LINE
  5
806D
330
8065
100
AcDbEntity
  8
枠
 62
     0
100
AcDbLine
 10
2114.0
 20
133.9999999999991
 30
0.0
 11
2834.0
 21
133.9999999999991
 31
0.0
  0
LINE
  5
806E
330
8065
100
AcDbEntity
  8
枠
 62
     0
100
AcDbLine
 10
2114.0
 20
3.99999999999909
 30
0.0
 11
2114.0
 21
198.9999999999991
 31
0.0
  0
TEXT
  5
806F
330
8065
100
AcDbEntity
  8
枠
 62
     0
100
AcDbText
 10
2350.255774665348
 20
16.49999999999908
 30
0.0
 40
40.0
  1
中外交易株式会社
 72
     4
 11
2538.255774665348
 21
36.49999999999909
 31
0.0
100
AcDbText
  0
LINE
  5
8070
330
8065
100
AcDbEntity
  8
枠
 62
     0
100
AcDbLine
 10
2234.0
 20
68.99999999999909
 30
0.0
 11
2834.0
 21
68.99999999999909
 31
0.0
  0
LINE
  5
8071
102
{ACAD_REACTORS
330
807E
102
}
330
8065
100
AcDbEntity
  8
枠
 62
     0
370
     5
100
AcDbLine
 10
2257.843923164362
 20
40.53787547858428
 30
0.0
 11
2233.255774665348
 21
40.53787547858428
 31
0.0
  0
LINE
  5
8072
102
{ACAD_REACTORS
330
807E
102
}
330
8065
100
AcDbEntity
  8
枠
 62
     0
370
     5
100
AcDbLine
 10
2233.255774665348
 20
40.53787547858428
 30
0.0
 11
2233.255774665348
 21
30.53787547858429
 31
0.0
  0
LINE
  5
8073
102
{ACAD_REACTORS
330
807E
102
}
330
8065
100
AcDbEntity
  8
枠
 62
     0
370
     5
100
AcDbLine
 10
2233.255774665348
 20
30.53787547858429
 30
0.0
 11
2257.346428692676
 21
30.53787547858429
 31
0.0
  0
LINE
  5
8074
102
{ACAD_REACTORS
330
807E
102
}
330
8065
100
AcDbEntity
  8
枠
 62
     0
370
     5
100
AcDbLine
 10
2260.641894042939
 20
56.49999999999909
 30
0.0
 11
2260.641894042939
 21
16.49999999999909
 31
0.0
  0
LINE
  5
8075
102
{ACAD_REACTORS
330
807E
102
}
330
8065
100
AcDbEntity
  8
枠
 62
     0
370
     5
100
AcDbLine
 10
2260.641894042939
 20
16.49999999999909
 30
0.0
 11
2295.641894042939
 21
16.49999999999909
 31
0.0
  0
LINE
  5
8076
102
{ACAD_REACTORS
330
807E
102
}
330
8065
100
AcDbEntity
  8
枠
 62
     0
370
     5
100
AcDbLine
 10
2295.641894042939
 20
16.49999999999909
 30
0.0
 11
2260.641894042939
 21
36.49999999999909
 31
0.0
  0
LINE
  5
8077
102
{ACAD_REACTORS
330
807E
102
}
330
8065
100
AcDbEntity
  8
枠
 62
     0
370
     5
100
AcDbLine
 10
2260.641894042939
 20
36.49999999999909
 30
0.0
 11
2295.641894042939
 21
56.49999999999909
 31
0.0
  0
LINE
  5
8078
102
{ACAD_REACTORS
330
807E
102
}
330
8065
100
AcDbEntity
  8
枠
 62
     0
370
     5
100
AcDbLine
 10
2295.641894042939
 20
56.49999999999909
 30
0.0
 11
2260.641894042939
 21
56.49999999999909
 31
0.0
  0
LINE
  5
8079
102
{ACAD_REACTORS
330
807E
102
}
330
8065
100
AcDbEntity
  8
枠
 62
     0
370
     5
100
AcDbLine
 10
2326.75434681301
 20
40.53787547858428
 30
0.0
 11
2302.166198313996
 21
40.53787547858428
 31
0.0
  0
LINE
  5
807A
102
{ACAD_REACTORS
330
807E
102
}
330
8065
100
AcDbEntity
  8
枠
 62
     0
370
     5
100
AcDbLine
 10
2302.166198313996
 20
40.53787547858428
 30
0.0
 11
2302.166198313996
 21
30.53787547858429
 31
0.0
  0
LINE
  5
807B
102
{ACAD_REACTORS
330
807E
102
}
330
8065
100
AcDbEntity
  8
枠
 62
     0
370
     5
100
AcDbLine
 10
2302.166198313996
 20
30.53787547858429
 30
0.0
 11
2326.256852341323
 21
30.53787547858429
 31
0.0
  0
ARC
  5
807C
102
{ACAD_REACTORS
330
807E
102
}
330
8065
100
AcDbEntity
  8
枠
 62
     0
370
     5
100
AcDbCircle
 10
2238.255774665347
 20
36.49999999999909
 30
0.0
 40
20.0
100
AcDbArc
 50
11.64772366708617
 51
342.6561058784773
  0
ARC
  5
807D
102
{ACAD_REACTORS
330
807E
102
}
330
8065
100
AcDbEntity
  8
枠
 62
     0
370
     5
100
AcDbCircle
 10
2307.166198313995
 20
36.49999999999909
 30
0.0
 40
20.0
100
AcDbArc
 50
11.64772366708617
 51
342.6561058784773
  0
HATCH
  5
807E
330
8065
100
AcDbEntity
  8
枠
 62
     0
100
AcDbHatch
 10
0.0
 20
0.0
 30
0.0
210
0.0
220
0.0
230
1.0
  2
SOLID
 70
     1
 71
     1
 91
        3
 92
        1
 93
        4
 72
     2
 10
2307.166198313995
 20
36.49999999999909
 40
20.0
 50
11.64772366708617
 51
342.6561058784773
 73
     1
 72
     1
 10
2326.256852341323
 20
30.53787547858429
 11
2302.166198313996
 21
30.53787547858429
 72
     1
 10
2302.166198313996
 20
30.53787547858429
 11
2302.166198313996
 21
40.53787547858428
 72
     1
 10
2302.166198313996
 20
40.53787547858428
 11
2326.75434681301
 21
40.53787547858428
 97
        4
330
807D
330
807B
330
807A
330
8079
 92
        1
 93
        4
 72
     2
 10
2238.255774665347
 20
36.49999999999909
 40
20.0
 50
11.64772366708617
 51
342.6561058784773
 73
     1
 72
     1
 10
2257.346428692676
 20
30.53787547858429
 11
2233.255774665348
 21
30.53787547858429
 72
     1
 10
2233.255774665348
 20
30.53787547858429
 11
2233.255774665348
 21
40.53787547858428
 72
     1
 10
2233.255774665348
 20
40.53787547858428
 11
2257.843923164362
 21
40.53787547858428
 97
        4
330
807C
330
8073
330
8072
330
8071
 92
        1
 93
        5
 72
     1
 10
2295.641894042939
 20
56.49999999999909
 11
2260.641894042939
 21
56.49999999999909
 72
     1
 10
2260.641894042939
 20
56.49999999999909
 11
2260.641894042939
 21
16.49999999999909
 72
     1
 10
2260.641894042939
 20
16.49999999999909
 11
2295.641894042939
 21
16.49999999999909
 72
     1
 10
2295.641894042939
 20
16.49999999999909
 11
2260.641894042939
 21
36.49999999999909
 72
     1
 10
2260.641894042939
 20
36.49999999999909
 11
2295.641894042939
 21
56.49999999999909
 97
        5
330
8078
330
8074
330
8075
330
8076
330
8077
 75
     0
 76
     1
 98
        1
 10
-10.0
 20
-0.0000000000009095
  0
LINE
  5
807F
330
8065
100
AcDbEntity
  8
枠
 62
     0
100
AcDbLine
 10
2234.0
 20
68.99999999999909
 30
0.0
 11
2234.0
 21
198.9999999999991
 31
0.0
  0
LINE
  5
8080
330
8065
100
AcDbEntity
  8
実形
 62
     1
100
AcDbLine
 10
118.6742333375914
 20
5211.047041924394
 30
0.0
 11
2476.842860629935
 21
5211.047041924394
 31
0.0
  0
TEXT
  5
8081
330
8065
100
AcDbEntity
  8
実形
100
AcDbText
 10
271.4746615155927
 20
60.08511374856698
 30
0.0
 40
30.0
  1
※実寸には製造上の誤差が多少生ずる場合があります。シンクの穴あけ加工は現物合わせにてお願いします。
 72
     4
 11
1141.474661515593
 21
75.08511374856698
 31
0.0
100
AcDbText
  0
TEXT
  5
8082
330
8065
100
AcDbEntity
  8
枠
 62
     0
100
AcDbText
 10
2136.666666666667
 20
83.99999999999909
 30
0.0
 40
35.0
  1
尺度
 72
     4
 11
2174.0
 21
101.4999999999991
 31
0.0
100
AcDbText
  0
TEXT
  5
8083
330
8065
100
AcDbEntity
  8
枠
 62
     0
100
AcDbText
 10
2136.666666666667
 20
148.9999999999991
 30
0.0
 40
35.0
  1
品番
 72
     4
 11
2174.0
 21
166.4999999999991
 31
0.0
100
AcDbText
  0
TEXT
  5
8084
330
8065
100
AcDbEntity
  8
実形
100
AcDbText
 10
2446.588586518341
 20
81.78238670760313
 30
0.0
 40
40.0
  1
1：10
 72
     4
 11
2507.255253185007
 21
101.7823867076031
 31
0.0
100
AcDbText
  0
TEXT
  5
8085
330
8065
100
AcDbEntity
  8
実形
100
AcDbText
 10
2321.533637209673
 20
150.830875284324
 30
0.0
 40
30.0
  1
RAS800-460GRM
 72
     4
 11
2504.033637209673
 21
165.830875284324
 31
0.0
100
AcDbText
  0
LINE
  5
8086
330
8065
100
AcDbEntity
  8
実形
 62
     3
100
AcDbLine
 10
2856.314199910736
 20
2024.000000000001
 30
0.0
 11
2856.314199910736
 21
4.0
 31
0.0
  0
LINE
  5
8087
330
8065
100
AcDbEntity
  8
実形
 62
     0
100
AcDbLine
 10
2844.0
 20
4.0
 30
0.0
 11
2844.0
 21
2024.0
 31
0.0
  0
LINE
  5
8088
330
8065
100
AcDbEntity
  8
実形
 62
     0
100
AcDbLine
 10
2834.0
 20
4.0
 30
0.0
 11
2834.0
 21
2024.0
 31
0.0
  0
LINE
  5
8089
330
8065
100
AcDbEntity
  8
実形
 62
     0
100
AcDbLine
 10
174.0
 20
2024.0
 30
0.0
 11
174.0
 21
4.0
 31
0.0
  0
LINE
  5
808A
330
8065
100
AcDbEntity
  8
実形
100
AcDbLine
 10
827.7702104998825
 20
1659.178460662066
 30
0.0
 11
1657.770210499882
 21
1659.178460662066
 31
0.0
  0
LINE
  5
808B
330
8065
100
AcDbEntity
  8
実形
100
AcDbLine
 10
1657.770210499882
 20
1659.178460662066
 30
0.0
 11
1657.770210499882
 21
1169.178460662066
 31
0.0
  0
LINE
  5
808C
330
8065
100
AcDbEntity
  8
実形
100
AcDbLine
 10
1657.770210499882
 20
1169.178460662066
 30
0.0
 11
827.7702104998825
 21
1169.178460662066
 31
0.0
  0
LINE
  5
808D
330
8065
100
AcDbEntity
  8
実形
100
AcDbLine
 10
827.7702104998825
 20
1169.178460662066
 30
0.0
 11
827.7702104998825
 21
1659.178460662066
 31
0.0
  0
LINE
  5
808E
330
8065
100
AcDbEntity
  8
実形
100
AcDbLine
 10
848.7702104998824
 20
1644.178460662066
 30
0.0
 11
1636.770210499882
 21
1644.178460662066
 31
0.0
  0
LINE
  5
808F
330
8065
100
AcDbEntity
  8
実形
100
AcDbLine
 10
1642.770210499882
 20
1638.178460662065
 30
0.0
 11
1642.770210499882
 21
1190.178460662066
 31
0.0
  0
LINE
  5
8090
330
8065
100
AcDbEntity
  8
実形
100
AcDbLine
 10
1636.770210499882
 20
1184.178460662066
 30
0.0
 11
848.7702104998826
 21
1184.178460662066
 31
0.0
  0
LINE
  5
8091
330
8065
100
AcDbEntity
  8
実形
100
AcDbLine
 10
842.7702104998825
 20
1190.178460662066
 30
0.0
 11
842.7702104998823
 21
1638.178460662066
 31
0.0
  0
LINE
  5
8092
330
8065
100
AcDbEntity
  8
実形
100
AcDbLine
 10
862.7702104998824
 20
1210.178460662066
 30
0.0
 11
862.7702104998821
 21
1548.178460662066
 31
0.0
  0
LINE
  5
8093
330
8065
100
AcDbEntity
  8
実形
100
AcDbLine
 10
1092.770210499882
 20
1624.178460662066
 30
0.0
 11
1392.770210499882
 21
1624.178460662066
 31
0.0
  0
LINE
  5
8094
330
8065
100
AcDbEntity
  8
実形
100
AcDbLine
 10
1622.770210499882
 20
1548.178460662066
 30
0.0
 11
1622.770210499882
 21
1210.178460662066
 31
0.0
  0
LINE
  5
8095
330
8065
100
AcDbEntity
  8
実形
100
AcDbLine
 10
1616.770210499882
 20
1204.178460662066
 30
0.0
 11
868.7702104998823
 21
1204.178460662066
 31
0.0
  0
DIMENSION
  5
8096
330
8065
100
AcDbEntity
  8
実形
100
AcDbDimension
  2
*D34
 10
1622.770210499882
 20
1036.915758957679
 30
0.0
 11
1242.770210499882
 21
1056.015758957679
 31
0.0
 70
    32
 71
     5
 42
759.9999999999997
  3
ISO-25
100
AcDbAlignedDimension
 13
862.7702104998824
 23
1169.178460662066
 33
0.0
 14
1622.770210499882
 24
1169.178460662066
 34
0.0
100
AcDbRotatedDimension
1001
ACAD
1000
DSTYLE
1002
{
1070
    41
1040
10.0
1070
   140
1040
25.0
1070
   147
1040
6.599999999999998
1070
   279
1070
     2
1070
   342
1005
30D
1070
   371
1070
    18
1070
   372
1070
    18
1002
}
  0
DIMENSION
  5
8097
330
8065
100
AcDbEntity
  8
実形
100
AcDbDimension
  2
*D35
 10
1642.770210499882
 20
1036.915758957679
 30
0.0
 11
1589.171363804602
 21
1058.515758957679
 31
0.0
 70
   160
  1
20
 71
     5
 42
799.9999999999998
  3
ISO-25
100
AcDbAlignedDimension
 13
842.7702104998825
 23
1169.178460662066
 33
0.0
 14
1642.770210499882
 24
1169.178460662066
 34
0.0
100
AcDbRotatedDimension
1001
ACAD
1000
DSTYLE
1002
{
1070
    41
1040
10.0
1070
   140
1040
25.0
1070
   147
1040
6.599999999999998
1070
   279
1070
     2
1070
   342
1005
30D
1070
   371
1070
    18
1070
   372
1070
    18
1002
}
  0
TEXT
  5
8098
330
8065
100
AcDbEntity
  8
実形
 48
20.0
100
AcDbText
 10
877.7699109105341
 20
1047.974708017131
 30
0.0
 40
25.0
  1
20
100
AcDbText
  0
DIMENSION
  5
8099
330
8065
100
AcDbEntity
  8
実形
100
AcDbDimension
  2
*D36
 10
1642.770210499882
 20
974.5052716017053
 30
0.0
 11
1242.770210499882
 21
993.6052716017053
 31
0.0
 70
    32
 71
     5
 42
799.9999999999998
  3
ISO-25
100
AcDbAlignedDimension
 13
842.7702104998825
 23
1169.178460662066
 33
0.0
 14
1642.770210499882
 24
1169.178460662066
 34
0.0
100
AcDbRotatedDimension
1001
ACAD
1000
DSTYLE
1002
{
1070
    41
1040
10.0
1070
   140
1040
25.0
1070
   147
1040
6.599999999999998
1070
   279
1070
     2
1070
   342
1005
30D
1070
   371
1070
    18
1070
   372
1070
    18
1002
}
  0
DIMENSION
  5
809A
330
8065
100
AcDbEntity
  8
実形
100
AcDbDimension
  2
*D37
 10
1657.770210499882
 20
974.5052716017053
 30
0.0
 11
1701.559743854428
 21
996.1052716017052
 31
0.0
 70
   160
  1
15
 71
     5
 42
830.0
  3
ISO-25
100
AcDbAlignedDimension
 13
827.7702104998825
 23
1169.178460662066
 33
0.0
 14
1657.770210499882
 24
1169.178460662066
 34
0.0
100
AcDbRotatedDimension
1001
ACAD
1000
DSTYLE
1002
{
1070
    41
1040
10.0
1070
   140
1040
25.0
1070
   147
1040
6.599999999999998
1070
   279
1070
     2
1070
   342
1005
30D
1070
   371
1070
    18
1070
   372
1070
    18
1002
}
  0
TEXT
  5
809B
330
8065
100
AcDbEntity
  8
実形
 48
20.0
100
AcDbText
 10
770.7109889092589
 20
985.3423772939986
 30
0.0
 40
25.0
  1
15
100
AcDbText
  0
DIMENSION
  5
809C
330
8065
100
AcDbEntity
  8
実形
100
AcDbDimension
  2
*D38
 10
1657.770210499882
 20
901.2836911315535
 30
0.0
 11
1242.770210499882
 21
920.3836911315535
 31
0.0
 70
    32
 71
     5
 42
830.0
  3
ISO-25
100
AcDbAlignedDimension
 13
827.7702104998825
 23
1169.178460662066
 33
0.0
 14
1657.770210499882
 24
1169.178460662066
 34
0.0
100
AcDbRotatedDimension
1001
ACAD
1000
DSTYLE
1002
{
1070
    41
1040
10.0
1070
   140
1040
25.0
1070
   147
1040
6.599999999999998
1070
   279
1070
     2
1070
   342
1005
30D
1070
   371
1070
    18
1070
   372
1070
    18
1002
}
  0
LINE
  5
809D
330
8065
100
AcDbEntity
  8
実形
  6
ACAD_ISO08W100
 48
0.5
100
AcDbLine
 10
1384.469907606381
 20
1404.178460662066
 30
0.0
 11
1109.442023008436
 21
1404.178460662066
 31
0.0
  0
CIRCLE
  5
809E
330
8065
100
AcDbEntity
  8
実形
100
AcDbCircle
 10
1242.770210499882
 20
1404.178460662066
 30
0.0
 40
80.0
  0
CIRCLE
  5
809F
330
8065
100
AcDbEntity
  8
実形
100
AcDbCircle
 10
1242.770210499882
 20
1404.178460662066
 30
0.0
 40
90.5
  0
LINE
  5
80A0
330
8065
100
AcDbEntity
  8
実形
100
AcDbLine
 10
862.7702104998824
 20
1659.178460662066
 30
0.0
 11
1012.770210499882
 21
1659.178460662066
 31
0.0
  0
LINE
  5
80A1
330
8065
100
AcDbEntity
  8
実形
 62
     3
100
AcDbLine
 10
917.0693431839136
 20
-152.3860966284574
 30
0.0
 11
1747.069343183913
 21
-152.3860966284574
 31
0.0
  0
LINE
  5
80A2
330
8065
100
AcDbEntity
  8
実形
 62
     3
100
AcDbLine
 10
932.0693431839137
 20
-152.3860966284574
 30
0.0
 11
932.0693431839139
 21
-167.3860966284574
 31
0.0
  0
LINE
  5
80A3
330
8065
100
AcDbEntity
  8
実形
 62
     3
100
AcDbLine
 10
1732.069343183914
 20
-152.3860966284574
 30
0.0
 11
1732.069343183914
 21
-167.3860966284574
 31
0.0
  0
LINE
  5
80A4
330
8065
100
AcDbEntity
  8
実形
 62
     3
100
AcDbLine
 10
932.0693431839139
 20
-167.3860966284574
 30
0.0
 11
1732.069343183914
 21
-167.3860966284574
 31
0.0
  0
LINE
  5
80A5
330
8065
100
AcDbEntity
  8
実形
 62
     3
100
AcDbLine
 10
952.0693431839136
 20
-167.3860966284576
 30
0.0
 11
952.0693431839134
 21
-362.7109739766329
 31
0.0
  0
LINE
  5
80A6
330
8065
100
AcDbEntity
  8
実形
 62
     3
100
AcDbLine
 10
1712.069343183914
 20
-167.3860966284574
 30
0.0
 11
1712.069343183913
 21
-361.5568395436162
 31
0.0
  0
LINE
  5
80A7
330
8065
100
AcDbEntity
  8
実形
 62
     3
100
AcDbLine
 10
1011.569343183913
 20
-382.3860966284574
 30
0.0
 11
1192.569343183913
 21
-382.3860966284574
 31
0.0
  0
LINE
  5
80A8
330
8065
100
AcDbEntity
  8
実形
 62
     3
100
AcDbLine
 10
1011.569343183913
 20
-392.3860966284574
 30
0.0
 11
1192.569343183913
 21
-392.3860966284574
 31
0.0
  0
DIMENSION
  5
80A9
330
8065
100
AcDbEntity
  8
実形
 62
     3
100
AcDbDimension
  2
*D39
 10
797.3710940401324
 20
-367.3860966284573
 30
0.0
 11
778.2710940401325
 21
-267.3860966284572
 31
0.0
 70
    32
 71
     5
 42
200.0
  3
ISO-25
100
AcDbAlignedDimension
 13
917.0693431839135
 23
-167.3860966284574
 33
0.0
 14
917.0693431839133
 24
-367.3860966284574
 34
0.0
 50
90.0
100
AcDbRotatedDimension
1001
ACAD
1000
DSTYLE
1002
{
1070
    41
1040
10.0
1070
   140
1040
25.0
1070
   147
1040
6.599999999999998
1070
   279
1070
     2
1070
   342
1005
30D
1070
   371
1070
    18
1070
   372
1070
    18
1002
}
  0
DIMENSION
  5
80AA
330
8065
100
AcDbEntity
  8
実形
 62
     3
100
AcDbDimension
  2
*D40
 10
797.3710940401324
 20
-382.3860966284573
 30
0.0
 11
775.7710940401323
 21
-176.4675834353729
 31
0.0
 70
   160
  1
15
 71
     5
 42
230.0
  3
ISO-25
100
AcDbAlignedDimension
 13
917.0693431839136
 23
-152.3860966284574
 33
0.0
 14
917.0693431839136
 24
-382.3860966284574
 34
0.0
 50
90.0
100
AcDbRotatedDimension
1001
ACAD
1000
DSTYLE
1002
{
1070
    41
1040
10.0
1070
   140
1040
25.0
1070
   147
1040
6.599999999999998
1070
   279
1070
     2
1070
   342
1005
30D
1070
   371
1070
    18
1070
   372
1070
    18
1002
}
  0
TEXT
  5
80AB
330
8065
100
AcDbEntity
  8
実形
 62
     3
 48
20.0
100
AcDbText
 10
790.6030498610107
 20
-377.9124245682397
 30
0.0
 40
25.0
  1
15
 50
90.0
100
AcDbText
  0
LINE
  5
80AC
330
8065
100
AcDbEntity
  8
実形
 62
     3
100
AcDbLine
 10
797.3710940401324
 20
-382.3860966284574
 30
0.0
 11
797.3710940401326
 21
-392.3860966284574
 31
0.0
  0
DIMENSION
  5
80AD
330
8065
100
AcDbEntity
  8
実形
 62
     3
100
AcDbDimension
  2
*D41
 10
797.3710940401324
 20
-152.3860966284573
 30
0.0
 11
830.355261679284
 21
-411.1966776303161
 31
0.0
 70
   160
  1
8
 71
     5
 42
240.0
  3
ISO-25
100
AcDbAlignedDimension
 13
917.0693431839136
 23
-392.3860966284574
 33
0.0
 14
917.0693431839136
 24
-152.3860966284574
 34
0.0
 50
90.0
100
AcDbRotatedDimension
1001
ACAD
1000
DSTYLE
1002
{
1070
    41
1040
10.0
1070
   140
1040
25.0
1070
   147
1040
6.599999999999998
1070
   279
1070
     2
1070
   342
1005
30D
1070
   371
1070
    18
1070
   372
1070
    18
1002
}
  0
DIMENSION
  5
80AE
330
8065
100
AcDbEntity
  8
実形
 62
     3
100
AcDbDimension
  2
*D42
 10
727.6013470322832
 20
-382.3860966284573
 30
0.0
 11
708.5013470322833
 21
-267.3860966284572
 31
0.0
 70
    32
 71
     5
 42
230.0
  3
ISO-25
100
AcDbAlignedDimension
 13
917.0693431839136
 23
-152.3860966284574
 33
0.0
 14
917.0693431839135
 24
-382.3860966284574
 34
0.0
 50
90.0
100
AcDbRotatedDimension
1001
ACAD
1000
DSTYLE
1002
{
1070
    41
1040
10.0
1070
   140
1040
25.0
1070
   147
1040
6.599999999999998
1070
   279
1070
     2
1070
   342
1005
30D
1070
   371
1070
    18
1070
   372
1070
    18
1002
}
  0
DIMENSION
  5
80AF
330
8065
100
AcDbEntity
  8
実形
 62
     3
100
AcDbDimension
  2
*D43
 10
660.6927293655044
 20
-392.3860966284574
 30
0.0
 11
641.5927293655045
 21
-272.3860966284572
 31
0.0
 70
    32
  1
238
 71
     5
 42
240.0
  3
ISO-25
100
AcDbAlignedDimension
 13
793.6814961412001
 23
-152.3860966284574
 33
0.0
 14
793.6814961411999
 24
-392.3860966284574
 34
0.0
 50
90.0
100
AcDbRotatedDimension
1001
ACAD
1000
DSTYLE
1002
{
1070
    41
1040
10.0
1070
   140
1040
25.0
1070
   147
1040
6.599999999999998
1070
   279
1070
     2
1070
   342
1005
30D
1070
   371
1070
    18
1070
   372
1070
    18
1002
}
  0
TEXT
  5
80B0
330
8065
100
AcDbEntity
  8
実形
100
AcDbText
 10
1509.52663925932
 20
1464.605228875251
 30
0.0
 40
25.0
  1
6R
 72
     2
 11
1551.193305925987
 21
1461.271895541917
 31
0.0
100
AcDbText
 73
     1
  0
LEADER
  5
80B1
330
8065
100
AcDbEntity
  8
実形
100
AcDbLeader
  3
ISO-25
 76
     2
 10
1612.401069036485
 20
1543.199935987015
 30
0.0
 10
1558.344122906441
 20
1494.303693113559
 30
0.0
1001
ACAD
1000
DSTYLE
1002
{
1070
    77
1070
     0
1070
    41
1040
10.0
1070
   140
1040
30.0
1070
   147
1040
6.599999999999998
1070
   279
1070
     2
1070
   342
1005
30D
1070
   371
1070
    18
1070
   372
1070
    18
1002
}
  0
TEXT
  5
80B2
330
8065
100
AcDbEntity
  8
実形
100
AcDbText
 10
1508.340509182852
 20
1215.174767916627
 30
0.0
 40
25.0
  1
6R
 72
     2
 11
1550.007175849518
 21
1211.841434583294
 31
0.0
100
AcDbText
 73
     1
  0
LEADER
  5
80B3
330
8065
100
AcDbEntity
  8
実形
100
AcDbLeader
  3
ISO-25
 76
     2
 10
1633.74014683896
 20
1191.262627398048
 30
0.0
 10
1565.498924722882
 20
1220.187379926308
 30
0.0
1001
ACAD
1000
DSTYLE
1002
{
1070
    77
1070
     0
1070
    41
1040
10.0
1070
   140
1040
30.0
1070
   147
1040
6.599999999999998
1070
   279
1070
     2
1070
   342
1005
30D
1070
   371
1070
    18
1070
   372
1070
    18
1002
}
  0
LINE
  5
80B4
330
8065
100
AcDbEntity
  8
実形
  6
ACAD_ISO08W100
 62
     3
 48
0.5
100
AcDbLine
 10
1102.069343183913
 20
-287.5334204559203
 30
0.0
 11
1102.069343183913
 21
-444.2147007915264
 31
0.0
  0
LINE
  5
80B5
330
8065
100
AcDbEntity
  8
実形
 62
     3
100
AcDbLine
 10
1011.569343183913
 20
-382.3860966284574
 30
0.0
 11
1011.569343183913
 21
-392.3860966284574
 31
0.0
  0
LINE
  5
80B6
330
8065
100
AcDbEntity
  8
実形
 62
     3
100
AcDbLine
 10
1192.569343183913
 20
-382.3860966284574
 30
0.0
 11
1192.569343183913
 21
-392.3860966284574
 31
0.0
  0
LINE
  5
80B7
330
8065
100
AcDbEntity
  8
実形
 62
     3
100
AcDbLine
 10
1011.569343183913
 20
-382.3860966284574
 30
0.0
 11
956.6026286319571
 21
-368.528941699393
 31
0.0
  0
ARC
  5
80B8
330
8065
100
AcDbEntity
  8
実形
 62
     3
100
AcDbCircle
 10
958.0693431839135
 20
-362.7109739766327
 30
0.0
 40
6.0
100
AcDbArc
 50
180.0
 51
255.8505239136548
  0
LINE
  5
80B9
330
8065
100
AcDbEntity
  8
実形
 62
     3
100
AcDbLine
 10
1192.569343183913
 20
-382.3860966284574
 30
0.0
 11
1706.242514515584
 21
-367.5543399971291
 31
0.0
  0
ARC
  5
80BA
330
8065
100
AcDbEntity
  8
実形
 62
     3
100
AcDbCircle
 10
1706.069343183914
 20
-361.5568395436162
 30
0.0
 40
6.0
100
AcDbArc
 50
271.6538940784474
 51
360.0
  0
DIMENSION
  5
80BB
330
8065
100
AcDbEntity
  8
実形
 62
     3
100
AcDbDimension
  2
*D44
 10
1182.069343183914
 20
-509.3026951643151
 30
0.0
 11
1102.069343183913
 21
-490.202695164315
 31
0.0
 70
    32
 71
     5
 42
160.0000000000002
  3
ISO-25
100
AcDbAlignedDimension
 13
1022.069343183913
 23
-392.3860966284575
 33
0.0
 14
1182.069343183914
 24
-392.3860966284575
 34
0.0
100
AcDbRotatedDimension
1001
ACAD
1000
DSTYLE
1002
{
1070
    41
1040
10.0
1070
   140
1040
25.0
1070
   147
1040
6.599999999999998
1070
   279
1070
     2
1070
   342
1005
30D
1070
   371
1070
    18
1070
   372
1070
    18
1002
}
  0
DIMENSION
  5
80BC
330
8065
100
AcDbEntity
  8
実形
 62
     3
100
AcDbDimension
  2
*D45
 10
1192.569343183913
 20
-580.5449919795919
 30
0.0
 11
1102.069343183913
 21
-561.4449919795919
 31
0.0
 70
    32
 71
     5
 42
180.9999999999995
  3
ISO-25
100
AcDbAlignedDimension
 13
1011.569343183913
 23
-392.3860966284575
 33
0.0
 14
1192.569343183913
 24
-392.3860966284617
 34
0.0
100
AcDbRotatedDimension
1001
ACAD
1000
DSTYLE
1002
{
1070
    41
1040
10.0
1070
   140
1040
25.0
1070
   147
1040
6.599999999999998
1070
   279
1070
     2
1070
   342
1005
30D
1070
   371
1070
    18
1070
   372
1070
    18
1002
}
  0
ARC
  5
80BD
330
8065
100
AcDbEntity
  8
実形
 62
     3
100
AcDbCircle
 10
1706.069343183913
 20
-361.5568395436162
 30
0.0
 40
6.0
100
AcDbArc
 50
271.6538940784474
 51
360.0
  0
ARC
  5
80BE
330
8065
100
AcDbEntity
  8
実形
 62
     3
100
AcDbCircle
 10
958.0693431839135
 20
-362.7109739766329
 30
0.0
 40
6.0
100
AcDbArc
 50
180.0
 51
255.8505239136549
  0
TEXT
  5
80BF
330
8065
100
AcDbEntity
  8
実形
 62
     3
100
AcDbText
 10
1042.683555881774
 20
-304.5623972451655
 30
0.0
 40
25.0
  1
6R
 72
     2
 11
1084.350222548441
 21
-307.8957305784988
 31
0.0
100
AcDbText
 73
     1
  0
TEXT
  5
80C0
330
8065
100
AcDbEntity
  8
実形
 62
     3
100
AcDbText
 10
1595.621696234116
 20
-306.4700963227503
 30
0.0
 40
25.0
  1
6R
 72
     2
 11
1637.288362900783
 21
-309.8034296560836
 31
0.0
100
AcDbText
 73
     1
  0
LEADER
  5
80C1
330
8065
100
AcDbEntity
  8
実形
 62
     3
100
AcDbLeader
  3
ISO-25
 76
     2
 10
965.4503650180505
 20
-356.9510230277229
 30
0.0
 10
1027.920188021731
 20
-309.3670608013253
 30
0.0
1001
ACAD
1000
DSTYLE
1002
{
1070
    77
1070
     0
1070
    41
1040
10.0
1070
   140
1040
30.0
1070
   147
1040
6.599999999999998
1070
   279
1070
     2
1070
   342
1005
30D
1070
   371
1070
    18
1070
   372
1070
    18
1002
}
  0
ARC
  5
80C2
330
8065
100
AcDbEntity
  8
実形
100
AcDbCircle
 10
1636.770210499882
 20
1638.178460662065
 30
0.0
 40
6.0
100
AcDbArc
 50
0.0
 51
90.0
  0
ARC
  5
80C3
330
8065
100
AcDbEntity
  8
実形
100
AcDbCircle
 10
1616.770210499882
 20
1210.178460662066
 30
0.0
 40
6.0
100
AcDbArc
 50
270.0
 51
0.0
  0
ARC
  5
80C4
330
8065
100
AcDbEntity
  8
実形
100
AcDbCircle
 10
1636.770210499882
 20
1190.178460662066
 30
0.0
 40
6.0
100
AcDbArc
 50
270.0
 51
0.0
  0
ARC
  5
80C5
330
8065
100
AcDbEntity
  8
実形
100
AcDbCircle
 10
848.7702104998824
 20
1638.178460662066
 30
0.0
 40
6.0
100
AcDbArc
 50
89.99999999999998
 51
180.0
  0
ARC
  5
80C6
330
8065
100
AcDbEntity
  8
実形
100
AcDbCircle
 10
868.7702104998823
 20
1210.178460662066
 30
0.0
 40
6.0
100
AcDbArc
 50
180.0
 51
270.0
  0
ARC
  5
80C7
330
8065
100
AcDbEntity
  8
実形
100
AcDbCircle
 10
848.7702104998826
 20
1190.178460662066
 30
0.0
 40
6.0
100
AcDbArc
 50
180.0
 51
270.0
  0
LEADER
  5
80C8
330
8065
100
AcDbEntity
  8
実形
 62
     3
100
AcDbLeader
  3
ISO-25
 76
     2
 10
1698.688321349777
 20
-356.9510230277229
 30
0.0
 10
1650.738809508872
 20
-308.106533025717
 30
0.0
211
-1.0
221
0.0
231
0.0
1001
ACAD
1000
DSTYLE
1002
{
1070
    77
1070
     0
1070
    41
1040
10.0
1070
   140
1040
30.0
1070
   147
1040
6.599999999999998
1070
   279
1070
     2
1070
   342
1005
30D
1070
   371
1070
    18
1070
   372
1070
    18
1002
}
  0
LINE
  5
80C9
330
8065
100
AcDbEntity
  8
実形
 62
     0
100
AcDbLine
 10
2114.0
 20
263.9999999999991
 30
0.0
 11
2834.0
 21
263.9999999999991
 31
0.0
  0
LINE
  5
80CA
330
8065
100
AcDbEntity
  8
実形
 62
     0
100
AcDbLine
 10
2114.0
 20
3.99999999999909
 30
0.0
 11
2114.0
 21
263.9999999999991
 31
0.0
  0
LINE
  5
80CB
330
8065
100
AcDbEntity
  8
実形
 62
     0
100
AcDbLine
 10
2234.0
 20
68.99999999999909
 30
0.0
 11
2234.0
 21
263.9999999999992
 31
0.0
  0
TEXT
  5
80CC
330
8065
100
AcDbEntity
  8
枠
 62
     0
100
AcDbText
 10
2137.833333333333
 20
213.9999999999991
 30
0.0
 40
35.0
  1
品名
 72
     4
 11
2174.0
 21
231.4999999999991
 31
0.0
100
AcDbText
  0
TEXT
  5
80CD
330
8065
100
AcDbEntity
  8
実形
100
AcDbText
 10
2323.374698073251
 20
213.2308752843241
 30
0.0
 40
35.0
  1
ｱﾝﾀﾞｰｼﾝｸ
  7
ms明朝
 72
     4
 11
2425.774698073251
 21
230.8308752843241
 31
0.0
100
AcDbText
  0
LINE
  5
80CE
330
8065
100
AcDbEntity
  8
枠
100
AcDbLine
 10
2834.0
 20
1958.999999999999
 30
0.0
 11
2114.0
 21
1958.999999999999
 31
0.0
  0
LINE
  5
80CF
330
8065
100
AcDbEntity
  8
枠
100
AcDbLine
 10
2834.0
 20
1893.999999999998
 30
0.0
 11
2114.0
 21
1893.999999999998
 31
0.0
  0
LINE
  5
80D0
330
8065
100
AcDbEntity
  8
枠
100
AcDbLine
 10
2114.0
 20
1893.999999999998
 30
0.0
 11
2114.0
 21
2023.999999999999
 31
0.0
  0
TEXT
  5
80D1
330
8065
100
AcDbEntity
  8
枠
100
AcDbText
 10
2671.5
 20
1976.499999999999
 30
0.0
 40
30.0
  1
仕上げ
 72
     4
 11
2721.5
 21
1991.499999999999
 31
0.0
100
AcDbText
  0
LINE
  5
80D2
330
8065
100
AcDbEntity
  8
枠
100
AcDbLine
 10
2592.81684247519
 20
1893.999999999998
 30
0.0
 11
2592.81684247519
 21
2023.999999999999
 31
0.0
  0
LINE
  5
80D3
330
8065
100
AcDbEntity
  8
枠
100
AcDbLine
 10
2367.816842475189
 20
1893.999999999998
 30
0.0
 11
2367.816842475189
 21
2023.999999999999
 31
0.0
  0
TEXT
  5
80D4
330
8065
100
AcDbEntity
  8
実形
100
AcDbText
 10
2641.5
 20
1911.5
 30
0.0
 40
30.0
  1
HL仕上げ
 72
     4
 11
2721.5
 21
1926.5
 31
0.0
100
AcDbText
  0
TEXT
  5
80D5
330
8065
100
AcDbEntity
  8
枠
100
AcDbText
 10
2194.5
 20
1976.499999999999
 30
0.0
 40
30.0
  1
材質
 72
     4
 11
2226.5
 21
1991.499999999999
 31
0.0
100
AcDbText
  0
TEXT
  5
80D6
330
8065
100
AcDbEntity
  8
実形
100
AcDbText
 10
2150.567741091872
 20
1909.802712155305
 30
0.0
 40
30.0
  1
SUS304
 72
     4
 11
2233.067741091872
 21
1924.802712155305
 31
0.0
100
AcDbText
  0
TEXT
  5
80D7
330
8065
100
AcDbEntity
  8
枠
100
AcDbText
 10
2445.771452399255
 20
1977.499999999999
 30
0.0
 40
30.0
  1
厚み
 72
     4
 11
2476.771452399255
 21
1991.499999999999
 31
0.0
100
AcDbText
  0
TEXT
  5
80D8
330
8065
100
AcDbEntity
  8
実形
100
AcDbText
 10
2418.271452399255
 20
1911.5
 30
0.0
 40
30.0
  1
1.0ｍｍ
 72
     4
 11
2476.771452399255
 21
1926.5
 31
0.0
100
AcDbText
  0
LINE
  5
80D9
330
8065
100
AcDbEntity
  8
実形
100
AcDbLine
 10
868.770210499882
 20
1554.178460662066
 30
0.0
 11
1092.770210499882
 21
1554.178460662066
 31
0.0
  0
DIMENSION
  5
80DA
330
8065
100
AcDbEntity
  8
実形
100
AcDbDimension
  2
*D46
 10
1043.456345948539
 20
1404.178460662066
 30
0.0
 11
1021.856345948539
 21
1479.178460662066
 31
0.0
 70
    32
 71
     5
 42
150.0000000000002
  3
ISO-25
100
AcDbAlignedDimension
 13
1159.538117598124
 23
1554.178460662066
 33
0.0
 14
1156.209930106677
 24
1404.178460662066
 34
0.0
 50
90.0
100
AcDbRotatedDimension
1001
ACAD
1000
DSTYLE
1002
{
1070
    41
1040
10.0
1070
   140
1040
30.0
1070
   147
1040
6.599999999999998
1070
   279
1070
     2
1070
   342
1005
30D
1070
   371
1070
    18
1070
   372
1070
    18
1002
}
  0
DIMENSION
  5
80DB
330
8065
100
AcDbEntity
  8
実形
100
AcDbDimension
  2
*D47
 10
1622.770210499882
 20
1270.994834284402
 30
0.0
 11
1432.770210499882
 21
1292.594834284402
 31
0.0
 70
    32
 71
     5
 42
380.0
  3
ISO-25
100
AcDbAlignedDimension
 13
1242.770210499882
 23
1365.740901717254
 33
0.0
 14
1622.770210499882
 24
1365.740901717254
 34
0.0
100
AcDbRotatedDimension
1001
ACAD
1000
DSTYLE
1002
{
1070
    41
1040
10.0
1070
   140
1040
30.0
1070
   147
1040
6.599999999999998
1070
   279
1070
     2
1070
   342
1005
30D
1070
   371
1070
    18
1070
   372
1070
    18
1002
}
  0
LINE
  5
80DC
330
8065
100
AcDbEntity
  8
実形
100
AcDbLine
 10
1092.770210499882
 20
1554.178460662066
 30
0.0
 11
1092.770210499882
 21
1624.178460662066
 31
0.0
  0
LINE
  5
80DD
330
8065
100
AcDbEntity
  8
実形
100
AcDbLine
 10
1392.770210499882
 20
1554.178460662066
 30
0.0
 11
1392.770210499882
 21
1624.178460662066
 31
0.0
  0
DIMENSION
  5
80DE
330
8065
100
AcDbEntity
  8
実形
100
AcDbDimension
  2
*D48
 10
1092.770210499882
 20
1735.385472702717
 30
0.0
 11
967.7702104998825
 21
1754.485472702717
 31
0.0
 70
    32
 71
     5
 42
250.0000000000001
  3
ISO-25
100
AcDbAlignedDimension
 13
842.7702104998823
 23
1624.178460662066
 33
0.0
 14
1092.770210499882
 24
1624.178460662066
 34
0.0
100
AcDbRotatedDimension
1001
ACAD
1000
DSTYLE
1002
{
1070
    41
1040
10.0
1070
   140
1040
25.0
1070
   147
1040
6.599999999999998
1070
   279
1070
     2
1070
   342
1005
30D
1070
   371
1070
    18
1070
   372
1070
    18
1002
}
  0
DIMENSION
  5
80DF
330
8065
100
AcDbEntity
  8
実形
100
AcDbDimension
  2
*D49
 10
1392.770210499882
 20
1735.385472702717
 30
0.0
 11
1242.770210499882
 21
1754.485472702717
 31
0.0
 70
    32
 71
     5
 42
300.0
  3
ISO-25
100
AcDbAlignedDimension
 13
1092.770210499882
 23
1624.178460662066
 33
0.0
 14
1392.770210499882
 24
1624.178460662066
 34
0.0
100
AcDbRotatedDimension
1001
ACAD
1000
DSTYLE
1002
{
1070
    41
1040
10.0
1070
   140
1040
25.0
1070
   147
1040
6.599999999999998
1070
   279
1070
     2
1070
   342
1005
30D
1070
   371
1070
    18
1070
   372
1070
    18
1002
}
  0
DIMENSION
  5
80E0
330
8065
100
AcDbEntity
  8
実形
100
AcDbDimension
  2
*D50
 10
1642.770210499882
 20
1735.385472702717
 30
0.0
 11
1517.770210499882
 21
1754.485472702717
 31
0.0
 70
    32
 71
     5
 42
249.9999999999998
  3
ISO-25
100
AcDbAlignedDimension
 13
1392.770210499883
 23
1624.178460662065
 33
0.0
 14
1642.770210499882
 24
1624.178460662065
 34
0.0
100
AcDbRotatedDimension
1001
ACAD
1000
DSTYLE
1002
{
1070
    41
1040
10.0
1070
   140
1040
25.0
1070
   147
1040
6.599999999999998
1070
   279
1070
     2
1070
   342
1005
30D
1070
   371
1070
    18
1070
   372
1070
    18
1002
}
  0
DIMENSION
  5
80E1
330
8065
100
AcDbEntity
  8
実形
100
AcDbDimension
  2
*D51
 10
1657.770210499882
 20
1735.385472702717
 30
0.0
 11
826.3182245476109
 21
1760.370517377699
 31
0.0
 70
   160
  1
15
 71
     5
 42
830.0
  3
ISO-25
100
AcDbAlignedDimension
 13
827.7702104998825
 23
1624.806458158204
 33
0.0
 14
1657.770210499882
 24
1624.161761419618
 34
0.0
100
AcDbRotatedDimension
1001
ACAD
1000
DSTYLE
1002
{
1070
    41
1040
10.0
1070
   140
1040
25.0
1070
   147
1040
6.599999999999998
1070
   279
1070
     2
1070
   342
1005
30D
1070
   371
1070
    18
1070
   372
1070
    18
1002
}
  0
TEXT
  5
80E2
330
8065
100
AcDbEntity
  8
実形
 48
20.0
100
AcDbText
 10
1644.285264478984
 20
1745.579848299247
 30
0.0
 40
25.0
  1
15
100
AcDbText
  0
DIMENSION
  5
80E3
330
8065
100
AcDbEntity
  8
実形
100
AcDbDimension
  2
*D52
 10
1771.093547640548
 20
1184.178460662066
 30
0.0
 11
1751.993547640548
 21
1414.178460662066
 31
0.0
 70
    32
 71
     5
 42
459.9999999999997
  3
ISO-25
100
AcDbAlignedDimension
 13
1657.770210499882
 23
1644.178460662066
 33
0.0
 14
1657.770210499883
 24
1184.178460662066
 34
0.0
 50
90.0
100
AcDbRotatedDimension
1001
ACAD
1000
DSTYLE
1002
{
1070
    41
1040
10.0
1070
   140
1040
25.0
1070
   147
1040
6.599999999999998
1070
   279
1070
     2
1070
   342
1005
30D
1070
   371
1070
    18
1070
   372
1070
    18
1002
}
  0
DIMENSION
  5
80E4
330
8065
100
AcDbEntity
  8
実形
100
AcDbDimension
  2
*D53
 10
1771.093547640548
 20
1169.178460662066
 30
0.0
 11
1749.493547640548
 21
1688.725599288342
 31
0.0
 70
   160
  1
15
 71
     5
 42
490.0
  3
ISO-25
100
AcDbAlignedDimension
 13
1657.770210499882
 23
1659.178460662066
 33
0.0
 14
1657.770210499882
 24
1169.178460662066
 34
0.0
 50
90.0
100
AcDbRotatedDimension
1001
ACAD
1000
DSTYLE
1002
{
1070
    41
1040
10.0
1070
   140
1040
25.0
1070
   147
1040
6.599999999999998
1070
   279
1070
     2
1070
   342
1005
30D
1070
   371
1070
    18
1070
   372
1070
    18
1002
}
  0
TEXT
  5
80E5
330
8065
100
AcDbEntity
  8
実形
 48
20.0
100
AcDbText
 10
1763.371050332344
 20
1117.528641274333
 30
0.0
 40
25.0
  1
15
 50
90.0
100
AcDbText
  0
DIMENSION
  5
80E6
330
8065
100
AcDbEntity
  8
実形
100
AcDbDimension
  2
*D54
 10
1833.118375451033
 20
1169.178460662066
 30
0.0
 11
1814.018375451033
 21
1414.178460662066
 31
0.0
 70
    32
 71
     5
 42
490.0
  3
ISO-25
100
AcDbAlignedDimension
 13
1657.770210499882
 23
1659.178460662066
 33
0.0
 14
1657.770210499882
 24
1169.178460662066
 34
0.0
 50
90.0
100
AcDbRotatedDimension
1001
ACAD
1000
DSTYLE
1002
{
1070
    41
1040
10.0
1070
   140
1040
25.0
1070
   147
1040
6.599999999999998
1070
   279
1070
     2
1070
   342
1005
30D
1070
   371
1070
    18
1070
   372
1070
    18
1002
}
  0
LINE
  5
80E7
330
8065
100
AcDbEntity
  8
実形
100
AcDbLine
 10
773.3275276276962
 20
1644.178460662066
 30
0.0
 11
738.1482502386061
 21
1644.178460662066
 31
0.0
  0
LINE
  5
80E8
330
8065
100
AcDbEntity
  8
実形
100
AcDbLine
 10
738.1482502386061
 20
1644.178460662066
 30
0.0
 11
738.1482502386061
 21
1624.178460662066
 31
0.0
  0
LINE
  5
80E9
330
8065
100
AcDbEntity
  8
実形
100
AcDbLine
 10
738.1482502386061
 20
1624.178460662066
 30
0.0
 11
773.3275276276963
 21
1624.178460662066
 31
0.0
  0
DIMENSION
  5
80EA
330
8065
100
AcDbEntity
  8
実形
100
AcDbDimension
  2
*D55
 10
738.1482502386061
 20
1644.178460662066
 30
0.0
 11
715.569680847846
 21
1589.259853472391
 31
0.0
 70
   160
  1
70
 71
     5
 42
89.99999999999955
  3
ISO-25
100
AcDbAlignedDimension
 13
832.3275276276962
 23
1554.178460662066
 33
0.0
 14
832.3275276276962
 24
1644.178460662066
 34
0.0
 50
90.0
100
AcDbRotatedDimension
1001
ACAD
1000
DSTYLE
1002
{
1070
    41
1040
10.0
1070
   140
1040
25.0
1070
   147
1040
6.599999999999998
1070
   279
1070
     2
1070
   342
1005
30D
1070
   371
1070
    18
1070
   372
1070
    18
1002
}
  0
DIMENSION
  5
80EB
330
8065
100
AcDbEntity
  8
実形
100
AcDbDimension
  2
*D56
 10
738.1482502386061
 20
1624.178460662066
 30
0.0
 11
801.3626707265066
 21
1625.22842009638
 31
0.0
 70
   160
  1
20
 71
     5
 42
69.99999999999977
  3
ISO-25
100
AcDbAlignedDimension
 13
832.3275276276962
 23
1554.178460662066
 33
0.0
 14
838.3275276276963
 24
1624.178460662066
 34
0.0
 50
90.0
100
AcDbRotatedDimension
1001
ACAD
1000
DSTYLE
1002
{
1070
    41
1040
10.0
1070
   140
1040
25.0
1070
   147
1040
6.599999999999998
1070
   279
1070
     2
1070
   342
1005
30D
1070
   371
1070
    18
1070
   372
1070
    18
1002
}
  0
TEXT
  5
80EC
330
8065
100
AcDbEntity
  8
実形
 48
20.0
100
AcDbText
 10
797.0821669850392
 20
2333.361271294907
 30
0.0
 40
8.0
  1
●
 50
90.0
100
AcDbText
  0
DIMENSION
  5
80ED
330
8065
100
AcDbEntity
  8
実形
100
AcDbDimension
  2
*D57
 10
672.3280192665588
 20
1554.178460662066
 30
0.0
 11
653.2280192665585
 21
1599.178460662066
 31
0.0
 70
    32
 71
     5
 42
89.99999999999955
  3
ISO-25
100
AcDbAlignedDimension
 13
800.771238858355
 23
1644.178460662066
 33
0.0
 14
779.7500916428215
 24
1554.178460662066
 34
0.0
 50
90.0
100
AcDbRotatedDimension
1001
ACAD
1000
DSTYLE
1002
{
1070
    41
1040
10.0
1070
   140
1040
25.0
1070
   147
1040
6.599999999999998
1070
   279
1070
     2
1070
   342
1005
30D
1070
   371
1070
    18
1070
   372
1070
    18
1002
}
  0
DIMENSION
  5
80EE
330
8065
100
AcDbEntity
  8
実形
100
AcDbDimension
  2
*D58
 10
672.3280192665587
 20
1204.178460662066
 30
0.0
 11
653.2280192665585
 21
1379.178460662066
 31
0.0
 70
    32
 71
     5
 42
350.0000000000004
  3
ISO-25
100
AcDbAlignedDimension
 13
797.6742997845558
 23
1554.178460662066
 33
0.0
 14
802.7945193027008
 24
1204.178460662066
 34
0.0
 50
90.0
100
AcDbRotatedDimension
1001
ACAD
1000
DSTYLE
1002
{
1070
    41
1040
10.0
1070
   140
1040
25.0
1070
   147
1040
6.599999999999998
1070
   279
1070
     2
1070
   342
1005
30D
1070
   371
1070
    18
1070
   372
1070
    18
1002
}
  0
DIMENSION
  5
80EF
330
8065
100
AcDbEntity
  8
実形
100
AcDbDimension
  2
*D59
 10
672.3280192665587
 20
1169.178460662066
 30
0.0
 11
650.7280192665586
 21
1682.883538982083
 31
0.0
 70
   160
  1
15
 71
     5
 42
490.0
  3
ISO-25
100
AcDbAlignedDimension
 13
829.1539611657317
 23
1659.178460662066
 33
0.0
 14
802.2641105192887
 24
1169.178460662066
 34
0.0
 50
90.0
100
AcDbRotatedDimension
1001
ACAD
1000
DSTYLE
1002
{
1070
    41
1040
10.0
1070
   140
1040
25.0
1070
   147
1040
6.599999999999998
1070
   279
1070
     2
1070
   342
1005
30D
1070
   371
1070
    18
1070
   372
1070
    18
1002
}
  0
DIMENSION
  5
80F0
330
8065
100
AcDbEntity
  8
実形
100
AcDbDimension
  2
*D60
 10
672.3280192665588
 20
1554.178460662066
 30
0.0
 11
650.745963999092
 21
1217.459715149787
 31
0.0
 70
   160
  1
20
 71
     5
 42
370.0000000000005
  3
ISO-25
100
AcDbAlignedDimension
 13
802.7945193027008
 23
1184.178460662066
 33
0.0
 14
767.3275276276962
 24
1554.178460662066
 34
0.0
 50
90.0
100
AcDbRotatedDimension
1001
ACAD
1000
DSTYLE
1002
{
1070
    41
1040
10.0
1070
   140
1040
25.0
1070
   147
1040
6.599999999999998
1070
   279
1070
     2
1070
   342
1005
30D
1070
   371
1070
    18
1070
   372
1070
    18
1002
}
  0
TEXT
  5
80F1
330
8065
100
AcDbEntity
  8
実形
 48
20.0
100
AcDbText
 10
662.9803565113634
 20
1130.061801922893
 30
0.0
 40
25.0
  1
15
 50
90.0
100
AcDbText
  0
DIMENSION
  5
80F2
330
8065
100
AcDbEntity
  8
実形
100
AcDbDimension
  2
*D61
 10
616.3564627716168
 20
1184.178460662066
 30
0.0
 11
597.2564627716167
 21
1414.178460662066
 31
0.0
 70
    32
 71
     5
 42
460.0
  3
ISO-25
100
AcDbAlignedDimension
 13
831.7269474160729
 23
1644.178460662066
 33
0.0
 14
804.8056315785306
 24
1184.178460662066
 34
0.0
 50
90.0
100
AcDbRotatedDimension
1001
ACAD
1000
DSTYLE
1002
{
1070
    41
1040
10.0
1070
   140
1040
25.0
1070
   147
1040
6.599999999999998
1070
   279
1070
     2
1070
   342
1005
30D
1070
   371
1070
    18
1070
   372
1070
    18
1002
}
  0
DIMENSION
  5
80F3
330
8065
100
AcDbEntity
  8
実形
100
AcDbDimension
  2
*D62
 10
556.8835017673409
 20
1169.178460662066
 30
0.0
 11
535.2835017673408
 21
1414.178460662066
 31
0.0
 70
    32
 71
     5
 42
490.0
  3
ISO-25
100
AcDbAlignedDimension
 13
827.7702104998825
 23
1659.178460662066
 33
0.0
 14
805.8183231977528
 24
1169.178460662066
 34
0.0
 50
90.0
100
AcDbRotatedDimension
1001
ACAD
1000
DSTYLE
1002
{
1070
    41
1040
10.0
1070
   140
1040
30.0
1070
   147
1040
6.599999999999998
1070
   279
1070
     2
1070
   342
1005
30D
1070
   371
1070
    18
1070
   372
1070
    18
1002
}
  0
LINE
  5
80F4
330
8065
100
AcDbEntity
  8
実形
100
AcDbLine
 10
1392.770210499882
 20
1554.178460662066
 30
0.0
 11
1616.770210499882
 21
1554.178460662066
 31
0.0
  0
ARC
  5
80F5
330
8065
100
AcDbEntity
  8
実形
100
AcDbCircle
 10
868.770210499882
 20
1548.178460662066
 30
0.0
 40
6.0
100
AcDbArc
 50
89.99999999999994
 51
180.0
  0
ARC
  5
80F6
330
8065
100
AcDbEntity
  8
実形
100
AcDbCircle
 10
1616.770210499882
 20
1548.178460662066
 30
0.0
 40
6.0
100
AcDbArc
 50
0.0
 51
89.99999999999994
  0
LINE
  5
80F7
330
8065
100
AcDbEntity
  8
実形
  6
ACAD_ISO08W100
 48
0.5
100
AcDbLine
 10
1242.770210499882
 20
1300.740901717254
 30
0.0
 11
1242.770210499882
 21
1599.683968216935
 31
0.0
  0
ENDBLK
  5
8101
330
8065
100
AcDbEntity
  8
0
 62
     3
100
AcDbBlockEnd
  0
BLOCK
  5
8286
330
827C
100
AcDbEntity
  8
0
 62
     3
100
AcDbBlockBegin
  2
*D64
 70
     1
 10
0.0
 20
0.0
 30
0.0
  3
*D64
  1

  0
LINE
  5
8E16
330
827C
100
AcDbEntity
  8
実形
 62
     0
370
    18
100
AcDbLine
 10
2297.800839299685
 20
1384.178460662066
 30
0.0
 11
2349.717437835543
 21
1384.178460662066
 31
0.0
  0
LINE
  5
8E17
330
827C
100
AcDbEntity
  8
実形
 62
     0
370
    18
100
AcDbLine
 10
2297.800839299685
 20
1544.178460662066
 30
0.0
 11
2349.717437835543
 21
1544.178460662066
 31
0.0
  0
LINE
  5
8E18
330
827C
100
AcDbEntity
  8
実形
 62
     0
370
    18
100
AcDbLine
 10
2349.717437835543
 20
1394.178460662066
 30
0.0
 11
2349.717437835543
 21
1534.178460662066
 31
0.0
  0
INSERT
  5
8E19
330
827C
100
AcDbEntity
  8
実形
 62
     0
370
    18
100
AcDbBlockReference
  2
_Dot
 10
2349.717437835543
 20
1384.178460662066
 30
0.0
 41
10.0
 42
10.0
 43
10.0
 50
270.0
  0
INSERT
  5
8E1A
330
827C
100
AcDbEntity
  8
実形
 62
     0
370
    18
100
AcDbBlockReference
  2
_Dot
 10
2349.717437835543
 20
1544.178460662066
 30
0.0
 41
10.0
 42
10.0
 43
10.0
 50
90.0
  0
MTEXT
  5
8E1B
330
827C
100
AcDbEntity
  8
実形
 62
     0
100
AcDbMText
 10
2330.617437835543
 20
1464.178460662066
 30
0.0
 40
25.0
 41
0.0
 71
     5
 72
     1
  1
160
 11
0.0000000000000001
 21
1.0
 31
0.0
 73
     1
 44
1.0
1001
ACAD
1000
MTEXTBEGIN
1070
    73
1070
     1
1070
    44
1040
1.0
1070
    74
1070
     0
1000
MTEXTEND
  0
POINT
  5
8E1C
330
827C
100
AcDbEntity
  8
Defpoints
 62
     0
100
AcDbPoint
 10
2232.800839299685
 20
1384.178460662066
 30
0.0
  0
POINT
  5
8E1D
330
827C
100
AcDbEntity
  8
Defpoints
 62
     0
100
AcDbPoint
 10
2232.800839299685
 20
1544.178460662066
 30
0.0
  0
POINT
  5
8E1E
330
827C
100
AcDbEntity
  8
Defpoints
 62
     0
100
AcDbPoint
 10
2349.717437835543
 20
1544.178460662066
 30
0.0
  0
ENDBLK
  5
8287
330
827C
100
AcDbEntity
  8
0
 62
     3
100
AcDbBlockEnd
  0
BLOCK
  5
8292
330
8288
100
AcDbEntity
  8
0
 62
     3
100
AcDbBlockBegin
  2
*D65
 70
     1
 10
0.0
 20
0.0
 30
0.0
  3
*D65
  1

  0
LINE
  5
93C9
330
8288
100
AcDbEntity
  8
実形
 62
     0
370
    18
100
AcDbLine
 10
2297.800839299685
 20
1373.678460662066
 30
0.0
 11
2420.95973465082
 21
1373.678460662066
 31
0.0
  0
LINE
  5
93CA
330
8288
100
AcDbEntity
  8
実形
 62
     0
370
    18
100
AcDbLine
 10
2297.80083929969
 20
1554.678460662065
 30
0.0
 11
2420.95973465082
 21
1554.678460662065
 31
0.0
  0
LINE
  5
93CB
330
8288
100
AcDbEntity
  8
実形
 62
     0
370
    18
100
AcDbLine
 10
2420.95973465082
 20
1383.678460662066
 30
0.0
 11
2420.95973465082
 21
1544.678460662065
 31
0.0
  0
INSERT
  5
93CC
330
8288
100
AcDbEntity
  8
実形
 62
     0
370
    18
100
AcDbBlockReference
  2
_Dot
 10
2420.95973465082
 20
1373.678460662066
 30
0.0
 41
10.0
 42
10.0
 43
10.0
 50
270.0
  0
INSERT
  5
93CD
330
8288
100
AcDbEntity
  8
実形
 62
     0
370
    18
100
AcDbBlockReference
  2
_Dot
 10
2420.95973465082
 20
1554.678460662065
 30
0.0
 41
10.0
 42
10.0
 43
10.0
 50
90.0
  0
MTEXT
  5
93CE
330
8288
100
AcDbEntity
  8
実形
 62
     0
100
AcDbMText
 10
2401.85973465082
 20
1464.178460662066
 30
0.0
 40
25.0
 41
0.0
 71
     5
 72
     1
  1
181
 11
0.0000000000000001
 21
1.0
 31
0.0
 73
     1
 44
1.0
1001
ACAD
1000
MTEXTBEGIN
1070
    73
1070
     1
1070
    44
1040
1.0
1070
    74
1070
     0
1000
MTEXTEND
  0
POINT
  5
93CF
330
8288
100
AcDbEntity
  8
Defpoints
 62
     0
100
AcDbPoint
 10
2232.800839299685
 20
1373.678460662066
 30
0.0
  0
POINT
  5
93D0
330
8288
100
AcDbEntity
  8
Defpoints
 62
     0
100
AcDbPoint
 10
2232.80083929969
 20
1554.678460662065
 30
0.0
  0
POINT
  5
93D1
330
8288
100
AcDbEntity
  8
Defpoints
 62
     0
100
AcDbPoint
 10
2420.95973465082
 20
1554.678460662065
 30
0.0
  0
ENDBLK
  5
8293
330
8288
100
AcDbEntity
  8
0
 62
     3
100
AcDbBlockEnd
  0
BLOCK
  5
8C82
330
8C78
100
AcDbEntity
  8
0
 62
     3
100
AcDbBlockBegin
  2
*D66
 70
     1
 10
0.0
 20
0.0
 30
0.0
  3
*D66
  1

  0
LINE
  5
93E4
330
8C78
100
AcDbEntity
  8
実形
 62
     0
370
    18
100
AcDbLine
 10
2507.618457349223
 20
1554.178460662067
 30
0.0
 11
2536.797734738313
 21
1554.178460662067
 31
0.0
  0
LINE
  5
93E5
330
8C78
100
AcDbEntity
  8
実形
 62
     0
370
    18
100
AcDbLine
 10
2507.618457349222
 20
1644.178460662066
 30
0.0
 11
2536.797734738313
 21
1644.178460662066
 31
0.0
  0
LINE
  5
93E6
330
8C78
100
AcDbEntity
  8
実形
 62
     0
370
    18
100
AcDbLine
 10
2536.797734738313
 20
1564.178460662066
 30
0.0
 11
2536.797734738313
 21
1634.178460662066
 31
0.0
  0
MTEXT
  5
93E7
330
8C78
100
AcDbEntity
  8
実形
 62
     0
100
AcDbMText
 10
2515.409386300847
 20
1589.259853472391
 30
0.0
 40
25.0
 41
0.0
 71
     5
 72
     1
  1
70
 11
0.0000000000000001
 21
1.0
 31
0.0
 73
     1
 44
1.0
1001
ACAD
1000
MTEXTBEGIN
1070
    73
1070
     1
1070
    44
1040
1.0
1070
    74
1070
     0
1000
MTEXTEND
  0
INSERT
  5
93E8
330
8C78
100
AcDbEntity
  8
実形
 62
     0
370
    18
100
AcDbBlockReference
  2
_Dot
 10
2536.797734738313
 20
1554.178460662067
 30
0.0
 41
10.0
 42
10.0
 43
10.0
 50
270.0
  0
INSERT
  5
93E9
330
8C78
100
AcDbEntity
  8
実形
 62
     0
370
    18
100
AcDbBlockReference
  2
_Dot
 10
2536.797734738313
 20
1644.178460662066
 30
0.0
 41
10.0
 42
10.0
 43
10.0
 50
90.0
  0
POINT
  5
93EA
330
8C78
100
AcDbEntity
  8
Defpoints
 62
     0
100
AcDbPoint
 10
2442.618457349223
 20
1554.178460662067
 30
0.0
  0
POINT
  5
93EB
330
8C78
100
AcDbEntity
  8
Defpoints
 62
     0
100
AcDbPoint
 10
2442.618457349223
 20
1644.178460662066
 30
0.0
  0
POINT
  5
93EC
330
8C78
100
AcDbEntity
  8
Defpoints
 62
     0
100
AcDbPoint
 10
2536.797734738313
 20
1644.178460662066
 30
0.0
  0
ENDBLK
  5
8C83
330
8C78
100
AcDbEntity
  8
0
 62
     3
100
AcDbBlockEnd
  0
BLOCK
  5
8C8E
330
8C84
100
AcDbEntity
  8
0
 62
     3
100
AcDbBlockBegin
  2
*D67
 70
     1
 10
0.0
 20
0.0
 30
0.0
  3
*D67
  1

  0
LINE
  5
93DB
330
8C84
100
AcDbEntity
  8
実形
 62
     0
370
    18
100
AcDbLine
 10
2507.618457349223
 20
1554.178460662067
 30
0.0
 11
2536.797734738313
 21
1554.178460662067
 31
0.0
  0
LINE
  5
93DC
330
8C84
100
AcDbEntity
  8
実形
 62
     0
370
    18
100
AcDbLine
 10
2501.618457349223
 20
1624.178460662066
 30
0.0
 11
2536.797734738313
 21
1624.178460662066
 31
0.0
  0
LINE
  5
93DD
330
8C84
100
AcDbEntity
  8
実形
 62
     0
370
    18
100
AcDbLine
 10
2536.797734738313
 20
1564.178460662066
 30
0.0
 11
2536.797734738313
 21
1614.178460662066
 31
0.0
  0
MTEXT
  5
93DE
330
8C84
100
AcDbEntity
  8
実形
 62
     0
100
AcDbMText
 10
2473.583314250412
 20
1625.228420096381
 30
0.0
 40
25.0
 41
0.0
 71
     5
 72
     1
  1
20
 11
0.0000000000000001
 21
1.0
 31
0.0
 73
     1
 44
1.0
1001
ACAD
1000
MTEXTBEGIN
1070
    73
1070
     1
1070
    44
1040
1.0
1070
    74
1070
     0
1000
MTEXTEND
  0
INSERT
  5
93DF
330
8C84
100
AcDbEntity
  8
実形
 62
     0
370
    18
100
AcDbBlockReference
  2
_Dot
 10
2536.797734738313
 20
1554.178460662067
 30
0.0
 41
10.0
 42
10.0
 43
10.0
 50
270.0
  0
INSERT
  5
93E0
330
8C84
100
AcDbEntity
  8
実形
 62
     0
370
    18
100
AcDbBlockReference
  2
_Dot
 10
2536.797734738313
 20
1624.178460662066
 30
0.0
 41
10.0
 42
10.0
 43
10.0
 50
90.0
  0
POINT
  5
93E1
330
8C84
100
AcDbEntity
  8
Defpoints
 62
     0
100
AcDbPoint
 10
2442.618457349223
 20
1554.178460662067
 30
0.0
  0
POINT
  5
93E2
330
8C84
100
AcDbEntity
  8
Defpoints
 62
     0
100
AcDbPoint
 10
2436.618457349223
 20
1624.178460662066
 30
0.0
  0
POINT
  5
93E3
330
8C84
100
AcDbEntity
  8
Defpoints
 62
     0
100
AcDbPoint
 10
2536.797734738313
 20
1624.178460662066
 30
0.0
  0
ENDBLK
  5
8C8F
330
8C84
100
AcDbEntity
  8
0
 62
     3
100
AcDbBlockEnd
  0
BLOCK
  5
8C9A
330
8C90
100
AcDbEntity
  8
0
 62
     3
100
AcDbBlockBegin
  2
*D68
 70
     1
 10
0.0
 20
0.0
 30
0.0
  3
*D68
  1

  0
LINE
  5
93D2
330
8C90
100
AcDbEntity
  8
実形
 62
     0
370
    18
100
AcDbLine
 10
2539.174746118564
 20
1644.178460662066
 30
0.0
 11
2602.61796571036
 21
1644.178460662066
 31
0.0
  0
LINE
  5
93D3
330
8C90
100
AcDbEntity
  8
実形
 62
     0
370
    18
100
AcDbLine
 10
2560.195893334098
 20
1554.178460662066
 30
0.0
 11
2602.61796571036
 21
1554.178460662066
 31
0.0
  0
LINE
  5
93D4
330
8C90
100
AcDbEntity
  8
実形
 62
     0
370
    18
100
AcDbLine
 10
2602.61796571036
 20
1634.178460662066
 30
0.0
 11
2602.61796571036
 21
1564.178460662066
 31
0.0
  0
INSERT
  5
93D5
330
8C90
100
AcDbEntity
  8
実形
 62
     0
370
    18
100
AcDbBlockReference
  2
_Dot
 10
2602.61796571036
 20
1644.178460662066
 30
0.0
 41
10.0
 42
10.0
 43
10.0
 50
90.0
  0
INSERT
  5
93D6
330
8C90
100
AcDbEntity
  8
実形
 62
     0
370
    18
100
AcDbBlockReference
  2
_Dot
 10
2602.61796571036
 20
1554.178460662066
 30
0.0
 41
10.0
 42
10.0
 43
10.0
 50
270.0
  0
MTEXT
  5
93D7
330
8C90
100
AcDbEntity
  8
実形
 62
     0
100
AcDbMText
 10
2583.51796571036
 20
1599.178460662067
 30
0.0
 40
25.0
 41
0.0
 71
     5
 72
     1
  1
90
 11
0.0000000000000001
 21
1.0
 31
0.0
 73
     1
 44
1.0
1001
ACAD
1000
MTEXTBEGIN
1070
    73
1070
     1
1070
    44
1040
1.0
1070
    74
1070
     0
1000
MTEXTEND
  0
POINT
  5
93D8
330
8C90
100
AcDbEntity
  8
Defpoints
 62
     0
100
AcDbPoint
 10
2474.174746118564
 20
1644.178460662066
 30
0.0
  0
POINT
  5
93D9
330
8C90
100
AcDbEntity
  8
Defpoints
 62
     0
100
AcDbPoint
 10
2495.195893334098
 20
1554.178460662067
 30
0.0
  0
POINT
  5
93DA
330
8C90
100
AcDbEntity
  8
Defpoints
 62
     0
100
AcDbPoint
 10
2602.61796571036
 20
1554.178460662066
 30
0.0
  0
ENDBLK
  5
8C9B
330
8C90
100
AcDbEntity
  8
0
 62
     3
100
AcDbBlockEnd
  0
BLOCK
  5
8CA6
330
8C9C
100
AcDbEntity
  8
0
 62
     3
100
AcDbBlockBegin
  2
*D69
 70
     1
 10
0.0
 20
0.0
 30
0.0
  3
*D69
  1

  0
LINE
  5
93C0
330
8C9C
100
AcDbEntity
  8
実形
 62
     0
370
    18
100
AcDbLine
 10
2542.271685192363
 20
1554.178460662067
 30
0.0
 11
2602.61796571036
 21
1554.178460662066
 31
0.0
  0
LINE
  5
93C1
330
8C9C
100
AcDbEntity
  8
実形
 62
     0
370
    18
100
AcDbLine
 10
2537.151465674219
 20
1154.178460662066
 30
0.0
 11
2602.61796571036
 21
1154.178460662066
 31
0.0
  0
LINE
  5
93C2
330
8C9C
100
AcDbEntity
  8
実形
 62
     0
370
    18
100
AcDbLine
 10
2602.61796571036
 20
1544.178460662066
 30
0.0
 11
2602.61796571036
 21
1164.178460662066
 31
0.0
  0
INSERT
  5
93C3
330
8C9C
100
AcDbEntity
  8
実形
 62
     0
370
    18
100
AcDbBlockReference
  2
_Dot
 10
2602.61796571036
 20
1554.178460662066
 30
0.0
 41
10.0
 42
10.0
 43
10.0
 50
90.0
  0
INSERT
  5
93C4
330
8C9C
100
AcDbEntity
  8
実形
 62
     0
370
    18
100
AcDbBlockReference
  2
_Dot
 10
2602.61796571036
 20
1154.178460662066
 30
0.0
 41
10.0
 42
10.0
 43
10.0
 50
270.0
  0
MTEXT
  5
93C5
330
8C9C
100
AcDbEntity
  8
実形
 62
     0
100
AcDbMText
 10
2583.51796571036
 20
1354.178460662067
 30
0.0
 40
25.0
 41
0.0
 71
     5
 72
     1
  1
400
 11
0.0000000000000001
 21
1.0
 31
0.0
 73
     1
 44
1.0
1001
ACAD
1000
MTEXTBEGIN
1070
    73
1070
     1
1070
    44
1040
1.0
1070
    74
1070
     0
1000
MTEXTEND
  0
POINT
  5
93C6
330
8C9C
100
AcDbEntity
  8
Defpoints
 62
     0
100
AcDbPoint
 10
2477.271685192363
 20
1554.178460662067
 30
0.0
  0
POINT
  5
93C7
330
8C9C
100
AcDbEntity
  8
Defpoints
 62
     0
100
AcDbPoint
 10
2472.151465674218
 20
1154.178460662066
 30
0.0
  0
POINT
  5
93C8
330
8C9C
100
AcDbEntity
  8
Defpoints
 62
     0
100
AcDbPoint
 10
2602.61796571036
 20
1154.178460662066
 30
0.0
  0
ENDBLK
  5
8CA7
330
8C9C
100
AcDbEntity
  8
0
 62
     3
100
AcDbBlockEnd
  0
BLOCK
  5
8CB2
330
8CA8
100
AcDbEntity
  8
0
 62
     3
100
AcDbBlockBegin
  2
*D70
 70
     1
 10
0.0
 20
0.0
 30
0.0
  3
*D70
  1

  0
LINE
  5
93B7
330
8CA8
100
AcDbEntity
  8
実形
 62
     0
370
    18
100
AcDbLine
 10
2510.792023811187
 20
1659.178460662066
 30
0.0
 11
2602.61796571036
 21
1659.178460662066
 31
0.0
  0
LINE
  5
93B8
330
8CA8
100
AcDbEntity
  8
実形
 62
     0
370
    18
100
AcDbLine
 10
2537.681874457631
 20
1119.178460662066
 30
0.0
 11
2602.61796571036
 21
1119.178460662066
 31
0.0
  0
LINE
  5
93B9
330
8CA8
100
AcDbEntity
  8
実形
 62
     0
370
    18
100
AcDbLine
 10
2602.61796571036
 20
1649.178460662066
 30
0.0
 11
2602.61796571036
 21
1129.178460662066
 31
0.0
  0
MTEXT
  5
93BA
330
8CA8
100
AcDbEntity
  8
実形
 62
     0
100
AcDbMText
 10
2624.21796571036
 20
1682.883538982084
 30
0.0
 40
25.0
 41
0.0
 71
     5
 72
     1
  1
15
 11
0.0000000000000001
 21
1.0
 31
0.0
 73
     1
 44
1.0
1001
ACAD
1000
MTEXTBEGIN
1070
    73
1070
     1
1070
    44
1040
1.0
1070
    74
1070
     0
1000
MTEXTEND
  0
INSERT
  5
93BB
330
8CA8
100
AcDbEntity
  8
実形
 62
     0
370
    18
100
AcDbBlockReference
  2
_Dot
 10
2602.61796571036
 20
1659.178460662066
 30
0.0
 41
10.0
 42
10.0
 43
10.0
 50
90.0
  0
INSERT
  5
93BC
330
8CA8
100
AcDbEntity
  8
実形
 62
     0
370
    18
100
AcDbBlockReference
  2
_Dot
 10
2602.61796571036
 20
1119.178460662066
 30
0.0
 41
10.0
 42
10.0
 43
10.0
 50
270.0
  0
POINT
  5
93BD
330
8CA8
100
AcDbEntity
  8
Defpoints
 62
     0
100
AcDbPoint
 10
2445.792023811187
 20
1659.178460662066
 30
0.0
  0
POINT
  5
93BE
330
8CA8
100
AcDbEntity
  8
Defpoints
 62
     0
100
AcDbPoint
 10
2472.68187445763
 20
1119.178460662066
 30
0.0
  0
POINT
  5
93BF
330
8CA8
100
AcDbEntity
  8
Defpoints
 62
     0
100
AcDbPoint
 10
2602.61796571036
 20
1119.178460662066
 30
0.0
  0
ENDBLK
  5
8CB3
330
8CA8
100
AcDbEntity
  8
0
 62
     3
100
AcDbBlockEnd
  0
BLOCK
  5
8CBE
330
8CB4
100
AcDbEntity
  8
0
 62
     3
100
AcDbBlockBegin
  2
*D71
 70
     1
 10
0.0
 20
0.0
 30
0.0
  3
*D71
  1

  0
LINE
  5
93AE
330
8CB4
100
AcDbEntity
  8
実形
 62
     0
370
    18
100
AcDbLine
 10
2537.151465674219
 20
1134.178460662066
 30
0.0
 11
2602.61796571036
 21
1134.178460662066
 31
0.0
  0
LINE
  5
93AF
330
8CB4
100
AcDbEntity
  8
実形
 62
     0
370
    18
100
AcDbLine
 10
2572.618457349222
 20
1554.178460662066
 30
0.0
 11
2602.61796571036
 21
1554.178460662066
 31
0.0
  0
LINE
  5
93B0
330
8CB4
100
AcDbEntity
  8
実形
 62
     0
370
    18
100
AcDbLine
 10
2602.61796571036
 20
1144.178460662066
 30
0.0
 11
2602.61796571036
 21
1544.178460662066
 31
0.0
  0
MTEXT
  5
93B1
330
8CB4
100
AcDbEntity
  8
実形
 62
     0
100
AcDbMText
 10
2511.855885300055
 20
1153.026798183139
 30
0.0
 40
25.0
 41
0.0
 71
     5
 72
     1
  1
20
 11
0.0000000000000001
 21
1.0
 31
0.0
 73
     1
 44
1.0
1001
ACAD
1000
MTEXTBEGIN
1070
    73
1070
     1
1070
    44
1040
1.0
1070
    74
1070
     0
1000
MTEXTEND
  0
INSERT
  5
93B2
330
8CB4
100
AcDbEntity
  8
実形
 62
     0
370
    18
100
AcDbBlockReference
  2
_Dot
 10
2602.61796571036
 20
1134.178460662066
 30
0.0
 41
10.0
 42
10.0
 43
10.0
 50
270.0
  0
INSERT
  5
93B3
330
8CB4
100
AcDbEntity
  8
実形
 62
     0
370
    18
100
AcDbBlockReference
  2
_Dot
 10
2602.61796571036
 20
1554.178460662066
 30
0.0
 41
10.0
 42
10.0
 43
10.0
 50
90.0
  0
POINT
  5
93B4
330
8CB4
100
AcDbEntity
  8
Defpoints
 62
     0
100
AcDbPoint
 10
2472.151465674218
 20
1134.178460662066
 30
0.0
  0
POINT
  5
93B5
330
8CB4
100
AcDbEntity
  8
Defpoints
 62
     0
100
AcDbPoint
 10
2507.618457349222
 20
1554.178460662067
 30
0.0
  0
POINT
  5
93B6
330
8CB4
100
AcDbEntity
  8
Defpoints
 62
     0
100
AcDbPoint
 10
2602.61796571036
 20
1554.178460662066
 30
0.0
  0
ENDBLK
  5
8CBF
330
8CB4
100
AcDbEntity
  8
0
 62
     3
100
AcDbBlockEnd
  0
BLOCK
  5
8CCA
330
8CC0
100
AcDbEntity
  8
0
 62
     3
100
AcDbBlockBegin
  2
*D72
 70
     1
 10
0.0
 20
0.0
 30
0.0
  3
*D72
  1

  0
LINE
  5
93A5
330
8CC0
100
AcDbEntity
  8
実形
 62
     0
370
    18
100
AcDbLine
 10
2508.219037560846
 20
1644.178460662066
 30
0.0
 11
2658.589522205302
 21
1644.178460662066
 31
0.0
  0
LINE
  5
93A6
330
8CC0
100
AcDbEntity
  8
実形
 62
     0
370
    18
100
AcDbLine
 10
2535.140353398388
 20
1134.178460662066
 30
0.0
 11
2658.589522205302
 21
1134.178460662066
 31
0.0
  0
LINE
  5
93A7
330
8CC0
100
AcDbEntity
  8
実形
 62
     0
370
    18
100
AcDbLine
 10
2658.589522205302
 20
1634.178460662066
 30
0.0
 11
2658.589522205302
 21
1144.178460662066
 31
0.0
  0
INSERT
  5
93A8
330
8CC0
100
AcDbEntity
  8
実形
 62
     0
370
    18
100
AcDbBlockReference
  2
_Dot
 10
2658.589522205302
 20
1644.178460662066
 30
0.0
 41
10.0
 42
10.0
 43
10.0
 50
90.0
  0
INSERT
  5
93A9
330
8CC0
100
AcDbEntity
  8
実形
 62
     0
370
    18
100
AcDbBlockReference
  2
_Dot
 10
2658.589522205302
 20
1134.178460662066
 30
0.0
 41
10.0
 42
10.0
 43
10.0
 50
270.0
  0
MTEXT
  5
93AA
330
8CC0
100
AcDbEntity
  8
実形
 62
     0
100
AcDbMText
 10
2639.489522205302
 20
1389.178460662066
 30
0.0
 40
25.0
 41
0.0
 71
     5
 72
     1
  1
510
 11
0.0000000000000001
 21
1.0
 31
0.0
 73
     1
 44
1.0
1001
ACAD
1000
MTEXTBEGIN
1070
    73
1070
     1
1070
    44
1040
1.0
1070
    74
1070
     0
1000
MTEXTEND
  0
POINT
  5
93AB
330
8CC0
100
AcDbEntity
  8
Defpoints
 62
     0
100
AcDbPoint
 10
2443.219037560846
 20
1644.178460662066
 30
0.0
  0
POINT
  5
93AC
330
8CC0
100
AcDbEntity
  8
Defpoints
 62
     0
100
AcDbPoint
 10
2470.140353398388
 20
1134.178460662066
 30
0.0
  0
POINT
  5
93AD
330
8CC0
100
AcDbEntity
  8
Defpoints
 62
     0
100
AcDbPoint
 10
2658.589522205302
 20
1134.178460662066
 30
0.0
  0
ENDBLK
  5
8CCB
330
8CC0
100
AcDbEntity
  8
0
 62
     3
100
AcDbBlockEnd
  0
BLOCK
  5
8CD6
330
8CCC
100
AcDbEntity
  8
0
 62
     3
100
AcDbBlockBegin
  2
*D73
 70
     1
 10
0.0
 20
0.0
 30
0.0
  3
*D73
  1

  0
LINE
  5
939D
330
8CCC
100
AcDbEntity
  8
実形
 62
     0
370
    18
100
AcDbLine
 10
2512.175774477036
 20
1659.178460662066
 30
0.0
 11
2658.589522205302
 21
1659.178460662066
 31
0.0
  0
LINE
  5
939E
330
8CCC
100
AcDbEntity
  8
実形
 62
     0
370
    18
100
AcDbLine
 10
2534.127661779166
 20
1119.178460662066
 30
0.0
 11
2658.589522205302
 21
1119.178460662066
 31
0.0
  0
LINE
  5
939F
330
8CCC
100
AcDbEntity
  8
実形
 62
     0
370
    18
100
AcDbLine
 10
2658.589522205302
 20
1649.178460662066
 30
0.0
 11
2658.589522205302
 21
1129.178460662066
 31
0.0
  0
INSERT
  5
93A0
330
8CCC
100
AcDbEntity
  8
実形
 62
     0
370
    18
100
AcDbBlockReference
  2
_Dot
 10
2658.589522205302
 20
1659.178460662066
 30
0.0
 41
10.0
 42
10.0
 43
10.0
 50
90.0
  0
INSERT
  5
93A1
330
8CCC
100
AcDbEntity
  8
実形
 62
     0
370
    18
100
AcDbBlockReference
  2
_Dot
 10
2658.589522205302
 20
1119.178460662066
 30
0.0
 41
10.0
 42
10.0
 43
10.0
 50
270.0
  0
POINT
  5
93A2
330
8CCC
100
AcDbEntity
  8
Defpoints
 62
     0
100
AcDbPoint
 10
2447.175774477036
 20
1659.178460662066
 30
0.0
  0
POINT
  5
93A3
330
8CCC
100
AcDbEntity
  8
Defpoints
 62
     0
100
AcDbPoint
 10
2469.127661779167
 20
1119.178460662066
 30
0.0
  0
POINT
  5
93A4
330
8CCC
100
AcDbEntity
  8
Defpoints
 62
     0
100
AcDbPoint
 10
2658.589522205302
 20
1119.178460662066
 30
0.0
  0
ENDBLK
  5
8CD7
330
8CCC
100
AcDbEntity
  8
0
 62
     3
100
AcDbBlockEnd
  0
BLOCK
  5
90F7
330
90ED
100
AcDbEntity
  8
0
 62
     3
100
AcDbBlockBegin
  2
*D74
 70
     1
 10
0.0
 20
0.0
 30
0.0
  3
*D74
  1

  0
LINE
  5
9141
330
90ED
100
AcDbEntity
  8
実形
 62
     0
370
    18
100
AcDbLine
 10
1162.770210499882
 20
410.6580729330507
 30
0.0
 11
1162.770210499882
 21
358.7414743971931
 31
0.0
  0
LINE
  5
9142
330
90ED
100
AcDbEntity
  8
実形
 62
     0
370
    18
100
AcDbLine
 10
1322.770210499883
 20
410.6580729330507
 30
0.0
 11
1322.770210499883
 21
358.7414743971931
 31
0.0
  0
LINE
  5
9143
330
90ED
100
AcDbEntity
  8
実形
 62
     0
370
    18
100
AcDbLine
 10
1172.770210499882
 20
358.7414743971931
 30
0.0
 11
1312.770210499883
 21
358.7414743971931
 31
0.0
  0
INSERT
  5
9144
330
90ED
100
AcDbEntity
  8
実形
 62
     0
370
    18
100
AcDbBlockReference
  2
_Dot
 10
1162.770210499882
 20
358.7414743971931
 30
0.0
 41
10.0
 42
10.0
 43
10.0
 50
180.0
  0
INSERT
  5
9145
330
90ED
100
AcDbEntity
  8
実形
 62
     0
370
    18
100
AcDbBlockReference
  2
_Dot
 10
1322.770210499883
 20
358.7414743971931
 30
0.0
 41
10.0
 42
10.0
 43
10.0
  0
MTEXT
  5
9146
330
90ED
100
AcDbEntity
  8
実形
 62
     0
100
AcDbMText
 10
1242.770210499882
 20
377.8414743971931
 30
0.0
 40
25.0
 41
0.0
 71
     5
 72
     1
  1
160
 73
     1
 44
1.0
1001
ACAD
1000
MTEXTBEGIN
1070
    73
1070
     1
1070
    44
1040
1.0
1070
    74
1070
     0
1000
MTEXTEND
  0
POINT
  5
9147
330
90ED
100
AcDbEntity
  8
Defpoints
 62
     0
100
AcDbPoint
 10
1162.770210499882
 20
475.6580729330506
 30
0.0
  0
POINT
  5
9148
330
90ED
100
AcDbEntity
  8
Defpoints
 62
     0
100
AcDbPoint
 10
1322.770210499883
 20
475.6580729330506
 30
0.0
  0
POINT
  5
9149
330
90ED
100
AcDbEntity
  8
Defpoints
 62
     0
100
AcDbPoint
 10
1322.770210499883
 20
358.7414743971931
 30
0.0
  0
ENDBLK
  5
90F8
330
90ED
100
AcDbEntity
  8
0
 62
     3
100
AcDbBlockEnd
  0
BLOCK
  5
9103
330
90F9
100
AcDbEntity
  8
0
 62
     3
100
AcDbBlockBegin
  2
*D75
 70
     1
 10
0.0
 20
0.0
 30
0.0
  3
*D75
  1

  0
LINE
  5
914A
330
90F9
100
AcDbEntity
  8
実形
 62
     0
370
    18
100
AcDbLine
 10
1152.270210499882
 20
410.6580729330508
 30
0.0
 11
1152.270210499882
 21
287.4991775819162
 31
0.0
  0
LINE
  5
914B
330
90F9
100
AcDbEntity
  8
実形
 62
     0
370
    18
100
AcDbLine
 10
1333.270210499882
 20
410.6580729330464
 30
0.0
 11
1333.270210499882
 21
287.4991775819162
 31
0.0
  0
LINE
  5
914C
330
90F9
100
AcDbEntity
  8
実形
 62
     0
370
    18
100
AcDbLine
 10
1162.270210499882
 20
287.4991775819162
 30
0.0
 11
1323.270210499882
 21
287.4991775819162
 31
0.0
  0
INSERT
  5
914D
330
90F9
100
AcDbEntity
  8
実形
 62
     0
370
    18
100
AcDbBlockReference
  2
_Dot
 10
1152.270210499882
 20
287.4991775819162
 30
0.0
 41
10.0
 42
10.0
 43
10.0
 50
180.0
  0
INSERT
  5
914E
330
90F9
100
AcDbEntity
  8
実形
 62
     0
370
    18
100
AcDbBlockReference
  2
_Dot
 10
1333.270210499882
 20
287.4991775819162
 30
0.0
 41
10.0
 42
10.0
 43
10.0
  0
MTEXT
  5
914F
330
90F9
100
AcDbEntity
  8
実形
 62
     0
100
AcDbMText
 10
1242.770210499882
 20
306.5991775819163
 30
0.0
 40
25.0
 41
0.0
 71
     5
 72
     1
  1
181
 73
     1
 44
1.0
1001
ACAD
1000
MTEXTBEGIN
1070
    73
1070
     1
1070
    44
1040
1.0
1070
    74
1070
     0
1000
MTEXTEND
  0
POINT
  5
9150
330
90F9
100
AcDbEntity
  8
Defpoints
 62
     0
100
AcDbPoint
 10
1152.270210499882
 20
475.6580729330507
 30
0.0
  0
POINT
  5
9151
330
90F9
100
AcDbEntity
  8
Defpoints
 62
     0
100
AcDbPoint
 10
1333.270210499882
 20
475.6580729330464
 30
0.0
  0
POINT
  5
9152
330
90F9
100
AcDbEntity
  8
Defpoints
 62
     0
100
AcDbPoint
 10
1333.270210499882
 20
287.4991775819162
 30
0.0
  0
ENDBLK
  5
9104
330
90F9
100
AcDbEntity
  8
0
 62
     3
100
AcDbBlockEnd
  0
BLOCK
  5
910F
330
9105
100
AcDbEntity
  8
0
 62
     3
100
AcDbBlockBegin
  2
*D76
 70
     1
 10
0.0
 20
0.0
 30
0.0
  3
*D76
  1

  0
LINE
  5
9153
330
9105
100
AcDbEntity
  8
実形
 62
     0
370
    18
100
AcDbLine
 10
779.5378511944672
 20
690.6580729330507
 30
0.0
 11
726.7970691275186
 21
690.6580729330508
 31
0.0
  0
LINE
  5
9154
330
9105
100
AcDbEntity
  8
実形
 62
     0
370
    18
100
AcDbLine
 10
778.5619878860816
 20
485.6580729330508
 30
0.0
 11
726.7970691275186
 21
485.6580729330508
 31
0.0
  0
LINE
  5
9155
330
9105
100
AcDbEntity
  8
実形
 62
     0
370
    18
100
AcDbLine
 10
726.7970691275186
 20
680.6580729330509
 30
0.0
 11
726.7970691275186
 21
495.6580729330507
 31
0.0
  0
MTEXT
  5
9156
330
9105
100
AcDbEntity
  8
実形
 62
     0
100
AcDbMText
 10
705.1970691275185
 20
665.4528112527996
 30
0.0
 40
25.0
 41
0.0
 71
     5
 72
     1
  1
15
 11
0.0000000000000001
 21
1.0
 31
0.0
 73
     1
 44
1.0
1001
ACAD
1000
MTEXTBEGIN
1070
    73
1070
     1
1070
    44
1040
1.0
1070
    74
1070
     0
1000
MTEXTEND
  0
INSERT
  5
9157
330
9105
100
AcDbEntity
  8
実形
 62
     0
370
    18
100
AcDbBlockReference
  2
_Dot
 10
726.7970691275186
 20
690.6580729330508
 30
0.0
 41
10.0
 42
10.0
 43
10.0
 50
90.0
  0
INSERT
  5
9158
330
9105
100
AcDbEntity
  8
実形
 62
     0
370
    18
100
AcDbBlockReference
  2
_Dot
 10
726.7970691275186
 20
485.6580729330508
 30
0.0
 41
10.0
 42
10.0
 43
10.0
 50
270.0
  0
POINT
  5
9159
330
9105
100
AcDbEntity
  8
Defpoints
 62
     0
100
AcDbPoint
 10
844.5378511944673
 20
690.6580729330507
 30
0.0
  0
POINT
  5
915A
330
9105
100
AcDbEntity
  8
Defpoints
 62
     0
100
AcDbPoint
 10
843.5619878860816
 20
485.6580729330508
 30
0.0
  0
POINT
  5
915B
330
9105
100
AcDbEntity
  8
Defpoints
 62
     0
100
AcDbPoint
 10
726.7970691275186
 20
485.6580729330508
 30
0.0
  0
ENDBLK
  5
9110
330
9105
100
AcDbEntity
  8
0
 62
     3
100
AcDbBlockEnd
  0
BLOCK
  5
911B
330
9111
100
AcDbEntity
  8
0
 62
     3
100
AcDbBlockBegin
  2
*D77
 70
     1
 10
0.0
 20
0.0
 30
0.0
  3
*D77
  1

  0
LINE
  5
915C
330
9111
100
AcDbEntity
  8
実形
 62
     0
370
    18
100
AcDbLine
 10
781.3196580472886
 20
675.6580729330509
 30
0.0
 11
726.7970691275186
 21
675.658072933051
 31
0.0
  0
LINE
  5
915D
330
9111
100
AcDbEntity
  8
実形
 62
     0
370
    18
100
AcDbLine
 10
762.7702104998824
 20
485.6580729330508
 30
0.0
 11
726.7970691275186
 21
485.6580729330508
 31
0.0
  0
LINE
  5
915E
330
9111
100
AcDbEntity
  8
実形
 62
     0
370
    18
100
AcDbLine
 10
726.7970691275186
 20
665.658072933051
 30
0.0
 11
726.7970691275186
 21
495.6580729330507
 31
0.0
  0
MTEXT
  5
915F
330
9111
100
AcDbEntity
  8
実形
 62
     0
100
AcDbMText
 10
705.1970691275185
 20
586.1689761561229
 30
0.0
 40
25.0
 41
0.0
 71
     5
 72
     1
  1
190
 11
0.0000000000000001
 21
1.0
 31
0.0
 73
     1
 44
1.0
1001
ACAD
1000
MTEXTBEGIN
1070
    73
1070
     1
1070
    44
1040
1.0
1070
    74
1070
     0
1000
MTEXTEND
  0
INSERT
  5
9160
330
9111
100
AcDbEntity
  8
実形
 62
     0
370
    18
100
AcDbBlockReference
  2
_Dot
 10
726.7970691275186
 20
675.658072933051
 30
0.0
 41
10.0
 42
10.0
 43
10.0
 50
90.0
  0
INSERT
  5
9161
330
9111
100
AcDbEntity
  8
実形
 62
     0
370
    18
100
AcDbBlockReference
  2
_Dot
 10
726.7970691275186
 20
485.6580729330508
 30
0.0
 41
10.0
 42
10.0
 43
10.0
 50
270.0
  0
POINT
  5
9162
330
9111
100
AcDbEntity
  8
Defpoints
 62
     0
100
AcDbPoint
 10
846.3196580472885
 20
675.6580729330509
 30
0.0
  0
POINT
  5
9163
330
9111
100
AcDbEntity
  8
Defpoints
 62
     0
100
AcDbPoint
 10
827.7702104998825
 20
485.6580729330508
 30
0.0
  0
POINT
  5
9164
330
9111
100
AcDbEntity
  8
Defpoints
 62
     0
100
AcDbPoint
 10
726.7970691275186
 20
485.6580729330508
 30
0.0
  0
ENDBLK
  5
911C
330
9111
100
AcDbEntity
  8
0
 62
     3
100
AcDbBlockEnd
  0
BLOCK
  5
9127
330
911D
100
AcDbEntity
  8
0
 62
     3
100
AcDbBlockBegin
  2
*D78
 70
     1
 10
0.0
 20
0.0
 30
0.0
  3
*D78
  1

  0
LINE
  5
9165
330
911D
100
AcDbEntity
  8
実形
 62
     0
370
    18
100
AcDbLine
 10
762.7702104998824
 20
690.6580729330508
 30
0.0
 11
671.7970691275186
 21
690.6580729330508
 31
0.0
  0
LINE
  5
9166
330
911D
100
AcDbEntity
  8
実形
 62
     0
370
    18
100
AcDbLine
 10
762.7702104998824
 20
485.6580729330508
 30
0.0
 11
671.7970691275186
 21
485.6580729330508
 31
0.0
  0
LINE
  5
9167
330
911D
100
AcDbEntity
  8
実形
 62
     0
370
    18
100
AcDbLine
 10
671.7970691275186
 20
680.6580729330509
 30
0.0
 11
671.7970691275186
 21
495.6580729330507
 31
0.0
  0
INSERT
  5
9168
330
911D
100
AcDbEntity
  8
実形
 62
     0
370
    18
100
AcDbBlockReference
  2
_Dot
 10
671.7970691275186
 20
690.6580729330508
 30
0.0
 41
10.0
 42
10.0
 43
10.0
 50
90.0
  0
INSERT
  5
9169
330
911D
100
AcDbEntity
  8
実形
 62
     0
370
    18
100
AcDbBlockReference
  2
_Dot
 10
671.7970691275186
 20
485.6580729330508
 30
0.0
 41
10.0
 42
10.0
 43
10.0
 50
270.0
  0
MTEXT
  5
916A
330
911D
100
AcDbEntity
  8
実形
 62
     0
100
AcDbMText
 10
652.6970691275185
 20
588.158072933051
 30
0.0
 40
25.0
 41
0.0
 71
     5
 72
     1
  1
205
 11
0.0000000000000001
 21
1.0
 31
0.0
 73
     1
 44
1.0
1001
ACAD
1000
MTEXTBEGIN
1070
    73
1070
     1
1070
    44
1040
1.0
1070
    74
1070
     0
1000
MTEXTEND
  0
POINT
  5
916B
330
911D
100
AcDbEntity
  8
Defpoints
 62
     0
100
AcDbPoint
 10
827.7702104998825
 20
690.6580729330507
 30
0.0
  0
POINT
  5
916C
330
911D
100
AcDbEntity
  8
Defpoints
 62
     0
100
AcDbPoint
 10
827.7702104998825
 20
485.6580729330508
 30
0.0
  0
POINT
  5
916D
330
911D
100
AcDbEntity
  8
Defpoints
 62
     0
100
AcDbPoint
 10
671.7970691275186
 20
485.6580729330508
 30
0.0
  0
ENDBLK
  5
9128
330
911D
100
AcDbEntity
  8
0
 62
     3
100
AcDbBlockEnd
  0
BLOCK
  5
9133
330
9129
100
AcDbEntity
  8
0
 62
     3
100
AcDbBlockBegin
  2
*D79
 70
     1
 10
0.0
 20
0.0
 30
0.0
  3
*D79
  1

  0
LINE
  5
916E
330
9129
100
AcDbEntity
  8
実形
 62
     0
370
    18
100
AcDbLine
 10
725.7597655854806
 20
475.6580729330507
 30
0.0
 11
671.7970691275186
 21
475.6580729330507
 31
0.0
  0
LINE
  5
916F
330
9129
100
AcDbEntity
  8
実形
 62
     0
370
    18
100
AcDbLine
 10
762.7702104998824
 20
690.6580729330508
 30
0.0
 11
671.7970691275186
 21
690.6580729330508
 31
0.0
  0
LINE
  5
9170
330
9129
100
AcDbEntity
  8
実形
 62
     0
370
    18
100
AcDbLine
 10
671.7970691275186
 20
485.6580729330508
 30
0.0
 11
671.7970691275186
 21
680.6580729330509
 31
0.0
  0
MTEXT
  5
9171
330
9129
100
AcDbEntity
  8
実形
 62
     0
100
AcDbMText
 10
650.1970691275184
 20
495.5285142222765
 30
0.0
 40
25.0
 41
0.0
 71
     5
 72
     1
  1
8
 11
0.0000000000000001
 21
1.0
 31
0.0
 73
     1
 44
1.0
1001
ACAD
1000
MTEXTBEGIN
1070
    73
1070
     1
1070
    44
1040
1.0
1070
    74
1070
     0
1000
MTEXTEND
  0
INSERT
  5
9172
330
9129
100
AcDbEntity
  8
実形
 62
     0
370
    18
100
AcDbBlockReference
  2
_Dot
 10
671.7970691275186
 20
475.6580729330507
 30
0.0
 41
10.0
 42
10.0
 43
10.0
 50
270.0
  0
INSERT
  5
9173
330
9129
100
AcDbEntity
  8
実形
 62
     0
370
    18
100
AcDbBlockReference
  2
_Dot
 10
671.7970691275186
 20
690.6580729330508
 30
0.0
 41
10.0
 42
10.0
 43
10.0
 50
90.0
  0
POINT
  5
9174
330
9129
100
AcDbEntity
  8
Defpoints
 62
     0
100
AcDbPoint
 10
790.7597655854806
 20
475.6580729330507
 30
0.0
  0
POINT
  5
9175
330
9129
100
AcDbEntity
  8
Defpoints
 62
     0
100
AcDbPoint
 10
827.7702104998823
 20
690.6580729330507
 30
0.0
  0
POINT
  5
9176
330
9129
100
AcDbEntity
  8
Defpoints
 62
     0
100
AcDbPoint
 10
671.7970691275186
 20
690.6580729330508
 30
0.0
  0
ENDBLK
  5
9134
330
9129
100
AcDbEntity
  8
0
 62
     3
100
AcDbBlockEnd
  0
BLOCK
  5
913F
330
9135
100
AcDbEntity
  8
0
 62
     3
100
AcDbBlockBegin
  2
*D80
 70
     1
 10
0.0
 20
0.0
 30
0.0
  3
*D80
  1

  0
LINE
  5
9177
330
9135
100
AcDbEntity
  8
実形
 62
     0
370
    18
100
AcDbLine
 10
714.5378511944673
 20
690.6580729330508
 30
0.0
 11
616.7970691275186
 21
690.6580729330508
 31
0.0
  0
LINE
  5
9178
330
9135
100
AcDbEntity
  8
実形
 62
     0
370
    18
100
AcDbLine
 10
697.7702104998825
 20
475.6580729330509
 30
0.0
 11
616.7970691275186
 21
475.6580729330509
 31
0.0
  0
LINE
  5
9179
330
9135
100
AcDbEntity
  8
実形
 62
     0
370
    18
100
AcDbLine
 10
616.7970691275186
 20
680.6580729330509
 30
0.0
 11
616.7970691275186
 21
485.6580729330509
 31
0.0
  0
INSERT
  5
917A
330
9135
100
AcDbEntity
  8
実形
 62
     0
370
    18
100
AcDbBlockReference
  2
_Dot
 10
616.7970691275186
 20
690.6580729330508
 30
0.0
 41
10.0
 42
10.0
 43
10.0
 50
90.0
  0
INSERT
  5
917B
330
9135
100
AcDbEntity
  8
実形
 62
     0
370
    18
100
AcDbBlockReference
  2
_Dot
 10
616.7970691275186
 20
475.6580729330509
 30
0.0
 41
10.0
 42
10.0
 43
10.0
 50
270.0
  0
MTEXT
  5
917C
330
9135
100
AcDbEntity
  8
実形
 62
     0
100
AcDbMText
 10
597.6970691275185
 20
583.158072933051
 30
0.0
 40
25.0
 41
0.0
 71
     5
 72
     1
  1
213
 11
0.0000000000000001
 21
1.0
 31
0.0
 73
     1
 44
1.0
1001
ACAD
1000
MTEXTBEGIN
1070
    73
1070
     1
1070
    44
1040
1.0
1070
    74
1070
     0
1000
MTEXTEND
  0
POINT
  5
917D
330
9135
100
AcDbEntity
  8
Defpoints
 62
     0
100
AcDbPoint
 10
779.5378511944672
 20
690.6580729330507
 30
0.0
  0
POINT
  5
917E
330
9135
100
AcDbEntity
  8
Defpoints
 62
     0
100
AcDbPoint
 10
762.7702104998824
 20
475.6580729330509
 30
0.0
  0
POINT
  5
917F
330
9135
100
AcDbEntity
  8
Defpoints
 62
     0
100
AcDbPoint
 10
616.7970691275186
 20
475.6580729330509
 30
0.0
  0
ENDBLK
  5
9140
330
9135
100
AcDbEntity
  8
0
 62
     3
100
AcDbBlockEnd
  0
BLOCK
  5
9259
330
924F
100
AcDbEntity
  8
0
 62
     3
100
AcDbBlockBegin
  2
*D81
 70
     1
 10
0.0
 20
0.0
 30
0.0
  3
*D81
  1

  0
LINE
  5
92A4
330
924F
100
AcDbEntity
  8
実形
 62
     0
370
    18
100
AcDbLine
 10
2017.800839299686
 20
1069.178460662066
 30
0.0
 11
2017.800839299686
 21
1014.632201197999
 31
0.0
  0
LINE
  5
92A5
330
924F
100
AcDbEntity
  8
実形
 62
     0
370
    18
100
AcDbLine
 10
2206.292328655763
 20
1070.566572366811
 30
0.0
 11
2206.292328655763
 21
1014.632201197999
 31
0.0
  0
LINE
  5
92A6
330
924F
100
AcDbEntity
  8
実形
 62
     0
370
    18
100
AcDbLine
 10
2027.800839299685
 20
1014.632201197999
 30
0.0
 11
2196.292328655763
 21
1014.632201197999
 31
0.0
  0
MTEXT
  5
92A7
330
924F
100
AcDbEntity
  8
実形
 62
     0
100
AcDbMText
 10
2055.760532132786
 20
1033.732201197999
 30
0.0
 40
25.0
 41
0.0
 71
     5
 72
     1
  1
15
 73
     1
 44
1.0
1001
ACAD
1000
MTEXTBEGIN
1070
    73
1070
     1
1070
    44
1040
1.0
1070
    74
1070
     0
1000
MTEXTEND
  0
INSERT
  5
92A8
330
924F
100
AcDbEntity
  8
実形
 62
     0
370
    18
100
AcDbBlockReference
  2
_Dot
 10
2017.800839299686
 20
1014.632201197999
 30
0.0
 41
10.0
 42
10.0
 43
10.0
 50
180.0
  0
INSERT
  5
92A9
330
924F
100
AcDbEntity
  8
実形
 62
     0
370
    18
100
AcDbBlockReference
  2
_Dot
 10
2206.292328655763
 20
1014.632201197999
 30
0.0
 41
10.0
 42
10.0
 43
10.0
  0
POINT
  5
92AA
330
924F
100
AcDbEntity
  8
Defpoints
 62
     0
100
AcDbPoint
 10
2017.800839299686
 20
1134.178460662066
 30
0.0
  0
POINT
  5
92AB
330
924F
100
AcDbEntity
  8
Defpoints
 62
     0
100
AcDbPoint
 10
2206.292328655763
 20
1135.566572366811
 30
0.0
  0
POINT
  5
92AC
330
924F
100
AcDbEntity
  8
Defpoints
 62
     0
100
AcDbPoint
 10
2206.292328655763
 20
1014.632201197999
 30
0.0
  0
ENDBLK
  5
925A
330
924F
100
AcDbEntity
  8
0
 62
     3
100
AcDbBlockEnd
  0
BLOCK
  5
9266
330
925B
100
AcDbEntity
  8
0
 62
     3
100
AcDbBlockBegin
  2
*D82
 70
     1
 10
0.0
 20
0.0
 30
0.0
  3
*D82
  1

  0
LINE
  5
92AD
330
925B
100
AcDbEntity
  8
実形
 62
     0
370
    18
100
AcDbLine
 10
2032.800839299685
 20
1069.178460662065
 30
0.0
 11
2032.800839299685
 21
1014.632201197999
 31
0.0
  0
LINE
  5
92AE
330
925B
100
AcDbEntity
  8
実形
 62
     0
370
    18
100
AcDbLine
 10
2206.292328655763
 20
1054.178460662066
 30
0.0
 11
2206.292328655763
 21
1014.632201197999
 31
0.0
  0
LINE
  5
92AF
330
925B
100
AcDbEntity
  8
実形
 62
     0
370
    18
100
AcDbLine
 10
2042.800839299685
 20
1014.632201197999
 30
0.0
 11
2094.392394780992
 21
1014.632201197999
 31
0.0
  0
LINE
  5
92B0
330
925B
100
AcDbEntity
  8
実形
 62
     0
370
    18
100
AcDbLine
 10
2196.292328655763
 20
1014.632201197999
 30
0.0
 11
2165.925728114326
 21
1014.632201197999
 31
0.0
  0
MTEXT
  5
92B1
330
925B
100
AcDbEntity
  8
実形
 62
     0
100
AcDbMText
 10
2130.159061447659
 20
1032.540780884531
 30
0.0
 40
25.0
 41
0.0
 71
     5
 72
     1
  1
175
 73
     1
 44
1.0
1001
ACAD
1000
MTEXTBEGIN
1070
    73
1070
     1
1070
    44
1040
1.0
1070
    74
1070
     0
1000
MTEXTEND
  0
INSERT
  5
92B2
330
925B
100
AcDbEntity
  8
実形
 62
     0
370
    18
100
AcDbBlockReference
  2
_Dot
 10
2032.800839299685
 20
1014.632201197999
 30
0.0
 41
10.0
 42
10.0
 43
10.0
 50
180.0
  0
INSERT
  5
92B3
330
925B
100
AcDbEntity
  8
実形
 62
     0
370
    18
100
AcDbBlockReference
  2
_Dot
 10
2206.292328655763
 20
1014.632201197999
 30
0.0
 41
10.0
 42
10.0
 43
10.0
  0
POINT
  5
92B4
330
925B
100
AcDbEntity
  8
Defpoints
 62
     0
100
AcDbPoint
 10
2032.800839299685
 20
1134.178460662065
 30
0.0
  0
POINT
  5
92B5
330
925B
100
AcDbEntity
  8
Defpoints
 62
     0
100
AcDbPoint
 10
2206.292328655763
 20
1119.178460662066
 30
0.0
  0
POINT
  5
92B6
330
925B
100
AcDbEntity
  8
Defpoints
 62
     0
100
AcDbPoint
 10
2206.292328655763
 20
1014.632201197999
 30
0.0
  0
ENDBLK
  5
9267
330
925B
100
AcDbEntity
  8
0
 62
     3
100
AcDbBlockEnd
  0
BLOCK
  5
9272
330
9268
100
AcDbEntity
  8
0
 62
     3
100
AcDbBlockBegin
  2
*D83
 70
     1
 10
0.0
 20
0.0
 30
0.0
  3
*D83
  1

  0
LINE
  5
92B7
330
9268
100
AcDbEntity
  8
実形
 62
     0
370
    18
100
AcDbLine
 10
2017.800839299686
 20
1004.178460662066
 30
0.0
 11
2017.800839299686
 21
959.6322011979991
 31
0.0
  0
LINE
  5
92B8
330
9268
100
AcDbEntity
  8
実形
 62
     0
370
    18
100
AcDbLine
 10
2206.292328655763
 20
1023.652485550307
 30
0.0
 11
2206.292328655763
 21
959.6322011979991
 31
0.0
  0
LINE
  5
92B9
330
9268
100
AcDbEntity
  8
実形
 62
     0
370
    18
100
AcDbLine
 10
2027.800839299685
 20
959.6322011979991
 30
0.0
 11
2196.292328655763
 21
959.6322011979991
 31
0.0
  0
MTEXT
  5
92BA
330
9268
100
AcDbEntity
  8
実形
 62
     0
100
AcDbMText
 10
2127.469493195675
 20
978.7322011979991
 30
0.0
 40
25.0
 41
0.0
 71
     5
 72
     1
  1
190
 73
     1
 44
1.0
1001
ACAD
1000
MTEXTBEGIN
1070
    73
1070
     1
1070
    44
1040
1.0
1070
    74
1070
     0
1000
MTEXTEND
  0
INSERT
  5
92BB
330
9268
100
AcDbEntity
  8
実形
 62
     0
370
    18
100
AcDbBlockReference
  2
_Dot
 10
2017.800839299686
 20
959.6322011979991
 30
0.0
 41
10.0
 42
10.0
 43
10.0
 50
180.0
  0
INSERT
  5
92BC
330
9268
100
AcDbEntity
  8
実形
 62
     0
370
    18
100
AcDbBlockReference
  2
_Dot
 10
2206.292328655763
 20
959.6322011979991
 30
0.0
 41
10.0
 42
10.0
 43
10.0
  0
POINT
  5
92BD
330
9268
100
AcDbEntity
  8
Defpoints
 62
     0
100
AcDbPoint
 10
2017.800839299686
 20
1069.178460662066
 30
0.0
  0
POINT
  5
92BE
330
9268
100
AcDbEntity
  8
Defpoints
 62
     0
100
AcDbPoint
 10
2206.292328655763
 20
1088.652485550307
 30
0.0
  0
POINT
  5
92BF
330
9268
100
AcDbEntity
  8
Defpoints
 62
     0
100
AcDbPoint
 10
2206.292328655763
 20
959.6322011979991
 30
0.0
  0
ENDBLK
  5
9273
330
9268
100
AcDbEntity
  8
0
 62
     3
100
AcDbBlockEnd
  0
BLOCK
  5
927E
330
9274
100
AcDbEntity
  8
0
 62
     3
100
AcDbBlockBegin
  2
*D84
 70
     1
 10
0.0
 20
0.0
 30
0.0
  3
*D84
  1

  0
LINE
  5
92C0
330
9274
100
AcDbEntity
  8
実形
 62
     0
370
    18
100
AcDbLine
 10
2222.800839299686
 20
1016.182213279534
 30
0.0
 11
2222.800839299686
 21
959.6322011979991
 31
0.0
  0
LINE
  5
92C1
330
9274
100
AcDbEntity
  8
実形
 62
     0
370
    18
100
AcDbLine
 10
2017.800839299686
 20
1004.178460662066
 30
0.0
 11
2017.800839299686
 21
959.6322011979991
 31
0.0
  0
LINE
  5
92C2
330
9274
100
AcDbEntity
  8
実形
 62
     0
370
    18
100
AcDbLine
 10
2212.800839299686
 20
959.6322011979991
 30
0.0
 11
2027.800839299685
 21
959.6322011979991
 31
0.0
  0
MTEXT
  5
92C3
330
9274
100
AcDbEntity
  8
実形
 62
     0
100
AcDbMText
 10
2252.038896640843
 20
981.232201197999
 30
0.0
 40
25.0
 41
0.0
 71
     5
 72
     1
  1
15
 73
     1
 44
1.0
1001
ACAD
1000
MTEXTBEGIN
1070
    73
1070
     1
1070
    44
1040
1.0
1070
    74
1070
     0
1000
MTEXTEND
  0
INSERT
  5
92C4
330
9274
100
AcDbEntity
  8
実形
 62
     0
370
    18
100
AcDbBlockReference
  2
_Dot
 10
2222.800839299686
 20
959.6322011979991
 30
0.0
 41
10.0
 42
10.0
 43
10.0
  0
INSERT
  5
92C5
330
9274
100
AcDbEntity
  8
実形
 62
     0
370
    18
100
AcDbBlockReference
  2
_Dot
 10
2017.800839299686
 20
959.6322011979991
 30
0.0
 41
10.0
 42
10.0
 43
10.0
 50
180.0
  0
POINT
  5
92C6
330
9274
100
AcDbEntity
  8
Defpoints
 62
     0
100
AcDbPoint
 10
2222.800839299686
 20
1081.182213279534
 30
0.0
  0
POINT
  5
92C7
330
9274
100
AcDbEntity
  8
Defpoints
 62
     0
100
AcDbPoint
 10
2017.800839299686
 20
1069.178460662066
 30
0.0
  0
POINT
  5
92C8
330
9274
100
AcDbEntity
  8
Defpoints
 62
     0
100
AcDbPoint
 10
2017.800839299686
 20
959.6322011979991
 30
0.0
  0
ENDBLK
  5
927F
330
9274
100
AcDbEntity
  8
0
 62
     3
100
AcDbBlockEnd
  0
BLOCK
  5
928A
330
9280
100
AcDbEntity
  8
0
 62
     3
100
AcDbBlockBegin
  2
*D85
 70
     1
 10
0.0
 20
0.0
 30
0.0
  3
*D85
  1

  0
LINE
  5
92C9
330
9280
100
AcDbEntity
  8
実形
 62
     0
370
    18
100
AcDbLine
 10
2017.800839299686
 20
1004.178460662066
 30
0.0
 11
2017.800839299686
 21
904.632201197999
 31
0.0
  0
LINE
  5
92CA
330
9280
100
AcDbEntity
  8
実形
 62
     0
370
    18
100
AcDbLine
 10
2222.800839299686
 20
968.7931264554782
 30
0.0
 11
2222.800839299686
 21
904.632201197999
 31
0.0
  0
LINE
  5
92CB
330
9280
100
AcDbEntity
  8
実形
 62
     0
370
    18
100
AcDbLine
 10
2027.800839299685
 20
904.632201197999
 30
0.0
 11
2212.800839299686
 21
904.632201197999
 31
0.0
  0
MTEXT
  5
92CC
330
9280
100
AcDbEntity
  8
実形
 62
     0
100
AcDbMText
 10
2129.262535651537
 20
923.7322011979991
 30
0.0
 40
25.0
 41
0.0
 71
     5
 72
     1
  1
205
 73
     1
 44
1.0
1001
ACAD
1000
MTEXTBEGIN
1070
    73
1070
     1
1070
    44
1040
1.0
1070
    74
1070
     0
1000
MTEXTEND
  0
INSERT
  5
92CD
330
9280
100
AcDbEntity
  8
実形
 62
     0
370
    18
100
AcDbBlockReference
  2
_Dot
 10
2017.800839299686
 20
904.632201197999
 30
0.0
 41
10.0
 42
10.0
 43
10.0
 50
180.0
  0
INSERT
  5
92CE
330
9280
100
AcDbEntity
  8
実形
 62
     0
370
    18
100
AcDbBlockReference
  2
_Dot
 10
2222.800839299686
 20
904.632201197999
 30
0.0
 41
10.0
 42
10.0
 43
10.0
  0
POINT
  5
92CF
330
9280
100
AcDbEntity
  8
Defpoints
 62
     0
100
AcDbPoint
 10
2017.800839299686
 20
1069.178460662066
 30
0.0
  0
POINT
  5
92D0
330
9280
100
AcDbEntity
  8
Defpoints
 62
     0
100
AcDbPoint
 10
2222.800839299686
 20
1033.793126455478
 30
0.0
  0
POINT
  5
92D1
330
9280
100
AcDbEntity
  8
Defpoints
 62
     0
100
AcDbPoint
 10
2222.800839299686
 20
904.632201197999
 30
0.0
  0
ENDBLK
  5
928B
330
9280
100
AcDbEntity
  8
0
 62
     3
100
AcDbBlockEnd
  0
BLOCK
  5
9296
330
928C
100
AcDbEntity
  8
0
 62
     3
100
AcDbBlockBegin
  2
*D86
 70
     1
 10
0.0
 20
0.0
 30
0.0
  3
*D86
  1

  0
LINE
  5
92D2
330
928C
100
AcDbEntity
  8
実形
 62
     0
370
    18
100
AcDbLine
 10
2232.800839299685
 20
960.2301550043657
 30
0.0
 11
2232.800839299685
 21
904.632201197999
 31
0.0
  0
LINE
  5
92D3
330
928C
100
AcDbEntity
  8
実形
 62
     0
370
    18
100
AcDbLine
 10
2017.800839299686
 20
969.632201197999
 30
0.0
 11
2017.800839299686
 21
904.632201197999
 31
0.0
  0
LINE
  5
92D4
330
928C
100
AcDbEntity
  8
実形
 62
     0
370
    18
100
AcDbLine
 10
2222.800839299685
 20
904.632201197999
 30
0.0
 11
2027.800839299685
 21
904.632201197999
 31
0.0
  0
MTEXT
  5
92D5
330
928C
100
AcDbEntity
  8
実形
 62
     0
100
AcDbMText
 10
2251.752431418783
 20
926.2322011979991
 30
0.0
 40
25.0
 41
0.0
 71
     5
 72
     1
  1
8
 73
     1
 44
1.0
1001
ACAD
1000
MTEXTBEGIN
1070
    73
1070
     1
1070
    44
1040
1.0
1070
    74
1070
     0
1000
MTEXTEND
  0
INSERT
  5
92D6
330
928C
100
AcDbEntity
  8
実形
 62
     0
370
    18
100
AcDbBlockReference
  2
_Dot
 10
2232.800839299685
 20
904.632201197999
 30
0.0
 41
10.0
 42
10.0
 43
10.0
  0
INSERT
  5
92D7
330
928C
100
AcDbEntity
  8
実形
 62
     0
370
    18
100
AcDbBlockReference
  2
_Dot
 10
2017.800839299686
 20
904.632201197999
 30
0.0
 41
10.0
 42
10.0
 43
10.0
 50
180.0
  0
POINT
  5
92D8
330
928C
100
AcDbEntity
  8
Defpoints
 62
     0
100
AcDbPoint
 10
2232.800839299685
 20
1025.230155004366
 30
0.0
  0
POINT
  5
92D9
330
928C
100
AcDbEntity
  8
Defpoints
 62
     0
100
AcDbPoint
 10
2017.800839299686
 20
904.632201197999
 30
0.0
  0
POINT
  5
92DA
330
928C
100
AcDbEntity
  8
Defpoints
 62
     0
100
AcDbPoint
 10
2017.800839299686
 20
904.632201197999
 30
0.0
  0
ENDBLK
  5
9297
330
928C
100
AcDbEntity
  8
0
 62
     3
100
AcDbBlockEnd
  0
BLOCK
  5
92A2
330
9298
100
AcDbEntity
  8
0
 62
     3
100
AcDbBlockBegin
  2
*D87
 70
     1
 10
0.0
 20
0.0
 30
0.0
  3
*D87
  1

  0
LINE
  5
92DB
330
9298
100
AcDbEntity
  8
実形
 62
     0
370
    18
100
AcDbLine
 10
2017.800839299686
 20
939.1784606620658
 30
0.0
 11
2017.800839299686
 21
849.6322011979991
 31
0.0
  0
LINE
  5
92DC
330
9298
100
AcDbEntity
  8
実形
 62
     0
370
    18
100
AcDbLine
 10
2232.800839299685
 20
908.2416529477404
 30
0.0
 11
2232.800839299685
 21
849.6322011979991
 31
0.0
  0
LINE
  5
92DD
330
9298
100
AcDbEntity
  8
実形
 62
     0
370
    18
100
AcDbLine
 10
2027.800839299685
 20
849.6322011979991
 30
0.0
 11
2222.800839299685
 21
849.6322011979991
 31
0.0
  0
MTEXT
  5
92DE
330
9298
100
AcDbEntity
  8
実形
 62
     0
100
AcDbMText
 10
2127.500346759052
 20
868.732201197999
 30
0.0
 40
25.0
 41
0.0
 71
     5
 72
     1
  1
213
 73
     1
 44
1.0
1001
ACAD
1000
MTEXTBEGIN
1070
    73
1070
     1
1070
    44
1040
1.0
1070
    74
1070
     0
1000
MTEXTEND
  0
INSERT
  5
92DF
330
9298
100
AcDbEntity
  8
実形
 62
     0
370
    18
100
AcDbBlockReference
  2
_Dot
 10
2017.800839299686
 20
849.6322011979991
 30
0.0
 41
10.0
 42
10.0
 43
10.0
 50
180.0
  0
INSERT
  5
92E0
330
9298
100
AcDbEntity
  8
実形
 62
     0
370
    18
100
AcDbBlockReference
  2
_Dot
 10
2232.800839299685
 20
849.6322011979991
 30
0.0
 41
10.0
 42
10.0
 43
10.0
  0
POINT
  5
92E1
330
9298
100
AcDbEntity
  8
Defpoints
 62
     0
100
AcDbPoint
 10
2017.800839299686
 20
1004.178460662066
 30
0.0
  0
POINT
  5
92E2
330
9298
100
AcDbEntity
  8
Defpoints
 62
     0
100
AcDbPoint
 10
2232.800839299685
 20
973.2416529477404
 30
0.0
  0
POINT
  5
92E3
330
9298
100
AcDbEntity
  8
Defpoints
 62
     0
100
AcDbPoint
 10
2232.800839299685
 20
849.6322011979991
 30
0.0
  0
ENDBLK
  5
92A3
330
9298
100
AcDbEntity
  8
0
 62
     3
100
AcDbBlockEnd
  0
ENDSEC
  0
SECTION
  2
ENTITIES
  0
LINE
  5
A0
330
1F
100
AcDbEntity
  8
枠
 62
     0
100
AcDbLine
 10
2834.0
 20
2023.999999999999
 30
0.0
 11
174.0
 21
2023.999999999999
 31
0.0
  0
LINE
  5
272
330
1F
100
AcDbEntity
  8
実形
 62
     0
100
AcDbLine
 10
2234.0
 20
138.9999999999991
 30
0.0
 11
2234.0
 21
203.9999999999991
 31
0.0
  0
LINE
  5
1B73
330
1F
100
AcDbEntity
  8
枠
 62
     0
100
AcDbLine
 10
1944.0
 20
2023.999999999999
 30
0.0
 11
2834.0
 21
2023.999999999999
 31
0.0
  0
LINE
  5
1B84
330
1F
100
AcDbEntity
  8
実形
 62
     0
100
AcDbLine
 10
2114.0
 20
73.99999999999909
 30
0.0
 11
2834.0
 21
73.99999999999909
 31
0.0
  0
LINE
  5
1B85
330
1F
100
AcDbEntity
  8
実形
 62
     0
100
AcDbLine
 10
2114.0
 20
203.9999999999991
 30
0.0
 11
2834.0
 21
203.9999999999991
 31
0.0
  0
LINE
  5
1B86
330
1F
100
AcDbEntity
  8
実形
 62
     0
100
AcDbLine
 10
2114.0
 20
138.9999999999991
 30
0.0
 11
2834.0
 21
138.9999999999991
 31
0.0
  0
LINE
  5
1B87
330
1F
100
AcDbEntity
  8
実形
 62
     0
100
AcDbLine
 10
2114.0
 20
8.99999999999909
 30
0.0
 11
2114.0
 21
203.9999999999991
 31
0.0
  0
TEXT
  5
1B88
330
1F
100
AcDbEntity
  8
実形
 62
     0
100
AcDbText
 10
2340.663617763627
 20
23.49999999999909
 30
0.0
 40
35.0
  1
中外交易株式会社
  7
ms明朝
 72
     4
 11
2545.463617763628
 21
41.49999999999908
 31
0.0
100
AcDbText
  0
LINE
  5
1B8A
330
1F
100
AcDbEntity
  8
実形
 62
     0
100
AcDbLine
 10
2234.0
 20
73.99999999999909
 30
0.0
 11
2834.0
 21
73.99999999999909
 31
0.0
  0
LINE
  5
1B8B
330
1F
100
AcDbEntity
  8
実形
 62
     0
370
     5
100
AcDbLine
 10
2257.843923164362
 20
40.53787547858428
 30
0.0
 11
2233.255774665348
 21
40.53787547858428
 31
0.0
  0
LINE
  5
1B8C
330
1F
100
AcDbEntity
  8
実形
 62
     0
370
     5
100
AcDbLine
 10
2233.255774665348
 20
40.53787547858428
 30
0.0
 11
2233.255774665348
 21
30.53787547858429
 31
0.0
  0
LINE
  5
1B8D
330
1F
100
AcDbEntity
  8
実形
 62
     0
370
     5
100
AcDbLine
 10
2233.255774665348
 20
30.53787547858429
 30
0.0
 11
2257.346428692676
 21
30.53787547858429
 31
0.0
  0
LINE
  5
1B8E
330
1F
100
AcDbEntity
  8
実形
 62
     0
370
     5
100
AcDbLine
 10
2260.641894042939
 20
61.49999999999909
 30
0.0
 11
2260.641894042939
 21
21.49999999999909
 31
0.0
  0
LINE
  5
1B8F
330
1F
100
AcDbEntity
  8
実形
 62
     0
370
     5
100
AcDbLine
 10
2260.641894042939
 20
16.49999999999909
 30
0.0
 11
2295.641894042939
 21
16.49999999999909
 31
0.0
  0
LINE
  5
1B90
330
1F
100
AcDbEntity
  8
実形
 62
     0
370
     5
100
AcDbLine
 10
2295.641894042939
 20
16.49999999999909
 30
0.0
 11
2260.641894042939
 21
36.49999999999909
 31
0.0
  0
LINE
  5
1B91
330
1F
100
AcDbEntity
  8
実形
 62
     0
370
     5
100
AcDbLine
 10
2260.641894042939
 20
41.49999999999908
 30
0.0
 11
2295.641894042939
 21
61.49999999999909
 31
0.0
  0
LINE
  5
1B92
330
1F
100
AcDbEntity
  8
実形
 62
     0
370
     5
100
AcDbLine
 10
2295.641894042939
 20
61.49999999999909
 30
0.0
 11
2260.641894042939
 21
61.49999999999909
 31
0.0
  0
LINE
  5
1B93
330
1F
100
AcDbEntity
  8
実形
 62
     0
370
     5
100
AcDbLine
 10
2326.75434681301
 20
40.53787547858428
 30
0.0
 11
2302.166198313996
 21
40.53787547858428
 31
0.0
  0
LINE
  5
1B94
330
1F
100
AcDbEntity
  8
実形
 62
     0
370
     5
100
AcDbLine
 10
2302.166198313996
 20
40.53787547858428
 30
0.0
 11
2302.166198313996
 21
30.53787547858429
 31
0.0
  0
LINE
  5
1B95
330
1F
100
AcDbEntity
  8
実形
 62
     0
370
     5
100
AcDbLine
 10
2302.166198313996
 20
30.53787547858429
 30
0.0
 11
2326.256852341323
 21
30.53787547858429
 31
0.0
  0
ARC
  5
1B96
330
1F
100
AcDbEntity
  8
実形
 62
     0
370
     5
100
AcDbCircle
 10
2238.255774665347
 20
41.49999999999908
 30
0.0
 40
20.0
100
AcDbArc
 50
11.64772366708617
 51
342.6561058784773
  0
ARC
  5
1B97
330
1F
100
AcDbEntity
  8
実形
 62
     0
370
     5
100
AcDbCircle
 10
2307.166198313995
 20
41.49999999999908
 30
0.0
 40
20.0
100
AcDbArc
 50
11.64772366708617
 51
342.6561058784773
  0
HATCH
  5
1B98
330
1F
100
AcDbEntity
  8
実形
 62
     0
100
AcDbHatch
 10
0.0
 20
0.0
 30
0.0
210
0.0
220
0.0
230
1.0
  2
SOLID
 70
     1
 71
     0
 91
        3
 92
        1
 93
        4
 72
     2
 10
2307.166198313995
 20
41.49999999999908
 40
20.0
 50
11.64772366708617
 51
342.6561058784773
 73
     1
 72
     1
 10
2326.256852341323
 20
35.53787547858429
 11
2302.166198313996
 21
35.53787547858429
 72
     1
 10
2302.166198313996
 20
35.53787547858429
 11
2302.166198313996
 21
45.53787547858428
 72
     1
 10
2302.166198313996
 20
45.53787547858428
 11
2326.75434681301
 21
45.53787547858428
 97
        0
 92
        1
 93
        4
 72
     2
 10
2238.255774665347
 20
41.49999999999908
 40
20.0
 50
11.64772366708617
 51
342.6561058784773
 73
     1
 72
     1
 10
2257.346428692676
 20
35.53787547858429
 11
2233.255774665348
 21
35.53787547858429
 72
     1
 10
2233.255774665348
 20
35.53787547858429
 11
2233.255774665348
 21
45.53787547858428
 72
     1
 10
2233.255774665348
 20
45.53787547858428
 11
2257.843923164362
 21
45.53787547858428
 97
        0
 92
        1
 93
        5
 72
     1
 10
2295.641894042939
 20
61.49999999999909
 11
2260.641894042939
 21
61.49999999999909
 72
     1
 10
2260.641894042939
 20
61.49999999999909
 11
2260.641894042939
 21
21.49999999999909
 72
     1
 10
2260.641894042939
 20
21.49999999999909
 11
2295.641894042939
 21
21.49999999999909
 72
     1
 10
2295.641894042939
 20
21.49999999999909
 11
2260.641894042939
 21
41.49999999999908
 72
     1
 10
2260.641894042939
 20
41.49999999999908
 11
2295.641894042939
 21
61.49999999999909
 97
        0
 75
     0
 76
     1
 98
        1
 10
-10.0
 20
4.99999999999909
  0
LINE
  5
1B99
330
1F
100
AcDbEntity
  8
実形
 62
     0
100
AcDbLine
 10
2234.0
 20
73.99999999999909
 30
0.0
 11
2234.0
 21
203.9999999999991
 31
0.0
  0
TEXT
  5
5E5F
330
1F
100
AcDbEntity
  8
実形
 62
     0
100
AcDbText
 10
2136.666666666667
 20
88.99999999999909
 30
0.0
 40
35.0
  1
尺度
 72
     4
 11
2174.0
 21
106.4999999999991
 31
0.0
100
AcDbText
  0
TEXT
  5
5E68
330
1F
100
AcDbEntity
  8
実形
 62
     0
100
AcDbText
 10
2136.666666666667
 20
153.9999999999991
 30
0.0
 40
35.0
  1
品番
 72
     4
 11
2174.0
 21
171.4999999999991
 31
0.0
100
AcDbText
  0
TEXT
  5
68BC
330
1F
100
AcDbEntity
  8
実形
100
AcDbText
 10
2443.255253185007
 20
89.68238670760312
 30
0.0
 40
35.0
  1
1：10
  7
ms明朝
 72
     4
 11
2507.255253185007
 21
106.7823867076031
 31
0.0
100
AcDbText
  0
TEXT
  5
68D6
330
1F
100
AcDbEntity
  8
実形
100
AcDbText
 10
2324.873083778587
 20
153.730875284324
 30
0.0
 40
35.0
  1
RaS800-510GRM
  7
ms明朝
 72
     4
 11
2491.273083778587
 21
170.830875284324
 31
0.0
100
AcDbText
  0
LINE
  5
6D9B
330
1F
100
AcDbEntity
  8
実形
 62
     0
100
AcDbLine
 10
2834.0
 20
8.99999999999909
 30
0.0
 11
2834.0
 21
2024.0
 31
0.0
  0
LINE
  5
6E31
330
1F
100
AcDbEntity
  8
実形
 62
     0
100
AcDbLine
 10
174.0
 20
2024.0
 30
0.0
 11
174.0
 21
8.99999999999909
 31
0.0
  0
LINE
  5
7026
330
1F
100
AcDbEntity
  8
実形
100
AcDbLine
 10
827.7702104998825
 20
1659.178460662066
 30
0.0
 11
1657.770210499882
 21
1659.178460662066
 31
0.0
  0
LINE
  5
7027
330
1F
100
AcDbEntity
  8
実形
100
AcDbLine
 10
1657.770210499882
 20
1659.178460662066
 30
0.0
 11
1657.770210499882
 21
1119.178460662066
 31
0.0
  0
LINE
  5
7028
330
1F
100
AcDbEntity
  8
実形
100
AcDbLine
 10
1657.770210499882
 20
1119.178460662066
 30
0.0
 11
827.7702104998825
 21
1119.178460662066
 31
0.0
  0
LINE
  5
7029
330
1F
100
AcDbEntity
  8
実形
100
AcDbLine
 10
827.7702104998825
 20
1119.178460662066
 30
0.0
 11
827.7702104998825
 21
1659.178460662066
 31
0.0
  0
LINE
  5
702A
330
1F
100
AcDbEntity
  8
実形
100
AcDbLine
 10
848.7702104998824
 20
1644.178460662066
 30
0.0
 11
1636.770210499882
 21
1644.178460662066
 31
0.0
  0
LINE
  5
702B
330
1F
100
AcDbEntity
  8
実形
100
AcDbLine
 10
1642.770210499882
 20
1638.178460662065
 30
0.0
 11
1642.770210499882
 21
1140.178460662066
 31
0.0
  0
LINE
  5
702C
330
1F
100
AcDbEntity
  8
実形
100
AcDbLine
 10
1636.770210499882
 20
1134.178460662066
 30
0.0
 11
848.7702104998826
 21
1134.178460662066
 31
0.0
  0
LINE
  5
702D
330
1F
100
AcDbEntity
  8
実形
100
AcDbLine
 10
842.7702104998825
 20
1140.178460662066
 30
0.0
 11
842.7702104998823
 21
1638.178460662066
 31
0.0
  0
LINE
  5
702E
330
1F
100
AcDbEntity
  8
実形
100
AcDbLine
 10
862.7702104998823
 20
1160.178460662065
 30
0.0
 11
862.7702104998821
 21
1548.178460662066
 31
0.0
  0
LINE
  5
702F
330
1F
100
AcDbEntity
  8
実形
100
AcDbLine
 10
1098.770210499882
 20
1624.178460662066
 30
0.0
 11
1386.770210499882
 21
1624.178460662066
 31
0.0
  0
LINE
  5
7030
330
1F
100
AcDbEntity
  8
実形
100
AcDbLine
 10
1622.770210499882
 20
1548.178460662066
 30
0.0
 11
1622.770210499882
 21
1160.178460662065
 31
0.0
  0
LINE
  5
7031
330
1F
100
AcDbEntity
  8
実形
100
AcDbLine
 10
1616.770210499882
 20
1154.178460662066
 30
0.0
 11
868.7702104998823
 21
1154.178460662065
 31
0.0
  0
DIMENSION
  5
70F5
330
1F
100
AcDbEntity
  8
実形
100
AcDbDimension
  2
*D10
 10
1622.770210499882
 20
986.9157589576788
 30
0.0
 11
1242.770210499882
 21
1006.015758957679
 31
0.0
 70
    32
 71
     5
 42
759.9999999999997
  3
ISO-25
100
AcDbAlignedDimension
 13
862.7702104998824
 23
1119.178460662066
 33
0.0
 14
1622.770210499882
 24
1119.178460662066
 34
0.0
100
AcDbRotatedDimension
1001
ACAD
1000
DSTYLE
1002
{
1070
    41
1040
10.0
1070
   140
1040
25.0
1070
   147
1040
6.599999999999998
1070
   279
1070
     2
1070
   342
1005
30D
1070
   371
1070
    18
1070
   372
1070
    18
1002
}
  0
DIMENSION
  5
7102
330
1F
100
AcDbEntity
  8
実形
100
AcDbDimension
  2
*D11
 10
1642.770210499882
 20
986.9157589576788
 30
0.0
 11
1589.171363804602
 21
1008.515758957678
 31
0.0
 70
   160
  1
20
 71
     5
 42
799.9999999999998
  3
ISO-25
100
AcDbAlignedDimension
 13
842.7702104998825
 23
1119.178460662066
 33
0.0
 14
1642.770210499882
 24
1119.178460662066
 34
0.0
100
AcDbRotatedDimension
1001
ACAD
1000
DSTYLE
1002
{
1070
    41
1040
10.0
1070
   140
1040
25.0
1070
   147
1040
6.599999999999998
1070
   279
1070
     2
1070
   342
1005
30D
1070
   371
1070
    18
1070
   372
1070
    18
1002
}
  0
TEXT
  5
7132
330
1F
100
AcDbEntity
  8
実形
 48
20.0
100
AcDbText
 10
877.7699109105341
 20
997.9747080171309
 30
0.0
 40
25.0
  1
20
100
AcDbText
  0
DIMENSION
  5
7133
330
1F
100
AcDbEntity
  8
実形
100
AcDbDimension
  2
*D12
 10
1642.770210499882
 20
924.5052716017053
 30
0.0
 11
1242.770210499882
 21
943.6052716017053
 31
0.0
 70
    32
 71
     5
 42
799.9999999999998
  3
ISO-25
100
AcDbAlignedDimension
 13
842.7702104998825
 23
1119.178460662066
 33
0.0
 14
1642.770210499882
 24
1119.178460662066
 34
0.0
100
AcDbRotatedDimension
1001
ACAD
1000
DSTYLE
1002
{
1070
    41
1040
10.0
1070
   140
1040
25.0
1070
   147
1040
6.599999999999998
1070
   279
1070
     2
1070
   342
1005
30D
1070
   371
1070
    18
1070
   372
1070
    18
1002
}
  0
DIMENSION
  5
7140
330
1F
100
AcDbEntity
  8
実形
100
AcDbDimension
  2
*D13
 10
1657.770210499882
 20
924.5052716017053
 30
0.0
 11
1701.559743854428
 21
946.1052716017052
 31
0.0
 70
   160
  1
15
 71
     5
 42
830.0
  3
ISO-25
100
AcDbAlignedDimension
 13
827.7702104998825
 23
1119.178460662066
 33
0.0
 14
1657.770210499882
 24
1119.178460662066
 34
0.0
100
AcDbRotatedDimension
1001
ACAD
1000
DSTYLE
1002
{
1070
    41
1040
10.0
1070
   140
1040
25.0
1070
   147
1040
6.599999999999998
1070
   279
1070
     2
1070
   342
1005
30D
1070
   371
1070
    18
1070
   372
1070
    18
1002
}
  0
TEXT
  5
7168
330
1F
100
AcDbEntity
  8
実形
 48
20.0
100
AcDbText
 10
770.7109889092589
 20
935.3423772939986
 30
0.0
 40
25.0
  1
15
100
AcDbText
  0
DIMENSION
  5
7172
330
1F
100
AcDbEntity
  8
実形
100
AcDbDimension
  2
*D14
 10
1657.770210499882
 20
851.2836911315535
 30
0.0
 11
1242.770210499882
 21
870.3836911315535
 31
0.0
 70
    32
 71
     5
 42
830.0
  3
ISO-25
100
AcDbAlignedDimension
 13
827.7702104998825
 23
1119.178460662066
 33
0.0
 14
1657.770210499882
 24
1119.178460662066
 34
0.0
100
AcDbRotatedDimension
1001
ACAD
1000
DSTYLE
1002
{
1070
    41
1040
10.0
1070
   140
1040
25.0
1070
   147
1040
6.599999999999998
1070
   279
1070
     2
1070
   342
1005
30D
1070
   371
1070
    18
1070
   372
1070
    18
1002
}
  0
LINE
  5
7180
330
1F
100
AcDbEntity
  8
実形
  6
ACAD_ISO08W100
 48
0.5
100
AcDbLine
 10
1384.469907606381
 20
1464.178460662066
 30
0.0
 11
1109.442023008436
 21
1464.178460662066
 31
0.0
  0
CIRCLE
  5
7183
330
1F
100
AcDbEntity
  8
実形
100
AcDbCircle
 10
1242.770210499882
 20
1464.178460662066
 30
0.0
 40
80.0
  0
CIRCLE
  5
7184
330
1F
100
AcDbEntity
  8
実形
100
AcDbCircle
 10
1242.770210499882
 20
1464.178460662066
 30
0.0
 40
90.5
  0
LINE
  5
7185
330
1F
100
AcDbEntity
  8
実形
100
AcDbLine
 10
862.7702104998824
 20
1659.178460662066
 30
0.0
 11
1012.770210499882
 21
1659.178460662066
 31
0.0
  0
LINE
  5
72ED
330
1F
100
AcDbEntity
  8
実形
 62
     3
100
AcDbLine
 10
797.3710940401324
 20
-382.3860966284574
 30
0.0
 11
797.3710940401326
 21
-392.3860966284574
 31
0.0
  0
TEXT
  5
734A
330
1F
100
AcDbEntity
  8
実形
100
AcDbText
 10
1539.212558549457
 20
1459.810059905723
 30
0.0
 40
25.0
  1
6R
 72
     2
 11
1580.879225216124
 21
1456.476726572389
 31
0.0
100
AcDbText
 73
     1
  0
LEADER
  5
734B
330
1F
100
AcDbEntity
  8
実形
100
AcDbLeader
  3
ISO-25
 76
     2
 10
1608.152046168767
 20
1535.243070338487
 30
0.0
 10
1569.72385129077
 20
1490.441257142689
 30
0.0
1001
ACAD
1000
DSTYLE
1002
{
1070
    77
1070
     0
1070
    41
1040
10.0
1070
   140
1040
30.0
1070
   147
1040
6.599999999999998
1070
   279
1070
     2
1070
   342
1005
30D
1070
   371
1070
    18
1070
   372
1070
    18
1002
}
  0
TEXT
  5
73F5
330
1F
100
AcDbEntity
  8
実形
100
AcDbText
 10
1473.815754418718
 20
1171.641005213965
 30
0.0
 40
25.0
  1
6R
 72
     2
 11
1515.482421085384
 21
1168.307671880632
 31
0.0
100
AcDbText
 73
     1
  0
LEADER
  5
73F6
330
1F
100
AcDbEntity
  8
実形
100
AcDbLeader
  3
ISO-25
 76
     2
 10
1633.74014683896
 20
1141.262627398047
 30
0.0
 10
1527.128963058143
 20
1172.448573079366
 30
0.0
1001
ACAD
1000
DSTYLE
1002
{
1070
    77
1070
     0
1070
    41
1040
10.0
1070
   140
1040
30.0
1070
   147
1040
6.599999999999998
1070
   279
1070
     2
1070
   342
1005
30D
1070
   371
1070
    18
1070
   372
1070
    18
1002
}
  0
ARC
  5
7548
330
1F
100
AcDbEntity
  8
実形
100
AcDbCircle
 10
1636.770210499882
 20
1638.178460662065
 30
0.0
 40
6.0
100
AcDbArc
 50
0.0
 51
90.0
  0
ARC
  5
7549
330
1F
100
AcDbEntity
  8
実形
100
AcDbCircle
 10
1616.770210499882
 20
1160.178460662065
 30
0.0
 40
6.0
100
AcDbArc
 50
270.0
 51
0.0
  0
ARC
  5
754A
330
1F
100
AcDbEntity
  8
実形
100
AcDbCircle
 10
1636.770210499882
 20
1140.178460662066
 30
0.0
 40
6.0
100
AcDbArc
 50
270.0
 51
0.0
  0
ARC
  5
754C
330
1F
100
AcDbEntity
  8
実形
100
AcDbCircle
 10
848.7702104998824
 20
1638.178460662066
 30
0.0
 40
6.0
100
AcDbArc
 50
89.99999999999998
 51
180.0
  0
ARC
  5
754D
330
1F
100
AcDbEntity
  8
実形
100
AcDbCircle
 10
868.7702104998823
 20
1160.178460662065
 30
0.0
 40
6.0
100
AcDbArc
 50
180.0
 51
270.0
  0
ARC
  5
754E
330
1F
100
AcDbEntity
  8
実形
100
AcDbCircle
 10
848.7702104998826
 20
1140.178460662066
 30
0.0
 40
6.0
100
AcDbArc
 50
180.0
 51
270.0
  0
LINE
  5
774D
330
1F
100
AcDbEntity
  8
実形
 62
     0
100
AcDbLine
 10
2114.0
 20
268.9999999999991
 30
0.0
 11
2834.0
 21
268.9999999999991
 31
0.0
  0
LINE
  5
774E
330
1F
100
AcDbEntity
  8
実形
 62
     0
100
AcDbLine
 10
2114.0
 20
8.99999999999909
 30
0.0
 11
2114.0
 21
268.9999999999991
 31
0.0
  0
LINE
  5
774F
330
1F
100
AcDbEntity
  8
実形
 62
     0
100
AcDbLine
 10
2234.0
 20
73.99999999999909
 30
0.0
 11
2234.0
 21
268.9999999999991
 31
0.0
  0
TEXT
  5
7750
330
1F
100
AcDbEntity
  8
実形
 62
     0
100
AcDbText
 10
2137.833333333333
 20
218.9999999999991
 30
0.0
 40
35.0
  1
品名
 72
     4
 11
2174.0
 21
236.4999999999991
 31
0.0
100
AcDbText
  0
TEXT
  5
7751
330
1F
100
AcDbEntity
  8
実形
100
AcDbText
 10
2323.374698073251
 20
218.230875284324
 30
0.0
 40
35.0
  1
ｱﾝﾀﾞｰｼﾝｸ
  7
ms明朝
 72
     4
 11
2425.774698073251
 21
235.8308752843241
 31
0.0
100
AcDbText
  0
LINE
  5
7796
330
1F
100
AcDbEntity
  8
実形
100
AcDbLine
 10
868.770210499882
 20
1554.178460662066
 30
0.0
 11
1090.770210499882
 21
1554.178460662066
 31
0.0
  0
DIMENSION
  5
77AF
330
1F
100
AcDbEntity
  8
実形
100
AcDbDimension
  2
*D16
 10
1043.456345948539
 20
1464.178460662066
 30
0.0
 11
1015.972144898931
 21
1488.139879208955
 31
0.0
 70
   160
 71
     5
 42
90.00000000000023
  3
ISO-25
100
AcDbAlignedDimension
 13
1092.770210499882
 23
1554.178460662066
 33
0.0
 14
1156.209930106677
 24
1464.178460662066
 34
0.0
 50
90.0
100
AcDbRotatedDimension
1001
ACAD
1000
DSTYLE
1002
{
1070
    41
1040
10.0
1070
   140
1040
25.0
1070
   147
1040
6.599999999999998
1070
   279
1070
     2
1070
   342
1005
30D
1070
   371
1070
    18
1070
   372
1070
    18
1002
}
  0
DIMENSION
  5
77BC
330
1F
100
AcDbEntity
  8
実形
100
AcDbDimension
  2
*D17
 10
1622.770210499882
 20
1280.994834284402
 30
0.0
 11
1377.262038174239
 21
1305.143326806989
 31
0.0
 70
   160
 71
     5
 42
380.0
  3
ISO-25
100
AcDbAlignedDimension
 13
1242.770210499882
 23
1425.740901717254
 33
0.0
 14
1622.770210499882
 24
1425.740901717254
 34
0.0
100
AcDbRotatedDimension
1001
ACAD
1000
DSTYLE
1002
{
1070
    41
1040
10.0
1070
   140
1040
25.0
1070
   147
1040
6.599999999999998
1070
   279
1070
     2
1070
   342
1005
30D
1070
   371
1070
    18
1070
   372
1070
    18
1002
}
  0
LINE
  5
782C
330
1F
100
AcDbEntity
  8
実形
100
AcDbLine
 10
1092.770210499882
 20
1556.178460662066
 30
0.0
 11
1092.770210499882
 21
1618.178460662066
 31
0.0
  0
LINE
  5
782D
330
1F
100
AcDbEntity
  8
実形
100
AcDbLine
 10
1392.770210499882
 20
1556.178460662066
 30
0.0
 11
1392.770210499882
 21
1618.178460662066
 31
0.0
  0
DIMENSION
  5
7845
330
1F
100
AcDbEntity
  8
実形
100
AcDbDimension
  2
*D18
 10
1092.770210499882
 20
1735.385472702717
 30
0.0
 11
967.7702104998825
 21
1754.485472702717
 31
0.0
 70
    32
 71
     5
 42
250.0000000000001
  3
ISO-25
100
AcDbAlignedDimension
 13
842.7702104998823
 23
1624.178460662066
 33
0.0
 14
1092.770210499882
 24
1624.178460662066
 34
0.0
100
AcDbRotatedDimension
1001
ACAD
1000
DSTYLE
1002
{
1070
    41
1040
10.0
1070
   140
1040
25.0
1070
   147
1040
6.599999999999998
1070
   279
1070
     2
1070
   342
1005
30D
1070
   371
1070
    18
1070
   372
1070
    18
1002
}
  0
DIMENSION
  5
785C
330
1F
100
AcDbEntity
  8
実形
100
AcDbDimension
  2
*D19
 10
1392.770210499882
 20
1735.385472702717
 30
0.0
 11
1242.770210499882
 21
1754.485472702717
 31
0.0
 70
    32
 71
     5
 42
300.0
  3
ISO-25
100
AcDbAlignedDimension
 13
1092.770210499882
 23
1624.178460662066
 33
0.0
 14
1392.770210499882
 24
1624.178460662066
 34
0.0
100
AcDbRotatedDimension
1001
ACAD
1000
DSTYLE
1002
{
1070
    41
1040
10.0
1070
   140
1040
25.0
1070
   147
1040
6.599999999999998
1070
   279
1070
     2
1070
   342
1005
30D
1070
   371
1070
    18
1070
   372
1070
    18
1002
}
  0
DIMENSION
  5
786A
330
1F
100
AcDbEntity
  8
実形
100
AcDbDimension
  2
*D20
 10
1642.770210499882
 20
1735.385472702717
 30
0.0
 11
1517.770210499882
 21
1754.485472702717
 31
0.0
 70
    32
 71
     5
 42
249.9999999999998
  3
ISO-25
100
AcDbAlignedDimension
 13
1392.770210499883
 23
1624.178460662065
 33
0.0
 14
1642.770210499882
 24
1624.178460662065
 34
0.0
100
AcDbRotatedDimension
1001
ACAD
1000
DSTYLE
1002
{
1070
    41
1040
10.0
1070
   140
1040
25.0
1070
   147
1040
6.599999999999998
1070
   279
1070
     2
1070
   342
1005
30D
1070
   371
1070
    18
1070
   372
1070
    18
1002
}
  0
DIMENSION
  5
7877
330
1F
100
AcDbEntity
  8
実形
100
AcDbDimension
  2
*D21
 10
1657.770210499882
 20
1735.385472702717
 30
0.0
 11
826.3182245476109
 21
1760.370517377699
 31
0.0
 70
   160
  1
15
 71
     5
 42
830.0
  3
ISO-25
100
AcDbAlignedDimension
 13
827.7702104998825
 23
1624.806458158204
 33
0.0
 14
1657.770210499882
 24
1624.161761419618
 34
0.0
100
AcDbRotatedDimension
1001
ACAD
1000
DSTYLE
1002
{
1070
    41
1040
10.0
1070
   140
1040
25.0
1070
   147
1040
6.599999999999998
1070
   279
1070
     2
1070
   342
1005
30D
1070
   371
1070
    18
1070
   372
1070
    18
1002
}
  0
TEXT
  5
78B9
330
1F
100
AcDbEntity
  8
実形
 48
20.0
100
AcDbText
 10
1644.285264478984
 20
1745.579848299247
 30
0.0
 40
25.0
  1
15
100
AcDbText
  0
DIMENSION
  5
78E9
330
1F
100
AcDbEntity
  8
実形
100
AcDbDimension
  2
*D22
 10
1771.093547640548
 20
1134.178460662066
 30
0.0
 11
1751.993547640548
 21
1389.178460662066
 31
0.0
 70
    32
 71
     5
 42
509.9999999999997
  3
ISO-25
100
AcDbAlignedDimension
 13
1657.770210499882
 23
1644.178460662066
 33
0.0
 14
1657.770210499883
 24
1134.178460662066
 34
0.0
 50
90.0
100
AcDbRotatedDimension
1001
ACAD
1000
DSTYLE
1002
{
1070
    41
1040
10.0
1070
   140
1040
25.0
1070
   147
1040
6.599999999999998
1070
   279
1070
     2
1070
   342
1005
30D
1070
   371
1070
    18
1070
   372
1070
    18
1002
}
  0
DIMENSION
  5
78F6
330
1F
100
AcDbEntity
  8
実形
100
AcDbDimension
  2
*D23
 10
1771.093547640548
 20
1119.178460662066
 30
0.0
 11
1749.493547640548
 21
1688.725599288342
 31
0.0
 70
   160
  1
15
 71
     5
 42
540.0
  3
ISO-25
100
AcDbAlignedDimension
 13
1657.770210499882
 23
1659.178460662066
 33
0.0
 14
1657.770210499882
 24
1119.178460662066
 34
0.0
 50
90.0
100
AcDbRotatedDimension
1001
ACAD
1000
DSTYLE
1002
{
1070
    41
1040
10.0
1070
   140
1040
25.0
1070
   147
1040
6.599999999999998
1070
   279
1070
     2
1070
   342
1005
30D
1070
   371
1070
    18
1070
   372
1070
    18
1002
}
  0
TEXT
  5
7938
330
1F
100
AcDbEntity
  8
実形
 48
20.0
100
AcDbText
 10
1763.371050332344
 20
1067.528641274333
 30
0.0
 40
25.0
  1
15
 50
90.0
100
AcDbText
  0
DIMENSION
  5
794B
330
1F
100
AcDbEntity
  8
実形
 62
     0
100
AcDbDimension
  2
*D24
 10
1833.118375451033
 20
1119.178460662066
 30
0.0
 11
1814.018375451033
 21
1389.178460662066
 31
0.0
 70
    32
 71
     5
 42
540.0
  3
ISO-25
100
AcDbAlignedDimension
 13
1657.770210499882
 23
1659.178460662066
 33
0.0
 14
1657.770210499882
 24
1119.178460662066
 34
0.0
 50
90.0
100
AcDbRotatedDimension
1001
ACAD
1000
DSTYLE
1002
{
1070
    41
1040
10.0
1070
   140
1040
25.0
1070
   147
1040
6.599999999999998
1070
   279
1070
     2
1070
   342
1005
30D
1070
   371
1070
    18
1070
   372
1070
    18
1002
}
  0
LINE
  5
799D
330
1F
100
AcDbEntity
  8
実形
100
AcDbLine
 10
773.3275276276962
 20
1644.178460662066
 30
0.0
 11
738.1482502386061
 21
1644.178460662066
 31
0.0
  0
LINE
  5
799E
330
1F
100
AcDbEntity
  8
実形
100
AcDbLine
 10
738.1482502386061
 20
1644.178460662066
 30
0.0
 11
738.1482502386061
 21
1624.178460662066
 31
0.0
  0
LINE
  5
799F
330
1F
100
AcDbEntity
  8
実形
100
AcDbLine
 10
738.1482502386061
 20
1624.178460662066
 30
0.0
 11
773.3275276276963
 21
1624.178460662066
 31
0.0
  0
DIMENSION
  5
79B0
330
1F
100
AcDbEntity
  8
実形
100
AcDbDimension
  2
*D26
 10
738.1482502386061
 20
1644.178460662066
 30
0.0
 11
715.569680847846
 21
1589.259853472391
 31
0.0
 70
   160
  1
70
 71
     5
 42
89.99999999999955
  3
ISO-25
100
AcDbAlignedDimension
 13
832.3275276276962
 23
1554.178460662066
 33
0.0
 14
832.3275276276962
 24
1644.178460662066
 34
0.0
 50
90.0
100
AcDbRotatedDimension
1001
ACAD
1000
DSTYLE
1002
{
1070
    41
1040
10.0
1070
   140
1040
25.0
1070
   147
1040
6.599999999999998
1070
   279
1070
     2
1070
   342
1005
30D
1070
   371
1070
    18
1070
   372
1070
    18
1002
}
  0
DIMENSION
  5
79D8
330
1F
100
AcDbEntity
  8
実形
100
AcDbDimension
  2
*D27
 10
738.1482502386061
 20
1624.178460662066
 30
0.0
 11
801.3626707265066
 21
1625.22842009638
 31
0.0
 70
   160
  1
20
 71
     5
 42
69.99999999999977
  3
ISO-25
100
AcDbAlignedDimension
 13
832.3275276276962
 23
1554.178460662066
 33
0.0
 14
838.3275276276963
 24
1624.178460662066
 34
0.0
 50
90.0
100
AcDbRotatedDimension
1001
ACAD
1000
DSTYLE
1002
{
1070
    41
1040
10.0
1070
   140
1040
25.0
1070
   147
1040
6.599999999999998
1070
   279
1070
     2
1070
   342
1005
30D
1070
   371
1070
    18
1070
   372
1070
    18
1002
}
  0
DIMENSION
  5
7A0D
330
1F
100
AcDbEntity
  8
実形
100
AcDbDimension
  2
*D28
 10
672.3280192665588
 20
1554.178460662066
 30
0.0
 11
653.2280192665585
 21
1599.178460662066
 31
0.0
 70
    32
 71
     5
 42
89.99999999999955
  3
ISO-25
100
AcDbAlignedDimension
 13
800.771238858355
 23
1644.178460662066
 33
0.0
 14
779.7500916428215
 24
1554.178460662066
 34
0.0
 50
90.0
100
AcDbRotatedDimension
1001
ACAD
1000
DSTYLE
1002
{
1070
    41
1040
10.0
1070
   140
1040
25.0
1070
   147
1040
6.599999999999998
1070
   279
1070
     2
1070
   342
1005
30D
1070
   371
1070
    18
1070
   372
1070
    18
1002
}
  0
DIMENSION
  5
7A2E
330
1F
100
AcDbEntity
  8
実形
100
AcDbDimension
  2
*D29
 10
672.3280192665587
 20
1154.178460662066
 30
0.0
 11
653.2280192665585
 21
1354.178460662066
 31
0.0
 70
    32
 71
     5
 42
400.0000000000004
  3
ISO-25
100
AcDbAlignedDimension
 13
797.6742997845558
 23
1554.178460662066
 33
0.0
 14
802.7945193027008
 24
1154.178460662066
 34
0.0
 50
90.0
100
AcDbRotatedDimension
1001
ACAD
1000
DSTYLE
1002
{
1070
    41
1040
10.0
1070
   140
1040
25.0
1070
   147
1040
6.599999999999998
1070
   279
1070
     2
1070
   342
1005
30D
1070
   371
1070
    18
1070
   372
1070
    18
1002
}
  0
DIMENSION
  5
7A4D
330
1F
100
AcDbEntity
  8
実形
100
AcDbDimension
  2
*D30
 10
672.3280192665587
 20
1119.178460662066
 30
0.0
 11
650.7280192665586
 21
1682.883538982083
 31
0.0
 70
   160
  1
15
 71
     5
 42
540.0
  3
ISO-25
100
AcDbAlignedDimension
 13
829.1539611657317
 23
1659.178460662066
 33
0.0
 14
802.2641105192887
 24
1119.178460662066
 34
0.0
 50
90.0
100
AcDbRotatedDimension
1001
ACAD
1000
DSTYLE
1002
{
1070
    41
1040
10.0
1070
   140
1040
25.0
1070
   147
1040
6.599999999999998
1070
   279
1070
     2
1070
   342
1005
30D
1070
   371
1070
    18
1070
   372
1070
    18
1002
}
  0
DIMENSION
  5
7B4E
330
1F
100
AcDbEntity
  8
実形
100
AcDbDimension
  2
*D31
 10
672.3280192665588
 20
1554.178460662066
 30
0.0
 11
650.745963999092
 21
1167.459715149787
 31
0.0
 70
   160
  1
20
 71
     5
 42
420.0000000000004
  3
ISO-25
100
AcDbAlignedDimension
 13
802.7945193027008
 23
1134.178460662066
 33
0.0
 14
767.3275276276962
 24
1554.178460662066
 34
0.0
 50
90.0
100
AcDbRotatedDimension
1001
ACAD
1000
DSTYLE
1002
{
1070
    41
1040
10.0
1070
   140
1040
25.0
1070
   147
1040
6.599999999999998
1070
   279
1070
     2
1070
   342
1005
30D
1070
   371
1070
    18
1070
   372
1070
    18
1002
}
  0
TEXT
  5
7BA3
330
1F
100
AcDbEntity
  8
実形
 48
20.0
100
AcDbText
 10
662.9803565113634
 20
1080.061801922893
 30
0.0
 40
25.0
  1
15
 50
90.0
100
AcDbText
  0
DIMENSION
  5
7BA4
330
1F
100
AcDbEntity
  8
実形
100
AcDbDimension
  2
*D32
 10
616.3564627716168
 20
1134.178460662066
 30
0.0
 11
597.2564627716167
 21
1389.178460662066
 31
0.0
 70
    32
 71
     5
 42
510.0
  3
ISO-25
100
AcDbAlignedDimension
 13
831.7269474160729
 23
1644.178460662066
 33
0.0
 14
804.8056315785306
 24
1134.178460662066
 34
0.0
 50
90.0
100
AcDbRotatedDimension
1001
ACAD
1000
DSTYLE
1002
{
1070
    41
1040
10.0
1070
   140
1040
25.0
1070
   147
1040
6.599999999999998
1070
   279
1070
     2
1070
   342
1005
30D
1070
   371
1070
    18
1070
   372
1070
    18
1002
}
  0
DIMENSION
  5
7BCC
330
1F
100
AcDbEntity
  8
実形
100
AcDbDimension
  2
*D33
 10
556.8835017673409
 20
1119.178460662066
 30
0.0
 11
537.7835017673407
 21
1389.178460662066
 31
0.0
 70
    32
 71
     5
 42
540.0
  3
ISO-25
100
AcDbAlignedDimension
 13
827.7702104998825
 23
1659.178460662066
 33
0.0
 14
805.8183231977528
 24
1119.178460662066
 34
0.0
 50
90.0
100
AcDbRotatedDimension
1001
ACAD
1000
DSTYLE
1002
{
1070
    41
1040
10.0
1070
   140
1040
25.0
1070
   147
1040
6.599999999999998
1070
   279
1070
     2
1070
   342
1005
30D
1070
   371
1070
    18
1070
   372
1070
    18
1002
}
  0
LINE
  5
7BEB
330
1F
100
AcDbEntity
  8
実形
100
AcDbLine
 10
1394.770210499882
 20
1554.178460662066
 30
0.0
 11
1616.770210499882
 21
1554.178460662065
 31
0.0
  0
ARC
  5
7C3E
330
1F
100
AcDbEntity
  8
実形
100
AcDbCircle
 10
868.770210499882
 20
1548.178460662066
 30
0.0
 40
6.0
100
AcDbArc
 50
89.99999999999994
 51
180.0
  0
ARC
  5
7C3F
330
1F
100
AcDbEntity
  8
実形
100
AcDbCircle
 10
1616.770210499882
 20
1548.178460662066
 30
0.0
 40
6.0
100
AcDbArc
 50
0.0
 51
89.99999999999994
  0
LINE
  5
7C40
330
1F
100
AcDbEntity
  8
実形
  6
ACAD_ISO08W100
 48
0.5
100
AcDbLine
 10
1242.770210499882
 20
1360.740901717254
 30
0.0
 11
1242.770210499882
 21
1559.713291901078
 31
0.0
  0
LINE
  5
824A
330
1F
100
AcDbEntity
  8
実形
100
AcDbLine
 10
2017.800839299686
 20
1659.178460662066
 30
0.0
 11
2017.800839299686
 21
1119.178460662066
 31
0.0
  0
LINE
  5
824B
330
1F
100
AcDbEntity
  8
実形
100
AcDbLine
 10
2032.800839299685
 20
1644.178460662066
 30
0.0
 11
2032.800839299685
 21
1134.178460662066
 31
0.0
  0
LINE
  5
824C
330
1F
100
AcDbEntity
  8
実形
100
AcDbLine
 10
2032.800839299685
 20
1154.178460662065
 30
0.0
 11
2202.196868507121
 21
1154.178460662065
 31
0.0
  0
LINE
  5
824F
330
1F
100
AcDbEntity
  8
実形
100
AcDbLine
 10
2222.800839299686
 20
1554.678460662066
 30
0.0
 11
2222.800839299686
 21
1373.678460662066
 31
0.0
  0
LINE
  5
8276
330
1F
100
AcDbEntity
  8
実形
100
AcDbLine
 10
2232.800839299685
 20
1373.678460662066
 30
0.0
 11
2232.800839299685
 21
1554.678460662066
 31
0.0
  0
LINE
  5
8277
330
1F
100
AcDbEntity
  8
実形
100
AcDbLine
 10
2222.800839299685
 20
1554.678460662066
 30
0.0
 11
2232.800839299685
 21
1554.678460662066
 31
0.0
  0
DIMENSION
  5
8279
330
1F
100
AcDbEntity
  8
実形
100
AcDbDimension
  2
*D64
 10
2349.717437835543
 20
1544.178460662066
 30
0.0
 11
2330.617437835543
 21
1464.178460662066
 31
0.0
 70
    32
 71
     5
 42
160.0
  3
ISO-25
100
AcDbAlignedDimension
 13
2232.800839299685
 23
1384.178460662066
 33
0.0
 14
2232.800839299685
 24
1544.178460662066
 34
0.0
 50
90.0
100
AcDbRotatedDimension
1001
ACAD
1000
DSTYLE
1002
{
1070
    41
1040
10.0
1070
   140
1040
25.0
1070
   147
1040
6.599999999999998
1070
   279
1070
     2
1070
   342
1005
30D
1070
   371
1070
    18
1070
   372
1070
    18
1002
}
  0
DIMENSION
  5
827A
330
1F
100
AcDbEntity
  8
実形
100
AcDbDimension
  2
*D65
 10
2420.95973465082
 20
1554.678460662065
 30
0.0
 11
2401.85973465082
 21
1464.178460662066
 31
0.0
 70
    32
 71
     5
 42
180.9999999999995
  3
ISO-25
100
AcDbAlignedDimension
 13
2232.800839299685
 23
1373.678460662066
 33
0.0
 14
2232.80083929969
 24
1554.678460662065
 34
0.0
 50
90.0
100
AcDbRotatedDimension
1001
ACAD
1000
DSTYLE
1002
{
1070
    41
1040
10.0
1070
   140
1040
25.0
1070
   147
1040
6.599999999999998
1070
   279
1070
     2
1070
   342
1005
30D
1070
   371
1070
    18
1070
   372
1070
    18
1002
}
  0
LINE
  5
827B
330
1F
100
AcDbEntity
  8
実形
  6
ACAD_ISO08W100
 48
0.5
100
AcDbLine
 10
2138.245446880563
 20
1464.178460662066
 30
0.0
 11
2287.812879513822
 21
1464.178460662066
 31
0.0
  0
LINE
  5
82EE
330
1F
100
AcDbEntity
  8
実形
100
AcDbLine
 10
2232.800839299685
 20
1494.678460662066
 30
0.0
 11
2232.800839299685
 21
1373.678460662066
 31
0.0
  0
LINE
  5
8302
330
1F
100
AcDbEntity
  8
実形
100
AcDbLine
 10
2232.800839299685
 20
1373.678460662066
 30
0.0
 11
2222.800839299685
 21
1373.678460662066
 31
0.0
  0
LINE
  5
8344
330
1F
100
AcDbEntity
  8
実形
100
AcDbLine
 10
2017.800839299686
 20
1644.178460662066
 30
0.0
 11
2032.800839299685
 21
1644.178460662066
 31
0.0
  0
LINE
  5
8345
330
1F
100
AcDbEntity
  8
実形
100
AcDbLine
 10
2017.800839299686
 20
1134.178460662066
 30
0.0
 11
2032.800839299685
 21
1134.178460662065
 31
0.0
  0
TEXT
  5
8351
330
1F
100
AcDbEntity
  8
実形
100
AcDbText
 10
2112.593915380041
 20
1219.118453378147
 30
0.0
 40
25.0
  1
6R
 72
     2
 11
2154.260582046708
 21
1215.785120044813
 31
0.0
100
AcDbText
 73
     1
  0
LINE
  5
8353
330
1F
100
AcDbEntity
  8
実形
100
AcDbLine
 10
2032.800839299686
 20
1554.178460662066
 30
0.0
 11
2222.800839299686
 21
1554.178460662066
 31
0.0
  0
LEADER
  5
835C
330
1F
100
AcDbEntity
  8
実形
100
AcDbLeader
  3
ISO-25
 76
     2
 10
2196.743064355743
 20
1163.271603222052
 30
0.0
 10
2153.501842239666
 20
1207.45908180229
 30
0.0
1001
ACAD
1000
DSTYLE
1002
{
1070
    77
1070
     0
1070
    41
1040
10.0
1070
   140
1040
30.0
1070
   147
1040
6.599999999999998
1070
   279
1070
     2
1070
   342
1005
30D
1070
   371
1070
    18
1070
   372
1070
    18
1002
}
  0
LINE
  5
86F3
330
1F
100
AcDbEntity
  8
実形
100
AcDbLine
 10
2017.800839299686
 20
1659.178460662066
 30
0.0
 11
2017.800839299686
 21
1119.178460662066
 31
0.0
  0
LINE
  5
8C6C
330
1F
100
AcDbEntity
  8
実形
100
AcDbLine
 10
2501.618457349223
 20
1644.178460662066
 30
0.0
 11
2536.797734738313
 21
1644.178460662066
 31
0.0
  0
LINE
  5
8C6D
330
1F
100
AcDbEntity
  8
実形
100
AcDbLine
 10
2536.797734738313
 20
1644.178460662066
 30
0.0
 11
2536.797734738313
 21
1624.178460662066
 31
0.0
  0
LINE
  5
8C6E
330
1F
100
AcDbEntity
  8
実形
100
AcDbLine
 10
2536.797734738313
 20
1624.178460662066
 30
0.0
 11
2501.618457349223
 21
1624.178460662066
 31
0.0
  0
DIMENSION
  5
8C6F
330
1F
100
AcDbEntity
  8
実形
100
AcDbDimension
  2
*D66
 10
2536.797734738313
 20
1644.178460662066
 30
0.0
 11
2515.409386300847
 21
1589.259853472391
 31
0.0
 70
   160
  1
70
 71
     5
 42
89.99999999999955
  3
ISO-25
100
AcDbAlignedDimension
 13
2442.618457349223
 23
1554.178460662067
 33
0.0
 14
2442.618457349223
 24
1644.178460662066
 34
0.0
 50
90.0
100
AcDbRotatedDimension
1001
ACAD
1000
DSTYLE
1002
{
1070
    41
1040
10.0
1070
   140
1040
25.0
1070
   147
1040
6.599999999999998
1070
   279
1070
     2
1070
   342
1005
30D
1070
   371
1070
    18
1070
   372
1070
    18
1002
}
  0
DIMENSION
  5
8C70
330
1F
100
AcDbEntity
  8
実形
100
AcDbDimension
  2
*D67
 10
2536.797734738313
 20
1624.178460662066
 30
0.0
 11
2473.583314250412
 21
1625.228420096381
 31
0.0
 70
   160
  1
20
 71
     5
 42
69.99999999999977
  3
ISO-25
100
AcDbAlignedDimension
 13
2442.618457349223
 23
1554.178460662067
 33
0.0
 14
2436.618457349223
 24
1624.178460662066
 34
0.0
 50
90.0
100
AcDbRotatedDimension
1001
ACAD
1000
DSTYLE
1002
{
1070
    41
1040
10.0
1070
   140
1040
25.0
1070
   147
1040
6.599999999999998
1070
   279
1070
     2
1070
   342
1005
30D
1070
   371
1070
    18
1070
   372
1070
    18
1002
}
  0
DIMENSION
  5
8C71
330
1F
100
AcDbEntity
  8
実形
100
AcDbDimension
  2
*D68
 10
2602.61796571036
 20
1554.178460662066
 30
0.0
 11
2583.51796571036
 21
1599.178460662067
 31
0.0
 70
    32
 71
     5
 42
89.99999999999955
  3
ISO-25
100
AcDbAlignedDimension
 13
2474.174746118564
 23
1644.178460662066
 33
0.0
 14
2495.195893334098
 24
1554.178460662067
 34
0.0
 50
90.0
100
AcDbRotatedDimension
1001
ACAD
1000
DSTYLE
1002
{
1070
    41
1040
10.0
1070
   140
1040
25.0
1070
   147
1040
6.599999999999998
1070
   279
1070
     2
1070
   342
1005
30D
1070
   371
1070
    18
1070
   372
1070
    18
1002
}
  0
DIMENSION
  5
8C72
330
1F
100
AcDbEntity
  8
実形
100
AcDbDimension
  2
*D69
 10
2602.61796571036
 20
1154.178460662066
 30
0.0
 11
2583.51796571036
 21
1354.178460662067
 31
0.0
 70
    32
 71
     5
 42
400.0000000000004
  3
ISO-25
100
AcDbAlignedDimension
 13
2477.271685192363
 23
1554.178460662067
 33
0.0
 14
2472.151465674218
 24
1154.178460662066
 34
0.0
 50
90.0
100
AcDbRotatedDimension
1001
ACAD
1000
DSTYLE
1002
{
1070
    41
1040
10.0
1070
   140
1040
25.0
1070
   147
1040
6.599999999999998
1070
   279
1070
     2
1070
   342
1005
30D
1070
   371
1070
    18
1070
   372
1070
    18
1002
}
  0
DIMENSION
  5
8C73
330
1F
100
AcDbEntity
  8
実形
100
AcDbDimension
  2
*D70
 10
2602.61796571036
 20
1119.178460662066
 30
0.0
 11
2624.21796571036
 21
1682.883538982084
 31
0.0
 70
   160
  1
15
 71
     5
 42
540.0
  3
ISO-25
100
AcDbAlignedDimension
 13
2445.792023811187
 23
1659.178460662066
 33
0.0
 14
2472.68187445763
 24
1119.178460662066
 34
0.0
 50
90.0
100
AcDbRotatedDimension
1001
ACAD
1000
DSTYLE
1002
{
1070
    41
1040
10.0
1070
   140
1040
25.0
1070
   147
1040
6.599999999999998
1070
   279
1070
     2
1070
   342
1005
30D
1070
   371
1070
    18
1070
   372
1070
    18
1002
}
  0
DIMENSION
  5
8C74
330
1F
100
AcDbEntity
  8
実形
100
AcDbDimension
  2
*D71
 10
2602.61796571036
 20
1554.178460662066
 30
0.0
 11
2511.855885300055
 21
1153.026798183139
 31
0.0
 70
   160
  1
20
 71
     5
 42
420.0000000000004
  3
ISO-25
100
AcDbAlignedDimension
 13
2472.151465674218
 23
1134.178460662066
 33
0.0
 14
2507.618457349222
 24
1554.178460662067
 34
0.0
 50
90.0
100
AcDbRotatedDimension
1001
ACAD
1000
DSTYLE
1002
{
1070
    41
1040
10.0
1070
   140
1040
25.0
1070
   147
1040
6.599999999999998
1070
   279
1070
     2
1070
   342
1005
30D
1070
   371
1070
    18
1070
   372
1070
    18
1002
}
  0
DIMENSION
  5
8C76
330
1F
100
AcDbEntity
  8
実形
100
AcDbDimension
  2
*D72
 10
2658.589522205302
 20
1134.178460662066
 30
0.0
 11
2639.489522205302
 21
1389.178460662066
 31
0.0
 70
    32
 71
     5
 42
510.0
  3
ISO-25
100
AcDbAlignedDimension
 13
2443.219037560846
 23
1644.178460662066
 33
0.0
 14
2470.140353398388
 24
1134.178460662066
 34
0.0
 50
90.0
100
AcDbRotatedDimension
1001
ACAD
1000
DSTYLE
1002
{
1070
    41
1040
10.0
1070
   140
1040
25.0
1070
   147
1040
6.599999999999998
1070
   279
1070
     2
1070
   342
1005
30D
1070
   371
1070
    18
1070
   372
1070
    18
1002
}
  0
DIMENSION
  5
8C77
330
1F
100
AcDbEntity
  8
実形
100
AcDbDimension
  2
*D73
 10
2658.589522205302
 20
1119.178460662066
 30
0.0
 11
2658.589522205302
 21
1389.178460662066
 31
0.0
 70
    32
  1
 
 71
     5
 42
540.0
  3
ISO-25
100
AcDbAlignedDimension
 13
2447.175774477036
 23
1659.178460662066
 33
0.0
 14
2469.127661779167
 24
1119.178460662066
 34
0.0
 50
90.0
100
AcDbRotatedDimension
1001
ACAD
1000
DSTYLE
1002
{
1070
    41
1040
10.0
1070
   140
1040
25.0
1070
   147
1040
6.599999999999998
1070
   279
1070
     2
1070
   342
1005
30D
1070
   371
1070
    18
1070
   372
1070
    18
1002
}
  0
TEXT
  5
8D3A
330
1F
100
AcDbEntity
  8
実形
 48
20.0
100
AcDbText
 10
2641.684305660078
 20
1071.316932002347
 30
0.0
 40
25.0
  1
15
 50
90.0
100
AcDbText
  0
LINE
  5
8DE5
330
1F
100
AcDbEntity
  8
実形
100
AcDbLine
 10
2208.182907496248
 20
1159.769391938435
 30
0.0
 11
2222.800839299685
 21
1373.678460662066
 31
0.0
  0
ARC
  5
8DE8
330
1F
100
AcDbEntity
  8
実形
100
AcDbCircle
 10
2202.196868507121
 20
1160.178460662065
 30
0.0
 40
6.0
100
AcDbArc
 50
270.0
 51
356.0906488250112
  0
LINE
  5
8F98
330
1F
100
AcDbEntity
  8
実形
 62
     0
100
AcDbLine
 10
174.0
 20
8.99999999999909
 30
0.0
 11
2834.0
 21
8.99999999999909
 31
0.0
  0
ARC
  5
9019
330
1F
100
AcDbEntity
  8
実形
100
AcDbCircle
 10
1098.770210499882
 20
1618.178460662066
 30
0.0
 40
6.0
100
AcDbArc
 50
89.99999999999996
 51
180.0
  0
ARC
  5
901A
330
1F
100
AcDbEntity
  8
実形
100
AcDbCircle
 10
1386.770210499882
 20
1618.178460662066
 30
0.0
 40
6.0
100
AcDbArc
 50
359.9999999999998
 51
89.99999999999992
  0
ARC
  5
901B
330
1F
100
AcDbEntity
  8
実形
100
AcDbCircle
 10
1394.770210499882
 20
1556.178460662066
 30
0.0
 40
2.0
100
AcDbArc
 50
179.9999999999998
 51
269.9999999999999
  0
ARC
  5
901C
330
1F
100
AcDbEntity
  8
実形
100
AcDbCircle
 10
1090.770210499882
 20
1556.178460662066
 30
0.0
 40
2.0
100
AcDbArc
 50
270.0000000000001
 51
0.0
  0
TEXT
  5
9025
330
1F
100
AcDbEntity
  8
実形
100
AcDbText
 10
1171.733003853365
 20
1591.601705303697
 30
0.0
 40
23.0
  1
6R
 72
     2
 11
1210.066337186699
 21
1588.53503863703
 31
0.0
100
AcDbText
 73
     1
  0
TEXT
  5
902E
330
1F
100
AcDbEntity
  8
実形
100
AcDbText
 10
1173.377779505099
 20
1557.070306552991
 30
0.0
 40
23.0
  1
2R
 72
     2
 11
1211.711112838432
 21
1554.003639886325
 31
0.0
100
AcDbText
 73
     1
  0
LEADER
  5
902F
330
1F
100
AcDbEntity
  8
実形
100
AcDbLeader
  3
ISO-25
 76
     2
 10
1109.292440436389
 20
1612.821707342044
 30
0.0
 10
1160.047979321371
 20
1606.718870165525
 30
0.0
1001
ACAD
1000
DSTYLE
1002
{
1070
    77
1070
     0
1070
    41
1040
10.0
1070
   140
1040
30.0
1070
   147
1040
6.599999999999998
1070
   279
1070
     2
1070
   342
1005
30D
1070
   371
1070
    18
1070
   372
1070
    18
1002
}
  0
LEADER
  5
9030
330
1F
100
AcDbEntity
  8
実形
100
AcDbLeader
  3
ISO-25
 76
     2
 10
1108.506661068571
 20
1554.892158095849
 30
0.0
 10
1163.509488234203
 20
1563.213753952672
 30
0.0
1001
ACAD
1000
DSTYLE
1002
{
1070
    77
1070
     0
1070
    41
1040
10.0
1070
   140
1040
30.0
1070
   147
1040
6.599999999999998
1070
   279
1070
     2
1070
   342
1005
30D
1070
   371
1070
    18
1070
   372
1070
    18
1002
}
  0
LEADER
  5
903B
330
1F
100
AcDbEntity
  8
実形
100
AcDbLeader
  3
ISO-25
 76
     2
 10
1376.247980563376
 20
1612.821707342044
 30
0.0
 10
1325.492441678394
 20
1606.718870165525
 30
0.0
211
-1.0
221
0.0
231
0.0
1001
ACAD
1000
DSTYLE
1002
{
1070
    77
1070
     0
1070
    41
1040
10.0
1070
   140
1040
30.0
1070
   147
1040
6.599999999999998
1070
   279
1070
     2
1070
   342
1005
30D
1070
   371
1070
    18
1070
   372
1070
    18
1002
}
  0
LEADER
  5
903C
330
1F
100
AcDbEntity
  8
実形
100
AcDbLeader
  3
ISO-25
 76
     2
 10
1377.033759931193
 20
1554.892158095849
 30
0.0
 10
1322.030932765561
 20
1563.213753952672
 30
0.0
211
-1.0
221
0.0
231
0.0
1001
ACAD
1000
DSTYLE
1002
{
1070
    77
1070
     0
1070
    41
1040
10.0
1070
   140
1040
30.0
1070
   147
1040
6.599999999999998
1070
   279
1070
     2
1070
   342
1005
30D
1070
   371
1070
    18
1070
   372
1070
    18
1002
}
  0
TEXT
  5
9046
330
1F
100
AcDbEntity
  8
実形
100
AcDbText
 10
1279.839164544457
 20
1592.78671573702
 30
0.0
 40
23.0
  1
6R
 72
     2
 11
1318.17249787779
 21
1589.720049070353
 31
0.0
100
AcDbText
 73
     1
  0
TEXT
  5
9047
330
1F
100
AcDbEntity
  8
実形
100
AcDbText
 10
1281.483940196191
 20
1558.255316986315
 30
0.0
 40
23.0
  1
2R
 72
     2
 11
1319.817273529524
 21
1555.188650319648
 31
0.0
100
AcDbText
 73
     1
  0
LINE
  5
90D2
330
1F
100
AcDbEntity
  8
実形
100
AcDbLine
 10
842.7702104998825
 20
690.6580729330507
 30
0.0
 11
842.7702104998827
 21
675.6580729330508
 31
0.0
  0
LINE
  5
90D3
330
1F
100
AcDbEntity
  8
実形
100
AcDbLine
 10
862.7702104998824
 20
675.6580729330505
 30
0.0
 11
862.7702104998828
 21
494.5962189148989
 31
0.0
  0
ARC
  5
90D4
330
1F
100
AcDbEntity
  8
実形
100
AcDbCircle
 10
868.7702104998827
 20
494.5962189148989
 30
0.0
 40
6.0
100
AcDbArc
 50
180.0
 51
269.4062826037901
  0
LINE
  5
90D5
330
1F
100
AcDbEntity
  8
実形
100
AcDbLine
 10
1642.770210499883
 20
690.6580729330507
 30
0.0
 11
1642.770210499883
 21
675.6580729330508
 31
0.0
  0
LINE
  5
90D6
330
1F
100
AcDbEntity
  8
実形
100
AcDbLine
 10
1622.770210499883
 20
675.6580729330508
 30
0.0
 11
1622.770210499882
 21
494.5962189148989
 31
0.0
  0
LINE
  5
90D7
330
1F
100
AcDbEntity
  8
実形
100
AcDbLine
 10
827.7702104998825
 20
690.6580729330507
 30
0.0
 11
1657.770210499882
 21
690.6580729330507
 31
0.0
  0
LINE
  5
90D8
330
1F
100
AcDbEntity
  8
実形
100
AcDbLine
 10
1152.270210499882
 20
475.6580729330507
 30
0.0
 11
1333.270210499882
 21
475.6580729330507
 31
0.0
  0
LINE
  5
90D9
330
1F
100
AcDbEntity
  8
実形
100
AcDbLine
 10
842.7702104998827
 20
675.6580729330508
 30
0.0
 11
1642.770210499883
 21
675.6580729330508
 31
0.0
  0
LINE
  5
90DA
330
1F
100
AcDbEntity
  8
実形
  6
ACAD_ISO08W100
 48
0.5
100
AcDbLine
 10
1242.770210499882
 20
580.5107491055878
 30
0.0
 11
1242.770210499882
 21
423.8294687699817
 31
0.0
  0
LINE
  5
90DB
330
1F
100
AcDbEntity
  8
実形
100
AcDbLine
 10
1333.270210499882
 20
485.6580729330508
 30
0.0
 11
1333.270210499882
 21
475.6580729330507
 31
0.0
  0
LINE
  5
90DC
330
1F
100
AcDbEntity
  8
実形
100
AcDbLine
 10
1152.270210499882
 20
485.6580729330508
 30
0.0
 11
1152.270210499882
 21
475.6580729330507
 31
0.0
  0
DIMENSION
  5
90DD
330
1F
100
AcDbEntity
  8
実形
100
AcDbDimension
  2
*D74
 10
1322.770210499883
 20
358.7414743971931
 30
0.0
 11
1242.770210499882
 21
377.8414743971931
 31
0.0
 70
    32
 71
     5
 42
160.0000000000002
  3
ISO-25
100
AcDbAlignedDimension
 13
1162.770210499882
 23
475.6580729330506
 33
0.0
 14
1322.770210499883
 24
475.6580729330506
 34
0.0
100
AcDbRotatedDimension
1001
ACAD
1000
DSTYLE
1002
{
1070
    41
1040
10.0
1070
   140
1040
25.0
1070
   147
1040
6.599999999999998
1070
   279
1070
     2
1070
   342
1005
30D
1070
   371
1070
    18
1070
   372
1070
    18
1002
}
  0
DIMENSION
  5
90DE
330
1F
100
AcDbEntity
  8
実形
100
AcDbDimension
  2
*D75
 10
1333.270210499882
 20
287.4991775819162
 30
0.0
 11
1242.770210499882
 21
306.5991775819163
 31
0.0
 70
    32
 71
     5
 42
180.9999999999995
  3
ISO-25
100
AcDbAlignedDimension
 13
1152.270210499882
 23
475.6580729330507
 33
0.0
 14
1333.270210499882
 24
475.6580729330464
 34
0.0
100
AcDbRotatedDimension
1001
ACAD
1000
DSTYLE
1002
{
1070
    41
1040
10.0
1070
   140
1040
25.0
1070
   147
1040
6.599999999999998
1070
   279
1070
     2
1070
   342
1005
30D
1070
   371
1070
    18
1070
   372
1070
    18
1002
}
  0
TEXT
  5
90DF
330
1F
100
AcDbEntity
  8
実形
100
AcDbText
 10
953.3844231977431
 20
563.4817723163426
 30
0.0
 40
25.0
  1
6R
 72
     2
 11
995.0510898644097
 21
560.1484389830093
 31
0.0
100
AcDbText
 73
     1
  0
TEXT
  5
90E0
330
1F
100
AcDbEntity
  8
実形
100
AcDbText
 10
1506.322563550085
 20
561.5740732387579
 30
0.0
 40
25.0
  1
6R
 72
     2
 11
1547.989230216752
 21
558.2407399054245
 31
0.0
100
AcDbText
 73
     1
  0
LEADER
  5
90E1
330
1F
100
AcDbEntity
  8
実形
100
AcDbLeader
  3
ISO-25
 76
     2
 10
876.1512323340193
 20
502.7049091385443
 30
0.0
 10
938.6210553377004
 20
558.6771087601828
 30
0.0
1001
ACAD
1000
DSTYLE
1002
{
1070
    77
1070
     0
1070
    41
1040
10.0
1070
   140
1040
30.0
1070
   147
1040
6.599999999999998
1070
   279
1070
     2
1070
   342
1005
30D
1070
   371
1070
    18
1070
   372
1070
    18
1002
}
  0
LEADER
  5
90E2
330
1F
100
AcDbEntity
  8
実形
100
AcDbLeader
  3
ISO-25
 76
     2
 10
1609.389188665746
 20
502.5954004989926
 30
0.0
 10
1561.439676824841
 20
559.9376365357911
 30
0.0
211
-1.0
221
0.0
231
0.0
1001
ACAD
1000
DSTYLE
1002
{
1070
    77
1070
     0
1070
    41
1040
10.0
1070
   140
1040
30.0
1070
   147
1040
6.599999999999998
1070
   279
1070
     2
1070
   342
1005
30D
1070
   371
1070
    18
1070
   372
1070
    18
1002
}
  0
LINE
  5
90E3
330
1F
100
AcDbEntity
  8
実形
  6
ACAD_ISO08W100
 48
0.5
100
AcDbLine
 10
1242.770210499882
 20
574.4179089624922
 30
0.0
 11
1242.770210499882
 21
430.0808769214036
 31
0.0
  0
LINE
  5
90E4
330
1F
100
AcDbEntity
  8
実形
100
AcDbLine
 10
1152.270210499882
 20
485.6580729330508
 30
0.0
 11
1333.270210499882
 21
485.6580729330508
 31
0.0
  0
LINE
  5
90E5
330
1F
100
AcDbEntity
  8
実形
100
AcDbLine
 10
1152.270210499882
 20
485.6580729330508
 30
0.0
 11
868.708037672218
 21
488.5965410452546
 31
0.0
  0
DIMENSION
  5
90E6
330
1F
100
AcDbEntity
  8
実形
100
AcDbDimension
  2
*D76
 10
726.7970691275186
 20
485.6580729330508
 30
0.0
 11
705.1970691275185
 21
665.4528112527996
 31
0.0
 70
   160
  1
15
 71
     5
 42
205.0000000000001
  3
ISO-25
100
AcDbAlignedDimension
 13
844.5378511944673
 23
690.6580729330507
 33
0.0
 14
843.5619878860816
 24
485.6580729330508
 34
0.0
 50
90.0
100
AcDbRotatedDimension
1001
ACAD
1000
DSTYLE
1002
{
1070
    41
1040
10.0
1070
   140
1040
25.0
1070
   147
1040
6.599999999999998
1070
   279
1070
     2
1070
   342
1005
30D
1070
   371
1070
    18
1070
   372
1070
    18
1002
}
  0
DIMENSION
  5
90E7
330
1F
100
AcDbEntity
  8
実形
100
AcDbDimension
  2
*D77
 10
726.7970691275186
 20
485.6580729330508
 30
0.0
 11
705.1970691275185
 21
586.1689761561229
 31
0.0
 70
   160
 71
     5
 42
190.0000000000001
  3
ISO-25
100
AcDbAlignedDimension
 13
846.3196580472885
 23
675.6580729330509
 33
0.0
 14
827.7702104998825
 24
485.6580729330508
 34
0.0
 50
90.0
100
AcDbRotatedDimension
1001
ACAD
1000
DSTYLE
1002
{
1070
    41
1040
10.0
1070
   140
1040
25.0
1070
   147
1040
6.599999999999998
1070
   279
1070
     2
1070
   342
1005
30D
1070
   371
1070
    18
1070
   372
1070
    18
1002
}
  0
DIMENSION
  5
90E8
330
1F
100
AcDbEntity
  8
実形
100
AcDbDimension
  2
*D78
 10
671.7970691275186
 20
485.6580729330508
 30
0.0
 11
652.6970691275185
 21
588.158072933051
 31
0.0
 70
    32
 71
     5
 42
205.0000000000001
  3
ISO-25
100
AcDbAlignedDimension
 13
827.7702104998825
 23
690.6580729330507
 33
0.0
 14
827.7702104998825
 24
485.6580729330508
 34
0.0
 50
90.0
100
AcDbRotatedDimension
1001
ACAD
1000
DSTYLE
1002
{
1070
    41
1040
10.0
1070
   140
1040
25.0
1070
   147
1040
6.599999999999998
1070
   279
1070
     2
1070
   342
1005
30D
1070
   371
1070
    18
1070
   372
1070
    18
1002
}
  0
DIMENSION
  5
90E9
330
1F
100
AcDbEntity
  8
実形
100
AcDbDimension
  2
*D79
 10
671.7970691275186
 20
690.6580729330508
 30
0.0
 11
650.1970691275184
 21
495.5285142222765
 31
0.0
 70
   160
  1
8
 71
     5
 42
215.0000000000001
  3
ISO-25
100
AcDbAlignedDimension
 13
790.7597655854806
 23
475.6580729330507
 33
0.0
 14
827.7702104998823
 24
690.6580729330507
 34
0.0
 50
90.0
100
AcDbRotatedDimension
1001
ACAD
1000
DSTYLE
1002
{
1070
    41
1040
10.0
1070
   140
1040
25.0
1070
   147
1040
6.599999999999998
1070
   279
1070
     2
1070
   342
1005
30D
1070
   371
1070
    18
1070
   372
1070
    18
1002
}
  0
DIMENSION
  5
90EA
330
1F
100
AcDbEntity
  8
実形
100
AcDbDimension
  2
*D80
 10
616.7970691275186
 20
475.6580729330509
 30
0.0
 11
597.6970691275185
 21
583.158072933051
 31
0.0
 70
    32
  1
213
 71
     5
 42
214.9999999999999
  3
ISO-25
100
AcDbAlignedDimension
 13
779.5378511944672
 23
690.6580729330507
 33
0.0
 14
762.7702104998824
 24
475.6580729330509
 34
0.0
 50
90.0
100
AcDbRotatedDimension
1001
ACAD
1000
DSTYLE
1002
{
1070
    41
1040
10.0
1070
   140
1040
25.0
1070
   147
1040
6.599999999999998
1070
   279
1070
     2
1070
   342
1005
30D
1070
   371
1070
    18
1070
   372
1070
    18
1002
}
  0
ARC
  5
90EB
330
1F
100
AcDbEntity
  8
実形
100
AcDbCircle
 10
1616.770210499882
 20
494.5962189148989
 30
0.0
 40
6.0
100
AcDbArc
 50
270.5937173962099
 51
0.0
  0
LINE
  5
90EC
330
1F
100
AcDbEntity
  8
実形
100
AcDbLine
 10
1333.270210499882
 20
485.6580729330508
 30
0.0
 11
1616.832383327547
 21
488.5965410452546
 31
0.0
  0
LINE
  5
9189
330
1F
100
AcDbEntity
  8
実形
100
AcDbLine
 10
2032.800839299685
 20
1624.178460662066
 30
0.0
 11
2214.054244934029
 21
1624.178460662066
 31
0.0
  0
ARC
  5
918A
330
1F
100
AcDbEntity
  8
実形
100
AcDbCircle
 10
2214.054244934029
 20
1618.178460662066
 30
0.0
 40
6.0
100
AcDbArc
 50
2.471664761627793
 51
90.0
  0
LINE
  5
918B
330
1F
100
AcDbEntity
  8
実形
100
AcDbLine
 10
2222.800839299685
 20
1554.678460662066
 30
0.0
 11
2220.048662960524
 21
1618.437212519324
 31
0.0
  0
DIMENSION
  5
9248
330
1F
100
AcDbEntity
  8
実形
100
AcDbDimension
  2
*D81
 10
2206.292328655763
 20
1014.632201197999
 30
0.0
 11
2055.760532132786
 21
1033.732201197999
 31
0.0
 70
   160
  1
15
 71
     5
 42
188.4914893560772
  3
ISO-25
100
AcDbAlignedDimension
 13
2017.800839299686
 23
1134.178460662066
 33
0.0
 14
2206.292328655763
 24
1135.566572366811
 34
0.0
100
AcDbRotatedDimension
1001
ACAD
1000
DSTYLE
1002
{
1070
    41
1040
10.0
1070
   140
1040
25.0
1070
   147
1040
6.599999999999998
1070
   279
1070
     2
1070
   342
1005
30D
1070
   371
1070
    18
1070
   372
1070
    18
1002
}
  0
DIMENSION
  5
9249
330
1F
100
AcDbEntity
  8
実形
100
AcDbDimension
  2
*D82
 10
2206.292328655763
 20
1014.632201197999
 30
0.0
 11
2130.159061447659
 21
1032.540780884531
 31
0.0
 70
   160
  1
175
 71
     5
 42
173.4914893560772
  3
ISO-25
100
AcDbAlignedDimension
 13
2032.800839299685
 23
1134.178460662065
 33
0.0
 14
2206.292328655763
 24
1119.178460662066
 34
0.0
100
AcDbRotatedDimension
1001
ACAD
1000
DSTYLE
1002
{
1070
    41
1040
10.0
1070
   140
1040
25.0
1070
   147
1040
6.599999999999998
1070
   279
1070
     2
1070
   342
1005
30D
1070
   371
1070
    18
1070
   372
1070
    18
1002
}
  0
DIMENSION
  5
924A
330
1F
100
AcDbEntity
  8
実形
100
AcDbDimension
  2
*D83
 10
2206.292328655763
 20
959.6322011979991
 30
0.0
 11
2127.469493195675
 21
978.7322011979991
 31
0.0
 70
   160
  1
190
 71
     5
 42
188.4914893560772
  3
ISO-25
100
AcDbAlignedDimension
 13
2017.800839299686
 23
1069.178460662066
 33
0.0
 14
2206.292328655763
 24
1088.652485550307
 34
0.0
100
AcDbRotatedDimension
1001
ACAD
1000
DSTYLE
1002
{
1070
    41
1040
10.0
1070
   140
1040
25.0
1070
   147
1040
6.599999999999998
1070
   279
1070
     2
1070
   342
1005
30D
1070
   371
1070
    18
1070
   372
1070
    18
1002
}
  0
DIMENSION
  5
924B
330
1F
100
AcDbEntity
  8
実形
100
AcDbDimension
  2
*D84
 10
2017.800839299686
 20
959.6322011979991
 30
0.0
 11
2252.038896640843
 21
981.232201197999
 31
0.0
 70
   160
  1
15
 71
     5
 42
205.0000000000009
  3
ISO-25
100
AcDbAlignedDimension
 13
2222.800839299686
 23
1081.182213279534
 33
0.0
 14
2017.800839299686
 24
1069.178460662066
 34
0.0
100
AcDbRotatedDimension
1001
ACAD
1000
DSTYLE
1002
{
1070
    41
1040
10.0
1070
   140
1040
25.0
1070
   147
1040
6.599999999999998
1070
   279
1070
     2
1070
   342
1005
30D
1070
   371
1070
    18
1070
   372
1070
    18
1002
}
  0
DIMENSION
  5
924C
330
1F
100
AcDbEntity
  8
実形
100
AcDbDimension
  2
*D85
 10
2222.800839299686
 20
904.632201197999
 30
0.0
 11
2129.262535651537
 21
923.7322011979991
 31
0.0
 70
   160
  1
205
 71
     5
 42
205.0000000000009
  3
ISO-25
100
AcDbAlignedDimension
 13
2017.800839299686
 23
1069.178460662066
 33
0.0
 14
2222.800839299686
 24
1033.793126455478
 34
0.0
100
AcDbRotatedDimension
1001
ACAD
1000
DSTYLE
1002
{
1070
    41
1040
10.0
1070
   140
1040
25.0
1070
   147
1040
6.599999999999998
1070
   279
1070
     2
1070
   342
1005
30D
1070
   371
1070
    18
1070
   372
1070
    18
1002
}
  0
DIMENSION
  5
924D
330
1F
100
AcDbEntity
  8
実形
100
AcDbDimension
  2
*D86
 10
2017.800839299686
 20
904.632201197999
 30
0.0
 11
2251.752431418783
 21
926.2322011979991
 31
0.0
 70
   160
  1
8
 71
     5
 42
215.0
  3
ISO-25
100
AcDbAlignedDimension
 13
2232.800839299685
 23
1025.230155004366
 33
0.0
 14
2017.800839299686
 24
904.632201197999
 34
0.0
100
AcDbRotatedDimension
1001
ACAD
1000
DSTYLE
1002
{
1070
    41
1040
10.0
1070
   140
1040
25.0
1070
   147
1040
6.599999999999998
1070
   279
1070
     2
1070
   342
1005
30D
1070
   371
1070
    18
1070
   372
1070
    18
1002
}
  0
DIMENSION
  5
924E
330
1F
100
AcDbEntity
  8
実形
100
AcDbDimension
  2
*D87
 10
2232.800839299685
 20
849.6322011979991
 30
0.0
 11
2127.500346759052
 21
868.732201197999
 31
0.0
 70
   160
  1
213
 71
     5
 42
215.0
  3
ISO-25
100
AcDbAlignedDimension
 13
2017.800839299686
 23
1004.178460662066
 33
0.0
 14
2232.800839299685
 24
973.2416529477404
 34
0.0
100
AcDbRotatedDimension
1001
ACAD
1000
DSTYLE
1002
{
1070
    41
1040
10.0
1070
   140
1040
25.0
1070
   147
1040
6.599999999999998
1070
   279
1070
     2
1070
   342
1005
30D
1070
   371
1070
    18
1070
   372
1070
    18
1002
}
  0
TEXT
  5
9315
330
1F
100
AcDbEntity
  8
実形
100
AcDbText
 10
234.9784467214322
 20
60.07438486928823
 30
0.0
 40
30.0
  1
※実寸には製造上の誤差が多少生ずる場合があります。シンクの穴あけ加工は現物合わせにてお願いします。
 72
     4
 11
1104.978446721432
 21
75.07438486928823
 31
0.0
100
AcDbText
  0
TEXT
  5
9332
330
1F
100
AcDbEntity
  8
実形
100
AcDbText
 10
234.6212219700337
 20
122.5456368237046
 30
0.0
 40
30.0
  1
※排水口外周W35ｍｍ,H3ｍｍラウンドテーパ－有り。
 72
     4
 11
688.1212219700337
 21
135.0456368237046
 31
0.0
100
AcDbText
  0
LINE
  5
9441
330
1F
100
AcDbEntity
  8
補助
 62
     0
100
AcDbLine
 10
2834.0
 20
1959.000000000001
 30
0.0
 11
2069.387286519283
 21
1959.000000000002
 31
0.0
  0
LINE
  5
9442
330
1F
100
AcDbEntity
  8
補助
 62
     0
100
AcDbLine
 10
2834.0
 20
1894.000000000001
 30
0.0
 11
2069.387286519283
 21
1894.000000000001
 31
0.0
  0
LINE
  5
9443
330
1F
100
AcDbEntity
  8
補助
 62
     0
100
AcDbLine
 10
2252.547653420926
 20
1894.000000000001
 30
0.0
 11
2252.547653420926
 21
2024.000000000002
 31
0.0
  0
LINE
  5
9444
330
1F
100
AcDbEntity
  8
補助
 62
     0
100
AcDbLine
 10
2069.387286519283
 20
1894.000000000001
 30
0.0
 11
2069.387286519283
 21
2024.000000000002
 31
0.0
  0
TEXT
  5
9445
330
1F
100
AcDbEntity
  8
補助
 62
     0
100
AcDbText
 10
2100.295698850121
 20
1976.328571428573
 30
0.0
 40
30.0
  1
部品名
  7
明朝
 72
     4
 11
2166.124270278692
 21
1991.500000000002
 31
0.0
100
AcDbText
  0
TEXT
  5
9446
330
1F
100
AcDbEntity
  8
補助
 62
     0
100
AcDbText
 10
2677.614285714286
 20
1976.07142857143
 30
0.0
 40
30.0
  1
厚さ
  7
明朝
 72
     4
 11
2721.5
 21
1991.500000000002
 31
0.0
100
AcDbText
  0
LINE
  5
9447
330
1F
100
AcDbEntity
  8
補助
 62
     0
100
AcDbLine
 10
2609.0
 20
1894.000000000001
 30
0.0
 11
2609.0
 21
2024.000000000002
 31
0.0
  0
TEXT
  5
9448
330
1F
100
AcDbEntity
  8
補助
 62
     0
100
AcDbText
 10
2388.490869919937
 20
1975.947979478156
 30
0.0
 40
30.0
  1
材質
  7
明朝
 72
     4
 11
2432.376584205651
 21
1991.119408049584
 31
0.0
100
AcDbText
  0
TEXT
  5
9449
330
1F
100
AcDbEntity
  8
実形
 62
     0
100
AcDbText
 10
2098.227810657788
 20
1910.557142857144
 30
0.0
 40
30.0
  1
ボウル
  7
明朝
 72
     4
 11
2164.056382086359
 21
1926.500000000001
 31
0.0
100
AcDbText
  0
TEXT
  5
944A
330
1F
100
AcDbEntity
  8
実形
 62
     0
100
AcDbText
 10
2644.700000000001
 20
1911.842857142858
 30
0.0
 40
30.0
  1
1.0ｍｍ
  7
明朝
 72
     4
 11
2721.500000000001
 21
1926.500000000001
 31
0.0
100
AcDbText
  0
TEXT
  5
944B
330
1F
100
AcDbEntity
  8
実形
 62
     0
100
AcDbText
 10
2311.016869107866
 20
1910.728571428572
 30
0.0
 40
30.0
  1
SUS304（HL）
  7
明朝
 72
     4
 11
2442.674011965009
 21
1926.500000000001
 31
0.0
100
AcDbText
  0
VIEWPORT
  5
2E
102
{ACAD_XDICTIONARY
360
9477
102
}
330
1B
100
AcDbEntity
 67
     1
  8
0
100
AcDbViewport
 10
144.7270812988281
 20
101.2295806407928
 30
0.0
 40
411.6736216682419
 41
222.1517806396485
 68
     1
 69
     1
 12
144.7270812988281
 22
101.2295806407928
 13
0.0
 23
0.0
 14
10.0
 24
10.0
 15
10.0
 25
10.0
 16
0.0
 26
0.0
 36
1.0
 17
0.0
 27
0.0
 37
0.0
 42
50.0
 43
0.0
 44
0.0
 45
222.1517806396485
 50
0.0
 51
0.0
 72
   100
 90
    32800
  1

281
     0
 71
     1
 74
     0
110
0.0
120
0.0
130
0.0
111
1.0
121
0.0
131
0.0
112
0.0
122
1.0
132
0.0
 79
     0
146
0.0
  0
VIEWPORT
  5
30
102
{ACAD_XDICTIONARY
360
9479
102
}
330
1B
100
AcDbEntity
 67
     1
  8
0
100
AcDbViewport
 10
139.2237563133239
 20
101.2295821905136
 30
0.0
 40
222.7580101013184
 41
161.9673315048218
 68
     2
 69
     2
 12
210.0
 22
148.5
 13
0.0
 23
0.0
 14
10.0
 24
10.0
 15
10.0
 25
10.0
 16
0.0
 26
0.0
 36
1.0
 17
0.0
 27
0.0
 37
0.0
 42
50.0
 43
0.0
 44
0.0
 45
309.0686705647124
 50
0.0
 51
0.0
 72
   100
 90
    32864
  1

281
     0
 71
     1
 74
     0
110
0.0
120
0.0
130
0.0
111
1.0
121
0.0
131
0.0
112
0.0
122
1.0
132
0.0
 79
     0
146
0.0
  0
ENDSEC
  0
SECTION
  2
OBJECTS
  0
DICTIONARY
  5
C
330
0
100
AcDbDictionary
281
     1
  3
ACAD_COLOR
350
22AD
  3
ACAD_GROUP
350
D
  3
ACAD_LAYOUT
350
1A
  3
ACAD_MATERIAL
350
22AC
  3
ACAD_MLINESTYLE
350
17
  3
ACAD_PLOTSETTINGS
350
19
  3
ACAD_PLOTSTYLENAME
350
E
  3
ACAD_TABLESTYLE
350
22AE
  3
AcadDim
350
124
  3
ACDBHEADERROUNDTRIPXREC
350
9470
  3
AcDbVariableDictionary
350
1589
  3
DWGPROPS
350
946F
  0
DICTIONARY
  5
24C4
330
2
100
AcDbDictionary
280
     1
281
     1
  3
ACAD_LAYERFILTERS
360
6C37
  3
ACAD_LAYERSTATES
360
24C5
  3
ACLYDICTIONARY
360
6C36
  0
DICTIONARY
  5
2396
330
1F
100
AcDbDictionary
280
     1
281
     1
  3
ACAD_SORTENTS
360
2397
  0
DICTIONARY
  5
313E
330
313C
100
AcDbDictionary
280
     1
281
     1
  3
ACAD_SORTENTS
360
80F9
  0
DICTIONARY
  5
3848
330
3846
100
AcDbDictionary
280
     1
281
     1
  3
ACAD_SORTENTS
360
80FA
  0
DICTIONARY
  5
6B89
330
6B87
100
AcDbDictionary
280
     1
281
     1
  3
ACAD_SORTENTS
360
80FB
  0
DICTIONARY
  5
6C02
330
6C00
100
AcDbDictionary
280
     1
281
     1
  3
ACAD_SORTENTS
360
80FC
  0
DICTIONARY
  5
7758
330
7752
100
AcDbDictionary
280
     1
281
     1
  3
ACAD_SORTENTS
360
80FD
  0
DICTIONARY
  5
79A2
330
79A0
100
AcDbDictionary
280
     1
281
     1
  3
ACAD_SORTENTS
360
80FE
  0
DICTIONARY
  5
80F8
330
8065
100
AcDbDictionary
280
     1
281
     1
  3
ACAD_SORTENTS
360
80FF
  0
DICTIONARY
  5
9477
330
2E
100
AcDbDictionary
280
     1
281
     1
  3
ACAD_XREC_ROUNDTRIP
360
9478
  0
DICTIONARY
  5
9479
330
30
100
AcDbDictionary
280
     1
281
     1
  3
ACAD_XREC_ROUNDTRIP
360
947A
  0
DICTIONARY
  5
22AD
102
{ACAD_REACTORS
330
C
102
}
330
C
100
AcDbDictionary
281
     1
  0
DICTIONARY
  5
D
102
{ACAD_REACTORS
330
C
102
}
330
C
100
AcDbDictionary
281
     1
  0
DICTIONARY
  5
1A
102
{ACAD_REACTORS
330
C
102
}
330
C
100
AcDbDictionary
281
     1
  3
Model
350
22
  3
ﾚｲｱｳﾄ1
350
1E
  3
ﾚｲｱｳﾄ2
350
26
  0
DICTIONARY
  5
22AC
102
{ACAD_REACTORS
330
C
102
}
330
C
100
AcDbDictionary
281
     1
  0
DICTIONARY
  5
17
102
{ACAD_REACTORS
330
C
102
}
330
C
100
AcDbDictionary
281
     1
  3
Standard
350
18
  0
DICTIONARY
  5
19
102
{ACAD_REACTORS
330
C
102
}
330
C
100
AcDbDictionary
281
     1
  0
ACDBDICTIONARYWDFLT
  5
E
102
{ACAD_REACTORS
330
C
102
}
330
C
100
AcDbDictionary
281
     1
  3
Normal
350
F
100
AcDbDictionaryWithDefault
340
F
  0
DICTIONARY
  5
22AE
102
{ACAD_REACTORS
330
C
102
}
330
C
100
AcDbDictionary
281
     1
  3
Standard
350
22AF
  0
XRECORD
  5
124
102
{ACAD_REACTORS
330
C
102
}
330
C
100
AcDbXrecord
280
     1
 90
   990106
  3

 60
     0
 61
     0
 62
     1
 63
     3
 64
     0
 65
     0
 66
     0
 67
     3
 68
     1
 69
     0
 70
     0
 71
     0
 72
     0
 40
30.0
170
     0
  0
DICTIONARY
  5
9470
102
{ACAD_REACTORS
330
C
102
}
330
C
100
AcDbDictionary
281
     1
  0
DICTIONARY
  5
1589
102
{ACAD_REACTORS
330
C
102
}
330
C
100
AcDbDictionary
281
     1
  3
CTABLESTYLE
350
22B5
  3
DIMASSOC
350
946C
  3
PROJECTNAME
350
946D
  3
SORTENTS
350
158A
  0
XRECORD
  5
946F
102
{ACAD_REACTORS
330
C
102
}
330
C
100
AcDbXrecord
280
     1
  1
DWGPROPS COOKIE
  2

  3

  4

  6

  7

  8

  9

300
=
301
=
302
=
303
=
304
=
305
=
306
=
307
=
308
=
309
=
 40
2.740889583333333
 41
2451673.575802199
 42
2458808.787734503
  1

 90
        0
  0
DICTIONARY
  5
6C37
102
{ACAD_REACTORS
330
24C4
102
}
330
24C4
100
AcDbDictionary
281
     1
  0
DICTIONARY
  5
24C5
102
{ACAD_REACTORS
330
24C4
102
}
330
24C4
100
AcDbDictionary
281
     1
  0
DICTIONARY
  5
6C36
102
{ACAD_REACTORS
330
24C4
102
}
330
24C4
100
AcDbDictionary
281
     1
1001
ACAD
1000
<All
  0
SORTENTSTABLE
  5
2397
102
{ACAD_REACTORS
330
2396
102
}
330
2396
100
AcDbSortentsTable
330
1F
331
8277
  5
83D0
331
8344
  5
82EE
331
835C
  5
854F
331
7026
  5
7027
331
785C
  5
79D8
331
702E
  5
72AC
331
1B91
  5
1B9C
331
754C
  5
7029
331
1B99
  5
604B
331
8DE8
  5
8F38
331
8C72
  5
8DE8
331
794B
  5
7BA4
331
5E68
  5
6D9A
331
782D
  5
7316
331
7C40
  5
8188
331
7185
  5
7774
331
7845
  5
79B0
331
72ED
  5
7775
331
8345
  5
8343
331
A0
  5
1B7B
331
7027
  5
70D5
331
1B8A
  5
1B94
331
73F5
  5
7796
331
702F
  5
702A
331
1B92
  5
1B9D
331
754D
  5
734A
331
774D
  5
7798
331
8F98
  5
9F
331
8C73
  5
8F2B
331
82EE
  5
83CD
331
1B73
  5
1B8E
331
8279
  5
83D2
331
7028
  5
7168
331
1B8B
  5
1B95
331
77AF
  5
799E
331
7030
  5
7132
331
1B93
  5
1BA1
331
73F6
  5
7797
331
754E
  5
729C
331
774E
  5
77A4
331
8D3A
  5
8F31
331
8C6C
  5
8D3A
331
8C74
  5
8F2C
331
9019
  5
702F
331
824A
  5
8345
331
7BA3
  5
8185
331
6E31
  5
1B74
331
7796
  5
7078
331
827A
  5
83D3
331
799D
  5
7BCC
331
1B84
  5
1B8F
331
7140
  5
754B
331
7029
  5
7183
331
1B8C
  5
1B96
331
7031
  5
7180
331
1B94
  5
1BA2
331
78F6
  5
7B4E
331
7168
  5
754C
331
774F
  5
77A5
331
7BEB
  5
7031
331
7877
  5
7A0D
331
8C6D
  5
8DB6
331
901A
  5
702E
331
7A0D
  5
817B
331
7180
  5
7181
331
824B
  5
8346
331
7BA4
  5
8186
331
799E
  5
7BEB
331
827B
  5
84CE
331
1B85
  5
1B90
331
702A
  5
7028
331
1B8D
  5
1B97
331
7BCC
  5
8187
331
7548
  5
7102
331
1B95
  5
1BA6
331
7A4D
  5
817F
331
8C6E
  5
8DE4
331
8C76
  5
8F2D
331
901B
  5
7323
331
7750
  5
77AF
331
7102
  5
7506
331
6D9B
  5
1B7C
331
7132
  5
7549
331
824C
  5
8344
331
799F
  5
7C3E
331
7A2E
  5
817E
331
8351
  5
854B
331
68BC
  5
6E28
331
1B86
  5
1B91
331
702B
  5
70DF
331
1B8E
  5
1B98
331
7549
  5
7133
331
1B96
  5
1BA7
331
7938
  5
7BA3
331
7B4E
  5
8182
331
8C6F
  5
8DE5
331
8DE5
  5
8F37
331
8C77
  5
8F2E
331
901C
  5
72EE
331
7751
  5
77BC
331
7172
  5
7771
331
7133
  5
754A
331
78B9
  5
7A2E
331
8302
  5
854A
331
734A
  5
7776
331
1B87
  5
1B92
331
79B0
  5
7C3F
331
702C
  5
717F
331
1B8F
  5
1B99
331
78E9
  5
7A4D
331
754A
  5
70F5
331
1B97
  5
1BA8
331
79D8
  5
7C40
331
786A
  5
7A0C
331
8C70
  5
8DE6
331
7183
  5
7772
331
7C3E
  5
7086
331
8276
  5
83CE
331
8353
  5
854D
331
734B
  5
7777
331
1B88
  5
1B93
331
702D
  5
7298
331
68D6
  5
6E31
331
1B90
  5
1B9B
331
1B98
  5
37FF
331
70F5
  5
734B
331
77BC
  5
799F
331
86F3
  5
8C74
331
8C71
  5
8DE7
331
272
  5
1B86
331
5E5F
  5
634F
331
824F
  5
835C
331
782C
  5
72BB
331
7C3F
  5
703F
331
7184
  5
7773
  0
SORTENTSTABLE
  5
80F9
102
{ACAD_REACTORS
330
313E
102
}
330
313E
100
AcDbSortentsTable
330
313C
  0
SORTENTSTABLE
  5
80FA
102
{ACAD_REACTORS
330
3848
102
}
330
3848
100
AcDbSortentsTable
330
3846
  0
SORTENTSTABLE
  5
80FB
102
{ACAD_REACTORS
330
6B89
102
}
330
6B89
100
AcDbSortentsTable
330
6B87
  0
SORTENTSTABLE
  5
80FC
102
{ACAD_REACTORS
330
6C02
102
}
330
6C02
100
AcDbSortentsTable
330
6C00
  0
SORTENTSTABLE
  5
80FD
102
{ACAD_REACTORS
330
7758
102
}
330
7758
100
AcDbSortentsTable
330
7752
  0
SORTENTSTABLE
  5
80FE
102
{ACAD_REACTORS
330
79A2
102
}
330
79A2
100
AcDbSortentsTable
330
79A0
  0
SORTENTSTABLE
  5
80FF
102
{ACAD_REACTORS
330
80F8
102
}
330
80F8
100
AcDbSortentsTable
330
8065
331
80D8
  5
80DE
331
80A1
  5
80B5
331
80E0
  5
80E3
331
806A
  5
806D
331
80E8
  5
80EB
331
8072
  5
8075
331
80A9
  5
80B9
331
80F0
  5
80F3
331
807A
  5
807D
331
80B1
  5
80C1
331
8082
  5
8085
331
80B9
  5
80C8
331
80C1
  5
80CD
331
80C9
  5
80CF
331
8092
  5
809F
331
80D1
  5
80D7
331
809A
  5
80A7
331
80D9
  5
8090
331
80A2
  5
80AD
331
80E1
  5
80E4
331
806B
  5
806E
331
80E9
  5
80EC
331
8073
  5
8076
331
80AA
  5
80BA
331
80F1
  5
80F4
331
807B
  5
807E
331
80B2
  5
80C2
331
8083
  5
8086
331
80BA
  5
80B4
331
808B
  5
8092
331
80C2
  5
8095
331
8093
  5
808D
331
80CA
  5
80D0
331
80D2
  5
80D8
331
809B
  5
80A8
331
80DA
  5
80DF
331
80A3
  5
80B1
331
80E2
  5
80E5
331
806C
  5
806F
331
80EA
  5
80ED
331
8074
  5
8077
331
80AB
  5
80BB
331
80F2
  5
80F5
331
807C
  5
807F
331
80B3
  5
80C3
331
8084
  5
8087
331
80BB
  5
80C9
331
808C
  5
8098
331
80C3
  5
8097
331
80CB
  5
80D1
331
8094
  5
8096
331
80D3
  5
80D9
331
809C
  5
80A9
331
80DB
  5
80E0
331
80A4
  5
80B8
331
80E3
  5
80E6
331
806D
  5
8070
331
80EB
  5
80EE
331
8075
  5
8078
331
80AC
  5
80BC
331
80F3
  5
80F6
331
807D
  5
8080
331
80B4
  5
80C4
331
8085
  5
8088
331
80BC
  5
80CA
331
808D
  5
809C
331
80C4
  5
8094
331
80CC
  5
80D2
331
8095
  5
809A
331
80D4
  5
80DA
331
809D
  5
809B
331
80DC
  5
80A0
331
80A5
  5
80AE
331
80E4
  5
80E7
331
806E
  5
8071
331
80EC
  5
80EF
331
8076
  5
8079
331
80AD
  5
80BD
331
80F4
  5
808E
331
807E
  5
8081
331
80B5
  5
80C6
331
8086
  5
8089
331
80BD
  5
80B3
331
808E
  5
808B
331
80C5
  5
808C
331
80CD
  5
80D3
331
8096
  5
80A3
331
80D5
  5
80DB
331
809E
  5
80AA
331
80DD
  5
80A1
331
80A6
  5
80B2
331
80E5
  5
80E8
331
806F
  5
8072
331
80ED
  5
80F0
331
8077
  5
807A
331
80AE
  5
80BE
331
80F5
  5
8091
331
807F
  5
8082
331
80B6
  5
80C5
331
8087
  5
806B
331
80BE
  5
80AF
331
808F
  5
8093
331
80C6
  5
80A2
331
80CE
  5
80D4
331
8097
  5
80A4
331
80D6
  5
80DC
331
809F
  5
80AB
331
80DE
  5
80E1
331
8068
  5
8069
331
80A7
  5
80B6
331
80E6
  5
80E9
331
8070
  5
8073
331
80EE
  5
80F1
331
80AF
  5
80BF
331
8078
  5
807B
331
80F6
  5
808F
331
8080
  5
8083
331
80B7
  5
80C7
331
8088
  5
806A
331
80BF
  5
80CB
331
80C7
  5
809E
331
8090
  5
8099
331
80CF
  5
80D5
331
8098
  5
80A5
331
80D7
  5
80DD
331
80A0
  5
80AC
331
80DF
  5
80E2
331
8069
  5
806C
331
80E7
  5
80EA
331
8071
  5
8074
331
80A8
  5
80B7
331
80EF
  5
80F2
331
8079
  5
807C
331
80B0
  5
80C0
331
8081
  5
8084
331
80B8
  5
80B0
331
8089
  5
8068
331
80C0
  5
80CC
331
80C8
  5
80CE
331
8091
  5
809D
331
80D0
  5
80D6
331
8099
  5
80A6
  0
XRECORD
  5
9478
102
{ACAD_REACTORS
330
9477
102
}
330
9477
100
AcDbXrecord
280
     1
102
SHADEPLOT
 70
     0
  0
XRECORD
  5
947A
102
{ACAD_REACTORS
330
9479
102
}
330
9479
100
AcDbXrecord
280
     1
102
SHADEPLOT
 70
     0
  0
LAYOUT
  5
22
102
{ACAD_XDICTIONARY
360
9473
102
}
102
{ACAD_REACTORS
330
1A
102
}
330
1A
100
AcDbPlotSettings
  1

  2
EPSON PM-800C
  4
A4
  6

 40
3.757083177566528
 41
14.7637300491333
 42
3.757080078125
 43
3.757080078125
 44
209.9733276367187
 45
296.9683227539062
 46
0.0
 47
0.0
 48
0.0
 49
0.0
140
0.0
141
0.0
142
1.0
143
10.0
 70
 11952
 72
     1
 73
     1
 74
     2
  7

 75
    20
147
0.1
148
0.0
149
0.0
100
AcDbLayout
  1
Model
 70
     1
 71
     0
 10
0.0
 20
0.0
 11
12.0
 21
9.0
 12
0.0
 22
0.0
 32
0.0
 14
0.0
 24
0.0
 34
0.0
 15
0.0
 25
0.0
 35
0.0
146
0.0
 13
0.0
 23
0.0
 33
0.0
 16
1.0
 26
0.0
 36
0.0
 17
0.0
 27
1.0
 37
0.0
 76
     0
330
1F
  0
LAYOUT
  5
1E
102
{ACAD_XDICTIONARY
360
9471
102
}
102
{ACAD_REACTORS
330
1A
102
}
330
1A
100
AcDbPlotSettings
  1

  2
EPSON PM-800C
  4
A4
  6

 40
3.757083177566528
 41
14.7637300491333
 42
3.757080078125
 43
3.757080078125
 44
209.9733276367187
 45
296.9683227539062
 46
0.0
 47
0.0
 48
0.0
 49
0.0
140
0.0
141
0.0
142
1.0
143
1.0
 70
   688
 72
     1
 73
     1
 74
     5
  7

 75
    16
147
1.0
148
0.0
149
0.0
100
AcDbLayout
  1
ﾚｲｱｳﾄ1
 70
     1
 71
     1
 10
-3.757080078125
 20
-3.757083177566528
 11
293.2112426757813
 21
206.2162444591522
 12
0.0
 22
0.0
 32
0.0
 14
27.8447512626648
 24
20.24591643810271
 34
0.0
 15
250.6027613639831
 25
182.2132479429245
 35
0.0
146
0.0
 13
0.0
 23
0.0
 33
0.0
 16
1.0
 26
0.0
 36
0.0
 17
0.0
 27
1.0
 37
0.0
 76
     0
330
1B
331
2E
  0
LAYOUT
  5
26
102
{ACAD_XDICTIONARY
360
9475
102
}
102
{ACAD_REACTORS
330
1A
102
}
330
1A
100
AcDbPlotSettings
  1

  2
EPSON PM-800C
  4

  6

 40
0.0
 41
0.0
 42
0.0
 43
0.0
 44
0.0
 45
0.0
 46
0.0
 47
0.0
 48
0.0
 49
0.0
140
0.0
141
0.0
142
1.0
143
1.0
 70
   688
 72
     0
 73
     0
 74
     5
  7

 75
    16
147
1.0
148
0.0
149
0.0
100
AcDbLayout
  1
ﾚｲｱｳﾄ2
 70
     1
 71
     2
 10
0.0
 20
0.0
 11
12.0
 21
9.0
 12
0.0
 22
0.0
 32
0.0
 14
0.0
 24
0.0
 34
0.0
 15
0.0
 25
0.0
 35
0.0
146
0.0
 13
0.0
 23
0.0
 33
0.0
 16
1.0
 26
0.0
 36
0.0
 17
0.0
 27
1.0
 37
0.0
 76
     0
330
23
  0
MLINESTYLE
  5
18
102
{ACAD_REACTORS
330
17
102
}
330
17
100
AcDbMlineStyle
  2
STANDARD
 70
     0
  3

 62
   256
 51
90.0
 52
90.0
 71
     2
 49
0.5
 62
   256
  6
BYLAYER
 49
-0.5
 62
   256
  6
BYLAYER
  0
ACDBPLACEHOLDER
  5
F
102
{ACAD_REACTORS
330
E
102
}
330
E
  0
TABLESTYLE
  5
22AF
102
{ACAD_REACTORS
330
22AE
102
}
330
22AE
100
AcDbTableStyle
  3
Standard
 70
     0
 71
     0
 40
1.5
 41
1.5
280
     0
281
     0
  7
Standard
140
4.5
170
     2
 62
     0
 63
     7
283
     0
274
    -2
284
     1
 64
     0
275
    -2
285
     1
 65
     0
276
    -2
286
     1
 66
     0
277
    -2
287
     1
 67
     0
278
    -2
288
     1
 68
     0
279
    -2
289
     1
 69
     0
  7
Standard
140
6.0
170
     5
 62
     0
 63
     7
283
     0
274
    -2
284
     1
 64
     0
275
    -2
285
     1
 65
     0
276
    -2
286
     1
 66
     0
277
    -2
287
     1
 67
     0
278
    -2
288
     1
 68
     0
279
    -2
289
     1
 69
     0
  7
Standard
140
4.5
170
     5
 62
     0
 63
     7
283
     0
274
    -2
284
     1
 64
     0
275
    -2
285
     1
 65
     0
276
    -2
286
     1
 66
     0
277
    -2
287
     1
 67
     0
278
    -2
288
     1
 68
     0
279
    -2
289
     1
 69
     0
  0
DICTIONARYVAR
  5
22B5
102
{ACAD_REACTORS
330
1589
102
}
330
1589
100
DictionaryVariables
280
     0
  1
STANDARD
  0
DICTIONARYVAR
  5
946C
102
{ACAD_REACTORS
330
1589
102
}
330
1589
100
DictionaryVariables
280
     0
  1
1
  0
DICTIONARYVAR
  5
946D
102
{ACAD_REACTORS
330
1589
102
}
330
1589
100
DictionaryVariables
280
     0
  1

  0
DICTIONARYVAR
  5
158A
102
{ACAD_REACTORS
330
1589
102
}
330
1589
100
DictionaryVariables
280
     0
  1
96
  0
DICTIONARY
  5
9473
330
22
100
AcDbDictionary
280
     1
281
     1
  3
ACAD_XREC_ROUNDTRIP
360
9474
  0
DICTIONARY
  5
9471
330
1E
100
AcDbDictionary
280
     1
281
     1
  3
ACAD_XREC_ROUNDTRIP
360
9472
  0
DICTIONARY
  5
9475
330
26
100
AcDbDictionary
280
     1
281
     1
  3
ACAD_XREC_ROUNDTRIP
360
9476
  0
XRECORD
  5
9474
102
{ACAD_REACTORS
330
9473
102
}
330
9473
100
AcDbXrecord
280
     1
102
SHADEPLOT
 70
     0
102
SHADEPLOTRESLEVEL
 70
     2
102
SHADEPLOTCUSTOMDPI
 70
   300
  0
XRECORD
  5
9472
102
{ACAD_REACTORS
330
9471
102
}
330
9471
100
AcDbXrecord
280
     1
102
SHADEPLOT
 70
     0
102
SHADEPLOTRESLEVEL
 70
     2
102
SHADEPLOTCUSTOMDPI
 70
   300
  0
XRECORD
  5
9476
102
{ACAD_REACTORS
330
9475
102
}
330
9475
100
AcDbXrecord
280
     1
102
SHADEPLOT
 70
     0
102
SHADEPLOTRESLEVEL
 70
     2
102
SHADEPLOTCUSTOMDPI
 70
   300
  0
ENDSEC
  0
EOF
