  0
SECTION
  2
HEADER
  9
$ACADVER
  1
AC1015
  9
$ACADMAINTVER
 70
    20
  9
$DWGCODEPAGE
  3
ANSI_932
  9
$INSBASE
 10
0.0
 20
0.0
 30
0.0
  9
$EXTMIN
 10
174.0
 20
-392.3860966284574
 30
0.0
  9
$EXTMAX
 10
2834.0
 20
2024.000000000002
 30
0.0
  9
$LIMMIN
 10
54.0
 20
4.0
  9
$LIMMAX
 10
2834.0
 20
2024.0
  9
$ORTHOMODE
 70
     1
  9
$REGENMODE
 70
     1
  9
$FILLMODE
 70
     1
  9
$QTEXTMODE
 70
     0
  9
$MIRRTEXT
 70
     1
  9
$LTSCALE
 40
4.0
  9
$ATTMODE
 70
     1
  9
$TEXTSIZE
 40
30.0
  9
$TRACEWID
 40
1.0
  9
$TEXTSTYLE
  7
Standard
  9
$CLAYER
  8
実形
  9
$CELTYPE
  6
ByLayer
  9
$CECOLOR
 62
     3
  9
$CELTSCALE
 40
1.0
  9
$DISPSILH
 70
     0
  9
$DIMSCALE
 40
1.0
  9
$DIMASZ
 40
10.0
  9
$DIMEXO
 40
65.0
  9
$DIMDLI
 40
3.75
  9
$DIMRND
 40
0.0
  9
$DIMDLE
 40
0.0
  9
$DIMEXE
 40
0.0
  9
$DIMTP
 40
0.0
  9
$DIMTM
 40
0.0
  9
$DIMTXT
 40
25.0
  9
$DIMCEN
 40
2.5
  9
$DIMTSZ
 40
0.0
  9
$DIMTOL
 70
     0
  9
$DIMLIM
 70
     0
  9
$DIMTIH
 70
     0
  9
$DIMTOH
 70
     0
  9
$DIMSE1
 70
     0
  9
$DIMSE2
 70
     0
  9
$DIMTAD
 70
     1
  9
$DIMZIN
 70
     8
  9
$DIMBLK
  1
Dot
  9
$DIMASO
 70
     1
  9
$DIMSHO
 70
     1
  9
$DIMPOST
  1

  9
$DIMAPOST
  1

  9
$DIMALT
 70
     0
  9
$DIMALTD
 70
     3
  9
$DIMALTF
 40
0.03937007874016
  9
$DIMLFAC
 40
1.0
  9
$DIMTOFL
 70
     1
  9
$DIMTVP
 40
0.0
  9
$DIMTIX
 70
     0
  9
$DIMSOXD
 70
     0
  9
$DIMSAH
 70
     0
  9
$DIMBLK1
  1

  9
$DIMBLK2
  1

  9
$DIMSTYLE
  2
ISO-25
  9
$DIMCLRD
 70
     0
  9
$DIMCLRE
 70
     0
  9
$DIMCLRT
 70
     0
  9
$DIMTFAC
 40
1.0
  9
$DIMGAP
 40
6.599999999999998
  9
$DIMJUST
 70
     0
  9
$DIMSD1
 70
     0
  9
$DIMSD2
 70
     0
  9
$DIMTOLJ
 70
     0
  9
$DIMTZIN
 70
     8
  9
$DIMALTZ
 70
     0
  9
$DIMALTTZ
 70
     0
  9
$DIMUPT
 70
     0
  9
$DIMDEC
 70
     2
  9
$DIMTDEC
 70
     2
  9
$DIMALTU
 70
     2
  9
$DIMALTTD
 70
     3
  9
$DIMTXSTY
  7
Standard
  9
$DIMAUNIT
 70
     0
  9
$DIMADEC
 70
     0
  9
$DIMALTRND
 40
0.0
  9
$DIMAZIN
 70
     0
  9
$DIMDSEP
 70
    46
  9
$DIMATFIT
 70
     3
  9
$DIMFRAC
 70
     0
  9
$DIMLDRBLK
  1
Open30
  9
$DIMLUNIT
 70
     2
  9
$DIMLWD
 70
    18
  9
$DIMLWE
 70
    18
  9
$DIMTMOVE
 70
     2
  9
$LUNITS
 70
     2
  9
$LUPREC
 70
     2
  9
$SKETCHINC
 40
1.0
  9
$FILLETRAD
 40
6.0
  9
$AUNITS
 70
     0
  9
$AUPREC
 70
     0
  9
$MENU
  1
.
  9
$ELEVATION
 40
0.0
  9
$PELEVATION
 40
0.0
  9
$THICKNESS
 40
0.0
  9
$LIMCHECK
 70
     1
  9
$CHAMFERA
 40
10.0
  9
$CHAMFERB
 40
10.0
  9
$CHAMFERC
 40
20.0
  9
$CHAMFERD
 40
0.0
  9
$SKPOLY
 70
     0
  9
$TDCREATE
 40
2451673.575802199
  9
$TDUCREATE
 40
2451673.200802199
  9
$TDUPDATE
 40
2458808.790464826
  9
$TDUUPDATE
 40
2458808.415464826
  9
$TDINDWG
 40
2.7933197917
  9
$TDUSRTIMER
 40
2.7933190972
  9
$USRTIMER
 70
     1
  9
$ANGBASE
 50
0.0
  9
$ANGDIR
 70
     0
  9
$PDMODE
 70
     0
  9
$PDSIZE
 40
0.0
  9
$PLINEWID
 40
0.0
  9
$SPLFRAME
 70
     0
  9
$SPLINETYPE
 70
     6
  9
$SPLINESEGS
 70
     8
  9
$HANDSEED
  5
ACA4
  9
$SURFTAB1
 70
     6
  9
$SURFTAB2
 70
     6
  9
$SURFTYPE
 70
     6
  9
$SURFU
 70
     6
  9
$SURFV
 70
     6
  9
$UCSBASE
  2

  9
$UCSNAME
  2

  9
$UCSORG
 10
0.0
 20
0.0
 30
0.0
  9
$UCSXDIR
 10
1.0
 20
0.0
 30
0.0
  9
$UCSYDIR
 10
0.0
 20
1.0
 30
0.0
  9
$UCSORTHOREF
  2

  9
$UCSORTHOVIEW
 70
     0
  9
$UCSORGTOP
 10
0.0
 20
0.0
 30
0.0
  9
$UCSORGBOTTOM
 10
0.0
 20
0.0
 30
0.0
  9
$UCSORGLEFT
 10
0.0
 20
0.0
 30
0.0
  9
$UCSORGRIGHT
 10
0.0
 20
0.0
 30
0.0
  9
$UCSORGFRONT
 10
0.0
 20
0.0
 30
0.0
  9
$UCSORGBACK
 10
0.0
 20
0.0
 30
0.0
  9
$PUCSBASE
  2

  9
$PUCSNAME
  2

  9
$PUCSORG
 10
0.0
 20
0.0
 30
0.0
  9
$PUCSXDIR
 10
1.0
 20
0.0
 30
0.0
  9
$PUCSYDIR
 10
0.0
 20
1.0
 30
0.0
  9
$PUCSORTHOREF
  2

  9
$PUCSORTHOVIEW
 70
     0
  9
$PUCSORGTOP
 10
0.0
 20
0.0
 30
0.0
  9
$PUCSORGBOTTOM
 10
0.0
 20
0.0
 30
0.0
  9
$PUCSORGLEFT
 10
0.0
 20
0.0
 30
0.0
  9
$PUCSORGRIGHT
 10
0.0
 20
0.0
 30
0.0
  9
$PUCSORGFRONT
 10
0.0
 20
0.0
 30
0.0
  9
$PUCSORGBACK
 10
0.0
 20
0.0
 30
0.0
  9
$USERI1
 70
     0
  9
$USERI2
 70
     0
  9
$USERI3
 70
     0
  9
$USERI4
 70
     0
  9
$USERI5
 70
     0
  9
$USERR1
 40
0.0
  9
$USERR2
 40
0.0
  9
$USERR3
 40
0.0
  9
$USERR4
 40
0.0
  9
$USERR5
 40
0.0
  9
$WORLDVIEW
 70
     1
  9
$SHADEDGE
 70
     3
  9
$SHADEDIF
 70
    70
  9
$TILEMODE
 70
     1
  9
$MAXACTVP
 70
    64
  9
$PINSBASE
 10
0.0
 20
0.0
 30
0.0
  9
$PLIMCHECK
 70
     0
  9
$PEXTMIN
 10
27.8447512626648
 20
20.24591643810271
 30
0.0
  9
$PEXTMAX
 10
250.6027613639831
 20
182.2132479429245
 30
0.0
  9
$PLIMMIN
 10
-3.757080078125
 20
-3.757083177566528
  9
$PLIMMAX
 10
293.2112426757813
 20
206.2162444591522
  9
$UNITMODE
 70
     0
  9
$VISRETAIN
 70
     1
  9
$PLINEGEN
 70
     0
  9
$PSLTSCALE
 70
     1
  9
$TREEDEPTH
 70
  3020
  9
$CMLSTYLE
  2
Standard
  9
$CMLJUST
 70
     0
  9
$CMLSCALE
 40
20.0
  9
$PROXYGRAPHICS
 70
     1
  9
$MEASUREMENT
 70
     1
  9
$CELWEIGHT
370
    -1
  9
$ENDCAPS
280
     0
  9
$JOINSTYLE
280
     0
  9
$LWDISPLAY
290
     0
  9
$INSUNITS
 70
     4
  9
$HYPERLINKBASE
  1

  9
$STYLESHEET
  1

  9
$XEDIT
290
     1
  9
$CEPSNTYPE
380
     0
  9
$PSTYLEMODE
290
     1
  9
$FINGERPRINTGUID
  2
{C8EA1F16-24C9-11D4-9416-CE0A3B32152F}
  9
$VERSIONGUID
  2
{E2CCA0CA-C561-4724-8475-C84CA1C1896E}
  9
$EXTNAMES
290
     1
  9
$PSVPSCALE
 40
0.0
  9
$OLESTARTUP
290
     0
  0
ENDSEC
  0
SECTION
  2
CLASSES
  0
CLASS
  1
ACDBDICTIONARYWDFLT
  2
AcDbDictionaryWithDefault
  3
ObjectDBX Classes
 90
        0
280
     0
281
     0
  0
CLASS
  1
ACDBPLACEHOLDER
  2
AcDbPlaceHolder
  3
ObjectDBX Classes
 90
        0
280
     0
281
     0
  0
CLASS
  1
LAYOUT
  2
AcDbLayout
  3
ObjectDBX Classes
 90
        0
280
     0
281
     0
  0
CLASS
  1
DICTIONARYVAR
  2
AcDbDictionaryVar
  3
ObjectDBX Classes
 90
        0
280
     0
281
     0
  0
CLASS
  1
TABLESTYLE
  2
AcDbTableStyle
  3
ObjectDBX Classes
 90
     2047
280
     0
281
     0
  0
CLASS
  1
SORTENTSTABLE
  2
AcDbSortentsTable
  3
ObjectDBX Classes
 90
        0
280
     0
281
     0
  0
ENDSEC
  0
SECTION
  2
TABLES
  0
TABLE
  2
VPORT
  5
8
330
0
100
AcDbSymbolTable
 70
     2
  0
VPORT
  5
AC97
330
8
100
AcDbSymbolTableRecord
100
AcDbViewportTableRecord
  2
*Active
 70
     0
 10
0.0
 20
0.0
 11
1.0
 21
1.0
 12
1545.66692891741
 22
898.4649825694436
 13
0.0
 23
0.0
 14
10.0
 24
10.0
 15
10.0
 25
10.0
 16
0.0
 26
0.0
 36
1.0
 17
0.0
 27
0.0
 37
0.0
 40
2510.228758773666
 41
1.29038112522686
 42
50.0
 43
0.0
 44
0.0
 50
0.0
 51
0.0
 71
     0
 72
   100
 73
     1
 74
     3
 75
     0
 76
     0
 77
     0
 78
     0
281
     0
 65
     1
110
0.0
120
0.0
130
0.0
111
1.0
121
0.0
131
0.0
112
0.0
122
1.0
132
0.0
 79
     0
146
0.0
  0
ENDTAB
  0
TABLE
  2
LTYPE
  5
5
330
0
100
AcDbSymbolTable
 70
    46
  0
LTYPE
  5
14
330
5
100
AcDbSymbolTableRecord
100
AcDbLinetypeTableRecord
  2
ByBlock
 70
     0
  3

 72
    65
 73
     0
 40
0.0
  0
LTYPE
  5
15
330
5
100
AcDbSymbolTableRecord
100
AcDbLinetypeTableRecord
  2
ByLayer
 70
     0
  3

 72
    65
 73
     0
 40
0.0
  0
LTYPE
  5
16
330
5
100
AcDbSymbolTableRecord
100
AcDbLinetypeTableRecord
  2
Continuous
 70
     0
  3
Solid line
 72
    65
 73
     0
 40
0.0
  0
LTYPE
  5
34
330
5
100
AcDbSymbolTableRecord
100
AcDbLinetypeTableRecord
  2
ACAD_ISO02W100
 70
     0
  3
ISO dash __ __ __ __ __ __ __ __ __ __ __ __ __
 72
    65
 73
     2
 40
15.0
 49
12.0
 74
     0
 49
-3.0
 74
     0
  0
LTYPE
  5
35
330
5
100
AcDbSymbolTableRecord
100
AcDbLinetypeTableRecord
  2
ACAD_ISO03W100
 70
     0
  3
ISO dash space __    __    __    __    __    __
 72
    65
 73
     2
 40
30.0
 49
12.0
 74
     0
 49
-18.0
 74
     0
  0
LTYPE
  5
36
330
5
100
AcDbSymbolTableRecord
100
AcDbLinetypeTableRecord
  2
ACAD_ISO04W100
 70
     0
  3
ISO long-dash dot ____ . ____ . ____ . ____ . _
 72
    65
 73
     4
 40
30.0
 49
24.0
 74
     0
 49
-3.0
 74
     0
 49
0.0
 74
     0
 49
-3.0
 74
     0
  0
LTYPE
  5
37
330
5
100
AcDbSymbolTableRecord
100
AcDbLinetypeTableRecord
  2
ACAD_ISO05W100
 70
     0
  3
ISO long-dash double-dot ____ .. ____ .. ____ .
 72
    65
 73
     6
 40
34.0
 49
24.0
 74
     0
 49
-3.0
 74
     0
 49
0.5
 74
     0
 49
-3.0
 74
     0
 49
0.5
 74
     0
 49
-3.0
 74
     0
  0
LTYPE
  5
38
330
5
100
AcDbSymbolTableRecord
100
AcDbLinetypeTableRecord
  2
ACAD_ISO06W100
 70
     0
  3
ISO long-dash triple-dot ____ ... ____ ... ____
 72
    65
 73
     8
 40
37.5
 49
24.0
 74
     0
 49
-3.0
 74
     0
 49
0.5
 74
     0
 49
-3.0
 74
     0
 49
0.5
 74
     0
 49
-3.0
 74
     0
 49
0.5
 74
     0
 49
-3.0
 74
     0
  0
LTYPE
  5
39
330
5
100
AcDbSymbolTableRecord
100
AcDbLinetypeTableRecord
  2
ACAD_ISO07W100
 70
     0
  3
ISO dot . . . . . . . . . . . . . . . . . . . .
 72
    65
 73
     2
 40
3.0
 49
0.0
 74
     0
 49
-3.0
 74
     0
  0
LTYPE
  5
3A
330
5
100
AcDbSymbolTableRecord
100
AcDbLinetypeTableRecord
  2
ACAD_ISO08W100
 70
     0
  3
ISO long-dash short-dash ____ __ ____ __ ____ _
 72
    65
 73
     4
 40
36.0
 49
24.0
 74
     0
 49
-3.0
 74
     0
 49
6.0
 74
     0
 49
-3.0
 74
     0
  0
LTYPE
  5
3B
330
5
100
AcDbSymbolTableRecord
100
AcDbLinetypeTableRecord
  2
ACAD_ISO09W100
 70
     0
  3
ISO long-dash double-short-dash ____ __ __ ____
 72
    65
 73
     6
 40
45.0
 49
24.0
 74
     0
 49
-3.0
 74
     0
 49
6.0
 74
     0
 49
-3.0
 74
     0
 49
6.0
 74
     0
 49
-3.0
 74
     0
  0
LTYPE
  5
3C
330
5
100
AcDbSymbolTableRecord
100
AcDbLinetypeTableRecord
  2
ACAD_ISO10W100
 70
     0
  3
ISO dash dot __ . __ . __ . __ . __ . __ . __ .
 72
    65
 73
     4
 40
18.0
 49
12.0
 74
     0
 49
-3.0
 74
     0
 49
0.0
 74
     0
 49
-3.0
 74
     0
  0
LTYPE
  5
3D
330
5
100
AcDbSymbolTableRecord
100
AcDbLinetypeTableRecord
  2
ACAD_ISO11W100
 70
     0
  3
ISO double-dash dot __ __ . __ __ . __ __ . __ 
 72
    65
 73
     6
 40
33.0
 49
12.0
 74
     0
 49
-3.0
 74
     0
 49
12.0
 74
     0
 49
-3.0
 74
     0
 49
0.0
 74
     0
 49
-3.0
 74
     0
  0
LTYPE
  5
3E
330
5
100
AcDbSymbolTableRecord
100
AcDbLinetypeTableRecord
  2
ACAD_ISO12W100
 70
     0
  3
ISO dash double-dot __ . . __ . . __ . . __ . .
 72
    65
 73
     6
 40
21.0
 49
12.0
 74
     0
 49
-3.0
 74
     0
 49
0.0
 74
     0
 49
-3.0
 74
     0
 49
0.0
 74
     0
 49
-3.0
 74
     0
  0
LTYPE
  5
3F
330
5
100
AcDbSymbolTableRecord
100
AcDbLinetypeTableRecord
  2
ACAD_ISO13W100
 70
     0
  3
ISO double-dash double-dot __ __ . . __ __ . . 
 72
    65
 73
     8
 40
36.0
 49
12.0
 74
     0
 49
-3.0
 74
     0
 49
12.0
 74
     0
 49
-3.0
 74
     0
 49
0.0
 74
     0
 49
-3.0
 74
     0
 49
0.0
 74
     0
 49
-3.0
 74
     0
  0
LTYPE
  5
40
330
5
100
AcDbSymbolTableRecord
100
AcDbLinetypeTableRecord
  2
ACAD_ISO14W100
 70
     0
  3
ISO dash triple-dot __ . . . __ . . . __ . . . 
 72
    65
 73
     8
 40
24.0
 49
12.0
 74
     0
 49
-3.0
 74
     0
 49
0.0
 74
     0
 49
-3.0
 74
     0
 49
0.0
 74
     0
 49
-3.0
 74
     0
 49
0.0
 74
     0
 49
-3.0
 74
     0
  0
LTYPE
  5
41
330
5
100
AcDbSymbolTableRecord
100
AcDbLinetypeTableRecord
  2
ACAD_ISO15W100
 70
     0
  3
ISO double-dash triple-dot __ __ . . . __ __ . 
 72
    65
 73
    10
 40
39.0
 49
12.0
 74
     0
 49
-3.0
 74
     0
 49
12.0
 74
     0
 49
-3.0
 74
     0
 49
0.0
 74
     0
 49
-3.0
 74
     0
 49
0.0
 74
     0
 49
-3.0
 74
     0
 49
0.0
 74
     0
 49
-3.0
 74
     0
  0
LTYPE
  5
42
330
5
100
AcDbSymbolTableRecord
100
AcDbLinetypeTableRecord
  2
BATTING
 70
     0
  3
Batting SSSSSSSSSSSSSSSSSSSSSSSSSSSSSSSSSSSSSSS
 72
    65
 73
     4
 40
10.16254
 49
0.00254
 74
     0
 49
-2.54
 74
     4
 75
   134
340
33
 46
2.54
 50
0.0
 44
-2.54
 45
0.0
 49
-5.08
 74
     4
 75
   134
340
33
 46
2.54
 50
180.0
 44
2.54
 45
0.0
 49
-2.54
 74
     0
  0
LTYPE
  5
43
330
5
100
AcDbSymbolTableRecord
100
AcDbLinetypeTableRecord
  2
BORDER
 70
     0
  3
Border __ __ . __ __ . __ __ . __ __ . __ __ .
 72
    65
 73
     6
 40
44.45
 49
12.7
 74
     0
 49
-6.349999999999999
 74
     0
 49
12.7
 74
     0
 49
-6.349999999999999
 74
     0
 49
0.0
 74
     0
 49
-6.349999999999999
 74
     0
  0
LTYPE
  5
44
330
5
100
AcDbSymbolTableRecord
100
AcDbLinetypeTableRecord
  2
BORDER2
 70
     0
  3
Border (.5x) __.__.__.__.__.__.__.__.__.__.__.
 72
    65
 73
     6
 40
22.225
 49
6.349999999999999
 74
     0
 49
-3.174999999999999
 74
     0
 49
6.349999999999999
 74
     0
 49
-3.174999999999999
 74
     0
 49
0.0
 74
     0
 49
-3.174999999999999
 74
     0
  0
LTYPE
  5
45
330
5
100
AcDbSymbolTableRecord
100
AcDbLinetypeTableRecord
  2
BORDERX2
 70
     0
  3
Border (2x) ____  ____  .  ____  ____  .  ___
 72
    65
 73
     6
 40
88.9
 49
25.4
 74
     0
 49
-12.7
 74
     0
 49
25.4
 74
     0
 49
-12.7
 74
     0
 49
0.0
 74
     0
 49
-12.7
 74
     0
  0
LTYPE
  5
46
330
5
100
AcDbSymbolTableRecord
100
AcDbLinetypeTableRecord
  2
CENTER
 70
     0
  3
Center ____ _ ____ _ ____ _ ____ _ ____ _ ____
 72
    65
 73
     4
 40
50.8
 49
31.75
 74
     0
 49
-6.349999999999999
 74
     0
 49
6.349999999999999
 74
     0
 49
-6.349999999999999
 74
     0
  0
LTYPE
  5
47
330
5
100
AcDbSymbolTableRecord
100
AcDbLinetypeTableRecord
  2
CENTER2
 70
     0
  3
Center (.5x) ___ _ ___ _ ___ _ ___ _ ___ _ ___
 72
    65
 73
     4
 40
28.575
 49
19.05
 74
     0
 49
-3.174999999999999
 74
     0
 49
3.174999999999999
 74
     0
 49
-3.174999999999999
 74
     0
  0
LTYPE
  5
48
330
5
100
AcDbSymbolTableRecord
100
AcDbLinetypeTableRecord
  2
CENTERX2
 70
     0
  3
Center (2x) ________  __  ________  __  _____
 72
    65
 73
     4
 40
101.6
 49
63.5
 74
     0
 49
-12.7
 74
     0
 49
12.7
 74
     0
 49
-12.7
 74
     0
  0
LTYPE
  5
49
330
5
100
AcDbSymbolTableRecord
100
AcDbLinetypeTableRecord
  2
DASHDOT
 70
     0
  3
Dash dot __ . __ . __ . __ . __ . __ . __ . __
 72
    65
 73
     4
 40
25.4
 49
12.7
 74
     0
 49
-6.349999999999999
 74
     0
 49
0.0
 74
     0
 49
-6.349999999999999
 74
     0
  0
LTYPE
  5
4A
330
5
100
AcDbSymbolTableRecord
100
AcDbLinetypeTableRecord
  2
DASHDOT2
 70
     0
  3
Dash dot (.5x) _._._._._._._._._._._._._._._.
 72
    65
 73
     4
 40
12.7
 49
6.349999999999999
 74
     0
 49
-3.174999999999999
 74
     0
 49
0.0
 74
     0
 49
-3.174999999999999
 74
     0
  0
LTYPE
  5
4B
330
5
100
AcDbSymbolTableRecord
100
AcDbLinetypeTableRecord
  2
DASHDOTX2
 70
     0
  3
Dash dot (2x) ____  .  ____  .  ____  .  ___
 72
    65
 73
     4
 40
50.8
 49
25.4
 74
     0
 49
-12.7
 74
     0
 49
0.0
 74
     0
 49
-12.7
 74
     0
  0
LTYPE
  5
4C
330
5
100
AcDbSymbolTableRecord
100
AcDbLinetypeTableRecord
  2
DASHED
 70
     0
  3
Dashed __ __ __ __ __ __ __ __ __ __ __ __ __ _
 72
    65
 73
     2
 40
19.05
 49
12.7
 74
     0
 49
-6.349999999999999
 74
     0
  0
LTYPE
  5
4D
330
5
100
AcDbSymbolTableRecord
100
AcDbLinetypeTableRecord
  2
DASHED2
 70
     0
  3
Dashed (.5x) _ _ _ _ _ _ _ _ _ _ _ _ _ _ _ _ _
 72
    65
 73
     2
 40
9.524999999999998
 49
6.349999999999999
 74
     0
 49
-3.174999999999999
 74
     0
  0
LTYPE
  5
4E
330
5
100
AcDbSymbolTableRecord
100
AcDbLinetypeTableRecord
  2
DASHEDX2
 70
     0
  3
Dashed (2x) ____  ____  ____  ____  ____  ___
 72
    65
 73
     2
 40
38.1
 49
25.4
 74
     0
 49
-12.7
 74
     0
  0
LTYPE
  5
4F
330
5
100
AcDbSymbolTableRecord
100
AcDbLinetypeTableRecord
  2
DIVIDE
 70
     0
  3
Divide ____ . . ____ . . ____ . . ____ . . ____
 72
    65
 73
     6
 40
31.75
 49
12.7
 74
     0
 49
-6.349999999999999
 74
     0
 49
0.0
 74
     0
 49
-6.349999999999999
 74
     0
 49
0.0
 74
     0
 49
-6.349999999999999
 74
     0
  0
LTYPE
  5
50
330
5
100
AcDbSymbolTableRecord
100
AcDbLinetypeTableRecord
  2
DIVIDE2
 70
     0
  3
Divide (.5x) __..__..__..__..__..__..__..__.._
 72
    65
 73
     6
 40
15.875
 49
6.349999999999999
 74
     0
 49
-3.174999999999999
 74
     0
 49
0.0
 74
     0
 49
-3.174999999999999
 74
     0
 49
0.0
 74
     0
 49
-3.174999999999999
 74
     0
  0
LTYPE
  5
51
330
5
100
AcDbSymbolTableRecord
100
AcDbLinetypeTableRecord
  2
DIVIDEX2
 70
     0
  3
Divide (2x) ________  .  .  ________  .  .  _
 72
    65
 73
     6
 40
63.49999999999999
 49
25.4
 74
     0
 49
-12.7
 74
     0
 49
0.0
 74
     0
 49
-12.7
 74
     0
 49
0.0
 74
     0
 49
-12.7
 74
     0
  0
LTYPE
  5
52
330
5
100
AcDbSymbolTableRecord
100
AcDbLinetypeTableRecord
  2
DOT
 70
     0
  3
Dot . . . . . . . . . . . . . . . . . . . . . .
 72
    65
 73
     2
 40
6.349999999999999
 49
0.0
 74
     0
 49
-6.349999999999999
 74
     0
  0
LTYPE
  5
53
330
5
100
AcDbSymbolTableRecord
100
AcDbLinetypeTableRecord
  2
DOT2
 70
     0
  3
Dot (.5x) .....................................
 72
    65
 73
     2
 40
3.174999999999999
 49
0.0
 74
     0
 49
-3.174999999999999
 74
     0
  0
LTYPE
  5
54
330
5
100
AcDbSymbolTableRecord
100
AcDbLinetypeTableRecord
  2
DOTX2
 70
     0
  3
Dot (2x) .  .  .  .  .  .  .  .  .  .  .  .  . 
 72
    65
 73
     2
 40
12.7
 49
0.0
 74
     0
 49
-12.7
 74
     0
  0
LTYPE
  5
55
330
5
100
AcDbSymbolTableRecord
100
AcDbLinetypeTableRecord
  2
FENCELINE1
 70
     0
  3
Fenceline circle ----0-----0----0-----0----0---
 72
    65
 73
     4
 40
36.83
 49
6.349999999999999
 74
     0
 49
-2.54
 74
     4
 75
   133
340
33
 46
2.54
 50
0.0
 44
-2.54
 45
0.0
 49
-2.54
 74
     0
 49
25.4
 74
     0
  0
LTYPE
  5
56
330
5
100
AcDbSymbolTableRecord
100
AcDbLinetypeTableRecord
  2
FENCELINE2
 70
     0
  3
Fenceline square ----[]-----[]----[]-----[]----
 72
    65
 73
     4
 40
36.83
 49
6.349999999999999
 74
     0
 49
-2.54
 74
     4
 75
   132
340
33
 46
2.54
 50
0.0
 44
-2.54
 45
0.0
 49
-2.54
 74
     0
 49
25.4
 74
     0
  0
LTYPE
  5
57
330
5
100
AcDbSymbolTableRecord
100
AcDbLinetypeTableRecord
  2
GAS_LINE
 70
     0
  3
Gas line ----GAS----GAS----GAS----GAS----GAS---
 72
    65
 73
     3
 40
24.13
 49
12.7
 74
     0
 49
-5.08
 74
     2
 75
     0
340
11
 46
2.54
 50
0.0
 44
-2.54
 45
-1.27
  9
GAS
 49
-6.349999999999999
 74
     0
  0
LTYPE
  5
58
330
5
100
AcDbSymbolTableRecord
100
AcDbLinetypeTableRecord
  2
HIDDEN
 70
     0
  3
Hidden __ __ __ __ __ __ __ __ __ __ __ __ __ _
 72
    65
 73
     2
 40
9.524999999999998
 49
6.349999999999999
 74
     0
 49
-3.174999999999999
 74
     0
  0
LTYPE
  5
59
330
5
100
AcDbSymbolTableRecord
100
AcDbLinetypeTableRecord
  2
HIDDEN2
 70
     0
  3
Hidden (.5x) _ _ _ _ _ _ _ _ _ _ _ _ _ _ _ _ _
 72
    65
 73
     2
 40
4.762499999999999
 49
3.174999999999999
 74
     0
 49
-1.587499999999999
 74
     0
  0
LTYPE
  5
5A
330
5
100
AcDbSymbolTableRecord
100
AcDbLinetypeTableRecord
  2
HIDDENX2
 70
     0
  3
Hidden (2x) ____ ____ ____ ____ ____ ____ ____
 72
    65
 73
     2
 40
19.05
 49
12.7
 74
     0
 49
-6.349999999999999
 74
     0
  0
LTYPE
  5
5B
330
5
100
AcDbSymbolTableRecord
100
AcDbLinetypeTableRecord
  2
HOT_WATER_SUPPLY
 70
     0
  3
Hot water supply ---- HW ---- HW ---- HW ----
 72
    65
 73
     3
 40
22.86
 49
12.7
 74
     0
 49
-5.08
 74
     2
 75
     0
340
11
 46
2.54
 50
0.0
 44
-2.54
 45
-1.27
  9
HW
 49
-5.08
 74
     0
  0
LTYPE
  5
5C
330
5
100
AcDbSymbolTableRecord
100
AcDbLinetypeTableRecord
  2
PHANTOM
 70
     0
  3
Phantom ______  __  __  ______  __  __  ______
 72
    65
 73
     6
 40
63.5
 49
31.75
 74
     0
 49
-6.349999999999999
 74
     0
 49
6.349999999999999
 74
     0
 49
-6.349999999999999
 74
     0
 49
6.349999999999999
 74
     0
 49
-6.349999999999999
 74
     0
  0
LTYPE
  5
5D
330
5
100
AcDbSymbolTableRecord
100
AcDbLinetypeTableRecord
  2
PHANTOM2
 70
     0
  3
Phantom (.5x) ___ _ _ ___ _ _ ___ _ _ ___ _ _
 72
    65
 73
     6
 40
31.75
 49
15.875
 74
     0
 49
-3.174999999999999
 74
     0
 49
3.174999999999999
 74
     0
 49
-3.174999999999999
 74
     0
 49
3.174999999999999
 74
     0
 49
-3.174999999999999
 74
     0
  0
LTYPE
  5
5E
330
5
100
AcDbSymbolTableRecord
100
AcDbLinetypeTableRecord
  2
PHANTOMX2
 70
     0
  3
Phantom (2x) ____________    ____    ____   _
 72
    65
 73
     6
 40
127.0
 49
63.5
 74
     0
 49
-12.7
 74
     0
 49
12.7
 74
     0
 49
-12.7
 74
     0
 49
12.7
 74
     0
 49
-12.7
 74
     0
  0
LTYPE
  5
5F
330
5
100
AcDbSymbolTableRecord
100
AcDbLinetypeTableRecord
  2
TRACKS
 70
     0
  3
Tracks -|-|-|-|-|-|-|-|-|-|-|-|-|-|-|-|-|-|-|-|
 72
    65
 73
     2
 40
7.62
 49
3.81
 74
     4
 75
   130
340
33
 46
6.349999999999999
 50
0.0
 44
0.0
 45
0.0
 49
3.81
 74
     0
  0
LTYPE
  5
60
330
5
100
AcDbSymbolTableRecord
100
AcDbLinetypeTableRecord
  2
ZIGZAG
 70
     0
  3
Zig zag /\/\/\/\/\/\/\/\/\/\/\/\/\/\/\/\/\/\/\/
 72
    65
 73
     4
 40
20.32254
 49
0.00254
 74
     0
 49
-5.08
 74
     4
 75
   131
340
33
 46
5.08
 50
0.0
 44
-5.08
 45
0.0
 49
-10.16
 74
     4
 75
   131
340
33
 46
5.08
 50
180.0
 44
5.08
 45
0.0
 49
-5.08
 74
     0
  0
ENDTAB
  0
TABLE
  2
LAYER
  5
2
102
{ACAD_XDICTIONARY
360
24C4
102
}
330
0
100
AcDbSymbolTable
 70
     9
  0
LAYER
  5
10
330
2
100
AcDbSymbolTableRecord
100
AcDbLayerTableRecord
  2
0
 70
     0
 62
     7
  6
Continuous
290
     0
370
    -3
390
F
  0
LAYER
  5
C3
330
2
100
AcDbSymbolTableRecord
100
AcDbLayerTableRecord
  2
Defpoints
 70
     0
 62
     7
  6
Continuous
290
     0
370
    -3
390
F
  0
LAYER
  5
256
330
2
100
AcDbSymbolTableRecord
100
AcDbLayerTableRecord
  2
センター
 70
     0
 62
     7
  6
CENTER2
370
    18
390
F
  0
LAYER
  5
268
330
2
100
AcDbSymbolTableRecord
100
AcDbLayerTableRecord
  2
実形
 70
     0
 62
     7
  6
Continuous
370
    -3
390
F
  0
LAYER
  5
269
330
2
100
AcDbSymbolTableRecord
100
AcDbLayerTableRecord
  2
補助
 70
     0
 62
     4
  6
Continuous
370
    -3
390
F
  0
LAYER
  5
26A
330
2
100
AcDbSymbolTableRecord
100
AcDbLayerTableRecord
  2
寸法
 70
     0
 62
     7
  6
Continuous
370
    18
390
F
  0
LAYER
  5
26B
330
2
100
AcDbSymbolTableRecord
100
AcDbLayerTableRecord
  2
ハッチング
 70
     0
 62
     7
  6
Continuous
370
    18
390
F
  0
LAYER
  5
26D
330
2
100
AcDbSymbolTableRecord
100
AcDbLayerTableRecord
  2
枠
 70
     0
 62
     7
  6
Continuous
370
    -3
390
F
  0
LAYER
  5
1B3D
330
2
100
AcDbSymbolTableRecord
100
AcDbLayerTableRecord
  2
Cen
 70
     0
 62
     7
  6
CENTER2
290
     0
370
    15
390
F
  0
ENDTAB
  0
TABLE
  2
STYLE
  5
3
330
0
100
AcDbSymbolTable
 70
     4
  0
STYLE
  5
11
330
3
100
AcDbSymbolTableRecord
100
AcDbTextStyleTableRecord
  2
Standard
 70
     0
 40
0.0
 41
1.0
 50
0.0
 71
     0
 42
30.0
  3
txt.shx
  4
bigfont.shx
  0
STYLE
  5
33
330
3
100
AcDbSymbolTableRecord
100
AcDbTextStyleTableRecord
  2

 70
     1
 40
0.0
 41
1.0
 50
0.0
 71
     0
 42
2.5
  3
ltypeshp.shx
  4

  0
STYLE
  5
35E2
330
3
100
AcDbSymbolTableRecord
100
AcDbTextStyleTableRecord
  2
ms明朝
 70
     0
 40
0.0
 41
1.0
 50
0.0
 71
     0
 42
25.0
  3
MS Mincho.ttf
  4

1001
ACAD
1000
MS Mincho
1071
    32785
  0
STYLE
  5
AC50
330
3
100
AcDbSymbolTableRecord
100
AcDbTextStyleTableRecord
  2
明朝
 70
     0
 40
0.0
 41
1.0
 50
0.0
 71
     0
 42
25.0
  3
MS Mincho.ttf
  4

1001
ACAD
1000
MS Mincho
1071
    32785
  0
ENDTAB
  0
TABLE
  2
VIEW
  5
6
330
0
100
AcDbSymbolTable
 70
     0
  0
ENDTAB
  0
TABLE
  2
UCS
  5
7
330
0
100
AcDbSymbolTable
 70
     0
  0
ENDTAB
  0
TABLE
  2
APPID
  5
9
330
0
100
AcDbSymbolTable
 70
     3
  0
APPID
  5
12
330
9
100
AcDbSymbolTableRecord
100
AcDbRegAppTableRecord
  2
ACAD
 70
     0
  0
APPID
  5
24C3
330
9
100
AcDbSymbolTableRecord
100
AcDbRegAppTableRecord
  2
ACAD_PSEXT
 70
     0
  0
APPID
  5
8C42
330
9
100
AcDbSymbolTableRecord
100
AcDbRegAppTableRecord
  2
ACAD_DSTYLE_DIMTEXT_FILL
 70
     0
  0
ENDTAB
  0
TABLE
  2
DIMSTYLE
  5
A
330
0
100
AcDbSymbolTable
 70
     1
100
AcDbDimStyleTable
 71
     1
340
27
  0
DIMSTYLE
105
27
102
{ACAD_REACTORS
330
70F5
330
7102
330
7133
330
7140
330
7172
330
785C
330
786A
330
7877
330
79B0
330
79D8
330
7A0D
330
7A2E
330
7A4D
330
7B4E
330
7BA4
330
7BCC
330
8C23
330
8F2C
330
8FD3
330
8FE9
330
9F70
330
9F71
330
9F72
330
9F74
330
9F75
330
A0A7
330
A56F
330
A570
330
A57E
330
A586
330
A587
330
A588
330
A589
330
A58A
330
A58B
330
A58C
330
A58D
330
A58E
330
A58F
330
A590
330
A591
330
A592
330
A593
330
A596
330
A597
330
A83A
330
A83C
330
A83D
330
A83E
330
A83F
330
A843
330
A97D
330
A97E
330
A83B
330
A839
102
}
330
A
100
AcDbSymbolTableRecord
100
AcDbDimStyleTableRecord
  2
ISO-25
 70
     0
 41
35.0
 42
65.0
 43
3.75
 44
0.0
 73
     0
 74
     0
 77
     1
 78
     8
140
25.0
141
2.5
143
0.03937007874016
147
6.25
171
     3
172
     1
271
     2
272
     2
274
     3
283
     0
284
     8
340
11
341
DA
342
D0
371
    15
372
    15
  0
ENDTAB
  0
TABLE
  2
BLOCK_RECORD
  5
1
330
0
100
AcDbSymbolTable
 70
    98
  0
BLOCK_RECORD
  5
1F
102
{ACAD_XDICTIONARY
360
2396
102
}
330
1
100
AcDbSymbolTableRecord
100
AcDbBlockTableRecord
  2
*Model_Space
340
22
  0
BLOCK_RECORD
  5
1B
330
1
100
AcDbSymbolTableRecord
100
AcDbBlockTableRecord
  2
*Paper_Space
340
1E
  0
BLOCK_RECORD
  5
23
330
1
100
AcDbSymbolTableRecord
100
AcDbBlockTableRecord
  2
*Paper_Space0
340
26
  0
BLOCK_RECORD
  5
D0
330
1
100
AcDbSymbolTableRecord
100
AcDbBlockTableRecord
  2
_DotSmall
340
0
  0
BLOCK_RECORD
  5
D4
330
1
100
AcDbSymbolTableRecord
100
AcDbBlockTableRecord
  2
_Origin2
340
0
  0
BLOCK_RECORD
  5
DA
330
1
100
AcDbSymbolTableRecord
100
AcDbBlockTableRecord
  2
_Open30
340
0
  0
BLOCK_RECORD
  5
2D6
330
1
100
AcDbSymbolTableRecord
100
AcDbBlockTableRecord
  2
A$C6CAC4411
340
0
  0
BLOCK_RECORD
  5
30D
330
1
100
AcDbSymbolTableRecord
100
AcDbBlockTableRecord
  2
_Dot
340
0
102
{BLKREFS
331
7F4A
331
7F4B
331
7F57
331
7F58
331
7F63
331
7F64
331
7F6E
331
7F6F
331
7F7A
331
7F7B
331
7F86
331
7F87
331
7F92
331
7F93
331
7F0E
331
7F0F
331
7F1B
331
7F1C
331
7F26
331
7F27
331
7F33
331
7F34
331
7F3E
331
7F3F
331
7F9E
331
7F9F
331
7FAA
331
7FAB
331
7FB6
331
7FB7
331
7FC2
331
7FC3
331
7FCE
331
7FCF
331
7FDB
331
7FDC
331
7FE6
331
7FE7
331
7FF3
331
7FF4
331
7FFE
331
7FFF
331
800B
331
800C
331
8017
331
8018
331
8022
331
8023
331
802E
331
802F
331
803B
331
803C
331
8052
331
8053
331
805E
331
805F
331
8047
331
8048
331
9E4D
331
9E4E
331
9E84
331
9E85
331
9E95
331
9E96
331
9E9E
331
9E9F
331
9EA8
331
9EA9
331
9EB1
331
9EB2
331
9EB9
331
9EBA
331
9EC2
331
9EC3
331
9ECC
331
9ECD
331
9ED6
331
9ED7
331
A0C0
331
A0C1
331
A0CA
331
A0CB
331
A0D2
331
A0D3
331
A0DC
331
A0DD
331
A0E4
331
A0E5
331
A0F7
331
A0F8
331
A2B6
331
A2B7
331
A2BF
331
A2C0
331
A2C8
331
A2C9
331
A2D2
331
A2D3
331
A335
331
A336
331
A684
331
A685
331
A68D
331
A68E
331
A6A0
331
A6A1
331
A6A9
331
A6AA
331
A6B1
331
A6B2
331
A6DF
331
A6E0
331
A6E7
331
A6E8
331
A6F1
331
A6F2
331
A6FA
331
A6FB
331
A702
331
A703
331
A70C
331
A70D
331
A715
331
A716
331
A99B
331
A99C
331
A9A3
331
A9A4
331
A9EB
331
A9EC
331
A9F5
331
A9F6
331
A9FD
331
A9FE
331
AA06
331
AA07
331
AB1A
331
AB1B
331
AB23
331
AB24
331
AB2C
331
AB2D
331
AB34
331
AB35
331
AB3E
331
AB3F
331
AB4F
331
AB50
331
AB69
331
AB6A
331
AB73
331
AB74
331
AB7B
331
AB7C
331
AB85
331
AB86
331
AB97
331
AB98
331
AB9F
331
ABA0
331
ABE0
331
ABE1
331
ABE9
331
ABEA
331
AC06
331
AC07
331
AC0E
331
AC0F
102
}
  0
BLOCK_RECORD
  5
313C
102
{ACAD_XDICTIONARY
360
313E
102
}
330
1
100
AcDbSymbolTableRecord
100
AcDbBlockTableRecord
  2
A$C6850087C
340
0
  0
BLOCK_RECORD
  5
3846
102
{ACAD_XDICTIONARY
360
3848
102
}
330
1
100
AcDbSymbolTableRecord
100
AcDbBlockTableRecord
  2
A$C71387EE1
340
0
  0
BLOCK_RECORD
  5
6B87
102
{ACAD_XDICTIONARY
360
6B89
102
}
330
1
100
AcDbSymbolTableRecord
100
AcDbBlockTableRecord
  2
A$C47AF373A
340
0
  0
BLOCK_RECORD
  5
6C00
102
{ACAD_XDICTIONARY
360
6C02
102
}
330
1
100
AcDbSymbolTableRecord
100
AcDbBlockTableRecord
  2
A$C2B9560D8
340
0
  0
BLOCK_RECORD
  5
70F6
330
1
100
AcDbSymbolTableRecord
100
AcDbBlockTableRecord
  2
*D10
340
0
  0
BLOCK_RECORD
  5
7103
330
1
100
AcDbSymbolTableRecord
100
AcDbBlockTableRecord
  2
*D11
340
0
  0
BLOCK_RECORD
  5
7134
330
1
100
AcDbSymbolTableRecord
100
AcDbBlockTableRecord
  2
*D12
340
0
  0
BLOCK_RECORD
  5
7141
330
1
100
AcDbSymbolTableRecord
100
AcDbBlockTableRecord
  2
*D13
340
0
  0
BLOCK_RECORD
  5
7173
330
1
100
AcDbSymbolTableRecord
100
AcDbBlockTableRecord
  2
*D14
340
0
  0
BLOCK_RECORD
  5
7752
102
{ACAD_XDICTIONARY
360
7758
102
}
330
1
100
AcDbSymbolTableRecord
100
AcDbBlockTableRecord
  2
A$C113940D1
340
0
  0
BLOCK_RECORD
  5
785D
330
1
100
AcDbSymbolTableRecord
100
AcDbBlockTableRecord
  2
*D16
340
0
  0
BLOCK_RECORD
  5
786B
330
1
100
AcDbSymbolTableRecord
100
AcDbBlockTableRecord
  2
*D17
340
0
  0
BLOCK_RECORD
  5
7878
330
1
100
AcDbSymbolTableRecord
100
AcDbBlockTableRecord
  2
*D18
340
0
  0
BLOCK_RECORD
  5
79A0
102
{ACAD_XDICTIONARY
360
79A2
102
}
330
1
100
AcDbSymbolTableRecord
100
AcDbBlockTableRecord
  2
A$C34481AC4
340
0
  0
BLOCK_RECORD
  5
79B1
330
1
100
AcDbSymbolTableRecord
100
AcDbBlockTableRecord
  2
*D20
340
0
  0
BLOCK_RECORD
  5
79D9
330
1
100
AcDbSymbolTableRecord
100
AcDbBlockTableRecord
  2
*D21
340
0
  0
BLOCK_RECORD
  5
7A0E
330
1
100
AcDbSymbolTableRecord
100
AcDbBlockTableRecord
  2
*D22
340
0
  0
BLOCK_RECORD
  5
7A2F
330
1
100
AcDbSymbolTableRecord
100
AcDbBlockTableRecord
  2
*D23
340
0
  0
BLOCK_RECORD
  5
7A4E
330
1
100
AcDbSymbolTableRecord
100
AcDbBlockTableRecord
  2
*D24
340
0
  0
BLOCK_RECORD
  5
7B4F
330
1
100
AcDbSymbolTableRecord
100
AcDbBlockTableRecord
  2
*D25
340
0
  0
BLOCK_RECORD
  5
7BA5
330
1
100
AcDbSymbolTableRecord
100
AcDbBlockTableRecord
  2
*D26
340
0
  0
BLOCK_RECORD
  5
7BCD
330
1
100
AcDbSymbolTableRecord
100
AcDbBlockTableRecord
  2
*D27
340
0
  0
BLOCK_RECORD
  5
7F09
330
1
100
AcDbSymbolTableRecord
100
AcDbBlockTableRecord
  2
*D28
340
0
  0
BLOCK_RECORD
  5
7F15
330
1
100
AcDbSymbolTableRecord
100
AcDbBlockTableRecord
  2
*D29
340
0
  0
BLOCK_RECORD
  5
7F21
330
1
100
AcDbSymbolTableRecord
100
AcDbBlockTableRecord
  2
*D30
340
0
  0
BLOCK_RECORD
  5
7F2D
330
1
100
AcDbSymbolTableRecord
100
AcDbBlockTableRecord
  2
*D31
340
0
  0
BLOCK_RECORD
  5
7F39
330
1
100
AcDbSymbolTableRecord
100
AcDbBlockTableRecord
  2
*D32
340
0
  0
BLOCK_RECORD
  5
7F45
330
1
100
AcDbSymbolTableRecord
100
AcDbBlockTableRecord
  2
*D33
340
0
  0
BLOCK_RECORD
  5
7F51
330
1
100
AcDbSymbolTableRecord
100
AcDbBlockTableRecord
  2
*D34
340
0
  0
BLOCK_RECORD
  5
7F5D
330
1
100
AcDbSymbolTableRecord
100
AcDbBlockTableRecord
  2
*D35
340
0
  0
BLOCK_RECORD
  5
7F69
330
1
100
AcDbSymbolTableRecord
100
AcDbBlockTableRecord
  2
*D36
340
0
  0
BLOCK_RECORD
  5
7F75
330
1
100
AcDbSymbolTableRecord
100
AcDbBlockTableRecord
  2
*D37
340
0
  0
BLOCK_RECORD
  5
7F81
330
1
100
AcDbSymbolTableRecord
100
AcDbBlockTableRecord
  2
*D38
340
0
  0
BLOCK_RECORD
  5
7F8D
330
1
100
AcDbSymbolTableRecord
100
AcDbBlockTableRecord
  2
*D39
340
0
  0
BLOCK_RECORD
  5
7F99
330
1
100
AcDbSymbolTableRecord
100
AcDbBlockTableRecord
  2
*D40
340
0
  0
BLOCK_RECORD
  5
7FA5
330
1
100
AcDbSymbolTableRecord
100
AcDbBlockTableRecord
  2
*D41
340
0
  0
BLOCK_RECORD
  5
7FB1
330
1
100
AcDbSymbolTableRecord
100
AcDbBlockTableRecord
  2
*D42
340
0
  0
BLOCK_RECORD
  5
7FBD
330
1
100
AcDbSymbolTableRecord
100
AcDbBlockTableRecord
  2
*D43
340
0
  0
BLOCK_RECORD
  5
7FC9
330
1
100
AcDbSymbolTableRecord
100
AcDbBlockTableRecord
  2
*D44
340
0
  0
BLOCK_RECORD
  5
7FD5
330
1
100
AcDbSymbolTableRecord
100
AcDbBlockTableRecord
  2
*D45
340
0
  0
BLOCK_RECORD
  5
7FE1
330
1
100
AcDbSymbolTableRecord
100
AcDbBlockTableRecord
  2
*D46
340
0
  0
BLOCK_RECORD
  5
7FED
330
1
100
AcDbSymbolTableRecord
100
AcDbBlockTableRecord
  2
*D47
340
0
  0
BLOCK_RECORD
  5
7FF9
330
1
100
AcDbSymbolTableRecord
100
AcDbBlockTableRecord
  2
*D48
340
0
  0
BLOCK_RECORD
  5
8005
330
1
100
AcDbSymbolTableRecord
100
AcDbBlockTableRecord
  2
*D49
340
0
  0
BLOCK_RECORD
  5
8011
330
1
100
AcDbSymbolTableRecord
100
AcDbBlockTableRecord
  2
*D50
340
0
  0
BLOCK_RECORD
  5
801D
330
1
100
AcDbSymbolTableRecord
100
AcDbBlockTableRecord
  2
*D51
340
0
  0
BLOCK_RECORD
  5
8029
330
1
100
AcDbSymbolTableRecord
100
AcDbBlockTableRecord
  2
*D52
340
0
  0
BLOCK_RECORD
  5
8035
330
1
100
AcDbSymbolTableRecord
100
AcDbBlockTableRecord
  2
*D53
340
0
  0
BLOCK_RECORD
  5
8041
330
1
100
AcDbSymbolTableRecord
100
AcDbBlockTableRecord
  2
*D54
340
0
  0
BLOCK_RECORD
  5
804D
330
1
100
AcDbSymbolTableRecord
100
AcDbBlockTableRecord
  2
*D55
340
0
  0
BLOCK_RECORD
  5
8059
330
1
100
AcDbSymbolTableRecord
100
AcDbBlockTableRecord
  2
*D56
340
0
  0
BLOCK_RECORD
  5
8065
102
{ACAD_XDICTIONARY
360
80F8
102
}
330
1
100
AcDbSymbolTableRecord
100
AcDbBlockTableRecord
  2
RAS800-510GRM
340
0
  0
BLOCK_RECORD
  5
8C24
330
1
100
AcDbSymbolTableRecord
100
AcDbBlockTableRecord
  2
*D58
340
0
  0
BLOCK_RECORD
  5
8F2D
330
1
100
AcDbSymbolTableRecord
100
AcDbBlockTableRecord
  2
*D59
340
0
  0
BLOCK_RECORD
  5
8FD4
330
1
100
AcDbSymbolTableRecord
100
AcDbBlockTableRecord
  2
*D60
340
0
  0
BLOCK_RECORD
  5
8FEA
330
1
100
AcDbSymbolTableRecord
100
AcDbBlockTableRecord
  2
*D61
340
0
  0
BLOCK_RECORD
  5
9C3F
102
{ACAD_XDICTIONARY
360
9C43
102
}
330
1
100
AcDbSymbolTableRecord
100
AcDbBlockTableRecord
  2
A$C6212596F
340
0
  0
BLOCK_RECORD
  5
9F78
330
1
100
AcDbSymbolTableRecord
100
AcDbBlockTableRecord
  2
*D63
340
0
  0
BLOCK_RECORD
  5
9F84
330
1
100
AcDbSymbolTableRecord
100
AcDbBlockTableRecord
  2
*D64
340
0
  0
BLOCK_RECORD
  5
9F90
330
1
100
AcDbSymbolTableRecord
100
AcDbBlockTableRecord
  2
*D65
340
0
  0
BLOCK_RECORD
  5
9F9C
330
1
100
AcDbSymbolTableRecord
100
AcDbBlockTableRecord
  2
*D66
340
0
  0
BLOCK_RECORD
  5
9FA8
330
1
100
AcDbSymbolTableRecord
100
AcDbBlockTableRecord
  2
*D67
340
0
  0
BLOCK_RECORD
  5
A0A8
330
1
100
AcDbSymbolTableRecord
100
AcDbBlockTableRecord
  2
*D68
340
0
  0
BLOCK_RECORD
  5
A59D
330
1
100
AcDbSymbolTableRecord
100
AcDbBlockTableRecord
  2
*D69
340
0
  0
BLOCK_RECORD
  5
A5A9
330
1
100
AcDbSymbolTableRecord
100
AcDbBlockTableRecord
  2
*D70
340
0
  0
BLOCK_RECORD
  5
A5B5
330
1
100
AcDbSymbolTableRecord
100
AcDbBlockTableRecord
  2
*D71
340
0
  0
BLOCK_RECORD
  5
A5C1
330
1
100
AcDbSymbolTableRecord
100
AcDbBlockTableRecord
  2
*D72
340
0
  0
BLOCK_RECORD
  5
A5CD
330
1
100
AcDbSymbolTableRecord
100
AcDbBlockTableRecord
  2
*D73
340
0
  0
BLOCK_RECORD
  5
A5D9
330
1
100
AcDbSymbolTableRecord
100
AcDbBlockTableRecord
  2
*D74
340
0
  0
BLOCK_RECORD
  5
A5E5
330
1
100
AcDbSymbolTableRecord
100
AcDbBlockTableRecord
  2
*D75
340
0
  0
BLOCK_RECORD
  5
A5F1
330
1
100
AcDbSymbolTableRecord
100
AcDbBlockTableRecord
  2
*D76
340
0
  0
BLOCK_RECORD
  5
A5FD
330
1
100
AcDbSymbolTableRecord
100
AcDbBlockTableRecord
  2
*D77
340
0
  0
BLOCK_RECORD
  5
A609
330
1
100
AcDbSymbolTableRecord
100
AcDbBlockTableRecord
  2
*D78
340
0
  0
BLOCK_RECORD
  5
A615
330
1
100
AcDbSymbolTableRecord
100
AcDbBlockTableRecord
  2
*D79
340
0
  0
BLOCK_RECORD
  5
A621
330
1
100
AcDbSymbolTableRecord
100
AcDbBlockTableRecord
  2
*D80
340
0
  0
BLOCK_RECORD
  5
A62D
330
1
100
AcDbSymbolTableRecord
100
AcDbBlockTableRecord
  2
*D81
340
0
  0
BLOCK_RECORD
  5
A639
330
1
100
AcDbSymbolTableRecord
100
AcDbBlockTableRecord
  2
*D82
340
0
  0
BLOCK_RECORD
  5
A645
330
1
100
AcDbSymbolTableRecord
100
AcDbBlockTableRecord
  2
*D83
340
0
  0
BLOCK_RECORD
  5
A651
330
1
100
AcDbSymbolTableRecord
100
AcDbBlockTableRecord
  2
*D84
340
0
  0
BLOCK_RECORD
  5
A65D
330
1
100
AcDbSymbolTableRecord
100
AcDbBlockTableRecord
  2
*D85
340
0
  0
BLOCK_RECORD
  5
A669
330
1
100
AcDbSymbolTableRecord
100
AcDbBlockTableRecord
  2
*D86
340
0
  0
BLOCK_RECORD
  5
A675
330
1
100
AcDbSymbolTableRecord
100
AcDbBlockTableRecord
  2
*D87
340
0
  0
BLOCK_RECORD
  5
A87F
330
1
100
AcDbSymbolTableRecord
100
AcDbBlockTableRecord
  2
*D88
340
0
  0
BLOCK_RECORD
  5
A88B
330
1
100
AcDbSymbolTableRecord
100
AcDbBlockTableRecord
  2
*D89
340
0
  0
BLOCK_RECORD
  5
A897
330
1
100
AcDbSymbolTableRecord
100
AcDbBlockTableRecord
  2
*D90
340
0
  0
BLOCK_RECORD
  5
A8A3
330
1
100
AcDbSymbolTableRecord
100
AcDbBlockTableRecord
  2
*D91
340
0
  0
BLOCK_RECORD
  5
A8AF
330
1
100
AcDbSymbolTableRecord
100
AcDbBlockTableRecord
  2
*D92
340
0
  0
BLOCK_RECORD
  5
A8BB
330
1
100
AcDbSymbolTableRecord
100
AcDbBlockTableRecord
  2
*D93
340
0
  0
BLOCK_RECORD
  5
A8C7
330
1
100
AcDbSymbolTableRecord
100
AcDbBlockTableRecord
  2
*D94
340
0
  0
BLOCK_RECORD
  5
A8D3
330
1
100
AcDbSymbolTableRecord
100
AcDbBlockTableRecord
  2
*D95
340
0
  0
BLOCK_RECORD
  5
A97F
330
1
100
AcDbSymbolTableRecord
100
AcDbBlockTableRecord
  2
*D96
340
0
  0
BLOCK_RECORD
  5
A98B
330
1
100
AcDbSymbolTableRecord
100
AcDbBlockTableRecord
  2
*D97
340
0
  0
ENDTAB
  0
ENDSEC
  0
SECTION
  2
BLOCKS
  0
BLOCK
  5
20
330
1F
100
AcDbEntity
  8
0
100
AcDbBlockBegin
  2
*Model_Space
 70
     0
 10
0.0
 20
0.0
 30
0.0
  3
*Model_Space
  1

  0
ENDBLK
  5
21
330
1F
100
AcDbEntity
  8
0
100
AcDbBlockEnd
  0
BLOCK
  5
1C
330
1B
100
AcDbEntity
 67
     1
  8
0
100
AcDbBlockBegin
  2
*Paper_Space
 70
     0
 10
0.0
 20
0.0
 30
0.0
  3
*Paper_Space
  1

  0
ENDBLK
  5
1D
330
1B
100
AcDbEntity
 67
     1
  8
0
100
AcDbBlockEnd
  0
BLOCK
  5
24
330
23
100
AcDbEntity
  8
0
100
AcDbBlockBegin
  2
*Paper_Space0
 70
     0
 10
0.0
 20
0.0
 30
0.0
  3
*Paper_Space0
  1

  0
ENDBLK
  5
25
330
23
100
AcDbEntity
  8
0
100
AcDbBlockEnd
  0
BLOCK
  5
D2
330
D0
100
AcDbEntity
  8
0
100
AcDbBlockBegin
  2
_DotSmall
 70
     0
 10
0.0
 20
0.0
 30
0.0
  3
_DotSmall
  1

  0
LWPOLYLINE
  5
D1
330
D0
100
AcDbEntity
  8
0
 62
     0
100
AcDbPolyline
 90
        2
 70
     1
 43
0.5
 10
-0.0625
 20
0.0
 42
1.0
 10
0.0625
 20
0.0
 42
1.0
  0
ENDBLK
  5
D3
330
D0
100
AcDbEntity
  8
0
100
AcDbBlockEnd
  0
BLOCK
  5
D8
330
D4
100
AcDbEntity
  8
0
100
AcDbBlockBegin
  2
_Origin2
 70
     0
 10
0.0
 20
0.0
 30
0.0
  3
_Origin2
  1

  0
CIRCLE
  5
D5
330
D4
100
AcDbEntity
  8
0
 62
     0
370
    -2
100
AcDbCircle
 10
0.0
 20
0.0
 30
0.0
 40
0.5
  0
CIRCLE
  5
D6
330
D4
100
AcDbEntity
  8
0
 62
     0
370
    -2
100
AcDbCircle
 10
0.0
 20
0.0
 30
0.0
 40
0.25
  0
LINE
  5
D7
330
D4
100
AcDbEntity
  8
0
 62
     0
370
    -2
100
AcDbLine
 10
-0.5
 20
0.0
 30
0.0
 11
-1.0
 21
0.0
 31
0.0
  0
ENDBLK
  5
D9
330
D4
100
AcDbEntity
  8
0
100
AcDbBlockEnd
  0
BLOCK
  5
DE
330
DA
100
AcDbEntity
  8
0
100
AcDbBlockBegin
  2
_Open30
 70
     0
 10
0.0
 20
0.0
 30
0.0
  3
_Open30
  1

  0
LINE
  5
DB
330
DA
100
AcDbEntity
  8
0
 62
     0
370
    -2
100
AcDbLine
 10
-1.0
 20
0.26794919
 30
0.0
 11
0.0
 21
0.0
 31
0.0
  0
LINE
  5
DC
330
DA
100
AcDbEntity
  8
0
 62
     0
370
    -2
100
AcDbLine
 10
0.0
 20
0.0
 30
0.0
 11
-1.0
 21
-0.26794919
 31
0.0
  0
LINE
  5
DD
330
DA
100
AcDbEntity
  8
0
 62
     0
370
    -2
100
AcDbLine
 10
0.0
 20
0.0
 30
0.0
 11
-1.0
 21
0.0
 31
0.0
  0
ENDBLK
  5
DF
330
DA
100
AcDbEntity
  8
0
100
AcDbBlockEnd
  0
BLOCK
  5
2E7
330
2D6
100
AcDbEntity
  8
0
100
AcDbBlockBegin
  2
A$C6CAC4411
 70
     0
 10
0.0
 20
0.0
 30
0.0
  3
A$C6CAC4411
  1

  0
TEXT
  5
2D7
330
2D6
100
AcDbEntity
  8
0
100
AcDbText
 10
176.2557717918098
 20
0.0000022116982912
 30
0.0
 40
40.0
  1
中外交易株式会社
 72
     4
 11
364.2557717918098
 21
20.0000022116983
 31
0.0
100
AcDbText
  0
LINE
  5
2D8
330
2D6
100
AcDbEntity
  8
0
100
AcDbLine
 10
-0.0000028735375963
 20
52.5000022116983
 30
0.0
 11
599.9999971264624
 21
52.5000022116983
 31
0.0
  0
HATCH
  5
2D9
330
2D6
100
AcDbEntity
  8
実形
100
AcDbHatch
 10
0.0
 20
0.0
 30
0.0
210
0.0
220
0.0
230
1.0
  2
SOLID
 70
     1
 71
     1
 91
        3
 92
        1
 93
        4
 72
     2
 10
133.1661954404576
 20
20.0000022116983
 40
20.0
 50
11.64772366707622
 51
342.6561058784662
 73
     1
 72
     1
 10
152.2568494677857
 20
14.03787769028346
 11
128.1661954404576
 21
14.03787769028349
 72
     1
 10
128.1661954404576
 20
14.03787769028349
 11
128.1661954404576
 21
24.0378776902835
 72
     1
 10
128.1661954404576
 20
24.0378776902835
 11
152.7543439394721
 21
24.0378776902835
 97
        4
330
2DF
330
2DC
330
2E0
330
2DD
 92
        1
 93
        4
 72
     2
 10
64.25577179180982
 20
20.0000022116983
 40
20.0
 50
11.64772366707622
 51
342.6561058784662
 73
     1
 72
     1
 10
83.34642581913795
 20
14.03787769028346
 11
59.25577179180982
 21
14.03787769028349
 72
     1
 10
59.25577179180982
 20
14.03787769028349
 11
59.25577179180982
 21
24.0378776902835
 72
     1
 10
59.25577179180982
 20
24.0378776902835
 11
83.84392029082437
 21
24.0378776902835
 97
        4
330
2DE
330
2DB
330
2E1
330
2DA
 92
        1
 93
        5
 72
     1
 10
121.6418911694018
 20
40.0000022116983
 11
86.64189116940178
 21
40.0000022116983
 72
     1
 10
86.64189116940178
 20
40.0000022116983
 11
86.64189116940178
 21
0.0000022116983018
 72
     1
 10
86.64189116940178
 20
0.0000022116983018
 11
121.6418911694018
 21
0.0000022116983018
 72
     1
 10
121.6418911694018
 20
0.0000022116983018
 11
86.64189116940178
 21
20.0000022116983
 72
     1
 10
86.64189116940178
 20
20.0000022116983
 11
121.6418911694018
 21
40.0000022116983
 97
        5
330
2E2
330
2E3
330
2E5
330
2E6
330
2E4
 75
     0
 76
     1
 98
        1
 10
-2184.000002873538
 20
-16.4999977883017
  0
LINE
  5
2DA
102
{ACAD_REACTORS
330
2D9
102
}
330
2D6
100
AcDbEntity
  8
実形
370
     5
100
AcDbLine
 10
83.84392029082437
 20
24.0378776902835
 30
0.0
 11
59.25577179180982
 21
24.0378776902835
 31
0.0
  0
LINE
  5
2DB
102
{ACAD_REACTORS
330
2D9
102
}
330
2D6
100
AcDbEntity
  8
実形
370
     5
100
AcDbLine
 10
59.25577179180982
 20
14.03787769028349
 30
0.0
 11
83.34642581913795
 21
14.03787769028346
 31
0.0
  0
LINE
  5
2DC
102
{ACAD_REACTORS
330
2D9
102
}
330
2D6
100
AcDbEntity
  8
実形
370
     5
100
AcDbLine
 10
128.1661954404576
 20
14.03787769028349
 30
0.0
 11
152.2568494677857
 21
14.03787769028346
 31
0.0
  0
LINE
  5
2DD
102
{ACAD_REACTORS
330
2D9
102
}
330
2D6
100
AcDbEntity
  8
実形
370
     5
100
AcDbLine
 10
152.7543439394721
 20
24.0378776902835
 30
0.0
 11
128.1661954404576
 21
24.0378776902835
 31
0.0
  0
ARC
  5
2DE
102
{ACAD_REACTORS
330
2D9
102
}
330
2D6
100
AcDbEntity
  8
実形
370
     5
100
AcDbCircle
 10
64.25577179180982
 20
20.0000022116983
 30
0.0
 40
20.0
100
AcDbArc
 50
11.6477236670758
 51
342.6561058784691
  0
ARC
  5
2DF
102
{ACAD_REACTORS
330
2D9
102
}
330
2D6
100
AcDbEntity
  8
実形
370
     5
100
AcDbCircle
 10
133.1661954404576
 20
20.0000022116983
 30
0.0
 40
20.0
100
AcDbArc
 50
11.6477236670758
 51
342.6561058784691
  0
LINE
  5
2E0
102
{ACAD_REACTORS
330
2D9
102
}
330
2D6
100
AcDbEntity
  8
実形
370
     5
100
AcDbLine
 10
128.1661954404576
 20
24.0378776902835
 30
0.0
 11
128.1661954404576
 21
14.03787769028349
 31
0.0
  0
LINE
  5
2E1
102
{ACAD_REACTORS
330
2D9
102
}
330
2D6
100
AcDbEntity
  8
実形
370
     5
100
AcDbLine
 10
59.25577179180982
 20
24.0378776902835
 30
0.0
 11
59.25577179180982
 21
14.03787769028349
 31
0.0
  0
LINE
  5
2E2
102
{ACAD_REACTORS
330
2D9
102
}
330
2D6
100
AcDbEntity
  8
実形
370
     5
100
AcDbLine
 10
121.6418911694018
 20
40.0000022116983
 30
0.0
 11
86.64189116940178
 21
40.0000022116983
 31
0.0
  0
LINE
  5
2E3
102
{ACAD_REACTORS
330
2D9
102
}
330
2D6
100
AcDbEntity
  8
実形
370
     5
100
AcDbLine
 10
86.64189116940178
 20
40.0000022116983
 30
0.0
 11
86.64189116940178
 21
0.0000022116983018
 31
0.0
  0
LINE
  5
2E4
102
{ACAD_REACTORS
330
2D9
102
}
330
2D6
100
AcDbEntity
  8
実形
370
     5
100
AcDbLine
 10
86.64189116940178
 20
20.0000022116983
 30
0.0
 11
121.6418911694018
 21
40.0000022116983
 31
0.0
  0
LINE
  5
2E5
102
{ACAD_REACTORS
330
2D9
102
}
330
2D6
100
AcDbEntity
  8
実形
370
     5
100
AcDbLine
 10
86.64189116940178
 20
0.0000022116983018
 30
0.0
 11
121.6418911694018
 21
0.0000022116983018
 31
0.0
  0
LINE
  5
2E6
102
{ACAD_REACTORS
330
2D9
102
}
330
2D6
100
AcDbEntity
  8
実形
370
     5
100
AcDbLine
 10
121.6418911694018
 20
0.0000022116983018
 30
0.0
 11
86.64189116940178
 21
20.0000022116983
 31
0.0
  0
ENDBLK
  5
2E8
330
2D6
100
AcDbEntity
  8
0
100
AcDbBlockEnd
  0
BLOCK
  5
310
330
30D
100
AcDbEntity
  8
0
100
AcDbBlockBegin
  2
_Dot
 70
     0
 10
0.0
 20
0.0
 30
0.0
  3
_Dot
  1

  0
LWPOLYLINE
  5
30E
330
30D
100
AcDbEntity
  8
0
 62
     0
100
AcDbPolyline
 90
        2
 70
     1
 43
0.5
 10
-0.25
 20
0.0
 42
1.0
 10
0.25
 20
0.0
 42
1.0
  0
LINE
  5
30F
330
30D
100
AcDbEntity
  8
0
 62
     0
370
    -2
100
AcDbLine
 10
-0.5
 20
0.0
 30
0.0
 11
-1.0
 21
0.0
 31
0.0
  0
ENDBLK
  5
311
330
30D
100
AcDbEntity
  8
0
100
AcDbBlockEnd
  0
BLOCK
  5
3140
330
313C
100
AcDbEntity
  8
0
100
AcDbBlockBegin
  2
A$C6850087C
 70
     0
 10
0.0
 20
0.0
 30
0.0
  3
A$C6850087C
  1

  0
TEXT
  5
313D
330
313C
100
AcDbEntity
  8
実形
 62
     0
 48
20.0
100
AcDbText
 10
0.0
 20
0.0
 30
0.0
 40
40.0
  1
平面図
100
AcDbText
  0
ENDBLK
  5
3141
330
313C
100
AcDbEntity
  8
0
100
AcDbBlockEnd
  0
BLOCK
  5
384A
330
3846
100
AcDbEntity
  8
0
 62
     1
100
AcDbBlockBegin
  2
A$C71387EE1
 70
     0
 10
0.0
 20
0.0
 30
0.0
  3
A$C71387EE1
  1

  0
HATCH
  5
3847
330
3846
100
AcDbEntity
  8
実形
 62
     0
100
AcDbHatch
 10
0.0
 20
0.0
 30
0.0
210
0.0
220
0.0
230
1.0
  2
SOLID
 70
     1
 71
     0
 91
        1
 92
        7
 72
     1
 73
     1
 93
        2
 10
4.552685078746208
 20
-0.0000011660104065
 42
-1.0
 10
4.54872920619573
 20
9.101406589272301
 42
-1.0
 97
        0
 75
     0
 76
     1
 47
0.1166526434546944
 98
        1
 10
6.65106624868099
 20
3.151407247997667
  0
ENDBLK
  5
384B
330
3846
100
AcDbEntity
  8
0
 62
     1
100
AcDbBlockEnd
  0
BLOCK
  5
6B8B
330
6B87
100
AcDbEntity
  8
0
 62
     3
100
AcDbBlockBegin
  2
A$C47AF373A
 70
     0
 10
0.0
 20
0.0
 30
0.0
  3
A$C47AF373A
  1

  0
LINE
  5
6B88
330
6B87
100
AcDbEntity
  8
枠
 62
     0
100
AcDbLine
 10
-0.0000111344452307
 20
0.0000048001220421
 30
0.0
 11
-0.0000111344452307
 21
2020.000004800122
 31
0.0
  0
ENDBLK
  5
6B8C
330
6B87
100
AcDbEntity
  8
0
 62
     3
100
AcDbBlockEnd
  0
BLOCK
  5
6C04
330
6C00
100
AcDbEntity
  8
0
 62
     3
100
AcDbBlockBegin
  2
A$C2B9560D8
 70
     0
 10
0.0
 20
0.0
 30
0.0
  3
A$C2B9560D8
  1

  0
LINE
  5
6C01
330
6C00
100
AcDbEntity
  8
枠
 62
     0
100
AcDbLine
 10
-0.0000103150450741
 20
2020.000004800122
 30
0.0
 11
-0.0000103150450741
 21
0.0000048001220421
 31
0.0
  0
ENDBLK
  5
6C05
330
6C00
100
AcDbEntity
  8
0
 62
     3
100
AcDbBlockEnd
  0
BLOCK
  5
7100
330
70F6
100
AcDbEntity
  8
0
 62
     3
100
AcDbBlockBegin
  2
*D10
 70
     1
 10
0.0
 20
0.0
 30
0.0
  3
*D10
  1

  0
LINE
  5
A0BD
330
70F6
100
AcDbEntity
  8
実形
 62
     0
370
    18
100
AcDbLine
 10
1531.053280974976
 20
1075.544316606118
 30
0.0
 11
1531.053280974976
 21
1008.281614901731
 31
0.0
  0
LINE
  5
A0BE
330
70F6
100
AcDbEntity
  8
実形
 62
     0
370
    18
100
AcDbLine
 10
771.0532809749768
 20
1075.544316606118
 30
0.0
 11
771.0532809749768
 21
1008.281614901731
 31
0.0
  0
LINE
  5
A0BF
330
70F6
100
AcDbEntity
  8
実形
 62
     0
370
    18
100
AcDbLine
 10
1521.053280974977
 20
1008.281614901731
 30
0.0
 11
781.0532809749767
 21
1008.281614901731
 31
0.0
  0
INSERT
  5
A0C0
330
70F6
100
AcDbEntity
  8
実形
 62
     0
370
    18
100
AcDbBlockReference
  2
_Dot
 10
1531.053280974976
 20
1008.281614901731
 30
0.0
 41
10.0
 42
10.0
 43
10.0
  0
INSERT
  5
A0C1
330
70F6
100
AcDbEntity
  8
実形
 62
     0
370
    18
100
AcDbBlockReference
  2
_Dot
 10
771.0532809749768
 20
1008.281614901731
 30
0.0
 41
10.0
 42
10.0
 43
10.0
 50
180.0
  0
MTEXT
  5
A0C2
330
70F6
100
AcDbEntity
  8
実形
 62
     0
100
AcDbMText
 10
1151.053280974976
 20
1027.38161490173
 30
0.0
 40
25.0
 41
0.0
 71
     5
 72
     1
  1
760
 73
     1
 44
1.0
1001
ACAD
1000
MTEXTBEGIN
1070
    73
1070
     1
1070
    44
1040
1.0
1070
    74
1070
     0
1000
MTEXTEND
  0
POINT
  5
A0C3
330
70F6
100
AcDbEntity
  8
Defpoints
 62
     0
100
AcDbPoint
 10
1531.053280974976
 20
1140.544316606117
 30
0.0
  0
POINT
  5
A0C4
330
70F6
100
AcDbEntity
  8
Defpoints
 62
     0
100
AcDbPoint
 10
771.0532809749768
 20
1140.544316606117
 30
0.0
  0
POINT
  5
A0C5
330
70F6
100
AcDbEntity
  8
Defpoints
 62
     0
100
AcDbPoint
 10
771.0532809749768
 20
1008.281614901731
 30
0.0
  0
ENDBLK
  5
7101
330
70F6
100
AcDbEntity
  8
0
 62
     3
100
AcDbBlockEnd
  0
BLOCK
  5
710D
330
7103
100
AcDbEntity
  8
0
 62
     3
100
AcDbBlockBegin
  2
*D11
 70
     1
 10
0.0
 20
0.0
 30
0.0
  3
*D11
  1

  0
LINE
  5
A0C6
330
7103
100
AcDbEntity
  8
実形
 62
     0
370
    18
100
AcDbLine
 10
1551.053280974976
 20
1075.544316606118
 30
0.0
 11
1551.053280974976
 21
1008.281614901731
 31
0.0
  0
LINE
  5
A0C7
330
7103
100
AcDbEntity
  8
実形
 62
     0
370
    18
100
AcDbLine
 10
751.0532809749768
 20
1075.544316606118
 30
0.0
 11
751.0532809749768
 21
1008.281614901731
 31
0.0
  0
LINE
  5
A0C8
330
7103
100
AcDbEntity
  8
実形
 62
     0
370
    18
100
AcDbLine
 10
1541.053280974976
 20
1008.281614901731
 30
0.0
 11
761.0532809749768
 21
1008.281614901731
 31
0.0
  0
MTEXT
  5
A0C9
330
7103
100
AcDbEntity
  8
実形
 62
     0
100
AcDbMText
 10
804.652127670257
 20
1029.88161490173
 30
0.0
 40
25.0
 41
0.0
 71
     5
 72
     1
  1
20
 73
     1
 44
1.0
1001
ACAD
1000
MTEXTBEGIN
1070
    73
1070
     1
1070
    44
1040
1.0
1070
    74
1070
     0
1000
MTEXTEND
  0
INSERT
  5
A0CA
330
7103
100
AcDbEntity
  8
実形
 62
     0
370
    18
100
AcDbBlockReference
  2
_Dot
 10
1551.053280974976
 20
1008.281614901731
 30
0.0
 41
10.0
 42
10.0
 43
10.0
  0
INSERT
  5
A0CB
330
7103
100
AcDbEntity
  8
実形
 62
     0
370
    18
100
AcDbBlockReference
  2
_Dot
 10
751.0532809749768
 20
1008.281614901731
 30
0.0
 41
10.0
 42
10.0
 43
10.0
 50
180.0
  0
POINT
  5
A0CC
330
7103
100
AcDbEntity
  8
Defpoints
 62
     0
100
AcDbPoint
 10
1551.053280974976
 20
1140.544316606117
 30
0.0
  0
POINT
  5
A0CD
330
7103
100
AcDbEntity
  8
Defpoints
 62
     0
100
AcDbPoint
 10
751.0532809749768
 20
1140.544316606117
 30
0.0
  0
POINT
  5
A0CE
330
7103
100
AcDbEntity
  8
Defpoints
 62
     0
100
AcDbPoint
 10
751.0532809749768
 20
1008.281614901731
 30
0.0
  0
ENDBLK
  5
710E
330
7103
100
AcDbEntity
  8
0
 62
     3
100
AcDbBlockEnd
  0
BLOCK
  5
713E
330
7134
100
AcDbEntity
  8
0
 62
     3
100
AcDbBlockBegin
  2
*D12
 70
     1
 10
0.0
 20
0.0
 30
0.0
  3
*D12
  1

  0
LINE
  5
A0CF
330
7134
100
AcDbEntity
  8
実形
 62
     0
370
    18
100
AcDbLine
 10
1551.053280974976
 20
1075.544316606118
 30
0.0
 11
1551.053280974976
 21
945.8711275457572
 31
0.0
  0
LINE
  5
A0D0
330
7134
100
AcDbEntity
  8
実形
 62
     0
370
    18
100
AcDbLine
 10
751.0532809749768
 20
1075.544316606118
 30
0.0
 11
751.0532809749768
 21
945.8711275457572
 31
0.0
  0
LINE
  5
A0D1
330
7134
100
AcDbEntity
  8
実形
 62
     0
370
    18
100
AcDbLine
 10
1541.053280974976
 20
945.8711275457572
 30
0.0
 11
761.0532809749768
 21
945.8711275457572
 31
0.0
  0
INSERT
  5
A0D2
330
7134
100
AcDbEntity
  8
実形
 62
     0
370
    18
100
AcDbBlockReference
  2
_Dot
 10
1551.053280974976
 20
945.8711275457572
 30
0.0
 41
10.0
 42
10.0
 43
10.0
  0
INSERT
  5
A0D3
330
7134
100
AcDbEntity
  8
実形
 62
     0
370
    18
100
AcDbBlockReference
  2
_Dot
 10
751.0532809749768
 20
945.8711275457572
 30
0.0
 41
10.0
 42
10.0
 43
10.0
 50
180.0
  0
MTEXT
  5
A0D4
330
7134
100
AcDbEntity
  8
実形
 62
     0
100
AcDbMText
 10
1151.053280974976
 20
964.9711275457573
 30
0.0
 40
25.0
 41
0.0
 71
     5
 72
     1
  1
800
 73
     1
 44
1.0
1001
ACAD
1000
MTEXTBEGIN
1070
    73
1070
     1
1070
    44
1040
1.0
1070
    74
1070
     0
1000
MTEXTEND
  0
POINT
  5
A0D5
330
7134
100
AcDbEntity
  8
Defpoints
 62
     0
100
AcDbPoint
 10
1551.053280974976
 20
1140.544316606117
 30
0.0
  0
POINT
  5
A0D6
330
7134
100
AcDbEntity
  8
Defpoints
 62
     0
100
AcDbPoint
 10
751.0532809749768
 20
1140.544316606117
 30
0.0
  0
POINT
  5
A0D7
330
7134
100
AcDbEntity
  8
Defpoints
 62
     0
100
AcDbPoint
 10
751.0532809749768
 20
945.8711275457572
 30
0.0
  0
ENDBLK
  5
713F
330
7134
100
AcDbEntity
  8
0
 62
     3
100
AcDbBlockEnd
  0
BLOCK
  5
714B
330
7141
100
AcDbEntity
  8
0
 62
     3
100
AcDbBlockBegin
  2
*D13
 70
     1
 10
0.0
 20
0.0
 30
0.0
  3
*D13
  1

  0
LINE
  5
A0D8
330
7141
100
AcDbEntity
  8
実形
 62
     0
370
    18
100
AcDbLine
 10
1566.053280974976
 20
1075.544316606118
 30
0.0
 11
1566.053280974976
 21
945.8711275457572
 31
0.0
  0
LINE
  5
A0D9
330
7141
100
AcDbEntity
  8
実形
 62
     0
370
    18
100
AcDbLine
 10
736.0532809749765
 20
1075.544316606118
 30
0.0
 11
736.0532809749765
 21
945.8711275457572
 31
0.0
  0
LINE
  5
A0DA
330
7141
100
AcDbEntity
  8
実形
 62
     0
370
    18
100
AcDbLine
 10
1556.053280974976
 20
945.8711275457572
 30
0.0
 11
746.0532809749765
 21
945.8711275457572
 31
0.0
  0
MTEXT
  5
A0DB
330
7141
100
AcDbEntity
  8
実形
 62
     0
100
AcDbMText
 10
692.2637476204308
 20
967.4711275457571
 30
0.0
 40
25.0
 41
0.0
 71
     5
 72
     1
  1
15
 73
     1
 44
1.0
1001
ACAD
1000
MTEXTBEGIN
1070
    73
1070
     1
1070
    44
1040
1.0
1070
    74
1070
     0
1000
MTEXTEND
  0
INSERT
  5
A0DC
330
7141
100
AcDbEntity
  8
実形
 62
     0
370
    18
100
AcDbBlockReference
  2
_Dot
 10
1566.053280974976
 20
945.8711275457572
 30
0.0
 41
10.0
 42
10.0
 43
10.0
  0
INSERT
  5
A0DD
330
7141
100
AcDbEntity
  8
実形
 62
     0
370
    18
100
AcDbBlockReference
  2
_Dot
 10
736.0532809749765
 20
945.8711275457572
 30
0.0
 41
10.0
 42
10.0
 43
10.0
 50
180.0
  0
POINT
  5
A0DE
330
7141
100
AcDbEntity
  8
Defpoints
 62
     0
100
AcDbPoint
 10
1566.053280974976
 20
1140.544316606117
 30
0.0
  0
POINT
  5
A0DF
330
7141
100
AcDbEntity
  8
Defpoints
 62
     0
100
AcDbPoint
 10
736.0532809749765
 20
1140.544316606117
 30
0.0
  0
POINT
  5
A0E0
330
7141
100
AcDbEntity
  8
Defpoints
 62
     0
100
AcDbPoint
 10
736.0532809749765
 20
945.8711275457572
 30
0.0
  0
ENDBLK
  5
714C
330
7141
100
AcDbEntity
  8
0
 62
     3
100
AcDbBlockEnd
  0
BLOCK
  5
717D
330
7173
100
AcDbEntity
  8
0
 62
     3
100
AcDbBlockBegin
  2
*D14
 70
     1
 10
0.0
 20
0.0
 30
0.0
  3
*D14
  1

  0
LINE
  5
A0E1
330
7173
100
AcDbEntity
  8
実形
 62
     0
370
    18
100
AcDbLine
 10
1566.053280974976
 20
1075.544316606118
 30
0.0
 11
1566.053280974976
 21
872.6495470756054
 31
0.0
  0
LINE
  5
A0E2
330
7173
100
AcDbEntity
  8
実形
 62
     0
370
    18
100
AcDbLine
 10
736.0532809749765
 20
1075.544316606118
 30
0.0
 11
736.0532809749765
 21
872.6495470756054
 31
0.0
  0
LINE
  5
A0E3
330
7173
100
AcDbEntity
  8
実形
 62
     0
370
    18
100
AcDbLine
 10
1556.053280974976
 20
872.6495470756054
 30
0.0
 11
746.0532809749765
 21
872.6495470756054
 31
0.0
  0
INSERT
  5
A0E4
330
7173
100
AcDbEntity
  8
実形
 62
     0
370
    18
100
AcDbBlockReference
  2
_Dot
 10
1566.053280974976
 20
872.6495470756054
 30
0.0
 41
10.0
 42
10.0
 43
10.0
  0
INSERT
  5
A0E5
330
7173
100
AcDbEntity
  8
実形
 62
     0
370
    18
100
AcDbBlockReference
  2
_Dot
 10
736.0532809749765
 20
872.6495470756054
 30
0.0
 41
10.0
 42
10.0
 43
10.0
 50
180.0
  0
MTEXT
  5
A0E6
330
7173
100
AcDbEntity
  8
実形
 62
     0
100
AcDbMText
 10
1151.053280974976
 20
891.7495470756053
 30
0.0
 40
25.0
 41
0.0
 71
     5
 72
     1
  1
830
 73
     1
 44
1.0
1001
ACAD
1000
MTEXTBEGIN
1070
    73
1070
     1
1070
    44
1040
1.0
1070
    74
1070
     0
1000
MTEXTEND
  0
POINT
  5
A0E7
330
7173
100
AcDbEntity
  8
Defpoints
 62
     0
100
AcDbPoint
 10
1566.053280974976
 20
1140.544316606117
 30
0.0
  0
POINT
  5
A0E8
330
7173
100
AcDbEntity
  8
Defpoints
 62
     0
100
AcDbPoint
 10
736.0532809749765
 20
1140.544316606117
 30
0.0
  0
POINT
  5
A0E9
330
7173
100
AcDbEntity
  8
Defpoints
 62
     0
100
AcDbPoint
 10
736.0532809749765
 20
872.6495470756054
 30
0.0
  0
ENDBLK
  5
717E
330
7173
100
AcDbEntity
  8
0
 62
     3
100
AcDbBlockEnd
  0
BLOCK
  5
775A
330
7752
100
AcDbEntity
  8
0
 62
     3
100
AcDbBlockBegin
  2
A$C113940D1
 70
     0
 10
0.0
 20
0.0
 30
0.0
  3
A$C113940D1
  1

  0
LINE
  5
7753
330
7752
100
AcDbEntity
  8
実形
 62
     0
100
AcDbLine
 10
0.0
 20
65.0
 30
0.0
 11
720.0
 21
65.0
 31
0.0
  0
LINE
  5
7754
330
7752
100
AcDbEntity
  8
実形
 62
     0
100
AcDbLine
 10
0.0
 20
-195.0
 30
0.0
 11
0.0
 21
65.0
 31
0.0
  0
LINE
  5
7755
330
7752
100
AcDbEntity
  8
実形
 62
     0
100
AcDbLine
 10
120.0
 20
-130.0
 30
0.0
 11
120.0
 21
65.00000000000006
 31
0.0
  0
TEXT
  5
7756
330
7752
100
AcDbEntity
  8
枠
 62
     0
100
AcDbText
 10
23.83333333333334
 20
15.00000000000001
 30
0.0
 40
35.0
  1
品名
 72
     4
 11
60.0
 21
32.5
 31
0.0
100
AcDbText
  0
TEXT
  5
7757
330
7752
100
AcDbEntity
  8
実形
100
AcDbText
 10
214.0405358305962
 20
13.16420861765831
 30
0.0
 40
40.0
  1
ｱﾝﾀﾞｰｼﾝｸ
 72
     4
 11
302.0405358305961
 21
31.83087528432498
 31
0.0
100
AcDbText
  0
ENDBLK
  5
775B
330
7752
100
AcDbEntity
  8
0
 62
     3
100
AcDbBlockEnd
  0
BLOCK
  5
7867
330
785D
100
AcDbEntity
  8
0
 62
     3
100
AcDbBlockBegin
  2
*D16
 70
     1
 10
0.0
 20
0.0
 30
0.0
  3
*D16
  1

  0
LINE
  5
A2C5
330
785D
100
AcDbEntity
  8
実形
 62
     0
370
    18
100
AcDbLine
 10
1411.053280974977
 20
1752.668426319257
 30
0.0
 11
1411.053280974977
 21
1798.875438359908
 31
0.0
  0
LINE
  5
A2C6
330
785D
100
AcDbEntity
  8
実形
 62
     0
370
    18
100
AcDbLine
 10
1001.053280974976
 20
1752.668426319257
 30
0.0
 11
1001.053280974976
 21
1798.875438359908
 31
0.0
  0
LINE
  5
A2C7
330
785D
100
AcDbEntity
  8
実形
 62
     0
370
    18
100
AcDbLine
 10
1401.053280974977
 20
1798.875438359908
 30
0.0
 11
1011.053280974977
 21
1798.875438359908
 31
0.0
  0
INSERT
  5
A2C8
330
785D
100
AcDbEntity
  8
実形
 62
     0
370
    18
100
AcDbBlockReference
  2
_Dot
 10
1411.053280974977
 20
1798.875438359908
 30
0.0
 41
10.0
 42
10.0
 43
10.0
  0
INSERT
  5
A2C9
330
785D
100
AcDbEntity
  8
実形
 62
     0
370
    18
100
AcDbBlockReference
  2
_Dot
 10
1001.053280974976
 20
1798.875438359908
 30
0.0
 41
10.0
 42
10.0
 43
10.0
 50
180.0
  0
MTEXT
  5
A2CA
330
785D
100
AcDbEntity
  8
実形
 62
     0
100
AcDbMText
 10
1206.053280974977
 20
1817.975438359908
 30
0.0
 40
25.0
 41
0.0
 71
     5
 72
     1
  1
410
 73
     1
 44
1.0
1001
ACAD
1000
MTEXTBEGIN
1070
    73
1070
     1
1070
    44
1040
1.0
1070
    74
1070
     0
1000
MTEXTEND
  0
POINT
  5
A2CB
330
785D
100
AcDbEntity
  8
Defpoints
 62
     0
100
AcDbPoint
 10
1411.053280974977
 20
1687.668426319256
 30
0.0
  0
POINT
  5
A2CC
330
785D
100
AcDbEntity
  8
Defpoints
 62
     0
100
AcDbPoint
 10
1001.053280974976
 20
1687.668426319256
 30
0.0
  0
POINT
  5
A2CD
330
785D
100
AcDbEntity
  8
Defpoints
 62
     0
100
AcDbPoint
 10
1001.053280974976
 20
1798.875438359908
 30
0.0
  0
ENDBLK
  5
7868
330
785D
100
AcDbEntity
  8
0
 62
     3
100
AcDbBlockEnd
  0
BLOCK
  5
7875
330
786B
100
AcDbEntity
  8
0
 62
     3
100
AcDbBlockBegin
  2
*D17
 70
     1
 10
0.0
 20
0.0
 30
0.0
  3
*D17
  1

  0
LINE
  5
A0F3
330
786B
100
AcDbEntity
  8
実形
 62
     0
370
    18
100
AcDbLine
 10
1001.053280974976
 20
1752.668426319256
 30
0.0
 11
1001.053280974976
 21
1798.875438359908
 31
0.0
  0
LINE
  5
A0F4
330
786B
100
AcDbEntity
  8
実形
 62
     0
370
    18
100
AcDbLine
 10
751.0532809749766
 20
1752.668426319256
 30
0.0
 11
751.0532809749766
 21
1798.875438359908
 31
0.0
  0
LINE
  5
A0F5
330
786B
100
AcDbEntity
  8
実形
 62
     0
370
    18
100
AcDbLine
 10
991.0532809749764
 20
1798.875438359908
 30
0.0
 11
761.0532809749765
 21
1798.875438359908
 31
0.0
  0
MTEXT
  5
A0F6
330
786B
100
AcDbEntity
  8
実形
 62
     0
100
AcDbMText
 10
882.6550583614608
 20
1818.313691332377
 30
0.0
 40
25.0
 41
0.0
 71
     5
 72
     1
  1
250
 73
     1
 44
1.0
1001
ACAD
1000
MTEXTBEGIN
1070
    73
1070
     1
1070
    44
1040
1.0
1070
    74
1070
     0
1000
MTEXTEND
  0
INSERT
  5
A0F7
330
786B
100
AcDbEntity
  8
実形
 62
     0
370
    18
100
AcDbBlockReference
  2
_Dot
 10
1001.053280974976
 20
1798.875438359908
 30
0.0
 41
10.0
 42
10.0
 43
10.0
  0
INSERT
  5
A0F8
330
786B
100
AcDbEntity
  8
実形
 62
     0
370
    18
100
AcDbBlockReference
  2
_Dot
 10
751.0532809749766
 20
1798.875438359908
 30
0.0
 41
10.0
 42
10.0
 43
10.0
 50
180.0
  0
POINT
  5
A0F9
330
786B
100
AcDbEntity
  8
Defpoints
 62
     0
100
AcDbPoint
 10
1001.053280974976
 20
1687.668426319256
 30
0.0
  0
POINT
  5
A0FA
330
786B
100
AcDbEntity
  8
Defpoints
 62
     0
100
AcDbPoint
 10
751.0532809749766
 20
1687.668426319256
 30
0.0
  0
POINT
  5
A0FB
330
786B
100
AcDbEntity
  8
Defpoints
 62
     0
100
AcDbPoint
 10
751.0532809749766
 20
1798.875438359908
 30
0.0
  0
ENDBLK
  5
7876
330
786B
100
AcDbEntity
  8
0
 62
     3
100
AcDbBlockEnd
  0
BLOCK
  5
7882
330
7878
100
AcDbEntity
  8
0
 62
     3
100
AcDbBlockBegin
  2
*D18
 70
     1
 10
0.0
 20
0.0
 30
0.0
  3
*D18
  1

  0
LINE
  5
9E80
330
7878
100
AcDbEntity
  8
実形
 62
     0
370
    18
100
AcDbLine
 10
1566.053280974976
 20
1753.296423815394
 30
0.0
 11
1566.053280974976
 21
1798.875438359908
 31
0.0
  0
LINE
  5
9E81
330
7878
100
AcDbEntity
  8
実形
 62
     0
370
    18
100
AcDbLine
 10
736.0532809749765
 20
1752.651727076809
 30
0.0
 11
736.0532809749765
 21
1798.875438359908
 31
0.0
  0
LINE
  5
9E82
330
7878
100
AcDbEntity
  8
実形
 62
     0
370
    18
100
AcDbLine
 10
1556.053280974976
 20
1798.875438359908
 30
0.0
 11
746.0532809749765
 21
1798.875438359908
 31
0.0
  0
MTEXT
  5
9E83
330
7878
100
AcDbEntity
  8
実形
 62
     0
100
AcDbMText
 10
1567.505266927248
 20
1823.86048303489
 30
0.0
 40
25.0
 41
0.0
 71
     5
 72
     1
  1
15
 73
     1
 44
1.0
1001
ACAD
1000
MTEXTBEGIN
1070
    73
1070
     1
1070
    44
1040
1.0
1070
    74
1070
     0
1000
MTEXTEND
  0
INSERT
  5
9E84
330
7878
100
AcDbEntity
  8
実形
 62
     0
370
    18
100
AcDbBlockReference
  2
_Dot
 10
1566.053280974976
 20
1798.875438359908
 30
0.0
 41
10.0
 42
10.0
 43
10.0
  0
INSERT
  5
9E85
330
7878
100
AcDbEntity
  8
実形
 62
     0
370
    18
100
AcDbBlockReference
  2
_Dot
 10
736.0532809749765
 20
1798.875438359908
 30
0.0
 41
10.0
 42
10.0
 43
10.0
 50
180.0
  0
POINT
  5
9E86
330
7878
100
AcDbEntity
  8
Defpoints
 62
     0
100
AcDbPoint
 10
1566.053280974976
 20
1688.296423815394
 30
0.0
  0
POINT
  5
9E87
330
7878
100
AcDbEntity
  8
Defpoints
 62
     0
100
AcDbPoint
 10
736.0532809749765
 20
1687.651727076809
 30
0.0
  0
POINT
  5
9E88
330
7878
100
AcDbEntity
  8
Defpoints
 62
     0
100
AcDbPoint
 10
736.0532809749765
 20
1798.875438359908
 30
0.0
  0
ENDBLK
  5
7883
330
7878
100
AcDbEntity
  8
0
 62
     3
100
AcDbBlockEnd
  0
BLOCK
  5
79A4
330
79A0
100
AcDbEntity
  8
0
 62
     3
100
AcDbBlockBegin
  2
A$C34481AC4
 70
     0
 10
0.0
 20
0.0
 30
0.0
  3
A$C34481AC4
  1

  0
TEXT
  5
79A1
330
79A0
100
AcDbEntity
  8
実形
370
    13
100
AcDbText
 10
21.66666199574517
 20
-1.666654965347788
 30
0.0
 40
25.0
  1
●
 71
     2
 72
     1
 11
9.999995329078501
 21
-1.666654965347788
 31
0.0
100
AcDbText
  0
ENDBLK
  5
79A5
330
79A0
100
AcDbEntity
  8
0
 62
     3
100
AcDbBlockEnd
  0
BLOCK
  5
79BB
330
79B1
100
AcDbEntity
  8
0
 62
     3
100
AcDbBlockBegin
  2
*D20
 70
     1
 10
0.0
 20
0.0
 30
0.0
  3
*D20
  1

  0
LINE
  5
9ED1
330
79B1
100
AcDbEntity
  8
実形
 62
     0
370
    18
100
AcDbLine
 10
675.6105981027901
 20
1579.178460662066
 30
0.0
 11
646.4313207137002
 21
1579.178460662066
 31
0.0
  0
LINE
  5
9ED2
330
79B1
100
AcDbEntity
  8
実形
 62
     0
370
    18
100
AcDbLine
 10
675.6105981027901
 20
1669.178460662066
 30
0.0
 11
646.4313207137002
 21
1669.178460662066
 31
0.0
  0
LINE
  5
9ED3
330
79B1
100
AcDbEntity
  8
実形
 62
     0
370
    18
100
AcDbLine
 10
646.4313207137002
 20
1589.178460662066
 30
0.0
 11
646.4313207137002
 21
1589.782476377824
 31
0.0
  0
LINE
  5
9ED4
330
79B1
100
AcDbEntity
  8
実形
 62
     0
370
    18
100
AcDbLine
 10
646.4313207137002
 20
1659.178460662066
 30
0.0
 11
646.4313207137002
 21
1640.482476377824
 31
0.0
  0
MTEXT
  5
9ED5
330
79B1
100
AcDbEntity
  8
実形
 62
     0
100
AcDbMText
 10
629.3580733355902
 20
1615.132476377824
 30
0.0
 40
25.0
 41
0.0
 71
     5
 72
     1
  1
70
 11
0.0000000000000001
 21
1.0
 31
0.0
 73
     1
 44
1.0
1001
ACAD
1000
MTEXTBEGIN
1070
    73
1070
     1
1070
    44
1040
1.0
1070
    74
1070
     0
1000
MTEXTEND
  0
INSERT
  5
9ED6
330
79B1
100
AcDbEntity
  8
実形
 62
     0
370
    18
100
AcDbBlockReference
  2
_Dot
 10
646.4313207137002
 20
1579.178460662066
 30
0.0
 41
10.0
 42
10.0
 43
10.0
 50
270.0
  0
INSERT
  5
9ED7
330
79B1
100
AcDbEntity
  8
実形
 62
     0
370
    18
100
AcDbBlockReference
  2
_Dot
 10
646.4313207137002
 20
1669.178460662066
 30
0.0
 41
10.0
 42
10.0
 43
10.0
 50
90.0
  0
POINT
  5
9ED8
330
79B1
100
AcDbEntity
  8
Defpoints
 62
     0
100
AcDbPoint
 10
740.6105981027901
 20
1579.178460662066
 30
0.0
  0
POINT
  5
9ED9
330
79B1
100
AcDbEntity
  8
Defpoints
 62
     0
100
AcDbPoint
 10
740.6105981027901
 20
1669.178460662066
 30
0.0
  0
POINT
  5
9EDA
330
79B1
100
AcDbEntity
  8
Defpoints
 62
     0
100
AcDbPoint
 10
646.4313207137002
 20
1669.178460662066
 30
0.0
  0
ENDBLK
  5
79BC
330
79B1
100
AcDbEntity
  8
0
 62
     3
100
AcDbBlockEnd
  0
BLOCK
  5
79E3
330
79D9
100
AcDbEntity
  8
0
 62
     3
100
AcDbBlockBegin
  2
*D21
 70
     1
 10
0.0
 20
0.0
 30
0.0
  3
*D21
  1

  0
LINE
  5
9EC8
330
79D9
100
AcDbEntity
  8
実形
 62
     0
370
    18
100
AcDbLine
 10
675.6105981027901
 20
1579.178460662066
 30
0.0
 11
646.4313207137002
 21
1579.178460662066
 31
0.0
  0
LINE
  5
9EC9
330
79D9
100
AcDbEntity
  8
実形
 62
     0
370
    18
100
AcDbLine
 10
681.6105981027903
 20
1649.178460662066
 30
0.0
 11
646.4313207137002
 21
1649.178460662066
 31
0.0
  0
LINE
  5
9ECA
330
79D9
100
AcDbEntity
  8
実形
 62
     0
370
    18
100
AcDbLine
 10
646.4313207137002
 20
1589.178460662066
 30
0.0
 11
646.4313207137002
 21
1639.178460662066
 31
0.0
  0
MTEXT
  5
9ECB
330
79D9
100
AcDbEntity
  8
実形
 62
     0
100
AcDbMText
 10
709.6457412016007
 20
1650.22842009638
 30
0.0
 40
25.0
 41
0.0
 71
     5
 72
     1
  1
20
 11
0.0000000000000001
 21
1.0
 31
0.0
 73
     1
 44
1.0
1001
ACAD
1000
MTEXTBEGIN
1070
    73
1070
     1
1070
    44
1040
1.0
1070
    74
1070
     0
1000
MTEXTEND
  0
INSERT
  5
9ECC
330
79D9
100
AcDbEntity
  8
実形
 62
     0
370
    18
100
AcDbBlockReference
  2
_Dot
 10
646.4313207137002
 20
1579.178460662066
 30
0.0
 41
10.0
 42
10.0
 43
10.0
 50
270.0
  0
INSERT
  5
9ECD
330
79D9
100
AcDbEntity
  8
実形
 62
     0
370
    18
100
AcDbBlockReference
  2
_Dot
 10
646.4313207137002
 20
1649.178460662066
 30
0.0
 41
10.0
 42
10.0
 43
10.0
 50
90.0
  0
POINT
  5
9ECE
330
79D9
100
AcDbEntity
  8
Defpoints
 62
     0
100
AcDbPoint
 10
740.6105981027901
 20
1579.178460662066
 30
0.0
  0
POINT
  5
9ECF
330
79D9
100
AcDbEntity
  8
Defpoints
 62
     0
100
AcDbPoint
 10
746.6105981027904
 20
1649.178460662066
 30
0.0
  0
POINT
  5
9ED0
330
79D9
100
AcDbEntity
  8
Defpoints
 62
     0
100
AcDbPoint
 10
646.4313207137002
 20
1649.178460662066
 30
0.0
  0
ENDBLK
  5
79E4
330
79D9
100
AcDbEntity
  8
0
 62
     3
100
AcDbBlockEnd
  0
BLOCK
  5
7A18
330
7A0E
100
AcDbEntity
  8
0
 62
     3
100
AcDbBlockBegin
  2
*D22
 70
     1
 10
0.0
 20
0.0
 30
0.0
  3
*D22
  1

  0
LINE
  5
9EBF
330
7A0E
100
AcDbEntity
  8
実形
 62
     0
370
    18
100
AcDbLine
 10
644.054309333449
 20
1669.178460662066
 30
0.0
 11
580.6110897416528
 21
1669.178460662066
 31
0.0
  0
LINE
  5
9EC0
330
7A0E
100
AcDbEntity
  8
実形
 62
     0
370
    18
100
AcDbLine
 10
623.0331621179154
 20
1579.178460662066
 30
0.0
 11
580.6110897416528
 21
1579.178460662066
 31
0.0
  0
LINE
  5
9EC1
330
7A0E
100
AcDbEntity
  8
実形
 62
     0
370
    18
100
AcDbLine
 10
580.6110897416528
 20
1659.178460662066
 30
0.0
 11
580.6110897416528
 21
1589.178460662066
 31
0.0
  0
INSERT
  5
9EC2
330
7A0E
100
AcDbEntity
  8
実形
 62
     0
370
    18
100
AcDbBlockReference
  2
_Dot
 10
580.6110897416528
 20
1669.178460662066
 30
0.0
 41
10.0
 42
10.0
 43
10.0
 50
90.0
  0
INSERT
  5
9EC3
330
7A0E
100
AcDbEntity
  8
実形
 62
     0
370
    18
100
AcDbBlockReference
  2
_Dot
 10
580.6110897416528
 20
1579.178460662066
 30
0.0
 41
10.0
 42
10.0
 43
10.0
 50
270.0
  0
MTEXT
  5
9EC4
330
7A0E
100
AcDbEntity
  8
実形
 62
     0
100
AcDbMText
 10
561.5110897416526
 20
1624.178460662066
 30
0.0
 40
25.0
 41
0.0
 71
     5
 72
     1
  1
90
 11
0.0000000000000001
 21
1.0
 31
0.0
 73
     1
 44
1.0
1001
ACAD
1000
MTEXTBEGIN
1070
    73
1070
     1
1070
    44
1040
1.0
1070
    74
1070
     0
1000
MTEXTEND
  0
POINT
  5
9EC5
330
7A0E
100
AcDbEntity
  8
Defpoints
 62
     0
100
AcDbPoint
 10
709.054309333449
 20
1669.178460662066
 30
0.0
  0
POINT
  5
9EC6
330
7A0E
100
AcDbEntity
  8
Defpoints
 62
     0
100
AcDbPoint
 10
688.0331621179155
 20
1579.178460662066
 30
0.0
  0
POINT
  5
9EC7
330
7A0E
100
AcDbEntity
  8
Defpoints
 62
     0
100
AcDbPoint
 10
580.6110897416528
 20
1579.178460662066
 30
0.0
  0
ENDBLK
  5
7A19
330
7A0E
100
AcDbEntity
  8
0
 62
     3
100
AcDbBlockEnd
  0
BLOCK
  5
7A39
330
7A2F
100
AcDbEntity
  8
0
 62
     3
100
AcDbBlockBegin
  2
*D23
 70
     1
 10
0.0
 20
0.0
 30
0.0
  3
*D23
  1

  0
LINE
  5
9EB6
330
7A2F
100
AcDbEntity
  8
実形
 62
     0
370
    18
100
AcDbLine
 10
640.9573702596499
 20
1579.178460662066
 30
0.0
 11
580.6110897416528
 21
1579.178460662066
 31
0.0
  0
LINE
  5
9EB7
330
7A2F
100
AcDbEntity
  8
実形
 62
     0
370
    18
100
AcDbLine
 10
646.0775897777948
 20
1179.178460662066
 30
0.0
 11
580.6110897416527
 21
1179.178460662066
 31
0.0
  0
LINE
  5
9EB8
330
7A2F
100
AcDbEntity
  8
実形
 62
     0
370
    18
100
AcDbLine
 10
580.6110897416528
 20
1569.178460662066
 30
0.0
 11
580.6110897416527
 21
1189.178460662066
 31
0.0
  0
INSERT
  5
9EB9
330
7A2F
100
AcDbEntity
  8
実形
 62
     0
370
    18
100
AcDbBlockReference
  2
_Dot
 10
580.6110897416528
 20
1579.178460662066
 30
0.0
 41
10.0
 42
10.0
 43
10.0
 50
90.0
  0
INSERT
  5
9EBA
330
7A2F
100
AcDbEntity
  8
実形
 62
     0
370
    18
100
AcDbBlockReference
  2
_Dot
 10
580.6110897416527
 20
1179.178460662066
 30
0.0
 41
10.0
 42
10.0
 43
10.0
 50
270.0
  0
MTEXT
  5
9EBB
330
7A2F
100
AcDbEntity
  8
実形
 62
     0
100
AcDbMText
 10
561.5110897416525
 20
1379.178460662066
 30
0.0
 40
25.0
 41
0.0
 71
     5
 72
     1
  1
400
 11
0.0000000000000001
 21
1.0
 31
0.0
 73
     1
 44
1.0
1001
ACAD
1000
MTEXTBEGIN
1070
    73
1070
     1
1070
    44
1040
1.0
1070
    74
1070
     0
1000
MTEXTEND
  0
POINT
  5
9EBC
330
7A2F
100
AcDbEntity
  8
Defpoints
 62
     0
100
AcDbPoint
 10
705.9573702596499
 20
1579.178460662066
 30
0.0
  0
POINT
  5
9EBD
330
7A2F
100
AcDbEntity
  8
Defpoints
 62
     0
100
AcDbPoint
 10
711.0775897777948
 20
1179.178460662066
 30
0.0
  0
POINT
  5
9EBE
330
7A2F
100
AcDbEntity
  8
Defpoints
 62
     0
100
AcDbPoint
 10
580.6110897416527
 20
1179.178460662066
 30
0.0
  0
ENDBLK
  5
7A3A
330
7A2F
100
AcDbEntity
  8
0
 62
     3
100
AcDbBlockEnd
  0
BLOCK
  5
7A58
330
7A4E
100
AcDbEntity
  8
0
 62
     3
100
AcDbBlockBegin
  2
*D24
 70
     1
 10
0.0
 20
0.0
 30
0.0
  3
*D24
  1

  0
LINE
  5
9EAD
330
7A4E
100
AcDbEntity
  8
実形
 62
     0
370
    18
100
AcDbLine
 10
672.4370316408258
 20
1684.178460662066
 30
0.0
 11
580.6110897416528
 21
1684.178460662066
 31
0.0
  0
LINE
  5
9EAE
330
7A4E
100
AcDbEntity
  8
実形
 62
     0
370
    18
100
AcDbLine
 10
645.5471809943828
 20
1144.178460662065
 30
0.0
 11
580.6110897416527
 21
1144.178460662065
 31
0.0
  0
LINE
  5
9EAF
330
7A4E
100
AcDbEntity
  8
実形
 62
     0
370
    18
100
AcDbLine
 10
580.6110897416528
 20
1674.178460662066
 30
0.0
 11
580.6110897416527
 21
1154.178460662066
 31
0.0
  0
MTEXT
  5
9EB0
330
7A4E
100
AcDbEntity
  8
実形
 62
     0
100
AcDbMText
 10
558.4716145224265
 20
1706.647378054783
 30
0.0
 40
25.0
 41
0.0
 71
     5
 72
     1
  1
15
 11
0.0000000000000001
 21
1.0
 31
0.0
 73
     1
 44
1.0
1001
ACAD
1000
MTEXTBEGIN
1070
    73
1070
     1
1070
    44
1040
1.0
1070
    74
1070
     0
1000
MTEXTEND
  0
INSERT
  5
9EB1
330
7A4E
100
AcDbEntity
  8
実形
 62
     0
370
    18
100
AcDbBlockReference
  2
_Dot
 10
580.6110897416528
 20
1684.178460662066
 30
0.0
 41
10.0
 42
10.0
 43
10.0
 50
90.0
  0
INSERT
  5
9EB2
330
7A4E
100
AcDbEntity
  8
実形
 62
     0
370
    18
100
AcDbBlockReference
  2
_Dot
 10
580.6110897416527
 20
1144.178460662065
 30
0.0
 41
10.0
 42
10.0
 43
10.0
 50
270.0
  0
POINT
  5
9EB3
330
7A4E
100
AcDbEntity
  8
Defpoints
 62
     0
100
AcDbPoint
 10
737.4370316408258
 20
1684.178460662066
 30
0.0
  0
POINT
  5
9EB4
330
7A4E
100
AcDbEntity
  8
Defpoints
 62
     0
100
AcDbPoint
 10
710.5471809943828
 20
1144.178460662065
 30
0.0
  0
POINT
  5
9EB5
330
7A4E
100
AcDbEntity
  8
Defpoints
 62
     0
100
AcDbPoint
 10
580.6110897416527
 20
1144.178460662065
 30
0.0
  0
ENDBLK
  5
7A59
330
7A4E
100
AcDbEntity
  8
0
 62
     3
100
AcDbBlockEnd
  0
BLOCK
  5
7B59
330
7B4F
100
AcDbEntity
  8
0
 62
     3
100
AcDbBlockBegin
  2
*D25
 70
     1
 10
0.0
 20
0.0
 30
0.0
  3
*D25
  1

  0
LINE
  5
9EA4
330
7B4F
100
AcDbEntity
  8
実形
 62
     0
370
    18
100
AcDbLine
 10
646.0775897777948
 20
1159.178460662066
 30
0.0
 11
580.6110897416528
 21
1159.178460662066
 31
0.0
  0
LINE
  5
9EA5
330
7B4F
100
AcDbEntity
  8
実形
 62
     0
370
    18
100
AcDbLine
 10
610.6105981027901
 20
1579.178460662066
 30
0.0
 11
580.6110897416528
 21
1579.178460662066
 31
0.0
  0
LINE
  5
9EA6
330
7B4F
100
AcDbEntity
  8
実形
 62
     0
370
    18
100
AcDbLine
 10
580.6110897416528
 20
1169.178460662066
 30
0.0
 11
580.6110897416528
 21
1569.178460662066
 31
0.0
  0
MTEXT
  5
9EA7
330
7B4F
100
AcDbEntity
  8
実形
 62
     0
100
AcDbMText
 10
664.6815704476048
 20
1179.170355646408
 30
0.0
 40
25.0
 41
0.0
 71
     5
 72
     1
  1
20
 11
0.0000000000000001
 21
1.0
 31
0.0
 73
     1
 44
1.0
1001
ACAD
1000
MTEXTBEGIN
1070
    73
1070
     1
1070
    44
1040
1.0
1070
    74
1070
     0
1000
MTEXTEND
  0
INSERT
  5
9EA8
330
7B4F
100
AcDbEntity
  8
実形
 62
     0
370
    18
100
AcDbBlockReference
  2
_Dot
 10
580.6110897416528
 20
1159.178460662066
 30
0.0
 41
10.0
 42
10.0
 43
10.0
 50
270.0
  0
INSERT
  5
9EA9
330
7B4F
100
AcDbEntity
  8
実形
 62
     0
370
    18
100
AcDbBlockReference
  2
_Dot
 10
580.6110897416528
 20
1579.178460662066
 30
0.0
 41
10.0
 42
10.0
 43
10.0
 50
90.0
  0
POINT
  5
9EAA
330
7B4F
100
AcDbEntity
  8
Defpoints
 62
     0
100
AcDbPoint
 10
711.0775897777948
 20
1159.178460662066
 30
0.0
  0
POINT
  5
9EAB
330
7B4F
100
AcDbEntity
  8
Defpoints
 62
     0
100
AcDbPoint
 10
675.6105981027901
 20
1579.178460662066
 30
0.0
  0
POINT
  5
9EAC
330
7B4F
100
AcDbEntity
  8
Defpoints
 62
     0
100
AcDbPoint
 10
580.6110897416528
 20
1579.178460662066
 30
0.0
  0
ENDBLK
  5
7B5A
330
7B4F
100
AcDbEntity
  8
0
 62
     3
100
AcDbBlockEnd
  0
BLOCK
  5
7BAF
330
7BA5
100
AcDbEntity
  8
0
 62
     3
100
AcDbBlockBegin
  2
*D26
 70
     1
 10
0.0
 20
0.0
 30
0.0
  3
*D26
  1

  0
LINE
  5
9E9B
330
7BA5
100
AcDbEntity
  8
実形
 62
     0
370
    18
100
AcDbLine
 10
675.0100178911671
 20
1669.178460662066
 30
0.0
 11
524.639533246711
 21
1669.178460662066
 31
0.0
  0
LINE
  5
9E9C
330
7BA5
100
AcDbEntity
  8
実形
 62
     0
370
    18
100
AcDbLine
 10
648.0887020536247
 20
1159.178460662066
 30
0.0
 11
524.6395332467109
 21
1159.178460662066
 31
0.0
  0
LINE
  5
9E9D
330
7BA5
100
AcDbEntity
  8
実形
 62
     0
370
    18
100
AcDbLine
 10
524.639533246711
 20
1659.178460662066
 30
0.0
 11
524.6395332467109
 21
1169.178460662066
 31
0.0
  0
INSERT
  5
9E9E
330
7BA5
100
AcDbEntity
  8
実形
 62
     0
370
    18
100
AcDbBlockReference
  2
_Dot
 10
524.639533246711
 20
1669.178460662066
 30
0.0
 41
10.0
 42
10.0
 43
10.0
 50
90.0
  0
INSERT
  5
9E9F
330
7BA5
100
AcDbEntity
  8
実形
 62
     0
370
    18
100
AcDbBlockReference
  2
_Dot
 10
524.6395332467109
 20
1159.178460662066
 30
0.0
 41
10.0
 42
10.0
 43
10.0
 50
270.0
  0
MTEXT
  5
9EA0
330
7BA5
100
AcDbEntity
  8
実形
 62
     0
100
AcDbMText
 10
505.5395332467107
 20
1414.178460662066
 30
0.0
 40
25.0
 41
0.0
 71
     5
 72
     1
  1
510
 11
0.0000000000000001
 21
1.0
 31
0.0
 73
     1
 44
1.0
1001
ACAD
1000
MTEXTBEGIN
1070
    73
1070
     1
1070
    44
1040
1.0
1070
    74
1070
     0
1000
MTEXTEND
  0
POINT
  5
9EA1
330
7BA5
100
AcDbEntity
  8
Defpoints
 62
     0
100
AcDbPoint
 10
740.0100178911671
 20
1669.178460662066
 30
0.0
  0
POINT
  5
9EA2
330
7BA5
100
AcDbEntity
  8
Defpoints
 62
     0
100
AcDbPoint
 10
713.0887020536247
 20
1159.178460662066
 30
0.0
  0
POINT
  5
9EA3
330
7BA5
100
AcDbEntity
  8
Defpoints
 62
     0
100
AcDbPoint
 10
524.6395332467109
 20
1159.178460662066
 30
0.0
  0
ENDBLK
  5
7BB0
330
7BA5
100
AcDbEntity
  8
0
 62
     3
100
AcDbBlockEnd
  0
BLOCK
  5
7BD7
330
7BCD
100
AcDbEntity
  8
0
 62
     3
100
AcDbBlockBegin
  2
*D27
 70
     1
 10
0.0
 20
0.0
 30
0.0
  3
*D27
  1

  0
LINE
  5
9E92
330
7BCD
100
AcDbEntity
  8
実形
 62
     0
370
    18
100
AcDbLine
 10
671.0532809749765
 20
1684.178460662066
 30
0.0
 11
465.166572242435
 21
1684.178460662066
 31
0.0
  0
LINE
  5
9E93
330
7BCD
100
AcDbEntity
  8
実形
 62
     0
370
    18
100
AcDbLine
 10
649.1013936728468
 20
1144.178460662065
 30
0.0
 11
465.1665722424349
 21
1144.178460662066
 31
0.0
  0
LINE
  5
9E94
330
7BCD
100
AcDbEntity
  8
実形
 62
     0
370
    18
100
AcDbLine
 10
465.166572242435
 20
1674.178460662066
 30
0.0
 11
465.166572242435
 21
1154.178460662066
 31
0.0
  0
INSERT
  5
9E95
330
7BCD
100
AcDbEntity
  8
実形
 62
     0
370
    18
100
AcDbBlockReference
  2
_Dot
 10
465.166572242435
 20
1684.178460662066
 30
0.0
 41
10.0
 42
10.0
 43
10.0
 50
90.0
  0
INSERT
  5
9E96
330
7BCD
100
AcDbEntity
  8
実形
 62
     0
370
    18
100
AcDbBlockReference
  2
_Dot
 10
465.1665722424349
 20
1144.178460662066
 30
0.0
 41
10.0
 42
10.0
 43
10.0
 50
270.0
  0
MTEXT
  5
9E97
330
7BCD
100
AcDbEntity
  8
実形
 62
     0
100
AcDbMText
 10
446.0665722424348
 20
1414.178460662066
 30
0.0
 40
25.0
 41
0.0
 71
     5
 72
     1
  1
540
 11
0.0000000000000001
 21
1.0
 31
0.0
 73
     1
 44
1.0
1001
ACAD
1000
MTEXTBEGIN
1070
    73
1070
     1
1070
    44
1040
1.0
1070
    74
1070
     0
1000
MTEXTEND
  0
POINT
  5
9E98
330
7BCD
100
AcDbEntity
  8
Defpoints
 62
     0
100
AcDbPoint
 10
736.0532809749765
 20
1684.178460662066
 30
0.0
  0
POINT
  5
9E99
330
7BCD
100
AcDbEntity
  8
Defpoints
 62
     0
100
AcDbPoint
 10
714.1013936728468
 20
1144.178460662065
 30
0.0
  0
POINT
  5
9E9A
330
7BCD
100
AcDbEntity
  8
Defpoints
 62
     0
100
AcDbPoint
 10
465.1665722424349
 20
1144.178460662066
 30
0.0
  0
ENDBLK
  5
7BD8
330
7BCD
100
AcDbEntity
  8
0
 62
     3
100
AcDbBlockEnd
  0
BLOCK
  5
7F0A
330
7F09
100
AcDbEntity
  8
0
 62
     3
100
AcDbBlockBegin
  2
*D28
 70
     1
 10
0.0
 20
0.0
 30
0.0
  3
*D28
  1

  0
LINE
  5
7F0B
330
7F09
100
AcDbEntity
  8
実形
 62
     0
370
    18
100
AcDbLine
 10
862.7702104998824
 20
1104.178460662066
 30
0.0
 11
862.7702104998824
 21
1036.915758957679
 31
0.0
  0
LINE
  5
7F0C
330
7F09
100
AcDbEntity
  8
実形
 62
     0
370
    18
100
AcDbLine
 10
1622.770210499882
 20
1104.178460662066
 30
0.0
 11
1622.770210499882
 21
1036.915758957679
 31
0.0
  0
LINE
  5
7F0D
330
7F09
100
AcDbEntity
  8
実形
 62
     0
370
    18
100
AcDbLine
 10
872.7702104998824
 20
1036.915758957679
 30
0.0
 11
1612.770210499882
 21
1036.915758957679
 31
0.0
  0
INSERT
  5
7F0E
330
7F09
100
AcDbEntity
  8
実形
 62
     0
370
    18
100
AcDbBlockReference
  2
_Dot
 10
862.7702104998824
 20
1036.915758957679
 30
0.0
 41
10.0
 42
10.0
 43
10.0
 50
180.0
  0
INSERT
  5
7F0F
330
7F09
100
AcDbEntity
  8
実形
 62
     0
370
    18
100
AcDbBlockReference
  2
_Dot
 10
1622.770210499882
 20
1036.915758957679
 30
0.0
 41
10.0
 42
10.0
 43
10.0
  0
MTEXT
  5
7F10
330
7F09
100
AcDbEntity
  8
実形
 62
     0
100
AcDbMText
 10
1242.770210499882
 20
1056.015758957679
 30
0.0
 40
25.0
 41
0.0
 71
     5
 72
     1
  1
760
 73
     1
 44
1.0
1001
ACAD
1000
MTEXTBEGIN
1070
    73
1070
     1
1070
    44
1040
1.0
1070
    74
1070
     0
1000
MTEXTEND
  0
POINT
  5
7F11
330
7F09
100
AcDbEntity
  8
Defpoints
 62
     0
100
AcDbPoint
 10
862.7702104998824
 20
1169.178460662066
 30
0.0
  0
POINT
  5
7F12
330
7F09
100
AcDbEntity
  8
Defpoints
 62
     0
100
AcDbPoint
 10
1622.770210499882
 20
1169.178460662066
 30
0.0
  0
POINT
  5
7F13
330
7F09
100
AcDbEntity
  8
Defpoints
 62
     0
100
AcDbPoint
 10
1622.770210499882
 20
1036.915758957679
 30
0.0
  0
ENDBLK
  5
7F14
330
7F09
100
AcDbEntity
  8
0
 62
     3
100
AcDbBlockEnd
  0
BLOCK
  5
7F16
330
7F15
100
AcDbEntity
  8
0
 62
     3
100
AcDbBlockBegin
  2
*D29
 70
     1
 10
0.0
 20
0.0
 30
0.0
  3
*D29
  1

  0
LINE
  5
7F17
330
7F15
100
AcDbEntity
  8
実形
 62
     0
370
    18
100
AcDbLine
 10
842.7702104998825
 20
1104.178460662066
 30
0.0
 11
842.7702104998825
 21
1036.915758957679
 31
0.0
  0
LINE
  5
7F18
330
7F15
100
AcDbEntity
  8
実形
 62
     0
370
    18
100
AcDbLine
 10
1642.770210499882
 20
1104.178460662066
 30
0.0
 11
1642.770210499882
 21
1036.915758957679
 31
0.0
  0
LINE
  5
7F19
330
7F15
100
AcDbEntity
  8
実形
 62
     0
370
    18
100
AcDbLine
 10
852.7702104998825
 20
1036.915758957679
 30
0.0
 11
1632.770210499882
 21
1036.915758957679
 31
0.0
  0
MTEXT
  5
7F1A
330
7F15
100
AcDbEntity
  8
実形
 62
     0
100
AcDbMText
 10
1589.171363804602
 20
1058.515758957679
 30
0.0
 40
25.0
 41
0.0
 71
     5
 72
     1
  1
20
 73
     1
 44
1.0
1001
ACAD
1000
MTEXTBEGIN
1070
    73
1070
     1
1070
    44
1040
1.0
1070
    74
1070
     0
1000
MTEXTEND
  0
INSERT
  5
7F1B
330
7F15
100
AcDbEntity
  8
実形
 62
     0
370
    18
100
AcDbBlockReference
  2
_Dot
 10
842.7702104998825
 20
1036.915758957679
 30
0.0
 41
10.0
 42
10.0
 43
10.0
 50
180.0
  0
INSERT
  5
7F1C
330
7F15
100
AcDbEntity
  8
実形
 62
     0
370
    18
100
AcDbBlockReference
  2
_Dot
 10
1642.770210499882
 20
1036.915758957679
 30
0.0
 41
10.0
 42
10.0
 43
10.0
  0
POINT
  5
7F1D
330
7F15
100
AcDbEntity
  8
Defpoints
 62
     0
100
AcDbPoint
 10
842.7702104998825
 20
1169.178460662066
 30
0.0
  0
POINT
  5
7F1E
330
7F15
100
AcDbEntity
  8
Defpoints
 62
     0
100
AcDbPoint
 10
1642.770210499882
 20
1169.178460662066
 30
0.0
  0
POINT
  5
7F1F
330
7F15
100
AcDbEntity
  8
Defpoints
 62
     0
100
AcDbPoint
 10
1642.770210499882
 20
1036.915758957679
 30
0.0
  0
ENDBLK
  5
7F20
330
7F15
100
AcDbEntity
  8
0
 62
     3
100
AcDbBlockEnd
  0
BLOCK
  5
7F22
330
7F21
100
AcDbEntity
  8
0
 62
     3
100
AcDbBlockBegin
  2
*D30
 70
     1
 10
0.0
 20
0.0
 30
0.0
  3
*D30
  1

  0
LINE
  5
7F23
330
7F21
100
AcDbEntity
  8
実形
 62
     0
370
    18
100
AcDbLine
 10
842.7702104998825
 20
1104.178460662066
 30
0.0
 11
842.7702104998825
 21
974.5052716017053
 31
0.0
  0
LINE
  5
7F24
330
7F21
100
AcDbEntity
  8
実形
 62
     0
370
    18
100
AcDbLine
 10
1642.770210499882
 20
1104.178460662066
 30
0.0
 11
1642.770210499882
 21
974.5052716017053
 31
0.0
  0
LINE
  5
7F25
330
7F21
100
AcDbEntity
  8
実形
 62
     0
370
    18
100
AcDbLine
 10
852.7702104998825
 20
974.5052716017053
 30
0.0
 11
1632.770210499882
 21
974.5052716017053
 31
0.0
  0
INSERT
  5
7F26
330
7F21
100
AcDbEntity
  8
実形
 62
     0
370
    18
100
AcDbBlockReference
  2
_Dot
 10
842.7702104998825
 20
974.5052716017053
 30
0.0
 41
10.0
 42
10.0
 43
10.0
 50
180.0
  0
INSERT
  5
7F27
330
7F21
100
AcDbEntity
  8
実形
 62
     0
370
    18
100
AcDbBlockReference
  2
_Dot
 10
1642.770210499882
 20
974.5052716017053
 30
0.0
 41
10.0
 42
10.0
 43
10.0
  0
MTEXT
  5
7F28
330
7F21
100
AcDbEntity
  8
実形
 62
     0
100
AcDbMText
 10
1242.770210499882
 20
993.6052716017053
 30
0.0
 40
25.0
 41
0.0
 71
     5
 72
     1
  1
800
 73
     1
 44
1.0
1001
ACAD
1000
MTEXTBEGIN
1070
    73
1070
     1
1070
    44
1040
1.0
1070
    74
1070
     0
1000
MTEXTEND
  0
POINT
  5
7F29
330
7F21
100
AcDbEntity
  8
Defpoints
 62
     0
100
AcDbPoint
 10
842.7702104998825
 20
1169.178460662066
 30
0.0
  0
POINT
  5
7F2A
330
7F21
100
AcDbEntity
  8
Defpoints
 62
     0
100
AcDbPoint
 10
1642.770210499882
 20
1169.178460662066
 30
0.0
  0
POINT
  5
7F2B
330
7F21
100
AcDbEntity
  8
Defpoints
 62
     0
100
AcDbPoint
 10
1642.770210499882
 20
974.5052716017053
 30
0.0
  0
ENDBLK
  5
7F2C
330
7F21
100
AcDbEntity
  8
0
 62
     3
100
AcDbBlockEnd
  0
BLOCK
  5
7F2E
330
7F2D
100
AcDbEntity
  8
0
 62
     3
100
AcDbBlockBegin
  2
*D31
 70
     1
 10
0.0
 20
0.0
 30
0.0
  3
*D31
  1

  0
LINE
  5
7F2F
330
7F2D
100
AcDbEntity
  8
実形
 62
     0
370
    18
100
AcDbLine
 10
827.7702104998825
 20
1104.178460662066
 30
0.0
 11
827.7702104998825
 21
974.5052716017053
 31
0.0
  0
LINE
  5
7F30
330
7F2D
100
AcDbEntity
  8
実形
 62
     0
370
    18
100
AcDbLine
 10
1657.770210499882
 20
1104.178460662066
 30
0.0
 11
1657.770210499882
 21
974.5052716017053
 31
0.0
  0
LINE
  5
7F31
330
7F2D
100
AcDbEntity
  8
実形
 62
     0
370
    18
100
AcDbLine
 10
837.7702104998824
 20
974.5052716017053
 30
0.0
 11
1647.770210499882
 21
974.5052716017053
 31
0.0
  0
MTEXT
  5
7F32
330
7F2D
100
AcDbEntity
  8
実形
 62
     0
100
AcDbMText
 10
1701.559743854428
 20
996.1052716017052
 30
0.0
 40
25.0
 41
0.0
 71
     5
 72
     1
  1
15
 73
     1
 44
1.0
1001
ACAD
1000
MTEXTBEGIN
1070
    73
1070
     1
1070
    44
1040
1.0
1070
    74
1070
     0
1000
MTEXTEND
  0
INSERT
  5
7F33
330
7F2D
100
AcDbEntity
  8
実形
 62
     0
370
    18
100
AcDbBlockReference
  2
_Dot
 10
827.7702104998825
 20
974.5052716017053
 30
0.0
 41
10.0
 42
10.0
 43
10.0
 50
180.0
  0
INSERT
  5
7F34
330
7F2D
100
AcDbEntity
  8
実形
 62
     0
370
    18
100
AcDbBlockReference
  2
_Dot
 10
1657.770210499882
 20
974.5052716017053
 30
0.0
 41
10.0
 42
10.0
 43
10.0
  0
POINT
  5
7F35
330
7F2D
100
AcDbEntity
  8
Defpoints
 62
     0
100
AcDbPoint
 10
827.7702104998825
 20
1169.178460662066
 30
0.0
  0
POINT
  5
7F36
330
7F2D
100
AcDbEntity
  8
Defpoints
 62
     0
100
AcDbPoint
 10
1657.770210499882
 20
1169.178460662066
 30
0.0
  0
POINT
  5
7F37
330
7F2D
100
AcDbEntity
  8
Defpoints
 62
     0
100
AcDbPoint
 10
1657.770210499882
 20
974.5052716017053
 30
0.0
  0
ENDBLK
  5
7F38
330
7F2D
100
AcDbEntity
  8
0
 62
     3
100
AcDbBlockEnd
  0
BLOCK
  5
7F3A
330
7F39
100
AcDbEntity
  8
0
 62
     3
100
AcDbBlockBegin
  2
*D32
 70
     1
 10
0.0
 20
0.0
 30
0.0
  3
*D32
  1

  0
LINE
  5
7F3B
330
7F39
100
AcDbEntity
  8
実形
 62
     0
370
    18
100
AcDbLine
 10
827.7702104998825
 20
1104.178460662066
 30
0.0
 11
827.7702104998825
 21
901.2836911315535
 31
0.0
  0
LINE
  5
7F3C
330
7F39
100
AcDbEntity
  8
実形
 62
     0
370
    18
100
AcDbLine
 10
1657.770210499882
 20
1104.178460662066
 30
0.0
 11
1657.770210499882
 21
901.2836911315535
 31
0.0
  0
LINE
  5
7F3D
330
7F39
100
AcDbEntity
  8
実形
 62
     0
370
    18
100
AcDbLine
 10
837.7702104998824
 20
901.2836911315535
 30
0.0
 11
1647.770210499882
 21
901.2836911315535
 31
0.0
  0
INSERT
  5
7F3E
330
7F39
100
AcDbEntity
  8
実形
 62
     0
370
    18
100
AcDbBlockReference
  2
_Dot
 10
827.7702104998825
 20
901.2836911315535
 30
0.0
 41
10.0
 42
10.0
 43
10.0
 50
180.0
  0
INSERT
  5
7F3F
330
7F39
100
AcDbEntity
  8
実形
 62
     0
370
    18
100
AcDbBlockReference
  2
_Dot
 10
1657.770210499882
 20
901.2836911315535
 30
0.0
 41
10.0
 42
10.0
 43
10.0
  0
MTEXT
  5
7F40
330
7F39
100
AcDbEntity
  8
実形
 62
     0
100
AcDbMText
 10
1242.770210499882
 20
920.3836911315535
 30
0.0
 40
25.0
 41
0.0
 71
     5
 72
     1
  1
830
 73
     1
 44
1.0
1001
ACAD
1000
MTEXTBEGIN
1070
    73
1070
     1
1070
    44
1040
1.0
1070
    74
1070
     0
1000
MTEXTEND
  0
POINT
  5
7F41
330
7F39
100
AcDbEntity
  8
Defpoints
 62
     0
100
AcDbPoint
 10
827.7702104998825
 20
1169.178460662066
 30
0.0
  0
POINT
  5
7F42
330
7F39
100
AcDbEntity
  8
Defpoints
 62
     0
100
AcDbPoint
 10
1657.770210499882
 20
1169.178460662066
 30
0.0
  0
POINT
  5
7F43
330
7F39
100
AcDbEntity
  8
Defpoints
 62
     0
100
AcDbPoint
 10
1657.770210499882
 20
901.2836911315535
 30
0.0
  0
ENDBLK
  5
7F44
330
7F39
100
AcDbEntity
  8
0
 62
     3
100
AcDbBlockEnd
  0
BLOCK
  5
7F46
330
7F45
100
AcDbEntity
  8
0
 62
     3
100
AcDbBlockBegin
  2
*D33
 70
     1
 10
0.0
 20
0.0
 30
0.0
  3
*D33
  1

  0
LINE
  5
7F47
330
7F45
100
AcDbEntity
  8
実形
 62
     0
370
    18
100
AcDbLine
 10
852.0693431839134
 20
-167.3860966284574
 30
0.0
 11
797.3710940401326
 21
-167.3860966284573
 31
0.0
  0
LINE
  5
7F48
330
7F45
100
AcDbEntity
  8
実形
 62
     0
370
    18
100
AcDbLine
 10
852.0693431839132
 20
-367.3860966284573
 30
0.0
 11
797.3710940401324
 21
-367.3860966284573
 31
0.0
  0
LINE
  5
7F49
330
7F45
100
AcDbEntity
  8
実形
 62
     0
370
    18
100
AcDbLine
 10
797.3710940401326
 20
-177.3860966284573
 30
0.0
 11
797.3710940401324
 21
-357.3860966284573
 31
0.0
  0
INSERT
  5
7F4A
330
7F45
100
AcDbEntity
  8
実形
 62
     0
370
    18
100
AcDbBlockReference
  2
_Dot
 10
797.3710940401326
 20
-167.3860966284573
 30
0.0
 41
10.0
 42
10.0
 43
10.0
 50
90.0
  0
INSERT
  5
7F4B
330
7F45
100
AcDbEntity
  8
実形
 62
     0
370
    18
100
AcDbBlockReference
  2
_Dot
 10
797.3710940401324
 20
-367.3860966284573
 30
0.0
 41
10.0
 42
10.0
 43
10.0
 50
270.0
  0
MTEXT
  5
7F4C
330
7F45
100
AcDbEntity
  8
実形
 62
     0
100
AcDbMText
 10
778.2710940401325
 20
-267.3860966284572
 30
0.0
 40
25.0
 41
0.0
 71
     5
 72
     1
  1
200
 11
0.0000000000000001
 21
1.0
 31
0.0
 73
     1
 44
1.0
1001
ACAD
1000
MTEXTBEGIN
1070
    73
1070
     1
1070
    44
1040
1.0
1070
    74
1070
     0
1000
MTEXTEND
  0
POINT
  5
7F4D
330
7F45
100
AcDbEntity
  8
Defpoints
 62
     0
100
AcDbPoint
 10
917.0693431839135
 20
-167.3860966284574
 30
0.0
  0
POINT
  5
7F4E
330
7F45
100
AcDbEntity
  8
Defpoints
 62
     0
100
AcDbPoint
 10
917.0693431839133
 20
-367.3860966284574
 30
0.0
  0
POINT
  5
7F4F
330
7F45
100
AcDbEntity
  8
Defpoints
 62
     0
100
AcDbPoint
 10
797.3710940401324
 20
-367.3860966284573
 30
0.0
  0
ENDBLK
  5
7F50
330
7F45
100
AcDbEntity
  8
0
 62
     3
100
AcDbBlockEnd
  0
BLOCK
  5
7F52
330
7F51
100
AcDbEntity
  8
0
 62
     3
100
AcDbBlockBegin
  2
*D34
 70
     1
 10
0.0
 20
0.0
 30
0.0
  3
*D34
  1

  0
LINE
  5
7F53
330
7F51
100
AcDbEntity
  8
実形
 62
     0
370
    18
100
AcDbLine
 10
852.0693431839136
 20
-152.3860966284574
 30
0.0
 11
797.3710940401326
 21
-152.3860966284573
 31
0.0
  0
LINE
  5
7F54
330
7F51
100
AcDbEntity
  8
実形
 62
     0
370
    18
100
AcDbLine
 10
852.0693431839136
 20
-382.3860966284573
 30
0.0
 11
797.3710940401324
 21
-382.3860966284573
 31
0.0
  0
LINE
  5
7F55
330
7F51
100
AcDbEntity
  8
実形
 62
     0
370
    18
100
AcDbLine
 10
797.3710940401326
 20
-162.3860966284573
 30
0.0
 11
797.3710940401324
 21
-372.3860966284573
 31
0.0
  0
MTEXT
  5
7F56
330
7F51
100
AcDbEntity
  8
実形
 62
     0
100
AcDbMText
 10
775.7710940401323
 20
-176.4675834353729
 30
0.0
 40
25.0
 41
0.0
 71
     5
 72
     1
  1
15
 11
0.0000000000000001
 21
1.0
 31
0.0
 73
     1
 44
1.0
1001
ACAD
1000
MTEXTBEGIN
1070
    73
1070
     1
1070
    44
1040
1.0
1070
    74
1070
     0
1000
MTEXTEND
  0
INSERT
  5
7F57
330
7F51
100
AcDbEntity
  8
実形
 62
     0
370
    18
100
AcDbBlockReference
  2
_Dot
 10
797.3710940401326
 20
-152.3860966284573
 30
0.0
 41
10.0
 42
10.0
 43
10.0
 50
90.0
  0
INSERT
  5
7F58
330
7F51
100
AcDbEntity
  8
実形
 62
     0
370
    18
100
AcDbBlockReference
  2
_Dot
 10
797.3710940401324
 20
-382.3860966284573
 30
0.0
 41
10.0
 42
10.0
 43
10.0
 50
270.0
  0
POINT
  5
7F59
330
7F51
100
AcDbEntity
  8
Defpoints
 62
     0
100
AcDbPoint
 10
917.0693431839136
 20
-152.3860966284574
 30
0.0
  0
POINT
  5
7F5A
330
7F51
100
AcDbEntity
  8
Defpoints
 62
     0
100
AcDbPoint
 10
917.0693431839136
 20
-382.3860966284574
 30
0.0
  0
POINT
  5
7F5B
330
7F51
100
AcDbEntity
  8
Defpoints
 62
     0
100
AcDbPoint
 10
797.3710940401324
 20
-382.3860966284573
 30
0.0
  0
ENDBLK
  5
7F5C
330
7F51
100
AcDbEntity
  8
0
 62
     3
100
AcDbBlockEnd
  0
BLOCK
  5
7F5E
330
7F5D
100
AcDbEntity
  8
0
 62
     3
100
AcDbBlockBegin
  2
*D35
 70
     1
 10
0.0
 20
0.0
 30
0.0
  3
*D35
  1

  0
LINE
  5
7F5F
330
7F5D
100
AcDbEntity
  8
実形
 62
     0
370
    18
100
AcDbLine
 10
852.0693431839136
 20
-392.3860966284573
 30
0.0
 11
797.3710940401323
 21
-392.3860966284573
 31
0.0
  0
LINE
  5
7F60
330
7F5D
100
AcDbEntity
  8
実形
 62
     0
370
    18
100
AcDbLine
 10
852.0693431839136
 20
-152.3860966284574
 30
0.0
 11
797.3710940401324
 21
-152.3860966284573
 31
0.0
  0
LINE
  5
7F61
330
7F5D
100
AcDbEntity
  8
実形
 62
     0
370
    18
100
AcDbLine
 10
797.3710940401323
 20
-382.3860966284573
 30
0.0
 11
797.3710940401324
 21
-162.3860966284573
 31
0.0
  0
MTEXT
  5
7F62
330
7F5D
100
AcDbEntity
  8
実形
 62
     0
100
AcDbMText
 10
830.355261679284
 20
-411.1966776303161
 30
0.0
 40
25.0
 41
0.0
 71
     5
 72
     1
  1
8
 11
0.0000000000000001
 21
1.0
 31
0.0
 73
     1
 44
1.0
1001
ACAD
1000
MTEXTBEGIN
1070
    73
1070
     1
1070
    44
1040
1.0
1070
    74
1070
     0
1000
MTEXTEND
  0
INSERT
  5
7F63
330
7F5D
100
AcDbEntity
  8
実形
 62
     0
370
    18
100
AcDbBlockReference
  2
_Dot
 10
797.3710940401323
 20
-392.3860966284573
 30
0.0
 41
10.0
 42
10.0
 43
10.0
 50
270.0
  0
INSERT
  5
7F64
330
7F5D
100
AcDbEntity
  8
実形
 62
     0
370
    18
100
AcDbBlockReference
  2
_Dot
 10
797.3710940401324
 20
-152.3860966284573
 30
0.0
 41
10.0
 42
10.0
 43
10.0
 50
90.0
  0
POINT
  5
7F65
330
7F5D
100
AcDbEntity
  8
Defpoints
 62
     0
100
AcDbPoint
 10
917.0693431839136
 20
-392.3860966284574
 30
0.0
  0
POINT
  5
7F66
330
7F5D
100
AcDbEntity
  8
Defpoints
 62
     0
100
AcDbPoint
 10
917.0693431839136
 20
-152.3860966284574
 30
0.0
  0
POINT
  5
7F67
330
7F5D
100
AcDbEntity
  8
Defpoints
 62
     0
100
AcDbPoint
 10
797.3710940401324
 20
-152.3860966284573
 30
0.0
  0
ENDBLK
  5
7F68
330
7F5D
100
AcDbEntity
  8
0
 62
     3
100
AcDbBlockEnd
  0
BLOCK
  5
7F6A
330
7F69
100
AcDbEntity
  8
0
 62
     3
100
AcDbBlockBegin
  2
*D36
 70
     1
 10
0.0
 20
0.0
 30
0.0
  3
*D36
  1

  0
LINE
  5
7F6B
330
7F69
100
AcDbEntity
  8
実形
 62
     0
370
    18
100
AcDbLine
 10
852.0693431839136
 20
-152.3860966284574
 30
0.0
 11
727.6013470322833
 21
-152.3860966284573
 31
0.0
  0
LINE
  5
7F6C
330
7F69
100
AcDbEntity
  8
実形
 62
     0
370
    18
100
AcDbLine
 10
852.0693431839134
 20
-382.3860966284573
 30
0.0
 11
727.6013470322832
 21
-382.3860966284573
 31
0.0
  0
LINE
  5
7F6D
330
7F69
100
AcDbEntity
  8
実形
 62
     0
370
    18
100
AcDbLine
 10
727.6013470322833
 20
-162.3860966284573
 30
0.0
 11
727.6013470322832
 21
-372.3860966284573
 31
0.0
  0
INSERT
  5
7F6E
330
7F69
100
AcDbEntity
  8
実形
 62
     0
370
    18
100
AcDbBlockReference
  2
_Dot
 10
727.6013470322833
 20
-152.3860966284573
 30
0.0
 41
10.0
 42
10.0
 43
10.0
 50
90.0
  0
INSERT
  5
7F6F
330
7F69
100
AcDbEntity
  8
実形
 62
     0
370
    18
100
AcDbBlockReference
  2
_Dot
 10
727.6013470322832
 20
-382.3860966284573
 30
0.0
 41
10.0
 42
10.0
 43
10.0
 50
270.0
  0
MTEXT
  5
7F70
330
7F69
100
AcDbEntity
  8
実形
 62
     0
100
AcDbMText
 10
708.5013470322833
 20
-267.3860966284572
 30
0.0
 40
25.0
 41
0.0
 71
     5
 72
     1
  1
230
 11
0.0000000000000001
 21
1.0
 31
0.0
 73
     1
 44
1.0
1001
ACAD
1000
MTEXTBEGIN
1070
    73
1070
     1
1070
    44
1040
1.0
1070
    74
1070
     0
1000
MTEXTEND
  0
POINT
  5
7F71
330
7F69
100
AcDbEntity
  8
Defpoints
 62
     0
100
AcDbPoint
 10
917.0693431839136
 20
-152.3860966284574
 30
0.0
  0
POINT
  5
7F72
330
7F69
100
AcDbEntity
  8
Defpoints
 62
     0
100
AcDbPoint
 10
917.0693431839135
 20
-382.3860966284574
 30
0.0
  0
POINT
  5
7F73
330
7F69
100
AcDbEntity
  8
Defpoints
 62
     0
100
AcDbPoint
 10
727.6013470322832
 20
-382.3860966284573
 30
0.0
  0
ENDBLK
  5
7F74
330
7F69
100
AcDbEntity
  8
0
 62
     3
100
AcDbBlockEnd
  0
BLOCK
  5
7F76
330
7F75
100
AcDbEntity
  8
0
 62
     3
100
AcDbBlockBegin
  2
*D37
 70
     1
 10
0.0
 20
0.0
 30
0.0
  3
*D37
  1

  0
LINE
  5
7F77
330
7F75
100
AcDbEntity
  8
実形
 62
     0
370
    18
100
AcDbLine
 10
728.6814961412001
 20
-152.3860966284574
 30
0.0
 11
660.6927293655045
 21
-152.3860966284573
 31
0.0
  0
LINE
  5
7F78
330
7F75
100
AcDbEntity
  8
実形
 62
     0
370
    18
100
AcDbLine
 10
728.6814961412
 20
-392.3860966284574
 30
0.0
 11
660.6927293655044
 21
-392.3860966284574
 31
0.0
  0
LINE
  5
7F79
330
7F75
100
AcDbEntity
  8
実形
 62
     0
370
    18
100
AcDbLine
 10
660.6927293655045
 20
-162.3860966284573
 30
0.0
 11
660.6927293655044
 21
-382.3860966284574
 31
0.0
  0
INSERT
  5
7F7A
330
7F75
100
AcDbEntity
  8
実形
 62
     0
370
    18
100
AcDbBlockReference
  2
_Dot
 10
660.6927293655045
 20
-152.3860966284573
 30
0.0
 41
10.0
 42
10.0
 43
10.0
 50
90.0
  0
INSERT
  5
7F7B
330
7F75
100
AcDbEntity
  8
実形
 62
     0
370
    18
100
AcDbBlockReference
  2
_Dot
 10
660.6927293655044
 20
-392.3860966284574
 30
0.0
 41
10.0
 42
10.0
 43
10.0
 50
270.0
  0
MTEXT
  5
7F7C
330
7F75
100
AcDbEntity
  8
実形
 62
     0
100
AcDbMText
 10
641.5927293655045
 20
-272.3860966284572
 30
0.0
 40
25.0
 41
0.0
 71
     5
 72
     1
  1
238
 11
0.0000000000000001
 21
1.0
 31
0.0
 73
     1
 44
1.0
1001
ACAD
1000
MTEXTBEGIN
1070
    73
1070
     1
1070
    44
1040
1.0
1070
    74
1070
     0
1000
MTEXTEND
  0
POINT
  5
7F7D
330
7F75
100
AcDbEntity
  8
Defpoints
 62
     0
100
AcDbPoint
 10
793.6814961412001
 20
-152.3860966284574
 30
0.0
  0
POINT
  5
7F7E
330
7F75
100
AcDbEntity
  8
Defpoints
 62
     0
100
AcDbPoint
 10
793.6814961411999
 20
-392.3860966284574
 30
0.0
  0
POINT
  5
7F7F
330
7F75
100
AcDbEntity
  8
Defpoints
 62
     0
100
AcDbPoint
 10
660.6927293655044
 20
-392.3860966284574
 30
0.0
  0
ENDBLK
  5
7F80
330
7F75
100
AcDbEntity
  8
0
 62
     3
100
AcDbBlockEnd
  0
BLOCK
  5
7F82
330
7F81
100
AcDbEntity
  8
0
 62
     3
100
AcDbBlockBegin
  2
*D38
 70
     1
 10
0.0
 20
0.0
 30
0.0
  3
*D38
  1

  0
LINE
  5
7F83
330
7F81
100
AcDbEntity
  8
実形
 62
     0
370
    18
100
AcDbLine
 10
1022.069343183913
 20
-457.3860966284574
 30
0.0
 11
1022.069343183913
 21
-509.3026951643151
 31
0.0
  0
LINE
  5
7F84
330
7F81
100
AcDbEntity
  8
実形
 62
     0
370
    18
100
AcDbLine
 10
1182.069343183914
 20
-457.3860966284574
 30
0.0
 11
1182.069343183914
 21
-509.3026951643151
 31
0.0
  0
LINE
  5
7F85
330
7F81
100
AcDbEntity
  8
実形
 62
     0
370
    18
100
AcDbLine
 10
1032.069343183913
 20
-509.3026951643151
 30
0.0
 11
1172.069343183913
 21
-509.3026951643151
 31
0.0
  0
INSERT
  5
7F86
330
7F81
100
AcDbEntity
  8
実形
 62
     0
370
    18
100
AcDbBlockReference
  2
_Dot
 10
1022.069343183913
 20
-509.3026951643151
 30
0.0
 41
10.0
 42
10.0
 43
10.0
 50
180.0
  0
INSERT
  5
7F87
330
7F81
100
AcDbEntity
  8
実形
 62
     0
370
    18
100
AcDbBlockReference
  2
_Dot
 10
1182.069343183914
 20
-509.3026951643151
 30
0.0
 41
10.0
 42
10.0
 43
10.0
  0
MTEXT
  5
7F88
330
7F81
100
AcDbEntity
  8
実形
 62
     0
100
AcDbMText
 10
1102.069343183913
 20
-490.202695164315
 30
0.0
 40
25.0
 41
0.0
 71
     5
 72
     1
  1
160
 73
     1
 44
1.0
1001
ACAD
1000
MTEXTBEGIN
1070
    73
1070
     1
1070
    44
1040
1.0
1070
    74
1070
     0
1000
MTEXTEND
  0
POINT
  5
7F89
330
7F81
100
AcDbEntity
  8
Defpoints
 62
     0
100
AcDbPoint
 10
1022.069343183913
 20
-392.3860966284575
 30
0.0
  0
POINT
  5
7F8A
330
7F81
100
AcDbEntity
  8
Defpoints
 62
     0
100
AcDbPoint
 10
1182.069343183914
 20
-392.3860966284575
 30
0.0
  0
POINT
  5
7F8B
330
7F81
100
AcDbEntity
  8
Defpoints
 62
     0
100
AcDbPoint
 10
1182.069343183914
 20
-509.3026951643151
 30
0.0
  0
ENDBLK
  5
7F8C
330
7F81
100
AcDbEntity
  8
0
 62
     3
100
AcDbBlockEnd
  0
BLOCK
  5
7F8E
330
7F8D
100
AcDbEntity
  8
0
 62
     3
100
AcDbBlockBegin
  2
*D39
 70
     1
 10
0.0
 20
0.0
 30
0.0
  3
*D39
  1

  0
LINE
  5
7F8F
330
7F8D
100
AcDbEntity
  8
実形
 62
     0
370
    18
100
AcDbLine
 10
1011.569343183913
 20
-457.3860966284574
 30
0.0
 11
1011.569343183913
 21
-580.5449919795919
 31
0.0
  0
LINE
  5
7F90
330
7F8D
100
AcDbEntity
  8
実形
 62
     0
370
    18
100
AcDbLine
 10
1192.569343183913
 20
-457.3860966284616
 30
0.0
 11
1192.569343183913
 21
-580.5449919795919
 31
0.0
  0
LINE
  5
7F91
330
7F8D
100
AcDbEntity
  8
実形
 62
     0
370
    18
100
AcDbLine
 10
1021.569343183913
 20
-580.5449919795919
 30
0.0
 11
1182.569343183913
 21
-580.5449919795919
 31
0.0
  0
INSERT
  5
7F92
330
7F8D
100
AcDbEntity
  8
実形
 62
     0
370
    18
100
AcDbBlockReference
  2
_Dot
 10
1011.569343183913
 20
-580.5449919795919
 30
0.0
 41
10.0
 42
10.0
 43
10.0
 50
180.0
  0
INSERT
  5
7F93
330
7F8D
100
AcDbEntity
  8
実形
 62
     0
370
    18
100
AcDbBlockReference
  2
_Dot
 10
1192.569343183913
 20
-580.5449919795919
 30
0.0
 41
10.0
 42
10.0
 43
10.0
  0
MTEXT
  5
7F94
330
7F8D
100
AcDbEntity
  8
実形
 62
     0
100
AcDbMText
 10
1102.069343183913
 20
-561.4449919795919
 30
0.0
 40
25.0
 41
0.0
 71
     5
 72
     1
  1
181
 73
     1
 44
1.0
1001
ACAD
1000
MTEXTBEGIN
1070
    73
1070
     1
1070
    44
1040
1.0
1070
    74
1070
     0
1000
MTEXTEND
  0
POINT
  5
7F95
330
7F8D
100
AcDbEntity
  8
Defpoints
 62
     0
100
AcDbPoint
 10
1011.569343183913
 20
-392.3860966284575
 30
0.0
  0
POINT
  5
7F96
330
7F8D
100
AcDbEntity
  8
Defpoints
 62
     0
100
AcDbPoint
 10
1192.569343183913
 20
-392.3860966284617
 30
0.0
  0
POINT
  5
7F97
330
7F8D
100
AcDbEntity
  8
Defpoints
 62
     0
100
AcDbPoint
 10
1192.569343183913
 20
-580.5449919795919
 30
0.0
  0
ENDBLK
  5
7F98
330
7F8D
100
AcDbEntity
  8
0
 62
     3
100
AcDbBlockEnd
  0
BLOCK
  5
7F9A
330
7F99
100
AcDbEntity
  8
0
 62
     3
100
AcDbBlockBegin
  2
*D40
 70
     1
 10
0.0
 20
0.0
 30
0.0
  3
*D40
  1

  0
LINE
  5
7F9B
330
7F99
100
AcDbEntity
  8
実形
 62
     0
370
    18
100
AcDbLine
 10
1094.538117598124
 20
1554.178460662066
 30
0.0
 11
1043.45634594854
 21
1554.178460662066
 31
0.0
  0
LINE
  5
7F9C
330
7F99
100
AcDbEntity
  8
実形
 62
     0
370
    18
100
AcDbLine
 10
1091.209930106677
 20
1404.178460662066
 30
0.0
 11
1043.456345948539
 21
1404.178460662066
 31
0.0
  0
LINE
  5
7F9D
330
7F99
100
AcDbEntity
  8
実形
 62
     0
370
    18
100
AcDbLine
 10
1043.45634594854
 20
1544.178460662066
 30
0.0
 11
1043.456345948539
 21
1414.178460662066
 31
0.0
  0
INSERT
  5
7F9E
330
7F99
100
AcDbEntity
  8
実形
 62
     0
370
    18
100
AcDbBlockReference
  2
_Dot
 10
1043.45634594854
 20
1554.178460662066
 30
0.0
 41
10.0
 42
10.0
 43
10.0
 50
90.0
  0
INSERT
  5
7F9F
330
7F99
100
AcDbEntity
  8
実形
 62
     0
370
    18
100
AcDbBlockReference
  2
_Dot
 10
1043.456345948539
 20
1404.178460662066
 30
0.0
 41
10.0
 42
10.0
 43
10.0
 50
270.0
  0
MTEXT
  5
7FA0
330
7F99
100
AcDbEntity
  8
実形
 62
     0
100
AcDbMText
 10
1021.856345948539
 20
1479.178460662066
 30
0.0
 40
30.0
 41
0.0
 71
     5
 72
     1
  1
150
 11
0.0000000000000001
 21
1.0
 31
0.0
 73
     1
 44
1.0
1001
ACAD
1000
MTEXTBEGIN
1070
    73
1070
     1
1070
    44
1040
1.0
1070
    74
1070
     0
1000
MTEXTEND
  0
POINT
  5
7FA1
330
7F99
100
AcDbEntity
  8
Defpoints
 62
     0
100
AcDbPoint
 10
1159.538117598124
 20
1554.178460662066
 30
0.0
  0
POINT
  5
7FA2
330
7F99
100
AcDbEntity
  8
Defpoints
 62
     0
100
AcDbPoint
 10
1156.209930106677
 20
1404.178460662066
 30
0.0
  0
POINT
  5
7FA3
330
7F99
100
AcDbEntity
  8
Defpoints
 62
     0
100
AcDbPoint
 10
1043.456345948539
 20
1404.178460662066
 30
0.0
  0
ENDBLK
  5
7FA4
330
7F99
100
AcDbEntity
  8
0
 62
     3
100
AcDbBlockEnd
  0
BLOCK
  5
7FA6
330
7FA5
100
AcDbEntity
  8
0
 62
     3
100
AcDbBlockBegin
  2
*D41
 70
     1
 10
0.0
 20
0.0
 30
0.0
  3
*D41
  1

  0
LINE
  5
7FA7
330
7FA5
100
AcDbEntity
  8
実形
 62
     0
370
    18
100
AcDbLine
 10
1242.770210499882
 20
1300.740901717254
 30
0.0
 11
1242.770210499882
 21
1270.994834284402
 31
0.0
  0
LINE
  5
7FA8
330
7FA5
100
AcDbEntity
  8
実形
 62
     0
370
    18
100
AcDbLine
 10
1622.770210499882
 20
1300.740901717254
 30
0.0
 11
1622.770210499882
 21
1270.994834284402
 31
0.0
  0
LINE
  5
7FA9
330
7FA5
100
AcDbEntity
  8
実形
 62
     0
370
    18
100
AcDbLine
 10
1252.770210499882
 20
1270.994834284402
 30
0.0
 11
1612.770210499882
 21
1270.994834284402
 31
0.0
  0
INSERT
  5
7FAA
330
7FA5
100
AcDbEntity
  8
実形
 62
     0
370
    18
100
AcDbBlockReference
  2
_Dot
 10
1242.770210499882
 20
1270.994834284402
 30
0.0
 41
10.0
 42
10.0
 43
10.0
 50
180.0
  0
INSERT
  5
7FAB
330
7FA5
100
AcDbEntity
  8
実形
 62
     0
370
    18
100
AcDbBlockReference
  2
_Dot
 10
1622.770210499882
 20
1270.994834284402
 30
0.0
 41
10.0
 42
10.0
 43
10.0
  0
MTEXT
  5
7FAC
330
7FA5
100
AcDbEntity
  8
実形
 62
     0
100
AcDbMText
 10
1432.770210499882
 20
1292.594834284402
 30
0.0
 40
30.0
 41
0.0
 71
     5
 72
     1
  1
380
 73
     1
 44
1.0
1001
ACAD
1000
MTEXTBEGIN
1070
    73
1070
     1
1070
    44
1040
1.0
1070
    74
1070
     0
1000
MTEXTEND
  0
POINT
  5
7FAD
330
7FA5
100
AcDbEntity
  8
Defpoints
 62
     0
100
AcDbPoint
 10
1242.770210499882
 20
1365.740901717254
 30
0.0
  0
POINT
  5
7FAE
330
7FA5
100
AcDbEntity
  8
Defpoints
 62
     0
100
AcDbPoint
 10
1622.770210499882
 20
1365.740901717254
 30
0.0
  0
POINT
  5
7FAF
330
7FA5
100
AcDbEntity
  8
Defpoints
 62
     0
100
AcDbPoint
 10
1622.770210499882
 20
1270.994834284402
 30
0.0
  0
ENDBLK
  5
7FB0
330
7FA5
100
AcDbEntity
  8
0
 62
     3
100
AcDbBlockEnd
  0
BLOCK
  5
7FB2
330
7FB1
100
AcDbEntity
  8
0
 62
     3
100
AcDbBlockBegin
  2
*D42
 70
     1
 10
0.0
 20
0.0
 30
0.0
  3
*D42
  1

  0
LINE
  5
7FB3
330
7FB1
100
AcDbEntity
  8
実形
 62
     0
370
    18
100
AcDbLine
 10
842.7702104998823
 20
1689.178460662066
 30
0.0
 11
842.7702104998823
 21
1735.385472702717
 31
0.0
  0
LINE
  5
7FB4
330
7FB1
100
AcDbEntity
  8
実形
 62
     0
370
    18
100
AcDbLine
 10
1092.770210499882
 20
1689.178460662066
 30
0.0
 11
1092.770210499882
 21
1735.385472702717
 31
0.0
  0
LINE
  5
7FB5
330
7FB1
100
AcDbEntity
  8
実形
 62
     0
370
    18
100
AcDbLine
 10
852.7702104998823
 20
1735.385472702717
 30
0.0
 11
1082.770210499882
 21
1735.385472702717
 31
0.0
  0
INSERT
  5
7FB6
330
7FB1
100
AcDbEntity
  8
実形
 62
     0
370
    18
100
AcDbBlockReference
  2
_Dot
 10
842.7702104998823
 20
1735.385472702717
 30
0.0
 41
10.0
 42
10.0
 43
10.0
 50
180.0
  0
INSERT
  5
7FB7
330
7FB1
100
AcDbEntity
  8
実形
 62
     0
370
    18
100
AcDbBlockReference
  2
_Dot
 10
1092.770210499882
 20
1735.385472702717
 30
0.0
 41
10.0
 42
10.0
 43
10.0
  0
MTEXT
  5
7FB8
330
7FB1
100
AcDbEntity
  8
実形
 62
     0
100
AcDbMText
 10
967.7702104998825
 20
1754.485472702717
 30
0.0
 40
25.0
 41
0.0
 71
     5
 72
     1
  1
250
 73
     1
 44
1.0
1001
ACAD
1000
MTEXTBEGIN
1070
    73
1070
     1
1070
    44
1040
1.0
1070
    74
1070
     0
1000
MTEXTEND
  0
POINT
  5
7FB9
330
7FB1
100
AcDbEntity
  8
Defpoints
 62
     0
100
AcDbPoint
 10
842.7702104998823
 20
1624.178460662066
 30
0.0
  0
POINT
  5
7FBA
330
7FB1
100
AcDbEntity
  8
Defpoints
 62
     0
100
AcDbPoint
 10
1092.770210499882
 20
1624.178460662066
 30
0.0
  0
POINT
  5
7FBB
330
7FB1
100
AcDbEntity
  8
Defpoints
 62
     0
100
AcDbPoint
 10
1092.770210499882
 20
1735.385472702717
 30
0.0
  0
ENDBLK
  5
7FBC
330
7FB1
100
AcDbEntity
  8
0
 62
     3
100
AcDbBlockEnd
  0
BLOCK
  5
7FBE
330
7FBD
100
AcDbEntity
  8
0
 62
     3
100
AcDbBlockBegin
  2
*D43
 70
     1
 10
0.0
 20
0.0
 30
0.0
  3
*D43
  1

  0
LINE
  5
7FBF
330
7FBD
100
AcDbEntity
  8
実形
 62
     0
370
    18
100
AcDbLine
 10
1092.770210499882
 20
1689.178460662066
 30
0.0
 11
1092.770210499882
 21
1735.385472702717
 31
0.0
  0
LINE
  5
7FC0
330
7FBD
100
AcDbEntity
  8
実形
 62
     0
370
    18
100
AcDbLine
 10
1392.770210499882
 20
1689.178460662066
 30
0.0
 11
1392.770210499882
 21
1735.385472702717
 31
0.0
  0
LINE
  5
7FC1
330
7FBD
100
AcDbEntity
  8
実形
 62
     0
370
    18
100
AcDbLine
 10
1102.770210499882
 20
1735.385472702717
 30
0.0
 11
1382.770210499882
 21
1735.385472702717
 31
0.0
  0
INSERT
  5
7FC2
330
7FBD
100
AcDbEntity
  8
実形
 62
     0
370
    18
100
AcDbBlockReference
  2
_Dot
 10
1092.770210499882
 20
1735.385472702717
 30
0.0
 41
10.0
 42
10.0
 43
10.0
 50
180.0
  0
INSERT
  5
7FC3
330
7FBD
100
AcDbEntity
  8
実形
 62
     0
370
    18
100
AcDbBlockReference
  2
_Dot
 10
1392.770210499882
 20
1735.385472702717
 30
0.0
 41
10.0
 42
10.0
 43
10.0
  0
MTEXT
  5
7FC4
330
7FBD
100
AcDbEntity
  8
実形
 62
     0
100
AcDbMText
 10
1242.770210499882
 20
1754.485472702717
 30
0.0
 40
25.0
 41
0.0
 71
     5
 72
     1
  1
300
 73
     1
 44
1.0
1001
ACAD
1000
MTEXTBEGIN
1070
    73
1070
     1
1070
    44
1040
1.0
1070
    74
1070
     0
1000
MTEXTEND
  0
POINT
  5
7FC5
330
7FBD
100
AcDbEntity
  8
Defpoints
 62
     0
100
AcDbPoint
 10
1092.770210499882
 20
1624.178460662066
 30
0.0
  0
POINT
  5
7FC6
330
7FBD
100
AcDbEntity
  8
Defpoints
 62
     0
100
AcDbPoint
 10
1392.770210499882
 20
1624.178460662066
 30
0.0
  0
POINT
  5
7FC7
330
7FBD
100
AcDbEntity
  8
Defpoints
 62
     0
100
AcDbPoint
 10
1392.770210499882
 20
1735.385472702717
 30
0.0
  0
ENDBLK
  5
7FC8
330
7FBD
100
AcDbEntity
  8
0
 62
     3
100
AcDbBlockEnd
  0
BLOCK
  5
7FCA
330
7FC9
100
AcDbEntity
  8
0
 62
     3
100
AcDbBlockBegin
  2
*D44
 70
     1
 10
0.0
 20
0.0
 30
0.0
  3
*D44
  1

  0
LINE
  5
7FCB
330
7FC9
100
AcDbEntity
  8
実形
 62
     0
370
    18
100
AcDbLine
 10
1392.770210499883
 20
1689.178460662065
 30
0.0
 11
1392.770210499883
 21
1735.385472702717
 31
0.0
  0
LINE
  5
7FCC
330
7FC9
100
AcDbEntity
  8
実形
 62
     0
370
    18
100
AcDbLine
 10
1642.770210499882
 20
1689.178460662065
 30
0.0
 11
1642.770210499882
 21
1735.385472702717
 31
0.0
  0
LINE
  5
7FCD
330
7FC9
100
AcDbEntity
  8
実形
 62
     0
370
    18
100
AcDbLine
 10
1402.770210499882
 20
1735.385472702717
 30
0.0
 11
1632.770210499882
 21
1735.385472702717
 31
0.0
  0
INSERT
  5
7FCE
330
7FC9
100
AcDbEntity
  8
実形
 62
     0
370
    18
100
AcDbBlockReference
  2
_Dot
 10
1392.770210499883
 20
1735.385472702717
 30
0.0
 41
10.0
 42
10.0
 43
10.0
 50
180.0
  0
INSERT
  5
7FCF
330
7FC9
100
AcDbEntity
  8
実形
 62
     0
370
    18
100
AcDbBlockReference
  2
_Dot
 10
1642.770210499882
 20
1735.385472702717
 30
0.0
 41
10.0
 42
10.0
 43
10.0
  0
MTEXT
  5
7FD0
330
7FC9
100
AcDbEntity
  8
実形
 62
     0
100
AcDbMText
 10
1517.770210499882
 20
1754.485472702717
 30
0.0
 40
25.0
 41
0.0
 71
     5
 72
     1
  1
250
 73
     1
 44
1.0
1001
ACAD
1000
MTEXTBEGIN
1070
    73
1070
     1
1070
    44
1040
1.0
1070
    74
1070
     0
1000
MTEXTEND
  0
POINT
  5
7FD1
330
7FC9
100
AcDbEntity
  8
Defpoints
 62
     0
100
AcDbPoint
 10
1392.770210499883
 20
1624.178460662065
 30
0.0
  0
POINT
  5
7FD2
330
7FC9
100
AcDbEntity
  8
Defpoints
 62
     0
100
AcDbPoint
 10
1642.770210499882
 20
1624.178460662065
 30
0.0
  0
POINT
  5
7FD3
330
7FC9
100
AcDbEntity
  8
Defpoints
 62
     0
100
AcDbPoint
 10
1642.770210499882
 20
1735.385472702717
 30
0.0
  0
ENDBLK
  5
7FD4
330
7FC9
100
AcDbEntity
  8
0
 62
     3
100
AcDbBlockEnd
  0
BLOCK
  5
7FD6
330
7FD5
100
AcDbEntity
  8
0
 62
     3
100
AcDbBlockBegin
  2
*D45
 70
     1
 10
0.0
 20
0.0
 30
0.0
  3
*D45
  1

  0
LINE
  5
7FD7
330
7FD5
100
AcDbEntity
  8
実形
 62
     0
370
    18
100
AcDbLine
 10
827.7702104998825
 20
1689.806458158204
 30
0.0
 11
827.7702104998825
 21
1735.385472702717
 31
0.0
  0
LINE
  5
7FD8
330
7FD5
100
AcDbEntity
  8
実形
 62
     0
370
    18
100
AcDbLine
 10
1657.770210499882
 20
1689.161761419618
 30
0.0
 11
1657.770210499882
 21
1735.385472702717
 31
0.0
  0
LINE
  5
7FD9
330
7FD5
100
AcDbEntity
  8
実形
 62
     0
370
    18
100
AcDbLine
 10
837.7702104998824
 20
1735.385472702717
 30
0.0
 11
1647.770210499882
 21
1735.385472702717
 31
0.0
  0
MTEXT
  5
7FDA
330
7FD5
100
AcDbEntity
  8
実形
 62
     0
100
AcDbMText
 10
826.3182245476109
 20
1760.370517377699
 30
0.0
 40
25.0
 41
0.0
 71
     5
 72
     1
  1
15
 73
     1
 44
1.0
1001
ACAD
1000
MTEXTBEGIN
1070
    73
1070
     1
1070
    44
1040
1.0
1070
    74
1070
     0
1000
MTEXTEND
  0
INSERT
  5
7FDB
330
7FD5
100
AcDbEntity
  8
実形
 62
     0
370
    18
100
AcDbBlockReference
  2
_Dot
 10
827.7702104998825
 20
1735.385472702717
 30
0.0
 41
10.0
 42
10.0
 43
10.0
 50
180.0
  0
INSERT
  5
7FDC
330
7FD5
100
AcDbEntity
  8
実形
 62
     0
370
    18
100
AcDbBlockReference
  2
_Dot
 10
1657.770210499882
 20
1735.385472702717
 30
0.0
 41
10.0
 42
10.0
 43
10.0
  0
POINT
  5
7FDD
330
7FD5
100
AcDbEntity
  8
Defpoints
 62
     0
100
AcDbPoint
 10
827.7702104998825
 20
1624.806458158204
 30
0.0
  0
POINT
  5
7FDE
330
7FD5
100
AcDbEntity
  8
Defpoints
 62
     0
100
AcDbPoint
 10
1657.770210499882
 20
1624.161761419618
 30
0.0
  0
POINT
  5
7FDF
330
7FD5
100
AcDbEntity
  8
Defpoints
 62
     0
100
AcDbPoint
 10
1657.770210499882
 20
1735.385472702717
 30
0.0
  0
ENDBLK
  5
7FE0
330
7FD5
100
AcDbEntity
  8
0
 62
     3
100
AcDbBlockEnd
  0
BLOCK
  5
7FE2
330
7FE1
100
AcDbEntity
  8
0
 62
     3
100
AcDbBlockBegin
  2
*D46
 70
     1
 10
0.0
 20
0.0
 30
0.0
  3
*D46
  1

  0
LINE
  5
7FE3
330
7FE1
100
AcDbEntity
  8
実形
 62
     0
370
    18
100
AcDbLine
 10
1722.770210499882
 20
1644.178460662066
 30
0.0
 11
1771.093547640549
 21
1644.178460662066
 31
0.0
  0
LINE
  5
7FE4
330
7FE1
100
AcDbEntity
  8
実形
 62
     0
370
    18
100
AcDbLine
 10
1722.770210499882
 20
1184.178460662066
 30
0.0
 11
1771.093547640548
 21
1184.178460662066
 31
0.0
  0
LINE
  5
7FE5
330
7FE1
100
AcDbEntity
  8
実形
 62
     0
370
    18
100
AcDbLine
 10
1771.093547640549
 20
1634.178460662066
 30
0.0
 11
1771.093547640548
 21
1194.178460662066
 31
0.0
  0
INSERT
  5
7FE6
330
7FE1
100
AcDbEntity
  8
実形
 62
     0
370
    18
100
AcDbBlockReference
  2
_Dot
 10
1771.093547640549
 20
1644.178460662066
 30
0.0
 41
10.0
 42
10.0
 43
10.0
 50
90.0
  0
INSERT
  5
7FE7
330
7FE1
100
AcDbEntity
  8
実形
 62
     0
370
    18
100
AcDbBlockReference
  2
_Dot
 10
1771.093547640548
 20
1184.178460662066
 30
0.0
 41
10.0
 42
10.0
 43
10.0
 50
270.0
  0
MTEXT
  5
7FE8
330
7FE1
100
AcDbEntity
  8
実形
 62
     0
100
AcDbMText
 10
1751.993547640548
 20
1414.178460662066
 30
0.0
 40
25.0
 41
0.0
 71
     5
 72
     1
  1
460
 11
0.0000000000000001
 21
1.0
 31
0.0
 73
     1
 44
1.0
1001
ACAD
1000
MTEXTBEGIN
1070
    73
1070
     1
1070
    44
1040
1.0
1070
    74
1070
     0
1000
MTEXTEND
  0
POINT
  5
7FE9
330
7FE1
100
AcDbEntity
  8
Defpoints
 62
     0
100
AcDbPoint
 10
1657.770210499882
 20
1644.178460662066
 30
0.0
  0
POINT
  5
7FEA
330
7FE1
100
AcDbEntity
  8
Defpoints
 62
     0
100
AcDbPoint
 10
1657.770210499883
 20
1184.178460662066
 30
0.0
  0
POINT
  5
7FEB
330
7FE1
100
AcDbEntity
  8
Defpoints
 62
     0
100
AcDbPoint
 10
1771.093547640548
 20
1184.178460662066
 30
0.0
  0
ENDBLK
  5
7FEC
330
7FE1
100
AcDbEntity
  8
0
 62
     3
100
AcDbBlockEnd
  0
BLOCK
  5
7FEE
330
7FED
100
AcDbEntity
  8
0
 62
     3
100
AcDbBlockBegin
  2
*D47
 70
     1
 10
0.0
 20
0.0
 30
0.0
  3
*D47
  1

  0
LINE
  5
7FEF
330
7FED
100
AcDbEntity
  8
実形
 62
     0
370
    18
100
AcDbLine
 10
1722.770210499882
 20
1659.178460662066
 30
0.0
 11
1771.093547640549
 21
1659.178460662066
 31
0.0
  0
LINE
  5
7FF0
330
7FED
100
AcDbEntity
  8
実形
 62
     0
370
    18
100
AcDbLine
 10
1722.770210499882
 20
1169.178460662066
 30
0.0
 11
1771.093547640548
 21
1169.178460662066
 31
0.0
  0
LINE
  5
7FF1
330
7FED
100
AcDbEntity
  8
実形
 62
     0
370
    18
100
AcDbLine
 10
1771.093547640549
 20
1649.178460662066
 30
0.0
 11
1771.093547640548
 21
1179.178460662066
 31
0.0
  0
MTEXT
  5
7FF2
330
7FED
100
AcDbEntity
  8
実形
 62
     0
100
AcDbMText
 10
1749.493547640548
 20
1688.725599288342
 30
0.0
 40
25.0
 41
0.0
 71
     5
 72
     1
  1
15
 11
0.0000000000000001
 21
1.0
 31
0.0
 73
     1
 44
1.0
1001
ACAD
1000
MTEXTBEGIN
1070
    73
1070
     1
1070
    44
1040
1.0
1070
    74
1070
     0
1000
MTEXTEND
  0
INSERT
  5
7FF3
330
7FED
100
AcDbEntity
  8
実形
 62
     0
370
    18
100
AcDbBlockReference
  2
_Dot
 10
1771.093547640549
 20
1659.178460662066
 30
0.0
 41
10.0
 42
10.0
 43
10.0
 50
90.0
  0
INSERT
  5
7FF4
330
7FED
100
AcDbEntity
  8
実形
 62
     0
370
    18
100
AcDbBlockReference
  2
_Dot
 10
1771.093547640548
 20
1169.178460662066
 30
0.0
 41
10.0
 42
10.0
 43
10.0
 50
270.0
  0
POINT
  5
7FF5
330
7FED
100
AcDbEntity
  8
Defpoints
 62
     0
100
AcDbPoint
 10
1657.770210499882
 20
1659.178460662066
 30
0.0
  0
POINT
  5
7FF6
330
7FED
100
AcDbEntity
  8
Defpoints
 62
     0
100
AcDbPoint
 10
1657.770210499882
 20
1169.178460662066
 30
0.0
  0
POINT
  5
7FF7
330
7FED
100
AcDbEntity
  8
Defpoints
 62
     0
100
AcDbPoint
 10
1771.093547640548
 20
1169.178460662066
 30
0.0
  0
ENDBLK
  5
7FF8
330
7FED
100
AcDbEntity
  8
0
 62
     3
100
AcDbBlockEnd
  0
BLOCK
  5
7FFA
330
7FF9
100
AcDbEntity
  8
0
 62
     3
100
AcDbBlockBegin
  2
*D48
 70
     1
 10
0.0
 20
0.0
 30
0.0
  3
*D48
  1

  0
LINE
  5
7FFB
330
7FF9
100
AcDbEntity
  8
実形
 62
     0
370
    18
100
AcDbLine
 10
1722.770210499882
 20
1659.178460662066
 30
0.0
 11
1833.118375451033
 21
1659.178460662066
 31
0.0
  0
LINE
  5
7FFC
330
7FF9
100
AcDbEntity
  8
実形
 62
     0
370
    18
100
AcDbLine
 10
1722.770210499882
 20
1169.178460662066
 30
0.0
 11
1833.118375451033
 21
1169.178460662066
 31
0.0
  0
LINE
  5
7FFD
330
7FF9
100
AcDbEntity
  8
実形
 62
     0
370
    18
100
AcDbLine
 10
1833.118375451033
 20
1649.178460662066
 30
0.0
 11
1833.118375451033
 21
1179.178460662066
 31
0.0
  0
INSERT
  5
7FFE
330
7FF9
100
AcDbEntity
  8
実形
 62
     0
370
    18
100
AcDbBlockReference
  2
_Dot
 10
1833.118375451033
 20
1659.178460662066
 30
0.0
 41
10.0
 42
10.0
 43
10.0
 50
90.0
  0
INSERT
  5
7FFF
330
7FF9
100
AcDbEntity
  8
実形
 62
     0
370
    18
100
AcDbBlockReference
  2
_Dot
 10
1833.118375451033
 20
1169.178460662066
 30
0.0
 41
10.0
 42
10.0
 43
10.0
 50
270.0
  0
MTEXT
  5
8000
330
7FF9
100
AcDbEntity
  8
実形
 62
     0
100
AcDbMText
 10
1814.018375451033
 20
1414.178460662066
 30
0.0
 40
25.0
 41
0.0
 71
     5
 72
     1
  1
490
 11
0.0000000000000001
 21
1.0
 31
0.0
 73
     1
 44
1.0
1001
ACAD
1000
MTEXTBEGIN
1070
    73
1070
     1
1070
    44
1040
1.0
1070
    74
1070
     0
1000
MTEXTEND
  0
POINT
  5
8001
330
7FF9
100
AcDbEntity
  8
Defpoints
 62
     0
100
AcDbPoint
 10
1657.770210499882
 20
1659.178460662066
 30
0.0
  0
POINT
  5
8002
330
7FF9
100
AcDbEntity
  8
Defpoints
 62
     0
100
AcDbPoint
 10
1657.770210499882
 20
1169.178460662066
 30
0.0
  0
POINT
  5
8003
330
7FF9
100
AcDbEntity
  8
Defpoints
 62
     0
100
AcDbPoint
 10
1833.118375451033
 20
1169.178460662066
 30
0.0
  0
ENDBLK
  5
8004
330
7FF9
100
AcDbEntity
  8
0
 62
     3
100
AcDbBlockEnd
  0
BLOCK
  5
8006
330
8005
100
AcDbEntity
  8
0
 62
     3
100
AcDbBlockBegin
  2
*D49
 70
     1
 10
0.0
 20
0.0
 30
0.0
  3
*D49
  1

  0
LINE
  5
8007
330
8005
100
AcDbEntity
  8
実形
 62
     0
370
    18
100
AcDbLine
 10
767.3275276276962
 20
1554.178460662066
 30
0.0
 11
738.1482502386061
 21
1554.178460662066
 31
0.0
  0
LINE
  5
8008
330
8005
100
AcDbEntity
  8
実形
 62
     0
370
    18
100
AcDbLine
 10
767.3275276276962
 20
1644.178460662066
 30
0.0
 11
738.1482502386061
 21
1644.178460662066
 31
0.0
  0
LINE
  5
8009
330
8005
100
AcDbEntity
  8
実形
 62
     0
370
    18
100
AcDbLine
 10
738.1482502386061
 20
1564.178460662066
 30
0.0
 11
738.1482502386061
 21
1634.178460662066
 31
0.0
  0
MTEXT
  5
800A
330
8005
100
AcDbEntity
  8
実形
 62
     0
100
AcDbMText
 10
715.569680847846
 20
1589.259853472391
 30
0.0
 40
25.0
 41
0.0
 71
     5
 72
     1
  1
70
 11
0.0000000000000001
 21
1.0
 31
0.0
 73
     1
 44
1.0
1001
ACAD
1000
MTEXTBEGIN
1070
    73
1070
     1
1070
    44
1040
1.0
1070
    74
1070
     0
1000
MTEXTEND
  0
INSERT
  5
800B
330
8005
100
AcDbEntity
  8
実形
 62
     0
370
    18
100
AcDbBlockReference
  2
_Dot
 10
738.1482502386061
 20
1554.178460662066
 30
0.0
 41
10.0
 42
10.0
 43
10.0
 50
270.0
  0
INSERT
  5
800C
330
8005
100
AcDbEntity
  8
実形
 62
     0
370
    18
100
AcDbBlockReference
  2
_Dot
 10
738.1482502386061
 20
1644.178460662066
 30
0.0
 41
10.0
 42
10.0
 43
10.0
 50
90.0
  0
POINT
  5
800D
330
8005
100
AcDbEntity
  8
Defpoints
 62
     0
100
AcDbPoint
 10
832.3275276276962
 20
1554.178460662066
 30
0.0
  0
POINT
  5
800E
330
8005
100
AcDbEntity
  8
Defpoints
 62
     0
100
AcDbPoint
 10
832.3275276276962
 20
1644.178460662066
 30
0.0
  0
POINT
  5
800F
330
8005
100
AcDbEntity
  8
Defpoints
 62
     0
100
AcDbPoint
 10
738.1482502386061
 20
1644.178460662066
 30
0.0
  0
ENDBLK
  5
8010
330
8005
100
AcDbEntity
  8
0
 62
     3
100
AcDbBlockEnd
  0
BLOCK
  5
8012
330
8011
100
AcDbEntity
  8
0
 62
     3
100
AcDbBlockBegin
  2
*D50
 70
     1
 10
0.0
 20
0.0
 30
0.0
  3
*D50
  1

  0
LINE
  5
8013
330
8011
100
AcDbEntity
  8
実形
 62
     0
370
    18
100
AcDbLine
 10
767.3275276276962
 20
1554.178460662066
 30
0.0
 11
738.1482502386061
 21
1554.178460662066
 31
0.0
  0
LINE
  5
8014
330
8011
100
AcDbEntity
  8
実形
 62
     0
370
    18
100
AcDbLine
 10
773.3275276276963
 20
1624.178460662066
 30
0.0
 11
738.1482502386061
 21
1624.178460662066
 31
0.0
  0
LINE
  5
8015
330
8011
100
AcDbEntity
  8
実形
 62
     0
370
    18
100
AcDbLine
 10
738.1482502386061
 20
1564.178460662066
 30
0.0
 11
738.1482502386061
 21
1614.178460662066
 31
0.0
  0
MTEXT
  5
8016
330
8011
100
AcDbEntity
  8
実形
 62
     0
100
AcDbMText
 10
801.3626707265066
 20
1625.22842009638
 30
0.0
 40
25.0
 41
0.0
 71
     5
 72
     1
  1
20
 11
0.0000000000000001
 21
1.0
 31
0.0
 73
     1
 44
1.0
1001
ACAD
1000
MTEXTBEGIN
1070
    73
1070
     1
1070
    44
1040
1.0
1070
    74
1070
     0
1000
MTEXTEND
  0
INSERT
  5
8017
330
8011
100
AcDbEntity
  8
実形
 62
     0
370
    18
100
AcDbBlockReference
  2
_Dot
 10
738.1482502386061
 20
1554.178460662066
 30
0.0
 41
10.0
 42
10.0
 43
10.0
 50
270.0
  0
INSERT
  5
8018
330
8011
100
AcDbEntity
  8
実形
 62
     0
370
    18
100
AcDbBlockReference
  2
_Dot
 10
738.1482502386061
 20
1624.178460662066
 30
0.0
 41
10.0
 42
10.0
 43
10.0
 50
90.0
  0
POINT
  5
8019
330
8011
100
AcDbEntity
  8
Defpoints
 62
     0
100
AcDbPoint
 10
832.3275276276962
 20
1554.178460662066
 30
0.0
  0
POINT
  5
801A
330
8011
100
AcDbEntity
  8
Defpoints
 62
     0
100
AcDbPoint
 10
838.3275276276963
 20
1624.178460662066
 30
0.0
  0
POINT
  5
801B
330
8011
100
AcDbEntity
  8
Defpoints
 62
     0
100
AcDbPoint
 10
738.1482502386061
 20
1624.178460662066
 30
0.0
  0
ENDBLK
  5
801C
330
8011
100
AcDbEntity
  8
0
 62
     3
100
AcDbBlockEnd
  0
BLOCK
  5
801E
330
801D
100
AcDbEntity
  8
0
 62
     3
100
AcDbBlockBegin
  2
*D51
 70
     1
 10
0.0
 20
0.0
 30
0.0
  3
*D51
  1

  0
LINE
  5
801F
330
801D
100
AcDbEntity
  8
実形
 62
     0
370
    18
100
AcDbLine
 10
735.771238858355
 20
1644.178460662066
 30
0.0
 11
672.3280192665588
 21
1644.178460662066
 31
0.0
  0
LINE
  5
8020
330
801D
100
AcDbEntity
  8
実形
 62
     0
370
    18
100
AcDbLine
 10
714.7500916428215
 20
1554.178460662066
 30
0.0
 11
672.3280192665588
 21
1554.178460662066
 31
0.0
  0
LINE
  5
8021
330
801D
100
AcDbEntity
  8
実形
 62
     0
370
    18
100
AcDbLine
 10
672.3280192665588
 20
1634.178460662066
 30
0.0
 11
672.3280192665588
 21
1564.178460662066
 31
0.0
  0
INSERT
  5
8022
330
801D
100
AcDbEntity
  8
実形
 62
     0
370
    18
100
AcDbBlockReference
  2
_Dot
 10
672.3280192665588
 20
1644.178460662066
 30
0.0
 41
10.0
 42
10.0
 43
10.0
 50
90.0
  0
INSERT
  5
8023
330
801D
100
AcDbEntity
  8
実形
 62
     0
370
    18
100
AcDbBlockReference
  2
_Dot
 10
672.3280192665588
 20
1554.178460662066
 30
0.0
 41
10.0
 42
10.0
 43
10.0
 50
270.0
  0
MTEXT
  5
8024
330
801D
100
AcDbEntity
  8
実形
 62
     0
100
AcDbMText
 10
653.2280192665585
 20
1599.178460662066
 30
0.0
 40
25.0
 41
0.0
 71
     5
 72
     1
  1
90
 11
0.0000000000000001
 21
1.0
 31
0.0
 73
     1
 44
1.0
1001
ACAD
1000
MTEXTBEGIN
1070
    73
1070
     1
1070
    44
1040
1.0
1070
    74
1070
     0
1000
MTEXTEND
  0
POINT
  5
8025
330
801D
100
AcDbEntity
  8
Defpoints
 62
     0
100
AcDbPoint
 10
800.771238858355
 20
1644.178460662066
 30
0.0
  0
POINT
  5
8026
330
801D
100
AcDbEntity
  8
Defpoints
 62
     0
100
AcDbPoint
 10
779.7500916428215
 20
1554.178460662066
 30
0.0
  0
POINT
  5
8027
330
801D
100
AcDbEntity
  8
Defpoints
 62
     0
100
AcDbPoint
 10
672.3280192665588
 20
1554.178460662066
 30
0.0
  0
ENDBLK
  5
8028
330
801D
100
AcDbEntity
  8
0
 62
     3
100
AcDbBlockEnd
  0
BLOCK
  5
802A
330
8029
100
AcDbEntity
  8
0
 62
     3
100
AcDbBlockBegin
  2
*D52
 70
     1
 10
0.0
 20
0.0
 30
0.0
  3
*D52
  1

  0
LINE
  5
802B
330
8029
100
AcDbEntity
  8
実形
 62
     0
370
    18
100
AcDbLine
 10
732.6742997845558
 20
1554.178460662066
 30
0.0
 11
672.3280192665588
 21
1554.178460662066
 31
0.0
  0
LINE
  5
802C
330
8029
100
AcDbEntity
  8
実形
 62
     0
370
    18
100
AcDbLine
 10
737.7945193027008
 20
1204.178460662066
 30
0.0
 11
672.3280192665587
 21
1204.178460662066
 31
0.0
  0
LINE
  5
802D
330
8029
100
AcDbEntity
  8
実形
 62
     0
370
    18
100
AcDbLine
 10
672.3280192665588
 20
1544.178460662066
 30
0.0
 11
672.3280192665587
 21
1214.178460662066
 31
0.0
  0
INSERT
  5
802E
330
8029
100
AcDbEntity
  8
実形
 62
     0
370
    18
100
AcDbBlockReference
  2
_Dot
 10
672.3280192665588
 20
1554.178460662066
 30
0.0
 41
10.0
 42
10.0
 43
10.0
 50
90.0
  0
INSERT
  5
802F
330
8029
100
AcDbEntity
  8
実形
 62
     0
370
    18
100
AcDbBlockReference
  2
_Dot
 10
672.3280192665587
 20
1204.178460662066
 30
0.0
 41
10.0
 42
10.0
 43
10.0
 50
270.0
  0
MTEXT
  5
8030
330
8029
100
AcDbEntity
  8
実形
 62
     0
100
AcDbMText
 10
653.2280192665585
 20
1379.178460662066
 30
0.0
 40
25.0
 41
0.0
 71
     5
 72
     1
  1
350
 11
0.0000000000000001
 21
1.0
 31
0.0
 73
     1
 44
1.0
1001
ACAD
1000
MTEXTBEGIN
1070
    73
1070
     1
1070
    44
1040
1.0
1070
    74
1070
     0
1000
MTEXTEND
  0
POINT
  5
8031
330
8029
100
AcDbEntity
  8
Defpoints
 62
     0
100
AcDbPoint
 10
797.6742997845558
 20
1554.178460662066
 30
0.0
  0
POINT
  5
8032
330
8029
100
AcDbEntity
  8
Defpoints
 62
     0
100
AcDbPoint
 10
802.7945193027008
 20
1204.178460662066
 30
0.0
  0
POINT
  5
8033
330
8029
100
AcDbEntity
  8
Defpoints
 62
     0
100
AcDbPoint
 10
672.3280192665587
 20
1204.178460662066
 30
0.0
  0
ENDBLK
  5
8034
330
8029
100
AcDbEntity
  8
0
 62
     3
100
AcDbBlockEnd
  0
BLOCK
  5
8036
330
8035
100
AcDbEntity
  8
0
 62
     3
100
AcDbBlockBegin
  2
*D53
 70
     1
 10
0.0
 20
0.0
 30
0.0
  3
*D53
  1

  0
LINE
  5
8037
330
8035
100
AcDbEntity
  8
実形
 62
     0
370
    18
100
AcDbLine
 10
764.1539611657317
 20
1659.178460662066
 30
0.0
 11
672.3280192665588
 21
1659.178460662066
 31
0.0
  0
LINE
  5
8038
330
8035
100
AcDbEntity
  8
実形
 62
     0
370
    18
100
AcDbLine
 10
737.2641105192887
 20
1169.178460662066
 30
0.0
 11
672.3280192665587
 21
1169.178460662066
 31
0.0
  0
LINE
  5
8039
330
8035
100
AcDbEntity
  8
実形
 62
     0
370
    18
100
AcDbLine
 10
672.3280192665588
 20
1649.178460662066
 30
0.0
 11
672.3280192665587
 21
1179.178460662066
 31
0.0
  0
MTEXT
  5
803A
330
8035
100
AcDbEntity
  8
実形
 62
     0
100
AcDbMText
 10
650.7280192665586
 20
1682.883538982083
 30
0.0
 40
25.0
 41
0.0
 71
     5
 72
     1
  1
15
 11
0.0000000000000001
 21
1.0
 31
0.0
 73
     1
 44
1.0
1001
ACAD
1000
MTEXTBEGIN
1070
    73
1070
     1
1070
    44
1040
1.0
1070
    74
1070
     0
1000
MTEXTEND
  0
INSERT
  5
803B
330
8035
100
AcDbEntity
  8
実形
 62
     0
370
    18
100
AcDbBlockReference
  2
_Dot
 10
672.3280192665588
 20
1659.178460662066
 30
0.0
 41
10.0
 42
10.0
 43
10.0
 50
90.0
  0
INSERT
  5
803C
330
8035
100
AcDbEntity
  8
実形
 62
     0
370
    18
100
AcDbBlockReference
  2
_Dot
 10
672.3280192665587
 20
1169.178460662066
 30
0.0
 41
10.0
 42
10.0
 43
10.0
 50
270.0
  0
POINT
  5
803D
330
8035
100
AcDbEntity
  8
Defpoints
 62
     0
100
AcDbPoint
 10
829.1539611657317
 20
1659.178460662066
 30
0.0
  0
POINT
  5
803E
330
8035
100
AcDbEntity
  8
Defpoints
 62
     0
100
AcDbPoint
 10
802.2641105192887
 20
1169.178460662066
 30
0.0
  0
POINT
  5
803F
330
8035
100
AcDbEntity
  8
Defpoints
 62
     0
100
AcDbPoint
 10
672.3280192665587
 20
1169.178460662066
 30
0.0
  0
ENDBLK
  5
8040
330
8035
100
AcDbEntity
  8
0
 62
     3
100
AcDbBlockEnd
  0
BLOCK
  5
8042
330
8041
100
AcDbEntity
  8
0
 62
     3
100
AcDbBlockBegin
  2
*D54
 70
     1
 10
0.0
 20
0.0
 30
0.0
  3
*D54
  1

  0
LINE
  5
8043
330
8041
100
AcDbEntity
  8
実形
 62
     0
370
    18
100
AcDbLine
 10
737.7945193027008
 20
1184.178460662066
 30
0.0
 11
672.3280192665587
 21
1184.178460662066
 31
0.0
  0
LINE
  5
8044
330
8041
100
AcDbEntity
  8
実形
 62
     0
370
    18
100
AcDbLine
 10
702.3275276276962
 20
1554.178460662066
 30
0.0
 11
672.3280192665588
 21
1554.178460662066
 31
0.0
  0
LINE
  5
8045
330
8041
100
AcDbEntity
  8
実形
 62
     0
370
    18
100
AcDbLine
 10
672.3280192665587
 20
1194.178460662066
 30
0.0
 11
672.3280192665588
 21
1544.178460662066
 31
0.0
  0
MTEXT
  5
8046
330
8041
100
AcDbEntity
  8
実形
 62
     0
100
AcDbMText
 10
650.745963999092
 20
1217.459715149787
 30
0.0
 40
25.0
 41
0.0
 71
     5
 72
     1
  1
20
 11
0.0000000000000001
 21
1.0
 31
0.0
 73
     1
 44
1.0
1001
ACAD
1000
MTEXTBEGIN
1070
    73
1070
     1
1070
    44
1040
1.0
1070
    74
1070
     0
1000
MTEXTEND
  0
INSERT
  5
8047
330
8041
100
AcDbEntity
  8
実形
 62
     0
370
    18
100
AcDbBlockReference
  2
_Dot
 10
672.3280192665587
 20
1184.178460662066
 30
0.0
 41
10.0
 42
10.0
 43
10.0
 50
270.0
  0
INSERT
  5
8048
330
8041
100
AcDbEntity
  8
実形
 62
     0
370
    18
100
AcDbBlockReference
  2
_Dot
 10
672.3280192665588
 20
1554.178460662066
 30
0.0
 41
10.0
 42
10.0
 43
10.0
 50
90.0
  0
POINT
  5
8049
330
8041
100
AcDbEntity
  8
Defpoints
 62
     0
100
AcDbPoint
 10
802.7945193027008
 20
1184.178460662066
 30
0.0
  0
POINT
  5
804A
330
8041
100
AcDbEntity
  8
Defpoints
 62
     0
100
AcDbPoint
 10
767.3275276276962
 20
1554.178460662066
 30
0.0
  0
POINT
  5
804B
330
8041
100
AcDbEntity
  8
Defpoints
 62
     0
100
AcDbPoint
 10
672.3280192665588
 20
1554.178460662066
 30
0.0
  0
ENDBLK
  5
804C
330
8041
100
AcDbEntity
  8
0
 62
     3
100
AcDbBlockEnd
  0
BLOCK
  5
804E
330
804D
100
AcDbEntity
  8
0
 62
     3
100
AcDbBlockBegin
  2
*D55
 70
     1
 10
0.0
 20
0.0
 30
0.0
  3
*D55
  1

  0
LINE
  5
804F
330
804D
100
AcDbEntity
  8
実形
 62
     0
370
    18
100
AcDbLine
 10
766.726947416073
 20
1644.178460662066
 30
0.0
 11
616.3564627716169
 21
1644.178460662066
 31
0.0
  0
LINE
  5
8050
330
804D
100
AcDbEntity
  8
実形
 62
     0
370
    18
100
AcDbLine
 10
739.8056315785306
 20
1184.178460662066
 30
0.0
 11
616.3564627716168
 21
1184.178460662066
 31
0.0
  0
LINE
  5
8051
330
804D
100
AcDbEntity
  8
実形
 62
     0
370
    18
100
AcDbLine
 10
616.3564627716169
 20
1634.178460662066
 30
0.0
 11
616.3564627716168
 21
1194.178460662066
 31
0.0
  0
INSERT
  5
8052
330
804D
100
AcDbEntity
  8
実形
 62
     0
370
    18
100
AcDbBlockReference
  2
_Dot
 10
616.3564627716169
 20
1644.178460662066
 30
0.0
 41
10.0
 42
10.0
 43
10.0
 50
90.0
  0
INSERT
  5
8053
330
804D
100
AcDbEntity
  8
実形
 62
     0
370
    18
100
AcDbBlockReference
  2
_Dot
 10
616.3564627716168
 20
1184.178460662066
 30
0.0
 41
10.0
 42
10.0
 43
10.0
 50
270.0
  0
MTEXT
  5
8054
330
804D
100
AcDbEntity
  8
実形
 62
     0
100
AcDbMText
 10
597.2564627716167
 20
1414.178460662066
 30
0.0
 40
25.0
 41
0.0
 71
     5
 72
     1
  1
460
 11
0.0000000000000001
 21
1.0
 31
0.0
 73
     1
 44
1.0
1001
ACAD
1000
MTEXTBEGIN
1070
    73
1070
     1
1070
    44
1040
1.0
1070
    74
1070
     0
1000
MTEXTEND
  0
POINT
  5
8055
330
804D
100
AcDbEntity
  8
Defpoints
 62
     0
100
AcDbPoint
 10
831.7269474160729
 20
1644.178460662066
 30
0.0
  0
POINT
  5
8056
330
804D
100
AcDbEntity
  8
Defpoints
 62
     0
100
AcDbPoint
 10
804.8056315785306
 20
1184.178460662066
 30
0.0
  0
POINT
  5
8057
330
804D
100
AcDbEntity
  8
Defpoints
 62
     0
100
AcDbPoint
 10
616.3564627716168
 20
1184.178460662066
 30
0.0
  0
ENDBLK
  5
8058
330
804D
100
AcDbEntity
  8
0
 62
     3
100
AcDbBlockEnd
  0
BLOCK
  5
805A
330
8059
100
AcDbEntity
  8
0
 62
     3
100
AcDbBlockBegin
  2
*D56
 70
     1
 10
0.0
 20
0.0
 30
0.0
  3
*D56
  1

  0
LINE
  5
805B
330
8059
100
AcDbEntity
  8
実形
 62
     0
370
    18
100
AcDbLine
 10
762.7702104998824
 20
1659.178460662066
 30
0.0
 11
556.883501767341
 21
1659.178460662066
 31
0.0
  0
LINE
  5
805C
330
8059
100
AcDbEntity
  8
実形
 62
     0
370
    18
100
AcDbLine
 10
740.8183231977528
 20
1169.178460662066
 30
0.0
 11
556.8835017673409
 21
1169.178460662066
 31
0.0
  0
LINE
  5
805D
330
8059
100
AcDbEntity
  8
実形
 62
     0
370
    18
100
AcDbLine
 10
556.883501767341
 20
1649.178460662066
 30
0.0
 11
556.8835017673409
 21
1179.178460662066
 31
0.0
  0
INSERT
  5
805E
330
8059
100
AcDbEntity
  8
実形
 62
     0
370
    18
100
AcDbBlockReference
  2
_Dot
 10
556.883501767341
 20
1659.178460662066
 30
0.0
 41
10.0
 42
10.0
 43
10.0
 50
90.0
  0
INSERT
  5
805F
330
8059
100
AcDbEntity
  8
実形
 62
     0
370
    18
100
AcDbBlockReference
  2
_Dot
 10
556.8835017673409
 20
1169.178460662066
 30
0.0
 41
10.0
 42
10.0
 43
10.0
 50
270.0
  0
MTEXT
  5
8060
330
8059
100
AcDbEntity
  8
実形
 62
     0
100
AcDbMText
 10
535.2835017673408
 20
1414.178460662066
 30
0.0
 40
30.0
 41
0.0
 71
     5
 72
     1
  1
490
 11
0.0000000000000001
 21
1.0
 31
0.0
 73
     1
 44
1.0
1001
ACAD
1000
MTEXTBEGIN
1070
    73
1070
     1
1070
    44
1040
1.0
1070
    74
1070
     0
1000
MTEXTEND
  0
POINT
  5
8061
330
8059
100
AcDbEntity
  8
Defpoints
 62
     0
100
AcDbPoint
 10
827.7702104998825
 20
1659.178460662066
 30
0.0
  0
POINT
  5
8062
330
8059
100
AcDbEntity
  8
Defpoints
 62
     0
100
AcDbPoint
 10
805.8183231977528
 20
1169.178460662066
 30
0.0
  0
POINT
  5
8063
330
8059
100
AcDbEntity
  8
Defpoints
 62
     0
100
AcDbPoint
 10
556.8835017673409
 20
1169.178460662066
 30
0.0
  0
ENDBLK
  5
8064
330
8059
100
AcDbEntity
  8
0
 62
     3
100
AcDbBlockEnd
  0
BLOCK
  5
8100
330
8065
100
AcDbEntity
  8
0
 62
     3
100
AcDbBlockBegin
  2
RAS800-510GRM
 70
     0
 10
0.0
 20
0.0
 30
0.0
  3
RAS800-510GRM
  1

  0
LINE
  5
8066
330
8065
100
AcDbEntity
  8
枠
 62
     0
100
AcDbLine
 10
174.0
 20
3.99999999999909
 30
0.0
 11
2834.0
 21
3.99999999999909
 31
0.0
  0
LINE
  5
8067
330
8065
100
AcDbEntity
  8
枠
 62
     3
100
AcDbLine
 10
4.0
 20
2024.0
 30
0.0
 11
4.0
 21
4.0
 31
0.0
  0
LINE
  5
8068
330
8065
100
AcDbEntity
  8
枠
 62
     0
100
AcDbLine
 10
2834.0
 20
2023.999999999999
 30
0.0
 11
174.0
 21
2023.999999999999
 31
0.0
  0
LINE
  5
8069
330
8065
100
AcDbEntity
  8
枠
 62
     0
100
AcDbLine
 10
2234.0
 20
133.9999999999991
 30
0.0
 11
2234.0
 21
198.9999999999991
 31
0.0
  0
LINE
  5
806A
330
8065
100
AcDbEntity
  8
枠
 62
     0
100
AcDbLine
 10
1944.0
 20
2023.999999999999
 30
0.0
 11
2834.0
 21
2023.999999999999
 31
0.0
  0
LINE
  5
806B
330
8065
100
AcDbEntity
  8
枠
 62
     0
100
AcDbLine
 10
2114.0
 20
68.99999999999909
 30
0.0
 11
2834.0
 21
68.99999999999909
 31
0.0
  0
LINE
  5
806C
330
8065
100
AcDbEntity
  8
枠
 62
     0
100
AcDbLine
 10
2114.0
 20
198.9999999999991
 30
0.0
 11
2834.0
 21
198.9999999999991
 31
0.0
  0
LINE
  5
806D
330
8065
100
AcDbEntity
  8
枠
 62
     0
100
AcDbLine
 10
2114.0
 20
133.9999999999991
 30
0.0
 11
2834.0
 21
133.9999999999991
 31
0.0
  0
LINE
  5
806E
330
8065
100
AcDbEntity
  8
枠
 62
     0
100
AcDbLine
 10
2114.0
 20
3.99999999999909
 30
0.0
 11
2114.0
 21
198.9999999999991
 31
0.0
  0
TEXT
  5
806F
330
8065
100
AcDbEntity
  8
枠
 62
     0
100
AcDbText
 10
2350.255774665348
 20
16.49999999999908
 30
0.0
 40
40.0
  1
中外交易株式会社
 72
     4
 11
2538.255774665348
 21
36.49999999999909
 31
0.0
100
AcDbText
  0
LINE
  5
8070
330
8065
100
AcDbEntity
  8
枠
 62
     0
100
AcDbLine
 10
2234.0
 20
68.99999999999909
 30
0.0
 11
2834.0
 21
68.99999999999909
 31
0.0
  0
LINE
  5
8071
102
{ACAD_REACTORS
330
807E
102
}
330
8065
100
AcDbEntity
  8
枠
 62
     0
370
     5
100
AcDbLine
 10
2257.843923164362
 20
40.53787547858428
 30
0.0
 11
2233.255774665348
 21
40.53787547858428
 31
0.0
  0
LINE
  5
8072
102
{ACAD_REACTORS
330
807E
102
}
330
8065
100
AcDbEntity
  8
枠
 62
     0
370
     5
100
AcDbLine
 10
2233.255774665348
 20
40.53787547858428
 30
0.0
 11
2233.255774665348
 21
30.53787547858429
 31
0.0
  0
LINE
  5
8073
102
{ACAD_REACTORS
330
807E
102
}
330
8065
100
AcDbEntity
  8
枠
 62
     0
370
     5
100
AcDbLine
 10
2233.255774665348
 20
30.53787547858429
 30
0.0
 11
2257.346428692676
 21
30.53787547858429
 31
0.0
  0
LINE
  5
8074
102
{ACAD_REACTORS
330
807E
102
}
330
8065
100
AcDbEntity
  8
枠
 62
     0
370
     5
100
AcDbLine
 10
2260.641894042939
 20
56.49999999999909
 30
0.0
 11
2260.641894042939
 21
16.49999999999909
 31
0.0
  0
LINE
  5
8075
102
{ACAD_REACTORS
330
807E
102
}
330
8065
100
AcDbEntity
  8
枠
 62
     0
370
     5
100
AcDbLine
 10
2260.641894042939
 20
16.49999999999909
 30
0.0
 11
2295.641894042939
 21
16.49999999999909
 31
0.0
  0
LINE
  5
8076
102
{ACAD_REACTORS
330
807E
102
}
330
8065
100
AcDbEntity
  8
枠
 62
     0
370
     5
100
AcDbLine
 10
2295.641894042939
 20
16.49999999999909
 30
0.0
 11
2260.641894042939
 21
36.49999999999909
 31
0.0
  0
LINE
  5
8077
102
{ACAD_REACTORS
330
807E
102
}
330
8065
100
AcDbEntity
  8
枠
 62
     0
370
     5
100
AcDbLine
 10
2260.641894042939
 20
36.49999999999909
 30
0.0
 11
2295.641894042939
 21
56.49999999999909
 31
0.0
  0
LINE
  5
8078
102
{ACAD_REACTORS
330
807E
102
}
330
8065
100
AcDbEntity
  8
枠
 62
     0
370
     5
100
AcDbLine
 10
2295.641894042939
 20
56.49999999999909
 30
0.0
 11
2260.641894042939
 21
56.49999999999909
 31
0.0
  0
LINE
  5
8079
102
{ACAD_REACTORS
330
807E
102
}
330
8065
100
AcDbEntity
  8
枠
 62
     0
370
     5
100
AcDbLine
 10
2326.75434681301
 20
40.53787547858428
 30
0.0
 11
2302.166198313996
 21
40.53787547858428
 31
0.0
  0
LINE
  5
807A
102
{ACAD_REACTORS
330
807E
102
}
330
8065
100
AcDbEntity
  8
枠
 62
     0
370
     5
100
AcDbLine
 10
2302.166198313996
 20
40.53787547858428
 30
0.0
 11
2302.166198313996
 21
30.53787547858429
 31
0.0
  0
LINE
  5
807B
102
{ACAD_REACTORS
330
807E
102
}
330
8065
100
AcDbEntity
  8
枠
 62
     0
370
     5
100
AcDbLine
 10
2302.166198313996
 20
30.53787547858429
 30
0.0
 11
2326.256852341323
 21
30.53787547858429
 31
0.0
  0
ARC
  5
807C
102
{ACAD_REACTORS
330
807E
102
}
330
8065
100
AcDbEntity
  8
枠
 62
     0
370
     5
100
AcDbCircle
 10
2238.255774665347
 20
36.49999999999909
 30
0.0
 40
20.0
100
AcDbArc
 50
11.64772366708617
 51
342.6561058784773
  0
ARC
  5
807D
102
{ACAD_REACTORS
330
807E
102
}
330
8065
100
AcDbEntity
  8
枠
 62
     0
370
     5
100
AcDbCircle
 10
2307.166198313995
 20
36.49999999999909
 30
0.0
 40
20.0
100
AcDbArc
 50
11.64772366708617
 51
342.6561058784773
  0
HATCH
  5
807E
330
8065
100
AcDbEntity
  8
枠
 62
     0
100
AcDbHatch
 10
0.0
 20
0.0
 30
0.0
210
0.0
220
0.0
230
1.0
  2
SOLID
 70
     1
 71
     1
 91
        3
 92
        1
 93
        4
 72
     2
 10
2307.166198313995
 20
36.49999999999909
 40
20.0
 50
11.64772366708617
 51
342.6561058784773
 73
     1
 72
     1
 10
2326.256852341323
 20
30.53787547858429
 11
2302.166198313996
 21
30.53787547858429
 72
     1
 10
2302.166198313996
 20
30.53787547858429
 11
2302.166198313996
 21
40.53787547858428
 72
     1
 10
2302.166198313996
 20
40.53787547858428
 11
2326.75434681301
 21
40.53787547858428
 97
        4
330
807D
330
807B
330
807A
330
8079
 92
        1
 93
        4
 72
     2
 10
2238.255774665347
 20
36.49999999999909
 40
20.0
 50
11.64772366708617
 51
342.6561058784773
 73
     1
 72
     1
 10
2257.346428692676
 20
30.53787547858429
 11
2233.255774665348
 21
30.53787547858429
 72
     1
 10
2233.255774665348
 20
30.53787547858429
 11
2233.255774665348
 21
40.53787547858428
 72
     1
 10
2233.255774665348
 20
40.53787547858428
 11
2257.843923164362
 21
40.53787547858428
 97
        4
330
807C
330
8073
330
8072
330
8071
 92
        1
 93
        5
 72
     1
 10
2295.641894042939
 20
56.49999999999909
 11
2260.641894042939
 21
56.49999999999909
 72
     1
 10
2260.641894042939
 20
56.49999999999909
 11
2260.641894042939
 21
16.49999999999909
 72
     1
 10
2260.641894042939
 20
16.49999999999909
 11
2295.641894042939
 21
16.49999999999909
 72
     1
 10
2295.641894042939
 20
16.49999999999909
 11
2260.641894042939
 21
36.49999999999909
 72
     1
 10
2260.641894042939
 20
36.49999999999909
 11
2295.641894042939
 21
56.49999999999909
 97
        5
330
8078
330
8074
330
8075
330
8076
330
8077
 75
     0
 76
     1
 98
        1
 10
-10.0
 20
-0.0000000000009095
  0
LINE
  5
807F
330
8065
100
AcDbEntity
  8
枠
 62
     0
100
AcDbLine
 10
2234.0
 20
68.99999999999909
 30
0.0
 11
2234.0
 21
198.9999999999991
 31
0.0
  0
LINE
  5
8080
330
8065
100
AcDbEntity
  8
実形
 62
     1
100
AcDbLine
 10
118.6742333375914
 20
5211.047041924394
 30
0.0
 11
2476.842860629935
 21
5211.047041924394
 31
0.0
  0
TEXT
  5
8081
330
8065
100
AcDbEntity
  8
実形
100
AcDbText
 10
271.4746615155927
 20
60.08511374856698
 30
0.0
 40
30.0
  1
※実寸には製造上の誤差が多少生ずる場合があります。シンクの穴あけ加工は現物合わせにてお願いします。
 72
     4
 11
1141.474661515593
 21
75.08511374856698
 31
0.0
100
AcDbText
  0
TEXT
  5
8082
330
8065
100
AcDbEntity
  8
枠
 62
     0
100
AcDbText
 10
2136.666666666667
 20
83.99999999999909
 30
0.0
 40
35.0
  1
尺度
 72
     4
 11
2174.0
 21
101.4999999999991
 31
0.0
100
AcDbText
  0
TEXT
  5
8083
330
8065
100
AcDbEntity
  8
枠
 62
     0
100
AcDbText
 10
2136.666666666667
 20
148.9999999999991
 30
0.0
 40
35.0
  1
品番
 72
     4
 11
2174.0
 21
166.4999999999991
 31
0.0
100
AcDbText
  0
TEXT
  5
8084
330
8065
100
AcDbEntity
  8
実形
100
AcDbText
 10
2446.588586518341
 20
81.78238670760313
 30
0.0
 40
40.0
  1
1：10
 72
     4
 11
2507.255253185007
 21
101.7823867076031
 31
0.0
100
AcDbText
  0
TEXT
  5
8085
330
8065
100
AcDbEntity
  8
実形
100
AcDbText
 10
2321.533637209673
 20
150.830875284324
 30
0.0
 40
30.0
  1
RAS800-460GRM
 72
     4
 11
2504.033637209673
 21
165.830875284324
 31
0.0
100
AcDbText
  0
LINE
  5
8086
330
8065
100
AcDbEntity
  8
実形
 62
     3
100
AcDbLine
 10
2856.314199910736
 20
2024.000000000001
 30
0.0
 11
2856.314199910736
 21
4.0
 31
0.0
  0
LINE
  5
8087
330
8065
100
AcDbEntity
  8
実形
 62
     0
100
AcDbLine
 10
2844.0
 20
4.0
 30
0.0
 11
2844.0
 21
2024.0
 31
0.0
  0
LINE
  5
8088
330
8065
100
AcDbEntity
  8
実形
 62
     0
100
AcDbLine
 10
2834.0
 20
4.0
 30
0.0
 11
2834.0
 21
2024.0
 31
0.0
  0
LINE
  5
8089
330
8065
100
AcDbEntity
  8
実形
 62
     0
100
AcDbLine
 10
174.0
 20
2024.0
 30
0.0
 11
174.0
 21
4.0
 31
0.0
  0
LINE
  5
808A
330
8065
100
AcDbEntity
  8
実形
100
AcDbLine
 10
827.7702104998825
 20
1659.178460662066
 30
0.0
 11
1657.770210499882
 21
1659.178460662066
 31
0.0
  0
LINE
  5
808B
330
8065
100
AcDbEntity
  8
実形
100
AcDbLine
 10
1657.770210499882
 20
1659.178460662066
 30
0.0
 11
1657.770210499882
 21
1169.178460662066
 31
0.0
  0
LINE
  5
808C
330
8065
100
AcDbEntity
  8
実形
100
AcDbLine
 10
1657.770210499882
 20
1169.178460662066
 30
0.0
 11
827.7702104998825
 21
1169.178460662066
 31
0.0
  0
LINE
  5
808D
330
8065
100
AcDbEntity
  8
実形
100
AcDbLine
 10
827.7702104998825
 20
1169.178460662066
 30
0.0
 11
827.7702104998825
 21
1659.178460662066
 31
0.0
  0
LINE
  5
808E
330
8065
100
AcDbEntity
  8
実形
100
AcDbLine
 10
848.7702104998824
 20
1644.178460662066
 30
0.0
 11
1636.770210499882
 21
1644.178460662066
 31
0.0
  0
LINE
  5
808F
330
8065
100
AcDbEntity
  8
実形
100
AcDbLine
 10
1642.770210499882
 20
1638.178460662065
 30
0.0
 11
1642.770210499882
 21
1190.178460662066
 31
0.0
  0
LINE
  5
8090
330
8065
100
AcDbEntity
  8
実形
100
AcDbLine
 10
1636.770210499882
 20
1184.178460662066
 30
0.0
 11
848.7702104998826
 21
1184.178460662066
 31
0.0
  0
LINE
  5
8091
330
8065
100
AcDbEntity
  8
実形
100
AcDbLine
 10
842.7702104998825
 20
1190.178460662066
 30
0.0
 11
842.7702104998823
 21
1638.178460662066
 31
0.0
  0
LINE
  5
8092
330
8065
100
AcDbEntity
  8
実形
100
AcDbLine
 10
862.7702104998824
 20
1210.178460662066
 30
0.0
 11
862.7702104998821
 21
1548.178460662066
 31
0.0
  0
LINE
  5
8093
330
8065
100
AcDbEntity
  8
実形
100
AcDbLine
 10
1092.770210499882
 20
1624.178460662066
 30
0.0
 11
1392.770210499882
 21
1624.178460662066
 31
0.0
  0
LINE
  5
8094
330
8065
100
AcDbEntity
  8
実形
100
AcDbLine
 10
1622.770210499882
 20
1548.178460662066
 30
0.0
 11
1622.770210499882
 21
1210.178460662066
 31
0.0
  0
LINE
  5
8095
330
8065
100
AcDbEntity
  8
実形
100
AcDbLine
 10
1616.770210499882
 20
1204.178460662066
 30
0.0
 11
868.7702104998823
 21
1204.178460662066
 31
0.0
  0
DIMENSION
  5
8096
330
8065
100
AcDbEntity
  8
実形
100
AcDbDimension
  2
*D28
 10
1622.770210499882
 20
1036.915758957679
 30
0.0
 11
1242.770210499882
 21
1056.015758957679
 31
0.0
 70
    32
 71
     5
 42
759.9999999999997
  3
ISO-25
100
AcDbAlignedDimension
 13
862.7702104998824
 23
1169.178460662066
 33
0.0
 14
1622.770210499882
 24
1169.178460662066
 34
0.0
100
AcDbRotatedDimension
1001
ACAD
1000
DSTYLE
1002
{
1070
    41
1040
10.0
1070
   140
1040
25.0
1070
   147
1040
6.599999999999998
1070
   279
1070
     2
1070
   342
1005
30D
1070
   371
1070
    18
1070
   372
1070
    18
1002
}
  0
DIMENSION
  5
8097
330
8065
100
AcDbEntity
  8
実形
100
AcDbDimension
  2
*D29
 10
1642.770210499882
 20
1036.915758957679
 30
0.0
 11
1589.171363804602
 21
1058.515758957679
 31
0.0
 70
   160
  1
20
 71
     5
 42
799.9999999999998
  3
ISO-25
100
AcDbAlignedDimension
 13
842.7702104998825
 23
1169.178460662066
 33
0.0
 14
1642.770210499882
 24
1169.178460662066
 34
0.0
100
AcDbRotatedDimension
1001
ACAD
1000
DSTYLE
1002
{
1070
    41
1040
10.0
1070
   140
1040
25.0
1070
   147
1040
6.599999999999998
1070
   279
1070
     2
1070
   342
1005
30D
1070
   371
1070
    18
1070
   372
1070
    18
1002
}
  0
TEXT
  5
8098
330
8065
100
AcDbEntity
  8
実形
 48
20.0
100
AcDbText
 10
877.7699109105341
 20
1047.974708017131
 30
0.0
 40
25.0
  1
20
100
AcDbText
  0
DIMENSION
  5
8099
330
8065
100
AcDbEntity
  8
実形
100
AcDbDimension
  2
*D30
 10
1642.770210499882
 20
974.5052716017053
 30
0.0
 11
1242.770210499882
 21
993.6052716017053
 31
0.0
 70
    32
 71
     5
 42
799.9999999999998
  3
ISO-25
100
AcDbAlignedDimension
 13
842.7702104998825
 23
1169.178460662066
 33
0.0
 14
1642.770210499882
 24
1169.178460662066
 34
0.0
100
AcDbRotatedDimension
1001
ACAD
1000
DSTYLE
1002
{
1070
    41
1040
10.0
1070
   140
1040
25.0
1070
   147
1040
6.599999999999998
1070
   279
1070
     2
1070
   342
1005
30D
1070
   371
1070
    18
1070
   372
1070
    18
1002
}
  0
DIMENSION
  5
809A
330
8065
100
AcDbEntity
  8
実形
100
AcDbDimension
  2
*D31
 10
1657.770210499882
 20
974.5052716017053
 30
0.0
 11
1701.559743854428
 21
996.1052716017052
 31
0.0
 70
   160
  1
15
 71
     5
 42
830.0
  3
ISO-25
100
AcDbAlignedDimension
 13
827.7702104998825
 23
1169.178460662066
 33
0.0
 14
1657.770210499882
 24
1169.178460662066
 34
0.0
100
AcDbRotatedDimension
1001
ACAD
1000
DSTYLE
1002
{
1070
    41
1040
10.0
1070
   140
1040
25.0
1070
   147
1040
6.599999999999998
1070
   279
1070
     2
1070
   342
1005
30D
1070
   371
1070
    18
1070
   372
1070
    18
1002
}
  0
TEXT
  5
809B
330
8065
100
AcDbEntity
  8
実形
 48
20.0
100
AcDbText
 10
770.7109889092589
 20
985.3423772939986
 30
0.0
 40
25.0
  1
15
100
AcDbText
  0
DIMENSION
  5
809C
330
8065
100
AcDbEntity
  8
実形
100
AcDbDimension
  2
*D32
 10
1657.770210499882
 20
901.2836911315535
 30
0.0
 11
1242.770210499882
 21
920.3836911315535
 31
0.0
 70
    32
 71
     5
 42
830.0
  3
ISO-25
100
AcDbAlignedDimension
 13
827.7702104998825
 23
1169.178460662066
 33
0.0
 14
1657.770210499882
 24
1169.178460662066
 34
0.0
100
AcDbRotatedDimension
1001
ACAD
1000
DSTYLE
1002
{
1070
    41
1040
10.0
1070
   140
1040
25.0
1070
   147
1040
6.599999999999998
1070
   279
1070
     2
1070
   342
1005
30D
1070
   371
1070
    18
1070
   372
1070
    18
1002
}
  0
LINE
  5
809D
330
8065
100
AcDbEntity
  8
実形
  6
ACAD_ISO08W100
 48
0.5
100
AcDbLine
 10
1384.469907606381
 20
1404.178460662066
 30
0.0
 11
1109.442023008436
 21
1404.178460662066
 31
0.0
  0
CIRCLE
  5
809E
330
8065
100
AcDbEntity
  8
実形
100
AcDbCircle
 10
1242.770210499882
 20
1404.178460662066
 30
0.0
 40
80.0
  0
CIRCLE
  5
809F
330
8065
100
AcDbEntity
  8
実形
100
AcDbCircle
 10
1242.770210499882
 20
1404.178460662066
 30
0.0
 40
90.5
  0
LINE
  5
80A0
330
8065
100
AcDbEntity
  8
実形
100
AcDbLine
 10
862.7702104998824
 20
1659.178460662066
 30
0.0
 11
1012.770210499882
 21
1659.178460662066
 31
0.0
  0
LINE
  5
80A1
330
8065
100
AcDbEntity
  8
実形
 62
     3
100
AcDbLine
 10
917.0693431839136
 20
-152.3860966284574
 30
0.0
 11
1747.069343183913
 21
-152.3860966284574
 31
0.0
  0
LINE
  5
80A2
330
8065
100
AcDbEntity
  8
実形
 62
     3
100
AcDbLine
 10
932.0693431839137
 20
-152.3860966284574
 30
0.0
 11
932.0693431839139
 21
-167.3860966284574
 31
0.0
  0
LINE
  5
80A3
330
8065
100
AcDbEntity
  8
実形
 62
     3
100
AcDbLine
 10
1732.069343183914
 20
-152.3860966284574
 30
0.0
 11
1732.069343183914
 21
-167.3860966284574
 31
0.0
  0
LINE
  5
80A4
330
8065
100
AcDbEntity
  8
実形
 62
     3
100
AcDbLine
 10
932.0693431839139
 20
-167.3860966284574
 30
0.0
 11
1732.069343183914
 21
-167.3860966284574
 31
0.0
  0
LINE
  5
80A5
330
8065
100
AcDbEntity
  8
実形
 62
     3
100
AcDbLine
 10
952.0693431839136
 20
-167.3860966284576
 30
0.0
 11
952.0693431839134
 21
-362.7109739766329
 31
0.0
  0
LINE
  5
80A6
330
8065
100
AcDbEntity
  8
実形
 62
     3
100
AcDbLine
 10
1712.069343183914
 20
-167.3860966284574
 30
0.0
 11
1712.069343183913
 21
-361.5568395436162
 31
0.0
  0
LINE
  5
80A7
330
8065
100
AcDbEntity
  8
実形
 62
     3
100
AcDbLine
 10
1011.569343183913
 20
-382.3860966284574
 30
0.0
 11
1192.569343183913
 21
-382.3860966284574
 31
0.0
  0
LINE
  5
80A8
330
8065
100
AcDbEntity
  8
実形
 62
     3
100
AcDbLine
 10
1011.569343183913
 20
-392.3860966284574
 30
0.0
 11
1192.569343183913
 21
-392.3860966284574
 31
0.0
  0
DIMENSION
  5
80A9
330
8065
100
AcDbEntity
  8
実形
 62
     3
100
AcDbDimension
  2
*D33
 10
797.3710940401324
 20
-367.3860966284573
 30
0.0
 11
778.2710940401325
 21
-267.3860966284572
 31
0.0
 70
    32
 71
     5
 42
200.0
  3
ISO-25
100
AcDbAlignedDimension
 13
917.0693431839135
 23
-167.3860966284574
 33
0.0
 14
917.0693431839133
 24
-367.3860966284574
 34
0.0
 50
90.0
100
AcDbRotatedDimension
1001
ACAD
1000
DSTYLE
1002
{
1070
    41
1040
10.0
1070
   140
1040
25.0
1070
   147
1040
6.599999999999998
1070
   279
1070
     2
1070
   342
1005
30D
1070
   371
1070
    18
1070
   372
1070
    18
1002
}
  0
DIMENSION
  5
80AA
330
8065
100
AcDbEntity
  8
実形
 62
     3
100
AcDbDimension
  2
*D34
 10
797.3710940401324
 20
-382.3860966284573
 30
0.0
 11
775.7710940401323
 21
-176.4675834353729
 31
0.0
 70
   160
  1
15
 71
     5
 42
230.0
  3
ISO-25
100
AcDbAlignedDimension
 13
917.0693431839136
 23
-152.3860966284574
 33
0.0
 14
917.0693431839136
 24
-382.3860966284574
 34
0.0
 50
90.0
100
AcDbRotatedDimension
1001
ACAD
1000
DSTYLE
1002
{
1070
    41
1040
10.0
1070
   140
1040
25.0
1070
   147
1040
6.599999999999998
1070
   279
1070
     2
1070
   342
1005
30D
1070
   371
1070
    18
1070
   372
1070
    18
1002
}
  0
TEXT
  5
80AB
330
8065
100
AcDbEntity
  8
実形
 62
     3
 48
20.0
100
AcDbText
 10
790.6030498610107
 20
-377.9124245682397
 30
0.0
 40
25.0
  1
15
 50
90.0
100
AcDbText
  0
LINE
  5
80AC
330
8065
100
AcDbEntity
  8
実形
 62
     3
100
AcDbLine
 10
797.3710940401324
 20
-382.3860966284574
 30
0.0
 11
797.3710940401326
 21
-392.3860966284574
 31
0.0
  0
DIMENSION
  5
80AD
330
8065
100
AcDbEntity
  8
実形
 62
     3
100
AcDbDimension
  2
*D35
 10
797.3710940401324
 20
-152.3860966284573
 30
0.0
 11
830.355261679284
 21
-411.1966776303161
 31
0.0
 70
   160
  1
8
 71
     5
 42
240.0
  3
ISO-25
100
AcDbAlignedDimension
 13
917.0693431839136
 23
-392.3860966284574
 33
0.0
 14
917.0693431839136
 24
-152.3860966284574
 34
0.0
 50
90.0
100
AcDbRotatedDimension
1001
ACAD
1000
DSTYLE
1002
{
1070
    41
1040
10.0
1070
   140
1040
25.0
1070
   147
1040
6.599999999999998
1070
   279
1070
     2
1070
   342
1005
30D
1070
   371
1070
    18
1070
   372
1070
    18
1002
}
  0
DIMENSION
  5
80AE
330
8065
100
AcDbEntity
  8
実形
 62
     3
100
AcDbDimension
  2
*D36
 10
727.6013470322832
 20
-382.3860966284573
 30
0.0
 11
708.5013470322833
 21
-267.3860966284572
 31
0.0
 70
    32
 71
     5
 42
230.0
  3
ISO-25
100
AcDbAlignedDimension
 13
917.0693431839136
 23
-152.3860966284574
 33
0.0
 14
917.0693431839135
 24
-382.3860966284574
 34
0.0
 50
90.0
100
AcDbRotatedDimension
1001
ACAD
1000
DSTYLE
1002
{
1070
    41
1040
10.0
1070
   140
1040
25.0
1070
   147
1040
6.599999999999998
1070
   279
1070
     2
1070
   342
1005
30D
1070
   371
1070
    18
1070
   372
1070
    18
1002
}
  0
DIMENSION
  5
80AF
330
8065
100
AcDbEntity
  8
実形
 62
     3
100
AcDbDimension
  2
*D37
 10
660.6927293655044
 20
-392.3860966284574
 30
0.0
 11
641.5927293655045
 21
-272.3860966284572
 31
0.0
 70
    32
  1
238
 71
     5
 42
240.0
  3
ISO-25
100
AcDbAlignedDimension
 13
793.6814961412001
 23
-152.3860966284574
 33
0.0
 14
793.6814961411999
 24
-392.3860966284574
 34
0.0
 50
90.0
100
AcDbRotatedDimension
1001
ACAD
1000
DSTYLE
1002
{
1070
    41
1040
10.0
1070
   140
1040
25.0
1070
   147
1040
6.599999999999998
1070
   279
1070
     2
1070
   342
1005
30D
1070
   371
1070
    18
1070
   372
1070
    18
1002
}
  0
TEXT
  5
80B0
330
8065
100
AcDbEntity
  8
実形
100
AcDbText
 10
1509.52663925932
 20
1464.605228875251
 30
0.0
 40
25.0
  1
6R
 72
     2
 11
1551.193305925987
 21
1461.271895541917
 31
0.0
100
AcDbText
 73
     1
  0
LEADER
  5
80B1
330
8065
100
AcDbEntity
  8
実形
100
AcDbLeader
  3
ISO-25
 76
     2
 10
1612.401069036485
 20
1543.199935987015
 30
0.0
 10
1558.344122906441
 20
1494.303693113559
 30
0.0
1001
ACAD
1000
DSTYLE
1002
{
1070
    77
1070
     0
1070
    41
1040
10.0
1070
   140
1040
30.0
1070
   147
1040
6.599999999999998
1070
   279
1070
     2
1070
   342
1005
30D
1070
   371
1070
    18
1070
   372
1070
    18
1002
}
  0
TEXT
  5
80B2
330
8065
100
AcDbEntity
  8
実形
100
AcDbText
 10
1508.340509182852
 20
1215.174767916627
 30
0.0
 40
25.0
  1
6R
 72
     2
 11
1550.007175849518
 21
1211.841434583294
 31
0.0
100
AcDbText
 73
     1
  0
LEADER
  5
80B3
330
8065
100
AcDbEntity
  8
実形
100
AcDbLeader
  3
ISO-25
 76
     2
 10
1633.74014683896
 20
1191.262627398048
 30
0.0
 10
1565.498924722882
 20
1220.187379926308
 30
0.0
1001
ACAD
1000
DSTYLE
1002
{
1070
    77
1070
     0
1070
    41
1040
10.0
1070
   140
1040
30.0
1070
   147
1040
6.599999999999998
1070
   279
1070
     2
1070
   342
1005
30D
1070
   371
1070
    18
1070
   372
1070
    18
1002
}
  0
LINE
  5
80B4
330
8065
100
AcDbEntity
  8
実形
  6
ACAD_ISO08W100
 62
     3
 48
0.5
100
AcDbLine
 10
1102.069343183913
 20
-287.5334204559203
 30
0.0
 11
1102.069343183913
 21
-444.2147007915264
 31
0.0
  0
LINE
  5
80B5
330
8065
100
AcDbEntity
  8
実形
 62
     3
100
AcDbLine
 10
1011.569343183913
 20
-382.3860966284574
 30
0.0
 11
1011.569343183913
 21
-392.3860966284574
 31
0.0
  0
LINE
  5
80B6
330
8065
100
AcDbEntity
  8
実形
 62
     3
100
AcDbLine
 10
1192.569343183913
 20
-382.3860966284574
 30
0.0
 11
1192.569343183913
 21
-392.3860966284574
 31
0.0
  0
LINE
  5
80B7
330
8065
100
AcDbEntity
  8
実形
 62
     3
100
AcDbLine
 10
1011.569343183913
 20
-382.3860966284574
 30
0.0
 11
956.6026286319571
 21
-368.528941699393
 31
0.0
  0
ARC
  5
80B8
330
8065
100
AcDbEntity
  8
実形
 62
     3
100
AcDbCircle
 10
958.0693431839135
 20
-362.7109739766327
 30
0.0
 40
6.0
100
AcDbArc
 50
180.0
 51
255.8505239136548
  0
LINE
  5
80B9
330
8065
100
AcDbEntity
  8
実形
 62
     3
100
AcDbLine
 10
1192.569343183913
 20
-382.3860966284574
 30
0.0
 11
1706.242514515584
 21
-367.5543399971291
 31
0.0
  0
ARC
  5
80BA
330
8065
100
AcDbEntity
  8
実形
 62
     3
100
AcDbCircle
 10
1706.069343183914
 20
-361.5568395436162
 30
0.0
 40
6.0
100
AcDbArc
 50
271.6538940784474
 51
360.0
  0
DIMENSION
  5
80BB
330
8065
100
AcDbEntity
  8
実形
 62
     3
100
AcDbDimension
  2
*D38
 10
1182.069343183914
 20
-509.3026951643151
 30
0.0
 11
1102.069343183913
 21
-490.202695164315
 31
0.0
 70
    32
 71
     5
 42
160.0000000000002
  3
ISO-25
100
AcDbAlignedDimension
 13
1022.069343183913
 23
-392.3860966284575
 33
0.0
 14
1182.069343183914
 24
-392.3860966284575
 34
0.0
100
AcDbRotatedDimension
1001
ACAD
1000
DSTYLE
1002
{
1070
    41
1040
10.0
1070
   140
1040
25.0
1070
   147
1040
6.599999999999998
1070
   279
1070
     2
1070
   342
1005
30D
1070
   371
1070
    18
1070
   372
1070
    18
1002
}
  0
DIMENSION
  5
80BC
330
8065
100
AcDbEntity
  8
実形
 62
     3
100
AcDbDimension
  2
*D39
 10
1192.569343183913
 20
-580.5449919795919
 30
0.0
 11
1102.069343183913
 21
-561.4449919795919
 31
0.0
 70
    32
 71
     5
 42
180.9999999999995
  3
ISO-25
100
AcDbAlignedDimension
 13
1011.569343183913
 23
-392.3860966284575
 33
0.0
 14
1192.569343183913
 24
-392.3860966284617
 34
0.0
100
AcDbRotatedDimension
1001
ACAD
1000
DSTYLE
1002
{
1070
    41
1040
10.0
1070
   140
1040
25.0
1070
   147
1040
6.599999999999998
1070
   279
1070
     2
1070
   342
1005
30D
1070
   371
1070
    18
1070
   372
1070
    18
1002
}
  0
ARC
  5
80BD
330
8065
100
AcDbEntity
  8
実形
 62
     3
100
AcDbCircle
 10
1706.069343183913
 20
-361.5568395436162
 30
0.0
 40
6.0
100
AcDbArc
 50
271.6538940784474
 51
360.0
  0
ARC
  5
80BE
330
8065
100
AcDbEntity
  8
実形
 62
     3
100
AcDbCircle
 10
958.0693431839135
 20
-362.7109739766329
 30
0.0
 40
6.0
100
AcDbArc
 50
180.0
 51
255.8505239136549
  0
TEXT
  5
80BF
330
8065
100
AcDbEntity
  8
実形
 62
     3
100
AcDbText
 10
1042.683555881774
 20
-304.5623972451655
 30
0.0
 40
25.0
  1
6R
 72
     2
 11
1084.350222548441
 21
-307.8957305784988
 31
0.0
100
AcDbText
 73
     1
  0
TEXT
  5
80C0
330
8065
100
AcDbEntity
  8
実形
 62
     3
100
AcDbText
 10
1595.621696234116
 20
-306.4700963227503
 30
0.0
 40
25.0
  1
6R
 72
     2
 11
1637.288362900783
 21
-309.8034296560836
 31
0.0
100
AcDbText
 73
     1
  0
LEADER
  5
80C1
330
8065
100
AcDbEntity
  8
実形
 62
     3
100
AcDbLeader
  3
ISO-25
 76
     2
 10
965.4503650180505
 20
-356.9510230277229
 30
0.0
 10
1027.920188021731
 20
-309.3670608013253
 30
0.0
1001
ACAD
1000
DSTYLE
1002
{
1070
    77
1070
     0
1070
    41
1040
10.0
1070
   140
1040
30.0
1070
   147
1040
6.599999999999998
1070
   279
1070
     2
1070
   342
1005
30D
1070
   371
1070
    18
1070
   372
1070
    18
1002
}
  0
ARC
  5
80C2
330
8065
100
AcDbEntity
  8
実形
100
AcDbCircle
 10
1636.770210499882
 20
1638.178460662065
 30
0.0
 40
6.0
100
AcDbArc
 50
0.0
 51
90.0
  0
ARC
  5
80C3
330
8065
100
AcDbEntity
  8
実形
100
AcDbCircle
 10
1616.770210499882
 20
1210.178460662066
 30
0.0
 40
6.0
100
AcDbArc
 50
270.0
 51
0.0
  0
ARC
  5
80C4
330
8065
100
AcDbEntity
  8
実形
100
AcDbCircle
 10
1636.770210499882
 20
1190.178460662066
 30
0.0
 40
6.0
100
AcDbArc
 50
270.0
 51
0.0
  0
ARC
  5
80C5
330
8065
100
AcDbEntity
  8
実形
100
AcDbCircle
 10
848.7702104998824
 20
1638.178460662066
 30
0.0
 40
6.0
100
AcDbArc
 50
89.99999999999998
 51
180.0
  0
ARC
  5
80C6
330
8065
100
AcDbEntity
  8
実形
100
AcDbCircle
 10
868.7702104998823
 20
1210.178460662066
 30
0.0
 40
6.0
100
AcDbArc
 50
180.0
 51
270.0
  0
ARC
  5
80C7
330
8065
100
AcDbEntity
  8
実形
100
AcDbCircle
 10
848.7702104998826
 20
1190.178460662066
 30
0.0
 40
6.0
100
AcDbArc
 50
180.0
 51
270.0
  0
LEADER
  5
80C8
330
8065
100
AcDbEntity
  8
実形
 62
     3
100
AcDbLeader
  3
ISO-25
 76
     2
 10
1698.688321349777
 20
-356.9510230277229
 30
0.0
 10
1650.738809508872
 20
-308.106533025717
 30
0.0
211
-1.0
221
0.0
231
0.0
1001
ACAD
1000
DSTYLE
1002
{
1070
    77
1070
     0
1070
    41
1040
10.0
1070
   140
1040
30.0
1070
   147
1040
6.599999999999998
1070
   279
1070
     2
1070
   342
1005
30D
1070
   371
1070
    18
1070
   372
1070
    18
1002
}
  0
LINE
  5
80C9
330
8065
100
AcDbEntity
  8
実形
 62
     0
100
AcDbLine
 10
2114.0
 20
263.9999999999991
 30
0.0
 11
2834.0
 21
263.9999999999991
 31
0.0
  0
LINE
  5
80CA
330
8065
100
AcDbEntity
  8
実形
 62
     0
100
AcDbLine
 10
2114.0
 20
3.99999999999909
 30
0.0
 11
2114.0
 21
263.9999999999991
 31
0.0
  0
LINE
  5
80CB
330
8065
100
AcDbEntity
  8
実形
 62
     0
100
AcDbLine
 10
2234.0
 20
68.99999999999909
 30
0.0
 11
2234.0
 21
263.9999999999992
 31
0.0
  0
TEXT
  5
80CC
330
8065
100
AcDbEntity
  8
枠
 62
     0
100
AcDbText
 10
2137.833333333333
 20
213.9999999999991
 30
0.0
 40
35.0
  1
品名
 72
     4
 11
2174.0
 21
231.4999999999991
 31
0.0
100
AcDbText
  0
TEXT
  5
80CD
330
8065
100
AcDbEntity
  8
実形
100
AcDbText
 10
2323.374698073251
 20
213.2308752843241
 30
0.0
 40
35.0
  1
ｱﾝﾀﾞｰｼﾝｸ
  7
ms明朝
 72
     4
 11
2425.774698073251
 21
230.8308752843241
 31
0.0
100
AcDbText
  0
LINE
  5
80CE
330
8065
100
AcDbEntity
  8
枠
100
AcDbLine
 10
2834.0
 20
1958.999999999999
 30
0.0
 11
2114.0
 21
1958.999999999999
 31
0.0
  0
LINE
  5
80CF
330
8065
100
AcDbEntity
  8
枠
100
AcDbLine
 10
2834.0
 20
1893.999999999998
 30
0.0
 11
2114.0
 21
1893.999999999998
 31
0.0
  0
LINE
  5
80D0
330
8065
100
AcDbEntity
  8
枠
100
AcDbLine
 10
2114.0
 20
1893.999999999998
 30
0.0
 11
2114.0
 21
2023.999999999999
 31
0.0
  0
TEXT
  5
80D1
330
8065
100
AcDbEntity
  8
枠
100
AcDbText
 10
2671.5
 20
1976.499999999999
 30
0.0
 40
30.0
  1
仕上げ
 72
     4
 11
2721.5
 21
1991.499999999999
 31
0.0
100
AcDbText
  0
LINE
  5
80D2
330
8065
100
AcDbEntity
  8
枠
100
AcDbLine
 10
2592.81684247519
 20
1893.999999999998
 30
0.0
 11
2592.81684247519
 21
2023.999999999999
 31
0.0
  0
LINE
  5
80D3
330
8065
100
AcDbEntity
  8
枠
100
AcDbLine
 10
2367.816842475189
 20
1893.999999999998
 30
0.0
 11
2367.816842475189
 21
2023.999999999999
 31
0.0
  0
TEXT
  5
80D4
330
8065
100
AcDbEntity
  8
実形
100
AcDbText
 10
2641.5
 20
1911.5
 30
0.0
 40
30.0
  1
HL仕上げ
 72
     4
 11
2721.5
 21
1926.5
 31
0.0
100
AcDbText
  0
TEXT
  5
80D5
330
8065
100
AcDbEntity
  8
枠
100
AcDbText
 10
2194.5
 20
1976.499999999999
 30
0.0
 40
30.0
  1
材質
 72
     4
 11
2226.5
 21
1991.499999999999
 31
0.0
100
AcDbText
  0
TEXT
  5
80D6
330
8065
100
AcDbEntity
  8
実形
100
AcDbText
 10
2150.567741091872
 20
1909.802712155305
 30
0.0
 40
30.0
  1
SUS304
 72
     4
 11
2233.067741091872
 21
1924.802712155305
 31
0.0
100
AcDbText
  0
TEXT
  5
80D7
330
8065
100
AcDbEntity
  8
枠
100
AcDbText
 10
2445.771452399255
 20
1977.499999999999
 30
0.0
 40
30.0
  1
厚み
 72
     4
 11
2476.771452399255
 21
1991.499999999999
 31
0.0
100
AcDbText
  0
TEXT
  5
80D8
330
8065
100
AcDbEntity
  8
実形
100
AcDbText
 10
2418.271452399255
 20
1911.5
 30
0.0
 40
30.0
  1
1.0ｍｍ
 72
     4
 11
2476.771452399255
 21
1926.5
 31
0.0
100
AcDbText
  0
LINE
  5
80D9
330
8065
100
AcDbEntity
  8
実形
100
AcDbLine
 10
868.770210499882
 20
1554.178460662066
 30
0.0
 11
1092.770210499882
 21
1554.178460662066
 31
0.0
  0
DIMENSION
  5
80DA
330
8065
100
AcDbEntity
  8
実形
100
AcDbDimension
  2
*D40
 10
1043.456345948539
 20
1404.178460662066
 30
0.0
 11
1021.856345948539
 21
1479.178460662066
 31
0.0
 70
    32
 71
     5
 42
150.0000000000002
  3
ISO-25
100
AcDbAlignedDimension
 13
1159.538117598124
 23
1554.178460662066
 33
0.0
 14
1156.209930106677
 24
1404.178460662066
 34
0.0
 50
90.0
100
AcDbRotatedDimension
1001
ACAD
1000
DSTYLE
1002
{
1070
    41
1040
10.0
1070
   140
1040
30.0
1070
   147
1040
6.599999999999998
1070
   279
1070
     2
1070
   342
1005
30D
1070
   371
1070
    18
1070
   372
1070
    18
1002
}
  0
DIMENSION
  5
80DB
330
8065
100
AcDbEntity
  8
実形
100
AcDbDimension
  2
*D41
 10
1622.770210499882
 20
1270.994834284402
 30
0.0
 11
1432.770210499882
 21
1292.594834284402
 31
0.0
 70
    32
 71
     5
 42
380.0
  3
ISO-25
100
AcDbAlignedDimension
 13
1242.770210499882
 23
1365.740901717254
 33
0.0
 14
1622.770210499882
 24
1365.740901717254
 34
0.0
100
AcDbRotatedDimension
1001
ACAD
1000
DSTYLE
1002
{
1070
    41
1040
10.0
1070
   140
1040
30.0
1070
   147
1040
6.599999999999998
1070
   279
1070
     2
1070
   342
1005
30D
1070
   371
1070
    18
1070
   372
1070
    18
1002
}
  0
LINE
  5
80DC
330
8065
100
AcDbEntity
  8
実形
100
AcDbLine
 10
1092.770210499882
 20
1554.178460662066
 30
0.0
 11
1092.770210499882
 21
1624.178460662066
 31
0.0
  0
LINE
  5
80DD
330
8065
100
AcDbEntity
  8
実形
100
AcDbLine
 10
1392.770210499882
 20
1554.178460662066
 30
0.0
 11
1392.770210499882
 21
1624.178460662066
 31
0.0
  0
DIMENSION
  5
80DE
330
8065
100
AcDbEntity
  8
実形
100
AcDbDimension
  2
*D42
 10
1092.770210499882
 20
1735.385472702717
 30
0.0
 11
967.7702104998825
 21
1754.485472702717
 31
0.0
 70
    32
 71
     5
 42
250.0000000000001
  3
ISO-25
100
AcDbAlignedDimension
 13
842.7702104998823
 23
1624.178460662066
 33
0.0
 14
1092.770210499882
 24
1624.178460662066
 34
0.0
100
AcDbRotatedDimension
1001
ACAD
1000
DSTYLE
1002
{
1070
    41
1040
10.0
1070
   140
1040
25.0
1070
   147
1040
6.599999999999998
1070
   279
1070
     2
1070
   342
1005
30D
1070
   371
1070
    18
1070
   372
1070
    18
1002
}
  0
DIMENSION
  5
80DF
330
8065
100
AcDbEntity
  8
実形
100
AcDbDimension
  2
*D43
 10
1392.770210499882
 20
1735.385472702717
 30
0.0
 11
1242.770210499882
 21
1754.485472702717
 31
0.0
 70
    32
 71
     5
 42
300.0
  3
ISO-25
100
AcDbAlignedDimension
 13
1092.770210499882
 23
1624.178460662066
 33
0.0
 14
1392.770210499882
 24
1624.178460662066
 34
0.0
100
AcDbRotatedDimension
1001
ACAD
1000
DSTYLE
1002
{
1070
    41
1040
10.0
1070
   140
1040
25.0
1070
   147
1040
6.599999999999998
1070
   279
1070
     2
1070
   342
1005
30D
1070
   371
1070
    18
1070
   372
1070
    18
1002
}
  0
DIMENSION
  5
80E0
330
8065
100
AcDbEntity
  8
実形
100
AcDbDimension
  2
*D44
 10
1642.770210499882
 20
1735.385472702717
 30
0.0
 11
1517.770210499882
 21
1754.485472702717
 31
0.0
 70
    32
 71
     5
 42
249.9999999999998
  3
ISO-25
100
AcDbAlignedDimension
 13
1392.770210499883
 23
1624.178460662065
 33
0.0
 14
1642.770210499882
 24
1624.178460662065
 34
0.0
100
AcDbRotatedDimension
1001
ACAD
1000
DSTYLE
1002
{
1070
    41
1040
10.0
1070
   140
1040
25.0
1070
   147
1040
6.599999999999998
1070
   279
1070
     2
1070
   342
1005
30D
1070
   371
1070
    18
1070
   372
1070
    18
1002
}
  0
DIMENSION
  5
80E1
330
8065
100
AcDbEntity
  8
実形
100
AcDbDimension
  2
*D45
 10
1657.770210499882
 20
1735.385472702717
 30
0.0
 11
826.3182245476109
 21
1760.370517377699
 31
0.0
 70
   160
  1
15
 71
     5
 42
830.0
  3
ISO-25
100
AcDbAlignedDimension
 13
827.7702104998825
 23
1624.806458158204
 33
0.0
 14
1657.770210499882
 24
1624.161761419618
 34
0.0
100
AcDbRotatedDimension
1001
ACAD
1000
DSTYLE
1002
{
1070
    41
1040
10.0
1070
   140
1040
25.0
1070
   147
1040
6.599999999999998
1070
   279
1070
     2
1070
   342
1005
30D
1070
   371
1070
    18
1070
   372
1070
    18
1002
}
  0
TEXT
  5
80E2
330
8065
100
AcDbEntity
  8
実形
 48
20.0
100
AcDbText
 10
1644.285264478984
 20
1745.579848299247
 30
0.0
 40
25.0
  1
15
100
AcDbText
  0
DIMENSION
  5
80E3
330
8065
100
AcDbEntity
  8
実形
100
AcDbDimension
  2
*D46
 10
1771.093547640548
 20
1184.178460662066
 30
0.0
 11
1751.993547640548
 21
1414.178460662066
 31
0.0
 70
    32
 71
     5
 42
459.9999999999997
  3
ISO-25
100
AcDbAlignedDimension
 13
1657.770210499882
 23
1644.178460662066
 33
0.0
 14
1657.770210499883
 24
1184.178460662066
 34
0.0
 50
90.0
100
AcDbRotatedDimension
1001
ACAD
1000
DSTYLE
1002
{
1070
    41
1040
10.0
1070
   140
1040
25.0
1070
   147
1040
6.599999999999998
1070
   279
1070
     2
1070
   342
1005
30D
1070
   371
1070
    18
1070
   372
1070
    18
1002
}
  0
DIMENSION
  5
80E4
330
8065
100
AcDbEntity
  8
実形
100
AcDbDimension
  2
*D47
 10
1771.093547640548
 20
1169.178460662066
 30
0.0
 11
1749.493547640548
 21
1688.725599288342
 31
0.0
 70
   160
  1
15
 71
     5
 42
490.0
  3
ISO-25
100
AcDbAlignedDimension
 13
1657.770210499882
 23
1659.178460662066
 33
0.0
 14
1657.770210499882
 24
1169.178460662066
 34
0.0
 50
90.0
100
AcDbRotatedDimension
1001
ACAD
1000
DSTYLE
1002
{
1070
    41
1040
10.0
1070
   140
1040
25.0
1070
   147
1040
6.599999999999998
1070
   279
1070
     2
1070
   342
1005
30D
1070
   371
1070
    18
1070
   372
1070
    18
1002
}
  0
TEXT
  5
80E5
330
8065
100
AcDbEntity
  8
実形
 48
20.0
100
AcDbText
 10
1763.371050332344
 20
1117.528641274333
 30
0.0
 40
25.0
  1
15
 50
90.0
100
AcDbText
  0
DIMENSION
  5
80E6
330
8065
100
AcDbEntity
  8
実形
100
AcDbDimension
  2
*D48
 10
1833.118375451033
 20
1169.178460662066
 30
0.0
 11
1814.018375451033
 21
1414.178460662066
 31
0.0
 70
    32
 71
     5
 42
490.0
  3
ISO-25
100
AcDbAlignedDimension
 13
1657.770210499882
 23
1659.178460662066
 33
0.0
 14
1657.770210499882
 24
1169.178460662066
 34
0.0
 50
90.0
100
AcDbRotatedDimension
1001
ACAD
1000
DSTYLE
1002
{
1070
    41
1040
10.0
1070
   140
1040
25.0
1070
   147
1040
6.599999999999998
1070
   279
1070
     2
1070
   342
1005
30D
1070
   371
1070
    18
1070
   372
1070
    18
1002
}
  0
LINE
  5
80E7
330
8065
100
AcDbEntity
  8
実形
100
AcDbLine
 10
773.3275276276962
 20
1644.178460662066
 30
0.0
 11
738.1482502386061
 21
1644.178460662066
 31
0.0
  0
LINE
  5
80E8
330
8065
100
AcDbEntity
  8
実形
100
AcDbLine
 10
738.1482502386061
 20
1644.178460662066
 30
0.0
 11
738.1482502386061
 21
1624.178460662066
 31
0.0
  0
LINE
  5
80E9
330
8065
100
AcDbEntity
  8
実形
100
AcDbLine
 10
738.1482502386061
 20
1624.178460662066
 30
0.0
 11
773.3275276276963
 21
1624.178460662066
 31
0.0
  0
DIMENSION
  5
80EA
330
8065
100
AcDbEntity
  8
実形
100
AcDbDimension
  2
*D49
 10
738.1482502386061
 20
1644.178460662066
 30
0.0
 11
715.569680847846
 21
1589.259853472391
 31
0.0
 70
   160
  1
70
 71
     5
 42
89.99999999999955
  3
ISO-25
100
AcDbAlignedDimension
 13
832.3275276276962
 23
1554.178460662066
 33
0.0
 14
832.3275276276962
 24
1644.178460662066
 34
0.0
 50
90.0
100
AcDbRotatedDimension
1001
ACAD
1000
DSTYLE
1002
{
1070
    41
1040
10.0
1070
   140
1040
25.0
1070
   147
1040
6.599999999999998
1070
   279
1070
     2
1070
   342
1005
30D
1070
   371
1070
    18
1070
   372
1070
    18
1002
}
  0
DIMENSION
  5
80EB
330
8065
100
AcDbEntity
  8
実形
100
AcDbDimension
  2
*D50
 10
738.1482502386061
 20
1624.178460662066
 30
0.0
 11
801.3626707265066
 21
1625.22842009638
 31
0.0
 70
   160
  1
20
 71
     5
 42
69.99999999999977
  3
ISO-25
100
AcDbAlignedDimension
 13
832.3275276276962
 23
1554.178460662066
 33
0.0
 14
838.3275276276963
 24
1624.178460662066
 34
0.0
 50
90.0
100
AcDbRotatedDimension
1001
ACAD
1000
DSTYLE
1002
{
1070
    41
1040
10.0
1070
   140
1040
25.0
1070
   147
1040
6.599999999999998
1070
   279
1070
     2
1070
   342
1005
30D
1070
   371
1070
    18
1070
   372
1070
    18
1002
}
  0
TEXT
  5
80EC
330
8065
100
AcDbEntity
  8
実形
 48
20.0
100
AcDbText
 10
797.0821669850392
 20
2333.361271294907
 30
0.0
 40
8.0
  1
●
 50
90.0
100
AcDbText
  0
DIMENSION
  5
80ED
330
8065
100
AcDbEntity
  8
実形
100
AcDbDimension
  2
*D51
 10
672.3280192665588
 20
1554.178460662066
 30
0.0
 11
653.2280192665585
 21
1599.178460662066
 31
0.0
 70
    32
 71
     5
 42
89.99999999999955
  3
ISO-25
100
AcDbAlignedDimension
 13
800.771238858355
 23
1644.178460662066
 33
0.0
 14
779.7500916428215
 24
1554.178460662066
 34
0.0
 50
90.0
100
AcDbRotatedDimension
1001
ACAD
1000
DSTYLE
1002
{
1070
    41
1040
10.0
1070
   140
1040
25.0
1070
   147
1040
6.599999999999998
1070
   279
1070
     2
1070
   342
1005
30D
1070
   371
1070
    18
1070
   372
1070
    18
1002
}
  0
DIMENSION
  5
80EE
330
8065
100
AcDbEntity
  8
実形
100
AcDbDimension
  2
*D52
 10
672.3280192665587
 20
1204.178460662066
 30
0.0
 11
653.2280192665585
 21
1379.178460662066
 31
0.0
 70
    32
 71
     5
 42
350.0000000000004
  3
ISO-25
100
AcDbAlignedDimension
 13
797.6742997845558
 23
1554.178460662066
 33
0.0
 14
802.7945193027008
 24
1204.178460662066
 34
0.0
 50
90.0
100
AcDbRotatedDimension
1001
ACAD
1000
DSTYLE
1002
{
1070
    41
1040
10.0
1070
   140
1040
25.0
1070
   147
1040
6.599999999999998
1070
   279
1070
     2
1070
   342
1005
30D
1070
   371
1070
    18
1070
   372
1070
    18
1002
}
  0
DIMENSION
  5
80EF
330
8065
100
AcDbEntity
  8
実形
100
AcDbDimension
  2
*D53
 10
672.3280192665587
 20
1169.178460662066
 30
0.0
 11
650.7280192665586
 21
1682.883538982083
 31
0.0
 70
   160
  1
15
 71
     5
 42
490.0
  3
ISO-25
100
AcDbAlignedDimension
 13
829.1539611657317
 23
1659.178460662066
 33
0.0
 14
802.2641105192887
 24
1169.178460662066
 34
0.0
 50
90.0
100
AcDbRotatedDimension
1001
ACAD
1000
DSTYLE
1002
{
1070
    41
1040
10.0
1070
   140
1040
25.0
1070
   147
1040
6.599999999999998
1070
   279
1070
     2
1070
   342
1005
30D
1070
   371
1070
    18
1070
   372
1070
    18
1002
}
  0
DIMENSION
  5
80F0
330
8065
100
AcDbEntity
  8
実形
100
AcDbDimension
  2
*D54
 10
672.3280192665588
 20
1554.178460662066
 30
0.0
 11
650.745963999092
 21
1217.459715149787
 31
0.0
 70
   160
  1
20
 71
     5
 42
370.0000000000005
  3
ISO-25
100
AcDbAlignedDimension
 13
802.7945193027008
 23
1184.178460662066
 33
0.0
 14
767.3275276276962
 24
1554.178460662066
 34
0.0
 50
90.0
100
AcDbRotatedDimension
1001
ACAD
1000
DSTYLE
1002
{
1070
    41
1040
10.0
1070
   140
1040
25.0
1070
   147
1040
6.599999999999998
1070
   279
1070
     2
1070
   342
1005
30D
1070
   371
1070
    18
1070
   372
1070
    18
1002
}
  0
TEXT
  5
80F1
330
8065
100
AcDbEntity
  8
実形
 48
20.0
100
AcDbText
 10
662.9803565113634
 20
1130.061801922893
 30
0.0
 40
25.0
  1
15
 50
90.0
100
AcDbText
  0
DIMENSION
  5
80F2
330
8065
100
AcDbEntity
  8
実形
100
AcDbDimension
  2
*D55
 10
616.3564627716168
 20
1184.178460662066
 30
0.0
 11
597.2564627716167
 21
1414.178460662066
 31
0.0
 70
    32
 71
     5
 42
460.0
  3
ISO-25
100
AcDbAlignedDimension
 13
831.7269474160729
 23
1644.178460662066
 33
0.0
 14
804.8056315785306
 24
1184.178460662066
 34
0.0
 50
90.0
100
AcDbRotatedDimension
1001
ACAD
1000
DSTYLE
1002
{
1070
    41
1040
10.0
1070
   140
1040
25.0
1070
   147
1040
6.599999999999998
1070
   279
1070
     2
1070
   342
1005
30D
1070
   371
1070
    18
1070
   372
1070
    18
1002
}
  0
DIMENSION
  5
80F3
330
8065
100
AcDbEntity
  8
実形
100
AcDbDimension
  2
*D56
 10
556.8835017673409
 20
1169.178460662066
 30
0.0
 11
535.2835017673408
 21
1414.178460662066
 31
0.0
 70
    32
 71
     5
 42
490.0
  3
ISO-25
100
AcDbAlignedDimension
 13
827.7702104998825
 23
1659.178460662066
 33
0.0
 14
805.8183231977528
 24
1169.178460662066
 34
0.0
 50
90.0
100
AcDbRotatedDimension
1001
ACAD
1000
DSTYLE
1002
{
1070
    41
1040
10.0
1070
   140
1040
30.0
1070
   147
1040
6.599999999999998
1070
   279
1070
     2
1070
   342
1005
30D
1070
   371
1070
    18
1070
   372
1070
    18
1002
}
  0
LINE
  5
80F4
330
8065
100
AcDbEntity
  8
実形
100
AcDbLine
 10
1392.770210499882
 20
1554.178460662066
 30
0.0
 11
1616.770210499882
 21
1554.178460662066
 31
0.0
  0
ARC
  5
80F5
330
8065
100
AcDbEntity
  8
実形
100
AcDbCircle
 10
868.770210499882
 20
1548.178460662066
 30
0.0
 40
6.0
100
AcDbArc
 50
89.99999999999994
 51
180.0
  0
ARC
  5
80F6
330
8065
100
AcDbEntity
  8
実形
100
AcDbCircle
 10
1616.770210499882
 20
1548.178460662066
 30
0.0
 40
6.0
100
AcDbArc
 50
0.0
 51
89.99999999999994
  0
LINE
  5
80F7
330
8065
100
AcDbEntity
  8
実形
  6
ACAD_ISO08W100
 48
0.5
100
AcDbLine
 10
1242.770210499882
 20
1300.740901717254
 30
0.0
 11
1242.770210499882
 21
1599.683968216935
 31
0.0
  0
ENDBLK
  5
8101
330
8065
100
AcDbEntity
  8
0
 62
     3
100
AcDbBlockEnd
  0
BLOCK
  5
8C2E
330
8C24
100
AcDbEntity
  8
0
 62
     3
100
AcDbBlockBegin
  2
*D58
 70
     1
 10
0.0
 20
0.0
 30
0.0
  3
*D58
  1

  0
LINE
  5
A332
330
8C24
100
AcDbEntity
  8
実形
 62
     0
370
    18
100
AcDbLine
 10
1411.053280974977
 20
1513.153842700946
 30
0.0
 11
1411.053280974977
 21
1569.349790319099
 31
0.0
  0
LINE
  5
A333
330
8C24
100
AcDbEntity
  8
実形
 62
     0
370
    18
100
AcDbLine
 10
1261.053280974977
 20
1513.153842700946
 30
0.0
 11
1261.053280974977
 21
1569.349790319099
 31
0.0
  0
LINE
  5
A334
330
8C24
100
AcDbEntity
  8
実形
 62
     0
370
    18
100
AcDbLine
 10
1401.053280974977
 20
1569.349790319099
 30
0.0
 11
1271.053280974977
 21
1569.349790319099
 31
0.0
  0
INSERT
  5
A335
330
8C24
100
AcDbEntity
  8
実形
 62
     0
370
    18
100
AcDbBlockReference
  2
_Dot
 10
1411.053280974977
 20
1569.349790319099
 30
0.0
 41
10.0
 42
10.0
 43
10.0
  0
INSERT
  5
A336
330
8C24
100
AcDbEntity
  8
実形
 62
     0
370
    18
100
AcDbBlockReference
  2
_Dot
 10
1261.053280974977
 20
1569.349790319099
 30
0.0
 41
10.0
 42
10.0
 43
10.0
 50
180.0
  0
MTEXT
  5
A337
330
8C24
100
AcDbEntity
  8
実形
 62
     0
100
AcDbMText
 10
1336.053280974977
 20
1588.449790319099
 30
0.0
 40
25.0
 41
0.0
 71
     5
 72
     1
  1
150
 73
     1
 44
1.0
1001
ACAD
1000
MTEXTBEGIN
1070
    73
1070
     1
1070
    44
1040
1.0
1070
    74
1070
     0
1000
MTEXTEND
  0
POINT
  5
A338
330
8C24
100
AcDbEntity
  8
Defpoints
 62
     0
100
AcDbPoint
 10
1411.053280974977
 20
1448.153842700946
 30
0.0
  0
POINT
  5
A339
330
8C24
100
AcDbEntity
  8
Defpoints
 62
     0
100
AcDbPoint
 10
1261.053280974977
 20
1448.153842700946
 30
0.0
  0
POINT
  5
A33A
330
8C24
100
AcDbEntity
  8
Defpoints
 62
     0
100
AcDbPoint
 10
1261.053280974977
 20
1569.349790319099
 30
0.0
  0
ENDBLK
  5
8C2F
330
8C24
100
AcDbEntity
  8
0
 62
     3
100
AcDbBlockEnd
  0
BLOCK
  5
8F37
330
8F2D
100
AcDbEntity
  8
0
 62
     3
100
AcDbBlockBegin
  2
*D59
 70
     1
 10
0.0
 20
0.0
 30
0.0
  3
*D59
  1

  0
LINE
  5
9E4A
330
8F2D
100
AcDbEntity
  8
実形
 62
     0
370
    18
100
AcDbLine
 10
1150.372050495051
 20
1414.178460662065
 30
0.0
 11
1113.781934716619
 21
1414.178460662065
 31
0.0
  0
LINE
  5
9E4B
330
8F2D
100
AcDbEntity
  8
実形
 62
     0
370
    18
100
AcDbLine
 10
1150.372050495051
 20
1179.178460662066
 30
0.0
 11
1113.781934716619
 21
1179.178460662066
 31
0.0
  0
LINE
  5
9E4C
330
8F2D
100
AcDbEntity
  8
実形
 62
     0
370
    18
100
AcDbLine
 10
1113.781934716619
 20
1404.178460662065
 30
0.0
 11
1113.781934716619
 21
1189.178460662066
 31
0.0
  0
INSERT
  5
9E4D
330
8F2D
100
AcDbEntity
  8
実形
 62
     0
370
    18
100
AcDbBlockReference
  2
_Dot
 10
1113.781934716619
 20
1414.178460662065
 30
0.0
 41
10.0
 42
10.0
 43
10.0
 50
90.0
  0
INSERT
  5
9E4E
330
8F2D
100
AcDbEntity
  8
実形
 62
     0
370
    18
100
AcDbBlockReference
  2
_Dot
 10
1113.781934716619
 20
1179.178460662066
 30
0.0
 41
10.0
 42
10.0
 43
10.0
 50
270.0
  0
MTEXT
  5
9E4F
330
8F2D
100
AcDbEntity
  8
実形
 62
     0
100
AcDbMText
 10
1094.681934716618
 20
1296.678460662066
 30
0.0
 40
25.0
 41
0.0
 71
     5
 72
     1
  1
235
 11
0.0000000000000001
 21
1.0
 31
0.0
 73
     1
 44
1.0
1001
ACAD
1000
MTEXTBEGIN
1070
    73
1070
     1
1070
    44
1040
1.0
1070
    74
1070
     0
1000
MTEXTEND
  0
POINT
  5
9E50
330
8F2D
100
AcDbEntity
  8
Defpoints
 62
     0
100
AcDbPoint
 10
1215.372050495051
 20
1414.178460662065
 30
0.0
  0
POINT
  5
9E51
330
8F2D
100
AcDbEntity
  8
Defpoints
 62
     0
100
AcDbPoint
 10
1215.372050495051
 20
1179.178460662066
 30
0.0
  0
POINT
  5
9E52
330
8F2D
100
AcDbEntity
  8
Defpoints
 62
     0
100
AcDbPoint
 10
1113.781934716619
 20
1179.178460662066
 30
0.0
  0
ENDBLK
  5
8F38
330
8F2D
100
AcDbEntity
  8
0
 62
     3
100
AcDbBlockEnd
  0
BLOCK
  5
8FDE
330
8FD4
100
AcDbEntity
  8
0
 62
     3
100
AcDbBlockBegin
  2
*D60
 70
     1
 10
0.0
 20
0.0
 30
0.0
  3
*D60
  1

  0
LINE
  5
A2CE
330
8FD4
100
AcDbEntity
  8
実形
 62
     0
370
    18
100
AcDbLine
 10
1551.053280974976
 20
1751.070092314618
 30
0.0
 11
1551.053280974976
 21
1798.875438359908
 31
0.0
  0
LINE
  5
A2CF
330
8FD4
100
AcDbEntity
  8
実形
 62
     0
370
    18
100
AcDbLine
 10
1431.053280974977
 20
1751.070092314618
 30
0.0
 11
1431.053280974977
 21
1798.875438359908
 31
0.0
  0
LINE
  5
A2D0
330
8FD4
100
AcDbEntity
  8
実形
 62
     0
370
    18
100
AcDbLine
 10
1541.053280974976
 20
1798.875438359908
 30
0.0
 11
1441.053280974977
 21
1798.875438359908
 31
0.0
  0
MTEXT
  5
A2D1
330
8FD4
100
AcDbEntity
  8
実形
 62
     0
100
AcDbMText
 10
1536.38279210934
 20
1727.112054279481
 30
0.0
 40
25.0
 41
0.0
 71
     5
 72
     1
  1
20
 73
     1
 44
1.0
1001
ACAD
1000
MTEXTBEGIN
1070
    73
1070
     1
1070
    44
1040
1.0
1070
    74
1070
     0
1000
MTEXTEND
  0
INSERT
  5
A2D2
330
8FD4
100
AcDbEntity
  8
実形
 62
     0
370
    18
100
AcDbBlockReference
  2
_Dot
 10
1551.053280974976
 20
1798.875438359908
 30
0.0
 41
10.0
 42
10.0
 43
10.0
  0
INSERT
  5
A2D3
330
8FD4
100
AcDbEntity
  8
実形
 62
     0
370
    18
100
AcDbBlockReference
  2
_Dot
 10
1431.053280974977
 20
1798.875438359908
 30
0.0
 41
10.0
 42
10.0
 43
10.0
 50
180.0
  0
POINT
  5
A2D4
330
8FD4
100
AcDbEntity
  8
Defpoints
 62
     0
100
AcDbPoint
 10
1551.053280974976
 20
1686.070092314619
 30
0.0
  0
POINT
  5
A2D5
330
8FD4
100
AcDbEntity
  8
Defpoints
 62
     0
100
AcDbPoint
 10
1431.053280974977
 20
1686.070092314619
 30
0.0
  0
POINT
  5
A2D6
330
8FD4
100
AcDbEntity
  8
Defpoints
 62
     0
100
AcDbPoint
 10
1431.053280974977
 20
1798.875438359908
 30
0.0
  0
ENDBLK
  5
8FDF
330
8FD4
100
AcDbEntity
  8
0
 62
     3
100
AcDbBlockEnd
  0
BLOCK
  5
8FF4
330
8FEA
100
AcDbEntity
  8
0
 62
     3
100
AcDbBlockBegin
  2
*D61
 70
     1
 10
0.0
 20
0.0
 30
0.0
  3
*D61
  1

  0
LINE
  5
A2BC
330
8FEA
100
AcDbEntity
  8
実形
 62
     0
370
    18
100
AcDbLine
 10
1531.053280974977
 20
1752.668426319257
 30
0.0
 11
1531.053280974977
 21
1798.875438359908
 31
0.0
  0
LINE
  5
A2BD
330
8FEA
100
AcDbEntity
  8
実形
 62
     0
370
    18
100
AcDbLine
 10
1431.053280974977
 20
1752.668426319257
 30
0.0
 11
1431.053280974977
 21
1798.875438359908
 31
0.0
  0
LINE
  5
A2BE
330
8FEA
100
AcDbEntity
  8
実形
 62
     0
370
    18
100
AcDbLine
 10
1521.053280974977
 20
1798.875438359908
 30
0.0
 11
1441.053280974977
 21
1798.875438359908
 31
0.0
  0
INSERT
  5
A2BF
330
8FEA
100
AcDbEntity
  8
実形
 62
     0
370
    18
100
AcDbBlockReference
  2
_Dot
 10
1531.053280974977
 20
1798.875438359908
 30
0.0
 41
10.0
 42
10.0
 43
10.0
  0
INSERT
  5
A2C0
330
8FEA
100
AcDbEntity
  8
実形
 62
     0
370
    18
100
AcDbBlockReference
  2
_Dot
 10
1431.053280974977
 20
1798.875438359908
 30
0.0
 41
10.0
 42
10.0
 43
10.0
 50
180.0
  0
MTEXT
  5
A2C1
330
8FEA
100
AcDbEntity
  8
実形
 62
     0
100
AcDbMText
 10
1481.053280974977
 20
1817.975438359908
 30
0.0
 40
25.0
 41
0.0
 71
     5
 72
     1
  1
100
 73
     1
 44
1.0
1001
ACAD
1000
MTEXTBEGIN
1070
    73
1070
     1
1070
    44
1040
1.0
1070
    74
1070
     0
1000
MTEXTEND
  0
POINT
  5
A2C2
330
8FEA
100
AcDbEntity
  8
Defpoints
 62
     0
100
AcDbPoint
 10
1531.053280974977
 20
1687.668426319256
 30
0.0
  0
POINT
  5
A2C3
330
8FEA
100
AcDbEntity
  8
Defpoints
 62
     0
100
AcDbPoint
 10
1431.053280974977
 20
1687.668426319256
 30
0.0
  0
POINT
  5
A2C4
330
8FEA
100
AcDbEntity
  8
Defpoints
 62
     0
100
AcDbPoint
 10
1431.053280974977
 20
1798.875438359908
 30
0.0
  0
ENDBLK
  5
8FF5
330
8FEA
100
AcDbEntity
  8
0
 62
     3
100
AcDbBlockEnd
  0
BLOCK
  5
9C45
330
9C3F
100
AcDbEntity
  8
0
 62
     3
100
AcDbBlockBegin
  2
A$C6212596F
 70
     0
 10
0.0
 20
0.0
 30
0.0
  3
A$C6212596F
  1

  0
TEXT
  5
9C40
330
9C3F
100
AcDbEntity
  8
実形
100
AcDbText
 10
37.39926136169137
 20
-182.3469078340958
 30
0.0
 40
25.0
  1
6R
 72
     2
 11
79.06592802835803
 21
-185.6802411674291
 31
0.0
100
AcDbText
 73
     1
  0
LEADER
  5
9C41
330
9C3F
100
AcDbEntity
  8
実形
100
AcDbLeader
  3
ISO-25
 76
     2
 10
7.606512800597556
 20
-234.4709575417521
 30
0.0
 10
35.90962123346981
 20
-191.2824535865231
 30
0.0
1001
ACAD
1000
DSTYLE
1002
{
1070
    77
1070
     0
1070
    41
1040
10.0
1070
   147
1040
6.599999999999998
1070
   279
1070
     2
1070
   342
1005
30D
1070
   371
1070
    18
1070
   372
1070
    18
1002
}
  0
LEADER
  5
9C42
330
9C3F
100
AcDbEntity
  8
実形
100
AcDbLeader
  3
ISO-25
 76
     2
 10
89.53655603097468
 20
-235.9602182809897
 30
0.0
 10
70.17127481204807
 20
-189.793201059095
 30
0.0
1001
ACAD
1000
DSTYLE
1002
{
1070
    77
1070
     0
1070
    41
1040
10.0
1070
   147
1040
6.599999999999998
1070
   279
1070
     2
1070
   342
1005
30D
1070
   371
1070
    18
1070
   372
1070
    18
1002
}
  0
ENDBLK
  5
9C46
330
9C3F
100
AcDbEntity
  8
0
 62
     3
100
AcDbBlockEnd
  0
BLOCK
  5
9F82
330
9F78
100
AcDbEntity
  8
0
 62
     3
100
AcDbBlockBegin
  2
*D63
 70
     1
 10
0.0
 20
0.0
 30
0.0
  3
*D63
  1

  0
LINE
  5
A9E8
330
9F78
100
AcDbEntity
  8
実形
 62
     0
370
    18
100
AcDbLine
 10
2180.881397616315
 20
1669.178460662066
 30
0.0
 11
2239.563346763179
 21
1669.178460662066
 31
0.0
  0
LINE
  5
A9E9
330
9F78
100
AcDbEntity
  8
実形
 62
     0
370
    18
100
AcDbLine
 10
2178.186486125327
 20
1159.178460662066
 30
0.0
 11
2239.563346763179
 21
1159.178460662066
 31
0.0
  0
LINE
  5
A9EA
330
9F78
100
AcDbEntity
  8
実形
 62
     0
370
    18
100
AcDbLine
 10
2239.563346763179
 20
1659.178460662065
 30
0.0
 11
2239.563346763179
 21
1169.178460662066
 31
0.0
  0
INSERT
  5
A9EB
330
9F78
100
AcDbEntity
  8
実形
 62
     0
370
    18
100
AcDbBlockReference
  2
_Dot
 10
2239.563346763179
 20
1669.178460662066
 30
0.0
 41
10.0
 42
10.0
 43
10.0
 50
90.0
  0
INSERT
  5
A9EC
330
9F78
100
AcDbEntity
  8
実形
 62
     0
370
    18
100
AcDbBlockReference
  2
_Dot
 10
2239.563346763179
 20
1159.178460662066
 30
0.0
 41
10.0
 42
10.0
 43
10.0
 50
270.0
  0
MTEXT
  5
A9ED
330
9F78
100
AcDbEntity
  8
実形
 62
     0
100
AcDbMText
 10
2220.463346763179
 20
1414.178460662066
 30
0.0
 40
25.0
 41
0.0
 71
     5
 72
     1
  1
510
 11
0.0000000000000001
 21
1.0
 31
0.0
 73
     1
 44
1.0
1001
ACAD
1000
MTEXTBEGIN
1070
    73
1070
     1
1070
    44
1040
1.0
1070
    74
1070
     0
1000
MTEXTEND
  0
POINT
  5
A9EE
330
9F78
100
AcDbEntity
  8
Defpoints
 62
     0
100
AcDbPoint
 10
2115.881397616314
 20
1669.178460662066
 30
0.0
  0
POINT
  5
A9EF
330
9F78
100
AcDbEntity
  8
Defpoints
 62
     0
100
AcDbPoint
 10
2113.186486125327
 20
1159.178460662066
 30
0.0
  0
POINT
  5
A9F0
330
9F78
100
AcDbEntity
  8
Defpoints
 62
     0
100
AcDbPoint
 10
2239.563346763179
 20
1159.178460662066
 30
0.0
  0
ENDBLK
  5
9F83
330
9F78
100
AcDbEntity
  8
0
 62
     3
100
AcDbBlockEnd
  0
BLOCK
  5
9F8E
330
9F84
100
AcDbEntity
  8
0
 62
     3
100
AcDbBlockBegin
  2
*D64
 70
     1
 10
0.0
 20
0.0
 30
0.0
  3
*D64
  1

  0
LINE
  5
A9F1
330
9F84
100
AcDbEntity
  8
実形
 62
     0
370
    18
100
AcDbLine
 10
2191.240009622513
 20
1684.178460662066
 30
0.0
 11
2239.563346763179
 21
1684.178460662066
 31
0.0
  0
LINE
  5
A9F2
330
9F84
100
AcDbEntity
  8
実形
 62
     0
370
    18
100
AcDbLine
 10
2191.240009622513
 20
1144.178460662065
 30
0.0
 11
2239.563346763179
 21
1144.178460662065
 31
0.0
  0
LINE
  5
A9F3
330
9F84
100
AcDbEntity
  8
実形
 62
     0
370
    18
100
AcDbLine
 10
2239.563346763179
 20
1674.178460662066
 30
0.0
 11
2239.563346763179
 21
1154.178460662066
 31
0.0
  0
MTEXT
  5
A9F4
330
9F84
100
AcDbEntity
  8
実形
 62
     0
100
AcDbMText
 10
2217.963346763179
 20
1713.725599288342
 30
0.0
 40
25.0
 41
0.0
 71
     5
 72
     1
  1
15
 11
0.0000000000000001
 21
1.0
 31
0.0
 73
     1
 44
1.0
1001
ACAD
1000
MTEXTBEGIN
1070
    73
1070
     1
1070
    44
1040
1.0
1070
    74
1070
     0
1000
MTEXTEND
  0
INSERT
  5
A9F5
330
9F84
100
AcDbEntity
  8
実形
 62
     0
370
    18
100
AcDbBlockReference
  2
_Dot
 10
2239.563346763179
 20
1684.178460662066
 30
0.0
 41
10.0
 42
10.0
 43
10.0
 50
90.0
  0
INSERT
  5
A9F6
330
9F84
100
AcDbEntity
  8
実形
 62
     0
370
    18
100
AcDbBlockReference
  2
_Dot
 10
2239.563346763179
 20
1144.178460662065
 30
0.0
 41
10.0
 42
10.0
 43
10.0
 50
270.0
  0
POINT
  5
A9F7
330
9F84
100
AcDbEntity
  8
Defpoints
 62
     0
100
AcDbPoint
 10
2126.240009622513
 20
1684.178460662066
 30
0.0
  0
POINT
  5
A9F8
330
9F84
100
AcDbEntity
  8
Defpoints
 62
     0
100
AcDbPoint
 10
2126.240009622513
 20
1144.178460662065
 30
0.0
  0
POINT
  5
A9F9
330
9F84
100
AcDbEntity
  8
Defpoints
 62
     0
100
AcDbPoint
 10
2239.563346763179
 20
1144.178460662065
 30
0.0
  0
ENDBLK
  5
9F8F
330
9F84
100
AcDbEntity
  8
0
 62
     3
100
AcDbBlockEnd
  0
BLOCK
  5
9F9A
330
9F90
100
AcDbEntity
  8
0
 62
     3
100
AcDbBlockBegin
  2
*D65
 70
     1
 10
0.0
 20
0.0
 30
0.0
  3
*D65
  1

  0
LINE
  5
A9FA
330
9F90
100
AcDbEntity
  8
実形
 62
     0
370
    18
100
AcDbLine
 10
2191.240009622513
 20
1684.178460662066
 30
0.0
 11
2301.588174573664
 21
1684.178460662066
 31
0.0
  0
LINE
  5
A9FB
330
9F90
100
AcDbEntity
  8
実形
 62
     0
370
    18
100
AcDbLine
 10
2191.240009622513
 20
1144.178460662065
 30
0.0
 11
2301.588174573664
 21
1144.178460662065
 31
0.0
  0
LINE
  5
A9FC
330
9F90
100
AcDbEntity
  8
実形
 62
     0
370
    18
100
AcDbLine
 10
2301.588174573664
 20
1674.178460662066
 30
0.0
 11
2301.588174573664
 21
1154.178460662066
 31
0.0
  0
INSERT
  5
A9FD
330
9F90
100
AcDbEntity
  8
実形
 62
     0
370
    18
100
AcDbBlockReference
  2
_Dot
 10
2301.588174573664
 20
1684.178460662066
 30
0.0
 41
10.0
 42
10.0
 43
10.0
 50
90.0
  0
INSERT
  5
A9FE
330
9F90
100
AcDbEntity
  8
実形
 62
     0
370
    18
100
AcDbBlockReference
  2
_Dot
 10
2301.588174573664
 20
1144.178460662065
 30
0.0
 41
10.0
 42
10.0
 43
10.0
 50
270.0
  0
MTEXT
  5
A9FF
330
9F90
100
AcDbEntity
  8
実形
 62
     0
100
AcDbMText
 10
2282.488174573663
 20
1414.178460662066
 30
0.0
 40
25.0
 41
0.0
 71
     5
 72
     1
  1
540
 11
0.0000000000000001
 21
1.0
 31
0.0
 73
     1
 44
1.0
1001
ACAD
1000
MTEXTBEGIN
1070
    73
1070
     1
1070
    44
1040
1.0
1070
    74
1070
     0
1000
MTEXTEND
  0
POINT
  5
AA00
330
9F90
100
AcDbEntity
  8
Defpoints
 62
     0
100
AcDbPoint
 10
2126.240009622513
 20
1684.178460662066
 30
0.0
  0
POINT
  5
AA01
330
9F90
100
AcDbEntity
  8
Defpoints
 62
     0
100
AcDbPoint
 10
2126.240009622513
 20
1144.178460662065
 30
0.0
  0
POINT
  5
AA02
330
9F90
100
AcDbEntity
  8
Defpoints
 62
     0
100
AcDbPoint
 10
2301.588174573664
 20
1144.178460662065
 30
0.0
  0
ENDBLK
  5
9F9B
330
9F90
100
AcDbEntity
  8
0
 62
     3
100
AcDbBlockEnd
  0
BLOCK
  5
9FA6
330
9F9C
100
AcDbEntity
  8
0
 62
     3
100
AcDbBlockBegin
  2
*D66
 70
     1
 10
0.0
 20
0.0
 30
0.0
  3
*D66
  1

  0
LINE
  5
AA03
330
9F9C
100
AcDbEntity
  8
実形
 62
     0
370
    18
100
AcDbLine
 10
2125.224018306508
 20
1649.178460662066
 30
0.0
 11
2179.392668322953
 21
1649.178460662066
 31
0.0
  0
LINE
  5
AA04
330
9F9C
100
AcDbEntity
  8
実形
 62
     0
370
    18
100
AcDbLine
 10
2125.224018306508
 20
1179.178460662066
 30
0.0
 11
2179.392668322953
 21
1179.178460662066
 31
0.0
  0
LINE
  5
AA05
330
9F9C
100
AcDbEntity
  8
実形
 62
     0
370
    18
100
AcDbLine
 10
2179.392668322953
 20
1639.178460662066
 30
0.0
 11
2179.392668322953
 21
1189.178460662066
 31
0.0
  0
INSERT
  5
AA06
330
9F9C
100
AcDbEntity
  8
実形
 62
     0
370
    18
100
AcDbBlockReference
  2
_Dot
 10
2179.392668322953
 20
1649.178460662066
 30
0.0
 41
10.0
 42
10.0
 43
10.0
 50
90.0
  0
INSERT
  5
AA07
330
9F9C
100
AcDbEntity
  8
実形
 62
     0
370
    18
100
AcDbBlockReference
  2
_Dot
 10
2179.392668322953
 20
1179.178460662066
 30
0.0
 41
10.0
 42
10.0
 43
10.0
 50
270.0
  0
MTEXT
  5
AA08
330
9F9C
100
AcDbEntity
  8
実形
 62
     0
100
AcDbMText
 10
2160.292668322953
 20
1414.178460662066
 30
0.0
 40
25.0
 41
0.0
 71
     5
 72
     1
  1
470
 11
0.0000000000000001
 21
1.0
 31
0.0
 73
     1
 44
1.0
1001
ACAD
1000
MTEXTBEGIN
1070
    73
1070
     1
1070
    44
1040
1.0
1070
    74
1070
     0
1000
MTEXTEND
  0
POINT
  5
AA09
330
9F9C
100
AcDbEntity
  8
Defpoints
 62
     0
100
AcDbPoint
 10
2060.224018306508
 20
1649.178460662066
 30
0.0
  0
POINT
  5
AA0A
330
9F9C
100
AcDbEntity
  8
Defpoints
 62
     0
100
AcDbPoint
 10
2060.224018306508
 20
1179.178460662066
 30
0.0
  0
POINT
  5
AA0B
330
9F9C
100
AcDbEntity
  8
Defpoints
 62
     0
100
AcDbPoint
 10
2179.392668322953
 20
1179.178460662066
 30
0.0
  0
ENDBLK
  5
9FA7
330
9F9C
100
AcDbEntity
  8
0
 62
     3
100
AcDbBlockEnd
  0
BLOCK
  5
9FB1
330
9FA8
100
AcDbEntity
  8
0
 62
     3
100
AcDbBlockBegin
  2
*D67
 70
     1
 10
0.0
 20
0.0
 30
0.0
  3
*D67
  1

  0
LINE
  5
AB4C
330
9FA8
100
AcDbEntity
  8
実形
 62
     0
370
    18
100
AcDbLine
 10
2114.363985752325
 20
1669.178460662066
 30
0.0
 11
2179.392668322953
 21
1669.178460662066
 31
0.0
  0
LINE
  5
AB4D
330
9FA8
100
AcDbEntity
  8
実形
 62
     0
370
    18
100
AcDbLine
 10
2126.3945811954
 20
1159.178460662066
 30
0.0
 11
2179.392668322953
 21
1159.178460662066
 31
0.0
  0
LINE
  5
AB4E
330
9FA8
100
AcDbEntity
  8
実形
 62
     0
370
    18
100
AcDbLine
 10
2179.392668322953
 20
1659.178460662066
 30
0.0
 11
2179.392668322953
 21
1169.178460662066
 31
0.0
  0
INSERT
  5
AB4F
330
9FA8
100
AcDbEntity
  8
実形
 62
     0
370
    18
100
AcDbBlockReference
  2
_Dot
 10
2179.392668322953
 20
1669.178460662066
 30
0.0
 41
10.0
 42
10.0
 43
10.0
 50
90.0
  0
INSERT
  5
AB50
330
9FA8
100
AcDbEntity
  8
実形
 62
     0
370
    18
100
AcDbBlockReference
  2
_Dot
 10
2179.392668322953
 20
1159.178460662066
 30
0.0
 41
10.0
 42
10.0
 43
10.0
 50
270.0
  0
POINT
  5
AB51
330
9FA8
100
AcDbEntity
  8
Defpoints
 62
     0
100
AcDbPoint
 10
2049.363985752325
 20
1669.178460662066
 30
0.0
  0
POINT
  5
AB52
330
9FA8
100
AcDbEntity
  8
Defpoints
 62
     0
100
AcDbPoint
 10
2061.3945811954
 20
1159.178460662066
 30
0.0
  0
POINT
  5
AB53
330
9FA8
100
AcDbEntity
  8
Defpoints
 62
     0
100
AcDbPoint
 10
2179.392668322953
 20
1159.178460662066
 30
0.0
  0
ENDBLK
  5
9FB2
330
9FA8
100
AcDbEntity
  8
0
 62
     3
100
AcDbBlockEnd
  0
BLOCK
  5
A0B2
330
A0A8
100
AcDbEntity
  8
0
 62
     3
100
AcDbBlockBegin
  2
*D68
 70
     1
 10
0.0
 20
0.0
 30
0.0
  3
*D68
  1

  0
LINE
  5
A2B3
330
A0A8
100
AcDbEntity
  8
実形
 62
     0
370
    18
100
AcDbLine
 10
771.0532809749765
 20
1120.178460662066
 30
0.0
 11
771.0532809749765
 21
1069.914857106304
 31
0.0
  0
LINE
  5
A2B4
330
A0A8
100
AcDbEntity
  8
実形
 62
     0
370
    18
100
AcDbLine
 10
1411.053280974977
 20
1120.178460662065
 30
0.0
 11
1411.053280974977
 21
1069.914857106304
 31
0.0
  0
LINE
  5
A2B5
330
A0A8
100
AcDbEntity
  8
実形
 62
     0
370
    18
100
AcDbLine
 10
781.0532809749766
 20
1069.914857106304
 30
0.0
 11
1401.053280974977
 21
1069.914857106304
 31
0.0
  0
INSERT
  5
A2B6
330
A0A8
100
AcDbEntity
  8
実形
 62
     0
370
    18
100
AcDbBlockReference
  2
_Dot
 10
771.0532809749765
 20
1069.914857106304
 30
0.0
 41
10.0
 42
10.0
 43
10.0
 50
180.0
  0
INSERT
  5
A2B7
330
A0A8
100
AcDbEntity
  8
実形
 62
     0
370
    18
100
AcDbBlockReference
  2
_Dot
 10
1411.053280974977
 20
1069.914857106304
 30
0.0
 41
10.0
 42
10.0
 43
10.0
  0
MTEXT
  5
A2B8
330
A0A8
100
AcDbEntity
  8
実形
 62
     0
100
AcDbMText
 10
1091.053280974976
 20
1089.014857106304
 30
0.0
 40
25.0
 41
0.0
 71
     5
 72
     1
  1
640
 73
     1
 44
1.0
1001
ACAD
1000
MTEXTBEGIN
1070
    73
1070
     1
1070
    44
1040
1.0
1070
    74
1070
     0
1000
MTEXTEND
  0
POINT
  5
A2B9
330
A0A8
100
AcDbEntity
  8
Defpoints
 62
     0
100
AcDbPoint
 10
771.0532809749765
 20
1185.178460662066
 30
0.0
  0
POINT
  5
A2BA
330
A0A8
100
AcDbEntity
  8
Defpoints
 62
     0
100
AcDbPoint
 10
1411.053280974977
 20
1185.178460662065
 30
0.0
  0
POINT
  5
A2BB
330
A0A8
100
AcDbEntity
  8
Defpoints
 62
     0
100
AcDbPoint
 10
1411.053280974977
 20
1069.914857106304
 30
0.0
  0
ENDBLK
  5
A0B3
330
A0A8
100
AcDbEntity
  8
0
 62
     3
100
AcDbBlockEnd
  0
BLOCK
  5
A5A7
330
A59D
100
AcDbEntity
  8
0
 62
     3
100
AcDbBlockBegin
  2
*D69
 70
     1
 10
0.0
 20
0.0
 30
0.0
  3
*D69
  1

  0
LINE
  5
A681
330
A59D
100
AcDbEntity
  8
実形
 62
     0
370
    18
100
AcDbLine
 10
1341.053280974977
 20
410.6580729330507
 30
0.0
 11
1341.053280974977
 21
358.7414743971931
 31
0.0
  0
LINE
  5
A682
330
A59D
100
AcDbEntity
  8
実形
 62
     0
370
    18
100
AcDbLine
 10
1181.053280974976
 20
410.6580729330507
 30
0.0
 11
1181.053280974976
 21
358.7414743971931
 31
0.0
  0
LINE
  5
A683
330
A59D
100
AcDbEntity
  8
実形
 62
     0
370
    18
100
AcDbLine
 10
1331.053280974977
 20
358.7414743971931
 30
0.0
 11
1191.053280974976
 21
358.7414743971931
 31
0.0
  0
INSERT
  5
A684
330
A59D
100
AcDbEntity
  8
実形
 62
     0
370
    18
100
AcDbBlockReference
  2
_Dot
 10
1341.053280974977
 20
358.7414743971931
 30
0.0
 41
10.0
 42
10.0
 43
10.0
  0
INSERT
  5
A685
330
A59D
100
AcDbEntity
  8
実形
 62
     0
370
    18
100
AcDbBlockReference
  2
_Dot
 10
1181.053280974976
 20
358.7414743971931
 30
0.0
 41
10.0
 42
10.0
 43
10.0
 50
180.0
  0
MTEXT
  5
A686
330
A59D
100
AcDbEntity
  8
実形
 62
     0
100
AcDbMText
 10
1261.053280974977
 20
377.8414743971931
 30
0.0
 40
25.0
 41
0.0
 71
     5
 72
     1
  1
160
 73
     1
 44
1.0
1001
ACAD
1000
MTEXTBEGIN
1070
    73
1070
     1
1070
    44
1040
1.0
1070
    74
1070
     0
1000
MTEXTEND
  0
POINT
  5
A687
330
A59D
100
AcDbEntity
  8
Defpoints
 62
     0
100
AcDbPoint
 10
1341.053280974977
 20
475.6580729330506
 30
0.0
  0
POINT
  5
A688
330
A59D
100
AcDbEntity
  8
Defpoints
 62
     0
100
AcDbPoint
 10
1181.053280974976
 20
475.6580729330506
 30
0.0
  0
POINT
  5
A689
330
A59D
100
AcDbEntity
  8
Defpoints
 62
     0
100
AcDbPoint
 10
1181.053280974976
 20
358.7414743971931
 30
0.0
  0
ENDBLK
  5
A5A8
330
A59D
100
AcDbEntity
  8
0
 62
     3
100
AcDbBlockEnd
  0
BLOCK
  5
A5B3
330
A5A9
100
AcDbEntity
  8
0
 62
     3
100
AcDbBlockBegin
  2
*D70
 70
     1
 10
0.0
 20
0.0
 30
0.0
  3
*D70
  1

  0
LINE
  5
A68A
330
A5A9
100
AcDbEntity
  8
実形
 62
     0
370
    18
100
AcDbLine
 10
1351.553280974977
 20
410.6580729330508
 30
0.0
 11
1351.553280974977
 21
287.4991775819162
 31
0.0
  0
LINE
  5
A68B
330
A5A9
100
AcDbEntity
  8
実形
 62
     0
370
    18
100
AcDbLine
 10
1170.553280974977
 20
410.6580729330464
 30
0.0
 11
1170.553280974977
 21
287.4991775819162
 31
0.0
  0
LINE
  5
A68C
330
A5A9
100
AcDbEntity
  8
実形
 62
     0
370
    18
100
AcDbLine
 10
1341.553280974977
 20
287.4991775819162
 30
0.0
 11
1180.553280974977
 21
287.4991775819162
 31
0.0
  0
INSERT
  5
A68D
330
A5A9
100
AcDbEntity
  8
実形
 62
     0
370
    18
100
AcDbBlockReference
  2
_Dot
 10
1351.553280974977
 20
287.4991775819162
 30
0.0
 41
10.0
 42
10.0
 43
10.0
  0
INSERT
  5
A68E
330
A5A9
100
AcDbEntity
  8
実形
 62
     0
370
    18
100
AcDbBlockReference
  2
_Dot
 10
1170.553280974977
 20
287.4991775819162
 30
0.0
 41
10.0
 42
10.0
 43
10.0
 50
180.0
  0
MTEXT
  5
A68F
330
A5A9
100
AcDbEntity
  8
実形
 62
     0
100
AcDbMText
 10
1261.053280974977
 20
306.5991775819163
 30
0.0
 40
25.0
 41
0.0
 71
     5
 72
     1
  1
181
 73
     1
 44
1.0
1001
ACAD
1000
MTEXTBEGIN
1070
    73
1070
     1
1070
    44
1040
1.0
1070
    74
1070
     0
1000
MTEXTEND
  0
POINT
  5
A690
330
A5A9
100
AcDbEntity
  8
Defpoints
 62
     0
100
AcDbPoint
 10
1351.553280974977
 20
475.6580729330507
 30
0.0
  0
POINT
  5
A691
330
A5A9
100
AcDbEntity
  8
Defpoints
 62
     0
100
AcDbPoint
 10
1170.553280974977
 20
475.6580729330464
 30
0.0
  0
POINT
  5
A692
330
A5A9
100
AcDbEntity
  8
Defpoints
 62
     0
100
AcDbPoint
 10
1170.553280974977
 20
287.4991775819162
 30
0.0
  0
ENDBLK
  5
A5B4
330
A5A9
100
AcDbEntity
  8
0
 62
     3
100
AcDbBlockEnd
  0
BLOCK
  5
A5BF
330
A5B5
100
AcDbEntity
  8
0
 62
     3
100
AcDbBlockBegin
  2
*D71
 70
     1
 10
0.0
 20
0.0
 30
0.0
  3
*D71
  1

  0
LINE
  5
AB3A
330
A5B5
100
AcDbEntity
  8
実形
 62
     0
370
    18
100
AcDbLine
 10
1503.303280974977
 20
360.8575454073034
 30
0.0
 11
1503.303280974977
 21
299.2780977317361
 31
0.0
  0
LINE
  5
AB3B
330
A5B5
100
AcDbEntity
  8
実形
 62
     0
370
    18
100
AcDbLine
 10
1458.803280974977
 20
360.8575454073034
 30
0.0
 11
1458.803280974977
 21
299.2780977317361
 31
0.0
  0
LINE
  5
AB3C
330
A5B5
100
AcDbEntity
  8
実形
 62
     0
370
    18
100
AcDbLine
 10
1493.303280974977
 20
299.2780977317361
 30
0.0
 11
1468.803280974977
 21
299.2780977317361
 31
0.0
  0
MTEXT
  5
AB3D
330
A5B5
100
AcDbEntity
  8
実形
 62
     0
100
AcDbMText
 10
1481.053280974977
 20
263.1402064600371
 30
0.0
 40
25.0
 41
0.0
 71
     5
 72
     1
  1
44.5
 73
     1
 44
1.0
1001
ACAD
1000
MTEXTBEGIN
1070
    73
1070
     1
1070
    44
1040
1.0
1070
    74
1070
     0
1000
MTEXTEND
  0
INSERT
  5
AB3E
330
A5B5
100
AcDbEntity
  8
実形
 62
     0
370
    18
100
AcDbBlockReference
  2
_Dot
 10
1503.303280974977
 20
299.2780977317361
 30
0.0
 41
10.0
 42
10.0
 43
10.0
  0
INSERT
  5
AB3F
330
A5B5
100
AcDbEntity
  8
実形
 62
     0
370
    18
100
AcDbBlockReference
  2
_Dot
 10
1458.803280974977
 20
299.2780977317361
 30
0.0
 41
10.0
 42
10.0
 43
10.0
 50
180.0
  0
POINT
  5
AB40
330
A5B5
100
AcDbEntity
  8
Defpoints
 62
     0
100
AcDbPoint
 10
1503.303280974977
 20
425.8575454073033
 30
0.0
  0
POINT
  5
AB41
330
A5B5
100
AcDbEntity
  8
Defpoints
 62
     0
100
AcDbPoint
 10
1458.803280974977
 20
425.8575454073033
 30
0.0
  0
POINT
  5
AB42
330
A5B5
100
AcDbEntity
  8
Defpoints
 62
     0
100
AcDbPoint
 10
1458.803280974977
 20
299.2780977317361
 30
0.0
  0
ENDBLK
  5
A5C0
330
A5B5
100
AcDbEntity
  8
0
 62
     3
100
AcDbBlockEnd
  0
BLOCK
  5
A5CB
330
A5C1
100
AcDbEntity
  8
0
 62
     3
100
AcDbBlockBegin
  2
*D72
 70
     1
 10
0.0
 20
0.0
 30
0.0
  3
*D72
  1

  0
LINE
  5
A69C
330
A5C1
100
AcDbEntity
  8
実形
 62
     0
370
    18
100
AcDbLine
 10
1601.286517744654
 20
675.6580729330508
 30
0.0
 11
1656.403252109688
 21
675.6580729330508
 31
0.0
  0
LINE
  5
A69D
330
A5C1
100
AcDbEntity
  8
実形
 62
     0
370
    18
100
AcDbLine
 10
1603.006242337502
 20
625.6580729330506
 30
0.0
 11
1656.403252109688
 21
625.6580729330506
 31
0.0
  0
LINE
  5
A69E
330
A5C1
100
AcDbEntity
  8
実形
 62
     0
370
    18
100
AcDbLine
 10
1656.403252109688
 20
665.6580729330507
 30
0.0
 11
1656.403252109688
 21
635.6580729330507
 31
0.0
  0
MTEXT
  5
A69F
330
A5C1
100
AcDbEntity
  8
実形
 62
     0
100
AcDbMText
 10
1635.555447121214
 20
650.6580729330509
 30
0.0
 40
25.0
 41
0.0
 71
     5
 72
     1
  1
50
 11
0.0000000000000001
 21
1.0
 31
0.0
 73
     1
 44
1.0
1001
ACAD
1000
MTEXTBEGIN
1070
    73
1070
     1
1070
    44
1040
1.0
1070
    74
1070
     0
1000
MTEXTEND
  0
INSERT
  5
A6A0
330
A5C1
100
AcDbEntity
  8
実形
 62
     0
370
    18
100
AcDbBlockReference
  2
_Dot
 10
1656.403252109688
 20
675.6580729330508
 30
0.0
 41
10.0
 42
10.0
 43
10.0
 50
90.0
  0
INSERT
  5
A6A1
330
A5C1
100
AcDbEntity
  8
実形
 62
     0
370
    18
100
AcDbBlockReference
  2
_Dot
 10
1656.403252109688
 20
625.6580729330506
 30
0.0
 41
10.0
 42
10.0
 43
10.0
 50
270.0
  0
POINT
  5
A6A2
330
A5C1
100
AcDbEntity
  8
Defpoints
 62
     0
100
AcDbPoint
 10
1536.286517744654
 20
675.6580729330508
 30
0.0
  0
POINT
  5
A6A3
330
A5C1
100
AcDbEntity
  8
Defpoints
 62
     0
100
AcDbPoint
 10
1538.006242337502
 20
625.6580729330506
 30
0.0
  0
POINT
  5
A6A4
330
A5C1
100
AcDbEntity
  8
Defpoints
 62
     0
100
AcDbPoint
 10
1656.403252109688
 20
625.6580729330506
 30
0.0
  0
ENDBLK
  5
A5CC
330
A5C1
100
AcDbEntity
  8
0
 62
     3
100
AcDbBlockEnd
  0
BLOCK
  5
A5D7
330
A5CD
100
AcDbEntity
  8
0
 62
     3
100
AcDbBlockBegin
  2
*D73
 70
     1
 10
0.0
 20
0.0
 30
0.0
  3
*D73
  1

  0
LINE
  5
A6A5
330
A5CD
100
AcDbEntity
  8
実形
 62
     0
370
    18
100
AcDbLine
 10
1601.081311021385
 20
690.6580729330507
 30
0.0
 11
1656.403252109688
 21
690.6580729330507
 31
0.0
  0
LINE
  5
A6A6
330
A5CD
100
AcDbEntity
  8
実形
 62
     0
370
    18
100
AcDbLine
 10
1611.403252109688
 20
625.6580729330505
 30
0.0
 11
1656.403252109688
 21
625.6580729330505
 31
0.0
  0
LINE
  5
A6A7
330
A5CD
100
AcDbEntity
  8
実形
 62
     0
370
    18
100
AcDbLine
 10
1656.403252109688
 20
680.6580729330508
 30
0.0
 11
1656.403252109688
 21
635.6580729330505
 31
0.0
  0
MTEXT
  5
A6A8
330
A5CD
100
AcDbEntity
  8
実形
 62
     0
100
AcDbMText
 10
1632.432786485002
 20
714.0275461617147
 30
0.0
 40
25.0
 41
0.0
 71
     5
 72
     1
  1
15
 11
0.0000000000000001
 21
1.0
 31
0.0
 73
     1
 44
1.0
1001
ACAD
1000
MTEXTBEGIN
1070
    73
1070
     1
1070
    44
1040
1.0
1070
    74
1070
     0
1000
MTEXTEND
  0
INSERT
  5
A6A9
330
A5CD
100
AcDbEntity
  8
実形
 62
     0
370
    18
100
AcDbBlockReference
  2
_Dot
 10
1656.403252109688
 20
690.6580729330507
 30
0.0
 41
10.0
 42
10.0
 43
10.0
 50
90.0
  0
INSERT
  5
A6AA
330
A5CD
100
AcDbEntity
  8
実形
 62
     0
370
    18
100
AcDbBlockReference
  2
_Dot
 10
1656.403252109688
 20
625.6580729330505
 30
0.0
 41
10.0
 42
10.0
 43
10.0
 50
270.0
  0
POINT
  5
A6AB
330
A5CD
100
AcDbEntity
  8
Defpoints
 62
     0
100
AcDbPoint
 10
1536.081311021385
 20
690.6580729330507
 30
0.0
  0
POINT
  5
A6AC
330
A5CD
100
AcDbEntity
  8
Defpoints
 62
     0
100
AcDbPoint
 10
1546.403252109688
 20
625.6580729330505
 30
0.0
  0
POINT
  5
A6AD
330
A5CD
100
AcDbEntity
  8
Defpoints
 62
     0
100
AcDbPoint
 10
1656.403252109688
 20
625.6580729330505
 30
0.0
  0
ENDBLK
  5
A5D8
330
A5CD
100
AcDbEntity
  8
0
 62
     3
100
AcDbBlockEnd
  0
BLOCK
  5
A5E3
330
A5D9
100
AcDbEntity
  8
0
 62
     3
100
AcDbBlockBegin
  2
*D74
 70
     1
 10
0.0
 20
0.0
 30
0.0
  3
*D74
  1

  0
LINE
  5
A6AE
330
A5D9
100
AcDbEntity
  8
実形
 62
     0
370
    18
100
AcDbLine
 10
1611.403252109688
 20
690.6580729330507
 30
0.0
 11
1711.403252109689
 21
690.6580729330507
 31
0.0
  0
LINE
  5
A6AF
330
A5D9
100
AcDbEntity
  8
実形
 62
     0
370
    18
100
AcDbLine
 10
1611.403252109688
 20
625.6580729330506
 30
0.0
 11
1711.403252109689
 21
625.6580729330506
 31
0.0
  0
LINE
  5
A6B0
330
A5D9
100
AcDbEntity
  8
実形
 62
     0
370
    18
100
AcDbLine
 10
1711.403252109689
 20
680.6580729330508
 30
0.0
 11
1711.403252109689
 21
635.6580729330507
 31
0.0
  0
INSERT
  5
A6B1
330
A5D9
100
AcDbEntity
  8
実形
 62
     0
370
    18
100
AcDbBlockReference
  2
_Dot
 10
1711.403252109689
 20
690.6580729330507
 30
0.0
 41
10.0
 42
10.0
 43
10.0
 50
90.0
  0
INSERT
  5
A6B2
330
A5D9
100
AcDbEntity
  8
実形
 62
     0
370
    18
100
AcDbBlockReference
  2
_Dot
 10
1711.403252109689
 20
625.6580729330506
 30
0.0
 41
10.0
 42
10.0
 43
10.0
 50
270.0
  0
MTEXT
  5
A6B3
330
A5D9
100
AcDbEntity
  8
実形
 62
     0
100
AcDbMText
 10
1692.303252109688
 20
658.1580729330509
 30
0.0
 40
25.0
 41
0.0
 71
     5
 72
     1
  1
65
 11
0.0000000000000001
 21
1.0
 31
0.0
 73
     1
 44
1.0
1001
ACAD
1000
MTEXTBEGIN
1070
    73
1070
     1
1070
    44
1040
1.0
1070
    74
1070
     0
1000
MTEXTEND
  0
POINT
  5
A6B4
330
A5D9
100
AcDbEntity
  8
Defpoints
 62
     0
100
AcDbPoint
 10
1546.403252109689
 20
690.6580729330507
 30
0.0
  0
POINT
  5
A6B5
330
A5D9
100
AcDbEntity
  8
Defpoints
 62
     0
100
AcDbPoint
 10
1546.403252109689
 20
625.6580729330506
 30
0.0
  0
POINT
  5
A6B6
330
A5D9
100
AcDbEntity
  8
Defpoints
 62
     0
100
AcDbPoint
 10
1711.403252109689
 20
625.6580729330506
 30
0.0
  0
ENDBLK
  5
A5E4
330
A5D9
100
AcDbEntity
  8
0
 62
     3
100
AcDbBlockEnd
  0
BLOCK
  5
A5EF
330
A5E5
100
AcDbEntity
  8
0
 62
     3
100
AcDbBlockBegin
  2
*D75
 70
     1
 10
0.0
 20
0.0
 30
0.0
  3
*D75
  1

  0
LINE
  5
AB31
330
A5E5
100
AcDbEntity
  8
実形
 62
     0
370
    18
100
AcDbLine
 10
1611.403252109688
 20
625.6580729330506
 30
0.0
 11
1711.403252109689
 21
625.6580729330506
 31
0.0
  0
LINE
  5
AB32
330
A5E5
100
AcDbEntity
  8
実形
 62
     0
370
    18
100
AcDbLine
 10
1654.975075635179
 20
435.6580729330508
 30
0.0
 11
1711.403252109688
 21
435.6580729330507
 31
0.0
  0
LINE
  5
AB33
330
A5E5
100
AcDbEntity
  8
実形
 62
     0
370
    18
100
AcDbLine
 10
1711.403252109689
 20
615.6580729330507
 30
0.0
 11
1711.403252109688
 21
445.6580729330507
 31
0.0
  0
INSERT
  5
AB34
330
A5E5
100
AcDbEntity
  8
実形
 62
     0
370
    18
100
AcDbBlockReference
  2
_Dot
 10
1711.403252109689
 20
625.6580729330506
 30
0.0
 41
10.0
 42
10.0
 43
10.0
 50
90.0
  0
INSERT
  5
AB35
330
A5E5
100
AcDbEntity
  8
実形
 62
     0
370
    18
100
AcDbBlockReference
  2
_Dot
 10
1711.403252109688
 20
435.6580729330507
 30
0.0
 41
10.0
 42
10.0
 43
10.0
 50
270.0
  0
MTEXT
  5
AB36
330
A5E5
100
AcDbEntity
  8
実形
 62
     0
100
AcDbMText
 10
1692.303252109688
 20
530.6580729330509
 30
0.0
 40
25.0
 41
0.0
 71
     5
 72
     1
  1
190
 11
0.0000000000000001
 21
1.0
 31
0.0
 73
     1
 44
1.0
1001
ACAD
1000
MTEXTBEGIN
1070
    73
1070
     1
1070
    44
1040
1.0
1070
    74
1070
     0
1000
MTEXTEND
  0
POINT
  5
AB37
330
A5E5
100
AcDbEntity
  8
Defpoints
 62
     0
100
AcDbPoint
 10
1546.403252109689
 20
625.6580729330506
 30
0.0
  0
POINT
  5
AB38
330
A5E5
100
AcDbEntity
  8
Defpoints
 62
     0
100
AcDbPoint
 10
1589.975075635179
 20
435.6580729330508
 30
0.0
  0
POINT
  5
AB39
330
A5E5
100
AcDbEntity
  8
Defpoints
 62
     0
100
AcDbPoint
 10
1711.403252109688
 20
435.6580729330507
 30
0.0
  0
ENDBLK
  5
A5F0
330
A5E5
100
AcDbEntity
  8
0
 62
     3
100
AcDbBlockEnd
  0
BLOCK
  5
A5FB
330
A5F1
100
AcDbEntity
  8
0
 62
     3
100
AcDbBlockBegin
  2
*D76
 70
     1
 10
0.0
 20
0.0
 30
0.0
  3
*D76
  1

  0
LINE
  5
AB28
330
A5F1
100
AcDbEntity
  8
実形
 62
     0
370
    18
100
AcDbLine
 10
1666.403252109689
 20
690.6580729330507
 30
0.0
 11
1766.403252109689
 21
690.6580729330507
 31
0.0
  0
LINE
  5
AB29
330
A5F1
100
AcDbEntity
  8
実形
 62
     0
370
    18
100
AcDbLine
 10
1665.6733184408
 20
435.6580729330507
 30
0.0
 11
1766.403252109689
 21
435.6580729330507
 31
0.0
  0
LINE
  5
AB2A
330
A5F1
100
AcDbEntity
  8
実形
 62
     0
370
    18
100
AcDbLine
 10
1766.403252109689
 20
680.6580729330508
 30
0.0
 11
1766.403252109689
 21
445.6580729330507
 31
0.0
  0
MTEXT
  5
AB2B
330
A5F1
100
AcDbEntity
  8
実形
 62
     0
100
AcDbMText
 10
1747.303252109689
 20
529.0639336337108
 30
0.0
 40
25.0
 41
0.0
 71
     5
 72
     1
  1
255
 11
0.0000000000000001
 21
1.0
 31
0.0
 73
     1
 44
1.0
1001
ACAD
1000
MTEXTBEGIN
1070
    73
1070
     1
1070
    44
1040
1.0
1070
    74
1070
     0
1000
MTEXTEND
  0
INSERT
  5
AB2C
330
A5F1
100
AcDbEntity
  8
実形
 62
     0
370
    18
100
AcDbBlockReference
  2
_Dot
 10
1766.403252109689
 20
690.6580729330507
 30
0.0
 41
10.0
 42
10.0
 43
10.0
 50
90.0
  0
INSERT
  5
AB2D
330
A5F1
100
AcDbEntity
  8
実形
 62
     0
370
    18
100
AcDbBlockReference
  2
_Dot
 10
1766.403252109689
 20
435.6580729330507
 30
0.0
 41
10.0
 42
10.0
 43
10.0
 50
270.0
  0
POINT
  5
AB2E
330
A5F1
100
AcDbEntity
  8
Defpoints
 62
     0
100
AcDbPoint
 10
1601.403252109689
 20
690.6580729330507
 30
0.0
  0
POINT
  5
AB2F
330
A5F1
100
AcDbEntity
  8
Defpoints
 62
     0
100
AcDbPoint
 10
1600.6733184408
 20
435.6580729330508
 30
0.0
  0
POINT
  5
AB30
330
A5F1
100
AcDbEntity
  8
Defpoints
 62
     0
100
AcDbPoint
 10
1766.403252109689
 20
435.6580729330507
 30
0.0
  0
ENDBLK
  5
A5FC
330
A5F1
100
AcDbEntity
  8
0
 62
     3
100
AcDbBlockEnd
  0
BLOCK
  5
A607
330
A5FD
100
AcDbEntity
  8
0
 62
     3
100
AcDbBlockBegin
  2
*D77
 70
     1
 10
0.0
 20
0.0
 30
0.0
  3
*D77
  1

  0
LINE
  5
AB1F
330
A5FD
100
AcDbEntity
  8
実形
 62
     0
370
    18
100
AcDbLine
 10
1655.485689604565
 20
425.6580729330506
 30
0.0
 11
1766.403252109689
 21
425.6580729330506
 31
0.0
  0
LINE
  5
AB20
330
A5FD
100
AcDbEntity
  8
実形
 62
     0
370
    18
100
AcDbLine
 10
1666.403252109689
 20
690.6580729330507
 30
0.0
 11
1766.403252109689
 21
690.6580729330507
 31
0.0
  0
LINE
  5
AB21
330
A5FD
100
AcDbEntity
  8
実形
 62
     0
370
    18
100
AcDbLine
 10
1766.403252109689
 20
435.6580729330506
 30
0.0
 11
1766.403252109689
 21
680.6580729330508
 31
0.0
  0
MTEXT
  5
AB22
330
A5FD
100
AcDbEntity
  8
実形
 62
     0
100
AcDbMText
 10
1747.303252109689
 20
402.592962459038
 30
0.0
 40
25.0
 41
0.0
 71
     5
 72
     1
  1
10
 11
0.0000000000000001
 21
1.0
 31
0.0
 73
     1
 44
1.0
1001
ACAD
1000
MTEXTBEGIN
1070
    73
1070
     1
1070
    44
1040
1.0
1070
    74
1070
     0
1000
MTEXTEND
  0
INSERT
  5
AB23
330
A5FD
100
AcDbEntity
  8
実形
 62
     0
370
    18
100
AcDbBlockReference
  2
_Dot
 10
1766.403252109689
 20
425.6580729330506
 30
0.0
 41
10.0
 42
10.0
 43
10.0
 50
270.0
  0
INSERT
  5
AB24
330
A5FD
100
AcDbEntity
  8
実形
 62
     0
370
    18
100
AcDbBlockReference
  2
_Dot
 10
1766.403252109689
 20
690.6580729330507
 30
0.0
 41
10.0
 42
10.0
 43
10.0
 50
90.0
  0
POINT
  5
AB25
330
A5FD
100
AcDbEntity
  8
Defpoints
 62
     0
100
AcDbPoint
 10
1590.485689604566
 20
425.6580729330506
 30
0.0
  0
POINT
  5
AB26
330
A5FD
100
AcDbEntity
  8
Defpoints
 62
     0
100
AcDbPoint
 10
1601.403252109689
 20
690.6580729330507
 30
0.0
  0
POINT
  5
AB27
330
A5FD
100
AcDbEntity
  8
Defpoints
 62
     0
100
AcDbPoint
 10
1766.403252109689
 20
690.6580729330507
 30
0.0
  0
ENDBLK
  5
A608
330
A5FD
100
AcDbEntity
  8
0
 62
     3
100
AcDbBlockEnd
  0
BLOCK
  5
A613
330
A609
100
AcDbEntity
  8
0
 62
     3
100
AcDbBlockBegin
  2
*D78
 70
     1
 10
0.0
 20
0.0
 30
0.0
  3
*D78
  1

  0
LINE
  5
AB16
330
A609
100
AcDbEntity
  8
実形
 62
     0
370
    18
100
AcDbLine
 10
1611.403252109688
 20
690.6580729330507
 30
0.0
 11
1821.403252109689
 21
690.6580729330507
 31
0.0
  0
LINE
  5
AB17
330
A609
100
AcDbEntity
  8
実形
 62
     0
370
    18
100
AcDbLine
 10
1718.346912936536
 20
425.6580729330506
 30
0.0
 11
1821.403252109689
 21
425.6580729330506
 31
0.0
  0
LINE
  5
AB18
330
A609
100
AcDbEntity
  8
実形
 62
     0
370
    18
100
AcDbLine
 10
1821.403252109689
 20
680.6580729330506
 30
0.0
 11
1821.403252109689
 21
435.6580729330506
 31
0.0
  0
MTEXT
  5
AB19
330
A609
100
AcDbEntity
  8
実形
 62
     0
100
AcDbMText
 10
1802.303252109689
 20
529.9609720805083
 30
0.0
 40
25.0
 41
0.0
 71
     5
 72
     1
  1
265
 11
0.0000000000000001
 21
1.0
 31
0.0
 73
     1
 44
1.0
1001
ACAD
1000
MTEXTBEGIN
1070
    73
1070
     1
1070
    44
1040
1.0
1070
    74
1070
     0
1000
MTEXTEND
  0
INSERT
  5
AB1A
330
A609
100
AcDbEntity
  8
実形
 62
     0
370
    18
100
AcDbBlockReference
  2
_Dot
 10
1821.403252109689
 20
690.6580729330507
 30
0.0
 41
10.0
 42
10.0
 43
10.0
 50
90.0
  0
INSERT
  5
AB1B
330
A609
100
AcDbEntity
  8
実形
 62
     0
370
    18
100
AcDbBlockReference
  2
_Dot
 10
1821.403252109689
 20
425.6580729330506
 30
0.0
 41
10.0
 42
10.0
 43
10.0
 50
270.0
  0
POINT
  5
AB1C
330
A609
100
AcDbEntity
  8
Defpoints
 62
     0
100
AcDbPoint
 10
1546.403252109689
 20
690.6580729330507
 30
0.0
  0
POINT
  5
AB1D
330
A609
100
AcDbEntity
  8
Defpoints
 62
     0
100
AcDbPoint
 10
1653.346912936537
 20
425.6580729330506
 30
0.0
  0
POINT
  5
AB1E
330
A609
100
AcDbEntity
  8
Defpoints
 62
     0
100
AcDbPoint
 10
1821.403252109689
 20
425.6580729330506
 30
0.0
  0
ENDBLK
  5
A614
330
A609
100
AcDbEntity
  8
0
 62
     3
100
AcDbBlockEnd
  0
BLOCK
  5
A61F
330
A615
100
AcDbEntity
  8
0
 62
     3
100
AcDbBlockBegin
  2
*D79
 70
     1
 10
0.0
 20
0.0
 30
0.0
  3
*D79
  1

  0
LINE
  5
A6DB
330
A615
100
AcDbEntity
  8
実形
 62
     0
370
    18
100
AcDbLine
 10
694.936978350237
 20
690.6580729330508
 30
0.0
 11
635.6802185117849
 21
690.6580729330508
 31
0.0
  0
LINE
  5
A6DC
330
A615
100
AcDbEntity
  8
実形
 62
     0
370
    18
100
AcDbLine
 10
694.936978350237
 20
500.6580729330507
 30
0.0
 11
635.6802185117849
 21
500.6580729330508
 31
0.0
  0
LINE
  5
A6DD
330
A615
100
AcDbEntity
  8
実形
 62
     0
370
    18
100
AcDbLine
 10
635.6802185117849
 20
680.6580729330509
 30
0.0
 11
635.6802185117849
 21
510.6580729330508
 31
0.0
  0
MTEXT
  5
A6DE
330
A615
100
AcDbEntity
  8
実形
 62
     0
100
AcDbMText
 10
615.9111887819654
 20
667.8852156298617
 30
0.0
 40
25.0
 41
0.0
 71
     5
 72
     1
  1
15
 11
0.0000000000000001
 21
1.0
 31
0.0
 73
     1
 44
1.0
1001
ACAD
1000
MTEXTBEGIN
1070
    73
1070
     1
1070
    44
1040
1.0
1070
    74
1070
     0
1000
MTEXTEND
  0
INSERT
  5
A6DF
330
A615
100
AcDbEntity
  8
実形
 62
     0
370
    18
100
AcDbBlockReference
  2
_Dot
 10
635.6802185117849
 20
690.6580729330508
 30
0.0
 41
10.0
 42
10.0
 43
10.0
 50
90.0
  0
INSERT
  5
A6E0
330
A615
100
AcDbEntity
  8
実形
 62
     0
370
    18
100
AcDbBlockReference
  2
_Dot
 10
635.6802185117849
 20
500.6580729330508
 30
0.0
 41
10.0
 42
10.0
 43
10.0
 50
270.0
  0
POINT
  5
A6E1
330
A615
100
AcDbEntity
  8
Defpoints
 62
     0
100
AcDbPoint
 10
759.936978350237
 20
690.6580729330508
 30
0.0
  0
POINT
  5
A6E2
330
A615
100
AcDbEntity
  8
Defpoints
 62
     0
100
AcDbPoint
 10
759.936978350237
 20
500.6580729330507
 30
0.0
  0
POINT
  5
A6E3
330
A615
100
AcDbEntity
  8
Defpoints
 62
     0
100
AcDbPoint
 10
635.6802185117849
 20
500.6580729330508
 30
0.0
  0
ENDBLK
  5
A620
330
A615
100
AcDbEntity
  8
0
 62
     3
100
AcDbBlockEnd
  0
BLOCK
  5
A62B
330
A621
100
AcDbEntity
  8
0
 62
     3
100
AcDbBlockBegin
  2
*D80
 70
     1
 10
0.0
 20
0.0
 30
0.0
  3
*D80
  1

  0
LINE
  5
A6E4
330
A621
100
AcDbEntity
  8
実形
 62
     0
370
    18
100
AcDbLine
 10
694.936978350237
 20
675.6580729330508
 30
0.0
 11
635.6802185117849
 21
675.6580729330508
 31
0.0
  0
LINE
  5
A6E5
330
A621
100
AcDbEntity
  8
実形
 62
     0
370
    18
100
AcDbLine
 10
694.936978350237
 20
500.6580729330507
 30
0.0
 11
635.6802185117849
 21
500.6580729330508
 31
0.0
  0
LINE
  5
A6E6
330
A621
100
AcDbEntity
  8
実形
 62
     0
370
    18
100
AcDbLine
 10
635.6802185117849
 20
665.6580729330507
 30
0.0
 11
635.6802185117849
 21
510.6580729330508
 31
0.0
  0
INSERT
  5
A6E7
330
A621
100
AcDbEntity
  8
実形
 62
     0
370
    18
100
AcDbBlockReference
  2
_Dot
 10
635.6802185117849
 20
675.6580729330508
 30
0.0
 41
10.0
 42
10.0
 43
10.0
 50
90.0
  0
INSERT
  5
A6E8
330
A621
100
AcDbEntity
  8
実形
 62
     0
370
    18
100
AcDbBlockReference
  2
_Dot
 10
635.6802185117849
 20
500.6580729330508
 30
0.0
 41
10.0
 42
10.0
 43
10.0
 50
270.0
  0
MTEXT
  5
A6E9
330
A621
100
AcDbEntity
  8
実形
 62
     0
100
AcDbMText
 10
616.5802185117847
 20
588.1580729330509
 30
0.0
 40
25.0
 41
0.0
 71
     5
 72
     1
  1
175
 11
0.0000000000000001
 21
1.0
 31
0.0
 73
     1
 44
1.0
1001
ACAD
1000
MTEXTBEGIN
1070
    73
1070
     1
1070
    44
1040
1.0
1070
    74
1070
     0
1000
MTEXTEND
  0
POINT
  5
A6EA
330
A621
100
AcDbEntity
  8
Defpoints
 62
     0
100
AcDbPoint
 10
759.936978350237
 20
675.6580729330508
 30
0.0
  0
POINT
  5
A6EB
330
A621
100
AcDbEntity
  8
Defpoints
 62
     0
100
AcDbPoint
 10
759.936978350237
 20
500.6580729330507
 30
0.0
  0
POINT
  5
A6EC
330
A621
100
AcDbEntity
  8
Defpoints
 62
     0
100
AcDbPoint
 10
635.6802185117849
 20
500.6580729330508
 30
0.0
  0
ENDBLK
  5
A62C
330
A621
100
AcDbEntity
  8
0
 62
     3
100
AcDbBlockEnd
  0
BLOCK
  5
A637
330
A62D
100
AcDbEntity
  8
0
 62
     3
100
AcDbBlockBegin
  2
*D81
 70
     1
 10
0.0
 20
0.0
 30
0.0
  3
*D81
  1

  0
LINE
  5
A6ED
330
A62D
100
AcDbEntity
  8
実形
 62
     0
370
    18
100
AcDbLine
 10
629.936978350237
 20
690.6580729330508
 30
0.0
 11
572.507277921115
 21
690.6580729330508
 31
0.0
  0
LINE
  5
A6EE
330
A62D
100
AcDbEntity
  8
実形
 62
     0
370
    18
100
AcDbLine
 10
629.936978350237
 20
500.6580729330508
 30
0.0
 11
572.507277921115
 21
500.6580729330508
 31
0.0
  0
LINE
  5
A6EF
330
A62D
100
AcDbEntity
  8
実形
 62
     0
370
    18
100
AcDbLine
 10
572.507277921115
 20
680.6580729330509
 30
0.0
 11
572.507277921115
 21
510.6580729330508
 31
0.0
  0
MTEXT
  5
A6F0
330
A62D
100
AcDbEntity
  8
実形
 62
     0
100
AcDbMText
 10
552.1972667677292
 20
586.7417301816194
 30
0.0
 40
25.0
 41
0.0
 71
     5
 72
     1
  1
190
 11
0.0000000000000001
 21
1.0
 31
0.0
 73
     1
 44
1.0
1001
ACAD
1000
MTEXTBEGIN
1070
    73
1070
     1
1070
    44
1040
1.0
1070
    74
1070
     0
1000
MTEXTEND
  0
INSERT
  5
A6F1
330
A62D
100
AcDbEntity
  8
実形
 62
     0
370
    18
100
AcDbBlockReference
  2
_Dot
 10
572.507277921115
 20
690.6580729330508
 30
0.0
 41
10.0
 42
10.0
 43
10.0
 50
90.0
  0
INSERT
  5
A6F2
330
A62D
100
AcDbEntity
  8
実形
 62
     0
370
    18
100
AcDbBlockReference
  2
_Dot
 10
572.507277921115
 20
500.6580729330508
 30
0.0
 41
10.0
 42
10.0
 43
10.0
 50
270.0
  0
POINT
  5
A6F3
330
A62D
100
AcDbEntity
  8
Defpoints
 62
     0
100
AcDbPoint
 10
694.936978350237
 20
690.6580729330508
 30
0.0
  0
POINT
  5
A6F4
330
A62D
100
AcDbEntity
  8
Defpoints
 62
     0
100
AcDbPoint
 10
694.936978350237
 20
500.6580729330507
 30
0.0
  0
POINT
  5
A6F5
330
A62D
100
AcDbEntity
  8
Defpoints
 62
     0
100
AcDbPoint
 10
572.507277921115
 20
500.6580729330508
 30
0.0
  0
ENDBLK
  5
A638
330
A62D
100
AcDbEntity
  8
0
 62
     3
100
AcDbBlockEnd
  0
BLOCK
  5
A643
330
A639
100
AcDbEntity
  8
0
 62
     3
100
AcDbBlockBegin
  2
*D82
 70
     1
 10
0.0
 20
0.0
 30
0.0
  3
*D82
  1

  0
LINE
  5
A6F6
330
A639
100
AcDbEntity
  8
実形
 62
     0
370
    18
100
AcDbLine
 10
695.5963134502272
 20
485.6580729330508
 30
0.0
 11
572.507277921115
 21
485.6580729330508
 31
0.0
  0
LINE
  5
A6F7
330
A639
100
AcDbEntity
  8
実形
 62
     0
370
    18
100
AcDbLine
 10
694.936978350237
 20
690.6580729330508
 30
0.0
 11
572.507277921115
 21
690.6580729330508
 31
0.0
  0
LINE
  5
A6F8
330
A639
100
AcDbEntity
  8
実形
 62
     0
370
    18
100
AcDbLine
 10
572.507277921115
 20
495.6580729330508
 30
0.0
 11
572.507277921115
 21
680.6580729330509
 31
0.0
  0
MTEXT
  5
A6F9
330
A639
100
AcDbEntity
  8
実形
 62
     0
100
AcDbMText
 10
552.819148601071
 20
510.7691236751962
 30
0.0
 40
25.0
 41
0.0
 71
     5
 72
     1
  1
15
 11
0.0000000000000001
 21
1.0
 31
0.0
 73
     1
 44
1.0
1001
ACAD
1000
MTEXTBEGIN
1070
    73
1070
     1
1070
    44
1040
1.0
1070
    74
1070
     0
1000
MTEXTEND
  0
INSERT
  5
A6FA
330
A639
100
AcDbEntity
  8
実形
 62
     0
370
    18
100
AcDbBlockReference
  2
_Dot
 10
572.507277921115
 20
485.6580729330508
 30
0.0
 41
10.0
 42
10.0
 43
10.0
 50
270.0
  0
INSERT
  5
A6FB
330
A639
100
AcDbEntity
  8
実形
 62
     0
370
    18
100
AcDbBlockReference
  2
_Dot
 10
572.507277921115
 20
690.6580729330508
 30
0.0
 41
10.0
 42
10.0
 43
10.0
 50
90.0
  0
POINT
  5
A6FC
330
A639
100
AcDbEntity
  8
Defpoints
 62
     0
100
AcDbPoint
 10
760.5963134502271
 20
485.6580729330508
 30
0.0
  0
POINT
  5
A6FD
330
A639
100
AcDbEntity
  8
Defpoints
 62
     0
100
AcDbPoint
 10
759.936978350237
 20
690.6580729330508
 30
0.0
  0
POINT
  5
A6FE
330
A639
100
AcDbEntity
  8
Defpoints
 62
     0
100
AcDbPoint
 10
572.507277921115
 20
690.6580729330508
 30
0.0
  0
ENDBLK
  5
A644
330
A639
100
AcDbEntity
  8
0
 62
     3
100
AcDbBlockEnd
  0
BLOCK
  5
A64F
330
A645
100
AcDbEntity
  8
0
 62
     3
100
AcDbBlockBegin
  2
*D83
 70
     1
 10
0.0
 20
0.0
 30
0.0
  3
*D83
  1

  0
LINE
  5
A6FF
330
A645
100
AcDbEntity
  8
実形
 62
     0
370
    18
100
AcDbLine
 10
570.6802185117849
 20
690.6580729330508
 30
0.0
 11
512.1655984588215
 21
690.6580729330508
 31
0.0
  0
LINE
  5
A700
330
A645
100
AcDbEntity
  8
実形
 62
     0
370
    18
100
AcDbLine
 10
570.6802185117849
 20
485.6580729330508
 30
0.0
 11
512.1655984588215
 21
485.6580729330508
 31
0.0
  0
LINE
  5
A701
330
A645
100
AcDbEntity
  8
実形
 62
     0
370
    18
100
AcDbLine
 10
512.1655984588215
 20
680.6580729330509
 30
0.0
 11
512.1655984588215
 21
495.6580729330507
 31
0.0
  0
INSERT
  5
A702
330
A645
100
AcDbEntity
  8
実形
 62
     0
370
    18
100
AcDbBlockReference
  2
_Dot
 10
512.1655984588215
 20
690.6580729330508
 30
0.0
 41
10.0
 42
10.0
 43
10.0
 50
90.0
  0
INSERT
  5
A703
330
A645
100
AcDbEntity
  8
実形
 62
     0
370
    18
100
AcDbBlockReference
  2
_Dot
 10
512.1655984588215
 20
485.6580729330508
 30
0.0
 41
10.0
 42
10.0
 43
10.0
 50
270.0
  0
MTEXT
  5
A704
330
A645
100
AcDbEntity
  8
実形
 62
     0
100
AcDbMText
 10
493.0655984588214
 20
588.158072933051
 30
0.0
 40
25.0
 41
0.0
 71
     5
 72
     1
  1
205
 11
0.0000000000000001
 21
1.0
 31
0.0
 73
     1
 44
1.0
1001
ACAD
1000
MTEXTBEGIN
1070
    73
1070
     1
1070
    44
1040
1.0
1070
    74
1070
     0
1000
MTEXTEND
  0
POINT
  5
A705
330
A645
100
AcDbEntity
  8
Defpoints
 62
     0
100
AcDbPoint
 10
635.6802185117849
 20
690.6580729330508
 30
0.0
  0
POINT
  5
A706
330
A645
100
AcDbEntity
  8
Defpoints
 62
     0
100
AcDbPoint
 10
635.6802185117849
 20
485.6580729330508
 30
0.0
  0
POINT
  5
A707
330
A645
100
AcDbEntity
  8
Defpoints
 62
     0
100
AcDbPoint
 10
512.1655984588215
 20
485.6580729330508
 30
0.0
  0
ENDBLK
  5
A650
330
A645
100
AcDbEntity
  8
0
 62
     3
100
AcDbBlockEnd
  0
BLOCK
  5
A65B
330
A651
100
AcDbEntity
  8
0
 62
     3
100
AcDbBlockBegin
  2
*D84
 70
     1
 10
0.0
 20
0.0
 30
0.0
  3
*D84
  1

  0
LINE
  5
A708
330
A651
100
AcDbEntity
  8
実形
 62
     0
370
    18
100
AcDbLine
 10
565.5982939539208
 20
475.6580729330507
 30
0.0
 11
512.1655984588215
 21
475.6580729330507
 31
0.0
  0
LINE
  5
A709
330
A651
100
AcDbEntity
  8
実形
 62
     0
370
    18
100
AcDbLine
 10
570.6802185117849
 20
690.6580729330508
 30
0.0
 11
512.1655984588215
 21
690.6580729330508
 31
0.0
  0
LINE
  5
A70A
330
A651
100
AcDbEntity
  8
実形
 62
     0
370
    18
100
AcDbLine
 10
512.1655984588215
 20
485.6580729330508
 30
0.0
 11
512.1655984588215
 21
680.6580729330509
 31
0.0
  0
MTEXT
  5
A70B
330
A651
100
AcDbEntity
  8
実形
 62
     0
100
AcDbMText
 10
492.520471066915
 20
490.2179794909334
 30
0.0
 40
25.0
 41
0.0
 71
     5
 72
     1
  1
8
 11
0.0000000000000001
 21
1.0
 31
0.0
 73
     1
 44
1.0
1001
ACAD
1000
MTEXTBEGIN
1070
    73
1070
     1
1070
    44
1040
1.0
1070
    74
1070
     0
1000
MTEXTEND
  0
INSERT
  5
A70C
330
A651
100
AcDbEntity
  8
実形
 62
     0
370
    18
100
AcDbBlockReference
  2
_Dot
 10
512.1655984588215
 20
475.6580729330507
 30
0.0
 41
10.0
 42
10.0
 43
10.0
 50
270.0
  0
INSERT
  5
A70D
330
A651
100
AcDbEntity
  8
実形
 62
     0
370
    18
100
AcDbBlockReference
  2
_Dot
 10
512.1655984588215
 20
690.6580729330508
 30
0.0
 41
10.0
 42
10.0
 43
10.0
 50
90.0
  0
POINT
  5
A70E
330
A651
100
AcDbEntity
  8
Defpoints
 62
     0
100
AcDbPoint
 10
630.5982939539208
 20
475.6580729330507
 30
0.0
  0
POINT
  5
A70F
330
A651
100
AcDbEntity
  8
Defpoints
 62
     0
100
AcDbPoint
 10
635.6802185117849
 20
690.6580729330508
 30
0.0
  0
POINT
  5
A710
330
A651
100
AcDbEntity
  8
Defpoints
 62
     0
100
AcDbPoint
 10
512.1655984588215
 20
690.6580729330508
 30
0.0
  0
ENDBLK
  5
A65C
330
A651
100
AcDbEntity
  8
0
 62
     3
100
AcDbBlockEnd
  0
BLOCK
  5
A667
330
A65D
100
AcDbEntity
  8
0
 62
     3
100
AcDbBlockBegin
  2
*D85
 70
     1
 10
0.0
 20
0.0
 30
0.0
  3
*D85
  1

  0
LINE
  5
A711
330
A65D
100
AcDbEntity
  8
実形
 62
     0
370
    18
100
AcDbLine
 10
507.5072779211151
 20
690.6580729330508
 30
0.0
 11
457.2751994869395
 21
690.6580729330508
 31
0.0
  0
LINE
  5
A712
330
A65D
100
AcDbEntity
  8
実形
 62
     0
370
    18
100
AcDbLine
 10
517.7993016229338
 20
475.6580729330507
 30
0.0
 11
457.2751994869395
 21
475.6580729330507
 31
0.0
  0
LINE
  5
A713
330
A65D
100
AcDbEntity
  8
実形
 62
     0
370
    18
100
AcDbLine
 10
457.2751994869395
 20
680.6580729330509
 30
0.0
 11
457.2751994869395
 21
485.6580729330508
 31
0.0
  0
MTEXT
  5
A714
330
A65D
100
AcDbEntity
  8
実形
 62
     0
100
AcDbMText
 10
431.2271855834897
 20
589.371334171702
 30
0.0
 40
25.0
 41
0.0
 71
     5
 72
     1
  1
213
 11
0.0000000000000001
 21
1.0
 31
0.0
 73
     1
 44
1.0
1001
ACAD
1000
MTEXTBEGIN
1070
    73
1070
     1
1070
    44
1040
1.0
1070
    74
1070
     0
1000
MTEXTEND
  0
INSERT
  5
A715
330
A65D
100
AcDbEntity
  8
実形
 62
     0
370
    18
100
AcDbBlockReference
  2
_Dot
 10
457.2751994869395
 20
690.6580729330508
 30
0.0
 41
10.0
 42
10.0
 43
10.0
 50
90.0
  0
INSERT
  5
A716
330
A65D
100
AcDbEntity
  8
実形
 62
     0
370
    18
100
AcDbBlockReference
  2
_Dot
 10
457.2751994869395
 20
475.6580729330507
 30
0.0
 41
10.0
 42
10.0
 43
10.0
 50
270.0
  0
POINT
  5
A717
330
A65D
100
AcDbEntity
  8
Defpoints
 62
     0
100
AcDbPoint
 10
572.507277921115
 20
690.6580729330508
 30
0.0
  0
POINT
  5
A718
330
A65D
100
AcDbEntity
  8
Defpoints
 62
     0
100
AcDbPoint
 10
582.7993016229338
 20
475.6580729330507
 30
0.0
  0
POINT
  5
A719
330
A65D
100
AcDbEntity
  8
Defpoints
 62
     0
100
AcDbPoint
 10
457.2751994869395
 20
475.6580729330507
 30
0.0
  0
ENDBLK
  5
A668
330
A65D
100
AcDbEntity
  8
0
 62
     3
100
AcDbBlockEnd
  0
BLOCK
  5
A673
330
A669
100
AcDbEntity
  8
0
 62
     3
100
AcDbBlockBegin
  2
*D86
 70
     1
 10
0.0
 20
0.0
 30
0.0
  3
*D86
  1

  0
LINE
  5
ABE5
330
A669
100
AcDbEntity
  8
実形
 62
     0
370
    18
100
AcDbLine
 10
1776.403252109689
 20
690.6580729330507
 30
0.0
 11
1821.403252109689
 21
690.6580729330507
 31
0.0
  0
LINE
  5
ABE6
330
A669
100
AcDbEntity
  8
実形
 62
     0
370
    18
100
AcDbLine
 10
1771.418381063886
 20
415.6580729330507
 30
0.0
 11
1821.403252109689
 21
415.6580729330507
 31
0.0
  0
LINE
  5
ABE7
330
A669
100
AcDbEntity
  8
実形
 62
     0
370
    18
100
AcDbLine
 10
1821.403252109689
 20
680.6580729330506
 30
0.0
 11
1821.403252109689
 21
425.6580729330506
 31
0.0
  0
MTEXT
  5
ABE8
330
A669
100
AcDbEntity
  8
実形
 62
     0
100
AcDbMText
 10
1802.303252109689
 20
397.7106920143706
 30
0.0
 40
25.0
 41
0.0
 71
     5
 72
     1
  1
6
 11
0.0000000000000001
 21
1.0
 31
0.0
 73
     1
 44
1.0
1001
ACAD
1000
MTEXTBEGIN
1070
    73
1070
     1
1070
    44
1040
1.0
1070
    74
1070
     0
1000
MTEXTEND
  0
INSERT
  5
ABE9
330
A669
100
AcDbEntity
  8
実形
 62
     0
370
    18
100
AcDbBlockReference
  2
_Dot
 10
1821.403252109689
 20
690.6580729330507
 30
0.0
 41
10.0
 42
10.0
 43
10.0
 50
90.0
  0
INSERT
  5
ABEA
330
A669
100
AcDbEntity
  8
実形
 62
     0
370
    18
100
AcDbBlockReference
  2
_Dot
 10
1821.403252109689
 20
415.6580729330507
 30
0.0
 41
10.0
 42
10.0
 43
10.0
 50
270.0
  0
POINT
  5
ABEB
330
A669
100
AcDbEntity
  8
Defpoints
 62
     0
100
AcDbPoint
 10
1711.403252109689
 20
690.6580729330507
 30
0.0
  0
POINT
  5
ABEC
330
A669
100
AcDbEntity
  8
Defpoints
 62
     0
100
AcDbPoint
 10
1706.418381063886
 20
415.6580729330507
 30
0.0
  0
POINT
  5
ABED
330
A669
100
AcDbEntity
  8
Defpoints
 62
     0
100
AcDbPoint
 10
1821.403252109689
 20
415.6580729330507
 30
0.0
  0
ENDBLK
  5
A674
330
A669
100
AcDbEntity
  8
0
 62
     3
100
AcDbBlockEnd
  0
BLOCK
  5
A67F
330
A675
100
AcDbEntity
  8
0
 62
     3
100
AcDbBlockBegin
  2
*D87
 70
     1
 10
0.0
 20
0.0
 30
0.0
  3
*D87
  1

  0
LINE
  5
ABDC
330
A675
100
AcDbEntity
  8
実形
 62
     0
370
    18
100
AcDbLine
 10
1776.403252109689
 20
690.6580729330507
 30
0.0
 11
1877.648406070939
 21
690.6580729330507
 31
0.0
  0
LINE
  5
ABDD
330
A675
100
AcDbEntity
  8
実形
 62
     0
370
    18
100
AcDbLine
 10
1784.367300745767
 20
415.6580729330507
 30
0.0
 11
1877.648406070939
 21
415.6580729330507
 31
0.0
  0
LINE
  5
ABDE
330
A675
100
AcDbEntity
  8
実形
 62
     0
370
    18
100
AcDbLine
 10
1877.648406070939
 20
680.6580729330506
 30
0.0
 11
1877.648406070939
 21
425.6580729330506
 31
0.0
  0
MTEXT
  5
ABDF
330
A675
100
AcDbEntity
  8
実形
 62
     0
100
AcDbMText
 10
1858.548406070939
 20
529.9791453667794
 30
0.0
 40
25.0
 41
0.0
 71
     5
 72
     1
  1
271
 11
0.0000000000000001
 21
1.0
 31
0.0
 73
     1
 44
1.0
1001
ACAD
1000
MTEXTBEGIN
1070
    73
1070
     1
1070
    44
1040
1.0
1070
    74
1070
     0
1000
MTEXTEND
  0
INSERT
  5
ABE0
330
A675
100
AcDbEntity
  8
実形
 62
     0
370
    18
100
AcDbBlockReference
  2
_Dot
 10
1877.648406070939
 20
690.6580729330507
 30
0.0
 41
10.0
 42
10.0
 43
10.0
 50
90.0
  0
INSERT
  5
ABE1
330
A675
100
AcDbEntity
  8
実形
 62
     0
370
    18
100
AcDbBlockReference
  2
_Dot
 10
1877.648406070939
 20
415.6580729330507
 30
0.0
 41
10.0
 42
10.0
 43
10.0
 50
270.0
  0
POINT
  5
ABE2
330
A675
100
AcDbEntity
  8
Defpoints
 62
     0
100
AcDbPoint
 10
1711.403252109689
 20
690.6580729330507
 30
0.0
  0
POINT
  5
ABE3
330
A675
100
AcDbEntity
  8
Defpoints
 62
     0
100
AcDbPoint
 10
1719.367300745767
 20
415.6580729330507
 30
0.0
  0
POINT
  5
ABE4
330
A675
100
AcDbEntity
  8
Defpoints
 62
     0
100
AcDbPoint
 10
1877.648406070939
 20
415.6580729330507
 30
0.0
  0
ENDBLK
  5
A680
330
A675
100
AcDbEntity
  8
0
 62
     3
100
AcDbBlockEnd
  0
BLOCK
  5
A889
330
A87F
100
AcDbEntity
  8
0
 62
     3
100
AcDbBlockBegin
  2
*D88
 70
     1
 10
0.0
 20
0.0
 30
0.0
  3
*D88
  1

  0
LINE
  5
AB9C
330
A87F
100
AcDbEntity
  8
実形
 62
     0
370
    18
100
AcDbLine
 10
1672.325595652257
 20
1088.806011115963
 30
0.0
 11
1672.325595652257
 21
1033.783213718306
 31
0.0
  0
LINE
  5
AB9D
330
A87F
100
AcDbEntity
  8
実形
 62
     0
370
    18
100
AcDbLine
 10
1927.325595652257
 20
1088.806011115963
 30
0.0
 11
1927.325595652257
 21
1033.783213718306
 31
0.0
  0
LINE
  5
AB9E
330
A87F
100
AcDbEntity
  8
実形
 62
     0
370
    18
100
AcDbLine
 10
1682.325595652257
 20
1033.783213718306
 30
0.0
 11
1917.325595652257
 21
1033.783213718306
 31
0.0
  0
INSERT
  5
AB9F
330
A87F
100
AcDbEntity
  8
実形
 62
     0
370
    18
100
AcDbBlockReference
  2
_Dot
 10
1672.325595652257
 20
1033.783213718306
 30
0.0
 41
10.0
 42
10.0
 43
10.0
 50
180.0
  0
INSERT
  5
ABA0
330
A87F
100
AcDbEntity
  8
実形
 62
     0
370
    18
100
AcDbBlockReference
  2
_Dot
 10
1927.325595652257
 20
1033.783213718306
 30
0.0
 41
10.0
 42
10.0
 43
10.0
  0
MTEXT
  5
ABA1
330
A87F
100
AcDbEntity
  8
実形
 62
     0
100
AcDbMText
 10
1799.825595652257
 20
1052.883213718306
 30
0.0
 40
25.0
 41
0.0
 71
     5
 72
     1
  1
240
 73
     1
 44
1.0
1001
ACAD
1000
MTEXTBEGIN
1070
    73
1070
     1
1070
    44
1040
1.0
1070
    74
1070
     0
1000
MTEXTEND
  0
POINT
  5
ABA2
330
A87F
100
AcDbEntity
  8
Defpoints
 62
     0
100
AcDbPoint
 10
1672.325595652257
 20
1153.806011115963
 30
0.0
  0
POINT
  5
ABA3
330
A87F
100
AcDbEntity
  8
Defpoints
 62
     0
100
AcDbPoint
 10
1927.325595652257
 20
1153.806011115963
 30
0.0
  0
POINT
  5
ABA4
330
A87F
100
AcDbEntity
  8
Defpoints
 62
     0
100
AcDbPoint
 10
1927.325595652257
 20
1033.783213718306
 30
0.0
  0
ENDBLK
  5
A88A
330
A87F
100
AcDbEntity
  8
0
 62
     3
100
AcDbBlockEnd
  0
BLOCK
  5
A895
330
A88B
100
AcDbEntity
  8
0
 62
     3
100
AcDbBlockBegin
  2
*D89
 70
     1
 10
0.0
 20
0.0
 30
0.0
  3
*D89
  1

  0
LINE
  5
AB81
330
A88B
100
AcDbEntity
  8
実形
 62
     0
370
    18
100
AcDbLine
 10
1687.325595652257
 20
1088.329473182373
 30
0.0
 11
1687.325595652257
 21
1033.783213718306
 31
0.0
  0
LINE
  5
AB82
330
A88B
100
AcDbEntity
  8
実形
 62
     0
370
    18
100
AcDbLine
 10
1927.325595652257
 20
1073.329473182373
 30
0.0
 11
1927.325595652257
 21
1033.783213718306
 31
0.0
  0
LINE
  5
AB83
330
A88B
100
AcDbEntity
  8
実形
 62
     0
370
    18
100
AcDbLine
 10
1697.325595652257
 20
1033.783213718306
 30
0.0
 11
1917.325595652257
 21
1033.783213718306
 31
0.0
  0
MTEXT
  5
AB84
330
A88B
100
AcDbEntity
  8
実形
 62
     0
100
AcDbMText
 10
1708.619853379788
 20
1052.883213718306
 30
0.0
 40
25.0
 41
0.0
 71
     5
 72
     1
  1
15
 73
     1
 44
1.0
1001
ACAD
1000
MTEXTBEGIN
1070
    73
1070
     1
1070
    44
1040
1.0
1070
    74
1070
     0
1000
MTEXTEND
  0
INSERT
  5
AB85
330
A88B
100
AcDbEntity
  8
実形
 62
     0
370
    18
100
AcDbBlockReference
  2
_Dot
 10
1687.325595652257
 20
1033.783213718306
 30
0.0
 41
10.0
 42
10.0
 43
10.0
 50
180.0
  0
INSERT
  5
AB86
330
A88B
100
AcDbEntity
  8
実形
 62
     0
370
    18
100
AcDbBlockReference
  2
_Dot
 10
1927.325595652257
 20
1033.783213718306
 30
0.0
 41
10.0
 42
10.0
 43
10.0
  0
POINT
  5
AB87
330
A88B
100
AcDbEntity
  8
Defpoints
 62
     0
100
AcDbPoint
 10
1687.325595652257
 20
1153.329473182373
 30
0.0
  0
POINT
  5
AB88
330
A88B
100
AcDbEntity
  8
Defpoints
 62
     0
100
AcDbPoint
 10
1927.325595652257
 20
1138.329473182373
 30
0.0
  0
POINT
  5
AB89
330
A88B
100
AcDbEntity
  8
Defpoints
 62
     0
100
AcDbPoint
 10
1927.325595652257
 20
1033.783213718306
 30
0.0
  0
ENDBLK
  5
A896
330
A88B
100
AcDbEntity
  8
0
 62
     3
100
AcDbBlockEnd
  0
BLOCK
  5
A8A1
330
A897
100
AcDbEntity
  8
0
 62
     3
100
AcDbBlockBegin
  2
*D90
 70
     1
 10
0.0
 20
0.0
 30
0.0
  3
*D90
  1

  0
LINE
  5
AB78
330
A897
100
AcDbEntity
  8
実形
 62
     0
370
    18
100
AcDbLine
 10
1672.325595652257
 20
1073.329473182373
 30
0.0
 11
1672.325595652257
 21
978.7832137183066
 31
0.0
  0
LINE
  5
AB79
330
A897
100
AcDbEntity
  8
実形
 62
     0
370
    18
100
AcDbLine
 10
1927.325595652257
 20
1073.329473182373
 30
0.0
 11
1927.325595652257
 21
978.7832137183066
 31
0.0
  0
LINE
  5
AB7A
330
A897
100
AcDbEntity
  8
実形
 62
     0
370
    18
100
AcDbLine
 10
1682.325595652257
 20
978.7832137183066
 30
0.0
 11
1917.325595652257
 21
978.7832137183066
 31
0.0
  0
INSERT
  5
AB7B
330
A897
100
AcDbEntity
  8
実形
 62
     0
370
    18
100
AcDbBlockReference
  2
_Dot
 10
1672.325595652257
 20
978.7832137183066
 30
0.0
 41
10.0
 42
10.0
 43
10.0
 50
180.0
  0
INSERT
  5
AB7C
330
A897
100
AcDbEntity
  8
実形
 62
     0
370
    18
100
AcDbBlockReference
  2
_Dot
 10
1927.325595652257
 20
978.7832137183066
 30
0.0
 41
10.0
 42
10.0
 43
10.0
  0
MTEXT
  5
AB7D
330
A897
100
AcDbEntity
  8
実形
 62
     0
100
AcDbMText
 10
1799.825595652257
 20
997.8832137183065
 30
0.0
 40
25.0
 41
0.0
 71
     5
 72
     1
  1
255
 73
     1
 44
1.0
1001
ACAD
1000
MTEXTBEGIN
1070
    73
1070
     1
1070
    44
1040
1.0
1070
    74
1070
     0
1000
MTEXTEND
  0
POINT
  5
AB7E
330
A897
100
AcDbEntity
  8
Defpoints
 62
     0
100
AcDbPoint
 10
1672.325595652257
 20
1138.329473182373
 30
0.0
  0
POINT
  5
AB7F
330
A897
100
AcDbEntity
  8
Defpoints
 62
     0
100
AcDbPoint
 10
1927.325595652257
 20
1138.329473182373
 30
0.0
  0
POINT
  5
AB80
330
A897
100
AcDbEntity
  8
Defpoints
 62
     0
100
AcDbPoint
 10
1927.325595652257
 20
978.7832137183066
 30
0.0
  0
ENDBLK
  5
A8A2
330
A897
100
AcDbEntity
  8
0
 62
     3
100
AcDbBlockEnd
  0
BLOCK
  5
A8AD
330
A8A3
100
AcDbEntity
  8
0
 62
     3
100
AcDbBlockBegin
  2
*D91
 70
     1
 10
0.0
 20
0.0
 30
0.0
  3
*D91
  1

  0
LINE
  5
AB6F
330
A8A3
100
AcDbEntity
  8
実形
 62
     0
370
    18
100
AcDbLine
 10
1937.325595652257
 20
1029.129016150702
 30
0.0
 11
1937.325595652257
 21
978.7832137183066
 31
0.0
  0
LINE
  5
AB70
330
A8A3
100
AcDbEntity
  8
実形
 62
     0
370
    18
100
AcDbLine
 10
1672.325595652257
 20
1073.329473182373
 30
0.0
 11
1672.325595652257
 21
978.7832137183066
 31
0.0
  0
LINE
  5
AB71
330
A8A3
100
AcDbEntity
  8
実形
 62
     0
370
    18
100
AcDbLine
 10
1927.325595652257
 20
978.7832137183066
 30
0.0
 11
1682.325595652257
 21
978.7832137183066
 31
0.0
  0
MTEXT
  5
AB72
330
A8A3
100
AcDbEntity
  8
実形
 62
     0
100
AcDbMText
 10
1960.881962214171
 20
997.8832137183065
 30
0.0
 40
25.0
 41
0.0
 71
     5
 72
     1
  1
10
 73
     1
 44
1.0
1001
ACAD
1000
MTEXTBEGIN
1070
    73
1070
     1
1070
    44
1040
1.0
1070
    74
1070
     0
1000
MTEXTEND
  0
INSERT
  5
AB73
330
A8A3
100
AcDbEntity
  8
実形
 62
     0
370
    18
100
AcDbBlockReference
  2
_Dot
 10
1937.325595652257
 20
978.7832137183066
 30
0.0
 41
10.0
 42
10.0
 43
10.0
  0
INSERT
  5
AB74
330
A8A3
100
AcDbEntity
  8
実形
 62
     0
370
    18
100
AcDbBlockReference
  2
_Dot
 10
1672.325595652257
 20
978.7832137183066
 30
0.0
 41
10.0
 42
10.0
 43
10.0
 50
180.0
  0
POINT
  5
AB75
330
A8A3
100
AcDbEntity
  8
Defpoints
 62
     0
100
AcDbPoint
 10
1937.325595652257
 20
1094.129016150702
 30
0.0
  0
POINT
  5
AB76
330
A8A3
100
AcDbEntity
  8
Defpoints
 62
     0
100
AcDbPoint
 10
1672.325595652257
 20
1138.329473182373
 30
0.0
  0
POINT
  5
AB77
330
A8A3
100
AcDbEntity
  8
Defpoints
 62
     0
100
AcDbPoint
 10
1672.325595652257
 20
978.7832137183066
 30
0.0
  0
ENDBLK
  5
A8AE
330
A8A3
100
AcDbEntity
  8
0
 62
     3
100
AcDbBlockEnd
  0
BLOCK
  5
A8B9
330
A8AF
100
AcDbEntity
  8
0
 62
     3
100
AcDbBlockBegin
  2
*D92
 70
     1
 10
0.0
 20
0.0
 30
0.0
  3
*D92
  1

  0
LINE
  5
AB66
330
A8AF
100
AcDbEntity
  8
実形
 62
     0
370
    18
100
AcDbLine
 10
1672.325595652257
 20
1023.329473182373
 30
0.0
 11
1672.325595652257
 21
923.7832137183064
 31
0.0
  0
LINE
  5
AB67
330
A8AF
100
AcDbEntity
  8
実形
 62
     0
370
    18
100
AcDbLine
 10
1937.325595652257
 20
980.2426362503201
 30
0.0
 11
1937.325595652257
 21
923.7832137183064
 31
0.0
  0
LINE
  5
AB68
330
A8AF
100
AcDbEntity
  8
実形
 62
     0
370
    18
100
AcDbLine
 10
1682.325595652257
 20
923.7832137183064
 30
0.0
 11
1927.325595652257
 21
923.7832137183064
 31
0.0
  0
INSERT
  5
AB69
330
A8AF
100
AcDbEntity
  8
実形
 62
     0
370
    18
100
AcDbBlockReference
  2
_Dot
 10
1672.325595652257
 20
923.7832137183064
 30
0.0
 41
10.0
 42
10.0
 43
10.0
 50
180.0
  0
INSERT
  5
AB6A
330
A8AF
100
AcDbEntity
  8
実形
 62
     0
370
    18
100
AcDbBlockReference
  2
_Dot
 10
1937.325595652257
 20
923.7832137183064
 30
0.0
 41
10.0
 42
10.0
 43
10.0
  0
MTEXT
  5
AB6B
330
A8AF
100
AcDbEntity
  8
実形
 62
     0
100
AcDbMText
 10
1804.825595652257
 20
942.8832137183064
 30
0.0
 40
25.0
 41
0.0
 71
     5
 72
     1
  1
265
 73
     1
 44
1.0
1001
ACAD
1000
MTEXTBEGIN
1070
    73
1070
     1
1070
    44
1040
1.0
1070
    74
1070
     0
1000
MTEXTEND
  0
POINT
  5
AB6C
330
A8AF
100
AcDbEntity
  8
Defpoints
 62
     0
100
AcDbPoint
 10
1672.325595652257
 20
1088.329473182373
 30
0.0
  0
POINT
  5
AB6D
330
A8AF
100
AcDbEntity
  8
Defpoints
 62
     0
100
AcDbPoint
 10
1937.325595652257
 20
1045.24263625032
 30
0.0
  0
POINT
  5
AB6E
330
A8AF
100
AcDbEntity
  8
Defpoints
 62
     0
100
AcDbPoint
 10
1937.325595652257
 20
923.7832137183064
 30
0.0
  0
ENDBLK
  5
A8BA
330
A8AF
100
AcDbEntity
  8
0
 62
     3
100
AcDbBlockEnd
  0
BLOCK
  5
A8C5
330
A8BB
100
AcDbEntity
  8
0
 62
     3
100
AcDbBlockBegin
  2
*D93
 70
     1
 10
0.0
 20
0.0
 30
0.0
  3
*D93
  1

  0
LINE
  5
AC02
330
A8BB
100
AcDbEntity
  8
実形
 62
     0
370
    18
100
AcDbLine
 10
1672.325595652257
 20
1073.329473182373
 30
0.0
 11
1672.325595652257
 21
923.7832137183064
 31
0.0
  0
LINE
  5
AC03
330
A8BB
100
AcDbEntity
  8
実形
 62
     0
370
    18
100
AcDbLine
 10
1947.325595652257
 20
977.1235343222361
 30
0.0
 11
1947.325595652257
 21
923.7832137183064
 31
0.0
  0
LINE
  5
AC04
330
A8BB
100
AcDbEntity
  8
実形
 62
     0
370
    18
100
AcDbLine
 10
1682.325595652257
 20
923.7832137183064
 30
0.0
 11
1937.325595652257
 21
923.7832137183064
 31
0.0
  0
MTEXT
  5
AC05
330
A8BB
100
AcDbEntity
  8
実形
 62
     0
100
AcDbMText
 10
1963.441714956481
 20
942.8832137183064
 30
0.0
 40
25.0
 41
0.0
 71
     5
 72
     1
  1
6
 73
     1
 44
1.0
1001
ACAD
1000
MTEXTBEGIN
1070
    73
1070
     1
1070
    44
1040
1.0
1070
    74
1070
     0
1000
MTEXTEND
  0
INSERT
  5
AC06
330
A8BB
100
AcDbEntity
  8
実形
 62
     0
370
    18
100
AcDbBlockReference
  2
_Dot
 10
1672.325595652257
 20
923.7832137183064
 30
0.0
 41
10.0
 42
10.0
 43
10.0
 50
180.0
  0
INSERT
  5
AC07
330
A8BB
100
AcDbEntity
  8
実形
 62
     0
370
    18
100
AcDbBlockReference
  2
_Dot
 10
1947.325595652257
 20
923.7832137183064
 30
0.0
 41
10.0
 42
10.0
 43
10.0
  0
POINT
  5
AC08
330
A8BB
100
AcDbEntity
  8
Defpoints
 62
     0
100
AcDbPoint
 10
1672.325595652257
 20
1138.329473182373
 30
0.0
  0
POINT
  5
AC09
330
A8BB
100
AcDbEntity
  8
Defpoints
 62
     0
100
AcDbPoint
 10
1947.325595652257
 20
1042.123534322236
 30
0.0
  0
POINT
  5
AC0A
330
A8BB
100
AcDbEntity
  8
Defpoints
 62
     0
100
AcDbPoint
 10
1947.325595652257
 20
923.7832137183064
 30
0.0
  0
ENDBLK
  5
A8C6
330
A8BB
100
AcDbEntity
  8
0
 62
     3
100
AcDbBlockEnd
  0
BLOCK
  5
A8D1
330
A8C7
100
AcDbEntity
  8
0
 62
     3
100
AcDbBlockBegin
  2
*D94
 70
     1
 10
0.0
 20
0.0
 30
0.0
  3
*D94
  1

  0
LINE
  5
AC0B
330
A8C7
100
AcDbEntity
  8
実形
 62
     0
370
    18
100
AcDbLine
 10
1672.325595652257
 20
1073.329473182373
 30
0.0
 11
1672.325595652257
 21
868.7832137183065
 31
0.0
  0
LINE
  5
AC0C
330
A8C7
100
AcDbEntity
  8
実形
 62
     0
370
    18
100
AcDbLine
 10
1947.325595652257
 20
921.812504999908
 30
0.0
 11
1947.325595652257
 21
868.7832137183065
 31
0.0
  0
LINE
  5
AC0D
330
A8C7
100
AcDbEntity
  8
実形
 62
     0
370
    18
100
AcDbLine
 10
1682.325595652257
 20
868.7832137183065
 30
0.0
 11
1937.325595652257
 21
868.7832137183065
 31
0.0
  0
INSERT
  5
AC0E
330
A8C7
100
AcDbEntity
  8
実形
 62
     0
370
    18
100
AcDbBlockReference
  2
_Dot
 10
1672.325595652257
 20
868.7832137183065
 30
0.0
 41
10.0
 42
10.0
 43
10.0
 50
180.0
  0
INSERT
  5
AC0F
330
A8C7
100
AcDbEntity
  8
実形
 62
     0
370
    18
100
AcDbBlockReference
  2
_Dot
 10
1947.325595652257
 20
868.7832137183065
 30
0.0
 41
10.0
 42
10.0
 43
10.0
  0
MTEXT
  5
AC10
330
A8C7
100
AcDbEntity
  8
実形
 62
     0
100
AcDbMText
 10
1809.825595652257
 20
887.8832137183065
 30
0.0
 40
25.0
 41
0.0
 71
     5
 72
     1
  1
271
 73
     1
 44
1.0
1001
ACAD
1000
MTEXTBEGIN
1070
    73
1070
     1
1070
    44
1040
1.0
1070
    74
1070
     0
1000
MTEXTEND
  0
POINT
  5
AC11
330
A8C7
100
AcDbEntity
  8
Defpoints
 62
     0
100
AcDbPoint
 10
1672.325595652257
 20
1138.329473182373
 30
0.0
  0
POINT
  5
AC12
330
A8C7
100
AcDbEntity
  8
Defpoints
 62
     0
100
AcDbPoint
 10
1947.325595652257
 20
986.8125049999079
 30
0.0
  0
POINT
  5
AC13
330
A8C7
100
AcDbEntity
  8
Defpoints
 62
     0
100
AcDbPoint
 10
1947.325595652257
 20
868.7832137183065
 30
0.0
  0
ENDBLK
  5
A8D2
330
A8C7
100
AcDbEntity
  8
0
 62
     3
100
AcDbBlockEnd
  0
BLOCK
  5
A8DD
330
A8D3
100
AcDbEntity
  8
0
 62
     3
100
AcDbBlockBegin
  2
*D95
 70
     1
 10
0.0
 20
0.0
 30
0.0
  3
*D95
  1

  0
LINE
  5
AB93
330
A8D3
100
AcDbEntity
  8
実形
 62
     0
370
    18
100
AcDbLine
 10
1990.567160043129
 20
1611.428460662065
 30
0.0
 11
2021.778344026119
 21
1611.428460662065
 31
0.0
  0
LINE
  5
AB94
330
A8D3
100
AcDbEntity
  8
実形
 62
     0
370
    18
100
AcDbLine
 10
1990.567160043129
 20
1566.928460662065
 30
0.0
 11
2021.778344026119
 21
1566.928460662065
 31
0.0
  0
LINE
  5
AB95
330
A8D3
100
AcDbEntity
  8
実形
 62
     0
370
    18
100
AcDbLine
 10
2021.778344026119
 20
1601.428460662065
 30
0.0
 11
2021.778344026119
 21
1576.928460662065
 31
0.0
  0
MTEXT
  5
AB96
330
A8D3
100
AcDbEntity
  8
実形
 62
     0
100
AcDbMText
 10
2062.861819787198
 20
1589.178460662066
 30
0.0
 40
25.0
 41
0.0
 71
     5
 72
     1
  1
44.5
 11
0.0000000000000001
 21
1.0
 31
0.0
 73
     1
 44
1.0
1001
ACAD
1000
MTEXTBEGIN
1070
    73
1070
     1
1070
    44
1040
1.0
1070
    74
1070
     0
1000
MTEXTEND
  0
INSERT
  5
AB97
330
A8D3
100
AcDbEntity
  8
実形
 62
     0
370
    18
100
AcDbBlockReference
  2
_Dot
 10
2021.778344026119
 20
1611.428460662065
 30
0.0
 41
10.0
 42
10.0
 43
10.0
 50
90.0
  0
INSERT
  5
AB98
330
A8D3
100
AcDbEntity
  8
実形
 62
     0
370
    18
100
AcDbBlockReference
  2
_Dot
 10
2021.778344026119
 20
1566.928460662065
 30
0.0
 41
10.0
 42
10.0
 43
10.0
 50
270.0
  0
POINT
  5
AB99
330
A8D3
100
AcDbEntity
  8
Defpoints
 62
     0
100
AcDbPoint
 10
1925.567160043129
 20
1611.428460662065
 30
0.0
  0
POINT
  5
AB9A
330
A8D3
100
AcDbEntity
  8
Defpoints
 62
     0
100
AcDbPoint
 10
1925.567160043129
 20
1566.928460662065
 30
0.0
  0
POINT
  5
AB9B
330
A8D3
100
AcDbEntity
  8
Defpoints
 62
     0
100
AcDbPoint
 10
2021.778344026119
 20
1566.928460662065
 30
0.0
  0
ENDBLK
  5
A8DE
330
A8D3
100
AcDbEntity
  8
0
 62
     3
100
AcDbBlockEnd
  0
BLOCK
  5
A989
330
A97F
100
AcDbEntity
  8
0
 62
     3
100
AcDbBlockBegin
  2
*D96
 70
     1
 10
0.0
 20
0.0
 30
0.0
  3
*D96
  1

  0
LINE
  5
A997
330
A97F
100
AcDbEntity
  8
実形
 62
     0
370
    18
100
AcDbLine
 10
1481.053280974976
 20
1504.0680358653
 30
0.0
 11
1481.053280974976
 21
1467.839524988157
 31
0.0
  0
LINE
  5
A998
330
A97F
100
AcDbEntity
  8
実形
 62
     0
370
    18
100
AcDbLine
 10
1531.053280974977
 20
1504.0680358653
 30
0.0
 11
1531.053280974977
 21
1467.839524988157
 31
0.0
  0
LINE
  5
A999
330
A97F
100
AcDbEntity
  8
実形
 62
     0
370
    18
100
AcDbLine
 10
1491.053280974976
 20
1467.839524988157
 30
0.0
 11
1521.053280974977
 21
1467.839524988157
 31
0.0
  0
MTEXT
  5
A99A
330
A97F
100
AcDbEntity
  8
実形
 62
     0
100
AcDbMText
 10
1506.053280974976
 20
1489.261176756287
 30
0.0
 40
25.0
 41
0.0
 71
     5
 72
     1
  1
50
 73
     1
 44
1.0
1001
ACAD
1000
MTEXTBEGIN
1070
    73
1070
     1
1070
    44
1040
1.0
1070
    74
1070
     0
1000
MTEXTEND
  0
INSERT
  5
A99B
330
A97F
100
AcDbEntity
  8
実形
 62
     0
370
    18
100
AcDbBlockReference
  2
_Dot
 10
1481.053280974976
 20
1467.839524988157
 30
0.0
 41
10.0
 42
10.0
 43
10.0
 50
180.0
  0
INSERT
  5
A99C
330
A97F
100
AcDbEntity
  8
実形
 62
     0
370
    18
100
AcDbBlockReference
  2
_Dot
 10
1531.053280974977
 20
1467.839524988157
 30
0.0
 41
10.0
 42
10.0
 43
10.0
  0
POINT
  5
A99D
330
A97F
100
AcDbEntity
  8
Defpoints
 62
     0
100
AcDbPoint
 10
1481.053280974976
 20
1569.068035865299
 30
0.0
  0
POINT
  5
A99E
330
A97F
100
AcDbEntity
  8
Defpoints
 62
     0
100
AcDbPoint
 10
1531.053280974977
 20
1569.068035865299
 30
0.0
  0
POINT
  5
A99F
330
A97F
100
AcDbEntity
  8
Defpoints
 62
     0
100
AcDbPoint
 10
1531.053280974977
 20
1467.839524988157
 30
0.0
  0
ENDBLK
  5
A98A
330
A97F
100
AcDbEntity
  8
0
 62
     3
100
AcDbBlockEnd
  0
BLOCK
  5
A995
330
A98B
100
AcDbEntity
  8
0
 62
     3
100
AcDbBlockBegin
  2
*D97
 70
     1
 10
0.0
 20
0.0
 30
0.0
  3
*D97
  1

  0
LINE
  5
A9A0
330
A98B
100
AcDbEntity
  8
実形
 62
     0
370
    18
100
AcDbLine
 10
1580.58389079445
 20
1589.178460662065
 30
0.0
 11
1620.680376831284
 21
1589.178460662065
 31
0.0
  0
LINE
  5
A9A1
330
A98B
100
AcDbEntity
  8
実形
 62
     0
370
    18
100
AcDbLine
 10
1580.583890794451
 20
1649.178460662065
 30
0.0
 11
1620.680376831284
 21
1649.178460662065
 31
0.0
  0
LINE
  5
A9A2
330
A98B
100
AcDbEntity
  8
実形
 62
     0
370
    18
100
AcDbLine
 10
1620.680376831284
 20
1599.178460662065
 30
0.0
 11
1620.680376831284
 21
1639.178460662066
 31
0.0
  0
INSERT
  5
A9A3
330
A98B
100
AcDbEntity
  8
実形
 62
     0
370
    18
100
AcDbBlockReference
  2
_Dot
 10
1620.680376831284
 20
1589.178460662065
 30
0.0
 41
10.0
 42
10.0
 43
10.0
 50
270.0
  0
INSERT
  5
A9A4
330
A98B
100
AcDbEntity
  8
実形
 62
     0
370
    18
100
AcDbBlockReference
  2
_Dot
 10
1620.680376831284
 20
1649.178460662065
 30
0.0
 41
10.0
 42
10.0
 43
10.0
 50
90.0
  0
MTEXT
  5
A9A5
330
A98B
100
AcDbEntity
  8
実形
 62
     0
100
AcDbMText
 10
1601.580376831283
 20
1619.178460662066
 30
0.0
 40
25.0
 41
0.0
 71
     5
 72
     1
  1
60
 11
0.0000000000000001
 21
1.0
 31
0.0
 73
     1
 44
1.0
1001
ACAD
1000
MTEXTBEGIN
1070
    73
1070
     1
1070
    44
1040
1.0
1070
    74
1070
     0
1000
MTEXTEND
  0
POINT
  5
A9A6
330
A98B
100
AcDbEntity
  8
Defpoints
 62
     0
100
AcDbPoint
 10
1515.58389079445
 20
1589.178460662066
 30
0.0
  0
POINT
  5
A9A7
330
A98B
100
AcDbEntity
  8
Defpoints
 62
     0
100
AcDbPoint
 10
1515.583890794451
 20
1649.178460662066
 30
0.0
  0
POINT
  5
A9A8
330
A98B
100
AcDbEntity
  8
Defpoints
 62
     0
100
AcDbPoint
 10
1620.680376831284
 20
1649.178460662065
 30
0.0
  0
ENDBLK
  5
A996
330
A98B
100
AcDbEntity
  8
0
 62
     3
100
AcDbBlockEnd
  0
ENDSEC
  0
SECTION
  2
ENTITIES
  0
LINE
  5
A0
330
1F
100
AcDbEntity
  8
枠
 62
     0
100
AcDbLine
 10
2834.0
 20
2023.999999999999
 30
0.0
 11
174.0
 21
2023.999999999999
 31
0.0
  0
LINE
  5
272
330
1F
100
AcDbEntity
  8
実形
 62
     0
100
AcDbLine
 10
2234.0
 20
136.9999999999991
 30
0.0
 11
2234.0
 21
201.9999999999991
 31
0.0
  0
LINE
  5
1B73
330
1F
100
AcDbEntity
  8
枠
 62
     0
100
AcDbLine
 10
1944.0
 20
2023.999999999999
 30
0.0
 11
2834.0
 21
2023.999999999999
 31
0.0
  0
LINE
  5
1B84
330
1F
100
AcDbEntity
  8
実形
 62
     0
100
AcDbLine
 10
2114.0
 20
71.99999999999909
 30
0.0
 11
2834.0
 21
71.99999999999909
 31
0.0
  0
LINE
  5
1B85
330
1F
100
AcDbEntity
  8
実形
 62
     0
100
AcDbLine
 10
2114.0
 20
201.9999999999991
 30
0.0
 11
2834.0
 21
201.9999999999991
 31
0.0
  0
LINE
  5
1B86
330
1F
100
AcDbEntity
  8
実形
 62
     0
100
AcDbLine
 10
2114.0
 20
136.9999999999991
 30
0.0
 11
2834.0
 21
136.9999999999991
 31
0.0
  0
LINE
  5
1B87
330
1F
100
AcDbEntity
  8
実形
 62
     0
100
AcDbLine
 10
2114.0
 20
6.99999999999909
 30
0.0
 11
2114.0
 21
201.9999999999991
 31
0.0
  0
TEXT
  5
1B88
330
1F
100
AcDbEntity
  8
実形
 62
     0
100
AcDbText
 10
2333.455774665347
 20
21.49999999999909
 30
0.0
 40
35.0
  1
中外交易株式会社
  7
ms明朝
 72
     4
 11
2538.255774665348
 21
39.49999999999909
 31
0.0
100
AcDbText
  0
LINE
  5
1B8A
330
1F
100
AcDbEntity
  8
実形
 62
     0
100
AcDbLine
 10
2234.0
 20
71.99999999999909
 30
0.0
 11
2834.0
 21
71.99999999999909
 31
0.0
  0
LINE
  5
1B8B
330
1F
100
AcDbEntity
  8
実形
 62
     0
370
     5
100
AcDbLine
 10
2257.843923164362
 20
43.53787547858428
 30
0.0
 11
2233.255774665348
 21
43.53787547858428
 31
0.0
  0
LINE
  5
1B8C
330
1F
100
AcDbEntity
  8
実形
 62
     0
370
     5
100
AcDbLine
 10
2233.255774665348
 20
43.53787547858428
 30
0.0
 11
2233.255774665348
 21
33.53787547858428
 31
0.0
  0
LINE
  5
1B8D
330
1F
100
AcDbEntity
  8
実形
 62
     0
370
     5
100
AcDbLine
 10
2233.255774665348
 20
33.53787547858428
 30
0.0
 11
2257.346428692676
 21
33.53787547858428
 31
0.0
  0
LINE
  5
1B8E
330
1F
100
AcDbEntity
  8
実形
 62
     0
370
     5
100
AcDbLine
 10
2260.641894042939
 20
59.49999999999909
 30
0.0
 11
2260.641894042939
 21
19.49999999999909
 31
0.0
  0
LINE
  5
1B8F
330
1F
100
AcDbEntity
  8
実形
 62
     0
370
     5
100
AcDbLine
 10
2260.641894042939
 20
16.49999999999909
 30
0.0
 11
2295.641894042939
 21
16.49999999999909
 31
0.0
  0
LINE
  5
1B90
330
1F
100
AcDbEntity
  8
実形
 62
     0
370
     5
100
AcDbLine
 10
2295.641894042939
 20
19.49999999999909
 30
0.0
 11
2260.641894042939
 21
39.49999999999909
 31
0.0
  0
LINE
  5
1B91
330
1F
100
AcDbEntity
  8
実形
 62
     0
370
     5
100
AcDbLine
 10
2260.641894042939
 20
39.49999999999909
 30
0.0
 11
2295.641894042939
 21
59.49999999999909
 31
0.0
  0
LINE
  5
1B92
330
1F
100
AcDbEntity
  8
実形
 62
     0
370
     5
100
AcDbLine
 10
2295.641894042939
 20
59.49999999999909
 30
0.0
 11
2260.641894042939
 21
59.49999999999909
 31
0.0
  0
LINE
  5
1B93
330
1F
100
AcDbEntity
  8
実形
 62
     0
370
     5
100
AcDbLine
 10
2326.75434681301
 20
43.53787547858428
 30
0.0
 11
2302.166198313996
 21
43.53787547858428
 31
0.0
  0
LINE
  5
1B94
330
1F
100
AcDbEntity
  8
実形
 62
     0
370
     5
100
AcDbLine
 10
2302.166198313996
 20
43.53787547858428
 30
0.0
 11
2302.166198313996
 21
33.53787547858428
 31
0.0
  0
LINE
  5
1B95
330
1F
100
AcDbEntity
  8
実形
 62
     0
370
     5
100
AcDbLine
 10
2302.166198313996
 20
33.53787547858428
 30
0.0
 11
2326.256852341323
 21
33.53787547858428
 31
0.0
  0
ARC
  5
1B96
330
1F
100
AcDbEntity
  8
実形
 62
     0
370
     5
100
AcDbCircle
 10
2238.255774665347
 20
39.49999999999909
 30
0.0
 40
20.0
100
AcDbArc
 50
11.64772366708617
 51
342.6561058784773
  0
ARC
  5
1B97
330
1F
100
AcDbEntity
  8
実形
 62
     0
370
     5
100
AcDbCircle
 10
2307.166198313995
 20
39.49999999999909
 30
0.0
 40
20.0
100
AcDbArc
 50
11.64772366708617
 51
342.6561058784773
  0
HATCH
  5
1B98
330
1F
100
AcDbEntity
  8
実形
 62
     0
100
AcDbHatch
 10
0.0
 20
0.0
 30
0.0
210
0.0
220
0.0
230
1.0
  2
SOLID
 70
     1
 71
     0
 91
        3
 92
        1
 93
        4
 72
     2
 10
2307.166198313995
 20
39.49999999999909
 40
20.0
 50
11.64772366708617
 51
342.6561058784773
 73
     1
 72
     1
 10
2326.256852341323
 20
33.53787547858428
 11
2302.166198313996
 21
33.53787547858428
 72
     1
 10
2302.166198313996
 20
33.53787547858428
 11
2302.166198313996
 21
43.53787547858428
 72
     1
 10
2302.166198313996
 20
43.53787547858428
 11
2326.75434681301
 21
43.53787547858428
 97
        0
 92
        1
 93
        4
 72
     2
 10
2238.255774665347
 20
39.49999999999909
 40
20.0
 50
11.64772366708617
 51
342.6561058784773
 73
     1
 72
     1
 10
2257.346428692676
 20
33.53787547858428
 11
2233.255774665348
 21
33.53787547858428
 72
     1
 10
2233.255774665348
 20
33.53787547858428
 11
2233.255774665348
 21
43.53787547858428
 72
     1
 10
2233.255774665348
 20
43.53787547858428
 11
2257.843923164362
 21
43.53787547858428
 97
        0
 92
        1
 93
        5
 72
     1
 10
2295.641894042939
 20
59.49999999999909
 11
2260.641894042939
 21
59.49999999999909
 72
     1
 10
2260.641894042939
 20
59.49999999999909
 11
2260.641894042939
 21
19.49999999999909
 72
     1
 10
2260.641894042939
 20
19.49999999999909
 11
2295.641894042939
 21
19.49999999999909
 72
     1
 10
2295.641894042939
 20
19.49999999999909
 11
2260.641894042939
 21
39.49999999999909
 72
     1
 10
2260.641894042939
 20
39.49999999999909
 11
2295.641894042939
 21
59.49999999999909
 97
        0
 75
     0
 76
     1
 98
        1
 10
-10.0
 20
2.99999999999909
  0
LINE
  5
1B99
330
1F
100
AcDbEntity
  8
実形
 62
     0
100
AcDbLine
 10
2234.0
 20
71.99999999999909
 30
0.0
 11
2234.0
 21
201.9999999999991
 31
0.0
  0
TEXT
  5
5E5F
330
1F
100
AcDbEntity
  8
実形
 62
     0
100
AcDbText
 10
2136.666666666667
 20
86.99999999999908
 30
0.0
 40
35.0
  1
尺度
 72
     4
 11
2174.0
 21
104.4999999999991
 31
0.0
100
AcDbText
  0
TEXT
  5
5E68
330
1F
100
AcDbEntity
  8
実形
 62
     0
100
AcDbText
 10
2136.666666666667
 20
151.9999999999991
 30
0.0
 40
35.0
  1
品番
 72
     4
 11
2174.0
 21
169.4999999999991
 31
0.0
100
AcDbText
  0
TEXT
  5
68BC
330
1F
100
AcDbEntity
  8
実形
100
AcDbText
 10
2452.398110327865
 20
90.12524385046026
 30
0.0
 40
30.0
  1
1：10
  7
ms明朝
 72
     4
 11
2507.255253185007
 21
104.7823867076031
 31
0.0
100
AcDbText
  0
TEXT
  5
68D6
330
1F
100
AcDbEntity
  8
実形
100
AcDbText
 10
2312.969302011269
 20
156.7794541810613
 30
0.0
 40
30.0
  1
RaS800-510KD-SPR
  7
ms明朝
 72
     4
 11
2488.512159154126
 21
171.4365970382041
 31
0.0
100
AcDbText
  0
LINE
  5
6D9B
330
1F
100
AcDbEntity
  8
実形
 62
     0
100
AcDbLine
 10
2834.0
 20
6.99999999999909
 30
0.0
 11
2834.0
 21
2024.0
 31
0.0
  0
LINE
  5
6E31
330
1F
100
AcDbEntity
  8
実形
 62
     0
100
AcDbLine
 10
174.0
 20
2024.0
 30
0.0
 11
174.0
 21
6.99999999999909
 31
0.0
  0
LINE
  5
7026
330
1F
100
AcDbEntity
  8
実形
100
AcDbLine
 10
1566.053280974976
 20
1684.178460662066
 30
0.0
 11
736.0532809749765
 21
1684.178460662066
 31
0.0
  0
LINE
  5
7027
330
1F
100
AcDbEntity
  8
実形
100
AcDbLine
 10
736.0532809749765
 20
1684.178460662066
 30
0.0
 11
736.0532809749765
 21
1144.178460662065
 31
0.0
  0
LINE
  5
7028
330
1F
100
AcDbEntity
  8
実形
100
AcDbLine
 10
736.0532809749765
 20
1144.178460662065
 30
0.0
 11
1566.053280974976
 21
1144.178460662065
 31
0.0
  0
LINE
  5
7029
330
1F
100
AcDbEntity
  8
実形
100
AcDbLine
 10
1566.053280974976
 20
1144.178460662065
 30
0.0
 11
1566.053280974976
 21
1684.178460662066
 31
0.0
  0
LINE
  5
702A
330
1F
100
AcDbEntity
  8
実形
100
AcDbLine
 10
1545.053280974977
 20
1669.178460662066
 30
0.0
 11
757.0532809749765
 21
1669.178460662066
 31
0.0
  0
LINE
  5
702B
330
1F
100
AcDbEntity
  8
実形
100
AcDbLine
 10
751.0532809749766
 20
1663.178460662065
 30
0.0
 11
751.0532809749768
 21
1165.178460662066
 31
0.0
  0
LINE
  5
702C
330
1F
100
AcDbEntity
  8
実形
100
AcDbLine
 10
757.0532809749768
 20
1159.178460662066
 30
0.0
 11
1545.053280974977
 21
1159.178460662066
 31
0.0
  0
LINE
  5
702D
330
1F
100
AcDbEntity
  8
実形
100
AcDbLine
 10
1551.053280974976
 20
1165.178460662066
 30
0.0
 11
1551.053280974976
 21
1663.178460662066
 31
0.0
  0
LINE
  5
702E
330
1F
100
AcDbEntity
  8
実形
100
AcDbLine
 10
1531.053280974977
 20
1185.178460662066
 30
0.0
 11
1531.053280974976
 21
1643.178460662066
 31
0.0
  0
LINE
  5
702F
330
1F
100
AcDbEntity
  8
実形
100
AcDbLine
 10
1525.053280974977
 20
1649.178460662066
 30
0.0
 11
1431.053280974977
 21
1649.178460662066
 31
0.0
  0
LINE
  5
7030
330
1F
100
AcDbEntity
  8
実形
100
AcDbLine
 10
771.0532809749765
 20
1573.178460662066
 30
0.0
 11
771.0532809749765
 21
1185.178460662066
 31
0.0
  0
LINE
  5
7031
330
1F
100
AcDbEntity
  8
実形
100
AcDbLine
 10
777.0532809749766
 20
1179.178460662066
 30
0.0
 11
1405.053280974977
 21
1179.178460662065
 31
0.0
  0
DIMENSION
  5
70F5
330
1F
100
AcDbEntity
  8
実形
100
AcDbDimension
  2
*D10
 10
771.0532809749768
 20
1008.281614901731
 30
0.0
 11
1151.053280974976
 21
1027.38161490173
 31
0.0
 70
    32
 71
     5
 42
759.9999999999997
  3
ISO-25
100
AcDbAlignedDimension
 13
1531.053280974976
 23
1140.544316606117
 33
0.0
 14
771.0532809749768
 24
1140.544316606117
 34
0.0
 50
180.0
100
AcDbRotatedDimension
1001
ACAD
1000
DSTYLE
1002
{
1070
    41
1040
10.0
1070
   140
1040
25.0
1070
   147
1040
6.599999999999998
1070
   279
1070
     2
1070
   342
1005
30D
1070
   371
1070
    18
1070
   372
1070
    18
1002
}
  0
DIMENSION
  5
7102
330
1F
100
AcDbEntity
  8
実形
100
AcDbDimension
  2
*D11
 10
751.0532809749768
 20
1008.281614901731
 30
0.0
 11
804.652127670257
 21
1029.88161490173
 31
0.0
 70
   160
  1
20
 71
     5
 42
799.9999999999998
  3
ISO-25
100
AcDbAlignedDimension
 13
1551.053280974976
 23
1140.544316606117
 33
0.0
 14
751.0532809749768
 24
1140.544316606117
 34
0.0
 50
180.0
100
AcDbRotatedDimension
1001
ACAD
1000
DSTYLE
1002
{
1070
    41
1040
10.0
1070
   140
1040
25.0
1070
   147
1040
6.599999999999998
1070
   279
1070
     2
1070
   342
1005
30D
1070
   371
1070
    18
1070
   372
1070
    18
1002
}
  0
DIMENSION
  5
7133
330
1F
100
AcDbEntity
  8
実形
100
AcDbDimension
  2
*D12
 10
751.0532809749768
 20
945.8711275457572
 30
0.0
 11
1151.053280974976
 21
964.9711275457573
 31
0.0
 70
    32
 71
     5
 42
799.9999999999998
  3
ISO-25
100
AcDbAlignedDimension
 13
1551.053280974976
 23
1140.544316606117
 33
0.0
 14
751.0532809749768
 24
1140.544316606117
 34
0.0
 50
180.0
100
AcDbRotatedDimension
1001
ACAD
1000
DSTYLE
1002
{
1070
    41
1040
10.0
1070
   140
1040
25.0
1070
   147
1040
6.599999999999998
1070
   279
1070
     2
1070
   342
1005
30D
1070
   371
1070
    18
1070
   372
1070
    18
1002
}
  0
DIMENSION
  5
7140
330
1F
100
AcDbEntity
  8
実形
100
AcDbDimension
  2
*D13
 10
736.0532809749765
 20
945.8711275457572
 30
0.0
 11
692.2637476204308
 21
967.4711275457571
 31
0.0
 70
   160
  1
15
 71
     5
 42
830.0
  3
ISO-25
100
AcDbAlignedDimension
 13
1566.053280974976
 23
1140.544316606117
 33
0.0
 14
736.0532809749765
 24
1140.544316606117
 34
0.0
 50
180.0
100
AcDbRotatedDimension
1001
ACAD
1000
DSTYLE
1002
{
1070
    41
1040
10.0
1070
   140
1040
25.0
1070
   147
1040
6.599999999999998
1070
   279
1070
     2
1070
   342
1005
30D
1070
   371
1070
    18
1070
   372
1070
    18
1002
}
  0
DIMENSION
  5
7172
330
1F
100
AcDbEntity
  8
実形
100
AcDbDimension
  2
*D14
 10
736.0532809749765
 20
872.6495470756054
 30
0.0
 11
1151.053280974976
 21
891.7495470756053
 31
0.0
 70
    32
 71
     5
 42
830.0
  3
ISO-25
100
AcDbAlignedDimension
 13
1566.053280974976
 23
1140.544316606117
 33
0.0
 14
736.0532809749765
 24
1140.544316606117
 34
0.0
 50
180.0
100
AcDbRotatedDimension
1001
ACAD
1000
DSTYLE
1002
{
1070
    41
1040
10.0
1070
   140
1040
25.0
1070
   147
1040
6.599999999999998
1070
   279
1070
     2
1070
   342
1005
30D
1070
   371
1070
    18
1070
   372
1070
    18
1002
}
  0
LINE
  5
7180
330
1F
100
AcDbEntity
  8
実形
  6
ACAD_ISO08W100
 48
0.5
100
AcDbLine
 10
1119.353583868479
 20
1414.178460662066
 30
0.0
 11
1394.381468466423
 21
1414.178460662066
 31
0.0
  0
CIRCLE
  5
7183
330
1F
100
AcDbEntity
  8
実形
100
AcDbCircle
 10
1261.053280974977
 20
1414.178460662066
 30
0.0
 40
80.0
  0
CIRCLE
  5
7184
330
1F
100
AcDbEntity
  8
実形
100
AcDbCircle
 10
1261.053280974977
 20
1414.178460662066
 30
0.0
 40
90.5
  0
LINE
  5
7185
330
1F
100
AcDbEntity
  8
実形
100
AcDbLine
 10
1531.053280974976
 20
1684.178460662066
 30
0.0
 11
1381.053280974976
 21
1684.178460662066
 31
0.0
  0
LINE
  5
72ED
330
1F
100
AcDbEntity
  8
実形
 62
     3
100
AcDbLine
 10
797.3710940401324
 20
-382.3860966284574
 30
0.0
 11
797.3710940401326
 21
-392.3860966284574
 31
0.0
  0
LEADER
  5
734B
330
1F
100
AcDbEntity
  8
実形
100
AcDbLeader
  3
ISO-25
 76
     2
 10
781.4224224383742
 20
1568.199935987015
 30
0.0
 10
835.479368568418
 20
1494.303693113559
 30
0.0
211
-1.0
221
0.0
231
0.0
1001
ACAD
1000
DSTYLE
1002
{
1070
    77
1070
     0
1070
    41
1040
10.0
1070
   140
1040
30.0
1070
   147
1040
6.599999999999998
1070
   279
1070
     2
1070
   342
1005
30D
1070
   371
1070
    18
1070
   372
1070
    18
1002
}
  0
LEADER
  5
73F6
330
1F
100
AcDbEntity
  8
実形
100
AcDbLeader
  3
ISO-25
 76
     2
 10
760.0833446358993
 20
1166.262627398047
 30
0.0
 10
828.3245667519768
 20
1195.187379926308
 30
0.0
211
-1.0
221
0.0
231
0.0
1001
ACAD
1000
DSTYLE
1002
{
1070
    77
1070
     0
1070
    41
1040
10.0
1070
   140
1040
30.0
1070
   147
1040
6.599999999999998
1070
   279
1070
     2
1070
   342
1005
30D
1070
   371
1070
    18
1070
   372
1070
    18
1002
}
  0
ARC
  5
7548
330
1F
100
AcDbEntity
  8
実形
100
AcDbCircle
 10
757.0532809749765
 20
1663.178460662065
 30
0.0
 40
6.0
100
AcDbArc
 50
90.0
 51
180.0
  0
ARC
  5
7549
330
1F
100
AcDbEntity
  8
実形
100
AcDbCircle
 10
777.0532809749766
 20
1185.178460662066
 30
0.0
 40
6.0
100
AcDbArc
 50
180.0
 51
270.0
  0
ARC
  5
754A
330
1F
100
AcDbEntity
  8
実形
100
AcDbCircle
 10
757.0532809749768
 20
1165.178460662066
 30
0.0
 40
6.0
100
AcDbArc
 50
180.0
 51
270.0
  0
ARC
  5
754C
330
1F
100
AcDbEntity
  8
実形
100
AcDbCircle
 10
1545.053280974977
 20
1663.178460662066
 30
0.0
 40
6.0
100
AcDbArc
 50
0.000000000000007
 51
90.00000000000003
  0
ARC
  5
754D
330
1F
100
AcDbEntity
  8
実形
100
AcDbCircle
 10
1525.053280974976
 20
1185.178460662066
 30
0.0
 40
6.0
100
AcDbArc
 50
270.0
 51
0.000000000000007
  0
ARC
  5
754E
330
1F
100
AcDbEntity
  8
実形
100
AcDbCircle
 10
1545.053280974977
 20
1165.178460662066
 30
0.0
 40
6.0
100
AcDbArc
 50
270.0
 51
0.000000000000007
  0
LINE
  5
774D
330
1F
100
AcDbEntity
  8
実形
 62
     0
100
AcDbLine
 10
2114.0
 20
266.9999999999991
 30
0.0
 11
2834.0
 21
266.9999999999991
 31
0.0
  0
LINE
  5
774E
330
1F
100
AcDbEntity
  8
実形
 62
     0
100
AcDbLine
 10
2114.0
 20
6.99999999999909
 30
0.0
 11
2114.0
 21
266.9999999999991
 31
0.0
  0
LINE
  5
774F
330
1F
100
AcDbEntity
  8
実形
 62
     0
100
AcDbLine
 10
2234.0
 20
71.99999999999909
 30
0.0
 11
2234.0
 21
266.9999999999991
 31
0.0
  0
TEXT
  5
7750
330
1F
100
AcDbEntity
  8
実形
 62
     0
100
AcDbText
 10
2137.833333333333
 20
216.9999999999991
 30
0.0
 40
35.0
  1
品名
 72
     4
 11
2174.0
 21
234.4999999999991
 31
0.0
100
AcDbText
  0
TEXT
  5
7751
330
1F
100
AcDbEntity
  8
実形
100
AcDbText
 10
2323.374698073251
 20
216.2308752843241
 30
0.0
 40
35.0
  1
ｱﾝﾀﾞｰｼﾝｸ
  7
ms明朝
 72
     4
 11
2425.774698073251
 21
233.8308752843241
 31
0.0
100
AcDbText
  0
LINE
  5
782D
330
1F
100
AcDbEntity
  8
実形
100
AcDbLine
 10
1001.053280974977
 20
1581.178460662066
 30
0.0
 11
1001.053280974976
 21
1643.178460662066
 31
0.0
  0
DIMENSION
  5
785C
330
1F
100
AcDbEntity
  8
実形
100
AcDbDimension
  2
*D16
 10
1001.053280974976
 20
1798.875438359908
 30
0.0
 11
1206.053280974977
 21
1817.975438359908
 31
0.0
 70
    32
 71
     5
 42
410.0000000000004
  3
ISO-25
100
AcDbAlignedDimension
 13
1411.053280974977
 23
1687.668426319256
 33
0.0
 14
1001.053280974976
 24
1687.668426319256
 34
0.0
 50
180.0
100
AcDbRotatedDimension
1001
ACAD
1000
DSTYLE
1002
{
1070
    41
1040
10.0
1070
   140
1040
25.0
1070
   147
1040
6.599999999999998
1070
   279
1070
     2
1070
   342
1005
30D
1070
   371
1070
    18
1070
   372
1070
    18
1002
}
  0
DIMENSION
  5
786A
330
1F
100
AcDbEntity
  8
実形
100
AcDbDimension
  2
*D17
 10
751.0532809749766
 20
1798.875438359908
 30
0.0
 11
882.6550583614608
 21
1818.313691332377
 31
0.0
 70
   160
 71
     5
 42
249.9999999999998
  3
ISO-25
100
AcDbAlignedDimension
 13
1001.053280974976
 23
1687.668426319256
 33
0.0
 14
751.0532809749766
 24
1687.668426319256
 34
0.0
 50
180.0
100
AcDbRotatedDimension
1001
ACAD
1000
DSTYLE
1002
{
1070
    41
1040
10.0
1070
   140
1040
25.0
1070
   147
1040
6.599999999999998
1070
   279
1070
     2
1070
   342
1005
30D
1070
   371
1070
    18
1070
   372
1070
    18
1002
}
  0
DIMENSION
  5
7877
330
1F
100
AcDbEntity
  8
実形
100
AcDbDimension
  2
*D18
 10
736.0532809749765
 20
1798.875438359908
 30
0.0
 11
1567.505266927248
 21
1823.86048303489
 31
0.0
 70
   160
  1
15
 71
     5
 42
830.0
  3
ISO-25
100
AcDbAlignedDimension
 13
1566.053280974976
 23
1688.296423815394
 33
0.0
 14
736.0532809749765
 24
1687.651727076809
 34
0.0
 50
180.0
100
AcDbRotatedDimension
1001
ACAD
1000
DSTYLE
1002
{
1070
    41
1040
10.0
1070
   140
1040
25.0
1070
   147
1040
6.599999999999998
1070
   279
1070
     2
1070
   342
1005
30D
1070
   371
1070
    18
1070
   372
1070
    18
1002
}
  0
LINE
  5
799D
330
1F
100
AcDbEntity
  8
実形
100
AcDbLine
 10
681.6105981027901
 20
1669.178460662066
 30
0.0
 11
646.4313207137002
 21
1669.178460662066
 31
0.0
  0
LINE
  5
799E
330
1F
100
AcDbEntity
  8
実形
100
AcDbLine
 10
646.4313207137002
 20
1669.178460662066
 30
0.0
 11
646.4313207137002
 21
1649.178460662066
 31
0.0
  0
LINE
  5
799F
330
1F
100
AcDbEntity
  8
実形
100
AcDbLine
 10
646.4313207137002
 20
1649.178460662066
 30
0.0
 11
681.6105981027903
 21
1649.178460662066
 31
0.0
  0
DIMENSION
  5
79B0
330
1F
100
AcDbEntity
  8
実形
100
AcDbDimension
  2
*D20
 10
646.4313207137002
 20
1669.178460662066
 30
0.0
 11
629.3580733355902
 21
1615.132476377824
 31
0.0
 70
   160
  1
70
 71
     5
 42
89.99999999999955
  3
ISO-25
100
AcDbAlignedDimension
 13
740.6105981027901
 23
1579.178460662066
 33
0.0
 14
740.6105981027901
 24
1669.178460662066
 34
0.0
 50
90.0
100
AcDbRotatedDimension
1001
ACAD
1000
DSTYLE
1002
{
1070
    41
1040
10.0
1070
   140
1040
25.0
1070
   147
1040
6.599999999999998
1070
   279
1070
     2
1070
   342
1005
30D
1070
   371
1070
    18
1070
   372
1070
    18
1002
}
  0
DIMENSION
  5
79D8
330
1F
100
AcDbEntity
  8
実形
100
AcDbDimension
  2
*D21
 10
646.4313207137002
 20
1649.178460662066
 30
0.0
 11
709.6457412016007
 21
1650.22842009638
 31
0.0
 70
   160
  1
20
 71
     5
 42
69.99999999999977
  3
ISO-25
100
AcDbAlignedDimension
 13
740.6105981027901
 23
1579.178460662066
 33
0.0
 14
746.6105981027904
 24
1649.178460662066
 34
0.0
 50
90.0
100
AcDbRotatedDimension
1001
ACAD
1000
DSTYLE
1002
{
1070
    41
1040
10.0
1070
   140
1040
25.0
1070
   147
1040
6.599999999999998
1070
   279
1070
     2
1070
   342
1005
30D
1070
   371
1070
    18
1070
   372
1070
    18
1002
}
  0
DIMENSION
  5
7A0D
330
1F
100
AcDbEntity
  8
実形
100
AcDbDimension
  2
*D22
 10
580.6110897416528
 20
1579.178460662066
 30
0.0
 11
561.5110897416526
 21
1624.178460662066
 31
0.0
 70
    32
 71
     5
 42
89.99999999999955
  3
ISO-25
100
AcDbAlignedDimension
 13
709.054309333449
 23
1669.178460662066
 33
0.0
 14
688.0331621179155
 24
1579.178460662066
 34
0.0
 50
90.0
100
AcDbRotatedDimension
1001
ACAD
1000
DSTYLE
1002
{
1070
    41
1040
10.0
1070
   140
1040
25.0
1070
   147
1040
6.599999999999998
1070
   279
1070
     2
1070
   342
1005
30D
1070
   371
1070
    18
1070
   372
1070
    18
1002
}
  0
DIMENSION
  5
7A2E
330
1F
100
AcDbEntity
  8
実形
100
AcDbDimension
  2
*D23
 10
580.6110897416527
 20
1179.178460662066
 30
0.0
 11
561.5110897416525
 21
1379.178460662066
 31
0.0
 70
    32
 71
     5
 42
400.0000000000004
  3
ISO-25
100
AcDbAlignedDimension
 13
705.9573702596499
 23
1579.178460662066
 33
0.0
 14
711.0775897777948
 24
1179.178460662066
 34
0.0
 50
90.0
100
AcDbRotatedDimension
1001
ACAD
1000
DSTYLE
1002
{
1070
    41
1040
10.0
1070
   140
1040
25.0
1070
   147
1040
6.599999999999998
1070
   279
1070
     2
1070
   342
1005
30D
1070
   371
1070
    18
1070
   372
1070
    18
1002
}
  0
DIMENSION
  5
7A4D
330
1F
100
AcDbEntity
  8
実形
100
AcDbDimension
  2
*D24
 10
580.6110897416527
 20
1144.178460662065
 30
0.0
 11
558.4716145224265
 21
1706.647378054783
 31
0.0
 70
   160
  1
15
 71
     5
 42
540.0
  3
ISO-25
100
AcDbAlignedDimension
 13
737.4370316408258
 23
1684.178460662066
 33
0.0
 14
710.5471809943828
 24
1144.178460662065
 34
0.0
 50
90.0
100
AcDbRotatedDimension
1001
ACAD
1000
DSTYLE
1002
{
1070
    41
1040
10.0
1070
   140
1040
25.0
1070
   147
1040
6.599999999999998
1070
   279
1070
     2
1070
   342
1005
30D
1070
   371
1070
    18
1070
   372
1070
    18
1002
}
  0
DIMENSION
  5
7B4E
330
1F
100
AcDbEntity
  8
実形
100
AcDbDimension
  2
*D25
 10
580.6110897416528
 20
1579.178460662066
 30
0.0
 11
664.6815704476048
 21
1179.170355646408
 31
0.0
 70
   160
  1
20
 71
     5
 42
420.0000000000004
  3
ISO-25
100
AcDbAlignedDimension
 13
711.0775897777948
 23
1159.178460662066
 33
0.0
 14
675.6105981027901
 24
1579.178460662066
 34
0.0
 50
90.0
100
AcDbRotatedDimension
1001
ACAD
1000
DSTYLE
1002
{
1070
    41
1040
10.0
1070
   140
1040
25.0
1070
   147
1040
6.599999999999998
1070
   279
1070
     2
1070
   342
1005
30D
1070
   371
1070
    18
1070
   372
1070
    18
1002
}
  0
DIMENSION
  5
7BA4
330
1F
100
AcDbEntity
  8
実形
100
AcDbDimension
  2
*D26
 10
524.6395332467109
 20
1159.178460662066
 30
0.0
 11
505.5395332467107
 21
1414.178460662066
 31
0.0
 70
    32
 71
     5
 42
510.0
  3
ISO-25
100
AcDbAlignedDimension
 13
740.0100178911671
 23
1669.178460662066
 33
0.0
 14
713.0887020536247
 24
1159.178460662066
 34
0.0
 50
90.0
100
AcDbRotatedDimension
1001
ACAD
1000
DSTYLE
1002
{
1070
    41
1040
10.0
1070
   140
1040
25.0
1070
   147
1040
6.599999999999998
1070
   279
1070
     2
1070
   342
1005
30D
1070
   371
1070
    18
1070
   372
1070
    18
1002
}
  0
DIMENSION
  5
7BCC
330
1F
100
AcDbEntity
  8
実形
100
AcDbDimension
  2
*D27
 10
465.1665722424349
 20
1144.178460662066
 30
0.0
 11
446.0665722424348
 21
1414.178460662066
 31
0.0
 70
    32
 71
     5
 42
540.0
  3
ISO-25
100
AcDbAlignedDimension
 13
736.0532809749765
 23
1684.178460662066
 33
0.0
 14
714.1013936728468
 24
1144.178460662065
 34
0.0
 50
90.0
100
AcDbRotatedDimension
1001
ACAD
1000
DSTYLE
1002
{
1070
    41
1040
10.0
1070
   140
1040
25.0
1070
   147
1040
6.599999999999998
1070
   279
1070
     2
1070
   342
1005
30D
1070
   371
1070
    18
1070
   372
1070
    18
1002
}
  0
LINE
  5
7BEB
330
1F
100
AcDbEntity
  8
実形
100
AcDbLine
 10
999.0532809749769
 20
1579.178460662066
 30
0.0
 11
777.0532809749766
 21
1579.178460662066
 31
0.0
  0
ARC
  5
7C3F
330
1F
100
AcDbEntity
  8
実形
100
AcDbCircle
 10
777.0532809749766
 20
1573.178460662066
 30
0.0
 40
6.0
100
AcDbArc
 50
90.00000000000005
 51
180.0
  0
LINE
  5
7C40
330
1F
100
AcDbEntity
  8
実形
  6
ACAD_ISO08W100
 48
0.5
100
AcDbLine
 10
1261.053280974977
 20
1310.740901717254
 30
0.0
 11
1261.053280974977
 21
1566.849790319099
 31
0.0
  0
LINE
  5
8C1A
330
1F
100
AcDbEntity
  8
実形
100
AcDbLine
 10
1431.053280974977
 20
1185.178460662065
 30
0.0
 11
1431.053280974977
 21
1643.178460662066
 31
0.0
  0
LINE
  5
8C1E
330
1F
100
AcDbEntity
  8
実形
100
AcDbLine
 10
1411.053280974977
 20
1185.178460662065
 30
0.0
 11
1411.053280974977
 21
1643.178460662066
 31
0.0
  0
LINE
  5
8C1F
330
1F
100
AcDbEntity
  8
実形
100
AcDbLine
 10
1437.053280974977
 20
1179.178460662065
 30
0.0
 11
1525.053280974976
 21
1179.178460662066
 31
0.0
  0
LINE
  5
8C20
330
1F
100
AcDbEntity
  8
実形
100
AcDbLine
 10
1405.053280974977
 20
1649.178460662066
 30
0.0
 11
1007.053280974976
 21
1649.178460662066
 31
0.0
  0
DIMENSION
  5
8C23
330
1F
100
AcDbEntity
  8
実形
100
AcDbDimension
  2
*D58
 10
1261.053280974977
 20
1569.349790319099
 30
0.0
 11
1336.053280974977
 21
1588.449790319099
 31
0.0
 70
    32
 71
     5
 42
150.0
  3
ISO-25
100
AcDbAlignedDimension
 13
1411.053280974977
 23
1448.153842700946
 33
0.0
 14
1261.053280974977
 24
1448.153842700946
 34
0.0
 50
180.0
100
AcDbRotatedDimension
1001
ACAD
1000
DSTYLE
1002
{
1070
    41
1040
10.0
1070
   140
1040
25.0
1070
   147
1040
6.599999999999998
1070
   279
1070
     2
1070
   342
1005
30D
1070
   371
1070
    18
1070
   372
1070
    18
1002
}
  0
DIMENSION
  5
8F2C
330
1F
100
AcDbEntity
  8
実形
100
AcDbDimension
  2
*D59
 10
1113.781934716619
 20
1179.178460662066
 30
0.0
 11
1094.681934716618
 21
1296.678460662066
 31
0.0
 70
    32
 71
     5
 42
234.9999999999998
  3
ISO-25
100
AcDbAlignedDimension
 13
1215.372050495051
 23
1414.178460662065
 33
0.0
 14
1215.372050495051
 24
1179.178460662066
 34
0.0
 50
90.0
100
AcDbRotatedDimension
1001
ACAD
1000
DSTYLE
1002
{
1070
    41
1040
10.0
1070
   147
1040
6.599999999999998
1070
   279
1070
     2
1070
   342
1005
30D
1070
   371
1070
    18
1070
   372
1070
    18
1002
}
  0
DIMENSION
  5
8FD3
330
1F
100
AcDbEntity
  8
実形
100
AcDbDimension
  2
*D60
 10
1431.053280974977
 20
1798.875438359908
 30
0.0
 11
1536.38279210934
 21
1727.112054279481
 31
0.0
 70
   160
  1
20
 71
     5
 42
119.9999999999995
  3
ISO-25
100
AcDbAlignedDimension
 13
1551.053280974976
 23
1686.070092314619
 33
0.0
 14
1431.053280974977
 24
1686.070092314619
 34
0.0
 50
180.0
100
AcDbRotatedDimension
1001
ACAD
1000
DSTYLE
1002
{
1070
    41
1040
10.0
1070
   147
1040
6.599999999999998
1070
   279
1070
     2
1070
   342
1005
30D
1070
   371
1070
    18
1070
   372
1070
    18
1002
}
  0
DIMENSION
  5
8FE9
330
1F
100
AcDbEntity
  8
実形
100
AcDbDimension
  2
*D61
 10
1431.053280974977
 20
1798.875438359908
 30
0.0
 11
1481.053280974977
 21
1817.975438359908
 31
0.0
 70
    32
 71
     5
 42
100.0
  3
ISO-25
100
AcDbAlignedDimension
 13
1531.053280974977
 23
1687.668426319256
 33
0.0
 14
1431.053280974977
 24
1687.668426319256
 34
0.0
 50
180.0
100
AcDbRotatedDimension
1001
ACAD
1000
DSTYLE
1002
{
1070
    41
1040
10.0
1070
   147
1040
6.599999999999998
1070
   279
1070
     2
1070
   342
1005
30D
1070
   371
1070
    18
1070
   372
1070
    18
1002
}
  0
ARC
  5
94C6
330
1F
100
AcDbEntity
  8
実形
100
AcDbCircle
 10
1525.053280974977
 20
1643.178460662066
 30
0.0
 40
6.0
100
AcDbArc
 50
360.0
 51
90.0
  0
ARC
  5
94C7
330
1F
100
AcDbEntity
  8
実形
100
AcDbCircle
 10
1437.053280974977
 20
1643.178460662066
 30
0.0
 40
6.0
100
AcDbArc
 50
90.0
 51
180.0
  0
ARC
  5
94C8
330
1F
100
AcDbEntity
  8
実形
100
AcDbCircle
 10
1405.053280974977
 20
1643.178460662066
 30
0.0
 40
6.0
100
AcDbArc
 50
360.0
 51
90.00000000000003
  0
ARC
  5
94DD
330
1F
100
AcDbEntity
  8
実形
100
AcDbCircle
 10
1437.053280974977
 20
1185.178460662065
 30
0.0
 40
6.0
100
AcDbArc
 50
180.0
 51
270.0000000000001
  0
ARC
  5
94DE
330
1F
100
AcDbEntity
  8
実形
100
AcDbCircle
 10
1405.053280974977
 20
1185.178460662065
 30
0.0
 40
6.0
100
AcDbArc
 50
270.0
 51
360.0
  0
TEXT
  5
9977
330
1F
100
AcDbEntity
  8
実形
 48
20.0
100
AcDbText
 10
718.2880662647021
 20
1811.114809628532
 30
0.0
 40
25.0
  1
15
100
AcDbText
  0
TEXT
  5
99AC
330
1F
100
AcDbEntity
  8
実形
 48
20.0
100
AcDbText
 10
1400.26381176677
 20
1711.63218091085
 30
0.0
 40
25.0
  1
20
100
AcDbText
  0
TEXT
  5
99F3
330
1F
100
AcDbEntity
  8
実形
100
AcDbText
 10
843.5942274819627
 20
1472.535534442701
 30
0.0
 40
25.0
  1
6R
 72
     2
 11
885.2608941486293
 21
1469.202201109367
 31
0.0
100
AcDbText
 73
     1
  0
TEXT
  5
99FB
330
1F
100
AcDbEntity
  8
実形
100
AcDbText
 10
848.1271257261015
 20
1196.77927065138
 30
0.0
 40
25.0
  1
6R
 72
     2
 11
889.7937923927681
 21
1193.445937318047
 31
0.0
100
AcDbText
 73
     1
  0
TEXT
  5
9A8A
330
1F
100
AcDbEntity
  8
実形
 48
20.0
100
AcDbText
 10
1487.25601554569
 20
1016.158485160291
 30
0.0
 40
25.0
  1
20
100
AcDbText
  0
TEXT
  5
9A93
330
1F
100
AcDbEntity
  8
実形
 48
20.0
100
AcDbText
 10
1583.840560467295
 20
956.1889428974064
 30
0.0
 40
25.0
  1
15
100
AcDbText
  0
TEXT
  5
9DC5
330
1F
100
AcDbEntity
  8
実形
 48
20.0
100
AcDbText
 10
568.9677605104352
 20
1101.918510839127
 30
0.0
 40
25.0
  1
15
 50
90.0
100
AcDbText
  0
DIMENSION
  5
9F70
330
1F
100
AcDbEntity
  8
実形
100
AcDbDimension
  2
*D63
 10
2239.563346763179
 20
1159.178460662066
 30
0.0
 11
2220.463346763179
 21
1414.178460662066
 31
0.0
 70
    32
 71
     5
 42
509.9999999999997
  3
ISO-25
100
AcDbAlignedDimension
 13
2115.881397616314
 23
1669.178460662066
 33
0.0
 14
2113.186486125327
 24
1159.178460662066
 34
0.0
 50
90.0
100
AcDbRotatedDimension
1001
ACAD
1000
DSTYLE
1002
{
1070
    41
1040
10.0
1070
   140
1040
25.0
1070
   147
1040
6.599999999999998
1070
   279
1070
     2
1070
   342
1005
30D
1070
   371
1070
    18
1070
   372
1070
    18
1002
}
  0
DIMENSION
  5
9F71
330
1F
100
AcDbEntity
  8
実形
100
AcDbDimension
  2
*D64
 10
2239.563346763179
 20
1144.178460662065
 30
0.0
 11
2217.963346763179
 21
1713.725599288342
 31
0.0
 70
   160
  1
15
 71
     5
 42
540.0
  3
ISO-25
100
AcDbAlignedDimension
 13
2126.240009622513
 23
1684.178460662066
 33
0.0
 14
2126.240009622513
 24
1144.178460662065
 34
0.0
 50
90.0
100
AcDbRotatedDimension
1001
ACAD
1000
DSTYLE
1002
{
1070
    41
1040
10.0
1070
   140
1040
25.0
1070
   147
1040
6.599999999999998
1070
   279
1070
     2
1070
   342
1005
30D
1070
   371
1070
    18
1070
   372
1070
    18
1002
}
  0
DIMENSION
  5
9F72
330
1F
100
AcDbEntity
  8
実形
100
AcDbDimension
  2
*D65
 10
2301.588174573664
 20
1144.178460662065
 30
0.0
 11
2282.488174573663
 21
1414.178460662066
 31
0.0
 70
    32
 71
     5
 42
540.0
  3
ISO-25
100
AcDbAlignedDimension
 13
2126.240009622513
 23
1684.178460662066
 33
0.0
 14
2126.240009622513
 24
1144.178460662065
 34
0.0
 50
90.0
100
AcDbRotatedDimension
1001
ACAD
1000
DSTYLE
1002
{
1070
    41
1040
10.0
1070
   140
1040
25.0
1070
   147
1040
6.599999999999998
1070
   279
1070
     2
1070
   342
1005
30D
1070
   371
1070
    18
1070
   372
1070
    18
1002
}
  0
DIMENSION
  5
9F74
330
1F
100
AcDbEntity
  8
実形
100
AcDbDimension
  2
*D66
 10
2179.392668322953
 20
1179.178460662066
 30
0.0
 11
2160.292668322953
 21
1414.178460662066
 31
0.0
 70
    32
 71
     5
 42
470.0000000000001
  3
ISO-25
100
AcDbAlignedDimension
 13
2060.224018306508
 23
1649.178460662066
 33
0.0
 14
2060.224018306508
 24
1179.178460662066
 34
0.0
 50
90.0
100
AcDbRotatedDimension
1001
ACAD
1000
DSTYLE
1002
{
1070
    41
1040
10.0
1070
   147
1040
6.599999999999998
1070
   279
1070
     2
1070
   342
1005
30D
1070
   371
1070
    18
1070
   372
1070
    18
1002
}
  0
DIMENSION
  5
9F75
330
1F
100
AcDbEntity
  8
実形
100
AcDbDimension
  2
*D67
 10
2179.392668322953
 20
1159.178460662066
 30
0.0
 11
2179.392668322952
 21
1414.178460662066
 31
0.0
 70
    32
  1
 
 71
     5
 42
510.0
  3
ISO-25
100
AcDbAlignedDimension
 13
2049.363985752325
 23
1669.178460662066
 33
0.0
 14
2061.3945811954
 24
1159.178460662066
 34
0.0
 50
90.0
100
AcDbRotatedDimension
1001
ACAD
1000
DSTYLE
1002
{
1070
    41
1040
10.0
1070
   147
1040
6.599999999999998
1070
   279
1070
     2
1070
   342
1005
30D
1070
   371
1070
    18
1070
   372
1070
    18
1002
}
  0
TEXT
  5
A014
330
1F
100
AcDbEntity
  8
実形
 48
20.0
100
AcDbText
 10
2240.255843729335
 20
1094.228486336611
 30
0.0
 40
25.0
  1
15
 50
90.0
100
AcDbText
  0
TEXT
  5
A01D
330
1F
100
AcDbEntity
  8
実形
 48
20.0
100
AcDbText
 10
2119.849172596602
 20
1644.192154504608
 30
0.0
 40
25.0
  1
20
 50
90.0
100
AcDbText
  0
TEXT
  5
A026
330
1F
100
AcDbEntity
  8
実形
 48
20.0
100
AcDbText
 10
2118.259622669794
 20
1152.836548203829
 30
0.0
 40
25.0
  1
20
 50
90.0
100
AcDbText
  0
DIMENSION
  5
A0A7
330
1F
100
AcDbEntity
  8
実形
100
AcDbDimension
  2
*D68
 10
1411.053280974977
 20
1069.914857106304
 30
0.0
 11
1091.053280974976
 21
1089.014857106304
 31
0.0
 70
    32
 71
     5
 42
640.0000000000002
  3
ISO-25
100
AcDbAlignedDimension
 13
771.0532809749765
 23
1185.178460662066
 33
0.0
 14
1411.053280974977
 24
1185.178460662065
 34
0.0
100
AcDbRotatedDimension
1001
ACAD
1000
DSTYLE
1002
{
1070
    41
1040
10.0
1070
   147
1040
6.599999999999998
1070
   279
1070
     2
1070
   342
1005
30D
1070
   371
1070
    18
1070
   372
1070
    18
1002
}
  0
LINE
  5
A2B1
330
1F
100
AcDbEntity
  8
実形
100
AcDbLine
 10
1405.053280974977
 20
1649.178460662066
 30
0.0
 11
1437.053280974977
 21
1649.178460662066
 31
0.0
  0
LINE
  5
A2B2
330
1F
100
AcDbEntity
  8
実形
100
AcDbLine
 10
1405.053280974977
 20
1179.178460662065
 30
0.0
 11
1437.053280974977
 21
1179.178460662065
 31
0.0
  0
LINE
  5
A3CB
330
1F
100
AcDbEntity
  8
実形
 62
     0
100
AcDbLine
 10
174.0
 20
6.99999999999909
 30
0.0
 11
2834.0
 21
6.99999999999909
 31
0.0
  0
ARC
  5
A402
330
1F
100
AcDbEntity
  8
実形
100
AcDbCircle
 10
999.0532809749769
 20
1581.178460662066
 30
0.0
 40
2.0
100
AcDbArc
 50
270.0000000000001
 51
0.0000000000001781
  0
ARC
  5
A403
330
1F
100
AcDbEntity
  8
実形
100
AcDbCircle
 10
1007.053280974976
 20
1643.178460662066
 30
0.0
 40
6.0
100
AcDbArc
 50
90.00000000000003
 51
180.0000000000003
  0
LEADER
  5
A40D
330
1F
100
AcDbEntity
  8
実形
100
AcDbLeader
  3
ISO-25
 76
     2
 10
1020.97578764124
 20
1627.461612734879
 30
0.0
 10
1075.032733771284
 20
1553.565369861423
 30
0.0
211
-1.0
221
0.0
231
0.0
1001
ACAD
1000
DSTYLE
1002
{
1070
    77
1070
     0
1070
    41
1040
10.0
1070
   140
1040
30.0
1070
   147
1040
6.599999999999998
1070
   279
1070
     2
1070
   342
1005
30D
1070
   371
1070
    18
1070
   372
1070
    18
1002
}
  0
TEXT
  5
A40E
330
1F
100
AcDbEntity
  8
実形
100
AcDbText
 10
1083.147592684829
 20
1531.797211190564
 30
0.0
 40
25.0
  1
6R
 72
     2
 11
1124.814259351495
 21
1528.463877857231
 31
0.0
100
AcDbText
 73
     1
  0
LEADER
  5
A417
330
1F
100
AcDbEntity
  8
実形
100
AcDbLeader
  3
ISO-25
 76
     2
 10
1011.20191444116
 20
1562.318996908192
 30
0.0
 10
1065.258860571204
 20
1488.422754034736
 30
0.0
211
-1.0
221
0.0
231
0.0
1001
ACAD
1000
DSTYLE
1002
{
1070
    77
1070
     0
1070
    41
1040
10.0
1070
   140
1040
30.0
1070
   147
1040
6.599999999999998
1070
   279
1070
     2
1070
   342
1005
30D
1070
   371
1070
    18
1070
   372
1070
    18
1002
}
  0
TEXT
  5
A418
330
1F
100
AcDbEntity
  8
実形
100
AcDbText
 10
1073.373719484749
 20
1466.654595363878
 30
0.0
 40
25.0
  1
2R
 72
     2
 11
1115.040386151416
 21
1463.321262030544
 31
0.0
100
AcDbText
 73
     1
  0
LINE
  5
A55F
330
1F
100
AcDbEntity
  8
実形
100
AcDbLine
 10
1551.053280974976
 20
690.6580729330507
 30
0.0
 11
1551.053280974976
 21
675.6580729330508
 31
0.0
  0
LINE
  5
A560
330
1F
100
AcDbEntity
  8
実形
100
AcDbLine
 10
1531.053280974976
 20
675.6580729330505
 30
0.0
 11
1531.053280974976
 21
491.3552406133142
 31
0.0
  0
LINE
  5
A561
330
1F
100
AcDbEntity
  8
実形
100
AcDbLine
 10
751.0532809749763
 20
690.6580729330507
 30
0.0
 11
751.0532809749763
 21
675.6580729330508
 31
0.0
  0
LINE
  5
A562
330
1F
100
AcDbEntity
  8
実形
100
AcDbLine
 10
771.0532809749761
 20
675.6580729330508
 30
0.0
 11
771.0532809749765
 21
506.4370191581881
 31
0.0
  0
ARC
  5
A563
330
1F
100
AcDbEntity
  8
実形
100
AcDbCircle
 10
777.0532809749766
 20
506.4370191581881
 30
0.0
 40
6.0
100
AcDbArc
 50
180.0
 51
267.8497292516211
  0
LINE
  5
A564
330
1F
100
AcDbEntity
  8
実形
100
AcDbLine
 10
1566.053280974976
 20
690.6580729330507
 30
0.0
 11
736.0532809749768
 21
690.6580729330507
 31
0.0
  0
LINE
  5
A565
330
1F
100
AcDbEntity
  8
実形
100
AcDbLine
 10
1351.553280974977
 20
475.6580729330507
 30
0.0
 11
1170.553280974977
 21
475.6580729330507
 31
0.0
  0
LINE
  5
A566
330
1F
100
AcDbEntity
  8
実形
100
AcDbLine
 10
1551.053280974976
 20
675.6580729330508
 30
0.0
 11
751.0532809749763
 21
675.6580729330508
 31
0.0
  0
LINE
  5
A567
330
1F
100
AcDbEntity
  8
実形
100
AcDbLine
 10
1431.053280974977
 20
625.6580729330508
 30
0.0
 11
1411.053280974977
 21
625.6580729330508
 31
0.0
  0
LINE
  5
A568
330
1F
100
AcDbEntity
  8
実形
100
AcDbLine
 10
1503.303280974977
 20
425.6580729330507
 30
0.0
 11
1458.803280974977
 21
425.6580729330507
 31
0.0
  0
LINE
  5
A569
330
1F
100
AcDbEntity
  8
実形
100
AcDbLine
 10
1503.303280974977
 20
435.6580729330508
 30
0.0
 11
1502.228462545176
 21
435.6580729330508
 31
0.0
  0
LINE
  5
A56A
330
1F
100
AcDbEntity
  8
実形
100
AcDbLine
 10
1489.274655050732
 20
435.6580729330508
 30
0.0
 11
1468.148789157976
 21
435.6580729330508
 31
0.0
  0
LINE
  5
A56B
330
1F
100
AcDbEntity
  8
実形
100
AcDbLine
 10
1459.878099404778
 20
435.6580729330508
 30
0.0
 11
1458.803280974977
 21
435.6580729330508
 31
0.0
  0
LINE
  5
A56C
330
1F
100
AcDbEntity
  8
実形
100
AcDbLine
 10
1503.303280974977
 20
415.6580729330507
 30
0.0
 11
1458.803280974977
 21
415.6580729330507
 31
0.0
  0
LINE
  5
A56D
330
1F
100
AcDbEntity
  8
実形
100
AcDbLine
 10
1170.553280974977
 20
485.6580729330508
 30
0.0
 11
1170.553280974977
 21
475.6580729330507
 31
0.0
  0
LINE
  5
A56E
330
1F
100
AcDbEntity
  8
実形
100
AcDbLine
 10
1351.553280974977
 20
485.6580729330508
 30
0.0
 11
1351.553280974977
 21
475.6580729330507
 31
0.0
  0
DIMENSION
  5
A56F
330
1F
100
AcDbEntity
  8
実形
100
AcDbDimension
  2
*D69
 10
1181.053280974976
 20
358.7414743971931
 30
0.0
 11
1261.053280974977
 21
377.8414743971931
 31
0.0
 70
    32
 71
     5
 42
160.0000000000002
  3
ISO-25
100
AcDbAlignedDimension
 13
1341.053280974977
 23
475.6580729330506
 33
0.0
 14
1181.053280974976
 24
475.6580729330506
 34
0.0
 50
180.0
100
AcDbRotatedDimension
1001
ACAD
1000
DSTYLE
1002
{
1070
    41
1040
10.0
1070
   140
1040
25.0
1070
   147
1040
6.599999999999998
1070
   279
1070
     2
1070
   342
1005
30D
1070
   371
1070
    18
1070
   372
1070
    18
1002
}
  0
DIMENSION
  5
A570
330
1F
100
AcDbEntity
  8
実形
100
AcDbDimension
  2
*D70
 10
1170.553280974977
 20
287.4991775819162
 30
0.0
 11
1261.053280974977
 21
306.5991775819163
 31
0.0
 70
    32
 71
     5
 42
180.9999999999995
  3
ISO-25
100
AcDbAlignedDimension
 13
1351.553280974977
 23
475.6580729330507
 33
0.0
 14
1170.553280974977
 24
475.6580729330464
 34
0.0
 50
180.0
100
AcDbRotatedDimension
1001
ACAD
1000
DSTYLE
1002
{
1070
    41
1040
10.0
1070
   140
1040
25.0
1070
   147
1040
6.599999999999998
1070
   279
1070
     2
1070
   342
1005
30D
1070
   371
1070
    18
1070
   372
1070
    18
1002
}
  0
LEADER
  5
A571
330
1F
100
AcDbEntity
  8
実形
100
AcDbLeader
  3
ISO-25
 76
     2
 10
1403.696977314917
 20
504.3081587276183
 30
0.0
 10
1340.11421960548
 20
563.2189095945541
 30
0.0
211
-1.0
221
0.0
231
0.0
1001
ACAD
1000
DSTYLE
1002
{
1070
    77
1070
     0
1070
    41
1040
10.0
1070
   140
1040
30.0
1070
   147
1040
6.599999999999998
1070
   279
1070
     2
1070
   342
1005
30D
1070
   371
1070
    18
1070
   372
1070
    18
1002
}
  0
LEADER
  5
A572
330
1F
100
AcDbEntity
  8
実形
100
AcDbLeader
  3
ISO-25
 76
     2
 10
784.4343028091132
 20
511.0931465337853
 30
0.0
 10
832.3838146500184
 20
559.9376365357911
 30
0.0
1001
ACAD
1000
DSTYLE
1002
{
1070
    77
1070
     0
1070
    41
1040
10.0
1070
   140
1040
30.0
1070
   147
1040
6.599999999999998
1070
   279
1070
     2
1070
   342
1005
30D
1070
   371
1070
    18
1070
   372
1070
    18
1002
}
  0
LINE
  5
A573
330
1F
100
AcDbEntity
  8
実形
  6
ACAD_ISO08W100
 48
0.5
100
AcDbLine
 10
1261.053280974977
 20
574.4179089624922
 30
0.0
 11
1261.053280974977
 21
430.0808769214036
 31
0.0
  0
LINE
  5
A574
330
1F
100
AcDbEntity
  8
実形
100
AcDbLine
 10
1431.053280974977
 20
625.6580729330506
 30
0.0
 11
1431.053280974976
 21
441.6580729330507
 31
0.0
  0
ARC
  5
A575
330
1F
100
AcDbEntity
  8
実形
100
AcDbCircle
 10
1437.053280974976
 20
441.6580729330507
 30
0.0
 40
6.0
100
AcDbArc
 50
180.0
 51
270.0
  0
ARC
  5
A576
330
1F
100
AcDbEntity
  8
実形
100
AcDbCircle
 10
1437.053280974976
 20
431.6580729330508
 30
0.0
 40
6.0
100
AcDbArc
 50
180.0
 51
270.0
  0
LINE
  5
A577
330
1F
100
AcDbEntity
  8
実形
100
AcDbLine
 10
1531.053280974976
 20
675.658072933051
 30
0.0
 11
1531.053280974977
 21
441.6580729330507
 31
0.0
  0
ARC
  5
A578
330
1F
100
AcDbEntity
  8
実形
100
AcDbCircle
 10
1525.053280974977
 20
441.6580729330507
 30
0.0
 40
6.0
100
AcDbArc
 50
270.0
 51
0.0
  0
LINE
  5
A579
330
1F
100
AcDbEntity
  8
実形
100
AcDbLine
 10
1170.553280974977
 20
485.6580729330508
 30
0.0
 11
1351.553280974977
 21
485.6580729330508
 31
0.0
  0
LINE
  5
A57A
330
1F
100
AcDbEntity
  8
実形
100
AcDbLine
 10
1411.053280974977
 20
625.6580729330508
 30
0.0
 11
1411.053280974977
 21
491.6580729330507
 31
0.0
  0
LINE
  5
A57C
330
1F
100
AcDbEntity
  8
実形
100
AcDbLine
 10
1458.803280974977
 20
425.6580729330507
 30
0.0
 11
1458.803280974977
 21
415.6580729330507
 31
0.0
  0
LINE
  5
A57D
330
1F
100
AcDbEntity
  8
実形
100
AcDbLine
 10
1503.303280974977
 20
425.6580729330507
 30
0.0
 11
1503.303280974977
 21
415.6580729330507
 31
0.0
  0
DIMENSION
  5
A57E
330
1F
100
AcDbEntity
  8
実形
100
AcDbDimension
  2
*D71
 10
1458.803280974977
 20
299.2780977317361
 30
0.0
 11
1481.053280974977
 21
263.1402064600371
 31
0.0
 70
   160
 71
     5
 42
44.5
  3
ISO-25
100
AcDbAlignedDimension
 13
1503.303280974977
 23
425.8575454073033
 33
0.0
 14
1458.803280974977
 24
425.8575454073033
 34
0.0
 50
180.0
100
AcDbRotatedDimension
1001
ACAD
1000
DSTYLE
1002
{
1070
    41
1040
10.0
1070
   140
1040
25.0
1070
   147
1040
6.599999999999998
1070
   279
1070
     2
1070
   342
1005
30D
1070
   371
1070
    18
1070
   372
1070
    18
1002
}
  0
LINE
  5
A57F
330
1F
100
AcDbEntity
  8
実形
100
AcDbLine
 10
1170.553280974977
 20
485.6580729330508
 30
0.0
 11
776.8281580031423
 21
500.4412440083386
 31
0.0
  0
TEXT
  5
A580
330
1F
100
AcDbEntity
  8
実形
100
AcDbText
 10
1468.452542336668
 20
493.3111650989552
 30
0.0
 40
25.0
  1
6R
 72
     2
 11
1510.119209003335
 21
489.9778317656219
 31
0.0
100
AcDbText
 73
     1
  0
LEADER
  5
A581
330
1F
100
AcDbEntity
  8
実形
100
AcDbLeader
  3
ISO-25
 76
     2
 10
1437.053280974976
 20
441.6580729330507
 30
0.0
 10
1466.962902208447
 20
484.3756193465278
 30
0.0
1001
ACAD
1000
DSTYLE
1002
{
1070
    77
1070
     0
1070
    41
1040
10.0
1070
   147
1040
6.599999999999998
1070
   279
1070
     2
1070
   342
1005
30D
1070
   371
1070
    18
1070
   372
1070
    18
1002
}
  0
LEADER
  5
A582
330
1F
100
AcDbEntity
  8
実形
100
AcDbLeader
  3
ISO-25
 76
     2
 10
1520.589837005952
 20
442.5469830507181
 30
0.0
 10
1501.224555787025
 20
485.8648718739559
 30
0.0
1001
ACAD
1000
DSTYLE
1002
{
1070
    77
1070
     0
1070
    41
1040
10.0
1070
   147
1040
6.599999999999998
1070
   279
1070
     2
1070
   342
1005
30D
1070
   371
1070
    18
1070
   372
1070
    18
1002
}
  0
TEXT
  5
A583
330
1F
100
AcDbEntity
  8
実形
100
AcDbText
 10
835.8137805226308
 20
572.8068779706576
 30
0.0
 40
25.0
  1
6R
 72
     2
 11
877.4804471892974
 21
569.4735446373242
 31
0.0
100
AcDbText
 73
     1
  0
TEXT
  5
A584
330
1F
100
AcDbEntity
  8
実形
100
AcDbText
 10
1306.440643261065
 20
570.5117216684114
 30
0.0
 40
25.0
  1
6R
 72
     2
 11
1348.107309927732
 21
567.1783883350781
 31
0.0
100
AcDbText
 73
     1
  0
DIMENSION
  5
A586
330
1F
100
AcDbEntity
  8
実形
100
AcDbDimension
  2
*D72
 10
1656.403252109688
 20
625.6580729330506
 30
0.0
 11
1635.555447121214
 21
650.6580729330509
 31
0.0
 70
   160
 71
     5
 42
50.00000000000011
  3
ISO-25
100
AcDbAlignedDimension
 13
1536.286517744654
 23
675.6580729330508
 33
0.0
 14
1538.006242337502
 24
625.6580729330506
 34
0.0
 50
90.0
100
AcDbRotatedDimension
1001
ACAD
1000
DSTYLE
1002
{
1070
    41
1040
10.0
1070
   147
1040
6.599999999999998
1070
   279
1070
     2
1070
   342
1005
30D
1070
   371
1070
    18
1070
   372
1070
    18
1002
}
  0
DIMENSION
  5
A587
330
1F
100
AcDbEntity
  8
実形
100
AcDbDimension
  2
*D73
 10
1656.403252109688
 20
625.6580729330505
 30
0.0
 11
1632.432786485002
 21
714.0275461617147
 31
0.0
 70
   160
  1
15
 71
     5
 42
65.00000000000023
  3
ISO-25
100
AcDbAlignedDimension
 13
1536.081311021385
 23
690.6580729330507
 33
0.0
 14
1546.403252109688
 24
625.6580729330505
 34
0.0
 50
90.0
100
AcDbRotatedDimension
1001
ACAD
1000
DSTYLE
1002
{
1070
    41
1040
10.0
1070
   147
1040
6.599999999999998
1070
   279
1070
     2
1070
   342
1005
30D
1070
   371
1070
    18
1070
   372
1070
    18
1002
}
  0
DIMENSION
  5
A588
330
1F
100
AcDbEntity
  8
実形
100
AcDbDimension
  2
*D74
 10
1711.403252109689
 20
625.6580729330506
 30
0.0
 11
1692.303252109688
 21
658.1580729330509
 31
0.0
 70
    32
 71
     5
 42
65.00000000000011
  3
ISO-25
100
AcDbAlignedDimension
 13
1546.403252109689
 23
690.6580729330507
 33
0.0
 14
1546.403252109689
 24
625.6580729330506
 34
0.0
 50
90.0
100
AcDbRotatedDimension
1001
ACAD
1000
DSTYLE
1002
{
1070
    41
1040
10.0
1070
   147
1040
6.599999999999998
1070
   279
1070
     2
1070
   342
1005
30D
1070
   371
1070
    18
1070
   372
1070
    18
1002
}
  0
DIMENSION
  5
A589
330
1F
100
AcDbEntity
  8
実形
100
AcDbDimension
  2
*D75
 10
1711.403252109688
 20
435.6580729330507
 30
0.0
 11
1692.303252109688
 21
530.6580729330509
 31
0.0
 70
    32
 71
     5
 42
189.9999999999998
  3
ISO-25
100
AcDbAlignedDimension
 13
1546.403252109689
 23
625.6580729330506
 33
0.0
 14
1589.975075635179
 24
435.6580729330508
 34
0.0
 50
90.0
100
AcDbRotatedDimension
1001
ACAD
1000
DSTYLE
1002
{
1070
    41
1040
10.0
1070
   147
1040
6.599999999999998
1070
   279
1070
     2
1070
   342
1005
30D
1070
   371
1070
    18
1070
   372
1070
    18
1002
}
  0
DIMENSION
  5
A58A
330
1F
100
AcDbEntity
  8
実形
100
AcDbDimension
  2
*D76
 10
1766.403252109689
 20
435.6580729330507
 30
0.0
 11
1747.303252109689
 21
529.0639336337108
 31
0.0
 70
   160
 71
     5
 42
255.0
  3
ISO-25
100
AcDbAlignedDimension
 13
1601.403252109689
 23
690.6580729330507
 33
0.0
 14
1600.6733184408
 24
435.6580729330508
 34
0.0
 50
90.0
100
AcDbRotatedDimension
1001
ACAD
1000
DSTYLE
1002
{
1070
    41
1040
10.0
1070
   147
1040
6.599999999999998
1070
   279
1070
     2
1070
   342
1005
30D
1070
   371
1070
    18
1070
   372
1070
    18
1002
}
  0
DIMENSION
  5
A58B
330
1F
100
AcDbEntity
  8
実形
100
AcDbDimension
  2
*D77
 10
1766.403252109689
 20
690.6580729330507
 30
0.0
 11
1747.303252109689
 21
402.592962459038
 31
0.0
 70
   160
  1
10
 71
     5
 42
265.0000000000001
  3
ISO-25
100
AcDbAlignedDimension
 13
1590.485689604566
 23
425.6580729330506
 33
0.0
 14
1601.403252109689
 24
690.6580729330507
 34
0.0
 50
90.0
100
AcDbRotatedDimension
1001
ACAD
1000
DSTYLE
1002
{
1070
    41
1040
10.0
1070
   147
1040
6.599999999999998
1070
   279
1070
     2
1070
   342
1005
30D
1070
   371
1070
    18
1070
   372
1070
    18
1002
}
  0
DIMENSION
  5
A58C
330
1F
100
AcDbEntity
  8
実形
100
AcDbDimension
  2
*D78
 10
1821.403252109689
 20
425.6580729330506
 30
0.0
 11
1802.303252109689
 21
529.9609720805083
 31
0.0
 70
   160
 71
     5
 42
265.0000000000001
  3
ISO-25
100
AcDbAlignedDimension
 13
1546.403252109689
 23
690.6580729330507
 33
0.0
 14
1653.346912936537
 24
425.6580729330506
 34
0.0
 50
90.0
100
AcDbRotatedDimension
1001
ACAD
1000
DSTYLE
1002
{
1070
    41
1040
10.0
1070
   147
1040
6.599999999999998
1070
   279
1070
     2
1070
   342
1005
30D
1070
   371
1070
    18
1070
   372
1070
    18
1002
}
  0
DIMENSION
  5
A58D
330
1F
100
AcDbEntity
  8
実形
100
AcDbDimension
  2
*D79
 10
635.6802185117849
 20
500.6580729330508
 30
0.0
 11
615.9111887819654
 21
667.8852156298617
 31
0.0
 70
   160
  1
15
 71
     5
 42
190.0
  3
ISO-25
100
AcDbAlignedDimension
 13
759.936978350237
 23
690.6580729330508
 33
0.0
 14
759.936978350237
 24
500.6580729330507
 34
0.0
 50
90.0
100
AcDbRotatedDimension
1001
ACAD
1000
DSTYLE
1002
{
1070
    41
1040
10.0
1070
   140
1040
25.0
1070
   147
1040
6.599999999999998
1070
   279
1070
     2
1070
   342
1005
30D
1070
   371
1070
    18
1070
   372
1070
    18
1002
}
  0
DIMENSION
  5
A58E
330
1F
100
AcDbEntity
  8
実形
100
AcDbDimension
  2
*D80
 10
635.6802185117849
 20
500.6580729330508
 30
0.0
 11
616.5802185117847
 21
588.1580729330509
 31
0.0
 70
    32
 71
     5
 42
174.9999999999999
  3
ISO-25
100
AcDbAlignedDimension
 13
759.936978350237
 23
675.6580729330508
 33
0.0
 14
759.936978350237
 24
500.6580729330507
 34
0.0
 50
90.0
100
AcDbRotatedDimension
1001
ACAD
1000
DSTYLE
1002
{
1070
    41
1040
10.0
1070
   140
1040
25.0
1070
   147
1040
6.599999999999998
1070
   279
1070
     2
1070
   342
1005
30D
1070
   371
1070
    18
1070
   372
1070
    18
1002
}
  0
DIMENSION
  5
A58F
330
1F
100
AcDbEntity
  8
実形
100
AcDbDimension
  2
*D81
 10
572.507277921115
 20
500.6580729330508
 30
0.0
 11
552.1972667677292
 21
586.7417301816194
 31
0.0
 70
   160
 71
     5
 42
190.0
  3
ISO-25
100
AcDbAlignedDimension
 13
694.936978350237
 23
690.6580729330508
 33
0.0
 14
694.936978350237
 24
500.6580729330507
 34
0.0
 50
90.0
100
AcDbRotatedDimension
1001
ACAD
1000
DSTYLE
1002
{
1070
    41
1040
10.0
1070
   140
1040
25.0
1070
   147
1040
6.599999999999998
1070
   279
1070
     2
1070
   342
1005
30D
1070
   371
1070
    18
1070
   372
1070
    18
1002
}
  0
DIMENSION
  5
A590
330
1F
100
AcDbEntity
  8
実形
100
AcDbDimension
  2
*D82
 10
572.507277921115
 20
690.6580729330508
 30
0.0
 11
552.819148601071
 21
510.7691236751962
 31
0.0
 70
   160
  1
15
 71
     5
 42
205.0000000000001
  3
ISO-25
100
AcDbAlignedDimension
 13
760.5963134502271
 23
485.6580729330508
 33
0.0
 14
759.936978350237
 24
690.6580729330508
 34
0.0
 50
90.0
100
AcDbRotatedDimension
1001
ACAD
1000
DSTYLE
1002
{
1070
    41
1040
10.0
1070
   140
1040
25.0
1070
   147
1040
6.599999999999998
1070
   279
1070
     2
1070
   342
1005
30D
1070
   371
1070
    18
1070
   372
1070
    18
1002
}
  0
DIMENSION
  5
A591
330
1F
100
AcDbEntity
  8
実形
100
AcDbDimension
  2
*D83
 10
512.1655984588215
 20
485.6580729330508
 30
0.0
 11
493.0655984588214
 21
588.158072933051
 31
0.0
 70
    32
 71
     5
 42
205.0000000000001
  3
ISO-25
100
AcDbAlignedDimension
 13
635.6802185117849
 23
690.6580729330508
 33
0.0
 14
635.6802185117849
 24
485.6580729330508
 34
0.0
 50
90.0
100
AcDbRotatedDimension
1001
ACAD
1000
DSTYLE
1002
{
1070
    41
1040
10.0
1070
   140
1040
25.0
1070
   147
1040
6.599999999999998
1070
   279
1070
     2
1070
   342
1005
30D
1070
   371
1070
    18
1070
   372
1070
    18
1002
}
  0
DIMENSION
  5
A592
330
1F
100
AcDbEntity
  8
実形
100
AcDbDimension
  2
*D84
 10
512.1655984588215
 20
690.6580729330508
 30
0.0
 11
492.520471066915
 21
490.2179794909334
 31
0.0
 70
   160
  1
8
 71
     5
 42
215.0000000000001
  3
ISO-25
100
AcDbAlignedDimension
 13
630.5982939539208
 23
475.6580729330507
 33
0.0
 14
635.6802185117849
 24
690.6580729330508
 34
0.0
 50
90.0
100
AcDbRotatedDimension
1001
ACAD
1000
DSTYLE
1002
{
1070
    41
1040
10.0
1070
   140
1040
25.0
1070
   147
1040
6.599999999999998
1070
   279
1070
     2
1070
   342
1005
30D
1070
   371
1070
    18
1070
   372
1070
    18
1002
}
  0
DIMENSION
  5
A593
330
1F
100
AcDbEntity
  8
実形
100
AcDbDimension
  2
*D85
 10
457.2751994869395
 20
475.6580729330507
 30
0.0
 11
431.2271855834897
 21
589.371334171702
 31
0.0
 70
   160
  1
213
 71
     5
 42
215.0000000000001
  3
ISO-25
100
AcDbAlignedDimension
 13
572.507277921115
 23
690.6580729330508
 33
0.0
 14
582.7993016229338
 24
475.6580729330507
 34
0.0
 50
90.0
100
AcDbRotatedDimension
1001
ACAD
1000
DSTYLE
1002
{
1070
    41
1040
10.0
1070
   140
1040
25.0
1070
   147
1040
6.599999999999998
1070
   279
1070
     2
1070
   342
1005
30D
1070
   371
1070
    18
1070
   372
1070
    18
1002
}
  0
LINE
  5
A594
330
1F
100
AcDbEntity
  8
実形
100
AcDbLine
 10
1531.053280974977
 20
431.6580729330505
 30
0.0
 11
1531.053280974977
 21
444.1026515846645
 31
0.0
  0
ARC
  5
A595
330
1F
100
AcDbEntity
  8
実形
100
AcDbCircle
 10
1525.053280974977
 20
431.6580729330508
 30
0.0
 40
6.0
100
AcDbArc
 50
270.0
 51
0.0
  0
DIMENSION
  5
A596
330
1F
100
AcDbEntity
  8
実形
100
AcDbDimension
  2
*D86
 10
1821.403252109689
 20
415.6580729330507
 30
0.0
 11
1802.303252109689
 21
397.7106920143706
 31
0.0
 70
   160
  1
6
 71
     5
 42
275.0
  3
ISO-25
100
AcDbAlignedDimension
 13
1711.403252109689
 23
690.6580729330507
 33
0.0
 14
1706.418381063886
 24
415.6580729330507
 34
0.0
 50
90.0
100
AcDbRotatedDimension
1001
ACAD
1000
DSTYLE
1002
{
1070
    41
1040
10.0
1070
   147
1040
6.599999999999998
1070
   279
1070
     2
1070
   342
1005
30D
1070
   371
1070
    18
1070
   372
1070
    18
1002
}
  0
DIMENSION
  5
A597
330
1F
100
AcDbEntity
  8
実形
100
AcDbDimension
  2
*D87
 10
1877.648406070939
 20
415.6580729330507
 30
0.0
 11
1858.548406070939
 21
529.9791453667794
 31
0.0
 70
   160
  1
271
 71
     5
 42
275.0
  3
ISO-25
100
AcDbAlignedDimension
 13
1711.403252109689
 23
690.6580729330507
 33
0.0
 14
1719.367300745767
 24
415.6580729330507
 34
0.0
 50
90.0
100
AcDbRotatedDimension
1001
ACAD
1000
DSTYLE
1002
{
1070
    41
1040
10.0
1070
   147
1040
6.599999999999998
1070
   279
1070
     2
1070
   342
1005
30D
1070
   371
1070
    18
1070
   372
1070
    18
1002
}
  0
LINE
  5
A598
330
1F
100
AcDbEntity
  8
実形
100
AcDbLine
 10
1503.303280974977
 20
425.6580729330507
 30
0.0
 11
1525.053280974977
 21
425.6580729330507
 31
0.0
  0
LINE
  5
A599
330
1F
100
AcDbEntity
  8
実形
100
AcDbLine
 10
1503.303280974977
 20
435.6580729330508
 30
0.0
 11
1525.053280974977
 21
435.6580729330508
 31
0.0
  0
LINE
  5
A59A
330
1F
100
AcDbEntity
  8
実形
100
AcDbLine
 10
1458.803280974977
 20
425.6580729330507
 30
0.0
 11
1437.053280974976
 21
425.6580729330507
 31
0.0
  0
LINE
  5
A59B
330
1F
100
AcDbEntity
  8
実形
100
AcDbLine
 10
1458.803280974977
 20
435.6580729330508
 30
0.0
 11
1437.053280974976
 21
435.6580729330508
 31
0.0
  0
LINE
  5
A59C
330
1F
100
AcDbEntity
  8
実形
100
AcDbLine
 10
1431.053280974976
 20
441.6580729330507
 30
0.0
 11
1431.053280974976
 21
431.6580729330508
 31
0.0
  0
LINE
  5
A82B
330
1F
100
AcDbEntity
  8
実形
100
AcDbLine
 10
1672.325595652257
 20
1144.178460662065
 30
0.0
 11
1672.325595652257
 21
1684.178460662066
 31
0.0
  0
LINE
  5
A82C
330
1F
100
AcDbEntity
  8
実形
100
AcDbLine
 10
1937.325595652257
 20
1566.928460662066
 30
0.0
 11
1937.325595652257
 21
1611.428460662065
 31
0.0
  0
LINE
  5
A82D
330
1F
100
AcDbEntity
  8
実形
100
AcDbLine
 10
1947.325595652257
 20
1566.928460662065
 30
0.0
 11
1947.325595652257
 21
1611.428460662065
 31
0.0
  0
LINE
  5
A82E
330
1F
100
AcDbEntity
  8
実形
100
AcDbLine
 10
1687.325595652257
 20
1159.178460662066
 30
0.0
 11
1687.325595652257
 21
1669.178460662066
 31
0.0
  0
LINE
  5
A82F
330
1F
100
AcDbEntity
  8
実形
100
AcDbLine
 10
1937.325595652257
 20
1611.428460662066
 30
0.0
 11
1947.325595652257
 21
1611.428460662065
 31
0.0
  0
LINE
  5
A830
330
1F
100
AcDbEntity
  8
実形
  6
ACAD_ISO08W100
 48
0.5
100
AcDbLine
 10
1848.8336634677
 20
1589.178460662066
 30
0.0
 11
1984.109882967979
 21
1589.178460662066
 31
0.0
  0
LINE
  5
A831
330
1F
100
AcDbEntity
  8
実形
100
AcDbLine
 10
1937.325595652257
 20
1566.928460662066
 30
0.0
 11
1947.325595652257
 21
1566.928460662065
 31
0.0
  0
LINE
  5
A832
330
1F
100
AcDbEntity
  8
実形
100
AcDbLine
 10
1672.325595652257
 20
1669.178460662066
 30
0.0
 11
1687.325595652257
 21
1669.178460662066
 31
0.0
  0
LINE
  5
A833
330
1F
100
AcDbEntity
  8
実形
100
AcDbLine
 10
1672.325595652257
 20
1159.178460662066
 30
0.0
 11
1687.325595652257
 21
1159.178460662066
 31
0.0
  0
LINE
  5
A834
330
1F
100
AcDbEntity
  8
実形
100
AcDbLine
 10
1687.325595652257
 20
1649.178460662065
 30
0.0
 11
1931.325595652257
 21
1649.178460662066
 31
0.0
  0
LINE
  5
A836
330
1F
100
AcDbEntity
  8
実形
100
AcDbLine
 10
1687.325595652257
 20
1179.178460662066
 30
0.0
 11
1921.500612569012
 21
1179.178460662066
 31
0.0
  0
LINE
  5
A837
330
1F
100
AcDbEntity
  8
実形
100
AcDbLine
 10
1927.497984449431
 20
1185.000892286628
 30
0.0
 11
1937.325595652256
 21
1566.928460662065
 31
0.0
  0
ARC
  5
A838
330
1F
100
AcDbEntity
  8
実形
100
AcDbCircle
 10
1921.500612569012
 20
1185.178460662066
 30
0.0
 40
6.0
100
AcDbArc
 50
270.0
 51
358.3040992987292
  0
DIMENSION
  5
A839
330
1F
100
AcDbEntity
  8
実形
100
AcDbDimension
  2
*D88
 10
1927.325595652257
 20
1033.783213718306
 30
0.0
 11
1799.825595652257
 21
1052.883213718306
 31
0.0
 70
    32
  1
240
 71
     5
 42
255.0000000000002
  3
ISO-25
100
AcDbAlignedDimension
 13
1672.325595652257
 23
1153.806011115963
 33
0.0
 14
1927.325595652257
 24
1153.806011115963
 34
0.0
100
AcDbRotatedDimension
1001
ACAD
1000
DSTYLE
1002
{
1070
    41
1040
10.0
1070
   147
1040
6.599999999999998
1070
   279
1070
     2
1070
   342
1005
30D
1070
   371
1070
    18
1070
   372
1070
    18
1002
}
  0
DIMENSION
  5
A83A
330
1F
100
AcDbEntity
  8
実形
100
AcDbDimension
  2
*D89
 10
1927.325595652257
 20
1033.783213718306
 30
0.0
 11
1708.619853379788
 21
1052.883213718306
 31
0.0
 70
   160
  1
15
 71
     5
 42
240.0
  3
ISO-25
100
AcDbAlignedDimension
 13
1687.325595652257
 23
1153.329473182373
 33
0.0
 14
1927.325595652257
 24
1138.329473182373
 34
0.0
100
AcDbRotatedDimension
1001
ACAD
1000
DSTYLE
1002
{
1070
    41
1040
10.0
1070
   147
1040
6.599999999999998
1070
   279
1070
     2
1070
   342
1005
30D
1070
   371
1070
    18
1070
   372
1070
    18
1002
}
  0
DIMENSION
  5
A83B
330
1F
100
AcDbEntity
  8
実形
100
AcDbDimension
  2
*D90
 10
1927.325595652257
 20
978.7832137183066
 30
0.0
 11
1799.825595652257
 21
997.8832137183065
 31
0.0
 70
    32
 71
     5
 42
255.0000000000002
  3
ISO-25
100
AcDbAlignedDimension
 13
1672.325595652257
 23
1138.329473182373
 33
0.0
 14
1927.325595652257
 24
1138.329473182373
 34
0.0
100
AcDbRotatedDimension
1001
ACAD
1000
DSTYLE
1002
{
1070
    41
1040
10.0
1070
   147
1040
6.599999999999998
1070
   279
1070
     2
1070
   342
1005
30D
1070
   371
1070
    18
1070
   372
1070
    18
1002
}
  0
DIMENSION
  5
A83C
330
1F
100
AcDbEntity
  8
実形
100
AcDbDimension
  2
*D91
 10
1672.325595652257
 20
978.7832137183066
 30
0.0
 11
1960.881962214171
 21
997.8832137183065
 31
0.0
 70
   160
  1
10
 71
     5
 42
265.0000000000005
  3
ISO-25
100
AcDbAlignedDimension
 13
1937.325595652257
 23
1094.129016150702
 33
0.0
 14
1672.325595652257
 24
1138.329473182373
 34
0.0
100
AcDbRotatedDimension
1001
ACAD
1000
DSTYLE
1002
{
1070
    41
1040
10.0
1070
   147
1040
6.599999999999998
1070
   279
1070
     2
1070
   342
1005
30D
1070
   371
1070
    18
1070
   372
1070
    18
1002
}
  0
DIMENSION
  5
A83D
330
1F
100
AcDbEntity
  8
実形
100
AcDbDimension
  2
*D92
 10
1937.325595652257
 20
923.7832137183064
 30
0.0
 11
1804.825595652257
 21
942.8832137183064
 31
0.0
 70
    32
 71
     5
 42
265.0000000000005
  3
ISO-25
100
AcDbAlignedDimension
 13
1672.325595652257
 23
1088.329473182373
 33
0.0
 14
1937.325595652257
 24
1045.24263625032
 34
0.0
100
AcDbRotatedDimension
1001
ACAD
1000
DSTYLE
1002
{
1070
    41
1040
10.0
1070
   147
1040
6.599999999999998
1070
   279
1070
     2
1070
   342
1005
30D
1070
   371
1070
    18
1070
   372
1070
    18
1002
}
  0
DIMENSION
  5
A83E
330
1F
100
AcDbEntity
  8
実形
100
AcDbDimension
  2
*D93
 10
1947.325595652257
 20
923.7832137183064
 30
0.0
 11
1963.441714956481
 21
942.8832137183064
 31
0.0
 70
   160
  1
6
 71
     5
 42
275.0
  3
ISO-25
100
AcDbAlignedDimension
 13
1672.325595652257
 23
1138.329473182373
 33
0.0
 14
1947.325595652257
 24
1042.123534322236
 34
0.0
100
AcDbRotatedDimension
1001
ACAD
1000
DSTYLE
1002
{
1070
    41
1040
10.0
1070
   147
1040
6.599999999999998
1070
   279
1070
     2
1070
   342
1005
30D
1070
   371
1070
    18
1070
   372
1070
    18
1002
}
  0
DIMENSION
  5
A83F
330
1F
100
AcDbEntity
  8
実形
100
AcDbDimension
  2
*D94
 10
1947.325595652257
 20
868.7832137183065
 30
0.0
 11
1809.825595652257
 21
887.8832137183065
 31
0.0
 70
    32
  1
271
 71
     5
 42
274.9999999999998
  3
ISO-25
100
AcDbAlignedDimension
 13
1672.325595652257
 23
1138.329473182373
 33
0.0
 14
1947.325595652257
 24
986.8125049999079
 34
0.0
100
AcDbRotatedDimension
1001
ACAD
1000
DSTYLE
1002
{
1070
    41
1040
10.0
1070
   147
1040
6.599999999999998
1070
   279
1070
     2
1070
   342
1005
30D
1070
   371
1070
    18
1070
   372
1070
    18
1002
}
  0
LEADER
  5
A841
330
1F
100
AcDbEntity
  8
実形
100
AcDbLeader
  3
ISO-25
 76
     2
 10
1916.516976622535
 20
1190.336242506879
 30
0.0
 10
1885.724275746901
 20
1216.706070613008
 30
0.0
211
-1.0
221
0.0
231
0.0
1001
ACAD
1000
DSTYLE
1002
{
1070
    77
1070
     0
1070
    41
1040
10.0
1070
   147
1040
6.599999999999998
1070
   279
1070
     2
1070
   342
1005
30D
1070
   371
1070
    18
1070
   372
1070
    18
1002
}
  0
TEXT
  5
A842
330
1F
100
AcDbEntity
  8
実形
100
AcDbText
 10
1859.856693204643
 20
1222.64984959414
 30
0.0
 40
25.0
  1
6R
 72
     2
 11
1901.52335987131
 21
1219.316516260807
 31
0.0
100
AcDbText
 73
     1
  0
DIMENSION
  5
A843
330
1F
100
AcDbEntity
  8
実形
100
AcDbDimension
  2
*D95
 10
2021.778344026119
 20
1566.928460662065
 30
0.0
 11
2062.861819787198
 21
1589.178460662066
 31
0.0
 70
   160
 71
     5
 42
44.49999999999977
  3
ISO-25
100
AcDbAlignedDimension
 13
1925.567160043129
 23
1611.428460662065
 33
0.0
 14
1925.567160043129
 24
1566.928460662065
 34
0.0
 50
90.0
100
AcDbRotatedDimension
1001
ACAD
1000
DSTYLE
1002
{
1070
    41
1040
10.0
1070
   147
1040
6.599999999999998
1070
   279
1070
     2
1070
   342
1005
30D
1070
   371
1070
    18
1070
   372
1070
    18
1002
}
  0
LINE
  5
A978
330
1F
100
AcDbEntity
  8
実形
  6
ACAD_ISO08W100
 48
0.5
100
AcDbLine
 10
1440.027074323261
 20
1589.178460662066
 30
0.0
 11
1524.985237476654
 21
1589.178460662066
 31
0.0
  0
LINE
  5
A979
330
1F
100
AcDbEntity
  8
実形
  6
ACAD_ISO08W100
 48
0.5
100
AcDbLine
 10
1481.053280974976
 20
1519.100072622664
 30
0.0
 11
1481.053280974976
 21
1638.278269535386
 31
0.0
  0
CIRCLE
  5
A97A
330
1F
100
AcDbEntity
  8
実形
100
AcDbCircle
 10
1481.053280974976
 20
1589.178460662066
 30
0.0
 40
22.25
  0
LEADER
  5
A97B
330
1F
100
AcDbEntity
  8
実形
100
AcDbLeader
  3
ISO-25
 76
     2
 10
1517.478490217671
 20
1186.735112692142
 30
0.0
 10
1486.685789342036
 20
1213.104940798271
 30
0.0
211
-1.0
221
0.0
231
0.0
1001
ACAD
1000
DSTYLE
1002
{
1070
    77
1070
     0
1070
    41
1040
10.0
1070
   147
1040
6.599999999999998
1070
   279
1070
     2
1070
   342
1005
30D
1070
   371
1070
    18
1070
   372
1070
    18
1002
}
  0
TEXT
  5
A97C
330
1F
100
AcDbEntity
  8
実形
100
AcDbText
 10
1460.818206799778
 20
1219.048719779403
 30
0.0
 40
25.0
  1
6R
 72
     2
 11
1502.484873466445
 21
1215.71538644607
 31
0.0
100
AcDbText
 73
     1
  0
DIMENSION
  5
A97D
330
1F
100
AcDbEntity
  8
実形
100
AcDbDimension
  2
*D96
 10
1531.053280974977
 20
1467.839524988157
 30
0.0
 11
1506.053280974976
 21
1489.261176756287
 31
0.0
 70
   160
 71
     5
 42
50.00000000000023
  3
ISO-25
100
AcDbAlignedDimension
 13
1481.053280974976
 23
1569.068035865299
 33
0.0
 14
1531.053280974977
 24
1569.068035865299
 34
0.0
100
AcDbRotatedDimension
1001
ACAD
1000
DSTYLE
1002
{
1070
    41
1040
10.0
1070
   147
1040
6.599999999999998
1070
   279
1070
     2
1070
   342
1005
30D
1070
   371
1070
    18
1070
   372
1070
    18
1002
}
  0
DIMENSION
  5
A97E
330
1F
100
AcDbEntity
  8
実形
100
AcDbDimension
  2
*D97
 10
1620.680376831284
 20
1649.178460662065
 30
0.0
 11
1601.580376831283
 21
1619.178460662066
 31
0.0
 70
    32
 71
     5
 42
60.00000000000023
  3
ISO-25
100
AcDbAlignedDimension
 13
1515.58389079445
 23
1589.178460662066
 33
0.0
 14
1515.583890794451
 24
1649.178460662066
 34
0.0
 50
90.0
100
AcDbRotatedDimension
1001
ACAD
1000
DSTYLE
1002
{
1070
    41
1040
10.0
1070
   147
1040
6.599999999999998
1070
   279
1070
     2
1070
   342
1005
30D
1070
   371
1070
    18
1070
   372
1070
    18
1002
}
  0
TEXT
  5
AA53
330
1F
100
AcDbEntity
  8
実形
100
AcDbText
 10
234.9784467214322
 20
58.07438486928731
 30
0.0
 40
30.0
  1
※実寸には製造上の誤差が多少生ずる場合があります。シンクの穴あけ加工は現物合わせにてお願いします。
 72
     4
 11
1104.978446721432
 21
73.07438486928731
 31
0.0
100
AcDbText
  0
LINE
  5
AA55
330
1F
100
AcDbEntity
  8
実形
100
AcDbLine
 10
1351.553280974977
 20
485.6580729330508
 30
0.0
 11
1405.053280974977
 21
485.6580729330508
 31
0.0
  0
ARC
  5
AA56
330
1F
100
AcDbEntity
  8
実形
100
AcDbCircle
 10
1405.053280974977
 20
491.6580729330507
 30
0.0
 40
6.0
100
AcDbArc
 50
270.0
 51
0.0
  0
LINE
  5
AA57
330
1F
100
AcDbEntity
  8
実形
100
AcDbLine
 10
1937.325595652257
 20
1611.428460662065
 30
0.0
 11
1937.325595652257
 21
1643.178460662066
 31
0.0
  0
ARC
  5
AA58
330
1F
100
AcDbEntity
  8
実形
100
AcDbCircle
 10
1931.325595652257
 20
1643.178460662066
 30
0.0
 40
6.0
100
AcDbArc
 50
0.0
 51
90.0000000000001
  0
TEXT
  5
ABC8
330
1F
100
AcDbEntity
  8
実形
100
AcDbText
 10
234.6212219700337
 20
120.5456368237055
 30
0.0
 40
30.0
  1
※排水口外周W35ｍｍ,H3ｍｍラウンドテーパ－有り。
 72
     4
 11
688.1212219700337
 21
133.0456368237055
 31
0.0
100
AcDbText
  0
LINE
  5
AC62
330
1F
100
AcDbEntity
  8
補助
 62
     0
100
AcDbLine
 10
2834.0
 20
1959.000000000001
 30
0.0
 11
2069.387286519283
 21
1959.000000000002
 31
0.0
  0
LINE
  5
AC63
330
1F
100
AcDbEntity
  8
補助
 62
     0
100
AcDbLine
 10
2834.0
 20
1894.000000000001
 30
0.0
 11
2069.387286519283
 21
1894.000000000001
 31
0.0
  0
LINE
  5
AC64
330
1F
100
AcDbEntity
  8
補助
 62
     0
100
AcDbLine
 10
2252.547653420926
 20
1894.000000000001
 30
0.0
 11
2252.547653420926
 21
2024.000000000002
 31
0.0
  0
LINE
  5
AC65
330
1F
100
AcDbEntity
  8
補助
 62
     0
100
AcDbLine
 10
2069.387286519283
 20
1894.000000000001
 30
0.0
 11
2069.387286519283
 21
2024.000000000002
 31
0.0
  0
TEXT
  5
AC66
330
1F
100
AcDbEntity
  8
補助
 62
     0
100
AcDbText
 10
2100.295698850121
 20
1976.328571428573
 30
0.0
 40
30.0
  1
部品名
  7
明朝
 72
     4
 11
2166.124270278692
 21
1991.500000000002
 31
0.0
100
AcDbText
  0
TEXT
  5
AC67
330
1F
100
AcDbEntity
  8
補助
 62
     0
100
AcDbText
 10
2677.614285714286
 20
1976.07142857143
 30
0.0
 40
30.0
  1
厚さ
  7
明朝
 72
     4
 11
2721.5
 21
1991.500000000002
 31
0.0
100
AcDbText
  0
LINE
  5
AC68
330
1F
100
AcDbEntity
  8
補助
 62
     0
100
AcDbLine
 10
2609.0
 20
1894.000000000001
 30
0.0
 11
2609.0
 21
2024.000000000002
 31
0.0
  0
TEXT
  5
AC69
330
1F
100
AcDbEntity
  8
補助
 62
     0
100
AcDbText
 10
2388.490869919937
 20
1975.947979478156
 30
0.0
 40
30.0
  1
材質
  7
明朝
 72
     4
 11
2432.376584205651
 21
1991.119408049584
 31
0.0
100
AcDbText
  0
TEXT
  5
AC6A
330
1F
100
AcDbEntity
  8
実形
 62
     0
100
AcDbText
 10
2098.227810657788
 20
1910.557142857144
 30
0.0
 40
30.0
  1
ボウル
  7
明朝
 72
     4
 11
2164.056382086359
 21
1926.500000000001
 31
0.0
100
AcDbText
  0
TEXT
  5
AC6B
330
1F
100
AcDbEntity
  8
実形
 62
     0
100
AcDbText
 10
2644.700000000001
 20
1911.842857142858
 30
0.0
 40
30.0
  1
1.0ｍｍ
  7
明朝
 72
     4
 11
2721.500000000001
 21
1926.500000000001
 31
0.0
100
AcDbText
  0
TEXT
  5
AC6C
330
1F
100
AcDbEntity
  8
実形
 62
     0
100
AcDbText
 10
2311.016869107866
 20
1910.728571428572
 30
0.0
 40
30.0
  1
SUS304（HL）
  7
明朝
 72
     4
 11
2442.674011965009
 21
1926.500000000001
 31
0.0
100
AcDbText
  0
VIEWPORT
  5
2E
102
{ACAD_XDICTIONARY
360
ACA0
102
}
330
1B
100
AcDbEntity
 67
     1
  8
0
100
AcDbViewport
 10
144.7270812988281
 20
101.2295806407928
 30
0.0
 40
411.6736216682419
 41
222.1517806396485
 68
     1
 69
     1
 12
144.7270812988281
 22
101.2295806407928
 13
0.0
 23
0.0
 14
10.0
 24
10.0
 15
10.0
 25
10.0
 16
0.0
 26
0.0
 36
1.0
 17
0.0
 27
0.0
 37
0.0
 42
50.0
 43
0.0
 44
0.0
 45
222.1517806396485
 50
0.0
 51
0.0
 72
   100
 90
    32800
  1

281
     0
 71
     1
 74
     0
110
0.0
120
0.0
130
0.0
111
1.0
121
0.0
131
0.0
112
0.0
122
1.0
132
0.0
 79
     0
146
0.0
  0
VIEWPORT
  5
30
102
{ACAD_XDICTIONARY
360
ACA2
102
}
330
1B
100
AcDbEntity
 67
     1
  8
0
100
AcDbViewport
 10
139.2237563133239
 20
101.2295821905136
 30
0.0
 40
222.7580101013184
 41
161.9673315048218
 68
     2
 69
     2
 12
210.0
 22
148.5
 13
0.0
 23
0.0
 14
10.0
 24
10.0
 15
10.0
 25
10.0
 16
0.0
 26
0.0
 36
1.0
 17
0.0
 27
0.0
 37
0.0
 42
50.0
 43
0.0
 44
0.0
 45
309.0686705647124
 50
0.0
 51
0.0
 72
   100
 90
    32864
  1

281
     0
 71
     1
 74
     0
110
0.0
120
0.0
130
0.0
111
1.0
121
0.0
131
0.0
112
0.0
122
1.0
132
0.0
 79
     0
146
0.0
  0
ENDSEC
  0
SECTION
  2
OBJECTS
  0
DICTIONARY
  5
C
330
0
100
AcDbDictionary
281
     1
  3
ACAD_COLOR
350
22AD
  3
ACAD_GROUP
350
D
  3
ACAD_LAYOUT
350
1A
  3
ACAD_MATERIAL
350
22AC
  3
ACAD_MLINESTYLE
350
17
  3
ACAD_PLOTSETTINGS
350
19
  3
ACAD_PLOTSTYLENAME
350
E
  3
ACAD_TABLESTYLE
350
22AE
  3
AcadDim
350
A3A5
  3
ACDBHEADERROUNDTRIPXREC
350
AC99
  3
AcDbVariableDictionary
350
1589
  3
DWGPROPS
350
AC98
  0
DICTIONARY
  5
24C4
330
2
100
AcDbDictionary
280
     1
281
     1
  3
ACAD_LAYERFILTERS
360
6C37
  3
ACAD_LAYERSTATES
360
24C5
  3
ACLYDICTIONARY
360
6C36
  0
DICTIONARY
  5
2396
330
1F
100
AcDbDictionary
280
     1
281
     1
  3
ACAD_SORTENTS
360
2397
  0
DICTIONARY
  5
313E
330
313C
100
AcDbDictionary
280
     1
281
     1
  3
ACAD_SORTENTS
360
80F9
  0
DICTIONARY
  5
3848
330
3846
100
AcDbDictionary
280
     1
281
     1
  3
ACAD_SORTENTS
360
80FA
  0
DICTIONARY
  5
6B89
330
6B87
100
AcDbDictionary
280
     1
281
     1
  3
ACAD_SORTENTS
360
80FB
  0
DICTIONARY
  5
6C02
330
6C00
100
AcDbDictionary
280
     1
281
     1
  3
ACAD_SORTENTS
360
80FC
  0
DICTIONARY
  5
7758
330
7752
100
AcDbDictionary
280
     1
281
     1
  3
ACAD_SORTENTS
360
80FD
  0
DICTIONARY
  5
79A2
330
79A0
100
AcDbDictionary
280
     1
281
     1
  3
ACAD_SORTENTS
360
80FE
  0
DICTIONARY
  5
80F8
330
8065
100
AcDbDictionary
280
     1
281
     1
  3
ACAD_SORTENTS
360
80FF
  0
DICTIONARY
  5
9C43
330
9C3F
100
AcDbDictionary
280
     1
281
     1
  3
ACAD_SORTENTS
360
9C44
  0
DICTIONARY
  5
ACA0
330
2E
100
AcDbDictionary
280
     1
281
     1
  3
ACAD_XREC_ROUNDTRIP
360
ACA1
  0
DICTIONARY
  5
ACA2
330
30
100
AcDbDictionary
280
     1
281
     1
  3
ACAD_XREC_ROUNDTRIP
360
ACA3
  0
DICTIONARY
  5
22AD
102
{ACAD_REACTORS
330
C
102
}
330
C
100
AcDbDictionary
281
     1
  0
DICTIONARY
  5
D
102
{ACAD_REACTORS
330
C
102
}
330
C
100
AcDbDictionary
281
     1
  0
DICTIONARY
  5
1A
102
{ACAD_REACTORS
330
C
102
}
330
C
100
AcDbDictionary
281
     1
  3
Model
350
22
  3
ﾚｲｱｳﾄ1
350
1E
  3
ﾚｲｱｳﾄ2
350
26
  0
DICTIONARY
  5
22AC
102
{ACAD_REACTORS
330
C
102
}
330
C
100
AcDbDictionary
281
     1
  0
DICTIONARY
  5
17
102
{ACAD_REACTORS
330
C
102
}
330
C
100
AcDbDictionary
281
     1
  3
Standard
350
18
  0
DICTIONARY
  5
19
102
{ACAD_REACTORS
330
C
102
}
330
C
100
AcDbDictionary
281
     1
  0
ACDBDICTIONARYWDFLT
  5
E
102
{ACAD_REACTORS
330
C
102
}
330
C
100
AcDbDictionary
281
     1
  3
Normal
350
F
100
AcDbDictionaryWithDefault
340
F
  0
DICTIONARY
  5
22AE
102
{ACAD_REACTORS
330
C
102
}
330
C
100
AcDbDictionary
281
     1
  3
Standard
350
22AF
  0
XRECORD
  5
A3A5
102
{ACAD_REACTORS
330
C
102
}
330
C
100
AcDbXrecord
280
     1
 90
   990106
  3

 60
     0
 61
     0
 62
     1
 63
     3
 64
     0
 65
     0
 66
     0
 67
     3
 68
     1
 69
     0
 70
     0
 71
     0
 72
     0
 40
30.0
170
     0
  0
DICTIONARY
  5
AC99
102
{ACAD_REACTORS
330
C
102
}
330
C
100
AcDbDictionary
281
     1
  0
DICTIONARY
  5
1589
102
{ACAD_REACTORS
330
C
102
}
330
C
100
AcDbDictionary
281
     1
  3
CTABLESTYLE
350
22B5
  3
DIMASSOC
350
AC95
  3
PROJECTNAME
350
AC96
  3
SORTENTS
350
158A
  0
XRECORD
  5
AC98
102
{ACAD_REACTORS
330
C
102
}
330
C
100
AcDbXrecord
280
     1
  1
DWGPROPS COOKIE
  2

  3

  4

  6

  7

  8

  9

300
=
301
=
302
=
303
=
304
=
305
=
306
=
307
=
308
=
309
=
 40
2.793319097222222
 41
2451673.575802199
 42
2458808.790464826
  1

 90
        0
  0
DICTIONARY
  5
6C37
102
{ACAD_REACTORS
330
24C4
102
}
330
24C4
100
AcDbDictionary
281
     1
  0
DICTIONARY
  5
24C5
102
{ACAD_REACTORS
330
24C4
102
}
330
24C4
100
AcDbDictionary
281
     1
  0
DICTIONARY
  5
6C36
102
{ACAD_REACTORS
330
24C4
102
}
330
24C4
100
AcDbDictionary
281
     1
1001
ACAD
1000
<All
  0
SORTENTSTABLE
  5
2397
102
{ACAD_REACTORS
330
2396
102
}
330
2396
100
AcDbSortentsTable
330
1F
331
A584
  5
A586
331
A58C
  5
A58D
331
A594
  5
A595
331
A97E
  5
AA53
331
7180
  5
72AC
331
79B0
  5
8186
331
94DD
  5
7506
331
1B85
  5
1B91
331
9F72
  5
A01D
331
A59C
  5
A82B
331
AA57
  5
AA57
331
A565
  5
A565
331
A56D
  5
A56D
331
A575
  5
A575
331
A830
  5
A831
331
A838
  5
A839
331
79D8
  5
8187
331
7548
  5
717F
331
702A
  5
7029
331
1B8D
  5
1B98
331
8C1F
  5
72AB
331
1B95
  5
1BA7
331
7750
  5
7877
331
7102
  5
7775
331
A40E
  5
A40E
331
A57D
  5
A57E
331
A58D
  5
A58E
331
A595
  5
A596
331
94C6
  5
703F
331
6D9B
  5
1B7F
331
68BC
  5
6E31
331
94DE
  5
754A
331
1B86
  5
1B92
331
AA58
  5
AA58
331
A566
  5
A566
331
A56E
  5
A56E
331
A576
  5
A576
331
A831
  5
A832
331
A839
  5
A83A
331
A841
  5
A842
331
786A
  5
817A
331
7549
  5
7181
331
9DC5
  5
9F74
331
702B
  5
7132
331
1B8E
  5
1B99
331
8C20
  5
7078
331
1B96
  5
1BA8
331
7751
  5
78E7
331
7172
  5
7796
331
7C3F
  5
70F5
331
A57E
  5
A57F
331
A586
  5
A587
331
A417
  5
A417
331
A58E
  5
A58F
331
A596
  5
A597
331
A978
  5
A979
331
94C7
  5
7032
331
7133
  5
7776
331
1B87
  5
1B93
331
9F74
  5
A026
331
A55F
  5
A55F
331
A567
  5
A567
331
A2B1
  5
A3A2
331
A56F
  5
A56F
331
A577
  5
A577
331
A832
  5
A833
331
A83A
  5
A83B
331
A842
  5
A843
331
702C
  5
729C
331
9977
  5
9A03
331
1B8F
  5
1B9B
331
754A
  5
7133
331
1B97
  5
37FF
331
7C40
  5
8194
331
A57F
  5
A580
331
A587
  5
A588
331
A418
  5
A418
331
A58F
  5
A590
331
A597
  5
A598
331
A979
  5
A97A
331
94C8
  5
70D5
331
7183
  5
7798
331
734B
  5
77E0
331
9F75
  5
A0A7
331
A560
  5
A560
331
A2B2
  5
A3A3
331
A014
  5
A16B
331
A568
  5
A568
331
A570
  5
A570
331
A82B
  5
A82C
331
A833
  5
A834
331
A83B
  5
A83C
331
1B88
  5
1B94
331
A843
  5
A978
331
702D
  5
7316
331
68D6
  5
7026
331
8C1A
  5
734B
331
1B90
  5
1B9C
331
8FE9
  5
91C7
331
1B98
  5
604B
331
70F5
  5
7774
331
A578
  5
A578
331
A580
  5
A581
331
A588
  5
A589
331
A590
  5
A591
331
A97A
  5
A97B
331
272
  5
1B8E
331
7184
  5
77A5
331
5E5F
  5
6D9A
331
7026
  5
7028
331
AA53
  5
AA54
331
A598
  5
A599
331
A561
  5
A561
331
A569
  5
A569
331
A571
  5
A571
331
A402
  5
7771
331
A01D
  5
A16C
331
A82C
  5
A82D
331
A834
  5
A835
331
A83C
  5
A83D
331
702E
  5
734A
331
1B91
  5
1B9D
331
754C
  5
702A
331
1B99
  5
634E
331
8C23
  5
91C3
331
A579
  5
A579
331
A581
  5
A582
331
A589
  5
A58A
331
A591
  5
A592
331
A97B
  5
A97C
331
799D
  5
817E
331
7185
  5
77AF
331
5E68
  5
6E28
331
72ED
  5
77BC
331
785C
  5
7C40
331
7027
  5
7102
331
A599
  5
A59A
331
A562
  5
A562
331
A56A
  5
A56A
331
A3CB
  5
1B74
331
A572
  5
A572
331
A403
  5
7086
331
A82D
  5
A82E
331
A83D
  5
A83E
331
1B8A
  5
1B95
331
8FD3
  5
91C5
331
754D
  5
7772
331
702F
  5
702E
331
1B92
  5
1BA1
331
7BEB
  5
70DF
331
774D
  5
7845
331
7A0D
  5
818A
331
7BA4
  5
818F
331
A026
  5
A16D
331
A57A
  5
A57A
331
A582
  5
A583
331
A58A
  5
A58B
331
A592
  5
A593
331
A97C
  5
A97D
331
9A8A
  5
9C51
331
782D
  5
754B
331
1B73
  5
1B8F
331
8F2C
  5
91C4
331
799E
  5
8182
331
7BCC
  5
8192
331
7A4D
  5
818D
331
73F6
  5
7844
331
9F70
  5
9F75
331
AA55
  5
AA56
331
A59A
  5
A59B
331
A563
  5
A563
331
A56B
  5
A56B
331
A573
  5
A573
331
A82E
  5
A82F
331
A836
  5
A837
331
A83E
  5
A83F
331
7028
  5
7298
331
1B8B
  5
1B96
331
754E
  5
7323
331
7030
  5
7180
331
1B93
  5
1BA2
331
774E
  5
785C
331
99F3
  5
9A93
331
7877
  5
817B
331
99FB
  5
9C11
331
A0A7
  5
A16E
331
A583
  5
A584
331
A58B
  5
A58C
331
A593
  5
A594
331
A0
  5
1B7C
331
A97D
  5
A97E
331
7A2E
  5
818B
331
9A93
  5
9C52
331
799F
  5
8185
331
6E31
  5
1B7B
331
1B84
  5
1B90
331
9F71
  5
A014
331
AA56
  5
A57C
331
A59B
  5
A59C
331
A564
  5
A564
331
A56C
  5
A56C
331
A574
  5
A574
331
A82F
  5
A830
331
A837
  5
A838
331
A83F
  5
A840
331
7140
  5
7777
331
7029
  5
72EE
331
1B8C
  5
1B97
331
7031
  5
729D
331
1B94
  5
1BA6
331
99AC
  5
9A8A
331
8C1E
  5
7549
331
774F
  5
786A
331
7B4E
  5
818E
331
A40D
  5
A40D
331
A57C
  5
A57D
  0
SORTENTSTABLE
  5
80F9
102
{ACAD_REACTORS
330
313E
102
}
330
313E
100
AcDbSortentsTable
330
313C
  0
SORTENTSTABLE
  5
80FA
102
{ACAD_REACTORS
330
3848
102
}
330
3848
100
AcDbSortentsTable
330
3846
  0
SORTENTSTABLE
  5
80FB
102
{ACAD_REACTORS
330
6B89
102
}
330
6B89
100
AcDbSortentsTable
330
6B87
  0
SORTENTSTABLE
  5
80FC
102
{ACAD_REACTORS
330
6C02
102
}
330
6C02
100
AcDbSortentsTable
330
6C00
  0
SORTENTSTABLE
  5
80FD
102
{ACAD_REACTORS
330
7758
102
}
330
7758
100
AcDbSortentsTable
330
7752
  0
SORTENTSTABLE
  5
80FE
102
{ACAD_REACTORS
330
79A2
102
}
330
79A2
100
AcDbSortentsTable
330
79A0
  0
SORTENTSTABLE
  5
80FF
102
{ACAD_REACTORS
330
80F8
102
}
330
80F8
100
AcDbSortentsTable
330
8065
331
8071
  5
8074
331
80A8
  5
80B7
331
80EF
  5
80F2
331
80B0
  5
80C0
331
8079
  5
807C
331
80B8
  5
80B0
331
8081
  5
8084
331
80C0
  5
80CC
331
8089
  5
8068
331
80C8
  5
80CE
331
80D0
  5
80D6
331
8091
  5
809D
331
8099
  5
80A6
331
80D8
  5
80DE
331
80E0
  5
80E3
331
806A
  5
806D
331
80A1
  5
80B5
331
80E8
  5
80EB
331
8072
  5
8075
331
80A9
  5
80B9
331
80B1
  5
80C1
331
807A
  5
807D
331
80F0
  5
80F3
331
80B9
  5
80C8
331
8082
  5
8085
331
80C1
  5
80CD
331
80C9
  5
80CF
331
80D1
  5
80D7
331
8092
  5
809F
331
809A
  5
80A7
331
80D9
  5
8090
331
80E1
  5
80E4
331
806B
  5
806E
331
80A2
  5
80AD
331
80E9
  5
80EC
331
8073
  5
8076
331
80AA
  5
80BA
331
80B2
  5
80C2
331
807B
  5
807E
331
80F1
  5
80F4
331
80BA
  5
80B4
331
8083
  5
8086
331
80C2
  5
8095
331
808B
  5
8092
331
80CA
  5
80D0
331
80D2
  5
80D8
331
8093
  5
808D
331
809B
  5
80A8
331
80DA
  5
80DF
331
80E2
  5
80E5
331
806C
  5
806F
331
80A3
  5
80B1
331
80EA
  5
80ED
331
8074
  5
8077
331
80AB
  5
80BB
331
80B3
  5
80C3
331
807C
  5
807F
331
80F2
  5
80F5
331
80BB
  5
80C9
331
8084
  5
8087
331
80C3
  5
8097
331
808C
  5
8098
331
80CB
  5
80D1
331
80D3
  5
80D9
331
8094
  5
8096
331
809C
  5
80A9
331
80DB
  5
80E0
331
80E3
  5
80E6
331
806D
  5
8070
331
80A4
  5
80B8
331
80EB
  5
80EE
331
8075
  5
8078
331
80AC
  5
80BC
331
80B4
  5
80C4
331
807D
  5
8080
331
80F3
  5
80F6
331
80BC
  5
80CA
331
8085
  5
8088
331
80C4
  5
8094
331
80CC
  5
80D2
331
808D
  5
809C
331
80D4
  5
80DA
331
8095
  5
809A
331
809D
  5
809B
331
80DC
  5
80A0
331
80E4
  5
80E7
331
806E
  5
8071
331
80A5
  5
80AE
331
80EC
  5
80EF
331
8076
  5
8079
331
80AD
  5
80BD
331
80B5
  5
80C6
331
807E
  5
8081
331
80F4
  5
808E
331
80BD
  5
80B3
331
8086
  5
8089
331
80C5
  5
808C
331
808E
  5
808B
331
80CD
  5
80D3
331
80D5
  5
80DB
331
8096
  5
80A3
331
809E
  5
80AA
331
80DD
  5
80A1
331
80E5
  5
80E8
331
806F
  5
8072
331
80A6
  5
80B2
331
80ED
  5
80F0
331
8077
  5
807A
331
80AE
  5
80BE
331
80B6
  5
80C5
331
807F
  5
8082
331
80F5
  5
8091
331
80BE
  5
80AF
331
8087
  5
806B
331
80C6
  5
80A2
331
808F
  5
8093
331
80CE
  5
80D4
331
80D6
  5
80DC
331
8097
  5
80A4
331
8068
  5
8069
331
809F
  5
80AB
331
80DE
  5
80E1
331
80E6
  5
80E9
331
80A7
  5
80B6
331
8070
  5
8073
331
80EE
  5
80F1
331
80AF
  5
80BF
331
8078
  5
807B
331
80B7
  5
80C7
331
8080
  5
8083
331
80F6
  5
808F
331
80BF
  5
80CB
331
80C7
  5
809E
331
8088
  5
806A
331
8090
  5
8099
331
80CF
  5
80D5
331
8098
  5
80A5
331
80D7
  5
80DD
331
8069
  5
806C
331
80A0
  5
80AC
331
80DF
  5
80E2
331
80E7
  5
80EA
  0
SORTENTSTABLE
  5
9C44
102
{ACAD_REACTORS
330
9C43
102
}
330
9C43
100
AcDbSortentsTable
330
9C3F
  0
XRECORD
  5
ACA1
102
{ACAD_REACTORS
330
ACA0
102
}
330
ACA0
100
AcDbXrecord
280
     1
102
SHADEPLOT
 70
     0
  0
XRECORD
  5
ACA3
102
{ACAD_REACTORS
330
ACA2
102
}
330
ACA2
100
AcDbXrecord
280
     1
102
SHADEPLOT
 70
     0
  0
LAYOUT
  5
22
102
{ACAD_XDICTIONARY
360
AC9C
102
}
102
{ACAD_REACTORS
330
1A
102
}
330
1A
100
AcDbPlotSettings
  1

  2
EPSON PM-800C
  4
A4
  6

 40
3.757083177566528
 41
14.7637300491333
 42
3.757080078125
 43
3.757080078125
 44
209.9733276367187
 45
296.9683227539062
 46
0.0
 47
0.0
 48
0.0
 49
0.0
140
0.0
141
0.0
142
1.0
143
10.0
 70
 11952
 72
     1
 73
     1
 74
     2
  7

 75
    20
147
0.1
148
0.0
149
0.0
100
AcDbLayout
  1
Model
 70
     1
 71
     0
 10
0.0
 20
0.0
 11
12.0
 21
9.0
 12
0.0
 22
0.0
 32
0.0
 14
0.0
 24
0.0
 34
0.0
 15
0.0
 25
0.0
 35
0.0
146
0.0
 13
0.0
 23
0.0
 33
0.0
 16
1.0
 26
0.0
 36
0.0
 17
0.0
 27
1.0
 37
0.0
 76
     0
330
1F
  0
LAYOUT
  5
1E
102
{ACAD_XDICTIONARY
360
AC9A
102
}
102
{ACAD_REACTORS
330
1A
102
}
330
1A
100
AcDbPlotSettings
  1

  2
EPSON PM-800C
  4
A4
  6

 40
3.757083177566528
 41
14.7637300491333
 42
3.757080078125
 43
3.757080078125
 44
209.9733276367187
 45
296.9683227539062
 46
0.0
 47
0.0
 48
0.0
 49
0.0
140
0.0
141
0.0
142
1.0
143
1.0
 70
   688
 72
     1
 73
     1
 74
     5
  7

 75
    16
147
1.0
148
0.0
149
0.0
100
AcDbLayout
  1
ﾚｲｱｳﾄ1
 70
     1
 71
     1
 10
-3.757080078125
 20
-3.757083177566528
 11
293.2112426757813
 21
206.2162444591522
 12
0.0
 22
0.0
 32
0.0
 14
27.8447512626648
 24
20.24591643810271
 34
0.0
 15
250.6027613639831
 25
182.2132479429245
 35
0.0
146
0.0
 13
0.0
 23
0.0
 33
0.0
 16
1.0
 26
0.0
 36
0.0
 17
0.0
 27
1.0
 37
0.0
 76
     0
330
1B
331
2E
  0
LAYOUT
  5
26
102
{ACAD_XDICTIONARY
360
AC9E
102
}
102
{ACAD_REACTORS
330
1A
102
}
330
1A
100
AcDbPlotSettings
  1

  2
EPSON PM-800C
  4

  6

 40
0.0
 41
0.0
 42
0.0
 43
0.0
 44
0.0
 45
0.0
 46
0.0
 47
0.0
 48
0.0
 49
0.0
140
0.0
141
0.0
142
1.0
143
1.0
 70
   688
 72
     0
 73
     0
 74
     5
  7

 75
    16
147
1.0
148
0.0
149
0.0
100
AcDbLayout
  1
ﾚｲｱｳﾄ2
 70
     1
 71
     2
 10
0.0
 20
0.0
 11
12.0
 21
9.0
 12
0.0
 22
0.0
 32
0.0
 14
0.0
 24
0.0
 34
0.0
 15
0.0
 25
0.0
 35
0.0
146
0.0
 13
0.0
 23
0.0
 33
0.0
 16
1.0
 26
0.0
 36
0.0
 17
0.0
 27
1.0
 37
0.0
 76
     0
330
23
  0
MLINESTYLE
  5
18
102
{ACAD_REACTORS
330
17
102
}
330
17
100
AcDbMlineStyle
  2
STANDARD
 70
     0
  3

 62
   256
 51
90.0
 52
90.0
 71
     2
 49
0.5
 62
   256
  6
BYLAYER
 49
-0.5
 62
   256
  6
BYLAYER
  0
ACDBPLACEHOLDER
  5
F
102
{ACAD_REACTORS
330
E
102
}
330
E
  0
TABLESTYLE
  5
22AF
102
{ACAD_REACTORS
330
22AE
102
}
330
22AE
100
AcDbTableStyle
  3
Standard
 70
     0
 71
     0
 40
1.5
 41
1.5
280
     0
281
     0
  7
Standard
140
4.5
170
     2
 62
     0
 63
     7
283
     0
274
    -2
284
     1
 64
     0
275
    -2
285
     1
 65
     0
276
    -2
286
     1
 66
     0
277
    -2
287
     1
 67
     0
278
    -2
288
     1
 68
     0
279
    -2
289
     1
 69
     0
  7
Standard
140
6.0
170
     5
 62
     0
 63
     7
283
     0
274
    -2
284
     1
 64
     0
275
    -2
285
     1
 65
     0
276
    -2
286
     1
 66
     0
277
    -2
287
     1
 67
     0
278
    -2
288
     1
 68
     0
279
    -2
289
     1
 69
     0
  7
Standard
140
4.5
170
     5
 62
     0
 63
     7
283
     0
274
    -2
284
     1
 64
     0
275
    -2
285
     1
 65
     0
276
    -2
286
     1
 66
     0
277
    -2
287
     1
 67
     0
278
    -2
288
     1
 68
     0
279
    -2
289
     1
 69
     0
  0
DICTIONARYVAR
  5
22B5
102
{ACAD_REACTORS
330
1589
102
}
330
1589
100
DictionaryVariables
280
     0
  1
STANDARD
  0
DICTIONARYVAR
  5
AC95
102
{ACAD_REACTORS
330
1589
102
}
330
1589
100
DictionaryVariables
280
     0
  1
1
  0
DICTIONARYVAR
  5
AC96
102
{ACAD_REACTORS
330
1589
102
}
330
1589
100
DictionaryVariables
280
     0
  1

  0
DICTIONARYVAR
  5
158A
102
{ACAD_REACTORS
330
1589
102
}
330
1589
100
DictionaryVariables
280
     0
  1
96
  0
DICTIONARY
  5
AC9C
330
22
100
AcDbDictionary
280
     1
281
     1
  3
ACAD_XREC_ROUNDTRIP
360
AC9D
  0
DICTIONARY
  5
AC9A
330
1E
100
AcDbDictionary
280
     1
281
     1
  3
ACAD_XREC_ROUNDTRIP
360
AC9B
  0
DICTIONARY
  5
AC9E
330
26
100
AcDbDictionary
280
     1
281
     1
  3
ACAD_XREC_ROUNDTRIP
360
AC9F
  0
XRECORD
  5
AC9D
102
{ACAD_REACTORS
330
AC9C
102
}
330
AC9C
100
AcDbXrecord
280
     1
102
SHADEPLOT
 70
     0
102
SHADEPLOTRESLEVEL
 70
     2
102
SHADEPLOTCUSTOMDPI
 70
   300
  0
XRECORD
  5
AC9B
102
{ACAD_REACTORS
330
AC9A
102
}
330
AC9A
100
AcDbXrecord
280
     1
102
SHADEPLOT
 70
     0
102
SHADEPLOTRESLEVEL
 70
     2
102
SHADEPLOTCUSTOMDPI
 70
   300
  0
XRECORD
  5
AC9F
102
{ACAD_REACTORS
330
AC9E
102
}
330
AC9E
100
AcDbXrecord
280
     1
102
SHADEPLOT
 70
     0
102
SHADEPLOTRESLEVEL
 70
     2
102
SHADEPLOTCUSTOMDPI
 70
   300
  0
ENDSEC
  0
EOF
